  0
SECTION
  2
HEADER
  9
$ACADVER
  1
AC1018
  9
$ACADMAINTVER
 70
     0
  9
$DWGCODEPAGE
  3
ANSI_1252
  9
$INSBASE
 10
0.0
 20
0.0
 30
0.0
  9
$EXTMIN
 10
-62.77891490216689
 20
-68.0616509167381
 30
0.0
  9
$EXTMAX
 10
103.428369725884
 20
64.00404825176804
 30
0.0
  9
$LIMMIN
 10
0.0
 20
0.0
  9
$LIMMAX
 10
12.0
 20
9.0
  9
$ORTHOMODE
 70
     0
  9
$REGENMODE
 70
     1
  9
$FILLMODE
 70
     1
  9
$QTEXTMODE
 70
     0
  9
$MIRRTEXT
 70
     1
  9
$LTSCALE
 40
1.0
  9
$ATTMODE
 70
     1
  9
$TEXTSIZE
 40
0.2
  9
$TRACEWID
 40
0.05
  9
$TEXTSTYLE
  7
Standard
  9
$CLAYER
  8
0
  9
$CELTYPE
  6
ByLayer
  9
$CECOLOR
 62
   256
  9
$CELTSCALE
 40
1.0
  9
$DISPSILH
 70
     0
  9
$DIMSCALE
 40
1.0
  9
$DIMASZ
 40
0.18
  9
$DIMEXO
 40
0.0625
  9
$DIMDLI
 40
0.38
  9
$DIMRND
 40
0.0
  9
$DIMDLE
 40
0.0
  9
$DIMEXE
 40
0.18
  9
$DIMTP
 40
0.0
  9
$DIMTM
 40
0.0
  9
$DIMTXT
 40
0.18
  9
$DIMCEN
 40
0.09
  9
$DIMTSZ
 40
0.0
  9
$DIMTOL
 70
     0
  9
$DIMLIM
 70
     0
  9
$DIMTIH
 70
     1
  9
$DIMTOH
 70
     1
  9
$DIMSE1
 70
     0
  9
$DIMSE2
 70
     0
  9
$DIMTAD
 70
     0
  9
$DIMZIN
 70
     0
  9
$DIMBLK
  1

  9
$DIMASO
 70
     1
  9
$DIMSHO
 70
     1
  9
$DIMPOST
  1

  9
$DIMAPOST
  1

  9
$DIMALT
 70
     0
  9
$DIMALTD
 70
     2
  9
$DIMALTF
 40
25.4
  9
$DIMLFAC
 40
1.0
  9
$DIMTOFL
 70
     0
  9
$DIMTVP
 40
0.0
  9
$DIMTIX
 70
     0
  9
$DIMSOXD
 70
     0
  9
$DIMSAH
 70
     0
  9
$DIMBLK1
  1

  9
$DIMBLK2
  1

  9
$DIMSTYLE
  2
Standard
  9
$DIMCLRD
 70
     0
  9
$DIMCLRE
 70
     0
  9
$DIMCLRT
 70
     0
  9
$DIMTFAC
 40
1.0
  9
$DIMGAP
 40
0.09
  9
$DIMJUST
 70
     0
  9
$DIMSD1
 70
     0
  9
$DIMSD2
 70
     0
  9
$DIMTOLJ
 70
     1
  9
$DIMTZIN
 70
     0
  9
$DIMALTZ
 70
     0
  9
$DIMALTTZ
 70
     0
  9
$DIMUPT
 70
     0
  9
$DIMDEC
 70
     4
  9
$DIMTDEC
 70
     4
  9
$DIMALTU
 70
     2
  9
$DIMALTTD
 70
     2
  9
$DIMTXSTY
  7
Standard
  9
$DIMAUNIT
 70
     0
  9
$DIMADEC
 70
     0
  9
$DIMALTRND
 40
0.0
  9
$DIMAZIN
 70
     0
  9
$DIMDSEP
 70
    46
  9
$DIMATFIT
 70
     3
  9
$DIMFRAC
 70
     0
  9
$DIMLDRBLK
  1

  9
$DIMLUNIT
 70
     2
  9
$DIMLWD
 70
    -2
  9
$DIMLWE
 70
    -2
  9
$DIMTMOVE
 70
     0
  9
$LUNITS
 70
     2
  9
$LUPREC
 70
     4
  9
$SKETCHINC
 40
0.1
  9
$FILLETRAD
 40
0.5
  9
$AUNITS
 70
     0
  9
$AUPREC
 70
     0
  9
$MENU
  1
.
  9
$ELEVATION
 40
0.0
  9
$PELEVATION
 40
0.0
  9
$THICKNESS
 40
0.0
  9
$LIMCHECK
 70
     0
  9
$CHAMFERA
 40
0.5
  9
$CHAMFERB
 40
0.5
  9
$CHAMFERC
 40
1.0
  9
$CHAMFERD
 40
0.0
  9
$SKPOLY
 70
     0
  9
$TDCREATE
 40
2454483.366596319
  9
$TDUCREATE
 40
2454483.324929653
  9
$TDUPDATE
 40
2454483.366596331
  9
$TDUUPDATE
 40
2454483.324929664
  9
$TDINDWG
 40
0.0000000116
  9
$TDUSRTIMER
 40
0.0000000116
  9
$USRTIMER
 70
     1
  9
$ANGBASE
 50
0.0
  9
$ANGDIR
 70
     0
  9
$PDMODE
 70
     0
  9
$PDSIZE
 40
0.0
  9
$PLINEWID
 40
0.0
  9
$SPLFRAME
 70
     0
  9
$SPLINETYPE
 70
     6
  9
$SPLINESEGS
 70
     8
  9
$HANDSEED
  5
15B
  9
$SURFTAB1
 70
     6
  9
$SURFTAB2
 70
     6
  9
$SURFTYPE
 70
     6
  9
$SURFU
 70
     6
  9
$SURFV
 70
     6
  9
$UCSBASE
  2

  9
$UCSNAME
  2

  9
$UCSORG
 10
0.0
 20
0.0
 30
0.0
  9
$UCSXDIR
 10
1.0
 20
0.0
 30
0.0
  9
$UCSYDIR
 10
0.0
 20
1.0
 30
0.0
  9
$UCSORTHOREF
  2

  9
$UCSORTHOVIEW
 70
     0
  9
$UCSORGTOP
 10
0.0
 20
0.0
 30
0.0
  9
$UCSORGBOTTOM
 10
0.0
 20
0.0
 30
0.0
  9
$UCSORGLEFT
 10
0.0
 20
0.0
 30
0.0
  9
$UCSORGRIGHT
 10
0.0
 20
0.0
 30
0.0
  9
$UCSORGFRONT
 10
0.0
 20
0.0
 30
0.0
  9
$UCSORGBACK
 10
0.0
 20
0.0
 30
0.0
  9
$PUCSBASE
  2

  9
$PUCSNAME
  2

  9
$PUCSORG
 10
0.0
 20
0.0
 30
0.0
  9
$PUCSXDIR
 10
1.0
 20
0.0
 30
0.0
  9
$PUCSYDIR
 10
0.0
 20
1.0
 30
0.0
  9
$PUCSORTHOREF
  2

  9
$PUCSORTHOVIEW
 70
     0
  9
$PUCSORGTOP
 10
0.0
 20
0.0
 30
0.0
  9
$PUCSORGBOTTOM
 10
0.0
 20
0.0
 30
0.0
  9
$PUCSORGLEFT
 10
0.0
 20
0.0
 30
0.0
  9
$PUCSORGRIGHT
 10
0.0
 20
0.0
 30
0.0
  9
$PUCSORGFRONT
 10
0.0
 20
0.0
 30
0.0
  9
$PUCSORGBACK
 10
0.0
 20
0.0
 30
0.0
  9
$USERI1
 70
     0
  9
$USERI2
 70
     0
  9
$USERI3
 70
     0
  9
$USERI4
 70
     0
  9
$USERI5
 70
     0
  9
$USERR1
 40
14.5
  9
$USERR2
 40
0.0
  9
$USERR3
 40
0.0
  9
$USERR4
 40
0.0
  9
$USERR5
 40
0.0
  9
$WORLDVIEW
 70
     1
  9
$SHADEDGE
 70
     3
  9
$SHADEDIF
 70
    70
  9
$TILEMODE
 70
     1
  9
$MAXACTVP
 70
    64
  9
$PINSBASE
 10
0.0
 20
0.0
 30
0.0
  9
$PLIMCHECK
 70
     0
  9
$PEXTMIN
 10
1.00000000000000E+20
 20
1.00000000000000E+20
 30
1.00000000000000E+20
  9
$PEXTMAX
 10
-1.00000000000000E+20
 20
-1.00000000000000E+20
 30
-1.00000000000000E+20
  9
$PLIMMIN
 10
0.0
 20
0.0
  9
$PLIMMAX
 10
12.0
 20
9.0
  9
$UNITMODE
 70
     0
  9
$VISRETAIN
 70
     1
  9
$PLINEGEN
 70
     0
  9
$PSLTSCALE
 70
     1
  9
$TREEDEPTH
 70
  3020
  9
$CMLSTYLE
  2
Standard
  9
$CMLJUST
 70
     0
  9
$CMLSCALE
 40
1.0
  9
$PROXYGRAPHICS
 70
     1
  9
$MEASUREMENT
 70
     1
  9
$CELWEIGHT
370
    -1
  9
$ENDCAPS
280
     0
  9
$JOINSTYLE
280
     0
  9
$LWDISPLAY
290
     0
  9
$INSUNITS
 70
     1
  9
$HYPERLINKBASE
  1

  9
$STYLESHEET
  1

  9
$XEDIT
290
     1
  9
$CEPSNTYPE
380
     0
  9
$PSTYLEMODE
290
     1
  9
$FINGERPRINTGUID
  2
{43212D3D-6920-478C-BB68-8E6EE01A4328}
  9
$VERSIONGUID
  2
{FAEB1C32-E019-11D5-929B-00C0DF256EC4}
  9
$EXTNAMES
290
     1
  9
$PSVPSCALE
 40
0.0
  9
$OLESTARTUP
290
     0
  9
$SORTENTS
280
   127
  9
$INDEXCTL
280
     0
  9
$HIDETEXT
280
     1
  9
$XCLIPFRAME
290
     0
  9
$HALOGAP
280
     0
  9
$OBSCOLOR
 70
   257
  9
$OBSLTYPE
280
     0
  9
$INTERSECTIONDISPLAY
280
     0
  9
$INTERSECTIONCOLOR
 70
   257
  9
$DIMASSOC
280
     2
  9
$PROJECTNAME
  1

  0
ENDSEC
  0
SECTION
  2
CLASSES
  0
CLASS
  1
ACDBDICTIONARYWDFLT
  2
AcDbDictionaryWithDefault
  3
ObjectDBX Classes
 90
        0
 91
        3
280
     0
281
     0
  0
ENDSEC
  0
SECTION
  2
TABLES
  0
TABLE
  2
VPORT
  5
8
330
0
100
AcDbSymbolTable
 70
     1
  0
VPORT
  5
29
330
8
100
AcDbSymbolTableRecord
100
AcDbViewportTableRecord
  2
*Active
 70
     0
 10
0.0
 20
0.0
 11
1.0
 21
1.0
 12
20.32472741185855
 22
-2.02880133248503
 13
0.0
 23
0.0
 14
0.5
 24
0.5
 15
0.5
 25
0.5
 16
0.0
 26
0.0
 36
1.0
 17
0.0
 27
0.0
 37
0.0
 40
145.2722690853568
 41
1.60267857142857
 42
50.0
 43
0.0
 44
0.0
 50
0.0
 51
0.0
 71
     0
 72
   100
 73
     1
 74
     3
 75
     0
 76
     0
 77
     0
 78
     0
281
     0
 65
     1
110
0.0
120
0.0
130
0.0
111
1.0
121
0.0
131
0.0
112
0.0
122
1.0
132
0.0
 79
     0
146
0.0
  0
ENDTAB
  0
TABLE
  2
LTYPE
  5
5
330
0
100
AcDbSymbolTable
 70
     8
  0
LTYPE
  5
14
330
5
100
AcDbSymbolTableRecord
100
AcDbLinetypeTableRecord
  2
ByBlock
 70
     0
  3

 72
    65
 73
     0
 40
0.0
  0
LTYPE
  5
15
330
5
100
AcDbSymbolTableRecord
100
AcDbLinetypeTableRecord
  2
ByLayer
 70
     0
  3

 72
    65
 73
     0
 40
0.0
  0
LTYPE
  5
16
330
5
100
AcDbSymbolTableRecord
100
AcDbLinetypeTableRecord
  2
Continuous
 70
     0
  3
Solid line
 72
    65
 73
     0
 40
0.0
  0
LTYPE
  5
2A
330
5
100
AcDbSymbolTableRecord
100
AcDbLinetypeTableRecord
  2
DASHED
 70
     0
  3
Dashed
 72
    65
 73
     2
 40
15.0
 49
7.0
 74
     0
 49
-8.0
 74
     0
  0
LTYPE
  5
2B
330
5
100
AcDbSymbolTableRecord
100
AcDbLinetypeTableRecord
  2
DOTTED
 70
     0
  3
Dotted
 72
    65
 73
     2
 40
1.0
 49
0.0
 74
     0
 49
-1.0
 74
     0
  0
LTYPE
  5
2C
330
5
100
AcDbSymbolTableRecord
100
AcDbLinetypeTableRecord
  2
DOT_CENTER
 70
     0
  3
Dot_Center
 72
    65
 73
     4
 40
14.0
 49
12.0
 74
     0
 49
-1.0
 74
     0
 49
0.0
 74
     0
 49
-1.0
 74
     0
  0
LTYPE
  5
2D
330
5
100
AcDbSymbolTableRecord
100
AcDbLinetypeTableRecord
  2
LONG_DASHED
 70
     0
  3
Long_Dashed
 72
    65
 73
     2
 40
15.0
 49
10.0
 74
     0
 49
-5.0
 74
     0
  0
LTYPE
  5
2E
330
5
100
AcDbSymbolTableRecord
100
AcDbLinetypeTableRecord
  2
DASH_CENTER
 70
     0
  3
Dash_Center
 72
    65
 73
     4
 40
14.0
 49
11.0
 74
     0
 49
-1.0
 74
     0
 49
1.0
 74
     0
 49
-1.0
 74
     0
  0
LTYPE
  5
2F
330
5
100
AcDbSymbolTableRecord
100
AcDbLinetypeTableRecord
  2
PHANTOM
 70
     0
  3
Phantom
 72
    65
 73
     6
 40
13.0
 49
10.0
 74
     0
 49
-1.0
 74
     0
 49
0.0
 74
     0
 49
-1.0
 74
     0
 49
0.0
 74
     0
 49
-1.0
 74
     0
  0
LTYPE
  5
30
330
5
100
AcDbSymbolTableRecord
100
AcDbLinetypeTableRecord
  2
CENTER_DASH_DASH
 70
     0
  3
Center_Dash_Dash
 72
    65
 73
     6
 40
14.0
 49
9.0
 74
     0
 49
-1.0
 74
     0
 49
1.0
 74
     0
 49
-1.0
 74
     0
 49
1.0
 74
     0
 49
-1.0
 74
     0
  0
ENDTAB
  0
TABLE
  2
LAYER
  5
2
330
0
100
AcDbSymbolTable
 70
     3
  0
LAYER
  5
10
330
2
100
AcDbSymbolTableRecord
100
AcDbLayerTableRecord
  2
0
 70
     0
 62
     7
  6
Continuous
370
    -3
390
F
  0
LAYER
  5
31
330
2
100
AcDbSymbolTableRecord
100
AcDbLayerTableRecord
  2
1
 70
     0
 62
     7
  6
Continuous
370
    -3
390
F
  0
LAYER
  5
32
330
2
100
AcDbSymbolTableRecord
100
AcDbLayerTableRecord
  2
3
 70
     0
 62
     7
  6
Continuous
370
    -3
390
F
  0
ENDTAB
  0
TABLE
  2
STYLE
  5
3
330
0
100
AcDbSymbolTable
 70
     2
  0
STYLE
  5
11
330
3
100
AcDbSymbolTableRecord
100
AcDbTextStyleTableRecord
  2
Standard
 70
     0
 40
0.0
 41
1.0
 50
0.0
 71
     0
 42
0.2
  3
txt
  4

  0
STYLE
  5
E1
330
3
100
AcDbSymbolTableRecord
100
AcDbTextStyleTableRecord
  2
CONVERTER_11
 70
     0
 40
0.0
 41
0.9
 50
0.0
 71
     0
 42
0.2
  3
txt.shx
  4

  0
ENDTAB
  0
TABLE
  2
VIEW
  5
6
330
0
100
AcDbSymbolTable
 70
     0
  0
ENDTAB
  0
TABLE
  2
UCS
  5
7
330
0
100
AcDbSymbolTable
 70
     0
  0
ENDTAB
  0
TABLE
  2
APPID
  5
9
330
0
100
AcDbSymbolTable
 70
     1
  0
APPID
  5
12
330
9
100
AcDbSymbolTableRecord
100
AcDbRegAppTableRecord
  2
ACAD
 70
     0
  0
ENDTAB
  0
TABLE
  2
DIMSTYLE
  5
A
330
0
100
AcDbSymbolTable
 70
    12
100
AcDbDimStyleTable
  0
DIMSTYLE
105
27
330
A
100
AcDbSymbolTableRecord
100
AcDbDimStyleTableRecord
  2
Standard
 70
     0
340
11
  0
DIMSTYLE
105
E5
102
{ACAD_REACTORS
330
E6
102
}
330
A
100
AcDbSymbolTableRecord
100
AcDbDimStyleTableRecord
  2
ME10_DIM_10
 70
     0
 41
3.5
 42
0.0
 44
2.0
 73
     0
 74
     0
 77
     1
 78
     8
140
3.5
147
2.0
172
     1
173
     1
176
     2
177
     2
178
     2
271
     3
340
E1
  0
DIMSTYLE
105
F0
102
{ACAD_REACTORS
330
F1
102
}
330
A
100
AcDbSymbolTableRecord
100
AcDbDimStyleTableRecord
  2
ME10_DIM_11
 70
     0
 41
3.5
 42
0.0
 44
2.0
 73
     0
 74
     0
 77
     1
 78
     8
140
3.5
147
2.0
172
     1
173
     1
176
     2
177
     2
178
     2
271
     2
340
E1
  0
DIMSTYLE
105
FB
102
{ACAD_REACTORS
330
FC
102
}
330
A
100
AcDbSymbolTableRecord
100
AcDbDimStyleTableRecord
  2
ME10_DIM_12
 70
     0
 41
3.5
 42
0.0
 44
2.0
 73
     0
 74
     0
 77
     1
 78
     8
140
3.5
147
2.0
172
     1
173
     1
176
     2
177
     2
178
     2
271
     2
340
E1
  0
DIMSTYLE
105
106
102
{ACAD_REACTORS
330
107
102
}
330
A
100
AcDbSymbolTableRecord
100
AcDbDimStyleTableRecord
  2
ME10_DIM_13
 70
     0
 41
3.5
 42
0.0
 44
2.0
 73
     0
 74
     0
 77
     1
 78
     8
140
3.5
147
2.0
172
     1
173
     1
176
     2
177
     2
178
     2
271
     2
340
E1
  0
DIMSTYLE
105
111
102
{ACAD_REACTORS
330
112
102
}
330
A
100
AcDbSymbolTableRecord
100
AcDbDimStyleTableRecord
  2
ME10_DIM_14
 70
     0
 41
3.5
 42
0.0
 44
2.0
 73
     0
 74
     0
 77
     1
 78
     8
140
3.5
147
2.0
172
     1
173
     1
176
     2
177
     2
178
     2
271
     2
340
E1
  0
DIMSTYLE
105
11E
102
{ACAD_REACTORS
330
11F
102
}
330
A
100
AcDbSymbolTableRecord
100
AcDbDimStyleTableRecord
  2
ME10_DIM_15
 70
     0
 41
3.5
 42
0.0
 44
2.0
 73
     0
 74
     0
 77
     1
 78
     8
140
3.5
147
2.0
172
     1
173
     1
176
     2
177
     2
178
     2
271
     3
340
E1
  0
DIMSTYLE
105
129
102
{ACAD_REACTORS
330
12A
102
}
330
A
100
AcDbSymbolTableRecord
100
AcDbDimStyleTableRecord
  2
ME10_DIM_16
 70
     0
 41
3.5
 42
0.0
 44
2.0
 73
     0
 74
     0
 77
     1
 78
     8
140
3.5
147
2.0
172
     1
173
     1
176
     2
177
     2
178
     2
271
     3
340
E1
  0
DIMSTYLE
105
134
102
{ACAD_REACTORS
330
135
102
}
330
A
100
AcDbSymbolTableRecord
100
AcDbDimStyleTableRecord
  2
ME10_DIM_17
 70
     0
 41
3.5
 42
0.0
 44
2.0
 73
     0
 74
     0
 77
     1
 78
     8
140
3.5
147
2.0
172
     1
173
     1
176
     2
177
     2
178
     2
271
     3
340
E1
  0
DIMSTYLE
105
13F
102
{ACAD_REACTORS
330
140
102
}
330
A
100
AcDbSymbolTableRecord
100
AcDbDimStyleTableRecord
  2
ME10_DIM_18
 70
     0
 41
3.5
 42
0.0
 44
2.0
 73
     0
 74
     0
 77
     1
 78
     8
140
3.5
147
2.0
172
     1
173
     1
176
     2
177
     2
178
     2
271
     3
340
E1
  0
DIMSTYLE
105
14C
102
{ACAD_REACTORS
330
14D
102
}
330
A
100
AcDbSymbolTableRecord
100
AcDbDimStyleTableRecord
  2
ME10_DIM_19
 70
     0
 41
3.5
 42
0.0
 44
2.0
 73
     0
 74
     0
 77
     1
 78
     8
140
3.5
147
2.0
172
     1
173
     1
176
     2
177
     2
178
     2
271
     2
340
E1
  0
DIMSTYLE
105
159
102
{ACAD_REACTORS
330
15A
102
}
330
A
100
AcDbSymbolTableRecord
100
AcDbDimStyleTableRecord
  2
ME10_DIM_20
 70
     0
 41
3.5
 42
0.0
 44
2.0
 73
     0
 74
     0
 77
     1
 78
     8
140
3.5
147
2.0
172
     1
173
     1
176
     2
177
     2
178
     2
271
     2
340
E1
  0
ENDTAB
  0
TABLE
  2
BLOCK_RECORD
  5
1
330
0
100
AcDbSymbolTable
 70
    12
  0
BLOCK_RECORD
  5
1F
330
1
100
AcDbSymbolTableRecord
100
AcDbBlockTableRecord
  2
*Model_Space
340
22
  0
BLOCK_RECORD
  5
1B
330
1
100
AcDbSymbolTableRecord
100
AcDbBlockTableRecord
  2
*Paper_Space
340
1E
  0
BLOCK_RECORD
  5
23
330
1
100
AcDbSymbolTableRecord
100
AcDbBlockTableRecord
  2
*Paper_Space0
340
26
  0
BLOCK_RECORD
  5
DA
330
1
100
AcDbSymbolTableRecord
100
AcDbBlockTableRecord
  2
*D1
340
0
  0
BLOCK_RECORD
  5
E7
330
1
100
AcDbSymbolTableRecord
100
AcDbBlockTableRecord
  2
*D2
340
0
  0
BLOCK_RECORD
  5
F2
330
1
100
AcDbSymbolTableRecord
100
AcDbBlockTableRecord
  2
*D3
340
0
  0
BLOCK_RECORD
  5
FD
330
1
100
AcDbSymbolTableRecord
100
AcDbBlockTableRecord
  2
*D4
340
0
  0
BLOCK_RECORD
  5
108
330
1
100
AcDbSymbolTableRecord
100
AcDbBlockTableRecord
  2
*D5
340
0
  0
BLOCK_RECORD
  5
113
330
1
100
AcDbSymbolTableRecord
100
AcDbBlockTableRecord
  2
*D6
340
0
  0
BLOCK_RECORD
  5
120
330
1
100
AcDbSymbolTableRecord
100
AcDbBlockTableRecord
  2
*D7
340
0
  0
BLOCK_RECORD
  5
12B
330
1
100
AcDbSymbolTableRecord
100
AcDbBlockTableRecord
  2
*D8
340
0
  0
BLOCK_RECORD
  5
136
330
1
100
AcDbSymbolTableRecord
100
AcDbBlockTableRecord
  2
*D9
340
0
  0
BLOCK_RECORD
  5
141
330
1
100
AcDbSymbolTableRecord
100
AcDbBlockTableRecord
  2
*D10
340
0
  0
BLOCK_RECORD
  5
14E
330
1
100
AcDbSymbolTableRecord
100
AcDbBlockTableRecord
  2
*D11
340
0
  0
ENDTAB
  0
ENDSEC
  0
SECTION
  2
BLOCKS
  0
BLOCK
  5
20
330
1F
100
AcDbEntity
  8
0
100
AcDbBlockBegin
  2
*Model_Space
 70
     0
 71
     0
 10
0.0
 20
0.0
 30
0.0
  3
*Model_Space
  1

  0
ENDBLK
  5
21
330
1F
100
AcDbEntity
  8
0
100
AcDbBlockEnd
  0
BLOCK
  5
1C
330
1B
100
AcDbEntity
 67
     1
  8
0
100
AcDbBlockBegin
  2
*Paper_Space
 70
     0
 71
     0
 10
0.0
 20
0.0
 30
0.0
  3
*Paper_Space
  1

  0
ENDBLK
  5
1D
330
1B
100
AcDbEntity
 67
     1
  8
0
100
AcDbBlockEnd
  0
BLOCK
  5
24
330
23
100
AcDbEntity
  8
0
100
AcDbBlockBegin
  2
*Paper_Space0
 70
     0
 71
     0
 10
0.0
 20
0.0
 30
0.0
  3
*Paper_Space0
  1

  0
ENDBLK
  5
25
330
23
100
AcDbEntity
  8
0
100
AcDbBlockEnd
  0
BLOCK
  5
E3
330
DA
100
AcDbEntity
  8
0
100
AcDbBlockBegin
  2
*D1
 70
     1
 71
     0
 10
0.0
 20
0.0
 30
0.0
  3
*D1
  1

  0
LINE
  5
DB
330
DA
100
AcDbEntity
  8
1
  6
Continuous
 62
     2
100
AcDbLine
 10
-3.09524462185891
 20
-55.71374332621319
 30
0.0
 11
9.90475537814109
 21
-55.71374332621319
 31
0.0
  0
LINE
  5
DC
330
DA
100
AcDbEntity
  8
1
  6
Continuous
 62
     2
100
AcDbLine
 10
-3.09524462185891
 20
-49.0411256318355
 30
0.0
 11
-3.09524462185891
 21
-57.71374332621319
 31
0.0
  0
LINE
  5
DD
330
DA
100
AcDbEntity
  8
1
  6
Continuous
 62
     2
100
AcDbLine
 10
-3.09524462185891
 20
-35.29431102036098
 30
0.0
 11
-3.09524462185891
 21
-37.998437185328
 31
0.0
  0
LINE
  5
DE
330
DA
100
AcDbEntity
  8
1
  6
Continuous
 62
     2
100
AcDbLine
 10
9.90475537814109
 20
-17.29431102036098
 30
0.0
 11
9.90475537814109
 21
-57.71374332621319
 31
0.0
  0
SOLID
  5
DF
330
DA
100
AcDbEntity
  8
1
 62
     2
100
AcDbTrace
 10
0.40475537814109
 20
-55.2529595846573
 30
0.0
 11
0.40475537814109
 21
-56.17452706776908
 31
0.0
 12
-3.09524462185891
 22
-55.71374332621319
 32
0.0
 13
-3.09524462185891
 23
-55.71374332621319
 33
0.0
  0
SOLID
  5
E0
330
DA
100
AcDbEntity
  8
1
 62
     2
100
AcDbTrace
 10
6.40475537814109
 20
-56.17452706776908
 30
0.0
 11
6.40475537814109
 21
-55.2529595846573
 31
0.0
 12
9.90475537814109
 22
-55.71374332621319
 32
0.0
 13
9.90475537814109
 23
-55.71374332621319
 33
0.0
  0
MTEXT
  5
E2
330
DA
100
AcDbEntity
  8
1
 62
     2
100
AcDbMText
 10
0.87889074431689
 20
-53.71374332621319
 30
0.0
 40
3.5
 41
0.0
 71
     7
 72
     1
  1
13
  7
CONVERTER_11
 11
0.9999999999970621
 21
2.424068405545307E-6
 31
0.0
 73
     1
 44
0.60024009603842
  0
ENDBLK
  5
E4
330
DA
100
AcDbEntity
  8
0
100
AcDbBlockEnd
  0
BLOCK
  5
EE
330
E7
100
AcDbEntity
  8
0
100
AcDbBlockBegin
  2
*D2
 70
     1
 71
     0
 10
0.0
 20
0.0
 30
0.0
  3
*D2
  1

  0
LINE
  5
E8
330
E7
100
AcDbEntity
  8
1
  6
Continuous
 62
     2
100
AcDbLine
 10
101.428369725884
 20
-24.79431102036098
 30
0.0
 11
101.428369725884
 21
5.20568897963902
 31
0.0
  0
LINE
  5
E9
330
E7
100
AcDbEntity
  8
1
  6
Continuous
 62
     2
100
AcDbLine
 10
21.40475537814109
 20
5.20568897963902
 30
0.0
 11
103.428369725884
 21
5.20568897963902
 31
0.0
  0
LINE
  5
EA
330
E7
100
AcDbEntity
  8
1
  6
Continuous
 62
     2
100
AcDbLine
 10
21.40475537814109
 20
-24.79431102036098
 30
0.0
 11
103.428369725884
 21
-24.79431102036098
 31
0.0
  0
SOLID
  5
EB
330
E7
100
AcDbEntity
  8
1
 62
     2
100
AcDbTrace
 10
101.8891534674399
 20
1.70568897963902
 30
0.0
 11
100.9675859843281
 21
1.70568897963902
 31
0.0
 12
101.428369725884
 22
5.20568897963902
 32
0.0
 13
101.428369725884
 23
5.20568897963902
 33
0.0
  0
SOLID
  5
EC
330
E7
100
AcDbEntity
  8
1
 62
     2
100
AcDbTrace
 10
100.9675859843281
 20
-21.29431102036098
 30
0.0
 11
101.8891534674399
 21
-21.29431102036098
 31
0.0
 12
101.428369725884
 22
-24.79431102036098
 32
0.0
 13
101.428369725884
 23
-24.79431102036098
 33
0.0
  0
MTEXT
  5
ED
330
E7
100
AcDbEntity
  8
1
 62
     2
100
AcDbMText
 10
99.42836972588401
 20
-12.7573449266432
 30
0.0
 40
3.5
 41
0.0
 71
     7
 72
     1
  1
30
  7
CONVERTER_11
 11
0.0
 21
1.0
 31
0.0
 73
     1
 44
0.60024009603842
  0
ENDBLK
  5
EF
330
E7
100
AcDbEntity
  8
0
100
AcDbBlockEnd
  0
BLOCK
  5
F9
330
F2
100
AcDbEntity
  8
0
100
AcDbBlockBegin
  2
*D3
 70
     1
 71
     0
 10
0.0
 20
0.0
 30
0.0
  3
*D3
  1

  0
LINE
  5
F3
330
F2
100
AcDbEntity
  8
1
  6
Continuous
 62
     2
100
AcDbLine
 10
88.693956275674
 20
-17.29431102036098
 30
0.0
 11
88.693956275674
 21
5.20568897963902
 31
0.0
  0
LINE
  5
F4
330
F2
100
AcDbEntity
  8
1
  6
Continuous
 62
     2
100
AcDbLine
 10
21.40475537814109
 20
5.20568897963902
 30
0.0
 11
90.693956275674
 21
5.20568897963902
 31
0.0
  0
LINE
  5
F5
330
F2
100
AcDbEntity
  8
1
  6
Continuous
 62
     2
100
AcDbLine
 10
11.90475537814109
 20
-17.29431102036098
 30
0.0
 11
90.693956275674
 21
-17.29431102036098
 31
0.0
  0
SOLID
  5
F6
330
F2
100
AcDbEntity
  8
1
 62
     2
100
AcDbTrace
 10
89.15474001722988
 20
1.70568897963902
 30
0.0
 11
88.23317253411811
 21
1.70568897963902
 31
0.0
 12
88.693956275674
 22
5.20568897963902
 32
0.0
 13
88.693956275674
 23
5.20568897963902
 33
0.0
  0
SOLID
  5
F7
330
F2
100
AcDbEntity
  8
1
 62
     2
100
AcDbTrace
 10
88.23317253411811
 20
-13.79431102036098
 30
0.0
 11
89.15474001722988
 21
-13.79431102036098
 31
0.0
 12
88.693956275674
 22
-17.29431102036098
 32
0.0
 13
88.693956275674
 23
-17.29431102036098
 33
0.0
  0
MTEXT
  5
F8
330
F2
100
AcDbEntity
  8
1
 62
     2
100
AcDbMText
 10
86.693956275674
 20
-11.2626910837259
 30
0.0
 40
3.5
 41
0.0
 71
     7
 72
     1
  1
22.5
  7
CONVERTER_11
 11
0.0
 21
1.0
 31
0.0
 73
     1
 44
0.60024009603842
  0
ENDBLK
  5
FA
330
F2
100
AcDbEntity
  8
0
100
AcDbBlockEnd
  0
BLOCK
  5
104
330
FD
100
AcDbEntity
  8
0
100
AcDbBlockBegin
  2
*D4
 70
     1
 71
     0
 10
0.0
 20
0.0
 30
0.0
  3
*D4
  1

  0
LINE
  5
FE
330
FD
100
AcDbEntity
  8
1
  6
Continuous
 62
     2
100
AcDbLine
 10
-49.41256839550192
 20
-16.54431102036098
 30
0.0
 11
-49.41256839550192
 21
-29.79431102036098
 31
0.0
  0
LINE
  5
FF
330
FD
100
AcDbEntity
  8
1
  6
Continuous
 62
     2
100
AcDbLine
 10
-43.09524462185891
 20
-16.54431102036098
 30
0.0
 11
-51.41256839550192
 21
-16.54431102036098
 31
0.0
  0
LINE
  5
100
330
FD
100
AcDbEntity
  8
1
  6
Continuous
 62
     2
100
AcDbLine
 10
-28.9096019250029
 20
-29.79431102036098
 30
0.0
 11
-51.41256839550192
 21
-29.79431102036098
 31
0.0
  0
SOLID
  5
101
330
FD
100
AcDbEntity
  8
1
 62
     2
100
AcDbTrace
 10
-48.95178465394604
 20
-20.04431102036098
 30
0.0
 11
-49.87335213705781
 21
-20.04431102036098
 31
0.0
 12
-49.41256839550192
 22
-16.54431102036098
 32
0.0
 13
-49.41256839550192
 23
-16.54431102036098
 33
0.0
  0
SOLID
  5
102
330
FD
100
AcDbEntity
  8
1
 62
     2
100
AcDbTrace
 10
-49.87335213705781
 20
-26.29431102036098
 30
0.0
 11
-48.95178465394604
 21
-26.29431102036098
 31
0.0
 12
-49.41256839550192
 22
-29.79431102036098
 32
0.0
 13
-49.41256839550192
 23
-29.79431102036098
 33
0.0
  0
MTEXT
  5
103
330
FD
100
AcDbEntity
  8
1
 62
     2
100
AcDbMText
 10
-51.41256839550192
 20
-25.07183455789528
 30
0.0
 40
3.5
 41
0.0
 71
     7
 72
     1
  1
13
  7
CONVERTER_11
 11
0.0
 21
1.0
 31
0.0
 73
     1
 44
0.60024009603842
  0
ENDBLK
  5
105
330
FD
100
AcDbEntity
  8
0
100
AcDbBlockEnd
  0
BLOCK
  5
10F
330
108
100
AcDbEntity
  8
0
100
AcDbBlockBegin
  2
*D5
 70
     1
 71
     0
 10
0.0
 20
0.0
 30
0.0
  3
*D5
  1

  0
LINE
  5
109
330
108
100
AcDbEntity
  8
1
  6
Continuous
 62
     2
100
AcDbLine
 10
-57.27891490216689
 20
-29.79431102036098
 30
0.0
 11
-57.27891490216689
 21
10.95568897964911
 31
0.0
  0
LINE
  5
10A
330
108
100
AcDbEntity
  8
1
  6
Continuous
 62
     2
100
AcDbLine
 10
-28.90960192500285
 20
-29.79431102036098
 30
0.0
 11
-59.27891490216689
 21
-29.79431102036098
 31
0.0
  0
LINE
  5
10B
330
108
100
AcDbEntity
  8
1
  6
Continuous
 62
     2
100
AcDbLine
 10
-7.09524462185885
 20
10.95568897964911
 30
0.0
 11
-59.27891490216689
 21
10.95568897964911
 31
0.0
  0
SOLID
  5
10C
330
108
100
AcDbEntity
  8
1
 62
     2
100
AcDbTrace
 10
-57.73969864372278
 20
-26.29431102036098
 30
0.0
 11
-56.818131160611
 21
-26.29431102036098
 31
0.0
 12
-57.27891490216689
 22
-29.79431102036098
 32
0.0
 13
-57.27891490216689
 23
-29.79431102036098
 33
0.0
  0
SOLID
  5
10D
330
108
100
AcDbEntity
  8
1
 62
     2
100
AcDbTrace
 10
-56.818131160611
 20
7.45568897964911
 30
0.0
 11
-57.73969864372278
 21
7.45568897964911
 31
0.0
 12
-57.27891490216689
 22
10.95568897964911
 32
0.0
 13
-57.27891490216689
 23
10.95568897964911
 33
0.0
  0
MTEXT
  5
10E
330
108
100
AcDbEntity
  8
1
 62
     2
100
AcDbMText
 10
-59.27891490216689
 20
-13.18784352056499
 30
0.0
 40
3.5
 41
0.0
 71
     7
 72
     1
  1
40.5
  7
CONVERTER_11
 11
0.0
 21
1.0
 31
0.0
 73
     1
 44
0.60024009603842
  0
ENDBLK
  5
110
330
108
100
AcDbEntity
  8
0
100
AcDbBlockEnd
  0
BLOCK
  5
11C
330
113
100
AcDbEntity
  8
0
100
AcDbBlockBegin
  2
*D6
 70
     1
 71
     0
 10
0.0
 20
0.0
 30
0.0
  3
*D6
  1

  0
LINE
  5
114
330
113
100
AcDbEntity
  8
1
  6
Continuous
 62
     2
100
AcDbLine
 10
-23.09524462185891
 20
58.50404825176803
 30
0.0
 11
-16.09524462185891
 21
58.50404825176803
 31
0.0
  0
LINE
  5
115
330
113
100
AcDbEntity
  8
1
  6
Continuous
 62
     2
100
AcDbLine
 10
-16.09524462185891
 20
58.50404825176803
 30
0.0
 11
-7.09524462185891
 21
58.50404825176803
 31
0.0
  0
LINE
  5
116
330
113
100
AcDbEntity
  8
1
  6
Continuous
 62
     2
100
AcDbLine
 10
-7.09524462185891
 20
58.50404825176803
 30
0.0
 11
-0.09524462185891
 21
58.50404825176803
 31
0.0
  0
LINE
  5
117
330
113
100
AcDbEntity
  8
1
  6
Continuous
 62
     2
100
AcDbLine
 10
-7.09524462185891
 20
10.95568897964911
 30
0.0
 11
-7.09524462185891
 21
60.50404825176803
 31
0.0
  0
LINE
  5
118
330
113
100
AcDbEntity
  8
1
  6
Continuous
 62
     2
100
AcDbLine
 10
-16.09524462185891
 20
-17.87342563376149
 30
0.0
 11
-16.09524462185891
 21
60.50404825176803
 31
0.0
  0
SOLID
  5
119
330
113
100
AcDbEntity
  8
1
 62
     2
100
AcDbTrace
 10
-19.59524462185891
 20
58.04326451021215
 30
0.0
 11
-19.59524462185891
 21
58.96483199332392
 31
0.0
 12
-16.09524462185891
 22
58.50404825176803
 32
0.0
 13
-16.09524462185891
 23
58.50404825176803
 33
0.0
  0
SOLID
  5
11A
330
113
100
AcDbEntity
  8
1
 62
     2
100
AcDbTrace
 10
-3.59524462185891
 20
58.96483199332392
 30
0.0
 11
-3.59524462185891
 21
58.04326451021215
 31
0.0
 12
-7.09524462185891
 22
58.50404825176803
 32
0.0
 13
-7.09524462185891
 23
58.50404825176803
 33
0.0
  0
MTEXT
  5
11B
330
113
100
AcDbEntity
  8
1
 62
     2
100
AcDbMText
 10
-13.3862071787389
 20
60.50404825176803
 30
0.0
 40
3.5
 41
0.0
 71
     7
 72
     1
  1
9
  7
CONVERTER_11
 11
0.9999999999970621
 21
2.424068405545307E-6
 31
0.0
 73
     1
 44
0.60024009603842
  0
ENDBLK
  5
11D
330
113
100
AcDbEntity
  8
0
100
AcDbBlockEnd
  0
BLOCK
  5
127
330
120
100
AcDbEntity
  8
0
100
AcDbBlockBegin
  2
*D7
 70
     1
 71
     0
 10
0.0
 20
0.0
 30
0.0
  3
*D7
  1

  0
LINE
  5
121
330
120
100
AcDbEntity
  8
1
  6
Continuous
 62
     2
100
AcDbLine
 10
6.40475537814109
 20
49.4600345112516
 30
0.0
 11
-3.59524462185891
 21
49.4600345112516
 31
0.0
  0
LINE
  5
122
330
120
100
AcDbEntity
  8
1
  6
Continuous
 62
     2
100
AcDbLine
 10
-3.59524462185891
 20
10.95568897964762
 30
0.0
 11
-3.59524462185891
 21
51.4600345112516
 31
0.0
  0
LINE
  5
123
330
120
100
AcDbEntity
  8
1
  6
Continuous
 62
     2
100
AcDbLine
 10
6.40475537814109
 20
10.27594679213881
 30
0.0
 11
6.40475537814109
 21
51.4600345112516
 31
0.0
  0
SOLID
  5
124
330
120
100
AcDbEntity
  8
1
 62
     2
100
AcDbTrace
 10
2.90475537814109
 20
48.99925076969571
 30
0.0
 11
2.90475537814109
 21
49.92081825280749
 31
0.0
 12
6.40475537814109
 22
49.4600345112516
 32
0.0
 13
6.40475537814109
 23
49.4600345112516
 33
0.0
  0
SOLID
  5
125
330
120
100
AcDbEntity
  8
1
 62
     2
100
AcDbTrace
 10
-0.09524462185891
 20
49.92081825280749
 30
0.0
 11
-0.09524462185891
 21
48.99925076969571
 31
0.0
 12
-3.59524462185891
 22
49.4600345112516
 32
0.0
 13
-3.59524462185891
 23
49.4600345112516
 33
0.0
  0
MTEXT
  5
126
330
120
100
AcDbEntity
  8
1
 62
     2
100
AcDbMText
 10
-1.02456084571296
 20
51.4600345112516
 30
0.0
 40
3.5
 41
0.0
 71
     7
 72
     1
  1
10
  7
CONVERTER_11
 11
0.9999999999970621
 21
2.424068405545307E-6
 31
0.0
 73
     1
 44
0.60024009603842
  0
ENDBLK
  5
128
330
120
100
AcDbEntity
  8
0
100
AcDbBlockEnd
  0
BLOCK
  5
132
330
12B
100
AcDbEntity
  8
0
100
AcDbBlockBegin
  2
*D8
 70
     1
 71
     0
 10
0.0
 20
0.0
 30
0.0
  3
*D8
  1

  0
LINE
  5
12C
330
12B
100
AcDbEntity
  8
1
  6
Continuous
 62
     2
100
AcDbLine
 10
21.40475537814109
 20
-66.039837441709
 30
0.0
 11
9.90475537814109
 21
-66.039837441709
 31
0.0
  0
LINE
  5
12D
330
12B
100
AcDbEntity
  8
1
  6
Continuous
 62
     2
100
AcDbLine
 10
9.90475537814109
 20
-17.29431102036098
 30
0.0
 11
9.90475537814109
 21
-68.039837441709
 31
0.0
  0
LINE
  5
12E
330
12B
100
AcDbEntity
  8
1
  6
Continuous
 62
     2
100
AcDbLine
 10
21.40475537814109
 20
-16.79431102036098
 30
0.0
 11
21.40475537814109
 21
-68.039837441709
 31
0.0
  0
SOLID
  5
12F
330
12B
100
AcDbEntity
  8
1
 62
     2
100
AcDbTrace
 10
17.90475537814109
 20
-66.50062118326488
 30
0.0
 11
17.90475537814109
 21
-65.57905370015311
 31
0.0
 12
21.40475537814109
 22
-66.039837441709
 32
0.0
 13
21.40475537814109
 23
-66.039837441709
 33
0.0
  0
SOLID
  5
130
330
12B
100
AcDbEntity
  8
1
 62
     2
100
AcDbTrace
 10
13.40475537814109
 20
-65.57905370015311
 30
0.0
 11
13.40475537814109
 21
-66.50062118326488
 31
0.0
 12
9.90475537814109
 22
-66.039837441709
 32
0.0
 13
9.90475537814109
 23
-66.039837441709
 33
0.0
  0
MTEXT
  5
131
330
12B
100
AcDbEntity
  8
1
 62
     2
100
AcDbMText
 10
11.1713260125976
 20
-64.039837441709
 30
0.0
 40
3.5
 41
0.0
 71
     7
 72
     1
  1
11.5
  7
CONVERTER_11
 11
0.9999999999970621
 21
2.424068405545307E-6
 31
0.0
 73
     1
 44
0.60024009603842
  0
ENDBLK
  5
133
330
12B
100
AcDbEntity
  8
0
100
AcDbBlockEnd
  0
BLOCK
  5
13D
330
136
100
AcDbEntity
  8
0
100
AcDbBlockBegin
  2
*D9
 70
     1
 71
     0
 10
0.0
 20
0.0
 30
0.0
  3
*D9
  1

  0
LINE
  5
137
330
136
100
AcDbEntity
  8
1
  6
Continuous
 62
     2
100
AcDbLine
 10
-16.09524462185891
 20
-66.0616509167381
 30
0.0
 11
9.90475537814109
 21
-66.0616509167381
 31
0.0
  0
LINE
  5
138
330
136
100
AcDbEntity
  8
1
  6
Continuous
 62
     2
100
AcDbLine
 10
9.90475537814109
 20
-17.29431102036098
 30
0.0
 11
9.90475537814109
 21
-68.0616509167381
 31
0.0
  0
LINE
  5
139
330
136
100
AcDbEntity
  8
1
  6
Continuous
 62
     2
100
AcDbLine
 10
-16.09524462185891
 20
-43.34169625365398
 30
0.0
 11
-16.09524462185891
 21
-68.0616509167381
 31
0.0
  0
SOLID
  5
13A
330
136
100
AcDbEntity
  8
1
 62
     2
100
AcDbTrace
 10
-12.59524462185891
 20
-65.60086717518222
 30
0.0
 11
-12.59524462185891
 21
-66.52243465829399
 31
0.0
 12
-16.09524462185891
 22
-66.0616509167381
 32
0.0
 13
-16.09524462185891
 23
-66.0616509167381
 33
0.0
  0
SOLID
  5
13B
330
136
100
AcDbEntity
  8
1
 62
     2
100
AcDbTrace
 10
6.40475537814109
 20
-66.52243465829399
 30
0.0
 11
6.40475537814109
 21
-65.60086717518222
 31
0.0
 12
9.90475537814109
 22
-66.0616509167381
 32
0.0
 13
9.90475537814109
 23
-66.0616509167381
 33
0.0
  0
MTEXT
  5
13C
330
136
100
AcDbEntity
  8
1
 62
     2
100
AcDbMText
 10
-4.48866448197671
 20
-64.0616509167381
 30
0.0
 40
3.5
 41
0.0
 71
     7
 72
     1
  1
26
  7
CONVERTER_11
 11
0.9999999999970621
 21
2.424068405545307E-6
 31
0.0
 73
     1
 44
0.60024009603842
  0
ENDBLK
  5
13E
330
136
100
AcDbEntity
  8
0
100
AcDbBlockEnd
  0
BLOCK
  5
14A
330
141
100
AcDbEntity
  8
0
100
AcDbBlockBegin
  2
*D10
 70
     1
 71
     0
 10
0.0
 20
0.0
 30
0.0
  3
*D10
  1

  0
LINE
  5
142
330
141
100
AcDbEntity
  8
1
  6
Continuous
 62
     2
100
AcDbLine
 10
21.40475537814109
 20
-55.71374332621319
 30
0.0
 11
31.0776311555898
 21
-55.71374332621319
 31
0.0
  0
LINE
  5
143
330
141
100
AcDbEntity
  8
1
  6
Continuous
 62
     2
100
AcDbLine
 10
17.90475537814109
 20
-55.71374332621319
 30
0.0
 11
21.40475537814109
 21
-55.71374332621319
 31
0.0
  0
LINE
  5
144
330
141
100
AcDbEntity
  8
1
  6
Continuous
 62
     2
100
AcDbLine
 10
10.90475537814109
 20
-55.71374332621319
 30
0.0
 11
17.90475537814109
 21
-55.71374332621319
 31
0.0
  0
LINE
  5
145
330
141
100
AcDbEntity
  8
1
  6
Continuous
 62
     2
100
AcDbLine
 10
17.90475537814109
 20
-20.29431102036098
 30
0.0
 11
17.90475537814109
 21
-57.71374332621319
 31
0.0
  0
LINE
  5
146
330
141
100
AcDbEntity
  8
1
  6
Continuous
 62
     2
100
AcDbLine
 10
21.40475537814109
 20
-24.79431102036098
 30
0.0
 11
21.40475537814109
 21
-57.71374332621319
 31
0.0
  0
SOLID
  5
147
330
141
100
AcDbEntity
  8
1
 62
     2
100
AcDbTrace
 10
14.40475537814109
 20
-56.17452706776908
 30
0.0
 11
14.40475537814109
 21
-55.2529595846573
 31
0.0
 12
17.90475537814109
 22
-55.71374332621319
 32
0.0
 13
17.90475537814109
 23
-55.71374332621319
 33
0.0
  0
SOLID
  5
148
330
141
100
AcDbEntity
  8
1
 62
     2
100
AcDbTrace
 10
24.90475537814109
 20
-55.2529595846573
 30
0.0
 11
24.90475537814109
 21
-56.17452706776908
 31
0.0
 12
21.40475537814109
 22
-55.71374332621319
 32
0.0
 13
21.40475537814109
 23
-55.71374332621319
 33
0.0
  0
MTEXT
  5
149
330
141
100
AcDbEntity
  8
1
 62
     2
100
AcDbMText
 10
24.6901311555898
 20
-53.71374332621319
 30
0.0
 40
3.5
 41
0.0
 71
     7
 72
     1
  1
3.5
  7
CONVERTER_11
 11
0.9999999999970621
 21
2.424068405545307E-6
 31
0.0
 73
     1
 44
0.60024009603842
  0
ENDBLK
  5
14B
330
141
100
AcDbEntity
  8
0
100
AcDbBlockEnd
  0
BLOCK
  5
157
330
14E
100
AcDbEntity
  8
0
100
AcDbBlockBegin
  2
*D11
 70
     1
 71
     0
 10
0.0
 20
0.0
 30
0.0
  3
*D11
  1

  0
LINE
  5
14F
330
14E
100
AcDbEntity
  8
3
  6
Continuous
 62
     2
100
AcDbLine
 10
9.90475537814109
 20
-45.8620058210636
 30
0.0
 11
16.90475537814109
 21
-45.8620058210636
 31
0.0
  0
LINE
  5
150
330
14E
100
AcDbEntity
  8
3
  6
Continuous
 62
     2
100
AcDbLine
 10
6.40475537814109
 20
-45.8620058210636
 30
0.0
 11
9.90475537814109
 21
-45.8620058210636
 31
0.0
  0
LINE
  5
151
330
14E
100
AcDbEntity
  8
3
  6
Continuous
 62
     2
100
AcDbLine
 10
-4.00602678969546
 20
-45.8620058210636
 30
0.0
 11
6.40475537814109
 21
-45.8620058210636
 31
0.0
  0
LINE
  5
152
330
14E
100
AcDbEntity
  8
3
  6
Continuous
 62
     2
100
AcDbLine
 10
6.40475537814109
 20
-16.54431102036098
 30
0.0
 11
6.40475537814109
 21
-47.8620058210636
 31
0.0
  0
LINE
  5
153
330
14E
100
AcDbEntity
  8
3
  6
Continuous
 62
     2
100
AcDbLine
 10
9.90475537814109
 20
-19.89431102036097
 30
0.0
 11
9.90475537814109
 21
-47.8620058210636
 31
0.0
  0
SOLID
  5
154
330
14E
100
AcDbEntity
  8
3
 62
     2
100
AcDbTrace
 10
2.90475537814109
 20
-46.32278956261948
 30
0.0
 11
2.90475537814109
 21
-45.40122207950771
 31
0.0
 12
6.40475537814109
 22
-45.8620058210636
 32
0.0
 13
6.40475537814109
 23
-45.8620058210636
 33
0.0
  0
SOLID
  5
155
330
14E
100
AcDbEntity
  8
3
 62
     2
100
AcDbTrace
 10
13.40475537814109
 20
-45.40122207950771
 30
0.0
 11
13.40475537814109
 21
-46.32278956261948
 31
0.0
 12
9.90475537814109
 22
-45.8620058210636
 32
0.0
 13
9.90475537814109
 23
-45.8620058210636
 33
0.0
  0
MTEXT
  5
156
330
14E
100
AcDbEntity
  8
3
 62
     2
100
AcDbMText
 10
-4.00602678969546
 20
-43.8620058210636
 30
0.0
 40
3.5
 41
0.0
 71
     7
 72
     1
  1
3.5
  7
CONVERTER_11
 11
0.9999999999970621
 21
2.424068405545307E-6
 31
0.0
 73
     1
 44
0.60024009603842
  0
ENDBLK
  5
158
330
14E
100
AcDbEntity
  8
0
100
AcDbBlockEnd
  0
ENDSEC
  0
SECTION
  2
ENTITIES
  0
POINT
  5
33
330
1F
100
AcDbEntity
  8
1
 62
     3
 60
     1
100
AcDbPoint
 10
-7.85911484514001
 20
-24.79431102036098
 30
0.0
  0
POINT
  5
34
330
1F
100
AcDbEntity
  8
1
 62
     3
 60
     1
100
AcDbPoint
 10
-7.94603943386484
 20
-25.75117300993767
 30
0.0
  0
POINT
  5
35
330
1F
100
AcDbEntity
  8
1
 62
     3
 60
     1
100
AcDbPoint
 10
-16.09524462185891
 20
-29.79431102036098
 30
0.0
  0
POINT
  5
36
330
1F
100
AcDbEntity
  8
1
 62
     3
 60
     1
100
AcDbPoint
 10
-17.59524462185891
 20
12.45568897963902
 30
0.0
  0
POINT
  5
37
330
1F
100
AcDbEntity
  8
1
 62
     3
 60
     1
100
AcDbPoint
 10
3.40475537814109
 20
12.45568897963902
 30
0.0
  0
POINT
  5
38
330
1F
100
AcDbEntity
  8
1
 62
     3
 60
     1
100
AcDbPoint
 10
22.40475537814122
 20
8.45568897963902
 30
0.0
  0
POINT
  5
39
330
1F
100
AcDbEntity
  8
1
 62
     3
 60
     1
100
AcDbPoint
 10
22.40475537814115
 20
24.45568897963902
 30
0.0
  0
POINT
  5
3A
330
1F
100
AcDbEntity
  8
1
 62
     3
 60
     1
100
AcDbPoint
 10
76.01332866124
 20
24.45568897963902
 30
0.0
  0
LINE
  5
3B
330
1F
100
AcDbEntity
  8
1
  6
Continuous
 62
     7
100
AcDbLine
 10
-7.85911484514001
 20
-24.79431102036098
 30
0.0
 11
-8.20974881835644
 21
-24.79431102036098
 31
0.0
  0
LINE
  5
3C
330
1F
100
AcDbEntity
  8
1
  6
Continuous
 62
     7
100
AcDbLine
 10
-7.94603943386484
 20
-25.75117300993767
 30
0.0
 11
-6.01742243648562
 21
-24.79431102036098
 31
0.0
  0
LINE
  5
3D
330
1F
100
AcDbEntity
  8
1
  6
Continuous
 62
     7
100
AcDbLine
 10
-7.94603943386484
 20
-25.75117300993767
 30
0.0
 11
-7.85911484514001
 21
-24.79431102036098
 31
0.0
  0
LINE
  5
3E
330
1F
100
AcDbEntity
  8
1
  6
Continuous
 62
     7
100
AcDbLine
 10
-12.18223244084116
 20
-23.10470447952406
 30
0.0
 11
-10.22936800855913
 21
-24.24701117047032
 31
0.0
  0
LINE
  5
3F
330
1F
100
AcDbEntity
  8
1
  6
Continuous
 62
     7
100
AcDbLine
 10
-10.4150656494138
 20
-20.08359184817839
 30
0.0
 11
-8.46220121713178
 21
-21.22589853912465
 31
0.0
  0
LINE
  5
40
330
1F
100
AcDbEntity
  8
1
  6
Continuous
 62
     7
100
AcDbLine
 10
-6.01742243648562
 20
-24.79431102036098
 30
0.0
 11
-7.85911484514001
 21
-24.79431102036098
 31
0.0
  0
LINE
  5
41
330
1F
100
AcDbEntity
  8
1
  6
DOT_CENTER
 62
     2
100
AcDbLine
 10
-8.34524462185882
 20
-29.79431102036098
 30
0.0
 11
-4.84524462185891
 21
-29.79431102036098
 31
0.0
  0
LINE
  5
42
330
1F
100
AcDbEntity
  8
1
  6
Continuous
 62
     7
100
AcDbLine
 10
-7.09524462185891
 20
-13.54431102036098
 30
0.0
 11
-17.59524462185891
 21
-13.54431102036098
 31
0.0
  0
LINE
  5
43
330
1F
100
AcDbEntity
  8
1
  6
DOT_CENTER
 62
     2
100
AcDbLine
 10
35.73879963356711
 20
-1.79431102036074
 30
0.0
 11
53.20984296253096
 21
-1.79431102036015
 31
0.0
  0
LINE
  5
44
330
1F
100
AcDbEntity
  8
1
  6
DASHED
 62
     2
100
AcDbLine
 10
43.4824441178281
 20
4.20568897962316
 30
0.0
 11
21.40475537814109
 21
4.20568897962316
 31
0.0
  0
LINE
  5
45
330
1F
100
AcDbEntity
  8
1
  6
DOT_CENTER
 62
     2
100
AcDbLine
 10
53.20984296253096
 20
-1.79431102036015
 30
0.0
 11
68.73374032647388
 21
-1.79431102035965
 31
0.0
  0
LINE
  5
46
330
1F
100
AcDbEntity
  8
1
  6
Continuous
 62
     7
100
AcDbLine
 10
-8.20974881835644
 20
-21.29431102036098
 30
0.0
 11
2.31172459015318
 21
-21.29431102036098
 31
0.0
  0
LINE
  5
47
330
1F
100
AcDbEntity
  8
1
  6
Continuous
 62
     7
100
AcDbLine
 10
-7.29134364569001
 20
-18.54431102036098
 30
0.0
 11
-7.56097980345794
 21
-21.29431102036098
 31
0.0
  0
LINE
  5
48
330
1F
100
AcDbEntity
  8
1
  6
Continuous
 62
     7
100
AcDbLine
 10
-3.77693140568289
 20
-18.54431102036098
 30
0.0
 11
-4.02675073344079
 21
-21.29431102036098
 31
0.0
  0
LINE
  5
49
330
1F
100
AcDbEntity
  8
1
  6
Continuous
 62
     7
100
AcDbLine
 10
-3.09524462185891
 20
-24.79431102036098
 30
0.0
 11
-6.01742243648562
 21
-24.79431102036098
 31
0.0
  0
LINE
  5
4A
330
1F
100
AcDbEntity
  8
1
  6
Continuous
 62
     7
100
AcDbLine
 10
-4.3447026051328
 20
-24.79431102036098
 30
0.0
 11
-4.89137970477134
 21
-30.81210811195319
 31
0.0
  0
LINE
  5
4B
330
1F
100
AcDbEntity
  8
1
  6
Continuous
 62
     7
100
AcDbLine
 10
-3.09524462185891
 20
-24.79431102036098
 30
0.0
 11
21.40475537814109
 21
-24.79431102036098
 31
0.0
  0
LINE
  5
4C
330
1F
100
AcDbEntity
  8
1
  6
Continuous
 62
     7
100
AcDbLine
 10
-3.09524462185891
 20
-35.29431102036098
 30
0.0
 11
-3.09524462185891
 21
-24.79431102036098
 31
0.0
  0
LINE
  5
4D
330
1F
100
AcDbEntity
  8
1
  6
PHANTOM
 62
     2
100
AcDbLine
 10
76.01332866124
 20
27.71576679717091
 30
0.0
 11
76.01332866124
 21
24.45568897963902
 31
0.0
  0
LINE
  5
4E
330
1F
100
AcDbEntity
  8
1
  6
PHANTOM
 62
     2
100
AcDbLine
 10
76.01332866124
 20
8.45568897963902
 30
0.0
 11
76.01332866124
 21
-35.29431102036098
 31
0.0
  0
LINE
  5
4F
330
1F
100
AcDbEntity
  8
1
  6
PHANTOM
 62
     2
100
AcDbLine
 10
76.01332866124
 20
-35.29431102036098
 30
0.0
 11
76.01332866124
 21
-37.82047894713499
 31
0.0
  0
LINE
  5
50
330
1F
100
AcDbEntity
  8
1
  6
Continuous
 62
     7
100
AcDbLine
 10
9.90475537814109
 20
8.45568897963902
 30
0.0
 11
22.40475537814122
 21
8.45568897963902
 31
0.0
  0
LINE
  5
51
330
1F
100
AcDbEntity
  8
1
  6
Continuous
 62
     7
100
AcDbLine
 10
9.90475537814109
 20
8.45568897963902
 30
0.0
 11
9.90475537814109
 21
5.20568897963902
 31
0.0
  0
LINE
  5
52
330
1F
100
AcDbEntity
  8
1
  6
Continuous
 62
     7
100
AcDbLine
 10
-3.09524462185891
 20
-35.29431102036098
 30
0.0
 11
76.01332866124
 21
-35.29431102036098
 31
0.0
  0
LINE
  5
53
330
1F
100
AcDbEntity
  8
1
  6
Continuous
 62
     7
100
AcDbLine
 10
17.90475537814109
 20
5.20568897963902
 30
0.0
 11
21.40475537814109
 21
5.20568897963902
 31
0.0
  0
LINE
  5
54
330
1F
100
AcDbEntity
  8
1
  6
Continuous
 62
     7
100
AcDbLine
 10
-9.15274489415727
 20
-26.34986657591656
 30
0.0
 11
-7.94603943386484
 21
-25.75117300993767
 31
0.0
  0
LINE
  5
55
330
1F
100
AcDbEntity
  8
1
  6
Continuous
 62
     7
100
AcDbLine
 10
17.90475537814109
 20
5.20568897963902
 30
0.0
 11
11.90475537814109
 21
5.20568897963902
 31
0.0
  0
LINE
  5
56
330
1F
100
AcDbEntity
  8
1
  6
Continuous
 62
     7
100
AcDbLine
 10
9.90475537814109
 20
5.20568897963902
 30
0.0
 11
9.90475537814109
 21
-17.29431102036098
 31
0.0
  0
LINE
  5
57
330
1F
100
AcDbEntity
  8
1
  6
Continuous
 62
     7
100
AcDbLine
 10
9.90475537814109
 20
-17.29431102036098
 30
0.0
 11
11.90475537814109
 21
-17.29431102036098
 31
0.0
  0
LINE
  5
58
330
1F
100
AcDbEntity
  8
1
  6
Continuous
 62
     7
100
AcDbLine
 10
11.90475537814109
 20
-17.29431102036098
 30
0.0
 11
11.90475537814109
 21
-16.29431102036098
 31
0.0
  0
LINE
  5
59
330
1F
100
AcDbEntity
  8
1
  6
Continuous
 62
     7
100
AcDbLine
 10
11.90475537814109
 20
5.20568897963902
 30
0.0
 11
9.90475537814109
 21
5.20568897963902
 31
0.0
  0
LINE
  5
5A
330
1F
100
AcDbEntity
  8
1
  6
Continuous
 62
     7
100
AcDbLine
 10
11.90475537814109
 20
-16.29431102036098
 30
0.0
 11
17.90475537814109
 21
-16.29431102036098
 31
0.0
  0
LINE
  5
5B
330
1F
100
AcDbEntity
  8
1
  6
Continuous
 62
     7
100
AcDbLine
 10
11.90475537814109
 20
-16.29431102036098
 30
0.0
 11
11.90475537814109
 21
5.20568897963902
 31
0.0
  0
LINE
  5
5C
330
1F
100
AcDbEntity
  8
1
  6
Continuous
 62
     7
100
AcDbLine
 10
-3.59524462185891
 20
-22.29431102036098
 30
0.0
 11
17.90475537814109
 21
-22.29431102036098
 31
0.0
  0
LINE
  5
5D
330
1F
100
AcDbEntity
  8
1
  6
Continuous
 62
     7
100
AcDbLine
 10
-3.59524462185891
 20
-22.29431102036098
 30
0.0
 11
-3.59524462185891
 21
-24.79431102036098
 31
0.0
  0
LINE
  5
5E
330
1F
100
AcDbEntity
  8
1
  6
Continuous
 62
     7
100
AcDbLine
 10
18.90475537814109
 20
-21.29431102036098
 30
0.0
 11
18.90475537814109
 21
-20.79431102036098
 31
0.0
  0
LINE
  5
5F
330
1F
100
AcDbEntity
  8
1
  6
Continuous
 62
     7
100
AcDbLine
 10
21.40475537814109
 20
-20.79431102036098
 30
0.0
 11
17.90475537814109
 21
-20.79431102036098
 31
0.0
  0
LINE
  5
60
330
1F
100
AcDbEntity
  8
1
  6
Continuous
 62
     7
100
AcDbLine
 10
21.40475537814109
 20
5.20568897963902
 30
0.0
 11
21.40475537814109
 21
1.20568897963902
 31
0.0
  0
LINE
  5
61
330
1F
100
AcDbEntity
  8
1
  6
DOT_CENTER
 62
     2
100
AcDbLine
 10
-28.9096019250029
 20
-29.79431102036098
 30
0.0
 11
-8.34524462185882
 21
-29.79431102036098
 31
0.0
  0
LINE
  5
62
330
1F
100
AcDbEntity
  8
1
  6
DOT_CENTER
 62
     2
100
AcDbLine
 10
-16.09524462185891
 20
-17.8734256337615
 30
0.0
 11
-16.09524462185891
 21
-43.34169625365398
 31
0.0
  0
LINE
  5
63
330
1F
100
AcDbEntity
  8
1
  6
DOT_CENTER
 62
     2
100
AcDbLine
 10
-4.84524462185891
 20
-29.79431102036098
 30
0.0
 11
-3.53626417170682
 21
-29.79431102036098
 31
0.0
  0
LINE
  5
64
330
1F
100
AcDbEntity
  8
1
  6
Continuous
 62
     7
100
AcDbLine
 10
11.90475537814109
 20
-16.29431102036098
 30
0.0
 11
11.90475537814109
 21
-17.29431102036098
 31
0.0
  0
LINE
  5
65
330
1F
100
AcDbEntity
  8
1
  6
Continuous
 62
     7
100
AcDbLine
 10
12.6248665886684
 20
-16.29431102036098
 30
0.0
 11
11.90475537814109
 21
-16.29431102036098
 31
0.0
  0
LINE
  5
66
330
1F
100
AcDbEntity
  8
1
  6
Continuous
 62
     7
100
AcDbLine
 10
8.50475537814111
 20
-20.29431102036098
 30
0.0
 11
2.31172459015318
 21
-20.29431102036098
 31
0.0
  0
LINE
  5
67
330
1F
100
AcDbEntity
  8
1
  6
Continuous
 62
     7
100
AcDbLine
 10
8.90475537814109
 20
-14.94431102036099
 30
0.0
 11
8.90475537814109
 21
-19.89431102036097
 31
0.0
  0
LINE
  5
68
330
1F
100
AcDbEntity
  8
1
  6
Continuous
 62
     7
100
AcDbLine
 10
9.90475537814109
 20
-19.89431102036097
 30
0.0
 11
9.90475537814109
 21
-17.04431102036098
 31
0.0
  0
LINE
  5
69
330
1F
100
AcDbEntity
  8
1
  6
Continuous
 62
     7
100
AcDbLine
 10
12.21436136231557
 20
-20.29431102036098
 30
0.0
 11
10.30475537814118
 21
-20.29431102036098
 31
0.0
  0
LINE
  5
6A
330
1F
100
AcDbEntity
  8
1
  6
Continuous
 62
     7
100
AcDbLine
 10
14.27763668777436
 20
-20.29431102036098
 30
0.0
 11
14.07058145169219
 21
-20.29431102036098
 31
0.0
  0
LINE
  5
6B
330
1F
100
AcDbEntity
  8
1
  6
Continuous
 62
     7
100
AcDbLine
 10
16.34818904859446
 20
-20.29431102036098
 30
0.0
 11
16.14113381251241
 21
-20.29431102036098
 31
0.0
  0
LINE
  5
6C
330
1F
100
AcDbEntity
  8
1
  6
Continuous
 62
     7
100
AcDbLine
 10
16.73455937911018
 20
-19.79078340231997
 30
0.0
 11
15.73069512989866
 21
-16.29431102036098
 31
0.0
  0
LINE
  5
6D
330
1F
100
AcDbEntity
  8
1
  6
Continuous
 62
     7
100
AcDbLine
 10
16.76597131030877
 20
-16.29431102036098
 30
0.0
 11
15.73069512989866
 21
-16.29431102036098
 31
0.0
  0
LINE
  5
6E
330
1F
100
AcDbEntity
  8
1
  6
Continuous
 62
     7
100
AcDbLine
 10
15.75476348199669
 20
-19.99783863840197
 30
0.0
 11
14.69541894948861
 21
-16.29431102036098
 31
0.0
  0
LINE
  5
6F
330
1F
100
AcDbEntity
  8
1
  6
Continuous
 62
     7
100
AcDbLine
 10
14.66400701828991
 20
-19.79078340231997
 30
0.0
 11
13.66014276907856
 21
-16.29431102036098
 31
0.0
  0
LINE
  5
70
330
1F
100
AcDbEntity
  8
1
  6
Continuous
 62
     7
100
AcDbLine
 10
14.69541894948861
 20
-16.29431102036098
 30
0.0
 11
13.66014276907856
 21
-16.29431102036098
 31
0.0
  0
LINE
  5
71
330
1F
100
AcDbEntity
  8
1
  6
Continuous
 62
     7
100
AcDbLine
 10
13.68421112117659
 20
-19.99783863840197
 30
0.0
 11
12.6248665886684
 21
-16.29431102036098
 31
0.0
  0
LINE
  5
72
330
1F
100
AcDbEntity
  8
1
  6
Continuous
 62
     7
100
AcDbLine
 10
12.60210421985096
 20
-19.79604873649647
 30
0.0
 11
11.90475537814109
 21
-17.29431102036098
 31
0.0
  0
LINE
  5
73
330
1F
100
AcDbEntity
  8
1
  6
Continuous
 62
     7
100
AcDbLine
 10
7.54462099822109
 20
-16.54431102036098
 30
0.0
 11
6.40475537814109
 21
-16.54431102036098
 31
0.0
  0
LINE
  5
74
330
1F
100
AcDbEntity
  8
1
  6
Continuous
 62
     7
100
AcDbLine
 10
7.94462099822118
 20
-17.14431102036097
 30
0.0
 11
7.94462099822118
 21
-16.94431102036099
 31
0.0
  0
LINE
  5
75
330
1F
100
AcDbEntity
  8
1
  6
Continuous
 62
     7
100
AcDbLine
 10
2.31172459015318
 20
-17.54431102036098
 30
0.0
 11
7.54462099822109
 21
-17.54431102036098
 31
0.0
  0
LINE
  5
76
330
1F
100
AcDbEntity
  8
1
  6
Continuous
 62
     7
100
AcDbLine
 10
17.90475537814109
 20
-20.29431102036098
 30
0.0
 11
16.76597131030877
 21
-16.29431102036098
 31
0.0
  0
LINE
  5
77
330
1F
100
AcDbEntity
  8
1
  6
Continuous
 62
     7
100
AcDbLine
 10
9.90475537814109
 20
-14.54431102036098
 30
0.0
 11
9.30475537814118
 21
-14.54431102036098
 31
0.0
  0
LINE
  5
78
330
1F
100
AcDbEntity
  8
1
  6
Continuous
 62
     7
100
AcDbLine
 10
17.90475537814109
 20
-20.29431102036098
 30
0.0
 11
17.90475537814109
 21
-20.79431102036098
 31
0.0
  0
LINE
  5
79
330
1F
100
AcDbEntity
  8
1
  6
Continuous
 62
     7
100
AcDbLine
 10
2.31172459015318
 20
-21.29431102036098
 30
0.0
 11
17.40475537814109
 21
-21.29431102036098
 31
0.0
  0
LINE
  5
7A
330
1F
100
AcDbEntity
  8
1
  6
DOT_CENTER
 62
     2
100
AcDbLine
 10
7.93056098068706
 20
-2.79431102036098
 30
0.0
 11
33.00795014949506
 21
-2.79431102036098
 31
0.0
  0
LINE
  5
7B
330
1F
100
AcDbEntity
  8
1
  6
Continuous
 62
     7
100
AcDbLine
 10
17.90475537814109
 20
5.20568897963902
 30
0.0
 11
17.90475537814109
 21
3.45568897963902
 31
0.0
  0
LINE
  5
7C
330
1F
100
AcDbEntity
  8
1
  6
Continuous
 62
     7
100
AcDbLine
 10
-7.09524462185891
 20
-16.54431102036098
 30
0.0
 11
-7.29134364569001
 21
-18.54431102036098
 31
0.0
  0
LINE
  5
7D
330
1F
100
AcDbEntity
  8
1
  6
Continuous
 62
     7
100
AcDbLine
 10
-3.59524462185891
 20
-16.54431102036098
 30
0.0
 11
-3.77693140568289
 21
-18.54431102036098
 31
0.0
  0
LINE
  5
7E
330
1F
100
AcDbEntity
  8
1
  6
PHANTOM
 62
     2
100
AcDbLine
 10
-43.09524462185891
 20
39.45568897963902
 30
0.0
 11
-46.79797894920102
 21
39.45568897963902
 31
0.0
  0
LINE
  5
7F
330
1F
100
AcDbEntity
  8
1
  6
PHANTOM
 62
     2
100
AcDbLine
 10
-43.09524462185891
 20
-16.54431102036098
 30
0.0
 11
-43.09524462185891
 21
-21.93511985502408
 31
0.0
  0
LINE
  5
80
330
1F
100
AcDbEntity
  8
1
  6
PHANTOM
 62
     2
100
AcDbLine
 10
-43.09524462185891
 20
39.45568897963902
 30
0.0
 11
-43.09524462185891
 21
43.48613099894702
 31
0.0
  0
LINE
  5
81
330
1F
100
AcDbEntity
  8
1
  6
PHANTOM
 62
     2
100
AcDbLine
 10
19.40475537814109
 20
39.45568897963902
 30
0.0
 11
24.40967185837906
 21
39.45568897963902
 31
0.0
  0
LINE
  5
82
330
1F
100
AcDbEntity
  8
1
  6
PHANTOM
 62
     2
100
AcDbLine
 10
-43.09524462185891
 20
39.45568897963902
 30
0.0
 11
19.40475537814109
 21
39.45568897963902
 31
0.0
  0
LINE
  5
83
330
1F
100
AcDbEntity
  8
1
  6
PHANTOM
 62
     2
100
AcDbLine
 10
-43.09524462185891
 20
-16.54431102036098
 30
0.0
 11
-43.09524462185891
 21
39.45568897963902
 31
0.0
  0
LINE
  5
84
330
1F
100
AcDbEntity
  8
1
  6
Continuous
 62
     7
100
AcDbLine
 10
6.40475537814109
 20
13.45568897963902
 30
0.0
 11
6.40475537814109
 21
12.45568897963902
 31
0.0
  0
LINE
  5
85
330
1F
100
AcDbEntity
  8
1
  6
DASHED
 62
     2
100
AcDbLine
 10
61.4047553781412
 20
-7.7943110203768
 30
0.0
 11
21.40475537814109
 21
-7.7943110203768
 31
0.0
  0
LINE
  5
86
330
1F
100
AcDbEntity
  8
1
  6
DASHED
 62
     2
100
AcDbLine
 10
61.4047553781412
 20
4.20568897962316
 30
0.0
 11
43.4824441178281
 21
4.20568897962316
 31
0.0
  0
LINE
  5
87
330
1F
100
AcDbEntity
  8
1
  6
Continuous
 62
     7
100
AcDbLine
 10
-7.09524462185891
 20
10.95568897964911
 30
0.0
 11
-7.09524462185891
 21
-16.54431102036098
 31
0.0
  0
LINE
  5
88
330
1F
100
AcDbEntity
  8
1
  6
Continuous
 62
     7
100
AcDbLine
 10
-7.09524462185891
 20
10.95568897964911
 30
0.0
 11
-3.59524462185891
 21
10.95568897964762
 31
0.0
  0
LINE
  5
89
330
1F
100
AcDbEntity
  8
1
  6
Continuous
 62
     7
100
AcDbLine
 10
6.40475537814109
 20
13.45568897963902
 30
0.0
 11
19.4047553781412
 21
13.45568897963902
 31
0.0
  0
LINE
  5
8A
330
1F
100
AcDbEntity
  8
1
  6
Continuous
 62
     7
100
AcDbLine
 10
19.4047553781412
 20
13.45568897963902
 30
0.0
 11
19.40475537814109
 21
39.45568897963902
 31
0.0
  0
LINE
  5
8B
330
1F
100
AcDbEntity
  8
1
  6
Continuous
 62
     7
100
AcDbLine
 10
6.40475537814109
 20
-16.54431102036098
 30
0.0
 11
-3.59524462185891
 21
-16.54431102036098
 31
0.0
  0
LINE
  5
8C
330
1F
100
AcDbEntity
  8
1
  6
Continuous
 62
     7
100
AcDbLine
 10
-3.59524462185891
 20
-16.54431102036098
 30
0.0
 11
-3.59524462185891
 21
10.95568897964762
 31
0.0
  0
LINE
  5
8D
330
1F
100
AcDbEntity
  8
1
  6
Continuous
 62
     7
100
AcDbLine
 10
-43.09524462185891
 20
-16.54431102036098
 30
0.0
 11
-17.59524462185891
 21
-16.54431102036098
 31
0.0
  0
LINE
  5
8E
330
1F
100
AcDbEntity
  8
1
  6
Continuous
 62
     7
100
AcDbLine
 10
6.40475537814109
 20
10.27594679213881
 30
0.0
 11
6.40475537814109
 21
-16.54431102036098
 31
0.0
  0
LINE
  5
8F
330
1F
100
AcDbEntity
  8
1
  6
Continuous
 62
     7
100
AcDbLine
 10
-17.59524462185891
 20
-11.54431102036098
 30
0.0
 11
-17.59524462185891
 21
-13.54431102036098
 31
0.0
  0
LINE
  5
90
330
1F
100
AcDbEntity
  8
1
  6
Continuous
 62
     7
100
AcDbLine
 10
-17.59524462185891
 20
-16.54431102036098
 30
0.0
 11
-7.09524462185891
 21
-16.54431102036098
 31
0.0
  0
LINE
  5
91
330
1F
100
AcDbEntity
  8
1
  6
Continuous
 62
     7
100
AcDbLine
 10
3.40475537814109
 20
-13.54431102036098
 30
0.0
 11
-3.59524462185891
 21
-13.54431102036098
 31
0.0
  0
LINE
  5
92
330
1F
100
AcDbEntity
  8
1
  6
Continuous
 62
     7
100
AcDbLine
 10
-17.59524462185891
 20
-13.54431102036098
 30
0.0
 11
-17.59524462185891
 21
-16.54431102036098
 31
0.0
  0
LINE
  5
93
330
1F
100
AcDbEntity
  8
1
  6
Continuous
 62
     7
100
AcDbLine
 10
-10.59524462185891
 20
-13.54431102036098
 30
0.0
 11
-10.59524462185891
 21
-16.54431102036098
 31
0.0
  0
LINE
  5
94
330
1F
100
AcDbEntity
  8
1
  6
Continuous
 62
     7
100
AcDbLine
 10
-0.59524462185891
 20
-13.54431102036098
 30
0.0
 11
-0.59524462185891
 21
-16.54431102036098
 31
0.0
  0
LINE
  5
95
330
1F
100
AcDbEntity
  8
1
  6
DASHED
 62
     2
100
AcDbLine
 10
61.4047553781412
 20
4.20568897962316
 30
0.0
 11
66.4047553781412
 21
2.86594301746755
 31
0.0
  0
LINE
  5
96
330
1F
100
AcDbEntity
  8
1
  6
DASHED
 62
     2
100
AcDbLine
 10
66.4047553781412
 20
2.86594301746755
 30
0.0
 11
66.4047553781412
 21
-6.45456505822122
 31
0.0
  0
LINE
  5
97
330
1F
100
AcDbEntity
  8
1
  6
DASHED
 62
     2
100
AcDbLine
 10
66.4047553781412
 20
-6.45456505822122
 30
0.0
 11
61.4047553781412
 21
-7.7943110203768
 31
0.0
  0
LINE
  5
98
330
1F
100
AcDbEntity
  8
1
  6
DASHED
 62
     2
100
AcDbLine
 10
61.4047553781412
 20
4.20568897962316
 30
0.0
 11
61.4047553781412
 21
-7.7943110203768
 31
0.0
  0
LINE
  5
99
330
1F
100
AcDbEntity
  8
1
  6
Continuous
 62
     7
100
AcDbLine
 10
7.40475537814109
 20
11.72363817207012
 30
0.0
 11
7.40475537814109
 21
12.45568897963902
 31
0.0
  0
LINE
  5
9A
330
1F
100
AcDbEntity
  8
1
  6
Continuous
 62
     7
100
AcDbLine
 10
8.71415645489958
 20
9.45568897963902
 30
0.0
 11
7.40475537814109
 21
11.72363817207012
 31
0.0
  0
LINE
  5
9B
330
1F
100
AcDbEntity
  8
1
  6
Continuous
 62
     7
100
AcDbLine
 10
17.09535430138266
 20
9.45568897963902
 30
0.0
 11
8.71415645489958
 21
9.45568897963902
 31
0.0
  0
LINE
  5
9C
330
1F
100
AcDbEntity
  8
1
  6
Continuous
 62
     7
100
AcDbLine
 10
18.4047553781412
 20
11.72363817207012
 30
0.0
 11
17.09535430138266
 21
9.45568897963902
 31
0.0
  0
LINE
  5
9D
330
1F
100
AcDbEntity
  8
1
  6
Continuous
 62
     7
100
AcDbLine
 10
18.40475537814109
 20
12.45568897963902
 30
0.0
 11
18.4047553781412
 21
11.72363817207012
 31
0.0
  0
LINE
  5
9E
330
1F
100
AcDbEntity
  8
1
  6
Continuous
 62
     7
100
AcDbLine
 10
7.40475537814109
 20
12.45568897963902
 30
0.0
 11
18.40475537814109
 21
12.45568897963902
 31
0.0
  0
LINE
  5
9F
330
1F
100
AcDbEntity
  8
1
  6
Continuous
 62
     7
100
AcDbLine
 10
19.4047553781412
 20
11.45568897963902
 30
0.0
 11
19.4047553781412
 21
13.45568897963902
 31
0.0
  0
LINE
  5
A0
330
1F
100
AcDbEntity
  8
1
  6
Continuous
 62
     7
100
AcDbLine
 10
17.67270457057231
 20
8.45568897963902
 30
0.0
 11
19.4047553781412
 21
11.45568897963902
 31
0.0
  0
LINE
  5
A1
330
1F
100
AcDbEntity
  8
1
  6
Continuous
 62
     7
100
AcDbLine
 10
8.13680618570999
 20
8.45568897963902
 30
0.0
 11
9.90475537814109
 21
8.45568897963902
 31
0.0
  0
LINE
  5
A2
330
1F
100
AcDbEntity
  8
1
  6
Continuous
 62
     7
100
AcDbLine
 10
6.40475537814109
 20
11.45568897963902
 30
0.0
 11
8.13680618570999
 21
8.45568897963902
 31
0.0
  0
LINE
  5
A3
330
1F
100
AcDbEntity
  8
1
  6
DOT_CENTER
 62
     2
100
AcDbLine
 10
35.73879963356711
 20
-1.79431102036074
 30
0.0
 11
16.40475537814109
 21
-1.79431102036098
 31
0.0
  0
LINE
  5
A4
330
1F
100
AcDbEntity
  8
1
  6
DASHED
 62
     2
100
AcDbLine
 10
21.40475537814109
 20
-4.79431102036098
 30
0.0
 11
20.45475537814109
 21
-4.79431102036098
 31
0.0
  0
LINE
  5
A5
330
1F
100
AcDbEntity
  8
1
  6
Continuous
 62
     7
100
AcDbLine
 10
21.40475537814109
 20
-4.79431102036098
 30
0.0
 11
21.40475537814109
 21
-10.79431102036098
 31
0.0
  0
LINE
  5
A6
330
1F
100
AcDbEntity
  8
1
  6
DASHED
 62
     2
100
AcDbLine
 10
20.45475537814109
 20
-4.79431102036098
 30
0.0
 11
18.20475537814109
 21
-7.04431102036098
 31
0.0
  0
LINE
  5
A7
330
1F
100
AcDbEntity
  8
1
  6
DASHED
 62
     2
100
AcDbLine
 10
21.40475537814109
 20
1.20568897963902
 30
0.0
 11
20.45475537814109
 21
1.20568897963902
 31
0.0
  0
LINE
  5
A8
330
1F
100
AcDbEntity
  8
1
  6
Continuous
 62
     7
100
AcDbLine
 10
21.40475537814109
 20
1.20568897963902
 30
0.0
 11
21.40475537814109
 21
-4.79431102036098
 31
0.0
  0
LINE
  5
A9
330
1F
100
AcDbEntity
  8
1
  6
DASHED
 62
     2
100
AcDbLine
 10
20.45475537814109
 20
1.20568897963902
 30
0.0
 11
18.20475537814109
 21
3.45568897963902
 31
0.0
  0
LINE
  5
AA
330
1F
100
AcDbEntity
  8
1
  6
DASHED
 62
     2
100
AcDbLine
 10
20.45475537814109
 20
-4.79431102036098
 30
0.0
 11
20.45475537814109
 21
1.20568897963902
 31
0.0
  0
LINE
  5
AB
330
1F
100
AcDbEntity
  8
1
  6
DASHED
 62
     2
100
AcDbLine
 10
18.20475537814109
 20
-7.04431102036098
 30
0.0
 11
18.20475537814109
 21
3.45568897963902
 31
0.0
  0
LINE
  5
AC
330
1F
100
AcDbEntity
  8
1
  6
DASHED
 62
     2
100
AcDbLine
 10
18.20475537814109
 20
-7.04431102036098
 30
0.0
 11
17.90475537814109
 21
-7.04431102036098
 31
0.0
  0
LINE
  5
AD
330
1F
100
AcDbEntity
  8
1
  6
Continuous
 62
     7
100
AcDbLine
 10
17.90475537814109
 20
-7.04431102036098
 30
0.0
 11
17.90475537814109
 21
-8.54431102036098
 31
0.0
  0
LINE
  5
AE
330
1F
100
AcDbEntity
  8
1
  6
DASHED
 62
     2
100
AcDbLine
 10
18.20475537814109
 20
3.45568897963902
 30
0.0
 11
17.90475537814109
 21
3.45568897963902
 31
0.0
  0
LINE
  5
AF
330
1F
100
AcDbEntity
  8
1
  6
Continuous
 62
     7
100
AcDbLine
 10
17.90475537814109
 20
3.45568897963902
 30
0.0
 11
17.90475537814109
 21
-7.04431102036098
 31
0.0
  0
LINE
  5
B0
330
1F
100
AcDbEntity
  8
1
  6
DOT_CENTER
 62
     2
100
AcDbLine
 10
33.00795014949506
 20
-13.79431102036098
 30
0.0
 11
16.40475537814109
 21
-13.79431102036098
 31
0.0
  0
LINE
  5
B1
330
1F
100
AcDbEntity
  8
1
  6
DASHED
 62
     2
100
AcDbLine
 10
21.40475537814109
 20
-16.79431102036098
 30
0.0
 11
20.45475537814109
 21
-16.79431102036098
 31
0.0
  0
LINE
  5
B2
330
1F
100
AcDbEntity
  8
1
  6
Continuous
 62
     7
100
AcDbLine
 10
21.40475537814109
 20
-16.79431102036098
 30
0.0
 11
21.40475537814109
 21
-24.79431102036098
 31
0.0
  0
LINE
  5
B3
330
1F
100
AcDbEntity
  8
1
  6
DASHED
 62
     2
100
AcDbLine
 10
20.45475537814109
 20
-16.79431102036098
 30
0.0
 11
18.20475537814109
 21
-19.04431102036098
 31
0.0
  0
LINE
  5
B4
330
1F
100
AcDbEntity
  8
1
  6
DASHED
 62
     2
100
AcDbLine
 10
21.40475537814109
 20
-10.79431102036098
 30
0.0
 11
20.45475537814109
 21
-10.79431102036098
 31
0.0
  0
LINE
  5
B5
330
1F
100
AcDbEntity
  8
1
  6
Continuous
 62
     7
100
AcDbLine
 10
21.40475537814109
 20
-10.79431102036098
 30
0.0
 11
21.40475537814109
 21
-16.79431102036098
 31
0.0
  0
LINE
  5
B6
330
1F
100
AcDbEntity
  8
1
  6
DASHED
 62
     2
100
AcDbLine
 10
20.45475537814109
 20
-10.79431102036098
 30
0.0
 11
18.20475537814109
 21
-8.54431102036098
 31
0.0
  0
LINE
  5
B7
330
1F
100
AcDbEntity
  8
1
  6
DASHED
 62
     2
100
AcDbLine
 10
20.45475537814109
 20
-16.79431102036098
 30
0.0
 11
20.45475537814109
 21
-10.79431102036098
 31
0.0
  0
LINE
  5
B8
330
1F
100
AcDbEntity
  8
1
  6
DASHED
 62
     2
100
AcDbLine
 10
18.20475537814109
 20
-19.04431102036098
 30
0.0
 11
18.20475537814109
 21
-8.54431102036098
 31
0.0
  0
LINE
  5
B9
330
1F
100
AcDbEntity
  8
1
  6
DASHED
 62
     2
100
AcDbLine
 10
18.20475537814109
 20
-19.04431102036098
 30
0.0
 11
17.90475537814109
 21
-19.04431102036098
 31
0.0
  0
LINE
  5
BA
330
1F
100
AcDbEntity
  8
1
  6
Continuous
 62
     7
100
AcDbLine
 10
17.90475537814109
 20
-19.04431102036098
 30
0.0
 11
17.90475537814109
 21
-20.29431102036098
 31
0.0
  0
LINE
  5
BB
330
1F
100
AcDbEntity
  8
1
  6
DASHED
 62
     2
100
AcDbLine
 10
18.20475537814109
 20
-8.54431102036098
 30
0.0
 11
17.90475537814109
 21
-8.54431102036098
 31
0.0
  0
LINE
  5
BC
330
1F
100
AcDbEntity
  8
1
  6
Continuous
 62
     7
100
AcDbLine
 10
17.90475537814109
 20
-8.54431102036098
 30
0.0
 11
17.90475537814109
 21
-19.04431102036098
 31
0.0
  0
LINE
  5
BD
330
1F
100
AcDbEntity
  8
1
  6
Continuous
 62
     7
100
AcDbLine
 10
-17.59524462185891
 20
12.45568897963902
 30
0.0
 11
3.40475537814109
 21
12.45568897963902
 31
0.0
  0
LINE
  5
BE
330
1F
100
AcDbEntity
  8
1
  6
Continuous
 62
     7
100
AcDbLine
 10
-17.59524462185891
 20
12.45568897963902
 30
0.0
 11
-17.59524462185891
 21
-11.54431102036098
 31
0.0
  0
LINE
  5
BF
330
1F
100
AcDbEntity
  8
1
  6
Continuous
 62
     7
100
AcDbLine
 10
3.40475537814109
 20
12.45568897963902
 30
0.0
 11
3.40475537814109
 21
-13.54431102036098
 31
0.0
  0
LINE
  5
C0
330
1F
100
AcDbEntity
  8
1
  6
Continuous
 62
     7
100
AcDbLine
 10
3.40475537814109
 20
12.45568897963902
 30
0.0
 11
6.40475537814109
 21
12.45568897963902
 31
0.0
  0
LINE
  5
C1
330
1F
100
AcDbEntity
  8
1
  6
Continuous
 62
     7
100
AcDbLine
 10
6.40475537814109
 20
12.45568897963902
 30
0.0
 11
6.40475537814109
 21
10.27594679213881
 31
0.0
  0
LINE
  5
C2
330
1F
100
AcDbEntity
  8
1
  6
Continuous
 62
     7
100
AcDbLine
 10
22.40475537814122
 20
8.45568897963902
 30
0.0
 11
22.40475537814115
 21
24.45568897963902
 31
0.0
  0
LINE
  5
C3
330
1F
100
AcDbEntity
  8
1
  6
Continuous
 62
     7
100
AcDbLine
 10
22.40475537814115
 20
24.45568897963902
 30
0.0
 11
76.01332866124
 21
24.45568897963902
 31
0.0
  0
LINE
  5
C4
330
1F
100
AcDbEntity
  8
1
  6
PHANTOM
 62
     2
100
AcDbLine
 10
76.01332866124
 20
24.45568897963902
 30
0.0
 11
76.01332866124
 21
8.45568897963902
 31
0.0
  0
ARC
  5
C5
330
1F
100
AcDbEntity
  8
1
  6
Continuous
 62
     7
100
AcDbCircle
 10
-16.09524462185891
 20
-29.79431102036098
 30
0.0
 40
7.750000000000091
100
AcDbArc
 50
26.38779996124244
 51
59.67496718292224
  0
ARC
  5
C6
330
1F
100
AcDbEntity
  8
1
  6
Continuous
 62
     7
100
AcDbCircle
 10
-16.09524462185891
 20
-29.79431102036098
 30
0.0
 40
7.75000000000009
100
AcDbArc
 50
59.67496718292224
 51
0.0
  0
ARC
  5
C7
330
1F
100
AcDbEntity
  8
1
  6
Continuous
 62
     7
100
AcDbCircle
 10
-16.09524462185891
 20
-29.79431102036098
 30
0.0
 40
7.750000000000092
100
AcDbArc
 50
0.0
 51
26.38779996124244
  0
ARC
  5
C8
330
1F
100
AcDbEntity
  8
1
  6
Continuous
 62
     7
100
AcDbCircle
 10
-16.09524462185891
 20
-29.79431102036098
 30
0.0
 40
11.25000000000009
100
AcDbArc
 50
59.6749671829222
 51
26.38779996124276
  0
ARC
  5
C9
330
1F
100
AcDbEntity
  8
1
  6
Continuous
 62
     7
100
AcDbCircle
 10
2.31172459015318
 20
-18.91931102036098
 30
0.0
 40
2.375
100
AcDbArc
 50
90.0
 51
-90.0
  0
ARC
  5
CA
330
1F
100
AcDbEntity
  8
1
  6
Continuous
 62
     7
100
AcDbCircle
 10
2.31172459015318
 20
-18.91931102036098
 30
0.0
 40
1.375
100
AcDbArc
 50
90.0
 51
-90.0
  0
ARC
  5
CB
330
1F
100
AcDbEntity
  8
1
  6
Continuous
 62
     7
100
AcDbCircle
 10
-8.20974881835644
 20
-20.79431102036098
 30
0.0
 40
4.000000000000003
100
AcDbArc
 50
-120.3250328170778
 51
-90.00000000000003
  0
ARC
  5
CC
330
1F
100
AcDbEntity
  8
1
  6
Continuous
 62
     7
100
AcDbCircle
 10
-8.20974881835644
 20
-20.79431102036098
 30
0.0
 40
0.5000000000000031
100
AcDbArc
 50
-120.3250328170776
 51
-90.0
  0
ARC
  5
CD
330
1F
100
AcDbEntity
  8
1
  6
Continuous
 62
     7
100
AcDbCircle
 10
17.90475537814109
 20
-21.29431102036098
 30
0.0
 40
3.5
100
AcDbArc
 50
-90.0
 51
0.0
  0
ARC
  5
CE
330
1F
100
AcDbEntity
  8
1
  6
Continuous
 62
     7
100
AcDbCircle
 10
17.40475537814109
 20
-20.79431102036098
 30
0.0
 40
0.5
100
AcDbArc
 50
-90.0
 51
0.0
  0
ARC
  5
CF
330
1F
100
AcDbEntity
  8
1
  6
Continuous
 62
     7
100
AcDbCircle
 10
17.90475537814109
 20
-21.29431102036098
 30
0.0
 40
1.0
100
AcDbArc
 50
-90.0
 51
0.0
  0
ARC
  5
D0
330
1F
100
AcDbEntity
  8
1
  6
Continuous
 62
     7
100
AcDbCircle
 10
16.34818904859446
 20
-19.89431102036097
 30
0.0
 40
0.4000000000000092
100
AcDbArc
 50
-90.0
 51
14.9999999999953
  0
ARC
  5
D1
330
1F
100
AcDbEntity
  8
1
  6
Continuous
 62
     7
100
AcDbCircle
 10
16.14113381251241
 20
-19.89431102036097
 30
0.0
 40
0.4000000000000881
100
AcDbArc
 50
-165.0000000000047
 51
-90.0
  0
ARC
  5
D2
330
1F
100
AcDbEntity
  8
1
  6
Continuous
 62
     7
100
AcDbCircle
 10
14.27763668777436
 20
-19.89431102036097
 30
0.0
 40
0.4000000000000092
100
AcDbArc
 50
-90.0
 51
15.00000000000162
  0
ARC
  5
D3
330
1F
100
AcDbEntity
  8
1
  6
Continuous
 62
     7
100
AcDbCircle
 10
14.07058145169219
 20
-19.89431102036097
 30
0.0
 40
0.3999999999999714
100
AcDbArc
 50
-165.0000000000002
 51
-90.0
  0
ARC
  5
D4
330
1F
100
AcDbEntity
  8
1
  6
Continuous
 62
     7
100
AcDbCircle
 10
12.21436136231557
 20
-19.89431102036097
 30
0.0
 40
0.4000000000000092
100
AcDbArc
 50
-90.0
 51
14.22058743217946
  0
ARC
  5
D5
330
1F
100
AcDbEntity
  8
1
  6
Continuous
 62
     7
100
AcDbCircle
 10
10.30475537814118
 20
-19.89431102036097
 30
0.0
 40
0.4000000000000909
100
AcDbArc
 50
180.0
 51
-90.0
  0
ARC
  5
D6
330
1F
100
AcDbEntity
  8
1
  6
Continuous
 62
     7
100
AcDbCircle
 10
8.50475537814111
 20
-19.89431102036097
 30
0.0
 40
0.4000000000000092
100
AcDbArc
 50
-90.0
 51
0.0
  0
ARC
  5
D7
330
1F
100
AcDbEntity
  8
1
  6
Continuous
 62
     7
100
AcDbCircle
 10
7.54462099822109
 20
-16.94431102036099
 30
0.0
 40
0.4000000000000909
100
AcDbArc
 50
0.0
 51
90.0
  0
ARC
  5
D8
330
1F
100
AcDbEntity
  8
1
  6
Continuous
 62
     7
100
AcDbCircle
 10
7.54462099822109
 20
-17.14431102036097
 30
0.0
 40
0.4000000000000092
100
AcDbArc
 50
-90.0
 51
0.0
  0
ARC
  5
D9
330
1F
100
AcDbEntity
  8
1
  6
Continuous
 62
     7
100
AcDbCircle
 10
9.30475537814118
 20
-14.94431102036099
 30
0.0
 40
0.400000000000011
100
AcDbArc
 50
90.0
 51
180.0
  0
DIMENSION
  5
E6
330
1F
100
AcDbEntity
  8
1
100
AcDbDimension
  2
*D1
 10
-3.09524462185891
 20
-55.71374332621319
 30
0.0
 11
2.97889074431689
 21
-51.96374332621319
 31
0.0
 70
    32
  1
<>
 71
     5
 42
-1.0
 53
0.00013888888889
  3
ME10_DIM_10
100
AcDbAlignedDimension
 13
9.90475537814109
 23
-17.29431102036098
 33
0.0
 14
-3.09524462185891
 24
-35.29431102036098
 34
0.0
100
AcDbRotatedDimension
  0
DIMENSION
  5
F1
330
1F
100
AcDbEntity
  8
1
100
AcDbDimension
  2
*D2
 10
101.428369725884
 20
5.20568897963902
 30
0.0
 11
97.67836972588401
 21
-10.1323449266432
 31
0.0
 70
    32
  1
<>
 71
     5
 42
-1.0
 53
90.0
  3
ME10_DIM_11
100
AcDbAlignedDimension
 13
21.40475537814109
 23
-24.79431102036098
 33
0.0
 14
21.40475537814109
 24
5.20568897963902
 34
0.0
 50
90.0
100
AcDbRotatedDimension
  0
DIMENSION
  5
FC
330
1F
100
AcDbEntity
  8
1
100
AcDbDimension
  2
*D3
 10
88.693956275674
 20
5.20568897963902
 30
0.0
 11
84.943956275674
 21
-6.4939410837259
 31
0.0
 70
    32
  1
<>
 71
     5
 42
-1.0
 53
90.0
  3
ME10_DIM_12
100
AcDbAlignedDimension
 13
11.90475537814109
 23
-17.29431102036098
 33
0.0
 14
21.40475537814109
 24
5.20568897963902
 34
0.0
 50
90.0
100
AcDbRotatedDimension
  0
DIMENSION
  5
107
330
1F
100
AcDbEntity
  8
1
100
AcDbDimension
  2
*D4
 10
-49.41256839550192
 20
-16.54431102036098
 30
0.0
 11
-53.16256839550192
 21
-22.97183455789528
 31
0.0
 70
    32
  1
13
 71
     5
 42
-1.0
 53
90.0
  3
ME10_DIM_13
100
AcDbAlignedDimension
 13
-28.9096019250029
 23
-29.79431102036098
 33
0.0
 14
-43.09524462185891
 24
-16.54431102036098
 34
0.0
 50
90.0
100
AcDbRotatedDimension
  0
DIMENSION
  5
112
330
1F
100
AcDbEntity
  8
1
100
AcDbDimension
  2
*D5
 10
-57.27891490216689
 20
-29.79431102036098
 30
0.0
 11
-61.02891490216689
 21
-8.41909352056499
 31
0.0
 70
    32
  1
40.5
 71
     5
 42
-1.0
 53
90.0
  3
ME10_DIM_14
100
AcDbAlignedDimension
 13
-7.09524462185891
 23
10.95568897964911
 33
0.0
 14
-28.9096019250029
 24
-29.79431102036098
 34
0.0
 50
90.0
100
AcDbRotatedDimension
  0
DIMENSION
  5
11F
330
1F
100
AcDbEntity
  8
1
100
AcDbDimension
  2
*D6
 10
-16.09524462185891
 20
58.50404825176803
 30
0.0
 11
-12.3362071787389
 21
62.25404825176803
 31
0.0
 70
    32
  1
<>
 71
     5
 42
-1.0
 53
0.00013888888889
  3
ME10_DIM_15
100
AcDbAlignedDimension
 13
-7.09524462185891
 23
10.95568897964911
 33
0.0
 14
-16.09524462185891
 24
-17.8734256337615
 34
0.0
100
AcDbRotatedDimension
  0
DIMENSION
  5
12A
330
1F
100
AcDbEntity
  8
1
100
AcDbDimension
  2
*D7
 10
6.40475537814109
 20
49.4600345112516
 30
0.0
 11
1.07543915428704
 21
53.2100345112516
 31
0.0
 70
    32
  1
<>
 71
     5
 42
-1.0
 53
0.00013888888889
  3
ME10_DIM_16
100
AcDbAlignedDimension
 13
-3.59524462185891
 23
10.95568897964762
 33
0.0
 14
6.40475537814109
 24
10.27594679213881
 34
0.0
100
AcDbRotatedDimension
  0
DIMENSION
  5
135
330
1F
100
AcDbEntity
  8
1
100
AcDbDimension
  2
*D8
 10
21.40475537814109
 20
-66.039837441709
 30
0.0
 11
14.8900760125976
 21
-62.289837441709
 31
0.0
 70
    32
  1
<>
 71
     5
 42
-1.0
 53
0.00013888888889
  3
ME10_DIM_17
100
AcDbAlignedDimension
 13
9.90475537814109
 23
-17.29431102036098
 33
0.0
 14
21.40475537814109
 24
-16.79431102036098
 34
0.0
100
AcDbRotatedDimension
  0
DIMENSION
  5
140
330
1F
100
AcDbEntity
  8
1
100
AcDbDimension
  2
*D9
 10
-16.09524462185891
 20
-66.0616509167381
 30
0.0
 11
-1.86366448197671
 21
-62.3116509167381
 31
0.0
 70
    32
  1
<>
 71
     5
 42
-1.0
 53
0.00013888888889
  3
ME10_DIM_18
100
AcDbAlignedDimension
 13
9.90475537814109
 23
-17.29431102036098
 33
0.0
 14
-16.09524462185891
 24
-43.34169625365398
 34
0.0
100
AcDbRotatedDimension
  0
DIMENSION
  5
14D
330
1F
100
AcDbEntity
  8
1
100
AcDbDimension
  2
*D10
 10
17.90475537814109
 20
-55.71374332621319
 30
0.0
 11
27.8838811555898
 21
-51.96374332621319
 31
0.0
 70
    32
  1
<>
 71
     5
 42
-1.0
 53
0.00013888888889
  3
ME10_DIM_19
100
AcDbAlignedDimension
 13
21.40475537814109
 23
-24.79431102036098
 33
0.0
 14
17.90475537814109
 24
-20.29431102036098
 34
0.0
100
AcDbRotatedDimension
  0
DIMENSION
  5
15A
330
1F
100
AcDbEntity
  8
3
100
AcDbDimension
  2
*D11
 10
6.40475537814109
 20
-45.8620058210636
 30
0.0
 11
-0.81227678969546
 21
-42.1120058210636
 31
0.0
 70
    32
  1
<>
 71
     5
 42
-1.0
 53
0.00013888888889
  3
ME10_DIM_20
100
AcDbAlignedDimension
 13
9.90475537814109
 23
-19.89431102036097
 33
0.0
 14
6.40475537814109
 24
-16.54431102036098
 34
0.0
100
AcDbRotatedDimension
  0
ENDSEC
  0
SECTION
  2
OBJECTS
  0
DICTIONARY
  5
C
330
0
100
AcDbDictionary
281
     1
  3
ACAD_GROUP
350
D
  3
ACAD_LAYOUT
350
1A
  3
ACAD_MLINESTYLE
350
17
  3
ACAD_PLOTSETTINGS
350
19
  3
ACAD_PLOTSTYLENAME
350
E
  0
DICTIONARY
  5
D
102
{ACAD_REACTORS
330
C
102
}
330
C
100
AcDbDictionary
281
     1
  0
DICTIONARY
  5
1A
102
{ACAD_REACTORS
330
C
102
}
330
C
100
AcDbDictionary
281
     1
  3
Layout1
350
1E
  3
Layout2
350
26
  3
Model
350
22
  0
DICTIONARY
  5
17
102
{ACAD_REACTORS
330
C
102
}
330
C
100
AcDbDictionary
281
     1
  3
Standard
350
18
  0
DICTIONARY
  5
19
102
{ACAD_REACTORS
330
C
102
}
330
C
100
AcDbDictionary
281
     1
  0
ACDBDICTIONARYWDFLT
  5
E
102
{ACAD_REACTORS
330
C
102
}
330
C
100
AcDbDictionary
281
     1
  3
Normal
350
F
100
AcDbDictionaryWithDefault
340
F
  0
LAYOUT
  5
1E
102
{ACAD_REACTORS
330
1A
102
}
330
1A
100
AcDbPlotSettings
  1

  2

  4

  6

 40
0.0
 41
0.0
 42
0.0
 43
0.0
 44
0.0
 45
0.0
 46
0.0
 47
0.0
 48
0.0
 49
0.0
140
0.0
141
0.0
142
1.0
143
1.0
 70
   688
 72
     0
 73
     0
 74
     5
  7

 75
    16
 76
     0
 77
     2
 78
   300
147
1.0
148
0.0
149
0.0
100
AcDbLayout
  1
Layout1
 70
     1
 71
     1
 10
0.0
 20
0.0
 11
0.0
 21
0.0
 12
0.0
 22
0.0
 32
0.0
 14
0.0
 24
0.0
 34
0.0
 15
0.0
 25
0.0
 35
0.0
146
0.0
 13
0.0
 23
0.0
 33
0.0
 16
1.0
 26
0.0
 36
0.0
 17
0.0
 27
1.0
 37
0.0
 76
     0
330
1B
  0
LAYOUT
  5
26
102
{ACAD_REACTORS
330
1A
102
}
330
1A
100
AcDbPlotSettings
  1

  2

  4

  6

 40
0.0
 41
0.0
 42
0.0
 43
0.0
 44
0.0
 45
0.0
 46
0.0
 47
0.0
 48
0.0
 49
0.0
140
0.0
141
0.0
142
1.0
143
1.0
 70
   688
 72
     0
 73
     0
 74
     5
  7

 75
    16
 76
     0
 77
     2
 78
   300
147
1.0
148
0.0
149
0.0
100
AcDbLayout
  1
Layout2
 70
     1
 71
     2
 10
0.0
 20
0.0
 11
0.0
 21
0.0
 12
0.0
 22
0.0
 32
0.0
 14
0.0
 24
0.0
 34
0.0
 15
0.0
 25
0.0
 35
0.0
146
0.0
 13
0.0
 23
0.0
 33
0.0
 16
1.0
 26
0.0
 36
0.0
 17
0.0
 27
1.0
 37
0.0
 76
     0
330
23
  0
LAYOUT
  5
22
102
{ACAD_REACTORS
330
1A
102
}
330
1A
100
AcDbPlotSettings
  1

  2

  4

  6

 40
0.0
 41
0.0
 42
0.0
 43
0.0
 44
0.0
 45
0.0
 46
0.0
 47
0.0
 48
0.0
 49
0.0
140
0.0
141
0.0
142
1.0
143
1.0
 70
  1712
 72
     0
 73
     0
 74
     0
  7

 75
     0
 76
     0
 77
     2
 78
   300
147
1.0
148
0.0
149
0.0
100
AcDbLayout
  1
Model
 70
     1
 71
     0
 10
0.0
 20
0.0
 11
0.0
 21
0.0
 12
0.0
 22
0.0
 32
0.0
 14
-62.77891490216689
 24
-68.0616509167381
 34
0.0
 15
103.428369725884
 25
64.00404825176804
 35
0.0
146
0.0
 13
0.0
 23
0.0
 33
0.0
 16
1.0
 26
0.0
 36
0.0
 17
0.0
 27
1.0
 37
0.0
 76
     0
330
1F
  0
MLINESTYLE
  5
18
102
{ACAD_REACTORS
330
17
102
}
330
17
100
AcDbMlineStyle
  2
Standard
 70
     0
  3

 62
   256
 51
90.0
 52
90.0
 71
     2
 49
0.5
 62
   256
  6
BYLAYER
 49
-0.5
 62
   256
  6
BYLAYER
  0
ACDBPLACEHOLDER
  5
F
102
{ACAD_REACTORS
330
E
102
}
330
E
  0
ENDSEC
  0
EOF
