  0
SECTION
  2
HEADER
  9
$ACADVER
  1
AC1018
  9
$ACADMAINTVER
 70
     0
  9
$DWGCODEPAGE
  3
ANSI_1252
  9
$INSBASE
 10
0.0
 20
0.0
 30
0.0
  9
$EXTMIN
 10
-69.43343976986904
 20
-67.0847752818909
 30
0.0
  9
$EXTMAX
 10
98.733275818751
 20
57.3110298285922
 30
0.0
  9
$LIMMIN
 10
0.0
 20
0.0
  9
$LIMMAX
 10
12.0
 20
9.0
  9
$ORTHOMODE
 70
     0
  9
$REGENMODE
 70
     1
  9
$FILLMODE
 70
     1
  9
$QTEXTMODE
 70
     0
  9
$MIRRTEXT
 70
     1
  9
$LTSCALE
 40
1.0
  9
$ATTMODE
 70
     1
  9
$TEXTSIZE
 40
0.2
  9
$TRACEWID
 40
0.05
  9
$TEXTSTYLE
  7
Standard
  9
$CLAYER
  8
0
  9
$CELTYPE
  6
ByLayer
  9
$CECOLOR
 62
   256
  9
$CELTSCALE
 40
1.0
  9
$DISPSILH
 70
     0
  9
$DIMSCALE
 40
1.0
  9
$DIMASZ
 40
0.18
  9
$DIMEXO
 40
0.0625
  9
$DIMDLI
 40
0.38
  9
$DIMRND
 40
0.0
  9
$DIMDLE
 40
0.0
  9
$DIMEXE
 40
0.18
  9
$DIMTP
 40
0.0
  9
$DIMTM
 40
0.0
  9
$DIMTXT
 40
0.18
  9
$DIMCEN
 40
0.09
  9
$DIMTSZ
 40
0.0
  9
$DIMTOL
 70
     0
  9
$DIMLIM
 70
     0
  9
$DIMTIH
 70
     1
  9
$DIMTOH
 70
     1
  9
$DIMSE1
 70
     0
  9
$DIMSE2
 70
     0
  9
$DIMTAD
 70
     0
  9
$DIMZIN
 70
     0
  9
$DIMBLK
  1

  9
$DIMASO
 70
     1
  9
$DIMSHO
 70
     1
  9
$DIMPOST
  1

  9
$DIMAPOST
  1

  9
$DIMALT
 70
     0
  9
$DIMALTD
 70
     2
  9
$DIMALTF
 40
25.4
  9
$DIMLFAC
 40
1.0
  9
$DIMTOFL
 70
     0
  9
$DIMTVP
 40
0.0
  9
$DIMTIX
 70
     0
  9
$DIMSOXD
 70
     0
  9
$DIMSAH
 70
     0
  9
$DIMBLK1
  1

  9
$DIMBLK2
  1

  9
$DIMSTYLE
  2
Standard
  9
$DIMCLRD
 70
     0
  9
$DIMCLRE
 70
     0
  9
$DIMCLRT
 70
     0
  9
$DIMTFAC
 40
1.0
  9
$DIMGAP
 40
0.09
  9
$DIMJUST
 70
     0
  9
$DIMSD1
 70
     0
  9
$DIMSD2
 70
     0
  9
$DIMTOLJ
 70
     1
  9
$DIMTZIN
 70
     0
  9
$DIMALTZ
 70
     0
  9
$DIMALTTZ
 70
     0
  9
$DIMUPT
 70
     0
  9
$DIMDEC
 70
     4
  9
$DIMTDEC
 70
     4
  9
$DIMALTU
 70
     2
  9
$DIMALTTD
 70
     2
  9
$DIMTXSTY
  7
Standard
  9
$DIMAUNIT
 70
     0
  9
$DIMADEC
 70
     0
  9
$DIMALTRND
 40
0.0
  9
$DIMAZIN
 70
     0
  9
$DIMDSEP
 70
    46
  9
$DIMATFIT
 70
     3
  9
$DIMFRAC
 70
     0
  9
$DIMLDRBLK
  1

  9
$DIMLUNIT
 70
     2
  9
$DIMLWD
 70
    -2
  9
$DIMLWE
 70
    -2
  9
$DIMTMOVE
 70
     0
  9
$LUNITS
 70
     2
  9
$LUPREC
 70
     4
  9
$SKETCHINC
 40
0.1
  9
$FILLETRAD
 40
0.5
  9
$AUNITS
 70
     0
  9
$AUPREC
 70
     0
  9
$MENU
  1
.
  9
$ELEVATION
 40
0.0
  9
$PELEVATION
 40
0.0
  9
$THICKNESS
 40
0.0
  9
$LIMCHECK
 70
     0
  9
$CHAMFERA
 40
0.5
  9
$CHAMFERB
 40
0.5
  9
$CHAMFERC
 40
1.0
  9
$CHAMFERD
 40
0.0
  9
$SKPOLY
 70
     0
  9
$TDCREATE
 40
2456595.442379687
  9
$TDUCREATE
 40
2456595.400713021
  9
$TDUPDATE
 40
2456595.442379699
  9
$TDUUPDATE
 40
2456595.400713033
  9
$TDINDWG
 40
0.0000000116
  9
$TDUSRTIMER
 40
0.0000000116
  9
$USRTIMER
 70
     1
  9
$ANGBASE
 50
0.0
  9
$ANGDIR
 70
     0
  9
$PDMODE
 70
     0
  9
$PDSIZE
 40
0.0
  9
$PLINEWID
 40
0.0
  9
$SPLFRAME
 70
     0
  9
$SPLINETYPE
 70
     6
  9
$SPLINESEGS
 70
     8
  9
$HANDSEED
  5
16E
  9
$SURFTAB1
 70
     6
  9
$SURFTAB2
 70
     6
  9
$SURFTYPE
 70
     6
  9
$SURFU
 70
     6
  9
$SURFV
 70
     6
  9
$UCSBASE
  2

  9
$UCSNAME
  2

  9
$UCSORG
 10
0.0
 20
0.0
 30
0.0
  9
$UCSXDIR
 10
1.0
 20
0.0
 30
0.0
  9
$UCSYDIR
 10
0.0
 20
1.0
 30
0.0
  9
$UCSORTHOREF
  2

  9
$UCSORTHOVIEW
 70
     0
  9
$UCSORGTOP
 10
0.0
 20
0.0
 30
0.0
  9
$UCSORGBOTTOM
 10
0.0
 20
0.0
 30
0.0
  9
$UCSORGLEFT
 10
0.0
 20
0.0
 30
0.0
  9
$UCSORGRIGHT
 10
0.0
 20
0.0
 30
0.0
  9
$UCSORGFRONT
 10
0.0
 20
0.0
 30
0.0
  9
$UCSORGBACK
 10
0.0
 20
0.0
 30
0.0
  9
$PUCSBASE
  2

  9
$PUCSNAME
  2

  9
$PUCSORG
 10
0.0
 20
0.0
 30
0.0
  9
$PUCSXDIR
 10
1.0
 20
0.0
 30
0.0
  9
$PUCSYDIR
 10
0.0
 20
1.0
 30
0.0
  9
$PUCSORTHOREF
  2

  9
$PUCSORTHOVIEW
 70
     0
  9
$PUCSORGTOP
 10
0.0
 20
0.0
 30
0.0
  9
$PUCSORGBOTTOM
 10
0.0
 20
0.0
 30
0.0
  9
$PUCSORGLEFT
 10
0.0
 20
0.0
 30
0.0
  9
$PUCSORGRIGHT
 10
0.0
 20
0.0
 30
0.0
  9
$PUCSORGFRONT
 10
0.0
 20
0.0
 30
0.0
  9
$PUCSORGBACK
 10
0.0
 20
0.0
 30
0.0
  9
$USERI1
 70
     0
  9
$USERI2
 70
     0
  9
$USERI3
 70
     0
  9
$USERI4
 70
     0
  9
$USERI5
 70
     0
  9
$USERR1
 40
14.5
  9
$USERR2
 40
0.0
  9
$USERR3
 40
0.0
  9
$USERR4
 40
0.0
  9
$USERR5
 40
0.0
  9
$WORLDVIEW
 70
     1
  9
$SHADEDGE
 70
     3
  9
$SHADEDIF
 70
    70
  9
$TILEMODE
 70
     1
  9
$MAXACTVP
 70
    64
  9
$PINSBASE
 10
0.0
 20
0.0
 30
0.0
  9
$PLIMCHECK
 70
     0
  9
$PEXTMIN
 10
1.00000000000000E+20
 20
1.00000000000000E+20
 30
1.00000000000000E+20
  9
$PEXTMAX
 10
-1.00000000000000E+20
 20
-1.00000000000000E+20
 30
-1.00000000000000E+20
  9
$PLIMMIN
 10
0.0
 20
0.0
  9
$PLIMMAX
 10
12.0
 20
9.0
  9
$UNITMODE
 70
     0
  9
$VISRETAIN
 70
     1
  9
$PLINEGEN
 70
     0
  9
$PSLTSCALE
 70
     1
  9
$TREEDEPTH
 70
  3020
  9
$CMLSTYLE
  2
Standard
  9
$CMLJUST
 70
     0
  9
$CMLSCALE
 40
1.0
  9
$PROXYGRAPHICS
 70
     1
  9
$MEASUREMENT
 70
     1
  9
$CELWEIGHT
370
    -1
  9
$ENDCAPS
280
     0
  9
$JOINSTYLE
280
     0
  9
$LWDISPLAY
290
     0
  9
$INSUNITS
 70
     1
  9
$HYPERLINKBASE
  1

  9
$STYLESHEET
  1

  9
$XEDIT
290
     1
  9
$CEPSNTYPE
380
     0
  9
$PSTYLEMODE
290
     1
  9
$FINGERPRINTGUID
  2
{0491E13C-C60C-45A4-9BD7-5CF6F0341A9A}
  9
$VERSIONGUID
  2
{FAEB1C32-E019-11D5-929B-00C0DF256EC4}
  9
$EXTNAMES
290
     1
  9
$PSVPSCALE
 40
0.0
  9
$OLESTARTUP
290
     0
  9
$SORTENTS
280
   127
  9
$INDEXCTL
280
     0
  9
$HIDETEXT
280
     1
  9
$XCLIPFRAME
290
     0
  9
$HALOGAP
280
     0
  9
$OBSCOLOR
 70
   257
  9
$OBSLTYPE
280
     0
  9
$INTERSECTIONDISPLAY
280
     0
  9
$INTERSECTIONCOLOR
 70
   257
  9
$DIMASSOC
280
     2
  9
$PROJECTNAME
  1

  0
ENDSEC
  0
SECTION
  2
CLASSES
  0
CLASS
  1
ACDBDICTIONARYWDFLT
  2
AcDbDictionaryWithDefault
  3
ObjectDBX Classes
 90
        0
 91
        3
280
     0
281
     0
  0
ENDSEC
  0
SECTION
  2
TABLES
  0
TABLE
  2
VPORT
  5
8
330
0
100
AcDbSymbolTable
 70
     1
  0
VPORT
  5
29
330
8
100
AcDbSymbolTableRecord
100
AcDbViewportTableRecord
  2
*Active
 70
     0
 10
0.0
 20
0.0
 11
1.0
 21
1.0
 12
14.64991802444098
 22
-4.88687272664935
 13
0.0
 23
0.0
 14
0.5
 24
0.5
 15
0.5
 25
0.5
 16
0.0
 26
0.0
 36
1.0
 17
0.0
 27
0.0
 37
0.0
 40
136.8353856215314
 41
1.60267857142857
 42
50.0
 43
0.0
 44
0.0
 50
0.0
 51
0.0
 71
     0
 72
   100
 73
     1
 74
     3
 75
     0
 76
     0
 77
     0
 78
     0
281
     0
 65
     1
110
0.0
120
0.0
130
0.0
111
1.0
121
0.0
131
0.0
112
0.0
122
1.0
132
0.0
 79
     0
146
0.0
  0
ENDTAB
  0
TABLE
  2
LTYPE
  5
5
330
0
100
AcDbSymbolTable
 70
     8
  0
LTYPE
  5
14
330
5
100
AcDbSymbolTableRecord
100
AcDbLinetypeTableRecord
  2
ByBlock
 70
     0
  3

 72
    65
 73
     0
 40
0.0
  0
LTYPE
  5
15
330
5
100
AcDbSymbolTableRecord
100
AcDbLinetypeTableRecord
  2
ByLayer
 70
     0
  3

 72
    65
 73
     0
 40
0.0
  0
LTYPE
  5
16
330
5
100
AcDbSymbolTableRecord
100
AcDbLinetypeTableRecord
  2
Continuous
 70
     0
  3
Solid line
 72
    65
 73
     0
 40
0.0
  0
LTYPE
  5
2A
330
5
100
AcDbSymbolTableRecord
100
AcDbLinetypeTableRecord
  2
DASHED
 70
     0
  3
Dashed
 72
    65
 73
     2
 40
15.0
 49
7.0
 74
     0
 49
-8.0
 74
     0
  0
LTYPE
  5
2B
330
5
100
AcDbSymbolTableRecord
100
AcDbLinetypeTableRecord
  2
DOTTED
 70
     0
  3
Dotted
 72
    65
 73
     2
 40
1.0
 49
0.0
 74
     0
 49
-1.0
 74
     0
  0
LTYPE
  5
2C
330
5
100
AcDbSymbolTableRecord
100
AcDbLinetypeTableRecord
  2
DOT_CENTER
 70
     0
  3
Dot_Center
 72
    65
 73
     4
 40
14.0
 49
12.0
 74
     0
 49
-1.0
 74
     0
 49
0.0
 74
     0
 49
-1.0
 74
     0
  0
LTYPE
  5
2D
330
5
100
AcDbSymbolTableRecord
100
AcDbLinetypeTableRecord
  2
LONG_DASHED
 70
     0
  3
Long_Dashed
 72
    65
 73
     2
 40
15.0
 49
10.0
 74
     0
 49
-5.0
 74
     0
  0
LTYPE
  5
2E
330
5
100
AcDbSymbolTableRecord
100
AcDbLinetypeTableRecord
  2
DASH_CENTER
 70
     0
  3
Dash_Center
 72
    65
 73
     4
 40
14.0
 49
11.0
 74
     0
 49
-1.0
 74
     0
 49
1.0
 74
     0
 49
-1.0
 74
     0
  0
LTYPE
  5
2F
330
5
100
AcDbSymbolTableRecord
100
AcDbLinetypeTableRecord
  2
PHANTOM
 70
     0
  3
Phantom
 72
    65
 73
     6
 40
13.0
 49
10.0
 74
     0
 49
-1.0
 74
     0
 49
0.0
 74
     0
 49
-1.0
 74
     0
 49
0.0
 74
     0
 49
-1.0
 74
     0
  0
LTYPE
  5
30
330
5
100
AcDbSymbolTableRecord
100
AcDbLinetypeTableRecord
  2
CENTER_DASH_DASH
 70
     0
  3
Center_Dash_Dash
 72
    65
 73
     6
 40
14.0
 49
9.0
 74
     0
 49
-1.0
 74
     0
 49
1.0
 74
     0
 49
-1.0
 74
     0
 49
1.0
 74
     0
 49
-1.0
 74
     0
  0
ENDTAB
  0
TABLE
  2
LAYER
  5
2
330
0
100
AcDbSymbolTable
 70
     2
  0
LAYER
  5
10
330
2
100
AcDbSymbolTableRecord
100
AcDbLayerTableRecord
  2
0
 70
     0
 62
     7
  6
Continuous
370
    -3
390
F
  0
LAYER
  5
31
330
2
100
AcDbSymbolTableRecord
100
AcDbLayerTableRecord
  2
1
 70
     0
 62
     7
  6
Continuous
370
    -3
390
F
  0
ENDTAB
  0
TABLE
  2
STYLE
  5
3
330
0
100
AcDbSymbolTable
 70
     2
  0
STYLE
  5
11
330
3
100
AcDbSymbolTableRecord
100
AcDbTextStyleTableRecord
  2
Standard
 70
     0
 40
0.0
 41
1.0
 50
0.0
 71
     0
 42
0.2
  3
txt
  4

  0
STYLE
  5
F2
330
3
100
AcDbSymbolTableRecord
100
AcDbTextStyleTableRecord
  2
CONVERTER_11
 70
     0
 40
0.0
 41
0.9
 50
0.0
 71
     0
 42
0.2
  3
txt.shx
  4

  0
ENDTAB
  0
TABLE
  2
VIEW
  5
6
330
0
100
AcDbSymbolTable
 70
     0
  0
ENDTAB
  0
TABLE
  2
UCS
  5
7
330
0
100
AcDbSymbolTable
 70
     0
  0
ENDTAB
  0
TABLE
  2
APPID
  5
9
330
0
100
AcDbSymbolTable
 70
     1
  0
APPID
  5
12
330
9
100
AcDbSymbolTableRecord
100
AcDbRegAppTableRecord
  2
ACAD
 70
     0
  0
ENDTAB
  0
TABLE
  2
DIMSTYLE
  5
A
330
0
100
AcDbSymbolTable
 70
    12
100
AcDbDimStyleTable
  0
DIMSTYLE
105
27
330
A
100
AcDbSymbolTableRecord
100
AcDbDimStyleTableRecord
  2
Standard
 70
     0
340
11
  0
DIMSTYLE
105
F6
102
{ACAD_REACTORS
330
F7
102
}
330
A
100
AcDbSymbolTableRecord
100
AcDbDimStyleTableRecord
  2
ME10_DIM_10
 70
     0
 41
3.5
 42
0.0
 44
2.0
 73
     0
 74
     0
 77
     1
 78
     8
140
3.5
147
2.0
172
     1
173
     1
176
     2
177
     2
178
     2
271
     2
340
F2
  0
DIMSTYLE
105
101
102
{ACAD_REACTORS
330
102
102
}
330
A
100
AcDbSymbolTableRecord
100
AcDbDimStyleTableRecord
  2
ME10_DIM_11
 70
     0
 41
3.5
 42
0.0
 44
2.0
 73
     0
 74
     0
 77
     1
 78
     8
140
3.5
147
2.0
172
     1
173
     1
176
     2
177
     2
178
     2
271
     2
340
F2
  0
DIMSTYLE
105
10C
102
{ACAD_REACTORS
330
10D
102
}
330
A
100
AcDbSymbolTableRecord
100
AcDbDimStyleTableRecord
  2
ME10_DIM_12
 70
     0
 41
3.5
 42
0.0
 44
2.0
 73
     0
 74
     0
 77
     1
 78
     8
140
3.5
147
2.0
172
     1
173
     1
176
     2
177
     2
178
     2
271
     2
340
F2
  0
DIMSTYLE
105
117
102
{ACAD_REACTORS
330
118
102
}
330
A
100
AcDbSymbolTableRecord
100
AcDbDimStyleTableRecord
  2
ME10_DIM_13
 70
     0
 41
3.5
 42
0.0
 44
2.0
 73
     0
 74
     0
 77
     1
 78
     8
140
3.5
147
2.0
172
     1
173
     1
176
     2
177
     2
178
     2
271
     2
340
F2
  0
DIMSTYLE
105
122
102
{ACAD_REACTORS
330
123
102
}
330
A
100
AcDbSymbolTableRecord
100
AcDbDimStyleTableRecord
  2
ME10_DIM_14
 70
     0
 41
3.5
 42
0.0
 44
2.0
 73
     0
 74
     0
 77
     1
 78
     8
140
3.5
147
2.0
172
     1
173
     1
176
     2
177
     2
178
     2
271
     2
340
F2
  0
DIMSTYLE
105
12E
102
{ACAD_REACTORS
330
12F
102
}
330
A
100
AcDbSymbolTableRecord
100
AcDbDimStyleTableRecord
  2
ME10_DIM_15
 70
     0
 41
3.5
 42
0.0
 44
2.0
 73
     0
 74
     0
 77
     1
 78
     8
140
3.5
147
2.0
172
     1
173
     1
176
     2
177
     2
178
     2
271
     3
340
F2
  0
DIMSTYLE
105
139
102
{ACAD_REACTORS
330
13A
102
}
330
A
100
AcDbSymbolTableRecord
100
AcDbDimStyleTableRecord
  2
ME10_DIM_16
 70
     0
 41
3.5
 42
0.0
 44
2.0
 73
     0
 74
     0
 77
     1
 78
     8
140
3.5
147
2.0
172
     1
173
     1
176
     2
177
     2
178
     2
271
     3
340
F2
  0
DIMSTYLE
105
144
102
{ACAD_REACTORS
330
145
102
}
330
A
100
AcDbSymbolTableRecord
100
AcDbDimStyleTableRecord
  2
ME10_DIM_17
 70
     0
 41
3.5
 42
0.0
 44
2.0
 73
     0
 74
     0
 77
     1
 78
     8
140
3.5
147
2.0
172
     1
173
     1
176
     2
177
     2
178
     2
271
     3
340
F2
  0
DIMSTYLE
105
151
102
{ACAD_REACTORS
330
152
102
}
330
A
100
AcDbSymbolTableRecord
100
AcDbDimStyleTableRecord
  2
ME10_DIM_18
 70
     0
 41
3.5
 42
0.0
 44
2.0
 73
     0
 74
     0
 77
     1
 78
     8
140
3.5
147
2.0
172
     1
173
     1
176
     2
177
     2
178
     2
271
     2
340
F2
  0
DIMSTYLE
105
15E
102
{ACAD_REACTORS
330
15F
102
}
330
A
100
AcDbSymbolTableRecord
100
AcDbDimStyleTableRecord
  2
ME10_DIM_19
 70
     0
 41
3.5
 42
0.0
 44
2.0
 73
     0
 74
     0
 77
     1
 78
     8
140
3.5
147
2.0
172
     1
173
     1
176
     2
177
     2
178
     2
271
     2
340
F2
  0
DIMSTYLE
105
16B
102
{ACAD_REACTORS
330
16C
102
}
330
A
100
AcDbSymbolTableRecord
100
AcDbDimStyleTableRecord
  2
ME10_DIM_20
 70
     0
 41
3.5
 42
0.0
 44
2.0
 73
     0
 74
     0
 77
     1
 78
     8
140
3.5
147
2.0
172
     1
173
     1
176
     2
177
     2
178
     2
271
     2
340
F2
  0
ENDTAB
  0
TABLE
  2
BLOCK_RECORD
  5
1
330
0
100
AcDbSymbolTable
 70
    12
  0
BLOCK_RECORD
  5
1F
330
1
100
AcDbSymbolTableRecord
100
AcDbBlockTableRecord
  2
*Model_Space
340
22
  0
BLOCK_RECORD
  5
1B
330
1
100
AcDbSymbolTableRecord
100
AcDbBlockTableRecord
  2
*Paper_Space
340
1E
  0
BLOCK_RECORD
  5
23
330
1
100
AcDbSymbolTableRecord
100
AcDbBlockTableRecord
  2
*Paper_Space0
340
26
  0
BLOCK_RECORD
  5
EC
330
1
100
AcDbSymbolTableRecord
100
AcDbBlockTableRecord
  2
*D1
340
0
  0
BLOCK_RECORD
  5
F8
330
1
100
AcDbSymbolTableRecord
100
AcDbBlockTableRecord
  2
*D2
340
0
  0
BLOCK_RECORD
  5
103
330
1
100
AcDbSymbolTableRecord
100
AcDbBlockTableRecord
  2
*D3
340
0
  0
BLOCK_RECORD
  5
10E
330
1
100
AcDbSymbolTableRecord
100
AcDbBlockTableRecord
  2
*D4
340
0
  0
BLOCK_RECORD
  5
119
330
1
100
AcDbSymbolTableRecord
100
AcDbBlockTableRecord
  2
*D5
340
0
  0
BLOCK_RECORD
  5
124
330
1
100
AcDbSymbolTableRecord
100
AcDbBlockTableRecord
  2
*D6
340
0
  0
BLOCK_RECORD
  5
130
330
1
100
AcDbSymbolTableRecord
100
AcDbBlockTableRecord
  2
*D7
340
0
  0
BLOCK_RECORD
  5
13B
330
1
100
AcDbSymbolTableRecord
100
AcDbBlockTableRecord
  2
*D8
340
0
  0
BLOCK_RECORD
  5
146
330
1
100
AcDbSymbolTableRecord
100
AcDbBlockTableRecord
  2
*D9
340
0
  0
BLOCK_RECORD
  5
153
330
1
100
AcDbSymbolTableRecord
100
AcDbBlockTableRecord
  2
*D10
340
0
  0
BLOCK_RECORD
  5
160
330
1
100
AcDbSymbolTableRecord
100
AcDbBlockTableRecord
  2
*D11
340
0
  0
ENDTAB
  0
ENDSEC
  0
SECTION
  2
BLOCKS
  0
BLOCK
  5
20
330
1F
100
AcDbEntity
  8
0
100
AcDbBlockBegin
  2
*Model_Space
 70
     0
 71
     0
 10
0.0
 20
0.0
 30
0.0
  3
*Model_Space
  1

  0
ENDBLK
  5
21
330
1F
100
AcDbEntity
  8
0
100
AcDbBlockEnd
  0
BLOCK
  5
1C
330
1B
100
AcDbEntity
 67
     1
  8
0
100
AcDbBlockBegin
  2
*Paper_Space
 70
     0
 71
     0
 10
0.0
 20
0.0
 30
0.0
  3
*Paper_Space
  1

  0
ENDBLK
  5
1D
330
1B
100
AcDbEntity
 67
     1
  8
0
100
AcDbBlockEnd
  0
BLOCK
  5
24
330
23
100
AcDbEntity
  8
0
100
AcDbBlockBegin
  2
*Paper_Space0
 70
     0
 71
     0
 10
0.0
 20
0.0
 30
0.0
  3
*Paper_Space0
  1

  0
ENDBLK
  5
25
330
23
100
AcDbEntity
  8
0
100
AcDbBlockEnd
  0
BLOCK
  5
F4
330
EC
100
AcDbEntity
  8
0
100
AcDbBlockBegin
  2
*D1
 70
     1
 71
     0
 10
0.0
 20
0.0
 30
0.0
  3
*D1
  1

  0
LINE
  5
ED
330
EC
100
AcDbEntity
  8
1
  6
Continuous
 62
     2
100
AcDbLine
 10
-16.46459413650097
 20
-65.0846577514523
 30
0.0
 11
10.53540586349897
 21
-65.0846577514523
 31
0.0
  0
LINE
  5
EE
330
EC
100
AcDbEntity
  8
1
  6
Continuous
 62
     2
100
AcDbLine
 10
10.53540586349897
 20
-18.12423094238499
 30
0.0
 11
10.53540586349897
 21
-67.0846577514523
 31
0.0
  0
LINE
  5
EF
330
EC
100
AcDbEntity
  8
1
  6
Continuous
 62
     2
100
AcDbLine
 10
-16.46459413650097
 20
-42.12423094238488
 30
0.0
 11
-16.46459413650097
 21
-67.0846577514523
 31
0.0
  0
SOLID
  5
F0
330
EC
100
AcDbEntity
  8
1
 62
     2
100
AcDbTrace
 10
-12.96459413650097
 20
-64.62387400989641
 30
0.0
 11
-12.96459413650097
 21
-65.54544149300818
 31
0.0
 12
-16.46459413650097
 22
-65.0846577514523
 32
0.0
 13
-16.46459413650097
 23
-65.0846577514523
 33
0.0
  0
SOLID
  5
F1
330
EC
100
AcDbEntity
  8
1
 62
     2
100
AcDbTrace
 10
7.03540586349897
 20
-65.54544149300818
 30
0.0
 11
7.03540586349897
 21
-64.62387400989641
 31
0.0
 12
10.53540586349897
 22
-65.0846577514523
 32
0.0
 13
10.53540586349897
 23
-65.0846577514523
 33
0.0
  0
MTEXT
  5
F3
330
EC
100
AcDbEntity
  8
1
 62
     2
100
AcDbMText
 10
-4.46918292412028
 20
-63.0846577514523
 30
0.0
 40
3.5
 41
0.0
 71
     7
 72
     1
  1
27
  7
CONVERTER_11
 11
0.9999999999970621
 21
2.424068405545307E-6
 31
0.0
 73
     1
 44
0.60024009603842
  0
ENDBLK
  5
F5
330
EC
100
AcDbEntity
  8
0
100
AcDbBlockEnd
  0
BLOCK
  5
FF
330
F8
100
AcDbEntity
  8
0
100
AcDbBlockBegin
  2
*D2
 70
     1
 71
     0
 10
0.0
 20
0.0
 30
0.0
  3
*D2
  1

  0
LINE
  5
F9
330
F8
100
AcDbEntity
  8
1
  6
Continuous
 62
     2
100
AcDbLine
 10
-63.93343976986904
 20
-29.62423094238488
 30
0.0
 11
-63.93343976986904
 21
10.87576905761502
 31
0.0
  0
LINE
  5
FA
330
F8
100
AcDbEntity
  8
1
  6
Continuous
 62
     2
100
AcDbLine
 10
-6.96459413650103
 20
10.87576905761502
 30
0.0
 11
-65.93343976986904
 21
10.87576905761502
 31
0.0
  0
LINE
  5
FB
330
F8
100
AcDbEntity
  8
1
  6
Continuous
 62
     2
100
AcDbLine
 10
-28.96459413650097
 20
-29.62423094238488
 30
0.0
 11
-65.93343976986904
 21
-29.62423094238488
 31
0.0
  0
SOLID
  5
FC
330
F8
100
AcDbEntity
  8
1
 62
     2
100
AcDbTrace
 10
-63.47265602831315
 20
7.37576905761502
 30
0.0
 11
-64.39422351142493
 21
7.37576905761502
 31
0.0
 12
-63.93343976986904
 22
10.87576905761502
 32
0.0
 13
-63.93343976986904
 23
10.87576905761502
 33
0.0
  0
SOLID
  5
FD
330
F8
100
AcDbEntity
  8
1
 62
     2
100
AcDbTrace
 10
-64.39422351142493
 20
-26.12423094238488
 30
0.0
 11
-63.47265602831315
 21
-26.12423094238488
 31
0.0
 12
-63.93343976986904
 22
-29.62423094238488
 32
0.0
 13
-63.93343976986904
 23
-29.62423094238488
 33
0.0
  0
MTEXT
  5
FE
330
F8
100
AcDbEntity
  8
1
 62
     2
100
AcDbMText
 10
-65.93343976986904
 20
-12.74148799792757
 30
0.0
 40
3.5
 41
0.0
 71
     7
 72
     1
  1
40.5
  7
CONVERTER_11
 11
0.0
 21
1.0
 31
0.0
 73
     1
 44
0.60024009603842
  0
ENDBLK
  5
100
330
F8
100
AcDbEntity
  8
0
100
AcDbBlockEnd
  0
BLOCK
  5
10A
330
103
100
AcDbEntity
  8
0
100
AcDbBlockBegin
  2
*D3
 70
     1
 71
     0
 10
0.0
 20
0.0
 30
0.0
  3
*D3
  1

  0
LINE
  5
104
330
103
100
AcDbEntity
  8
1
  6
Continuous
 62
     2
100
AcDbLine
 10
-52.466944242279
 20
-29.62423094238488
 30
0.0
 11
-52.466944242279
 21
-16.62423094238487
 31
0.0
  0
LINE
  5
105
330
103
100
AcDbEntity
  8
1
  6
Continuous
 62
     2
100
AcDbLine
 10
-42.96459413650103
 20
-16.62423094238487
 30
0.0
 11
-54.466944242279
 21
-16.62423094238487
 31
0.0
  0
LINE
  5
106
330
103
100
AcDbEntity
  8
1
  6
Continuous
 62
     2
100
AcDbLine
 10
-28.96459413650098
 20
-29.62423094238488
 30
0.0
 11
-54.466944242279
 21
-29.62423094238488
 31
0.0
  0
SOLID
  5
107
330
103
100
AcDbEntity
  8
1
 62
     2
100
AcDbTrace
 10
-52.00616050072311
 20
-20.12423094238487
 30
0.0
 11
-52.92772798383488
 21
-20.12423094238487
 31
0.0
 12
-52.466944242279
 22
-16.62423094238487
 32
0.0
 13
-52.466944242279
 23
-16.62423094238487
 33
0.0
  0
SOLID
  5
108
330
103
100
AcDbEntity
  8
1
 62
     2
100
AcDbTrace
 10
-52.92772798383488
 20
-26.12423094238488
 30
0.0
 11
-52.00616050072311
 21
-26.12423094238488
 31
0.0
 12
-52.466944242279
 22
-29.62423094238488
 32
0.0
 13
-52.466944242279
 23
-29.62423094238488
 33
0.0
  0
MTEXT
  5
109
330
103
100
AcDbEntity
  8
1
 62
     2
100
AcDbMText
 10
-54.466944242279
 20
-24.5594915552906
 30
0.0
 40
3.5
 41
0.0
 71
     7
 72
     1
  1
13
  7
CONVERTER_11
 11
0.0
 21
1.0
 31
0.0
 73
     1
 44
0.60024009603842
  0
ENDBLK
  5
10B
330
103
100
AcDbEntity
  8
0
100
AcDbBlockEnd
  0
BLOCK
  5
115
330
10E
100
AcDbEntity
  8
0
100
AcDbBlockBegin
  2
*D4
 70
     1
 71
     0
 10
0.0
 20
0.0
 30
0.0
  3
*D4
  1

  0
LINE
  5
10F
330
10E
100
AcDbEntity
  8
1
  6
Continuous
 62
     2
100
AcDbLine
 10
87.01369096455397
 20
-18.12423094238498
 30
0.0
 11
87.01369096455397
 21
4.37576905761502
 31
0.0
  0
LINE
  5
110
330
10E
100
AcDbEntity
  8
1
  6
Continuous
 62
     2
100
AcDbLine
 10
22.53540586349897
 20
4.37576905761502
 30
0.0
 11
89.01369096455397
 21
4.37576905761502
 31
0.0
  0
LINE
  5
111
330
10E
100
AcDbEntity
  8
1
  6
Continuous
 62
     2
100
AcDbLine
 10
12.53540586349897
 20
-18.12423094238498
 30
0.0
 11
89.01369096455397
 21
-18.12423094238498
 31
0.0
  0
SOLID
  5
112
330
10E
100
AcDbEntity
  8
1
 62
     2
100
AcDbTrace
 10
87.47447470610986
 20
0.87576905761502
 30
0.0
 11
86.55290722299809
 21
0.87576905761502
 31
0.0
 12
87.01369096455397
 22
4.37576905761502
 32
0.0
 13
87.01369096455397
 23
4.37576905761502
 33
0.0
  0
SOLID
  5
113
330
10E
100
AcDbEntity
  8
1
 62
     2
100
AcDbTrace
 10
86.55290722299809
 20
-14.62423094238498
 30
0.0
 11
87.47447470610986
 21
-14.62423094238498
 31
0.0
 12
87.01369096455397
 22
-18.12423094238498
 32
0.0
 13
87.01369096455397
 23
-18.12423094238498
 33
0.0
  0
MTEXT
  5
114
330
10E
100
AcDbEntity
  8
1
 62
     2
100
AcDbMText
 10
85.01369096455397
 20
-10.9390773865041
 30
0.0
 40
3.5
 41
0.0
 71
     7
 72
     1
  1
22.5
  7
CONVERTER_11
 11
0.0
 21
1.0
 31
0.0
 73
     1
 44
0.60024009603842
  0
ENDBLK
  5
116
330
10E
100
AcDbEntity
  8
0
100
AcDbBlockEnd
  0
BLOCK
  5
120
330
119
100
AcDbEntity
  8
0
100
AcDbBlockBegin
  2
*D5
 70
     1
 71
     0
 10
0.0
 20
0.0
 30
0.0
  3
*D5
  1

  0
LINE
  5
11A
330
119
100
AcDbEntity
  8
1
  6
Continuous
 62
     2
100
AcDbLine
 10
96.733275818751
 20
-25.62423094238498
 30
0.0
 11
96.733275818751
 21
4.37576905761502
 31
0.0
  0
LINE
  5
11B
330
119
100
AcDbEntity
  8
1
  6
Continuous
 62
     2
100
AcDbLine
 10
22.53540586349897
 20
4.37576905761502
 30
0.0
 11
98.733275818751
 21
4.37576905761502
 31
0.0
  0
LINE
  5
11C
330
119
100
AcDbEntity
  8
1
  6
Continuous
 62
     2
100
AcDbLine
 10
22.53540586349897
 20
-25.62423094238498
 30
0.0
 11
98.733275818751
 21
-25.62423094238498
 31
0.0
  0
SOLID
  5
11D
330
119
100
AcDbEntity
  8
1
 62
     2
100
AcDbTrace
 10
97.19405956030688
 20
0.87576905761502
 30
0.0
 11
96.27249207719511
 21
0.87576905761502
 31
0.0
 12
96.733275818751
 22
4.37576905761502
 32
0.0
 13
96.733275818751
 23
4.37576905761502
 33
0.0
  0
SOLID
  5
11E
330
119
100
AcDbEntity
  8
1
 62
     2
100
AcDbTrace
 10
96.27249207719511
 20
-22.12423094238498
 30
0.0
 11
97.19405956030688
 21
-22.12423094238498
 31
0.0
 12
96.733275818751
 22
-25.62423094238498
 32
0.0
 13
96.733275818751
 23
-25.62423094238498
 33
0.0
  0
MTEXT
  5
11F
330
119
100
AcDbEntity
  8
1
 62
     2
100
AcDbMText
 10
94.733275818751
 20
-12.0789709183272
 30
0.0
 40
3.5
 41
0.0
 71
     7
 72
     1
  1
30
  7
CONVERTER_11
 11
0.0
 21
1.0
 31
0.0
 73
     1
 44
0.60024009603842
  0
ENDBLK
  5
121
330
119
100
AcDbEntity
  8
0
100
AcDbBlockEnd
  0
BLOCK
  5
12C
330
124
100
AcDbEntity
  8
0
100
AcDbBlockBegin
  2
*D6
 70
     1
 71
     0
 10
0.0
 20
0.0
 30
0.0
  3
*D6
  1

  0
LINE
  5
125
330
124
100
AcDbEntity
  8
1
  6
Continuous
 62
     2
100
AcDbLine
 10
-2.46459413650103
 20
-55.4264892486806
 30
0.0
 11
10.53540586349897
 21
-55.4264892486806
 31
0.0
  0
LINE
  5
126
330
124
100
AcDbEntity
  8
1
  6
Continuous
 62
     2
100
AcDbLine
 10
10.53540586349897
 20
-18.12423094238498
 30
0.0
 11
10.53540586349897
 21
-57.4264892486806
 31
0.0
  0
LINE
  5
127
330
124
100
AcDbEntity
  8
1
  6
Continuous
 62
     2
100
AcDbLine
 10
-2.46459413650103
 20
-47.2302061714465
 30
0.0
 11
-2.46459413650103
 21
-57.4264892486806
 31
0.0
  0
LINE
  5
128
330
124
100
AcDbEntity
  8
1
  6
Continuous
 62
     2
100
AcDbLine
 10
-2.46459413650103
 20
-35.62423094238498
 30
0.0
 11
-2.46459413650103
 21
-38.6555199588405
 31
0.0
  0
SOLID
  5
129
330
124
100
AcDbEntity
  8
1
 62
     2
100
AcDbTrace
 10
1.03540586349897
 20
-54.96570550712472
 30
0.0
 11
1.03540586349897
 21
-55.88727299023649
 31
0.0
 12
-2.46459413650103
 22
-55.4264892486806
 32
0.0
 13
-2.46459413650103
 23
-55.4264892486806
 33
0.0
  0
SOLID
  5
12A
330
124
100
AcDbEntity
  8
1
 62
     2
100
AcDbTrace
 10
7.03540586349897
 20
-55.88727299023649
 30
0.0
 11
7.03540586349897
 21
-54.96570550712472
 31
0.0
 12
10.53540586349897
 22
-55.4264892486806
 32
0.0
 13
10.53540586349897
 23
-55.4264892486806
 33
0.0
  0
MTEXT
  5
12B
330
124
100
AcDbEntity
  8
1
 62
     2
100
AcDbMText
 10
1.40621242218695
 20
-53.4264892486806
 30
0.0
 40
3.5
 41
0.0
 71
     7
 72
     1
  1
13
  7
CONVERTER_11
 11
0.9999999999970621
 21
2.424068405545307E-6
 31
0.0
 73
     1
 44
0.60024009603842
  0
ENDBLK
  5
12D
330
124
100
AcDbEntity
  8
0
100
AcDbBlockEnd
  0
BLOCK
  5
137
330
130
100
AcDbEntity
  8
0
100
AcDbBlockBegin
  2
*D7
 70
     1
 71
     0
 10
0.0
 20
0.0
 30
0.0
  3
*D7
  1

  0
LINE
  5
131
330
130
100
AcDbEntity
  8
1
  6
Continuous
 62
     2
100
AcDbLine
 10
7.03540586349897
 20
37.4725591364507
 30
0.0
 11
-2.96459413650103
 21
37.4725591364507
 31
0.0
  0
LINE
  5
132
330
130
100
AcDbEntity
  8
1
  6
Continuous
 62
     2
100
AcDbLine
 10
7.03540586349897
 20
-16.62423094238502
 30
0.0
 11
7.03540586349897
 21
39.4725591364507
 31
0.0
  0
LINE
  5
133
330
130
100
AcDbEntity
  8
1
  6
Continuous
 62
     2
100
AcDbLine
 10
-2.96459413650103
 20
10.87576905761502
 30
0.0
 11
-2.96459413650103
 21
39.4725591364507
 31
0.0
  0
SOLID
  5
134
330
130
100
AcDbEntity
  8
1
 62
     2
100
AcDbTrace
 10
3.53540586349897
 20
37.01177539489481
 30
0.0
 11
3.53540586349897
 21
37.93334287800658
 31
0.0
 12
7.03540586349897
 22
37.4725591364507
 32
0.0
 13
7.03540586349897
 23
37.4725591364507
 33
0.0
  0
SOLID
  5
135
330
130
100
AcDbEntity
  8
1
 62
     2
100
AcDbTrace
 10
0.53540586349897
 20
37.93334287800658
 30
0.0
 11
0.53540586349897
 21
37.01177539489481
 31
0.0
 12
-2.96459413650103
 22
37.4725591364507
 32
0.0
 13
-2.96459413650103
 23
37.4725591364507
 33
0.0
  0
MTEXT
  5
136
330
130
100
AcDbEntity
  8
1
 62
     2
100
AcDbMText
 10
-0.50731676034069
 20
39.4725591364507
 30
0.0
 40
3.5
 41
0.0
 71
     7
 72
     1
  1
10
  7
CONVERTER_11
 11
0.9999999999970621
 21
2.424068405545307E-6
 31
0.0
 73
     1
 44
0.60024009603842
  0
ENDBLK
  5
138
330
130
100
AcDbEntity
  8
0
100
AcDbBlockEnd
  0
BLOCK
  5
142
330
13B
100
AcDbEntity
  8
0
100
AcDbBlockBegin
  2
*D8
 70
     1
 71
     0
 10
0.0
 20
0.0
 30
0.0
  3
*D8
  1

  0
LINE
  5
13C
330
13B
100
AcDbEntity
  8
1
  6
Continuous
 62
     2
100
AcDbLine
 10
10.53540586349897
 20
-65.0847752818909
 30
0.0
 11
22.53540586349897
 21
-65.0847752818909
 31
0.0
  0
LINE
  5
13D
330
13B
100
AcDbEntity
  8
1
  6
Continuous
 62
     2
100
AcDbLine
 10
22.53540586349897
 20
-21.12423094238498
 30
0.0
 11
22.53540586349897
 21
-67.0847752818909
 31
0.0
  0
LINE
  5
13E
330
13B
100
AcDbEntity
  8
1
  6
Continuous
 62
     2
100
AcDbLine
 10
10.53540586349897
 20
-18.12423094238498
 30
0.0
 11
10.53540586349897
 21
-67.0847752818909
 31
0.0
  0
SOLID
  5
13F
330
13B
100
AcDbEntity
  8
1
 62
     2
100
AcDbTrace
 10
14.03540586349897
 20
-64.62399154033501
 30
0.0
 11
14.03540586349897
 21
-65.54555902344678
 31
0.0
 12
10.53540586349897
 22
-65.0847752818909
 32
0.0
 13
10.53540586349897
 23
-65.0847752818909
 33
0.0
  0
SOLID
  5
140
330
13B
100
AcDbEntity
  8
1
 62
     2
100
AcDbTrace
 10
19.03540586349897
 20
-65.54555902344678
 30
0.0
 11
19.03540586349897
 21
-64.62399154033501
 31
0.0
 12
22.53540586349897
 22
-65.0847752818909
 32
0.0
 13
22.53540586349897
 23
-65.0847752818909
 33
0.0
  0
MTEXT
  5
141
330
13B
100
AcDbEntity
  8
1
 62
     2
100
AcDbMText
 10
14.2592046193799
 20
-63.0847752818909
 30
0.0
 40
3.5
 41
0.0
 71
     7
 72
     1
  1
12
  7
CONVERTER_11
 11
0.9999999999970621
 21
2.424068405545307E-6
 31
0.0
 73
     1
 44
0.60024009603842
  0
ENDBLK
  5
143
330
13B
100
AcDbEntity
  8
0
100
AcDbBlockEnd
  0
BLOCK
  5
14F
330
146
100
AcDbEntity
  8
0
100
AcDbBlockBegin
  2
*D9
 70
     1
 71
     0
 10
0.0
 20
0.0
 30
0.0
  3
*D9
  1

  0
LINE
  5
147
330
146
100
AcDbEntity
  8
1
  6
Continuous
 62
     2
100
AcDbLine
 10
11.53540586349897
 20
-55.2466304956861
 30
0.0
 11
18.53540586349897
 21
-55.2466304956861
 31
0.0
  0
LINE
  5
148
330
146
100
AcDbEntity
  8
1
  6
Continuous
 62
     2
100
AcDbLine
 10
18.53540586349897
 20
-55.2466304956861
 30
0.0
 11
22.53540586349897
 21
-55.2466304956861
 31
0.0
  0
LINE
  5
149
330
146
100
AcDbEntity
  8
1
  6
Continuous
 62
     2
100
AcDbLine
 10
22.53540586349897
 20
-55.2466304956861
 30
0.0
 11
30.2978681147741
 21
-55.2466304956861
 31
0.0
  0
LINE
  5
14A
330
146
100
AcDbEntity
  8
1
  6
Continuous
 62
     2
100
AcDbLine
 10
22.53540586349897
 20
-25.62423094238498
 30
0.0
 11
22.53540586349897
 21
-57.2466304956861
 31
0.0
  0
LINE
  5
14B
330
146
100
AcDbEntity
  8
1
  6
Continuous
 62
     2
100
AcDbLine
 10
18.53540586349897
 20
-21.12423094238498
 30
0.0
 11
18.53540586349897
 21
-57.2466304956861
 31
0.0
  0
SOLID
  5
14C
330
146
100
AcDbEntity
  8
1
 62
     2
100
AcDbTrace
 10
15.03540586349897
 20
-55.70741423724198
 30
0.0
 11
15.03540586349897
 21
-54.78584675413021
 31
0.0
 12
18.53540586349897
 22
-55.2466304956861
 32
0.0
 13
18.53540586349897
 23
-55.2466304956861
 33
0.0
  0
SOLID
  5
14D
330
146
100
AcDbEntity
  8
1
 62
     2
100
AcDbTrace
 10
26.03540586349897
 20
-54.78584675413021
 30
0.0
 11
26.03540586349897
 21
-55.70741423724198
 31
0.0
 12
22.53540586349897
 22
-55.2466304956861
 32
0.0
 13
22.53540586349897
 23
-55.2466304956861
 33
0.0
  0
MTEXT
  5
14E
330
146
100
AcDbEntity
  8
1
 62
     2
100
AcDbMText
 10
28.1978681147741
 20
-53.2466304956861
 30
0.0
 40
3.5
 41
0.0
 71
     7
 72
     1
  1
4
  7
CONVERTER_11
 11
0.9999999999970621
 21
2.424068405545307E-6
 31
0.0
 73
     1
 44
0.60024009603842
  0
ENDBLK
  5
150
330
146
100
AcDbEntity
  8
0
100
AcDbBlockEnd
  0
BLOCK
  5
15C
330
153
100
AcDbEntity
  8
0
100
AcDbBlockBegin
  2
*D10
 70
     1
 71
     0
 10
0.0
 20
0.0
 30
0.0
  3
*D10
  1

  0
LINE
  5
154
330
153
100
AcDbEntity
  8
1
  6
Continuous
 62
     2
100
AcDbLine
 10
-16.46459413650097
 20
46.23258283272142
 30
0.0
 11
-23.46459413650097
 21
46.23258283272142
 31
0.0
  0
LINE
  5
155
330
153
100
AcDbEntity
  8
1
  6
Continuous
 62
     2
100
AcDbLine
 10
-6.96459413650103
 20
46.23258283272142
 30
0.0
 11
-16.46459413650097
 21
46.23258283272142
 31
0.0
  0
LINE
  5
156
330
153
100
AcDbEntity
  8
1
  6
Continuous
 62
     2
100
AcDbLine
 10
0.03540586349897
 20
46.23258283272142
 30
0.0
 11
-6.96459413650103
 21
46.23258283272142
 31
0.0
  0
LINE
  5
157
330
153
100
AcDbEntity
  8
1
  6
Continuous
 62
     2
100
AcDbLine
 10
-6.96459413650103
 20
10.87576905761502
 30
0.0
 11
-6.96459413650103
 21
48.23258283272142
 31
0.0
  0
LINE
  5
158
330
153
100
AcDbEntity
  8
1
  6
Continuous
 62
     2
100
AcDbLine
 10
-16.46459413650097
 20
-17.12423094238488
 30
0.0
 11
-16.46459413650097
 21
48.23258283272142
 31
0.0
  0
SOLID
  5
159
330
153
100
AcDbEntity
  8
1
 62
     2
100
AcDbTrace
 10
-3.46459413650103
 20
46.69336657427731
 30
0.0
 11
-3.46459413650103
 21
45.77179909116553
 31
0.0
 12
-6.96459413650103
 22
46.23258283272142
 32
0.0
 13
-6.96459413650103
 23
46.23258283272142
 33
0.0
  0
SOLID
  5
15A
330
153
100
AcDbEntity
  8
1
 62
     2
100
AcDbTrace
 10
-19.96459413650097
 20
45.77179909116553
 30
0.0
 11
-19.96459413650097
 21
46.69336657427731
 31
0.0
 12
-16.46459413650097
 22
46.23258283272142
 32
0.0
 13
-16.46459413650097
 23
46.23258283272142
 33
0.0
  0
MTEXT
  5
15B
330
153
100
AcDbEntity
  8
1
 62
     2
100
AcDbMText
 10
-14.908344136501
 20
48.23258283272142
 30
0.0
 40
3.5
 41
0.0
 71
     7
 72
     1
  1
9.5
  7
CONVERTER_11
 11
0.9999999999970621
 21
2.424068405545307E-6
 31
0.0
 73
     1
 44
0.60024009603842
  0
ENDBLK
  5
15D
330
153
100
AcDbEntity
  8
0
100
AcDbBlockEnd
  0
BLOCK
  5
169
330
160
100
AcDbEntity
  8
0
100
AcDbBlockBegin
  2
*D11
 70
     1
 71
     0
 10
0.0
 20
0.0
 30
0.0
  3
*D11
  1

  0
LINE
  5
161
330
160
100
AcDbEntity
  8
1
  6
Continuous
 62
     2
100
AcDbLine
 10
-2.19638375287943
 20
-45.6656441235692
 30
0.0
 11
7.03540586349897
 21
-45.6656441235692
 31
0.0
  0
LINE
  5
162
330
160
100
AcDbEntity
  8
1
  6
Continuous
 62
     2
100
AcDbLine
 10
7.03540586349897
 20
-45.6656441235692
 30
0.0
 11
10.53540586349897
 21
-45.6656441235692
 31
0.0
  0
LINE
  5
163
330
160
100
AcDbEntity
  8
1
  6
Continuous
 62
     2
100
AcDbLine
 10
10.53540586349897
 20
-45.6656441235692
 30
0.0
 11
17.53540586349897
 21
-45.6656441235692
 31
0.0
  0
LINE
  5
164
330
160
100
AcDbEntity
  8
1
  6
Continuous
 62
     2
100
AcDbLine
 10
10.53540586349897
 20
-20.22423094238498
 30
0.0
 11
10.53540586349897
 21
-47.6656441235692
 31
0.0
  0
LINE
  5
165
330
160
100
AcDbEntity
  8
1
  6
Continuous
 62
     2
100
AcDbLine
 10
7.03540586349897
 20
-16.62423094238503
 30
0.0
 11
7.03540586349897
 21
-47.6656441235692
 31
0.0
  0
SOLID
  5
166
330
160
100
AcDbEntity
  8
1
 62
     2
100
AcDbTrace
 10
3.53540586349897
 20
-46.12642786512509
 30
0.0
 11
3.53540586349897
 21
-45.20486038201332
 31
0.0
 12
7.03540586349897
 22
-45.6656441235692
 32
0.0
 13
7.03540586349897
 23
-45.6656441235692
 33
0.0
  0
SOLID
  5
167
330
160
100
AcDbEntity
  8
1
 62
     2
100
AcDbTrace
 10
14.03540586349897
 20
-45.20486038201332
 30
0.0
 11
14.03540586349897
 21
-46.12642786512509
 31
0.0
 12
10.53540586349897
 22
-45.6656441235692
 32
0.0
 13
10.53540586349897
 23
-45.6656441235692
 33
0.0
  0
MTEXT
  5
168
330
160
100
AcDbEntity
  8
1
 62
     2
100
AcDbMText
 10
-2.19638375287943
 20
-43.6656441235692
 30
0.0
 40
3.5
 41
0.0
 71
     7
 72
     1
  1
3.5
  7
CONVERTER_11
 11
0.9999999999970621
 21
2.424068405545307E-6
 31
0.0
 73
     1
 44
0.60024009603842
  0
ENDBLK
  5
16A
330
160
100
AcDbEntity
  8
0
100
AcDbBlockEnd
  0
ENDSEC
  0
SECTION
  2
ENTITIES
  0
POINT
  5
32
330
1F
100
AcDbEntity
  8
1
 62
     3
 60
     1
100
AcDbPoint
 10
7.9222289812563
 20
20.3757690576172
 30
0.0
  0
POINT
  5
33
330
1F
100
AcDbEntity
  8
1
 62
     3
 60
     1
100
AcDbPoint
 10
-10.0777710187437
 20
20.3757690576172
 30
0.0
  0
POINT
  5
34
330
1F
100
AcDbEntity
  8
1
 62
     3
 60
     1
100
AcDbPoint
 10
-16.46459413650103
 20
-29.62423094238498
 30
0.0
  0
POINT
  5
35
330
1F
100
AcDbEntity
  8
1
 62
     3
 60
     1
100
AcDbPoint
 10
-9.46459413650103
 20
-26.82530136309271
 30
0.0
  0
POINT
  5
36
330
1F
100
AcDbEntity
  8
1
 62
     3
 60
     1
100
AcDbPoint
 10
-9.46459413650103
 20
-24.53332185147593
 30
0.0
  0
POINT
  5
37
330
1F
100
AcDbEntity
  8
1
 62
     3
 60
     1
100
AcDbPoint
 10
-17.46459413650103
 20
12.37576905761449
 30
0.0
  0
POINT
  5
38
330
1F
100
AcDbEntity
  8
1
 62
     3
 60
     1
100
AcDbPoint
 10
3.53540586349897
 20
12.37576905761526
 30
0.0
  0
POINT
  5
39
330
1F
100
AcDbEntity
  8
1
 62
     3
 60
     1
100
AcDbPoint
 10
7.03540586349897
 20
12.37576905761539
 30
0.0
  0
POINT
  5
3A
330
1F
100
AcDbEntity
  8
1
 62
     3
 60
     1
100
AcDbPoint
 10
23.03540586349897
 20
24.3757690576172
 30
0.0
  0
POINT
  5
3B
330
1F
100
AcDbEntity
  8
1
 62
     3
 60
     1
100
AcDbPoint
 10
23.03540586349897
 20
24.3757690576172
 30
0.0
  0
POINT
  5
3C
330
1F
100
AcDbEntity
  8
1
 62
     3
 60
     1
100
AcDbPoint
 10
76.03540586349897
 20
24.3757690576172
 30
0.0
  0
POINT
  5
3D
330
1F
100
AcDbEntity
  8
1
 62
     3
 60
     1
100
AcDbPoint
 10
-3.38259196163453
 20
-25.62423094238498
 30
0.0
  0
POINT
  5
3E
330
1F
100
AcDbEntity
  8
1
 62
     3
 60
     1
100
AcDbPoint
 10
-5.47115318765508
 20
-29.24442032610642
 30
0.0
  0
LINE
  5
3F
330
1F
100
AcDbEntity
  8
1
  6
DOT_CENTER
 62
     2
100
AcDbLine
 10
-10.0777710187437
 20
20.3757690576172
 30
0.0
 11
7.9222289812563
 21
20.3757690576172
 31
0.0
  0
LINE
  5
40
330
1F
100
AcDbEntity
  8
1
  6
Continuous
 62
     7
100
AcDbLine
 10
3.53540586349897
 20
27.3757690576172
 30
0.0
 11
3.53540586349897
 21
12.37576905761526
 31
0.0
  0
LINE
  5
41
330
1F
100
AcDbEntity
  8
1
  6
Continuous
 62
     7
100
AcDbLine
 10
7.03540586349885
 20
27.3757690576172
 30
0.0
 11
7.03540586349897
 21
12.37576905761539
 31
0.0
  0
LINE
  5
42
330
1F
100
AcDbEntity
  8
1
  6
Continuous
 62
     7
100
AcDbLine
 10
7.03540586349885
 20
27.3757690576172
 30
0.0
 11
3.53540586349897
 21
27.3757690576172
 31
0.0
  0
LINE
  5
43
330
1F
100
AcDbEntity
  8
1
  6
Continuous
 62
     7
100
AcDbLine
 10
-5.46459413650103
 20
-25.62423094238498
 30
0.0
 11
-5.46459413650103
 21
-25.62353836831393
 31
0.0
  0
LINE
  5
44
330
1F
100
AcDbEntity
  8
1
  6
Continuous
 62
     7
100
AcDbLine
 10
-6.25081205192624
 20
-25.54027997196191
 30
0.0
 11
-9.46459413650103
 21
-26.82530136309271
 31
0.0
  0
LINE
  5
45
330
1F
100
AcDbEntity
  8
1
  6
Continuous
 62
     7
100
AcDbLine
 10
-6.77213325456654
 20
-25.40531202346606
 30
0.0
 11
-9.46459413650103
 21
-24.53332185147593
 31
0.0
  0
LINE
  5
46
330
1F
100
AcDbEntity
  8
1
  6
Continuous
 62
     7
100
AcDbLine
 10
-5.38564676808005
 20
-21.62423094238498
 30
0.0
 11
18.03540586349897
 21
-21.62423094238498
 31
0.0
  0
LINE
  5
47
330
1F
100
AcDbEntity
  8
1
  6
Continuous
 62
     7
100
AcDbLine
 10
10.53540586349885
 20
24.37576905761721
 30
0.0
 11
23.03540586349897
 21
24.3757690576172
 31
0.0
  0
LINE
  5
48
330
1F
100
AcDbEntity
  8
1
  6
Continuous
 62
     7
100
AcDbLine
 10
10.53540586349885
 20
24.37576905761721
 30
0.0
 11
10.53540586349897
 21
4.37576905761502
 31
0.0
  0
LINE
  5
49
330
1F
100
AcDbEntity
  8
1
  6
Continuous
 62
     7
100
AcDbLine
 10
10.53540586349897
 20
4.37576905761502
 30
0.0
 11
10.53540586349897
 21
-18.12423094238498
 31
0.0
  0
LINE
  5
4A
330
1F
100
AcDbEntity
  8
1
  6
Continuous
 62
     7
100
AcDbLine
 10
18.03540586349897
 20
-25.62423094238498
 30
0.0
 11
22.53540586349897
 21
-25.62423094238498
 31
0.0
  0
LINE
  5
4B
330
1F
100
AcDbEntity
  8
1
  6
Continuous
 62
     7
100
AcDbLine
 10
22.53540586349897
 20
-25.62423094238498
 30
0.0
 11
22.53540586349897
 21
-21.12423094238498
 31
0.0
  0
LINE
  5
4C
330
1F
100
AcDbEntity
  8
1
  6
Continuous
 62
     7
100
AcDbLine
 10
18.53540586349897
 20
-19.87423094238498
 30
0.0
 11
18.53540586349897
 21
-20.62423094238498
 31
0.0
  0
LINE
  5
4D
330
1F
100
AcDbEntity
  8
1
  6
Continuous
 62
     7
100
AcDbLine
 10
18.53540586349897
 20
-20.62423094238498
 30
0.0
 11
18.53540586349897
 21
-20.77423094238498
 31
0.0
  0
LINE
  5
4E
330
1F
100
AcDbEntity
  8
1
  6
Continuous
 62
     7
100
AcDbLine
 10
10.53540586349897
 20
-15.37423094238498
 30
0.0
 11
9.93540586349906
 21
-15.37423094238498
 31
0.0
  0
LINE
  5
4F
330
1F
100
AcDbEntity
  8
1
  6
Continuous
 62
     7
100
AcDbLine
 10
18.53540586349897
 20
-20.62423094238498
 30
0.0
 11
17.39662179566665
 21
-17.12423094238498
 31
0.0
  0
LINE
  5
50
330
1F
100
AcDbEntity
  8
1
  6
Continuous
 62
     7
100
AcDbLine
 10
13.23275470520889
 20
-20.12596865852048
 30
0.0
 11
12.53540586349897
 21
-18.12423094238498
 31
0.0
  0
LINE
  5
51
330
1F
100
AcDbEntity
  8
1
  6
Continuous
 62
     7
100
AcDbLine
 10
14.31486160653446
 20
-20.32775856042598
 30
0.0
 11
13.25551707402627
 21
-17.12423094238498
 31
0.0
  0
LINE
  5
52
330
1F
100
AcDbEntity
  8
1
  6
Continuous
 62
     7
100
AcDbLine
 10
15.29465750364778
 20
-20.12070332434398
 30
0.0
 11
14.29079325443649
 21
-17.12423094238498
 31
0.0
  0
LINE
  5
53
330
1F
100
AcDbEntity
  8
1
  6
Continuous
 62
     7
100
AcDbLine
 10
16.38541396735457
 20
-20.32775856042598
 30
0.0
 11
15.32606943484649
 21
-17.12423094238498
 31
0.0
  0
LINE
  5
54
330
1F
100
AcDbEntity
  8
1
  6
Continuous
 62
     7
100
AcDbLine
 10
17.36520986446806
 20
-20.12070332434398
 30
0.0
 11
16.3613456152566
 21
-17.12423094238498
 31
0.0
  0
LINE
  5
55
330
1F
100
AcDbEntity
  8
1
  6
Continuous
 62
     7
100
AcDbLine
 10
16.9788395339524
 20
-20.62423094238498
 30
0.0
 11
16.77178429787028
 21
-20.62423094238498
 31
0.0
  0
LINE
  5
56
330
1F
100
AcDbEntity
  8
1
  6
Continuous
 62
     7
100
AcDbLine
 10
14.90828717313229
 20
-20.62423094238498
 30
0.0
 11
14.70123193705007
 21
-20.62423094238498
 31
0.0
  0
LINE
  5
57
330
1F
100
AcDbEntity
  8
1
  6
Continuous
 62
     7
100
AcDbLine
 10
12.84501184767345
 20
-20.62423094238498
 30
0.0
 11
10.93540586349906
 21
-20.62423094238498
 31
0.0
  0
LINE
  5
58
330
1F
100
AcDbEntity
  8
1
  6
Continuous
 62
     7
100
AcDbLine
 10
10.53540586349897
 20
-20.22423094238498
 30
0.0
 11
10.53540586349897
 21
-18.12423094238498
 31
0.0
  0
LINE
  5
59
330
1F
100
AcDbEntity
  8
1
  6
Continuous
 62
     7
100
AcDbLine
 10
9.53540586349897
 20
-15.77423094238499
 30
0.0
 11
9.53540586349897
 21
-20.22423094238498
 31
0.0
  0
LINE
  5
5A
330
1F
100
AcDbEntity
  8
1
  6
Continuous
 62
     7
100
AcDbLine
 10
12.53540586349897
 20
-17.12423094238498
 30
0.0
 11
12.53540586349897
 21
-18.12423094238498
 31
0.0
  0
LINE
  5
5B
330
1F
100
AcDbEntity
  8
1
  6
Continuous
 62
     7
100
AcDbLine
 10
18.53540586349897
 20
-19.87423094238498
 30
0.0
 11
18.53540586349897
 21
-17.12423094238498
 31
0.0
  0
LINE
  5
5C
330
1F
100
AcDbEntity
  8
1
  6
Continuous
 62
     7
100
AcDbLine
 10
22.53540586349897
 20
0.37576905761502
 30
0.0
 11
22.53540586349897
 21
-0.12423094238498
 31
0.0
  0
LINE
  5
5D
330
1F
100
AcDbEntity
  8
1
  6
Continuous
 62
     7
100
AcDbLine
 10
19.53540586349897
 20
-21.12423094238498
 30
0.0
 11
22.53540586349897
 21
-21.12423094238498
 31
0.0
  0
LINE
  5
5E
330
1F
100
AcDbEntity
  8
1
  6
Continuous
 62
     7
100
AcDbLine
 10
19.53540586349897
 20
-21.12423094238498
 30
0.0
 11
18.53540586349897
 21
-21.12423094238498
 31
0.0
  0
LINE
  5
5F
330
1F
100
AcDbEntity
  8
1
  6
Continuous
 62
     7
100
AcDbLine
 10
19.53540586349897
 20
-21.62423094238498
 30
0.0
 11
19.53540586349897
 21
-21.12423094238498
 31
0.0
  0
LINE
  5
60
330
1F
100
AcDbEntity
  8
1
  6
Continuous
 62
     7
100
AcDbLine
 10
18.53540586349897
 20
-17.12423094238498
 30
0.0
 11
18.53540586349897
 21
-9.77423094238498
 31
0.0
  0
LINE
  5
61
330
1F
100
AcDbEntity
  8
1
  6
Continuous
 62
     7
100
AcDbLine
 10
12.53540586349897
 20
-17.12423094238498
 30
0.0
 11
12.53540586349897
 21
4.37576905761502
 31
0.0
  0
LINE
  5
62
330
1F
100
AcDbEntity
  8
1
  6
Continuous
 62
     7
100
AcDbLine
 10
12.53540586349897
 20
-17.12423094238498
 30
0.0
 11
18.53540586349897
 21
-17.12423094238498
 31
0.0
  0
LINE
  5
63
330
1F
100
AcDbEntity
  8
1
  6
Continuous
 62
     7
100
AcDbLine
 10
12.53540586349897
 20
4.37576905761502
 30
0.0
 11
10.53540586349897
 21
4.37576905761502
 31
0.0
  0
LINE
  5
64
330
1F
100
AcDbEntity
  8
1
  6
Continuous
 62
     7
100
AcDbLine
 10
12.53540586349897
 20
-18.12423094238498
 30
0.0
 11
12.53540586349897
 21
-17.12423094238498
 31
0.0
  0
LINE
  5
65
330
1F
100
AcDbEntity
  8
1
  6
Continuous
 62
     7
100
AcDbLine
 10
10.53540586349897
 20
-18.12423094238498
 30
0.0
 11
12.53540586349897
 21
-18.12423094238498
 31
0.0
  0
LINE
  5
66
330
1F
100
AcDbEntity
  8
1
  6
Continuous
 62
     7
100
AcDbLine
 10
18.53540586349897
 20
4.37576905761502
 30
0.0
 11
12.53540586349897
 21
4.37576905761502
 31
0.0
  0
LINE
  5
67
330
1F
100
AcDbEntity
  8
1
  6
Continuous
 62
     7
100
AcDbLine
 10
22.53540586349897
 20
4.37576905761502
 30
0.0
 11
22.53540586349897
 21
0.37576905761502
 31
0.0
  0
LINE
  5
68
330
1F
100
AcDbEntity
  8
1
  6
Continuous
 62
     7
100
AcDbLine
 10
18.53540586349897
 20
4.37576905761502
 30
0.0
 11
22.53540586349897
 21
4.37576905761502
 31
0.0
  0
LINE
  5
69
330
1F
100
AcDbEntity
  8
1
  6
Continuous
 62
     7
100
AcDbLine
 10
-2.46459413650103
 20
-35.62423094238498
 30
0.0
 11
-2.46459413650103
 21
-25.62423094238498
 31
0.0
  0
LINE
  5
6A
330
1F
100
AcDbEntity
  8
1
  6
Continuous
 62
     7
100
AcDbLine
 10
-2.46459413650103
 20
-22.62423094238498
 30
0.0
 11
18.53540586349897
 21
-22.62423094238498
 31
0.0
  0
LINE
  5
6B
330
1F
100
AcDbEntity
  8
1
  6
Continuous
 62
     7
100
AcDbLine
 10
-2.46459413650103
 20
-22.62423094238498
 30
0.0
 11
-2.46459413650103
 21
-25.62423094238498
 31
0.0
  0
LINE
  5
6C
330
1F
100
AcDbEntity
  8
1
  6
Continuous
 62
     7
100
AcDbLine
 10
-2.46459413650103
 20
-25.62423094238498
 30
0.0
 11
18.03540586349897
 21
-25.62423094238498
 31
0.0
  0
LINE
  5
6D
330
1F
100
AcDbEntity
  8
1
  6
Continuous
 62
     7
100
AcDbLine
 10
2.44237507551105
 20
-17.6242309423849
 30
0.0
 11
7.67527148357897
 21
-17.6242309423849
 31
0.0
  0
LINE
  5
6E
330
1F
100
AcDbEntity
  8
1
  6
Continuous
 62
     7
100
AcDbLine
 10
7.67527148357897
 20
-16.6242309423849
 30
0.0
 11
7.03540586349897
 21
-16.62423094238503
 31
0.0
  0
LINE
  5
6F
330
1F
100
AcDbEntity
  8
1
  6
Continuous
 62
     7
100
AcDbLine
 10
8.07527148357906
 20
-17.22423094238489
 30
0.0
 11
8.07527148357906
 21
-17.0242309423849
 31
0.0
  0
LINE
  5
70
330
1F
100
AcDbEntity
  8
1
  6
Continuous
 62
     7
100
AcDbLine
 10
9.13540586349899
 20
-20.62423094238498
 30
0.0
 11
2.44237507551105
 21
-20.62423094238498
 31
0.0
  0
LINE
  5
71
330
1F
100
AcDbEntity
  8
1
  6
DOT_CENTER
 62
     2
100
AcDbLine
 10
8.06121146604499
 20
-2.6242309423851
 30
0.0
 11
33.63860063485299
 21
-2.62423094238493
 31
0.0
  0
LINE
  5
72
330
1F
100
AcDbEntity
  8
1
  6
DOT_CENTER
 62
     2
100
AcDbLine
 10
76.03540586349897
 20
8.37576905761513
 30
0.0
 11
76.03540586349897
 21
-35.62423094238498
 31
0.0
  0
LINE
  5
73
330
1F
100
AcDbEntity
  8
1
  6
DOT_CENTER
 62
     2
100
AcDbLine
 10
76.03540586349897
 20
-35.62423094238498
 30
0.0
 11
76.03540586349897
 21
-38.15039886915899
 31
0.0
  0
LINE
  5
74
330
1F
100
AcDbEntity
  8
1
  6
DOT_CENTER
 62
     2
100
AcDbLine
 10
76.03540586349897
 20
26.63584687514908
 30
0.0
 11
76.03540586349897
 21
24.3757690576172
 31
0.0
  0
LINE
  5
75
330
1F
100
AcDbEntity
  8
1
  6
Continuous
 62
     7
100
AcDbLine
 10
-2.46459413650103
 20
-35.62423094238498
 30
0.0
 11
76.03540586349897
 21
-35.62423094238498
 31
0.0
  0
LINE
  5
76
330
1F
100
AcDbEntity
  8
1
  6
Continuous
 62
     7
100
AcDbLine
 10
-2.46459413650103
 20
-25.62423094238498
 30
0.0
 11
-3.38259196163453
 21
-25.62423094238498
 31
0.0
  0
LINE
  5
77
330
1F
100
AcDbEntity
  8
1
  6
Continuous
 62
     7
100
AcDbLine
 10
-2.46459413650103
 20
-25.62423094238498
 30
0.0
 11
-1.96459413650103
 21
-25.62423094238498
 31
0.0
  0
LINE
  5
78
330
1F
100
AcDbEntity
  8
1
  6
Continuous
 62
     7
100
AcDbLine
 10
-6.96459413650103
 20
10.87576905761502
 30
0.0
 11
-6.96459413650103
 21
-16.8802333139749
 31
0.0
  0
LINE
  5
79
330
1F
100
AcDbEntity
  8
1
  6
Continuous
 62
     7
100
AcDbLine
 10
-2.96459413650103
 20
10.87576905761502
 30
0.0
 11
-6.96459413650103
 21
10.87576905761502
 31
0.0
  0
LINE
  5
7A
330
1F
100
AcDbEntity
  8
1
  6
Continuous
 62
     7
100
AcDbLine
 10
-2.96459413650103
 20
-16.62423094238498
 30
0.0
 11
-2.96459413650103
 21
10.87576905761502
 31
0.0
  0
LINE
  5
7B
330
1F
100
AcDbEntity
  8
1
  6
DOT_CENTER
 62
     2
100
AcDbLine
 10
-3.96459413650098
 20
-29.62423094238488
 30
0.0
 11
-28.96459413650097
 21
-29.62423094238488
 31
0.0
  0
LINE
  5
7C
330
1F
100
AcDbEntity
  8
1
  6
DOT_CENTER
 62
     2
100
AcDbLine
 10
-16.46459413650097
 20
-17.12423094238488
 30
0.0
 11
-16.46459413650097
 21
-42.12423094238488
 31
0.0
  0
LINE
  5
7D
330
1F
100
AcDbEntity
  8
1
  6
Continuous
 62
     7
100
AcDbLine
 10
-5.46459413650103
 20
-29.62423094238498
 30
0.0
 11
-5.46459413650103
 21
-25.62423094238498
 31
0.0
  0
LINE
  5
7E
330
1F
100
AcDbEntity
  8
1
  6
DASHED
 62
     2
100
AcDbLine
 10
-5.46459413650103
 20
-25.62423094238498
 30
0.0
 11
-5.46459413650103
 21
-25.62353836831393
 31
0.0
  0
LINE
  5
7F
330
1F
100
AcDbEntity
  8
1
  6
DASHED
 62
     2
100
AcDbLine
 10
62.03540586349908
 20
2.375769057599
 30
0.0
 11
67.03540586349908
 21
1.03602309544339
 31
0.0
  0
LINE
  5
80
330
1F
100
AcDbEntity
  8
1
  6
DASHED
 62
     2
100
AcDbLine
 10
67.03540586349908
 20
1.03602309544339
 30
0.0
 11
67.03540586349908
 21
-8.28448498024538
 31
0.0
  0
LINE
  5
81
330
1F
100
AcDbEntity
  8
1
  6
DASHED
 62
     2
100
AcDbLine
 10
67.03540586349908
 20
-8.28448498024538
 30
0.0
 11
62.03540586349908
 21
-9.62423094240096
 31
0.0
  0
LINE
  5
82
330
1F
100
AcDbEntity
  8
1
  6
DASHED
 62
     2
100
AcDbLine
 10
62.03540586349908
 20
2.375769057599
 30
0.0
 11
62.03540586349908
 21
-9.62423094240096
 31
0.0
  0
LINE
  5
83
330
1F
100
AcDbEntity
  8
1
  6
DASHED
 62
     2
100
AcDbLine
 10
62.03540586349908
 20
-9.62423094240096
 30
0.0
 11
22.53540586349897
 21
-9.62423094240096
 31
0.0
  0
LINE
  5
84
330
1F
100
AcDbEntity
  8
1
  6
DASHED
 62
     2
100
AcDbLine
 10
62.03540586349908
 20
2.375769057599
 30
0.0
 11
22.53540586349897
 21
2.375769057599
 31
0.0
  0
LINE
  5
85
330
1F
100
AcDbEntity
  8
1
  6
Continuous
 62
     7
100
AcDbLine
 10
19.03540586349885
 20
28.37576905761721
 30
0.0
 11
19.03540586349897
 21
27.6437182500483
 31
0.0
  0
LINE
  5
86
330
1F
100
AcDbEntity
  8
1
  6
Continuous
 62
     7
100
AcDbLine
 10
20.03540586349897
 20
27.3757690576172
 30
0.0
 11
20.03540586349897
 21
29.3757690576171
 31
0.0
  0
LINE
  5
87
330
1F
100
AcDbEntity
  8
1
  6
Continuous
 62
     7
100
AcDbLine
 10
19.03540586349897
 20
27.6437182500483
 30
0.0
 11
17.72600478674036
 21
25.3757690576172
 31
0.0
  0
LINE
  5
88
330
1F
100
AcDbEntity
  8
1
  6
Continuous
 62
     7
100
AcDbLine
 10
18.30335505593007
 20
24.3757690576172
 30
0.0
 11
20.03540586349897
 21
27.3757690576172
 31
0.0
  0
LINE
  5
89
330
1F
100
AcDbEntity
  8
1
  6
Continuous
 62
     7
100
AcDbLine
 10
8.76745667106775
 20
24.3757690576172
 30
0.0
 11
10.53540586349885
 21
24.37576905761721
 31
0.0
  0
LINE
  5
8A
330
1F
100
AcDbEntity
  8
1
  6
Continuous
 62
     7
100
AcDbLine
 10
17.72600478674036
 20
25.3757690576172
 30
0.0
 11
9.3448069402574
 21
25.3757690576172
 31
0.0
  0
LINE
  5
8B
330
1F
100
AcDbEntity
  8
1
  6
Continuous
 62
     7
100
AcDbLine
 10
8.03540586349885
 20
28.3757690576172
 30
0.0
 11
19.03540586349885
 21
28.37576905761721
 31
0.0
  0
LINE
  5
8C
330
1F
100
AcDbEntity
  8
1
  6
Continuous
 62
     7
100
AcDbLine
 10
8.03540586349885
 20
27.64371825004829
 30
0.0
 11
8.03540586349885
 21
28.3757690576172
 31
0.0
  0
LINE
  5
8D
330
1F
100
AcDbEntity
  8
1
  6
Continuous
 62
     7
100
AcDbLine
 10
9.3448069402574
 20
25.3757690576172
 30
0.0
 11
8.03540586349885
 21
27.64371825004829
 31
0.0
  0
LINE
  5
8E
330
1F
100
AcDbEntity
  8
1
  6
Continuous
 62
     7
100
AcDbLine
 10
7.03540586349885
 20
27.3757690576172
 30
0.0
 11
8.76745667106775
 21
24.3757690576172
 31
0.0
  0
LINE
  5
8F
330
1F
100
AcDbEntity
  8
1
  6
DOT_CENTER
 62
     2
100
AcDbLine
 10
20.03540586349897
 20
55.37576905761721
 30
0.0
 11
22.85664557832996
 21
55.37576905761721
 31
0.0
  0
LINE
  5
90
330
1F
100
AcDbEntity
  8
1
  6
DOT_CENTER
 62
     2
100
AcDbLine
 10
-42.96459413650103
 20
55.37576905761721
 30
0.0
 11
-45.49531976008404
 21
55.37576905761721
 31
0.0
  0
LINE
  5
91
330
1F
100
AcDbEntity
  8
1
  6
DOT_CENTER
 62
     2
100
AcDbLine
 10
-42.96459413650103
 20
55.37576905761721
 30
0.0
 11
-42.96459413650103
 21
57.3110298285922
 31
0.0
  0
LINE
  5
92
330
1F
100
AcDbEntity
  8
1
  6
Continuous
 62
     7
100
AcDbLine
 10
-42.96459413650103
 20
-16.62423094238487
 30
0.0
 11
-15.96459413650103
 21
-16.62423094238487
 31
0.0
  0
LINE
  5
93
330
1F
100
AcDbEntity
  8
1
  6
DOT_CENTER
 62
     2
100
AcDbLine
 10
-42.96459413650103
 20
55.37576905761721
 30
0.0
 11
-42.96459413650103
 21
-16.62423094238487
 31
0.0
  0
LINE
  5
94
330
1F
100
AcDbEntity
  8
1
  6
DOT_CENTER
 62
     2
100
AcDbLine
 10
20.03540586349897
 20
55.37576905761721
 30
0.0
 11
-42.96459413650103
 21
55.37576905761721
 31
0.0
  0
LINE
  5
95
330
1F
100
AcDbEntity
  8
1
  6
Continuous
 62
     7
100
AcDbLine
 10
20.03540586349897
 20
29.3757690576171
 30
0.0
 11
20.03540586349897
 21
55.37576905761721
 31
0.0
  0
LINE
  5
96
330
1F
100
AcDbEntity
  8
1
  6
Continuous
 62
     7
100
AcDbLine
 10
7.03540586349897
 20
29.37576905761711
 30
0.0
 11
20.03540586349897
 21
29.3757690576171
 31
0.0
  0
LINE
  5
97
330
1F
100
AcDbEntity
  8
1
  6
Continuous
 62
     7
100
AcDbLine
 10
-17.46459413650103
 20
-16.62423094238487
 30
0.0
 11
-17.46459413650103
 21
-13.12423094238487
 31
0.0
  0
LINE
  5
98
330
1F
100
AcDbEntity
  8
1
  6
Continuous
 62
     7
100
AcDbLine
 10
-17.46459413650103
 20
-13.12423094238487
 30
0.0
 11
-9.96459413650103
 21
-13.12423094238487
 31
0.0
  0
LINE
  5
99
330
1F
100
AcDbEntity
  8
1
  6
Continuous
 62
     7
100
AcDbLine
 10
7.03540586349897
 20
-16.62423094238503
 30
0.0
 11
0.03540586349897
 21
-16.62423094238487
 31
0.0
  0
LINE
  5
9A
330
1F
100
AcDbEntity
  8
1
  6
Continuous
 62
     7
100
AcDbLine
 10
-9.96459413650103
 20
-16.62423094238487
 30
0.0
 11
-9.96459413650103
 21
-13.12423094238487
 31
0.0
  0
LINE
  5
9B
330
1F
100
AcDbEntity
  8
1
  6
Continuous
 62
     7
100
AcDbLine
 10
-9.96459413650103
 20
-16.62423094238487
 30
0.0
 11
-15.96459413650103
 21
-16.62423094238487
 31
0.0
  0
LINE
  5
9C
330
1F
100
AcDbEntity
  8
1
  6
Continuous
 62
     7
100
AcDbLine
 10
0.03540586349897
 20
-16.62423094238487
 30
0.0
 11
0.03540586349897
 21
-13.12423094238487
 31
0.0
  0
LINE
  5
9D
330
1F
100
AcDbEntity
  8
1
  6
Continuous
 62
     7
100
AcDbLine
 10
0.03540586349897
 20
-16.62423094238487
 30
0.0
 11
-2.96459413650103
 21
-16.62423094238498
 31
0.0
  0
LINE
  5
9E
330
1F
100
AcDbEntity
  8
1
  6
Continuous
 62
     7
100
AcDbLine
 10
0.03540586349897
 20
-13.12423094238487
 30
0.0
 11
3.53540586349897
 21
-13.12423094238487
 31
0.0
  0
LINE
  5
9F
330
1F
100
AcDbEntity
  8
1
  6
Continuous
 62
     7
100
AcDbLine
 10
3.53540586349897
 20
3.62576905761502
 30
0.0
 11
3.53540586349897
 21
12.37576905761526
 31
0.0
  0
LINE
  5
A0
330
1F
100
AcDbEntity
  8
1
  6
Continuous
 62
     7
100
AcDbLine
 10
7.03540586349897
 20
29.37576905761711
 30
0.0
 11
7.03540586349885
 21
27.3757690576172
 31
0.0
  0
LINE
  5
A1
330
1F
100
AcDbEntity
  8
1
  6
Continuous
 62
     7
100
AcDbLine
 10
3.53540586349897
 20
-13.12423094238487
 30
0.0
 11
3.53540586349897
 21
-6.87423094238498
 31
0.0
  0
LINE
  5
A2
330
1F
100
AcDbEntity
  8
1
  6
Continuous
 62
     7
100
AcDbLine
 10
-9.96459413650103
 20
-13.12423094238487
 30
0.0
 11
-6.96459413650103
 21
-13.12423094238487
 31
0.0
  0
LINE
  5
A3
330
1F
100
AcDbEntity
  8
1
  6
DOT_CENTER
 62
     2
100
AcDbLine
 10
-42.96459413650103
 20
-16.62423094238487
 30
0.0
 11
-42.96459413650103
 21
-18.8959351951646
 31
0.0
  0
LINE
  5
A4
330
1F
100
AcDbEntity
  8
1
  6
Continuous
 62
     7
100
AcDbLine
 10
-17.46459413650103
 20
-13.12423094238487
 30
0.0
 11
-17.46459413650103
 21
-10.45019283670818
 31
0.0
  0
LINE
  5
A5
330
1F
100
AcDbEntity
  8
1
  6
Continuous
 62
     7
100
AcDbLine
 10
3.53540586349897
 20
3.62576905761502
 30
0.0
 11
3.53540586349897
 21
-6.87423094238498
 31
0.0
  0
LINE
  5
A6
330
1F
100
AcDbEntity
  8
1
  6
Continuous
 62
     7
100
AcDbLine
 10
-5.46459413650103
 20
-20.65535981653425
 30
0.0
 11
-5.46459413650103
 21
-21.61795891710325
 31
0.0
  0
LINE
  5
A7
330
1F
100
AcDbEntity
  8
1
  6
Continuous
 62
     7
100
AcDbLine
 10
-5.53970082213402
 20
-21.59990661806066
 30
0.0
 11
-13.07540494731182
 21
-19.15936607752012
 31
0.0
  0
LINE
  5
A8
330
1F
100
AcDbEntity
  8
1
  6
DOT_CENTER
 62
     2
100
AcDbLine
 10
69.5514276216464
 20
-3.62423094238498
 30
0.0
 11
18.03540586349897
 21
-3.62423094238498
 31
0.0
  0
LINE
  5
A9
330
1F
100
AcDbEntity
  8
1
  6
DASHED
 62
     2
100
AcDbLine
 10
22.53540586349897
 20
-7.12423094238498
 30
0.0
 11
22.18540586349897
 21
-7.12423094238498
 31
0.0
  0
LINE
  5
AA
330
1F
100
AcDbEntity
  8
1
  6
Continuous
 62
     7
100
AcDbLine
 10
22.53540586349897
 20
-7.12423094238498
 30
0.0
 11
22.53540586349897
 21
-11.12423094238498
 31
0.0
  0
LINE
  5
AB
330
1F
100
AcDbEntity
  8
1
  6
DASHED
 62
     2
100
AcDbLine
 10
22.18540586349897
 20
-7.12423094238498
 30
0.0
 11
19.53540586349897
 21
-9.77423094238498
 31
0.0
  0
LINE
  5
AC
330
1F
100
AcDbEntity
  8
1
  6
DASHED
 62
     2
100
AcDbLine
 10
22.53540586349897
 20
-0.12423094238498
 30
0.0
 11
22.18540586349897
 21
-0.12423094238498
 31
0.0
  0
LINE
  5
AD
330
1F
100
AcDbEntity
  8
1
  6
Continuous
 62
     7
100
AcDbLine
 10
22.53540586349897
 20
-0.12423094238498
 30
0.0
 11
22.53540586349897
 21
-7.12423094238498
 31
0.0
  0
LINE
  5
AE
330
1F
100
AcDbEntity
  8
1
  6
DASHED
 62
     2
100
AcDbLine
 10
22.18540586349897
 20
-0.12423094238498
 30
0.0
 11
19.53540586349897
 21
2.52576905761502
 31
0.0
  0
LINE
  5
AF
330
1F
100
AcDbEntity
  8
1
  6
DASHED
 62
     2
100
AcDbLine
 10
22.18540586349897
 20
-7.12423094238498
 30
0.0
 11
22.18540586349897
 21
-0.12423094238498
 31
0.0
  0
LINE
  5
B0
330
1F
100
AcDbEntity
  8
1
  6
DASHED
 62
     2
100
AcDbLine
 10
19.53540586349897
 20
-9.77423094238498
 30
0.0
 11
19.53540586349897
 21
-8.47423094238498
 31
0.0
  0
LINE
  5
B1
330
1F
100
AcDbEntity
  8
1
  6
DASHED
 62
     2
100
AcDbLine
 10
19.53540586349897
 20
-9.77423094238498
 30
0.0
 11
18.53540586349897
 21
-9.77423094238498
 31
0.0
  0
LINE
  5
B2
330
1F
100
AcDbEntity
  8
1
  6
Continuous
 62
     7
100
AcDbLine
 10
18.53540586349897
 20
-9.77423094238498
 30
0.0
 11
18.53540586349897
 21
-8.47423094238498
 31
0.0
  0
LINE
  5
B3
330
1F
100
AcDbEntity
  8
1
  6
DASHED
 62
     2
100
AcDbLine
 10
19.53540586349897
 20
2.52576905761502
 30
0.0
 11
18.53540586349897
 21
2.52576905761502
 31
0.0
  0
LINE
  5
B4
330
1F
100
AcDbEntity
  8
1
  6
Continuous
 62
     7
100
AcDbLine
 10
18.53540586349897
 20
2.52576905761502
 30
0.0
 11
18.53540586349897
 21
4.37576905761502
 31
0.0
  0
LINE
  5
B5
330
1F
100
AcDbEntity
  8
1
  6
DOT_CENTER
 62
     2
100
AcDbLine
 10
54.03540586349897
 20
-14.62423094238498
 30
0.0
 11
18.03540586349897
 21
-14.62423094238498
 31
0.0
  0
LINE
  5
B6
330
1F
100
AcDbEntity
  8
1
  6
DASHED
 62
     2
100
AcDbLine
 10
22.53540586349897
 20
-18.12423094238498
 30
0.0
 11
22.18540586349897
 21
-18.12423094238498
 31
0.0
  0
LINE
  5
B7
330
1F
100
AcDbEntity
  8
1
  6
Continuous
 62
     7
100
AcDbLine
 10
22.53540586349897
 20
-18.12423094238498
 30
0.0
 11
22.53540586349897
 21
-21.12423094238498
 31
0.0
  0
LINE
  5
B8
330
1F
100
AcDbEntity
  8
1
  6
DASHED
 62
     2
100
AcDbLine
 10
22.18540586349897
 20
-18.12423094238498
 30
0.0
 11
19.53540586349897
 21
-20.77423094238498
 31
0.0
  0
LINE
  5
B9
330
1F
100
AcDbEntity
  8
1
  6
DASHED
 62
     2
100
AcDbLine
 10
22.53540586349897
 20
-11.12423094238498
 30
0.0
 11
22.18540586349897
 21
-11.12423094238498
 31
0.0
  0
LINE
  5
BA
330
1F
100
AcDbEntity
  8
1
  6
Continuous
 62
     7
100
AcDbLine
 10
22.53540586349897
 20
-11.12423094238498
 30
0.0
 11
22.53540586349897
 21
-18.12423094238498
 31
0.0
  0
LINE
  5
BB
330
1F
100
AcDbEntity
  8
1
  6
DASHED
 62
     2
100
AcDbLine
 10
22.18540586349897
 20
-11.12423094238498
 30
0.0
 11
19.53540586349897
 21
-8.47423094238498
 31
0.0
  0
LINE
  5
BC
330
1F
100
AcDbEntity
  8
1
  6
DASHED
 62
     2
100
AcDbLine
 10
19.53540586349897
 20
-8.47423094238498
 30
0.0
 11
19.53540586349897
 21
2.52576905761502
 31
0.0
  0
LINE
  5
BD
330
1F
100
AcDbEntity
  8
1
  6
DASHED
 62
     2
100
AcDbLine
 10
22.18540586349897
 20
-18.12423094238498
 30
0.0
 11
22.18540586349897
 21
-11.12423094238498
 31
0.0
  0
LINE
  5
BE
330
1F
100
AcDbEntity
  8
1
  6
DASHED
 62
     2
100
AcDbLine
 10
19.53540586349897
 20
-20.77423094238498
 30
0.0
 11
19.53540586349897
 21
-8.47423094238498
 31
0.0
  0
LINE
  5
BF
330
1F
100
AcDbEntity
  8
1
  6
DASHED
 62
     2
100
AcDbLine
 10
19.53540586349897
 20
-20.77423094238498
 30
0.0
 11
18.53540586349897
 21
-20.77423094238498
 31
0.0
  0
LINE
  5
C0
330
1F
100
AcDbEntity
  8
1
  6
Continuous
 62
     7
100
AcDbLine
 10
18.53540586349897
 20
-20.77423094238498
 30
0.0
 11
18.53540586349897
 21
-21.12423094238498
 31
0.0
  0
LINE
  5
C1
330
1F
100
AcDbEntity
  8
1
  6
DASHED
 62
     2
100
AcDbLine
 10
19.53540586349897
 20
-8.47423094238498
 30
0.0
 11
18.53540586349897
 21
-8.47423094238498
 31
0.0
  0
LINE
  5
C2
330
1F
100
AcDbEntity
  8
1
  6
Continuous
 62
     7
100
AcDbLine
 10
18.53540586349897
 20
-8.47423094238498
 30
0.0
 11
18.53540586349897
 21
2.52576905761502
 31
0.0
  0
LINE
  5
C3
330
1F
100
AcDbEntity
  8
1
  6
Continuous
 62
     7
100
AcDbLine
 10
-2.96459413650103
 20
-13.12423094238487
 30
0.0
 11
0.03540586349897
 21
-13.12423094238487
 31
0.0
  0
LINE
  5
C4
330
1F
100
AcDbEntity
  8
1
  6
Continuous
 62
     7
100
AcDbLine
 10
-6.96459413650103
 20
-16.62423094238498
 30
0.0
 11
-9.96459413650103
 21
-16.62423094238487
 31
0.0
  0
LINE
  5
C5
330
1F
100
AcDbEntity
  8
1
  6
Continuous
 62
     7
100
AcDbLine
 10
-9.46459413650103
 20
-26.82530136309271
 30
0.0
 11
-9.46459413650103
 21
-24.53332185147593
 31
0.0
  0
LINE
  5
C6
330
1F
100
AcDbEntity
  8
1
  6
Continuous
 62
     7
100
AcDbLine
 10
-9.46459413650103
 20
-26.82530136309271
 30
0.0
 11
-9.96491462813515
 21
-27.02535305211567
 31
0.0
  0
LINE
  5
C7
330
1F
100
AcDbEntity
  8
1
  6
Continuous
 62
     7
100
AcDbLine
 10
-9.46459413650103
 20
-24.53332185147593
 30
0.0
 11
-14.30783737974432
 21
-22.96477148292557
 31
0.0
  0
LINE
  5
C8
330
1F
100
AcDbEntity
  8
1
  6
Continuous
 62
     7
100
AcDbLine
 10
-17.46459413650103
 20
12.37576905761449
 30
0.0
 11
3.53540586349897
 21
12.37576905761526
 31
0.0
  0
LINE
  5
C9
330
1F
100
AcDbEntity
  8
1
  6
Continuous
 62
     7
100
AcDbLine
 10
-17.46459413650103
 20
12.37576905761449
 30
0.0
 11
-17.46459413650103
 21
-10.45019283670818
 31
0.0
  0
LINE
  5
CA
330
1F
100
AcDbEntity
  8
1
  6
Continuous
 62
     7
100
AcDbLine
 10
7.03540586349897
 20
12.37576905761539
 30
0.0
 11
7.03540586349897
 21
-16.62423094238503
 31
0.0
  0
LINE
  5
CB
330
1F
100
AcDbEntity
  8
1
  6
Continuous
 62
     7
100
AcDbLine
 10
23.03540586349897
 20
24.3757690576172
 30
0.0
 11
76.03540586349897
 21
24.3757690576172
 31
0.0
  0
LINE
  5
CC
330
1F
100
AcDbEntity
  8
1
  6
DOT_CENTER
 62
     2
100
AcDbLine
 10
76.03540586349897
 20
24.3757690576172
 30
0.0
 11
76.03540586349897
 21
8.37576905761513
 31
0.0
  0
LINE
  5
CD
102
{ACAD_REACTORS
330
16D
330
16D
102
}
330
1F
100
AcDbEntity
  8
1
  6
Continuous
 62
     7
100
AcDbLine
 10
-3.38259196163453
 20
-25.62423094238498
 30
0.0
 11
-5.38564676808005
 21
-25.62423094238498
 31
0.0
  0
ARC
  5
CE
330
1F
100
AcDbEntity
  8
1
  6
Continuous
 62
     7
100
AcDbCircle
 10
-16.46459413650103
 20
-29.62423094238498
 30
0.0
 40
11.0
100
AcDbArc
 50
72.0547467702071
 51
-2.6545948499043
  0
ARC
  5
CF
330
1F
100
AcDbEntity
  8
1
  6
Continuous
 62
     7
100
AcDbCircle
 10
18.03540586349897
 20
-21.12423094238498
 30
0.0
 40
4.5
100
AcDbArc
 50
-90.0
 51
0.0
  0
ARC
  5
D0
330
1F
100
AcDbEntity
  8
1
  6
Continuous
 62
     7
100
AcDbCircle
 10
2.44237507551105
 20
-19.12423094238494
 30
0.0
 40
2.500000000000039
100
AcDbArc
 50
90.0
 51
-90.0
  0
ARC
  5
D1
330
1F
100
AcDbEntity
  8
1
  6
Continuous
 62
     7
100
AcDbCircle
 10
2.44237507551105
 20
-19.12423094238494
 30
0.0
 40
1.500000000000039
100
AcDbArc
 50
90.0
 51
-90.0
  0
ARC
  5
D2
102
{ACAD_REACTORS
330
16D
330
16D
102
}
330
1F
100
AcDbEntity
  8
1
  6
Continuous
 62
     7
100
AcDbCircle
 10
-16.46459413650103
 20
-29.62423094238498
 30
0.0
 40
11.00000000000004
100
AcDbArc
 50
1.97871560587705
 51
21.79385605991824
  0
ARC
  5
D3
330
1F
100
AcDbEntity
  8
1
  6
Continuous
 62
     7
100
AcDbCircle
 10
-5.46459413650103
 20
-20.58833255752272
 30
0.0
 40
3.99999999999998
100
AcDbArc
 50
151.0449756281407
 51
176.3179024794335
  0
ARC
  5
D4
330
1F
100
AcDbEntity
  8
1
  6
Continuous
 62
     7
100
AcDbCircle
 10
-16.46459413650103
 20
-29.62423094238498
 30
0.0
 40
7.000000000000199
100
AcDbArc
 50
0.00000000000081
 51
21.79385605991857
  0
ARC
  5
D5
330
1F
100
AcDbEntity
  8
1
  6
Continuous
 62
     7
100
AcDbCircle
 10
-16.46459413650103
 20
-29.62423094238498
 30
0.0
 40
6.999999999999938
100
AcDbArc
 50
72.05474677020746
 51
0.00000000000081
  0
ARC
  5
D6
330
1F
100
AcDbEntity
  8
1
  6
Continuous
 62
     7
100
AcDbCircle
 10
-16.46459413650103
 20
-29.62423094238498
 30
0.0
 40
7.000000000000139
100
AcDbArc
 50
21.79385605991857
 51
72.05474677020746
  0
ARC
  5
D7
102
{ACAD_REACTORS
330
16D
330
16D
102
}
330
1F
100
AcDbEntity
  8
1
  6
Continuous
 62
     2
100
AcDbCircle
 10
-0.492341232936
 20
-29.70423715871083
 30
0.0
 40
4.999999999999996
100
AcDbArc
 50
125.3135168171971
 51
174.7234317763576
  0
ARC
  5
D8
330
1F
100
AcDbEntity
  8
1
  6
Continuous
 62
     7
100
AcDbCircle
 10
-16.46459413650103
 20
-29.62423094238498
 30
0.0
 40
11.00000000000008
100
AcDbArc
 50
-2.6545948499043
 51
1.97871560587705
  0
ARC
  5
D9
102
{ACAD_REACTORS
330
16D
330
16D
102
}
330
1F
100
AcDbEntity
  8
1
  6
Continuous
 62
     7
100
AcDbCircle
 10
-5.38564676808005
 20
-21.12423094238498
 30
0.0
 40
4.499999999999998
100
AcDbArc
 50
-101.0846434924273
 51
-91.00524068543243
  0
ARC
  5
DA
330
1F
100
AcDbEntity
  8
1
  6
Continuous
 62
     7
100
AcDbCircle
 10
-5.38564676808005
 20
-21.12423094238498
 30
0.0
 40
0.4999999999999803
100
AcDbArc
 50
-107.9452532297837
 51
-90.0
  0
ARC
  5
DB
102
{ACAD_REACTORS
330
16D
330
16D
102
}
330
1F
100
AcDbEntity
  8
1
  6
Continuous
 62
     7
100
AcDbCircle
 10
-5.38564676808005
 20
-21.12423094238498
 30
0.0
 40
4.5
100
AcDbArc
 50
-91.00524068543243
 51
-90.0
  0
ARC
  5
DC
330
1F
100
AcDbEntity
  8
1
  6
Continuous
 62
     7
100
AcDbCircle
 10
9.93540586349906
 20
-15.77423094238499
 30
0.0
 40
0.400000000000011
100
AcDbArc
 50
90.0
 51
180.0
  0
ARC
  5
DD
330
1F
100
AcDbEntity
  8
1
  6
Continuous
 62
     7
100
AcDbCircle
 10
9.13540586349899
 20
-20.22423094238498
 30
0.0
 40
0.3999999999999986
100
AcDbArc
 50
-90.0
 51
0.0
  0
ARC
  5
DE
330
1F
100
AcDbEntity
  8
1
  6
Continuous
 62
     7
100
AcDbCircle
 10
10.93540586349906
 20
-20.22423094238498
 30
0.0
 40
0.4000000000000909
100
AcDbArc
 50
180.0
 51
-90.0
  0
ARC
  5
DF
330
1F
100
AcDbEntity
  8
1
  6
Continuous
 62
     7
100
AcDbCircle
 10
12.84501184767345
 20
-20.22423094238498
 30
0.0
 40
0.3999999999999986
100
AcDbArc
 50
-90.0
 51
14.22058743217764
  0
ARC
  5
E0
330
1F
100
AcDbEntity
  8
1
  6
Continuous
 62
     7
100
AcDbCircle
 10
14.70123193705007
 20
-20.22423094238498
 30
0.0
 40
0.39999999999998
100
AcDbArc
 50
-165.0000000000005
 51
-90.0
  0
ARC
  5
E1
330
1F
100
AcDbEntity
  8
1
  6
Continuous
 62
     7
100
AcDbCircle
 10
14.90828717313229
 20
-20.22423094238498
 30
0.0
 40
0.3999999999999986
100
AcDbArc
 50
-90.0
 51
15.00000000000386
  0
ARC
  5
E2
330
1F
100
AcDbEntity
  8
1
  6
Continuous
 62
     7
100
AcDbCircle
 10
16.77178429787028
 20
-20.22423094238498
 30
0.0
 40
0.4000000000000778
100
AcDbArc
 50
-165.0000000000043
 51
-90.0
  0
ARC
  5
E3
330
1F
100
AcDbEntity
  8
1
  6
Continuous
 62
     7
100
AcDbCircle
 10
16.9788395339524
 20
-20.22423094238498
 30
0.0
 40
0.3999999999999986
100
AcDbArc
 50
-90.0
 51
14.99999999999754
  0
ARC
  5
E4
330
1F
100
AcDbEntity
  8
1
  6
Continuous
 62
     7
100
AcDbCircle
 10
18.53540586349897
 20
-21.62423094238498
 30
0.0
 40
1.0
100
AcDbArc
 50
-90.0
 51
0.0
  0
ARC
  5
E5
330
1F
100
AcDbEntity
  8
1
  6
Continuous
 62
     7
100
AcDbCircle
 10
18.03540586349897
 20
-21.12423094238498
 30
0.0
 40
0.5
100
AcDbArc
 50
-90.0
 51
0.0
  0
ARC
  5
E6
330
1F
100
AcDbEntity
  8
1
  6
Continuous
 62
     7
100
AcDbCircle
 10
7.67527148357897
 20
-17.22423094238489
 30
0.0
 40
0.4000000000000128
100
AcDbArc
 50
-90.0
 51
0.0
  0
ARC
  5
E7
330
1F
100
AcDbEntity
  8
1
  6
Continuous
 62
     7
100
AcDbCircle
 10
7.67527148357897
 20
-17.0242309423849
 30
0.0
 40
0.4000000000000901
100
AcDbArc
 50
0.0
 51
90.0
  0
ARC
  5
E8
330
1F
100
AcDbEntity
  8
1
  6
Continuous
 62
     7
100
AcDbCircle
 10
-5.46459413650103
 20
-20.58833255752272
 30
0.0
 40
3.999999999999987
100
AcDbArc
 50
112.0243128370422
 51
151.0449756281407
  0
ARC
  5
E9
330
1F
100
AcDbEntity
  8
1
  6
Continuous
 62
     7
100
AcDbCircle
 10
-6.96459413650103
 20
-16.62423094238498
 30
0.0
 40
4.000000000000002
100
AcDbArc
 50
-63.61220003875702
 51
0.0
  0
ARC
  5
EA
330
1F
100
AcDbEntity
  8
1
  6
Continuous
 62
     7
100
AcDbCircle
 10
-4.96459413650103
 20
-20.65535981653425
 30
0.0
 40
0.4999999999999947
100
AcDbArc
 50
116.3877999612433
 51
180.0
  0
ARC
  5
EB
330
1F
100
AcDbEntity
  8
1
  6
Continuous
 62
     7
100
AcDbCircle
 10
-5.38564676808005
 20
-21.12423094238498
 30
0.0
 40
4.5
100
AcDbArc
 50
-107.9452532297929
 51
-101.0846434924273
  0
DIMENSION
  5
F7
330
1F
100
AcDbEntity
  8
1
100
AcDbDimension
  2
*D1
 10
-16.46459413650097
 20
-65.0846577514523
 30
0.0
 11
-1.84418292412028
 21
-61.3346577514523
 31
0.0
 70
    32
  1
<>
 71
     5
 42
-1.0
 53
0.00013888888889
  3
ME10_DIM_10
100
AcDbAlignedDimension
 13
10.53540586349897
 23
-18.12423094238498
 33
0.0
 14
-16.46459413650097
 24
-42.12423094238488
 34
0.0
100
AcDbRotatedDimension
  0
DIMENSION
  5
102
330
1F
100
AcDbEntity
  8
1
100
AcDbDimension
  2
*D2
 10
-63.93343976986904
 20
10.87576905761502
 30
0.0
 11
-67.68343976986904
 21
-7.97273799792757
 31
0.0
 70
    32
  1
<>
 71
     5
 42
-1.0
 53
90.0
  3
ME10_DIM_11
100
AcDbAlignedDimension
 13
-28.96459413650097
 23
-29.62423094238488
 33
0.0
 14
-6.96459413650103
 24
10.87576905761502
 34
0.0
 50
90.0
100
AcDbRotatedDimension
  0
DIMENSION
  5
10D
330
1F
100
AcDbEntity
  8
1
100
AcDbDimension
  2
*D3
 10
-52.466944242279
 20
-16.62423094238487
 30
0.0
 11
-56.216944242279
 21
-22.4594915552906
 31
0.0
 70
    32
  1
<>
 71
     5
 42
-1.0
 53
90.0
  3
ME10_DIM_12
100
AcDbAlignedDimension
 13
-28.96459413650097
 23
-29.62423094238488
 33
0.0
 14
-42.96459413650103
 24
-16.62423094238487
 34
0.0
 50
90.0
100
AcDbRotatedDimension
  0
DIMENSION
  5
118
330
1F
100
AcDbEntity
  8
1
100
AcDbDimension
  2
*D4
 10
87.01369096455397
 20
4.37576905761502
 30
0.0
 11
83.26369096455397
 21
-6.1703273865041
 31
0.0
 70
    32
  1
<>
 71
     5
 42
-1.0
 53
90.0
  3
ME10_DIM_13
100
AcDbAlignedDimension
 13
12.53540586349897
 23
-18.12423094238498
 33
0.0
 14
22.53540586349897
 24
4.37576905761502
 34
0.0
 50
90.0
100
AcDbRotatedDimension
  0
DIMENSION
  5
123
330
1F
100
AcDbEntity
  8
1
100
AcDbDimension
  2
*D5
 10
96.733275818751
 20
4.37576905761502
 30
0.0
 11
92.983275818751
 21
-9.4539709183272
 31
0.0
 70
    32
  1
<>
 71
     5
 42
-1.0
 53
90.0
  3
ME10_DIM_14
100
AcDbAlignedDimension
 13
22.53540586349897
 23
-25.62423094238498
 33
0.0
 14
22.53540586349897
 24
4.37576905761502
 34
0.0
 50
90.0
100
AcDbRotatedDimension
  0
DIMENSION
  5
12F
330
1F
100
AcDbEntity
  8
1
100
AcDbDimension
  2
*D6
 10
-2.46459413650103
 20
-55.4264892486806
 30
0.0
 11
3.50621242218695
 21
-51.6764892486806
 31
0.0
 70
    32
  1
<>
 71
     5
 42
-1.0
 53
0.00013888888889
  3
ME10_DIM_15
100
AcDbAlignedDimension
 13
10.53540586349897
 23
-18.12423094238498
 33
0.0
 14
-2.46459413650103
 24
-35.62423094238498
 34
0.0
100
AcDbRotatedDimension
  0
DIMENSION
  5
13A
330
1F
100
AcDbEntity
  8
1
100
AcDbDimension
  2
*D7
 10
7.03540586349897
 20
37.4725591364507
 30
0.0
 11
1.59268323965931
 21
41.2225591364507
 31
0.0
 70
    32
  1
<>
 71
     5
 42
-1.0
 53
0.00013888888889
  3
ME10_DIM_16
100
AcDbAlignedDimension
 13
-2.96459413650103
 23
10.87576905761502
 33
0.0
 14
7.03540586349897
 24
-16.62423094238503
 34
0.0
100
AcDbRotatedDimension
  0
DIMENSION
  5
145
330
1F
100
AcDbEntity
  8
1
100
AcDbDimension
  2
*D8
 10
10.53540586349897
 20
-65.0847752818909
 30
0.0
 11
16.3592046193799
 21
-61.3347752818909
 31
0.0
 70
    32
  1
<>
 71
     5
 42
-1.0
 53
0.00013888888889
  3
ME10_DIM_17
100
AcDbAlignedDimension
 13
22.53540586349897
 23
-21.12423094238498
 33
0.0
 14
10.53540586349897
 24
-18.12423094238498
 34
0.0
100
AcDbRotatedDimension
  0
DIMENSION
  5
152
330
1F
100
AcDbEntity
  8
1
100
AcDbDimension
  2
*D9
 10
18.53540586349897
 20
-55.2466304956861
 30
0.0
 11
29.2478681147741
 21
-51.4966304956861
 31
0.0
 70
    32
  1
<>
 71
     5
 42
-1.0
 53
0.00013888888889
  3
ME10_DIM_18
100
AcDbAlignedDimension
 13
22.53540586349897
 23
-25.62423094238498
 33
0.0
 14
18.53540586349897
 24
-21.12423094238498
 34
0.0
100
AcDbRotatedDimension
  0
DIMENSION
  5
15F
330
1F
100
AcDbEntity
  8
1
100
AcDbDimension
  2
*D10
 10
-6.96459413650103
 20
46.23258283272142
 30
0.0
 11
-11.714594136501
 21
49.98258283272142
 31
0.0
 70
    32
  1
<>
 71
     5
 42
-1.0
 53
0.00013888888889
  3
ME10_DIM_19
100
AcDbAlignedDimension
 13
-16.46459413650097
 23
-17.12423094238488
 33
0.0
 14
-6.96459413650103
 24
10.87576905761502
 34
0.0
100
AcDbRotatedDimension
  0
DIMENSION
  5
16C
330
1F
100
AcDbEntity
  8
1
100
AcDbDimension
  2
*D11
 10
7.03540586349897
 20
-45.6656441235692
 30
0.0
 11
0.99736624712057
 21
-41.9156441235692
 31
0.0
 70
    32
  1
<>
 71
     5
 42
-1.0
 53
0.00013888888889
  3
ME10_DIM_20
100
AcDbAlignedDimension
 13
10.53540586349897
 23
-20.22423094238498
 33
0.0
 14
7.03540586349897
 24
-16.62423094238503
 34
0.0
100
AcDbRotatedDimension
  0
HATCH
  5
16D
330
1F
100
AcDbEntity
  8
1
  6
Continuous
 62
     3
100
AcDbHatch
 10
0.0
 20
0.0
 30
0.0
210
0.0
220
0.0
230
1.0
  2
SOLID
 70
     1
 71
     1
 91
        1
 92
        1
 93
        5
 72
     1
 10
-3.38259196163453
 20
-25.62423094238498
 11
-5.385646768080051
 21
-25.62423094238498
 72
     2
 10
-5.385646768080051
 20
-21.12423094238498
 40
4.5
 50
90.0
 51
91.00524068543243
 73
     0
 72
     2
 10
-5.385646768080051
 20
-21.12423094238498
 40
4.499999999999998
 50
91.00524068543243
 51
101.0846434924273
 73
     0
 72
     2
 10
-16.46459413650103
 20
-29.62423094238498
 40
11.00000000000004
 50
338.2061439400817
 51
358.021284394123
 73
     0
 72
     2
 10
-0.4923412329359983
 20
-29.70423715871083
 40
4.999999999999996
 50
185.2765682236424
 51
234.6864831828029
 73
     0
 97
        5
330
CD
330
DB
330
D9
330
D2
330
D7
 75
     0
 76
     1
 98
        1
 10
0.0
 20
0.0
  0
ENDSEC
  0
SECTION
  2
OBJECTS
  0
DICTIONARY
  5
C
330
0
100
AcDbDictionary
281
     1
  3
ACAD_GROUP
350
D
  3
ACAD_LAYOUT
350
1A
  3
ACAD_MLINESTYLE
350
17
  3
ACAD_PLOTSETTINGS
350
19
  3
ACAD_PLOTSTYLENAME
350
E
  0
DICTIONARY
  5
D
102
{ACAD_REACTORS
330
C
102
}
330
C
100
AcDbDictionary
281
     1
  0
DICTIONARY
  5
1A
102
{ACAD_REACTORS
330
C
102
}
330
C
100
AcDbDictionary
281
     1
  3
Layout1
350
1E
  3
Layout2
350
26
  3
Model
350
22
  0
DICTIONARY
  5
17
102
{ACAD_REACTORS
330
C
102
}
330
C
100
AcDbDictionary
281
     1
  3
Standard
350
18
  0
DICTIONARY
  5
19
102
{ACAD_REACTORS
330
C
102
}
330
C
100
AcDbDictionary
281
     1
  0
ACDBDICTIONARYWDFLT
  5
E
102
{ACAD_REACTORS
330
C
102
}
330
C
100
AcDbDictionary
281
     1
  3
Normal
350
F
100
AcDbDictionaryWithDefault
340
F
  0
LAYOUT
  5
1E
102
{ACAD_REACTORS
330
1A
102
}
330
1A
100
AcDbPlotSettings
  1

  2

  4

  6

 40
0.0
 41
0.0
 42
0.0
 43
0.0
 44
0.0
 45
0.0
 46
0.0
 47
0.0
 48
0.0
 49
0.0
140
0.0
141
0.0
142
1.0
143
1.0
 70
   688
 72
     0
 73
     0
 74
     5
  7

 75
    16
 76
     0
 77
     2
 78
   300
147
1.0
148
0.0
149
0.0
100
AcDbLayout
  1
Layout1
 70
     1
 71
     1
 10
0.0
 20
0.0
 11
0.0
 21
0.0
 12
0.0
 22
0.0
 32
0.0
 14
0.0
 24
0.0
 34
0.0
 15
0.0
 25
0.0
 35
0.0
146
0.0
 13
0.0
 23
0.0
 33
0.0
 16
1.0
 26
0.0
 36
0.0
 17
0.0
 27
1.0
 37
0.0
 76
     0
330
1B
  0
LAYOUT
  5
26
102
{ACAD_REACTORS
330
1A
102
}
330
1A
100
AcDbPlotSettings
  1

  2

  4

  6

 40
0.0
 41
0.0
 42
0.0
 43
0.0
 44
0.0
 45
0.0
 46
0.0
 47
0.0
 48
0.0
 49
0.0
140
0.0
141
0.0
142
1.0
143
1.0
 70
   688
 72
     0
 73
     0
 74
     5
  7

 75
    16
 76
     0
 77
     2
 78
   300
147
1.0
148
0.0
149
0.0
100
AcDbLayout
  1
Layout2
 70
     1
 71
     2
 10
0.0
 20
0.0
 11
0.0
 21
0.0
 12
0.0
 22
0.0
 32
0.0
 14
0.0
 24
0.0
 34
0.0
 15
0.0
 25
0.0
 35
0.0
146
0.0
 13
0.0
 23
0.0
 33
0.0
 16
1.0
 26
0.0
 36
0.0
 17
0.0
 27
1.0
 37
0.0
 76
     0
330
23
  0
LAYOUT
  5
22
102
{ACAD_REACTORS
330
1A
102
}
330
1A
100
AcDbPlotSettings
  1

  2

  4

  6

 40
0.0
 41
0.0
 42
0.0
 43
0.0
 44
0.0
 45
0.0
 46
0.0
 47
0.0
 48
0.0
 49
0.0
140
0.0
141
0.0
142
1.0
143
1.0
 70
  1712
 72
     0
 73
     0
 74
     0
  7

 75
     0
 76
     0
 77
     2
 78
   300
147
1.0
148
0.0
149
0.0
100
AcDbLayout
  1
Model
 70
     1
 71
     0
 10
0.0
 20
0.0
 11
0.0
 21
0.0
 12
0.0
 22
0.0
 32
0.0
 14
-69.43343976986904
 24
-67.0847752818909
 34
0.0
 15
98.733275818751
 25
57.3110298285922
 35
0.0
146
0.0
 13
0.0
 23
0.0
 33
0.0
 16
1.0
 26
0.0
 36
0.0
 17
0.0
 27
1.0
 37
0.0
 76
     0
330
1F
  0
MLINESTYLE
  5
18
102
{ACAD_REACTORS
330
17
102
}
330
17
100
AcDbMlineStyle
  2
Standard
 70
     0
  3

 62
   256
 51
90.0
 52
90.0
 71
     2
 49
0.5
 62
   256
  6
BYLAYER
 49
-0.5
 62
   256
  6
BYLAYER
  0
ACDBPLACEHOLDER
  5
F
102
{ACAD_REACTORS
330
E
102
}
330
E
  0
ENDSEC
  0
EOF
