999
DXF file: d:\tmp\workingDir\0000083684\vx_7939_160_4_18_12_fd_v01_01.dxf
999
Pro/ENGINEER 2016380 by Parametric Technology Corporation
  0
SECTION
  2
HEADER
  9
$ACADVER
  1
AC1014
  9
$DWGCODEPAGE
  3
ANSI_1252
  9
$EXTMAX
 10
124.968
 20
182.0
 30
0.0
  9
$EXTMIN
 10
0.0
 20
0.0
 30
0.0
  9
$LIMMIN
 10
0.0
 20
0.0
  9
$LIMMAX
 10
124.968
 20
182.0
  9
$VIEWCTR
 10
62.484
 20
91.0
  9
$VIEWSIZE
 40
182.0
  9
$CLAYER
  8
0
  9
$LTSCALE
 40
11.8637037037
  9
$CELTYPE
  6
BYLAYER
  9
$DIMSCALE
 40
1.0
  9
$DIMASZ
 40
3.5
  9
$DIMEXO
 40
0.0
  9
$DIMDLI
 40
8.1967407407
  9
$DIMEXE
 40
2.0
  9
$DIMCEN
 40
1.9413333333
  9
$DIMLFAC
 40
1.0
  9
$DIMBLK
  1
_ARROW_FILLED
  9
$DIMALT
 70
0
  9
$DIMALTF
 40
25.4
  9
$DIMTXT
 40
3.5
  9
$DIMTOL
 70
1
  9
$DIMLIM
 70
0
  9
$DIMTFAC
 40
1.0
  9
$DIMTP
 40
0.01
  9
$DIMTM
 40
0.01
  9
$DIMGAP
 40
0.625
  9
$AUNITS
 70
0
  9
$PDMODE
 70
0
  9
$PDSIZE
 40
0.04
  9
$HANDSEED
  5
350
  9
$TILEMODE
 70
1
  9
$MEASUREMENT
 70
1
  0
ENDSEC
  0
SECTION
  2
CLASSES
  0
ENDSEC
  0
SECTION
  2
TABLES
  0
TABLE
  2
VPORT
  5
8
100
AcDbSymbolTable
 70
2
  0
VPORT
  5
1F4
100
AcDbSymbolTableRecord
100
AcDbViewportTableRecord
  2
*ACTIVE
 70
0
 10
0.0
 20
0.0
 11
1.0
 21
1.0
 12
62.484
 22
91.0
 13
0.0
 23
0.0
 14
1.0
 24
1.0
 15
0.0
 25
0.0
 16
0.0
 26
0.0
 36
1.0
 17
0.0
 27
0.0
 37
0.0
 40
182.0
 41
0.6866373626
 42
50.0
 43
0.0
 44
0.0
 50
0.0
 51
0.0
 71
0
 72
100
 73
1
 74
1
 75
0
 76
0
 77
0
 78
0
  0
ENDTAB
  0
TABLE
  2
LTYPE
  5
5
100
AcDbSymbolTable
 70
6
  0
LTYPE
  5
14
100
AcDbSymbolTableRecord
100
AcDbLinetypeTableRecord
  2
BYBLOCK
 70
0
  3

 72
65
 73
0
 40
0.0
  0
LTYPE
  5
15
100
AcDbSymbolTableRecord
100
AcDbLinetypeTableRecord
  2
BYLAYER
 70
0
  3

 72
65
 73
0
 40
0.0
  0
LTYPE
  5
16
100
AcDbSymbolTableRecord
100
AcDbLinetypeTableRecord
  2
CONTINUOUS
 70
64
  3
Solid line
 72
65
 73
0
 40
0.0
  0
LTYPE
  5
1F5
100
AcDbSymbolTableRecord
100
AcDbLinetypeTableRecord
  2
CENTER
 70
64
  3
____ _ ____ _ ____ _ ____ _ ____ _ ____ _ ____
 72
65
 73
4
 40
0.6
 49
0.375
 74
0
 49
-0.075
 74
0
 49
0.075
 74
0
 49
-0.075
 74
0
  0
LTYPE
  5
1F6
100
AcDbSymbolTableRecord
100
AcDbLinetypeTableRecord
  2
HIDDEN
 70
64
  3
- - - - - - - - - - - - - - - - - - - -
 72
65
 73
2
 40
0.2
 49
0.1
 74
0
 49
-0.1
 74
0
  0
LTYPE
  5
1F7
100
AcDbSymbolTableRecord
100
AcDbLinetypeTableRecord
  2
PHANTOM
 70
64
  3
_____ _ _ _____ _ _ _____ _ _ _____
 72
65
 73
6
 40
0.8
 49
0.45
 74
0
 49
-0.05
 74
0
 49
0.1
 74
0
 49
-0.05
 74
0
 49
0.1
 74
0
 49
-0.05
 74
0
  0
LTYPE
  5
1F8
100
AcDbSymbolTableRecord
100
AcDbLinetypeTableRecord
  2
DOT
 70
64
  3
. . . . . . . . . . . . . . . . . . . .
 72
65
 73
2
 40
0.2
 49
0.1
 74
0
 49
-0.1
 74
0
  0
LTYPE
  5
1F9
100
AcDbSymbolTableRecord
100
AcDbLinetypeTableRecord
  2
DASHED
 70
64
  3
- - - - - - - - - - - - - - - - - - - -
 72
65
 73
2
 40
0.2
 49
0.1
 74
0
 49
-0.1
 74
0
  0
ENDTAB
  0
TABLE
  2
LAYER
  5
2
100
AcDbSymbolTable
 70
36
  0
LAYER
  5
10
100
AcDbSymbolTableRecord
100
AcDbLayerTableRecord
  2
0
 70
0
 62
7
  6
CONTINUOUS
  0
LAYER
  5
1FA
100
AcDbSymbolTableRecord
100
AcDbLayerTableRecord
  2
DEFAULT_1
 70
0
 62
7
  6
CENTER
  0
LAYER
  5
1FB
100
AcDbSymbolTableRecord
100
AcDbLayerTableRecord
  2
DEFAULT_2
 70
0
 62
8
  6
HIDDEN
  0
LAYER
  5
1FC
100
AcDbSymbolTableRecord
100
AcDbLayerTableRecord
  2
DEFAULT_3
 70
0
 62
7
  6
PHANTOM
  0
LAYER
  5
1FD
100
AcDbSymbolTableRecord
100
AcDbLayerTableRecord
  2
A_ACHSEN
 70
0
 62
7
  6
CONTINUOUS
  0
LAYER
  5
1FE
100
AcDbSymbolTableRecord
100
AcDbLayerTableRecord
  2
A_BASISEBENEN
 70
0
 62
7
  6
CONTINUOUS
  0
LAYER
  5
1FF
100
AcDbSymbolTableRecord
100
AcDbLayerTableRecord
  2
A_BEMASSUNGEN
 70
0
 62
7
  6
CONTINUOUS
  0
LAYER
  5
200
100
AcDbSymbolTableRecord
100
AcDbLayerTableRecord
  2
A_BOHRUNGEN
 70
0
 62
7
  6
CONTINUOUS
  0
LAYER
  5
201
100
AcDbSymbolTableRecord
100
AcDbLayerTableRecord
  2
A_EBENEN
 70
0
 62
7
  6
CONTINUOUS
  0
LAYER
  5
202
100
AcDbSymbolTableRecord
100
AcDbLayerTableRecord
  2
A_FASEN
 70
0
 62
7
  6
CONTINUOUS
  0
LAYER
  5
203
100
AcDbSymbolTableRecord
100
AcDbLayerTableRecord
  2
A_FLAECHEN
 70
0
 62
7
  6
CONTINUOUS
  0
LAYER
  5
204
100
AcDbSymbolTableRecord
100
AcDbLayerTableRecord
  2
A_FL_VERBAENDE
 70
0
 62
7
  6
CONTINUOUS
  0
LAYER
  5
205
100
AcDbSymbolTableRecord
100
AcDbLayerTableRecord
  2
A_KURVEN
 70
0
 62
7
  6
CONTINUOUS
  0
LAYER
  5
206
100
AcDbSymbolTableRecord
100
AcDbLayerTableRecord
  2
A_NOTIZEN_SYMB
 70
0
 62
7
  6
CONTINUOUS
  0
LAYER
  5
207
100
AcDbSymbolTableRecord
100
AcDbLayerTableRecord
  2
A_RUNDUNGEN
 70
0
 62
7
  6
CONTINUOUS
  0
LAYER
  5
208
100
AcDbSymbolTableRecord
100
AcDbLayerTableRecord
  2
B-ACHSEN
 70
0
 62
7
  6
CONTINUOUS
  0
LAYER
  5
209
100
AcDbSymbolTableRecord
100
AcDbLayerTableRecord
  2
B-EBENEN
 70
0
 62
7
  6
CONTINUOUS
  0
LAYER
  5
20A
100
AcDbSymbolTableRecord
100
AcDbLayerTableRecord
  2
B-KOORSYS
 70
0
 62
7
  6
CONTINUOUS
  0
LAYER
  5
20B
100
AcDbSymbolTableRecord
100
AcDbLayerTableRecord
  2
BASISEBENEN
 70
0
 62
7
  6
CONTINUOUS
  0
LAYER
  5
20C
100
AcDbSymbolTableRecord
100
AcDbLayerTableRecord
  2
BEMASSUNG
 70
0
 62
7
  6
CONTINUOUS
  0
LAYER
  5
20D
100
AcDbSymbolTableRecord
100
AcDbLayerTableRecord
  2
BOHRUNGEN
 70
0
 62
7
  6
CONTINUOUS
  0
LAYER
  5
20E
100
AcDbSymbolTableRecord
100
AcDbLayerTableRecord
  2
KOERPER
 70
0
 62
7
  6
CONTINUOUS
  0
LAYER
  5
20F
100
AcDbSymbolTableRecord
100
AcDbLayerTableRecord
  2
RUNDUNGEN
 70
0
 62
7
  6
CONTINUOUS
  0
LAYER
  5
210
100
AcDbSymbolTableRecord
100
AcDbLayerTableRecord
  2
VERBUNDFLAECHEN
 70
0
 62
7
  6
CONTINUOUS
  0
LAYER
  5
211
100
AcDbSymbolTableRecord
100
AcDbLayerTableRecord
  2
XSEC_DATUMS
 70
0
 62
7
  6
CONTINUOUS
  0
ENDTAB
  0
TABLE
  2
STYLE
  5
3
100
AcDbSymbolTable
 70
1
  0
STYLE
  5
11
100
AcDbSymbolTableRecord
100
AcDbTextStyleTableRecord
  2
STANDARD
 70
0
 40
0.0
 41
1.0
 50
0.0
 71
0
 42
0.2
  3
txt
  4

  0
STYLE
  5
212
100
AcDbSymbolTableRecord
100
AcDbTextStyleTableRecord
  2
TEXTSTYLE_1
 70
0
 40
0.0
 41
0.8
 50
0.0
 71
0
 42
0.2
  3
gdt
  4

  0
STYLE
  5
213
100
AcDbSymbolTableRecord
100
AcDbTextStyleTableRecord
  2
TEXTSTYLE_2
 70
0
 40
0.0
 41
1.0
 50
0.0
 71
0
 42
0.2
  3
txt
  4

  0
ENDTAB
  0
TABLE
  2
VIEW
  5
6
100
AcDbSymbolTable
 70
0
  0
ENDTAB
  0
TABLE
  2
UCS
  5
7
100
AcDbSymbolTable
 70
0
  0
ENDTAB
  0
TABLE
  2
APPID
  5
9
100
AcDbSymbolTable
 70
1
  0
APPID
  5
214
100
AcDbSymbolTableRecord
100
AcDbRegAppTableRecord
  2
ACAD
 70
0
  0
ENDTAB
  0
TABLE
  2
BLOCK_RECORD
  5
1
100
AcDbSymbolTable
 70
0
  0
BLOCK_RECORD
  5
1F
100
AcDbSymbolTableRecord
100
AcDbBlockTableRecord
  2
*MODEL_SPACE
  0
BLOCK_RECORD
  5
1B
100
AcDbSymbolTableRecord
100
AcDbBlockTableRecord
  2
*PAPER_SPACE
  0
BLOCK_RECORD
  5
215
100
AcDbSymbolTableRecord
100
AcDbBlockTableRecord
  2
_ARROW_FILLED
  0
BLOCK_RECORD
  5
216
100
AcDbSymbolTableRecord
100
AcDbBlockTableRecord
  2
*D0
  0
BLOCK_RECORD
  5
217
100
AcDbSymbolTableRecord
100
AcDbBlockTableRecord
  2
*D1
  0
BLOCK_RECORD
  5
218
100
AcDbSymbolTableRecord
100
AcDbBlockTableRecord
  2
*D2
  0
BLOCK_RECORD
  5
219
100
AcDbSymbolTableRecord
100
AcDbBlockTableRecord
  2
*D3
  0
BLOCK_RECORD
  5
21A
100
AcDbSymbolTableRecord
100
AcDbBlockTableRecord
  2
*D4
  0
BLOCK_RECORD
  5
21B
100
AcDbSymbolTableRecord
100
AcDbBlockTableRecord
  2
*D5
  0
ENDTAB
  0
TABLE
  2
DIMSTYLE
  5
A
100
AcDbSymbolTable
 70
1
  0
DIMSTYLE
105
21C
100
AcDbSymbolTableRecord
100
AcDbDimStyleTableRecord
  2
STANDARD
 70
0
  3

  4

  5
_ARROW_FILLED
  6
_ARROW_FILLED
  7
_ARROW_FILLED
 40
1.0
 41
3.5
 42
0.0
 43
0.38
 44
2.0
 45
0.0
 46
0.0
 47
0.01
 48
0.01
140
3.5
141
0.09
142
0.0
143
25.4
144
1.0
145
0.0
146
1.0
147
0.625
 71
1.0
 72
0.0
 73
0
 74
0
 75
0
 76
0
 77
1
 78
8
170
0
171
1
172
0
173
0
174
0
175
0
176
0
177
0
178
5
270
2
271
2
272
2
273
2
274
2
275
0
280
0
281
0
282
0
283
1
284
8
285
0
286
0
287
3
288
0
340
11
  0
DIMSTYLE
105
21D
100
AcDbSymbolTableRecord
100
AcDbDimStyleTableRecord
  2
DIMSTYLE_1
 70
0
  3

  4

  5
_ARROW_FILLED
  6
_ARROW_FILLED
  7
_ARROW_FILLED
 40
1.0
 41
3.5
 42
0.0
 43
0.38
 44
2.0
 45
0.0
 46
0.0
 47
0.2
 48
0.2
140
3.5
141
0.09
142
0.0
143
25.4
144
1.0
145
0.0
146
1.0
147
0.875
 71
0.0
 72
0.0
 73
0
 74
0
 75
0
 76
0
 77
1
 78
8
170
0
171
1
172
0
173
0
174
0
175
0
176
0
177
0
178
5
270
2
271
4
272
-1
273
2
274
2
275
0
280
0
281
0
282
0
283
1
284
8
285
0
286
0
287
3
288
0
340
213
  0
DIMSTYLE
105
21E
100
AcDbSymbolTableRecord
100
AcDbDimStyleTableRecord
  2
DIMSTYLE_2
 70
0
  3

  4

  5
_ARROW_FILLED
  6
_ARROW_FILLED
  7
_ARROW_FILLED
 40
1.0
 41
3.5
 42
0.0
 43
0.38
 44
2.0
 45
0.0
 46
0.0
 47
0.3
 48
0.3
140
3.5
141
0.09
142
0.0
143
25.4
144
1.0
145
0.0
146
1.0
147
0.875
 71
0.0
 72
0.0
 73
0
 74
0
 75
0
 76
0
 77
1
 78
8
170
0
171
1
172
0
173
0
174
0
175
0
176
0
177
0
178
5
270
2
271
4
272
-1
273
2
274
2
275
0
280
0
281
0
282
0
283
1
284
8
285
0
286
0
287
3
288
0
340
213
  0
DIMSTYLE
105
21F
100
AcDbSymbolTableRecord
100
AcDbDimStyleTableRecord
  2
DIMSTYLE_3
 70
0
  3

  4

  5
_ARROW_FILLED
  6
_ARROW_FILLED
  7
_ARROW_FILLED
 40
1.0
 41
3.5
 42
0.0
 43
0.38
 44
2.0
 45
0.0
 46
0.0
 47
0.5
 48
0.5
140
3.5
141
0.09
142
0.0
143
25.4
144
1.0
145
0.0
146
1.0
147
0.875
 71
0.0
 72
0.0
 73
0
 74
0
 75
0
 76
0
 77
1
 78
8
170
0
171
1
172
0
173
0
174
0
175
0
176
0
177
0
178
5
270
2
271
4
272
-1
273
2
274
2
275
0
280
0
281
0
282
0
283
1
284
8
285
0
286
0
287
3
288
0
340
213
  0
ENDTAB
  0
ENDSEC
  0
SECTION
  2
BLOCKS
  0
BLOCK
  5
20
100
AcDbEntity
  8
0
100
AcDbBlockBegin
  2
*MODEL_SPACE
 70
0
 10
0.0
 20
0.0
 30
0.0
  3
*MODEL_SPACE
  1

  0
ENDBLK
  5
21
100
AcDbEntity
  8
0
100
AcDbBlockEnd
  0
BLOCK
  5
1C
100
AcDbEntity
  8
0
100
AcDbBlockBegin
  2
*PAPER_SPACE
 70
0
 10
0.0
 20
0.0
 30
0.0
  3
*PAPER_SPACE
  1

  0
ENDBLK
  5
1D
100
AcDbEntity
  8
0
100
AcDbBlockEnd
  0
BLOCK
  5
220
100
AcDbEntity
  8
0
100
AcDbBlockBegin
  2
_ARROW_FILLED
 70
64
 10
0.0
 20
0.0
  3
_ARROW_FILLED
  1

  0
SOLID
  5
221
100
AcDbEntity
  8
0
  6
BYBLOCK
 62
0
100
AcDbTrace
 10
0.0
 20
0.0
 11
-1.0
 21
0.1428571429
 12
-1.0
 22
-0.1428571429
 13
-1.0
 23
-0.1428571429
  0
ENDBLK
  5
222
100
AcDbEntity
  8
0
  6
BYBLOCK
 62
0
100
AcDbBlockEnd
  0
BLOCK
  5
223
100
AcDbEntity
  8
A_BEMASSUNGEN
100
AcDbBlockBegin
 62
2
  6
CONTINUOUS
  2
*D0
 70
65
 10
0.0
 20
0.0
  3
*D0
  1

  0
MTEXT
  5
224
100
AcDbEntity
  8
A_BEMASSUNGEN
100
AcDbMText
 62
5
  6
CONTINUOUS
  7
TEXTSTYLE_2
 71
2
 72
1
 10
107.5975894497
 20
100.416811048
 30
0.0
 11
0.0
 21
1.0
 31
0.0
  1
28
 40
3.5
 41
8.25
  0
LINE
  5
225
100
AcDbEntity
  8
A_BEMASSUNGEN
100
AcDbLine
 62
2
  6
CONTINUOUS
 10
102.9106759655
 20
114.5547239439
 11
113.9725894497
 21
114.5547239439
  0
LINE
  5
226
100
AcDbEntity
  8
A_BEMASSUNGEN
100
AcDbLine
 62
2
  6
CONTINUOUS
 10
110.8076609146
 20
86.5547239439
 11
113.9725894497
 21
86.5547239439
  0
LINE
  5
227
100
AcDbEntity
  8
A_BEMASSUNGEN
100
AcDbLine
 62
2
  6
CONTINUOUS
 10
111.9725894497
 20
114.5547239439
 11
111.9725894497
 21
100.5547239439
  0
LINE
  5
228
100
AcDbEntity
  8
A_BEMASSUNGEN
100
AcDbLine
 62
2
  6
CONTINUOUS
 10
111.9725894497
 20
86.5547239439
 11
111.9725894497
 21
100.5547239439
  0
INSERT
  5
229
100
AcDbEntity
  8
A_BEMASSUNGEN
100
AcDbBlockReference
 62
2
  6
CONTINUOUS
  2
_ARROW_FILLED
 10
111.9725894497
 20
114.5547239439
 41
3.5
 42
3.5
 43
3.5
 50
90.0
  0
INSERT
  5
22A
100
AcDbEntity
  8
A_BEMASSUNGEN
100
AcDbBlockReference
 62
2
  6
CONTINUOUS
  2
_ARROW_FILLED
 10
111.9725894497
 20
86.5547239439
 41
3.5
 42
3.5
 43
3.5
 50
270.0
  0
ENDBLK
  5
22B
100
AcDbEntity
  8
0
  6
BYBLOCK
 62
0
100
AcDbBlockEnd
  0
BLOCK
  5
22C
100
AcDbEntity
  8
A_BEMASSUNGEN
100
AcDbBlockBegin
 62
2
  6
CONTINUOUS
  2
*D1
 70
65
 10
0.0
 20
0.0
  3
*D1
  1

  0
MTEXT
  5
22D
100
AcDbEntity
  8
A_BEMASSUNGEN
100
AcDbMText
 62
5
  6
CONTINUOUS
  7
TEXTSTYLE_2
 71
2
 72
1
 10
107.5975894497
 20
72.5547239439
 30
0.0
 11
0.0
 21
1.0
 31
0.0
  1
28
 40
3.5
 41
8.25
  0
LINE
  5
22E
100
AcDbEntity
  8
A_BEMASSUNGEN
100
AcDbLine
 62
2
  6
CONTINUOUS
 10
110.8076609146
 20
86.5547239439
 11
113.9725894497
 21
86.5547239439
  0
LINE
  5
22F
100
AcDbEntity
  8
A_BEMASSUNGEN
100
AcDbLine
 62
2
  6
CONTINUOUS
 10
99.676735694
 20
58.5547239439
 11
113.9725894497
 21
58.5547239439
  0
LINE
  5
230
100
AcDbEntity
  8
A_BEMASSUNGEN
100
AcDbLine
 62
2
  6
CONTINUOUS
 10
111.9725894497
 20
86.5547239439
 11
111.9725894497
 21
72.5547239439
  0
LINE
  5
231
100
AcDbEntity
  8
A_BEMASSUNGEN
100
AcDbLine
 62
2
  6
CONTINUOUS
 10
111.9725894497
 20
58.5547239439
 11
111.9725894497
 21
72.5547239439
  0
INSERT
  5
232
100
AcDbEntity
  8
A_BEMASSUNGEN
100
AcDbBlockReference
 62
2
  6
CONTINUOUS
  2
_ARROW_FILLED
 10
111.9725894497
 20
86.5547239439
 41
3.5
 42
3.5
 43
3.5
 50
90.0
  0
INSERT
  5
233
100
AcDbEntity
  8
A_BEMASSUNGEN
100
AcDbBlockReference
 62
2
  6
CONTINUOUS
  2
_ARROW_FILLED
 10
111.9725894497
 20
58.5547239439
 41
3.5
 42
3.5
 43
3.5
 50
270.0
  0
ENDBLK
  5
234
100
AcDbEntity
  8
0
  6
BYBLOCK
 62
0
100
AcDbBlockEnd
  0
BLOCK
  5
235
100
AcDbEntity
  8
A_BEMASSUNGEN
100
AcDbBlockBegin
 62
2
  6
CONTINUOUS
  2
*D2
 70
65
 10
0.0
 20
0.0
  3
*D2
  1

  0
MTEXT
  5
236
100
AcDbEntity
  8
A_BEMASSUNGEN
100
AcDbMText
 62
5
  6
CONTINUOUS
  7
TEXTSTYLE_2
 71
2
 72
1
 10
117.1824379564
 20
86.5547239439
 30
0.0
 11
0.0
 21
1.0
 31
0.0
  1
84
 40
3.5
 41
8.25
  0
LINE
  5
237
100
AcDbEntity
  8
A_BEMASSUNGEN
100
AcDbLine
 62
2
  6
CONTINUOUS
 10
99.075610107
 20
128.5547239439
 11
123.5574379564
 21
128.5547239439
  0
LINE
  5
238
100
AcDbEntity
  8
A_BEMASSUNGEN
100
AcDbLine
 62
2
  6
CONTINUOUS
 10
99.075610107
 20
44.5547239439
 11
123.5574379564
 21
44.5547239439
  0
LINE
  5
239
100
AcDbEntity
  8
A_BEMASSUNGEN
100
AcDbLine
 62
2
  6
CONTINUOUS
 10
121.5574379564
 20
128.5547239439
 11
121.5574379564
 21
86.5547239439
  0
LINE
  5
23A
100
AcDbEntity
  8
A_BEMASSUNGEN
100
AcDbLine
 62
2
  6
CONTINUOUS
 10
121.5574379564
 20
44.5547239439
 11
121.5574379564
 21
86.5547239439
  0
INSERT
  5
23B
100
AcDbEntity
  8
A_BEMASSUNGEN
100
AcDbBlockReference
 62
2
  6
CONTINUOUS
  2
_ARROW_FILLED
 10
121.5574379564
 20
128.5547239439
 41
3.5
 42
3.5
 43
3.5
 50
90.0
  0
INSERT
  5
23C
100
AcDbEntity
  8
A_BEMASSUNGEN
100
AcDbBlockReference
 62
2
  6
CONTINUOUS
  2
_ARROW_FILLED
 10
121.5574379564
 20
44.5547239439
 41
3.5
 42
3.5
 43
3.5
 50
270.0
  0
ENDBLK
  5
23D
100
AcDbEntity
  8
0
  6
BYBLOCK
 62
0
100
AcDbBlockEnd
  0
BLOCK
  5
23E
100
AcDbEntity
  8
A_BEMASSUNGEN
100
AcDbBlockBegin
 62
2
  6
CONTINUOUS
  2
*D3
 70
65
 10
0.0
 20
0.0
  3
*D3
  1

  0
MTEXT
  5
23F
100
AcDbEntity
  8
A_BEMASSUNGEN
100
AcDbMText
 62
5
  6
CONTINUOUS
  7
TEXTSTYLE_2
 71
2
 72
1
 10
12.2307550605
 20
126.5547239439
 30
0.0
 11
0.0
 21
1.0
 31
0.0
  1
80
 40
3.5
 41
8.25
  0
LINE
  5
240
100
AcDbEntity
  8
A_BEMASSUNGEN
100
AcDbLine
 62
2
  6
CONTINUOUS
 10
38.8076609146
 20
166.5547239439
 11
14.6057550605
 21
166.5547239439
  0
LINE
  5
241
100
AcDbEntity
  8
A_BEMASSUNGEN
100
AcDbLine
 62
2
  6
CONTINUOUS
 10
18.8076609146
 20
86.5547239439
 11
14.6057550605
 21
86.5547239439
  0
LINE
  5
242
100
AcDbEntity
  8
A_BEMASSUNGEN
100
AcDbLine
 62
2
  6
CONTINUOUS
 10
16.6057550605
 20
166.5547239439
 11
16.6057550605
 21
126.5547239439
  0
LINE
  5
243
100
AcDbEntity
  8
A_BEMASSUNGEN
100
AcDbLine
 62
2
  6
CONTINUOUS
 10
16.6057550605
 20
86.5547239439
 11
16.6057550605
 21
126.5547239439
  0
INSERT
  5
244
100
AcDbEntity
  8
A_BEMASSUNGEN
100
AcDbBlockReference
 62
2
  6
CONTINUOUS
  2
_ARROW_FILLED
 10
16.6057550605
 20
166.5547239439
 41
3.5
 42
3.5
 43
3.5
 50
90.0
  0
INSERT
  5
245
100
AcDbEntity
  8
A_BEMASSUNGEN
100
AcDbBlockReference
 62
2
  6
CONTINUOUS
  2
_ARROW_FILLED
 10
16.6057550605
 20
86.5547239439
 41
3.5
 42
3.5
 43
3.5
 50
270.0
  0
ENDBLK
  5
246
100
AcDbEntity
  8
0
  6
BYBLOCK
 62
0
100
AcDbBlockEnd
  0
BLOCK
  5
247
100
AcDbEntity
  8
A_BEMASSUNGEN
100
AcDbBlockBegin
 62
2
  6
CONTINUOUS
  2
*D4
 70
65
 10
0.0
 20
0.0
  3
*D4
  1

  0
MTEXT
  5
248
100
AcDbEntity
  8
A_BEMASSUNGEN
100
AcDbMText
 62
5
  6
CONTINUOUS
  7
TEXTSTYLE_2
 71
2
 72
1
 10
2.857996347
 20
86.5547239439
 30
0.0
 11
0.0
 21
1.0
 31
0.0
  1
160
 40
3.5
 41
11.25
  0
LINE
  5
249
100
AcDbEntity
  8
A_BEMASSUNGEN
100
AcDbLine
 62
2
  6
CONTINUOUS
 10
38.8076609146
 20
166.5547239439
 11
5.232996347
 21
166.5547239439
  0
LINE
  5
24A
100
AcDbEntity
  8
A_BEMASSUNGEN
100
AcDbLine
 62
2
  6
CONTINUOUS
 10
38.8076609146
 20
6.5547239439
 11
5.232996347
 21
6.5547239439
  0
LINE
  5
24B
100
AcDbEntity
  8
A_BEMASSUNGEN
100
AcDbLine
 62
2
  6
CONTINUOUS
 10
7.232996347
 20
166.5547239439
 11
7.232996347
 21
86.5547239439
  0
LINE
  5
24C
100
AcDbEntity
  8
A_BEMASSUNGEN
100
AcDbLine
 62
2
  6
CONTINUOUS
 10
7.232996347
 20
6.5547239439
 11
7.232996347
 21
86.5547239439
  0
INSERT
  5
24D
100
AcDbEntity
  8
A_BEMASSUNGEN
100
AcDbBlockReference
 62
2
  6
CONTINUOUS
  2
_ARROW_FILLED
 10
7.232996347
 20
166.5547239439
 41
3.5
 42
3.5
 43
3.5
 50
90.0
  0
INSERT
  5
24E
100
AcDbEntity
  8
A_BEMASSUNGEN
100
AcDbBlockReference
 62
2
  6
CONTINUOUS
  2
_ARROW_FILLED
 10
7.232996347
 20
6.5547239439
 41
3.5
 42
3.5
 43
3.5
 50
270.0
  0
ENDBLK
  5
24F
100
AcDbEntity
  8
0
  6
BYBLOCK
 62
0
100
AcDbBlockEnd
  0
BLOCK
  5
250
100
AcDbEntity
  8
A_BEMASSUNGEN
100
AcDbBlockBegin
 62
2
  6
CONTINUOUS
  2
*D5
 70
65
 10
0.0
 20
0.0
  3
*D5
  1

  0
MTEXT
  5
251
100
AcDbEntity
  8
A_BEMASSUNGEN
100
AcDbMText
 62
5
  6
CONTINUOUS
  7
TEXTSTYLE_2
 71
2
 72
1
 10
62.3076609146
 20
179.7934226317
 30
0.0
 11
1.0
 21
0.0
 31
0.0
  1
ø22.5
 40
3.5
 41
20.25
  0
LINE
  5
252
100
AcDbEntity
  8
A_BEMASSUNGEN
100
AcDbLine
 62
2
  6
CONTINUOUS
 10
51.0576609146
 20
166.5547239439
 11
51.0576609146
 21
177.4184226317
  0
LINE
  5
253
100
AcDbEntity
  8
A_BEMASSUNGEN
100
AcDbLine
 62
2
  6
CONTINUOUS
 10
73.5576609146
 20
166.5547239439
 11
73.5576609146
 21
177.4184226317
  0
LINE
  5
254
100
AcDbEntity
  8
A_BEMASSUNGEN
100
AcDbLine
 62
2
  6
CONTINUOUS
 10
51.0576609146
 20
175.4184226317
 11
62.3076609146
 21
175.4184226317
  0
LINE
  5
255
100
AcDbEntity
  8
A_BEMASSUNGEN
100
AcDbLine
 62
2
  6
CONTINUOUS
 10
73.5576609146
 20
175.4184226317
 11
62.3076609146
 21
175.4184226317
  0
INSERT
  5
256
100
AcDbEntity
  8
A_BEMASSUNGEN
100
AcDbBlockReference
 62
2
  6
CONTINUOUS
  2
_ARROW_FILLED
 10
51.0576609146
 20
175.4184226317
 41
3.5
 42
3.5
 43
3.5
 50
180.0
  0
INSERT
  5
257
100
AcDbEntity
  8
A_BEMASSUNGEN
100
AcDbBlockReference
 62
2
  6
CONTINUOUS
  2
_ARROW_FILLED
 10
73.5576609146
 20
175.4184226317
 41
3.5
 42
3.5
 43
3.5
  0
ENDBLK
  5
258
100
AcDbEntity
  8
0
  6
BYBLOCK
 62
0
100
AcDbBlockEnd
  0
ENDSEC
  0
SECTION
  2
ENTITIES
  0
DIMENSION
  5
259
100
AcDbEntity
  8
A_BEMASSUNGEN
100
AcDbDimension
 62
2
  6
CONTINUOUS
  2
*D0
 10
111.9725894497
 20
86.5547239439
 11
111.9725894497
 21
99.916810574
 70
160
  3
DIMSTYLE_1
100
AcDbAlignedDimension
 13
102.9106759655
 23
114.5547239439
 14
113.9725894497
 24
86.5547239439
 50
270.0
100
AcDbRotatedDimension
  0
DIMENSION
  5
25A
100
AcDbEntity
  8
A_BEMASSUNGEN
100
AcDbDimension
 62
2
  6
CONTINUOUS
  2
*D1
 10
111.9725894497
 20
58.5547239439
 11
111.9725894497
 21
72.0547234699
 70
160
  3
DIMSTYLE_1
100
AcDbAlignedDimension
 13
113.9725894497
 23
86.5547239439
 14
99.676735694
 24
58.5547239439
 50
270.0
100
AcDbRotatedDimension
  0
DIMENSION
  5
25B
100
AcDbEntity
  8
A_BEMASSUNGEN
100
AcDbDimension
 62
2
  6
CONTINUOUS
  2
*D2
 10
121.5574379564
 20
44.5547239439
 11
121.5574379564
 21
86.0547211727
 70
160
  3
DIMSTYLE_2
100
AcDbAlignedDimension
 13
99.075610107
 23
128.5547239439
 14
99.075610107
 24
44.5547239439
 50
270.0
100
AcDbRotatedDimension
  0
DIMENSION
  5
25C
100
AcDbEntity
  8
A_BEMASSUNGEN
100
AcDbDimension
 62
2
  6
CONTINUOUS
  2
*D3
 10
16.6057550605
 20
86.5547239439
 11
16.6057550605
 21
126.0547230067
 70
160
  3
DIMSTYLE_2
100
AcDbAlignedDimension
 13
38.8076609146
 23
166.5547239439
 14
18.8076609146
 24
86.5547239439
 50
270.0
100
AcDbRotatedDimension
  0
DIMENSION
  5
25D
100
AcDbEntity
  8
A_BEMASSUNGEN
100
AcDbDimension
 62
2
  6
CONTINUOUS
  2
*D4
 10
7.232996347
 20
6.5547239439
 11
7.232996347
 21
86.0547230577
 70
160
  3
DIMSTYLE_3
100
AcDbAlignedDimension
 13
38.8076609146
 23
166.5547239439
 14
38.8076609146
 24
6.5547239439
 50
270.0
100
AcDbRotatedDimension
  0
DIMENSION
  5
25E
100
AcDbEntity
  8
A_BEMASSUNGEN
100
AcDbDimension
 62
2
  6
CONTINUOUS
  2
*D5
 10
73.5576609146
 20
175.4184226317
 11
62.3076609146
 21
175.4184226317
 70
160
  1
ø<>
  3
DIMSTYLE_1
100
AcDbAlignedDimension
 13
51.0576609146
 23
166.5547239439
 14
73.5576609146
 24
166.5547239439
100
AcDbRotatedDimension
  0
MTEXT
  5
25F
100
AcDbEntity
  8
A_NOTIZEN_SYMB
100
AcDbMText
 62
5
  6
CONTINUOUS
  7
TEXTSTYLE_2
 71
1
 72
1
 10
52.8411776567
 20
91.7764531458
 30
0.0
 11
1.0
 21
0.0
 31
0.0
  1
BBL
 40
3.5
 41
12.625
  0
LINE
  5
260
100
AcDbEntity
  8
A_RUNDUNGEN
100
AcDbLine
 62
7
  6
CONTINUOUS
 10
47.3076609146
 20
6.5547239439
 11
38.8076609146
 21
6.5547239439
  0
LINE
  5
261
100
AcDbEntity
  8
0
100
AcDbLine
 62
3
  6
CONTINUOUS
 10
51.057866915
 20
6.5547239439
 11
73.5578982109
 21
6.5547239439
  0
LINE
  5
262
100
AcDbEntity
  8
DEFAULT_2
100
AcDbLine
 62
8
  6
HIDDEN
 10
28.8960869344
 20
155.0444575861
 11
28.7895083909
 21
154.9767360576
  0
LINE
  5
263
100
AcDbEntity
  8
DEFAULT_2
100
AcDbLine
 62
8
  6
HIDDEN
 10
35.9512639653
 20
159.1115775663
 11
35.8393261294
 21
159.0531386044
  0
LINE
  5
264
100
AcDbEntity
  8
0
100
AcDbLine
 62
7
  6
CONTINUOUS
 10
51.0576609146
 20
8.0547239439
 11
47.3076609146
 21
8.0547239439
  0
LINE
  5
265
100
AcDbEntity
  8
DEFAULT_2
100
AcDbLine
 62
8
  6
HIDDEN
 10
35.8393261294
 20
14.0563092834
 11
35.9512639653
 21
13.9978703215
  0
LINE
  5
266
100
AcDbEntity
  8
DEFAULT_2
100
AcDbLine
 62
8
  6
HIDDEN
 10
28.7895083909
 20
18.1327118303
 11
28.8960869344
 21
18.0649903017
  0
LINE
  5
267
100
AcDbEntity
  8
DEFAULT_2
100
AcDbLine
 62
8
  6
HIDDEN
 10
38.7192348947
 20
154.0649903017
 11
38.8258134382
 21
154.1327118303
  0
LINE
  5
268
100
AcDbEntity
  8
DEFAULT_2
100
AcDbLine
 62
8
  6
HIDDEN
 10
31.6640578639
 20
149.9978703215
 11
31.7759956997
 21
150.0563092834
  0
LINE
  5
269
100
AcDbEntity
  8
A_ACHSEN
100
AcDbLine
 62
7
  6
CENTER
 10
26.2494273682
 20
18.5547239439
 11
41.365894461
 21
18.5547239439
  0
LINE
  5
26A
100
AcDbEntity
  8
DEFAULT_2
100
AcDbLine
 62
8
  6
HIDDEN
 10
31.7759956997
 20
23.0531386044
 11
31.6640578639
 21
23.1115775663
  0
LINE
  5
26B
100
AcDbEntity
  8
DEFAULT_2
100
AcDbLine
 62
8
  6
HIDDEN
 10
38.8258134382
 20
18.9767360576
 11
38.7192348947
 21
19.0444575861
  0
LINE
  5
26C
100
AcDbEntity
  8
0
100
AcDbLine
 62
3
  6
CONTINUOUS
 10
102.8076609146
 20
45.5547239439
 11
99.075610107
 21
44.5547239439
  0
LINE
  5
26D
100
AcDbEntity
  8
A_ACHSEN
100
AcDbLine
 62
7
  6
CENTER
 10
33.5230202259
 20
36.5547239439
 11
44.0923016032
 21
36.5547239439
  0
LINE
  5
26E
100
AcDbEntity
  8
0
100
AcDbLine
 62
3
  6
CONTINUOUS
 10
51.0578822612
 20
43.6547239439
 11
73.5578884622
 21
43.6547239439
  0
LINE
  5
26F
100
AcDbEntity
  8
A_ACHSEN
100
AcDbLine
 62
7
  6
CONTINUOUS
 10
52.582786722
 20
43.7547239439
 11
72.0325351071
 21
43.7547239439
  0
LINE
  5
270
100
AcDbEntity
  8
DEFAULT_2
100
AcDbLine
 62
8
  6
HIDDEN
 10
30.9277521493
 20
14.5460429256
 11
30.9331114416
 21
14.4198824352
  0
LINE
  5
271
100
AcDbEntity
  8
A_RUNDUNGEN
100
AcDbLine
 62
7
  6
CONTINUOUS
 10
26.8076609146
 20
18.5547239439
 11
26.8076609146
 21
154.5547239439
  0
LINE
  5
272
100
AcDbEntity
  8
DEFAULT_2
100
AcDbLine
 62
8
  6
HIDDEN
 10
30.9331114416
 20
158.6895654526
 11
30.9277521493
 21
158.5634049622
  0
LINE
  5
273
100
AcDbEntity
  8
DEFAULT_2
100
AcDbLine
 62
8
  6
HIDDEN
 10
40.8960869344
 20
121.0444575861
 11
40.7895083909
 21
120.9767360576
  0
LINE
  5
274
100
AcDbEntity
  8
DEFAULT_2
100
AcDbLine
 62
8
  6
HIDDEN
 10
47.9512639653
 20
125.1115775663
 11
47.8393261294
 21
125.0531386044
  0
LINE
  5
275
100
AcDbEntity
  8
0
100
AcDbLine
 62
3
  6
CONTINUOUS
 10
99.075610107
 20
44.5547239439
 11
73.5576609146
 21
44.5547239439
  0
LINE
  5
276
100
AcDbEntity
  8
A_ACHSEN
100
AcDbLine
 62
3
  6
CONTINUOUS
 10
73.5576609146
 20
44.5547239439
 11
51.0581501601
 21
44.5547239439
  0
LINE
  5
277
100
AcDbEntity
  8
DEFAULT_2
100
AcDbLine
 62
8
  6
HIDDEN
 10
47.8393261294
 20
48.0563092834
 11
47.9512639653
 21
47.9978703215
  0
LINE
  5
278
100
AcDbEntity
  8
DEFAULT_2
100
AcDbLine
 62
8
  6
HIDDEN
 10
40.7895083909
 20
52.1327118303
 11
40.8960869344
 21
52.0649903017
  0
LINE
  5
279
100
AcDbEntity
  8
DEFAULT_2
100
AcDbLine
 62
8
  6
HIDDEN
 10
30.9277521493
 20
82.5460429256
 11
30.9331114416
 21
82.4198824352
  0
LINE
  5
27A
100
AcDbEntity
  8
DEFAULT_2
100
AcDbLine
 62
8
  6
HIDDEN
 10
30.9277521493
 20
150.5460429256
 11
30.9331114416
 21
150.4198824352
  0
LINE
  5
27B
100
AcDbEntity
  8
DEFAULT_2
100
AcDbLine
 62
8
  6
HIDDEN
 10
36.6875696799
 20
22.5634049622
 11
36.6822103875
 21
22.6895654526
  0
LINE
  5
27C
100
AcDbEntity
  8
A_ACHSEN
100
AcDbLine
 62
7
  6
CENTER
 10
33.8076609146
 20
86.1664087421
 11
33.8076609146
 21
77.4047239439
  0
LINE
  5
27D
100
AcDbEntity
  8
A_ACHSEN
100
AcDbLine
 62
7
  6
CONTINUOUS
 10
33.8076609146
 20
19.0939832032
 11
33.8076609146
 21
18.0154646846
  0
LINE
  5
27E
100
AcDbEntity
  8
A_ACHSEN
100
AcDbLine
 62
7
  6
CENTER
 10
33.8076609146
 20
17.9311645863
 11
33.8076609146
 21
10.9964903975
  0
LINE
  5
27F
100
AcDbEntity
  8
A_ACHSEN
100
AcDbLine
 62
7
  6
CENTER
 10
33.8076609146
 20
19.1163775771
 11
33.8076609146
 21
26.1129574903
  0
LINE
  5
280
100
AcDbEntity
  8
A_ACHSEN
100
AcDbLine
 62
7
  6
CONTINUOUS
 10
33.8076609146
 20
86.1664087421
 11
33.8076609146
 21
86.637507894
  0
LINE
  5
281
100
AcDbEntity
  8
A_ACHSEN
100
AcDbLine
 62
7
  6
CENTER
 10
33.8076609146
 20
86.637507894
 11
33.8076609146
 21
95.7047239439
  0
LINE
  5
282
100
AcDbEntity
  8
A_ACHSEN
100
AcDbLine
 62
7
  6
CENTER
 10
33.8076609146
 20
147.1435928358
 11
33.8076609146
 21
161.965855052
  0
LINE
  5
283
100
AcDbEntity
  8
DEFAULT_2
100
AcDbLine
 62
8
  6
HIDDEN
 10
30.9331114416
 20
90.6895654526
 11
30.9277521493
 21
90.5634049622
  0
LINE
  5
284
100
AcDbEntity
  8
DEFAULT_2
100
AcDbLine
 62
8
  6
HIDDEN
 10
30.9331114416
 20
22.6895654526
 11
30.9277521493
 21
22.5634049622
  0
LINE
  5
285
100
AcDbEntity
  8
DEFAULT_2
100
AcDbLine
 62
8
  6
HIDDEN
 10
36.6822103875
 20
150.4198824352
 11
36.6875696799
 21
150.5460429256
  0
LINE
  5
286
100
AcDbEntity
  8
DEFAULT_2
100
AcDbLine
 62
8
  6
HIDDEN
 10
50.7192348947
 20
120.0649903017
 11
50.8258134382
 21
120.1327118303
  0
LINE
  5
287
100
AcDbEntity
  8
DEFAULT_2
100
AcDbLine
 62
8
  6
HIDDEN
 10
43.6640578639
 20
115.9978703215
 11
43.7759956997
 21
116.0563092834
  0
LINE
  5
288
100
AcDbEntity
  8
0
100
AcDbLine
 62
3
  6
CONTINUOUS
 10
87.3076609146
 20
51.5547239439
 11
93.3664317318
 21
51.5547239439
  0
LINE
  5
289
100
AcDbEntity
  8
A_ACHSEN
100
AcDbLine
 62
7
  6
CENTER
 10
38.22715459
 20
52.5547239439
 11
53.3881672392
 21
52.5547239439
  0
LINE
  5
28A
100
AcDbEntity
  8
0
100
AcDbLine
 62
3
  6
CONTINUOUS
 10
98.2076609146
 20
55.3047239439
 11
100.3076609146
 21
55.3047239439
  0
LINE
  5
28B
100
AcDbEntity
  8
DEFAULT_2
100
AcDbLine
 62
8
  6
HIDDEN
 10
43.7759956997
 20
57.0531386044
 11
43.6640578639
 21
57.1115775663
  0
LINE
  5
28C
100
AcDbEntity
  8
DEFAULT_2
100
AcDbLine
 62
8
  6
HIDDEN
 10
50.8258134382
 20
52.9767360576
 11
50.7192348947
 21
53.0444575861
  0
LINE
  5
28D
100
AcDbEntity
  8
DEFAULT_2
100
AcDbLine
 62
8
  6
HIDDEN
 10
36.6875696799
 20
90.5634049622
 11
36.6822103875
 21
90.6895654526
  0
LINE
  5
28E
100
AcDbEntity
  8
DEFAULT_2
100
AcDbLine
 62
8
  6
HIDDEN
 10
36.6875696799
 20
158.5634049622
 11
36.6822103875
 21
158.6895654526
  0
LINE
  5
28F
100
AcDbEntity
  8
A_ACHSEN
100
AcDbLine
 62
7
  6
CENTER
 10
38.8076609146
 20
31.2700832552
 11
38.8076609146
 21
41.8393646326
  0
LINE
  5
290
100
AcDbEntity
  8
A_ACHSEN
100
AcDbLine
 62
7
  6
CENTER
 10
38.8076609146
 20
131.5547239439
 11
38.8076609146
 21
141.5547239439
  0
LINE
  5
291
100
AcDbEntity
  8
DEFAULT_2
100
AcDbLine
 62
8
  6
HIDDEN
 10
36.6822103875
 20
82.4198824352
 11
36.6875696799
 21
82.5460429256
  0
LINE
  5
292
100
AcDbEntity
  8
DEFAULT_2
100
AcDbLine
 62
8
  6
HIDDEN
 10
36.6822103875
 20
14.4198824352
 11
36.6875696799
 21
14.5460429256
  0
LINE
  5
293
100
AcDbEntity
  8
0
100
AcDbLine
 62
3
  6
CONTINUOUS
 10
100.3076609146
 20
61.8047239439
 11
98.2076609146
 21
61.8047239439
  0
LINE
  5
294
100
AcDbEntity
  8
DEFAULT_2
100
AcDbLine
 62
8
  6
HIDDEN
 10
42.9277521493
 20
48.5460429256
 11
42.9331114416
 21
48.4198824352
  0
LINE
  5
295
100
AcDbEntity
  8
DEFAULT_2
100
AcDbLine
 62
8
  6
HIDDEN
 10
42.9277521493
 20
116.5460429256
 11
42.9331114416
 21
116.4198824352
  0
LINE
  5
296
100
AcDbEntity
  8
A_ACHSEN
100
AcDbLine
 62
7
  6
CENTER
 10
45.8076609146
 20
44.9742176193
 11
45.8076609146
 21
60.1352302685
  0
LINE
  5
297
100
AcDbEntity
  8
A_ACHSEN
100
AcDbLine
 62
7
  6
CENTER
 10
45.8076609146
 20
112.1022522653
 11
45.8076609146
 21
129.0071956225
  0
LINE
  5
298
100
AcDbEntity
  8
DEFAULT_2
100
AcDbLine
 62
8
  6
HIDDEN
 10
42.9331114416
 20
124.6895654526
 11
42.9277521493
 21
124.5634049622
  0
LINE
  5
299
100
AcDbEntity
  8
DEFAULT_2
100
AcDbLine
 62
8
  6
HIDDEN
 10
42.9331114416
 20
56.6895654526
 11
42.9277521493
 21
56.5634049622
  0
LINE
  5
29A
100
AcDbEntity
  8
DEFAULT_2
100
AcDbLine
 62
8
  6
HIDDEN
 10
28.8960869344
 20
87.0444575861
 11
28.7895083909
 21
86.9767360576
  0
LINE
  5
29B
100
AcDbEntity
  8
0
100
AcDbLine
 62
3
  6
CONTINUOUS
 10
93.3664317318
 20
65.5547239439
 11
87.3076609146
 21
65.5547239439
  0
LINE
  5
29C
100
AcDbEntity
  8
DEFAULT_2
100
AcDbLine
 62
8
  6
HIDDEN
 10
28.7895083909
 20
86.1327118303
 11
28.8960869344
 21
86.0649903017
  0
LINE
  5
29D
100
AcDbEntity
  8
DEFAULT_2
100
AcDbLine
 62
8
  6
HIDDEN
 10
48.6875696799
 20
56.5634049622
 11
48.6822103875
 21
56.6895654526
  0
LINE
  5
29E
100
AcDbEntity
  8
DEFAULT_2
100
AcDbLine
 62
8
  6
HIDDEN
 10
48.6875696799
 20
124.5634049622
 11
48.6822103875
 21
124.6895654526
  0
LINE
  5
29F
100
AcDbEntity
  8
0
100
AcDbLine
 62
7
  6
CONTINUOUS
 10
47.3076609146
 20
166.5547239439
 11
47.3076609146
 21
165.0547239439
  0
LINE
  5
2A0
100
AcDbEntity
  8
0
100
AcDbLine
 62
7
  6
CONTINUOUS
 10
47.3076609146
 20
6.5547239439
 11
47.3076609146
 21
8.0547239439
  0
LINE
  5
2A1
100
AcDbEntity
  8
0
100
AcDbLine
 62
7
  6
CONTINUOUS
 10
48.8076609146
 20
8.0547239439
 11
48.8076609146
 21
165.0547239439
  0
LINE
  5
2A2
100
AcDbEntity
  8
A_ACHSEN
100
AcDbLine
 62
3
  6
CONTINUOUS
 10
51.0576609146
 20
128.5547239439
 11
51.0576609146
 21
44.5547239439
  0
LINE
  5
2A3
100
AcDbEntity
  8
0
100
AcDbLine
 62
3
  6
CONTINUOUS
 10
51.0576609146
 20
6.5547239439
 11
51.0576609146
 21
43.6547239439
  0
LINE
  5
2A4
100
AcDbEntity
  8
0
100
AcDbLine
 62
3
  6
CONTINUOUS
 10
51.0576609146
 20
129.4547239439
 11
51.0576609146
 21
166.5547239439
  0
LINE
  5
2A5
100
AcDbEntity
  8
0
100
AcDbLine
 62
3
  6
CONTINUOUS
 10
51.8076609146
 20
43.6547239439
 11
51.8076609146
 21
44.5547239439
  0
LINE
  5
2A6
100
AcDbEntity
  8
0
100
AcDbLine
 62
3
  6
CONTINUOUS
 10
51.8076609146
 20
128.5547239439
 11
51.8076609146
 21
129.4547239439
  0
LINE
  5
2A7
100
AcDbEntity
  8
A_ACHSEN
100
AcDbLine
 62
7
  6
CONTINUOUS
 10
52.5826609146
 20
129.3547239439
 11
52.5826609146
 21
128.5547239439
  0
LINE
  5
2A8
100
AcDbEntity
  8
A_ACHSEN
100
AcDbLine
 62
7
  6
CONTINUOUS
 10
52.5826609146
 20
43.7547239439
 11
52.5826609146
 21
44.5547239439
  0
LINE
  5
2A9
100
AcDbEntity
  8
DEFAULT_2
100
AcDbLine
 62
8
  6
HIDDEN
 10
48.6822103875
 20
116.4198824352
 11
48.6875696799
 21
116.5460429256
  0
LINE
  5
2AA
100
AcDbEntity
  8
DEFAULT_2
100
AcDbLine
 62
8
  6
HIDDEN
 10
48.6822103875
 20
48.4198824352
 11
48.6875696799
 21
48.5460429256
  0
LINE
  5
2AB
100
AcDbEntity
  8
DEFAULT_2
100
AcDbLine
 62
8
  6
HIDDEN
 10
38.7192348947
 20
86.0649903017
 11
38.8258134382
 21
86.1327118303
  0
LINE
  5
2AC
100
AcDbEntity
  8
DEFAULT_2
100
AcDbLine
 62
8
  6
HIDDEN
 10
35.9512639653
 20
91.1115775663
 11
35.8393261294
 21
91.0531386044
  0
LINE
  5
2AD
100
AcDbEntity
  8
DEFAULT_2
100
AcDbLine
 62
8
  6
HIDDEN
 10
35.8393261294
 20
82.0563092834
 11
35.9512639653
 21
81.9978703215
  0
LINE
  5
2AE
100
AcDbEntity
  8
DEFAULT_2
100
AcDbLine
 62
8
  6
HIDDEN
 10
38.8258134382
 20
86.9767360576
 11
38.7192348947
 21
87.0444575861
  0
LINE
  5
2AF
100
AcDbEntity
  8
0
100
AcDbLine
 62
3
  6
CONTINUOUS
 10
54.8076609146
 20
129.4547239439
 11
54.8076609146
 21
129.3547239439
  0
LINE
  5
2B0
100
AcDbEntity
  8
0
100
AcDbLine
 62
3
  6
CONTINUOUS
 10
54.8076609146
 20
43.7547239439
 11
54.8076609146
 21
43.6547239439
  0
LINE
  5
2B1
100
AcDbEntity
  8
A_ACHSEN
100
AcDbLine
 62
7
  6
CONTINUOUS
 10
57.3076609146
 20
43.6547239439
 11
57.3076609146
 21
43.7547239439
  0
LINE
  5
2B2
100
AcDbEntity
  8
A_ACHSEN
100
AcDbLine
 62
7
  6
CONTINUOUS
 10
57.3076609146
 20
129.3547239439
 11
57.3076609146
 21
129.4547239439
  0
LINE
  5
2B3
100
AcDbEntity
  8
DEFAULT_2
100
AcDbLine
 62
8
  6
HIDDEN
 10
31.6640578639
 20
81.9978703215
 11
31.7759956997
 21
82.0563092834
  0
LINE
  5
2B4
100
AcDbEntity
  8
0
100
AcDbLine
 62
3
  6
CONTINUOUS
 10
87.3076609146
 20
79.5547239439
 11
93.3664317318
 21
79.5547239439
  0
LINE
  5
2B5
100
AcDbEntity
  8
DEFAULT_2
100
AcDbLine
 62
8
  6
HIDDEN
 10
31.7759956997
 20
91.0531386044
 11
31.6640578639
 21
91.1115775663
  0
LINE
  5
2B6
100
AcDbEntity
  8
A_ACHSEN
100
AcDbLine
 62
7
  6
CENTER
 10
62.3076609146
 20
3.5547239439
 11
62.3076609146
 21
169.5547239439
  0
LINE
  5
2B7
100
AcDbEntity
  8
0
100
AcDbLine
 62
3
  6
CONTINUOUS
 10
98.2076609146
 20
83.3047239439
 11
100.3076609146
 21
83.3047239439
  0
LINE
  5
2B8
100
AcDbEntity
  8
A_ACHSEN
100
AcDbLine
 62
7
  6
CONTINUOUS
 10
34.3469201738
 20
86.5547239439
 11
33.2684016553
 21
86.5547239439
  0
LINE
  5
2B9
100
AcDbEntity
  8
A_ACHSEN
100
AcDbLine
 62
7
  6
CENTER
 10
31.1113646183
 20
86.5547239439
 11
24.6576609146
 21
86.5547239439
  0
LINE
  5
2BA
100
AcDbEntity
  8
A_KURVEN
100
AcDbLine
 62
7
  6
PHANTOM
 10
18.8076609146
 20
86.5547239439
 11
110.8076609146
 21
86.5547239439
  0
LINE
  5
2BB
100
AcDbEntity
  8
A_ACHSEN
100
AcDbLine
 62
7
  6
CENTER
 10
36.5039572109
 20
86.5547239439
 11
42.9576609146
 21
86.5547239439
  0
LINE
  5
2BC
100
AcDbEntity
  8
A_ACHSEN
100
AcDbLine
 62
7
  6
CONTINUOUS
 10
67.3076609146
 20
43.6547239439
 11
67.3076609146
 21
43.7547239439
  0
LINE
  5
2BD
100
AcDbEntity
  8
A_ACHSEN
100
AcDbLine
 62
7
  6
CONTINUOUS
 10
67.3076609146
 20
129.3547239439
 11
67.3076609146
 21
129.4547239439
  0
LINE
  5
2BE
100
AcDbEntity
  8
0
100
AcDbLine
 62
3
  6
CONTINUOUS
 10
100.3076609146
 20
89.8047239439
 11
98.2076609146
 21
89.8047239439
  0
LINE
  5
2BF
100
AcDbEntity
  8
A_ACHSEN
100
AcDbLine
 62
7
  6
CONTINUOUS
 10
72.0326609146
 20
129.3547239439
 11
72.0326609146
 21
128.5547239439
  0
LINE
  5
2C0
100
AcDbEntity
  8
A_ACHSEN
100
AcDbLine
 62
7
  6
CONTINUOUS
 10
72.0326609146
 20
43.7547239439
 11
72.0326609146
 21
44.5547239439
  0
LINE
  5
2C1
100
AcDbEntity
  8
A_ACHSEN
100
AcDbLine
 62
3
  6
CONTINUOUS
 10
73.5576609146
 20
128.5547239439
 11
73.5576609146
 21
44.5547239439
  0
LINE
  5
2C2
100
AcDbEntity
  8
0
100
AcDbLine
 62
3
  6
CONTINUOUS
 10
73.5576609146
 20
6.5547239439
 11
73.5576609146
 21
43.6547239439
  0
LINE
  5
2C3
100
AcDbEntity
  8
0
100
AcDbLine
 62
3
  6
CONTINUOUS
 10
73.5576609146
 20
129.4547239439
 11
73.5576609146
 21
166.5547239439
  0
LINE
  5
2C4
100
AcDbEntity
  8
0
100
AcDbLine
 62
3
  6
CONTINUOUS
 10
93.3664317318
 20
93.5547239439
 11
87.3076609146
 21
93.5547239439
  0
LINE
  5
2C5
100
AcDbEntity
  8
DEFAULT_2
100
AcDbLine
 62
8
  6
HIDDEN
 10
40.8960869344
 20
53.0444575861
 11
40.7895083909
 21
52.9767360576
  0
LINE
  5
2C6
100
AcDbEntity
  8
DEFAULT_2
100
AcDbLine
 62
8
  6
HIDDEN
 10
47.9512639653
 20
57.1115775663
 11
47.8393261294
 21
57.0531386044
  0
LINE
  5
2C7
100
AcDbEntity
  8
DEFAULT_2
100
AcDbLine
 62
8
  6
HIDDEN
 10
47.8393261294
 20
116.0563092834
 11
47.9512639653
 21
115.9978703215
  0
LINE
  5
2C8
100
AcDbEntity
  8
DEFAULT_2
100
AcDbLine
 62
8
  6
HIDDEN
 10
40.7895083909
 20
120.1327118303
 11
40.8960869344
 21
120.0649903017
  0
LINE
  5
2C9
100
AcDbEntity
  8
0
100
AcDbLine
 62
3
  6
CONTINUOUS
 10
84.3076609146
 20
118.5547239439
 11
84.3076609146
 21
110.5547239439
  0
LINE
  5
2CA
100
AcDbEntity
  8
0
100
AcDbLine
 62
3
  6
CONTINUOUS
 10
84.3076609146
 20
90.5547239439
 11
84.3076609146
 21
82.5547239439
  0
LINE
  5
2CB
100
AcDbEntity
  8
0
100
AcDbLine
 62
3
  6
CONTINUOUS
 10
84.3076609146
 20
62.5547239439
 11
84.3076609146
 21
54.5547239439
  0
LINE
  5
2CC
100
AcDbEntity
  8
DEFAULT_2
100
AcDbLine
 62
8
  6
HIDDEN
 10
50.7192348947
 20
52.0649903017
 11
50.8258134382
 21
52.1327118303
  0
LINE
  5
2CD
100
AcDbEntity
  8
DEFAULT_2
100
AcDbLine
 62
8
  6
HIDDEN
 10
43.6640578639
 20
47.9978703215
 11
43.7759956997
 21
48.0563092834
  0
LINE
  5
2CE
100
AcDbEntity
  8
0
100
AcDbLine
 62
3
  6
CONTINUOUS
 10
87.3076609146
 20
107.5547239439
 11
93.3664317318
 21
107.5547239439
  0
LINE
  5
2CF
100
AcDbEntity
  8
0
100
AcDbLine
 62
3
  6
CONTINUOUS
 10
98.2076609146
 20
111.3047239439
 11
100.3076609146
 21
111.3047239439
  0
LINE
  5
2D0
100
AcDbEntity
  8
DEFAULT_2
100
AcDbLine
 62
8
  6
HIDDEN
 10
43.7759956997
 20
125.0531386044
 11
43.6640578639
 21
125.1115775663
  0
LINE
  5
2D1
100
AcDbEntity
  8
DEFAULT_2
100
AcDbLine
 62
8
  6
HIDDEN
 10
50.8258134382
 20
120.9767360576
 11
50.7192348947
 21
121.0444575861
  0
LINE
  5
2D2
100
AcDbEntity
  8
0
100
AcDbLine
 62
3
  6
CONTINUOUS
 10
100.3076609146
 20
117.8047239439
 11
98.2076609146
 21
117.8047239439
  0
LINE
  5
2D3
100
AcDbEntity
  8
DEFAULT_2
100
AcDbLine
 62
8
  6
HIDDEN
 10
28.8960869344
 20
19.0444575861
 11
28.7895083909
 21
18.9767360576
  0
LINE
  5
2D4
100
AcDbEntity
  8
A_ACHSEN
100
AcDbLine
 62
7
  6
CENTER
 10
37.355189236
 20
120.5547239439
 11
54.2601325932
 21
120.5547239439
  0
LINE
  5
2D5
100
AcDbEntity
  8
0
100
AcDbLine
 62
3
  6
CONTINUOUS
 10
93.3664317318
 20
121.5547239439
 11
87.3076609146
 21
121.5547239439
  0
LINE
  5
2D6
100
AcDbEntity
  8
DEFAULT_2
100
AcDbLine
 62
8
  6
HIDDEN
 10
28.7895083909
 20
154.1327118303
 11
28.8960869344
 21
154.0649903017
  0
LINE
  5
2D7
100
AcDbEntity
  8
0
100
AcDbLine
 62
3
  6
CONTINUOUS
 10
102.8076609146
 20
127.5547239439
 11
102.8076609146
 21
120.3047239439
  0
LINE
  5
2D8
100
AcDbEntity
  8
0
100
AcDbLine
 62
3
  6
CONTINUOUS
 10
102.8076609146
 20
108.8047239439
 11
102.8076609146
 21
92.3047239439
  0
LINE
  5
2D9
100
AcDbEntity
  8
0
100
AcDbLine
 62
3
  6
CONTINUOUS
 10
102.8076609146
 20
80.8047239439
 11
102.8076609146
 21
64.3047239439
  0
LINE
  5
2DA
100
AcDbEntity
  8
0
100
AcDbLine
 62
3
  6
CONTINUOUS
 10
102.8076609146
 20
52.8047239439
 11
102.8076609146
 21
45.5547239439
  0
LINE
  5
2DB
100
AcDbEntity
  8
DEFAULT_2
100
AcDbLine
 62
8
  6
HIDDEN
 10
38.7192348947
 20
18.0649903017
 11
38.8258134382
 21
18.1327118303
  0
LINE
  5
2DC
100
AcDbEntity
  8
DEFAULT_2
100
AcDbLine
 62
8
  6
HIDDEN
 10
35.9512639653
 20
23.1115775663
 11
35.8393261294
 21
23.0531386044
  0
LINE
  5
2DD
100
AcDbEntity
  8
0
100
AcDbLine
 62
3
  6
CONTINUOUS
 10
99.075610107
 20
128.5547239439
 11
73.5576609146
 21
128.5547239439
  0
LINE
  5
2DE
100
AcDbEntity
  8
A_ACHSEN
100
AcDbLine
 62
3
  6
CONTINUOUS
 10
73.5576609146
 20
128.5547239439
 11
51.0581501601
 21
128.5547239439
  0
LINE
  5
2DF
100
AcDbEntity
  8
A_ACHSEN
100
AcDbLine
 62
7
  6
CONTINUOUS
 10
52.5835621251
 20
129.3547239439
 11
72.031759704
 21
129.3547239439
  0
LINE
  5
2E0
100
AcDbEntity
  8
0
100
AcDbLine
 62
3
  6
CONTINUOUS
 10
51.0578822612
 20
129.4547239439
 11
73.5578884622
 21
129.4547239439
  0
LINE
  5
2E1
100
AcDbEntity
  8
DEFAULT_2
100
AcDbLine
 62
8
  6
HIDDEN
 10
35.8393261294
 20
150.0563092834
 11
35.9512639653
 21
149.9978703215
  0
LINE
  5
2E2
100
AcDbEntity
  8
DEFAULT_2
100
AcDbLine
 62
8
  6
HIDDEN
 10
38.8258134382
 20
154.9767360576
 11
38.7192348947
 21
155.0444575861
  0
LINE
  5
2E3
100
AcDbEntity
  8
DEFAULT_2
100
AcDbLine
 62
8
  6
HIDDEN
 10
31.6640578639
 20
13.9978703215
 11
31.7759956997
 21
14.0563092834
  0
LINE
  5
2E4
100
AcDbEntity
  8
A_ACHSEN
100
AcDbLine
 62
7
  6
CENTER
 10
33.8076609146
 20
136.5547239439
 11
43.8076609146
 21
136.5547239439
  0
LINE
  5
2E5
100
AcDbEntity
  8
0
100
AcDbLine
 62
3
  6
CONTINUOUS
 10
99.075610107
 20
128.5547239439
 11
102.8076609146
 21
127.5547239439
  0
LINE
  5
2E6
100
AcDbEntity
  8
DEFAULT_2
100
AcDbLine
 62
8
  6
HIDDEN
 10
31.7759956997
 20
159.0531386044
 11
31.6640578639
 21
159.1115775663
  0
LINE
  5
2E7
100
AcDbEntity
  8
A_ACHSEN
100
AcDbLine
 62
7
  6
CENTER
 10
26.3965298065
 20
154.5547239439
 11
41.2187920227
 21
154.5547239439
  0
LINE
  5
2E8
100
AcDbEntity
  8
0
100
AcDbLine
 62
7
  6
CONTINUOUS
 10
51.0576609146
 20
165.0547239439
 11
47.3076609146
 21
165.0547239439
  0
LINE
  5
2E9
100
AcDbEntity
  8
A_RUNDUNGEN
100
AcDbLine
 62
7
  6
CONTINUOUS
 10
47.3076609146
 20
166.5547239439
 11
38.8076609146
 21
166.5547239439
  0
LINE
  5
2EA
100
AcDbEntity
  8
0
100
AcDbLine
 62
3
  6
CONTINUOUS
 10
51.057866915
 20
166.5547239439
 11
73.5578982109
 21
166.5547239439
  0
ARC
  5
2EB
100
AcDbEntity
  8
A_RUNDUNGEN
100
AcDbCircle
 62
7
  6
CONTINUOUS
 10
38.8076609146
 20
18.5547239439
 40
12.0
100
AcDbArc
 50
180.0
 51
270.0
  0
CIRCLE
  5
2EC
100
AcDbEntity
  8
A_ACHSEN
100
AcDbCircle
 62
8
  6
HIDDEN
 10
33.8076609146
 20
18.5547239439
 40
6.15
  0
ARC
  5
2ED
100
AcDbEntity
  8
DEFAULT_2
100
AcDbCircle
 62
8
  6
HIDDEN
 10
26.5417077768
 20
22.7497239439
 40
4.39
100
AcDbArc
 50
302.432459861
 51
357.567540139
  0
ARC
  5
2EE
100
AcDbEntity
  8
DEFAULT_2
100
AcDbCircle
 62
8
  6
HIDDEN
 10
33.8076609146
 20
26.9447239439
 40
4.39
100
AcDbArc
 50
242.4324598608
 51
297.567540139
  0
ARC
  5
2EF
100
AcDbEntity
  8
DEFAULT_2
100
AcDbCircle
 62
8
  6
HIDDEN
 10
33.8076609146
 20
10.1647239439
 40
4.39
100
AcDbArc
 50
62.432459861
 51
117.567540139
  0
ARC
  5
2F0
100
AcDbEntity
  8
DEFAULT_2
100
AcDbCircle
 62
8
  6
HIDDEN
 10
26.5417077768
 20
14.3597239439
 40
4.39
100
AcDbArc
 50
2.432459861
 51
57.567540139
  0
CIRCLE
  5
2F1
100
AcDbEntity
  8
A_ACHSEN
100
AcDbCircle
 62
7
  6
CONTINUOUS
 10
38.8076609146
 20
36.5547239439
 40
3.5
  0
CIRCLE
  5
2F2
100
AcDbEntity
  8
A_ACHSEN
100
AcDbCircle
 62
7
  6
CONTINUOUS
 10
38.8076609146
 20
36.5547239439
 40
2.0
  0
ARC
  5
2F3
100
AcDbEntity
  8
DEFAULT_2
100
AcDbCircle
 62
8
  6
HIDDEN
 10
31.4326609146
 20
22.6683446119
 40
0.5
100
AcDbArc
 50
62.4324598608
 51
177.567540139
  0
ARC
  5
2F4
100
AcDbEntity
  8
DEFAULT_2
100
AcDbCircle
 62
8
  6
HIDDEN
 10
36.1826609146
 20
22.6683446119
 40
0.5
100
AcDbArc
 50
2.432459861
 51
117.5675401389
  0
ARC
  5
2F5
100
AcDbEntity
  8
DEFAULT_2
100
AcDbCircle
 62
8
  6
HIDDEN
 10
38.5576609146
 20
18.5547239439
 40
0.5
100
AcDbArc
 50
302.432459861
 51
57.567540139
  0
ARC
  5
2F6
100
AcDbEntity
  8
DEFAULT_2
100
AcDbCircle
 62
8
  6
HIDDEN
 10
36.1826609146
 20
14.4411032759
 40
0.5
100
AcDbArc
 50
242.432459861
 51
357.567540139
  0
ARC
  5
2F7
100
AcDbEntity
  8
DEFAULT_2
100
AcDbCircle
 62
8
  6
HIDDEN
 10
31.4326609146
 20
14.4411032759
 40
0.5
100
AcDbArc
 50
182.432459861
 51
297.567540139
  0
ARC
  5
2F8
100
AcDbEntity
  8
DEFAULT_2
100
AcDbCircle
 62
8
  6
HIDDEN
 10
29.0576609146
 20
18.5547239439
 40
0.5
100
AcDbArc
 50
122.432459861
 51
237.567540139
  0
ARC
  5
2F9
100
AcDbEntity
  8
DEFAULT_2
100
AcDbCircle
 62
8
  6
HIDDEN
 10
38.5417077768
 20
56.7497239439
 40
4.39
100
AcDbArc
 50
302.432459861
 51
357.567540139
  0
ARC
  5
2FA
100
AcDbEntity
  8
DEFAULT_2
100
AcDbCircle
 62
8
  6
HIDDEN
 10
38.5417077768
 20
48.3597239439
 40
4.39
100
AcDbArc
 50
2.432459861
 51
57.567540139
  0
ARC
  5
2FB
100
AcDbEntity
  8
DEFAULT_2
100
AcDbCircle
 62
8
  6
HIDDEN
 10
26.5417077768
 20
82.3597239439
 40
4.39
100
AcDbArc
 50
2.432459861
 51
57.567540139
  0
ARC
  5
2FC
100
AcDbEntity
  8
DEFAULT_2
100
AcDbCircle
 62
8
  6
HIDDEN
 10
33.8076609146
 20
78.1647239439
 40
4.39
100
AcDbArc
 50
62.432459861
 51
117.567540139
  0
ARC
  5
2FD
100
AcDbEntity
  8
DEFAULT_2
100
AcDbCircle
 62
8
  6
HIDDEN
 10
31.4326609146
 20
82.4411032759
 40
0.5
100
AcDbArc
 50
182.432459861
 51
297.567540139
  0
ARC
  5
2FE
100
AcDbEntity
  8
DEFAULT_2
100
AcDbCircle
 62
8
  6
HIDDEN
 10
36.1826609146
 20
82.4411032759
 40
0.5
100
AcDbArc
 50
242.432459861
 51
357.567540139
  0
ARC
  5
2FF
100
AcDbEntity
  8
0
100
AcDbCircle
 62
3
  6
CONTINUOUS
 10
46.8076609146
 20
18.5547239439
 40
12.0
100
AcDbArc
 50
272.3921450464
 51
290.7850258215
  0
ARC
  5
300
100
AcDbEntity
  8
DEFAULT_2
100
AcDbCircle
 62
8
  6
HIDDEN
 10
45.8076609146
 20
44.1647239439
 40
4.39
100
AcDbArc
 50
62.432459861
 51
117.567540139
  0
ARC
  5
301
100
AcDbEntity
  8
DEFAULT_2
100
AcDbCircle
 62
8
  6
HIDDEN
 10
41.0736140523
 20
22.7497239439
 40
4.39
100
AcDbArc
 50
182.432459861
 51
237.567540139
  0
ARC
  5
302
100
AcDbEntity
  8
DEFAULT_2
100
AcDbCircle
 62
8
  6
HIDDEN
 10
41.0736140523
 20
14.3597239439
 40
4.39
100
AcDbArc
 50
122.432459861
 51
177.567540139
  0
CIRCLE
  5
303
100
AcDbEntity
  8
A_ACHSEN
100
AcDbCircle
 62
8
  6
HIDDEN
 10
45.8076609146
 20
52.5547239439
 40
6.15
  0
ARC
  5
304
100
AcDbEntity
  8
DEFAULT_2
100
AcDbCircle
 62
8
  6
HIDDEN
 10
45.8076609146
 20
60.9447239439
 40
4.39
100
AcDbArc
 50
242.4324598608
 51
297.567540139
  0
ARC
  5
305
100
AcDbEntity
  8
DEFAULT_2
100
AcDbCircle
 62
8
  6
HIDDEN
 10
53.0736140523
 20
56.7497239439
 40
4.39
100
AcDbArc
 50
182.432459861
 51
237.567540139
  0
ARC
  5
306
100
AcDbEntity
  8
DEFAULT_2
100
AcDbCircle
 62
8
  6
HIDDEN
 10
53.0736140523
 20
48.3597239439
 40
4.39
100
AcDbArc
 50
122.432459861
 51
177.567540139
  0
ARC
  5
307
100
AcDbEntity
  8
DEFAULT_2
100
AcDbCircle
 62
8
  6
HIDDEN
 10
41.0736140523
 20
82.3597239439
 40
4.39
100
AcDbArc
 50
122.432459861
 51
177.567540139
  0
ARC
  5
308
100
AcDbEntity
  8
DEFAULT_2
100
AcDbCircle
 62
8
  6
HIDDEN
 10
43.4326609146
 20
56.6683446119
 40
0.5
100
AcDbArc
 50
62.4324598608
 51
177.567540139
  0
ARC
  5
309
100
AcDbEntity
  8
DEFAULT_2
100
AcDbCircle
 62
8
  6
HIDDEN
 10
48.1826609146
 20
56.6683446119
 40
0.5
100
AcDbArc
 50
2.432459861
 51
117.5675401389
  0
ARC
  5
30A
100
AcDbEntity
  8
DEFAULT_2
100
AcDbCircle
 62
8
  6
HIDDEN
 10
50.5576609146
 20
52.5547239439
 40
0.5
100
AcDbArc
 50
302.432459861
 51
57.567540139
  0
ARC
  5
30B
100
AcDbEntity
  8
DEFAULT_2
100
AcDbCircle
 62
8
  6
HIDDEN
 10
48.1826609146
 20
48.4411032759
 40
0.5
100
AcDbArc
 50
242.432459861
 51
357.567540139
  0
ARC
  5
30C
100
AcDbEntity
  8
DEFAULT_2
100
AcDbCircle
 62
8
  6
HIDDEN
 10
43.4326609146
 20
48.4411032759
 40
0.5
100
AcDbArc
 50
182.432459861
 51
297.567540139
  0
ARC
  5
30D
100
AcDbEntity
  8
DEFAULT_2
100
AcDbCircle
 62
8
  6
HIDDEN
 10
41.0576609146
 20
52.5547239439
 40
0.5
100
AcDbArc
 50
122.432459861
 51
237.567540139
  0
CIRCLE
  5
30E
100
AcDbEntity
  8
A_ACHSEN
100
AcDbCircle
 62
8
  6
HIDDEN
 10
33.8076609146
 20
86.5547239439
 40
6.15
  0
ARC
  5
30F
100
AcDbEntity
  8
DEFAULT_2
100
AcDbCircle
 62
8
  6
HIDDEN
 10
38.5417077768
 20
116.3597239439
 40
4.39
100
AcDbArc
 50
2.432459861
 51
57.567540139
  0
ARC
  5
310
100
AcDbEntity
  8
DEFAULT_2
100
AcDbCircle
 62
8
  6
HIDDEN
 10
33.8076609146
 20
94.9447239439
 40
4.39
100
AcDbArc
 50
242.4324598608
 51
297.567540139
  0
ARC
  5
311
100
AcDbEntity
  8
DEFAULT_2
100
AcDbCircle
 62
8
  6
HIDDEN
 10
26.5417077768
 20
90.7497239439
 40
4.39
100
AcDbArc
 50
302.432459861
 51
357.567540139
  0
ARC
  5
312
100
AcDbEntity
  8
DEFAULT_2
100
AcDbCircle
 62
8
  6
HIDDEN
 10
36.1826609146
 20
90.6683446119
 40
0.5
100
AcDbArc
 50
2.4324598611
 51
117.5675401389
  0
ARC
  5
313
100
AcDbEntity
  8
DEFAULT_2
100
AcDbCircle
 62
8
  6
HIDDEN
 10
31.4326609146
 20
90.6683446119
 40
0.5
100
AcDbArc
 50
62.4324598608
 51
177.567540139
  0
ARC
  5
314
100
AcDbEntity
  8
DEFAULT_2
100
AcDbCircle
 62
8
  6
HIDDEN
 10
29.0576609146
 20
86.5547239439
 40
0.5
100
AcDbArc
 50
122.432459861
 51
237.567540139
  0
ARC
  5
315
100
AcDbEntity
  8
DEFAULT_2
100
AcDbCircle
 62
8
  6
HIDDEN
 10
38.5576609146
 20
86.5547239439
 40
0.5
100
AcDbArc
 50
302.432459861
 51
57.567540139
  0
ARC
  5
316
100
AcDbEntity
  8
A_RUNDUNGEN
100
AcDbCircle
 62
7
  6
CONTINUOUS
 10
38.8076609146
 20
154.5547239439
 40
12.0
100
AcDbArc
 50
90.0
 51
180.0
  0
CIRCLE
  5
317
100
AcDbEntity
  8
A_ACHSEN
100
AcDbCircle
 62
8
  6
HIDDEN
 10
33.8076609146
 20
154.5547239439
 40
6.15
  0
ARC
  5
318
100
AcDbEntity
  8
DEFAULT_2
100
AcDbCircle
 62
8
  6
HIDDEN
 10
38.5417077768
 20
124.7497239439
 40
4.39
100
AcDbArc
 50
302.432459861
 51
357.567540139
  0
ARC
  5
319
100
AcDbEntity
  8
DEFAULT_2
100
AcDbCircle
 62
8
  6
HIDDEN
 10
26.5417077768
 20
158.7497239439
 40
4.39
100
AcDbArc
 50
302.432459861
 51
357.567540139
  0
ARC
  5
31A
100
AcDbEntity
  8
DEFAULT_2
100
AcDbCircle
 62
8
  6
HIDDEN
 10
33.8076609146
 20
162.9447239439
 40
4.39
100
AcDbArc
 50
242.4324598608
 51
297.567540139
  0
ARC
  5
31B
100
AcDbEntity
  8
DEFAULT_2
100
AcDbCircle
 62
8
  6
HIDDEN
 10
33.8076609146
 20
146.1647239439
 40
4.39
100
AcDbArc
 50
62.432459861
 51
117.567540139
  0
ARC
  5
31C
100
AcDbEntity
  8
DEFAULT_2
100
AcDbCircle
 62
8
  6
HIDDEN
 10
26.5417077768
 20
150.3597239439
 40
4.39
100
AcDbArc
 50
2.432459861
 51
57.567540139
  0
CIRCLE
  5
31D
100
AcDbEntity
  8
A_ACHSEN
100
AcDbCircle
 62
7
  6
CONTINUOUS
 10
38.8076609146
 20
136.5547239439
 40
3.5
  0
CIRCLE
  5
31E
100
AcDbEntity
  8
A_ACHSEN
100
AcDbCircle
 62
7
  6
CONTINUOUS
 10
38.8076609146
 20
136.5547239439
 40
2.0
  0
ARC
  5
31F
100
AcDbEntity
  8
DEFAULT_2
100
AcDbCircle
 62
8
  6
HIDDEN
 10
31.4326609146
 20
158.6683446119
 40
0.5
100
AcDbArc
 50
62.4324598608
 51
177.567540139
  0
ARC
  5
320
100
AcDbEntity
  8
DEFAULT_2
100
AcDbCircle
 62
8
  6
HIDDEN
 10
36.1826609146
 20
158.6683446119
 40
0.5
100
AcDbArc
 50
2.4324598611
 51
117.5675401389
  0
ARC
  5
321
100
AcDbEntity
  8
DEFAULT_2
100
AcDbCircle
 62
8
  6
HIDDEN
 10
38.5576609146
 20
154.5547239439
 40
0.5
100
AcDbArc
 50
302.432459861
 51
57.567540139
  0
ARC
  5
322
100
AcDbEntity
  8
DEFAULT_2
100
AcDbCircle
 62
8
  6
HIDDEN
 10
36.1826609146
 20
150.4411032759
 40
0.5
100
AcDbArc
 50
242.432459861
 51
357.567540139
  0
ARC
  5
323
100
AcDbEntity
  8
DEFAULT_2
100
AcDbCircle
 62
8
  6
HIDDEN
 10
31.4326609146
 20
150.4411032759
 40
0.5
100
AcDbArc
 50
182.432459861
 51
297.567540139
  0
ARC
  5
324
100
AcDbEntity
  8
DEFAULT_2
100
AcDbCircle
 62
8
  6
HIDDEN
 10
29.0576609146
 20
154.5547239439
 40
0.5
100
AcDbArc
 50
122.432459861
 51
237.567540139
  0
CIRCLE
  5
325
100
AcDbEntity
  8
A_ACHSEN
100
AcDbCircle
 62
8
  6
HIDDEN
 10
45.8076609146
 20
120.5547239439
 40
6.15
  0
ARC
  5
326
100
AcDbEntity
  8
DEFAULT_2
100
AcDbCircle
 62
8
  6
HIDDEN
 10
53.0736140523
 20
116.3597239439
 40
4.39
100
AcDbArc
 50
122.432459861
 51
177.567540139
  0
ARC
  5
327
100
AcDbEntity
  8
DEFAULT_2
100
AcDbCircle
 62
8
  6
HIDDEN
 10
45.8076609146
 20
112.1647239439
 40
4.39
100
AcDbArc
 50
62.432459861
 51
117.567540139
  0
ARC
  5
328
100
AcDbEntity
  8
DEFAULT_2
100
AcDbCircle
 62
8
  6
HIDDEN
 10
41.0736140523
 20
90.7497239439
 40
4.39
100
AcDbArc
 50
182.432459861
 51
237.567540139
  0
ARC
  5
329
100
AcDbEntity
  8
DEFAULT_2
100
AcDbCircle
 62
8
  6
HIDDEN
 10
43.4326609146
 20
124.6683446119
 40
0.5
100
AcDbArc
 50
62.4324598608
 51
177.567540139
  0
ARC
  5
32A
100
AcDbEntity
  8
DEFAULT_2
100
AcDbCircle
 62
8
  6
HIDDEN
 10
48.1826609146
 20
124.6683446119
 40
0.5
100
AcDbArc
 50
2.4324598611
 51
117.5675401389
  0
ARC
  5
32B
100
AcDbEntity
  8
DEFAULT_2
100
AcDbCircle
 62
8
  6
HIDDEN
 10
50.5576609146
 20
120.5547239439
 40
0.5
100
AcDbArc
 50
302.432459861
 51
57.567540139
  0
ARC
  5
32C
100
AcDbEntity
  8
DEFAULT_2
100
AcDbCircle
 62
8
  6
HIDDEN
 10
48.1826609146
 20
116.4411032759
 40
0.5
100
AcDbArc
 50
242.432459861
 51
357.567540139
  0
ARC
  5
32D
100
AcDbEntity
  8
DEFAULT_2
100
AcDbCircle
 62
8
  6
HIDDEN
 10
43.4326609146
 20
116.4411032759
 40
0.5
100
AcDbArc
 50
182.432459861
 51
297.567540139
  0
ARC
  5
32E
100
AcDbEntity
  8
DEFAULT_2
100
AcDbCircle
 62
8
  6
HIDDEN
 10
41.0576609146
 20
120.5547239439
 40
0.5
100
AcDbArc
 50
122.432459861
 51
237.567540139
  0
ARC
  5
32F
100
AcDbEntity
  8
0
100
AcDbCircle
 62
3
  6
CONTINUOUS
 10
46.8076609146
 20
154.5547239439
 40
12.0
100
AcDbArc
 50
69.2149741785
 51
87.6078549536
  0
ARC
  5
330
100
AcDbEntity
  8
DEFAULT_2
100
AcDbCircle
 62
8
  6
HIDDEN
 10
45.8076609146
 20
128.9447239439
 40
4.39
100
AcDbArc
 50
242.4324598608
 51
297.567540139
  0
ARC
  5
331
100
AcDbEntity
  8
DEFAULT_2
100
AcDbCircle
 62
8
  6
HIDDEN
 10
53.0736140523
 20
124.7497239439
 40
4.39
100
AcDbArc
 50
182.432459861
 51
237.567540139
  0
ARC
  5
332
100
AcDbEntity
  8
DEFAULT_2
100
AcDbCircle
 62
8
  6
HIDDEN
 10
41.0736140523
 20
158.7497239439
 40
4.39
100
AcDbArc
 50
182.432459861
 51
237.567540139
  0
ARC
  5
333
100
AcDbEntity
  8
DEFAULT_2
100
AcDbCircle
 62
8
  6
HIDDEN
 10
41.0736140523
 20
150.3597239439
 40
4.39
100
AcDbArc
 50
122.432459861
 51
177.567540139
  0
ARC
  5
334
100
AcDbEntity
  8
0
100
AcDbCircle
 62
3
  6
CONTINUOUS
 10
87.3076609146
 20
82.5547239439
 40
3.0
100
AcDbArc
 50
180.0
 51
270.0
  0
ARC
  5
335
100
AcDbEntity
  8
0
100
AcDbCircle
 62
3
  6
CONTINUOUS
 10
93.3664317318
 20
82.5547239439
 40
3.0
100
AcDbArc
 50
270.0
 51
345.5224878141
  0
ARC
  5
336
100
AcDbEntity
  8
0
100
AcDbCircle
 62
3
  6
CONTINUOUS
 10
93.3664317318
 20
62.5547239439
 40
3.0
100
AcDbArc
 50
14.4775121859
 51
90.0
  0
ARC
  5
337
100
AcDbEntity
  8
0
100
AcDbCircle
 62
3
  6
CONTINUOUS
 10
87.3076609146
 20
62.5547239439
 40
3.0
100
AcDbArc
 50
90.0
 51
180.0
  0
ARC
  5
338
100
AcDbEntity
  8
0
100
AcDbCircle
 62
3
  6
CONTINUOUS
 10
87.3076609146
 20
54.5547239439
 40
3.0
100
AcDbArc
 50
180.0
 51
270.0
  0
ARC
  5
339
100
AcDbEntity
  8
0
100
AcDbCircle
 62
3
  6
CONTINUOUS
 10
93.3664317318
 20
54.5547239439
 40
3.0
100
AcDbArc
 50
270.0
 51
345.5224878141
  0
ARC
  5
33A
100
AcDbEntity
  8
0
100
AcDbCircle
 62
3
  6
CONTINUOUS
 10
100.3076609146
 20
80.8047239439
 40
2.5
100
AcDbArc
 50
0.0
 51
90.0
  0
ARC
  5
33B
100
AcDbEntity
  8
0
100
AcDbCircle
 62
3
  6
CONTINUOUS
 10
100.3076609146
 20
64.3047239439
 40
2.5
100
AcDbArc
 50
270.0
 51
360.0
  0
ARC
  5
33C
100
AcDbEntity
  8
0
100
AcDbCircle
 62
3
  6
CONTINUOUS
 10
100.3076609146
 20
52.8047239439
 40
2.5
100
AcDbArc
 50
0.0
 51
90.0
  0
ARC
  5
33D
100
AcDbEntity
  8
0
100
AcDbCircle
 62
3
  6
CONTINUOUS
 10
98.2076609146
 20
81.3047239439
 40
2.0
100
AcDbArc
 50
90.0
 51
165.5224878141
  0
ARC
  5
33E
100
AcDbEntity
  8
0
100
AcDbCircle
 62
3
  6
CONTINUOUS
 10
98.2076609146
 20
63.8047239439
 40
2.0
100
AcDbArc
 50
194.4775121859
 51
270.0
  0
ARC
  5
33F
100
AcDbEntity
  8
0
100
AcDbCircle
 62
3
  6
CONTINUOUS
 10
98.2076609146
 20
53.3047239439
 40
2.0
100
AcDbArc
 50
90.0
 51
165.5224878141
  0
ARC
  5
340
100
AcDbEntity
  8
0
100
AcDbCircle
 62
3
  6
CONTINUOUS
 10
87.3076609146
 20
110.5547239439
 40
3.0
100
AcDbArc
 50
180.0
 51
270.0
  0
ARC
  5
341
100
AcDbEntity
  8
0
100
AcDbCircle
 62
3
  6
CONTINUOUS
 10
93.3664317318
 20
110.5547239439
 40
3.0
100
AcDbArc
 50
270.0
 51
345.5224878141
  0
ARC
  5
342
100
AcDbEntity
  8
0
100
AcDbCircle
 62
3
  6
CONTINUOUS
 10
93.3664317318
 20
90.5547239439
 40
3.0
100
AcDbArc
 50
14.4775121859
 51
90.0
  0
ARC
  5
343
100
AcDbEntity
  8
0
100
AcDbCircle
 62
3
  6
CONTINUOUS
 10
87.3076609146
 20
90.5547239439
 40
3.0
100
AcDbArc
 50
90.0
 51
180.0
  0
ARC
  5
344
100
AcDbEntity
  8
0
100
AcDbCircle
 62
3
  6
CONTINUOUS
 10
93.3664317318
 20
118.5547239439
 40
3.0
100
AcDbArc
 50
14.4775121859
 51
90.0
  0
ARC
  5
345
100
AcDbEntity
  8
0
100
AcDbCircle
 62
3
  6
CONTINUOUS
 10
87.3076609146
 20
118.5547239439
 40
3.0
100
AcDbArc
 50
90.0
 51
180.0
  0
ARC
  5
346
100
AcDbEntity
  8
0
100
AcDbCircle
 62
3
  6
CONTINUOUS
 10
100.3076609146
 20
108.8047239439
 40
2.5
100
AcDbArc
 50
0.0
 51
90.0
  0
ARC
  5
347
100
AcDbEntity
  8
0
100
AcDbCircle
 62
3
  6
CONTINUOUS
 10
100.3076609146
 20
92.3047239439
 40
2.5
100
AcDbArc
 50
270.0
 51
360.0
  0
ARC
  5
348
100
AcDbEntity
  8
0
100
AcDbCircle
 62
3
  6
CONTINUOUS
 10
100.3076609146
 20
120.3047239439
 40
2.5
100
AcDbArc
 50
270.0
 51
360.0
  0
ARC
  5
349
100
AcDbEntity
  8
0
100
AcDbCircle
 62
3
  6
CONTINUOUS
 10
98.2076609146
 20
109.3047239439
 40
2.0
100
AcDbArc
 50
90.0
 51
165.5224878141
  0
ARC
  5
34A
100
AcDbEntity
  8
0
100
AcDbCircle
 62
3
  6
CONTINUOUS
 10
98.2076609146
 20
91.8047239439
 40
2.0
100
AcDbArc
 50
194.4775121859
 51
270.0
  0
ARC
  5
34B
100
AcDbEntity
  8
0
100
AcDbCircle
 62
3
  6
CONTINUOUS
 10
98.2076609146
 20
119.8047239439
 40
2.0
100
AcDbArc
 50
194.4775121859
 51
270.0
  0
ENDSEC
  0
SECTION
  2
OBJECTS
  0
DICTIONARY
  5
34C
100
AcDbDictionary
  3
ACAD_GROUP
350
34D
  3
ACAD_MLINESTYLE
350
34E
  0
DICTIONARY
  5
34D
102
{ACAD_REACTORS
330
34C
102
}
100
AcDbDictionary
  0
DICTIONARY
  5
34E
102
{ACAD_REACTORS
330
34C
102
}
100
AcDbDictionary
  3
STANDARD
350
34F
  0
MLINESTYLE
  5
34F
102
{ACAD_REACTORS
330
34E
102
}
100
AcDbMlineStyle
  2
STANDARD
 70
0
  3

 62
256
 51
90.0
 52
90.0
 71
2
 49
0.5
 62
256
  6
BYLAYER
 49
-0.5
 62
256
  6
BYLAYER
  0
ENDSEC
  0
EOF
