  0
SECTION
  2
HEADER
  9
$ACADVER
  1
AC1018
  9
$ACADMAINTVER
 70
     0
  9
$DWGCODEPAGE
  3
ANSI_1252
  9
$INSBASE
 10
0.0
 20
0.0
 30
0.0
  9
$EXTMIN
 10
-63.11500677956713
 20
-66.7153573748126
 30
0.0
  9
$EXTMAX
 10
98.62399297090587
 20
65.8079376471639
 30
0.0
  9
$LIMMIN
 10
0.0
 20
0.0
  9
$LIMMAX
 10
12.0
 20
9.0
  9
$ORTHOMODE
 70
     0
  9
$REGENMODE
 70
     1
  9
$FILLMODE
 70
     1
  9
$QTEXTMODE
 70
     0
  9
$MIRRTEXT
 70
     1
  9
$LTSCALE
 40
1.0
  9
$ATTMODE
 70
     1
  9
$TEXTSIZE
 40
0.2
  9
$TRACEWID
 40
0.05
  9
$TEXTSTYLE
  7
Standard
  9
$CLAYER
  8
0
  9
$CELTYPE
  6
ByLayer
  9
$CECOLOR
 62
   256
  9
$CELTSCALE
 40
1.0
  9
$DISPSILH
 70
     0
  9
$DIMSCALE
 40
1.0
  9
$DIMASZ
 40
0.18
  9
$DIMEXO
 40
0.0625
  9
$DIMDLI
 40
0.38
  9
$DIMRND
 40
0.0
  9
$DIMDLE
 40
0.0
  9
$DIMEXE
 40
0.18
  9
$DIMTP
 40
0.0
  9
$DIMTM
 40
0.0
  9
$DIMTXT
 40
0.18
  9
$DIMCEN
 40
0.09
  9
$DIMTSZ
 40
0.0
  9
$DIMTOL
 70
     0
  9
$DIMLIM
 70
     0
  9
$DIMTIH
 70
     1
  9
$DIMTOH
 70
     1
  9
$DIMSE1
 70
     0
  9
$DIMSE2
 70
     0
  9
$DIMTAD
 70
     0
  9
$DIMZIN
 70
     0
  9
$DIMBLK
  1

  9
$DIMASO
 70
     1
  9
$DIMSHO
 70
     1
  9
$DIMPOST
  1

  9
$DIMAPOST
  1

  9
$DIMALT
 70
     0
  9
$DIMALTD
 70
     2
  9
$DIMALTF
 40
25.4
  9
$DIMLFAC
 40
1.0
  9
$DIMTOFL
 70
     0
  9
$DIMTVP
 40
0.0
  9
$DIMTIX
 70
     0
  9
$DIMSOXD
 70
     0
  9
$DIMSAH
 70
     0
  9
$DIMBLK1
  1

  9
$DIMBLK2
  1

  9
$DIMSTYLE
  2
Standard
  9
$DIMCLRD
 70
     0
  9
$DIMCLRE
 70
     0
  9
$DIMCLRT
 70
     0
  9
$DIMTFAC
 40
1.0
  9
$DIMGAP
 40
0.09
  9
$DIMJUST
 70
     0
  9
$DIMSD1
 70
     0
  9
$DIMSD2
 70
     0
  9
$DIMTOLJ
 70
     1
  9
$DIMTZIN
 70
     0
  9
$DIMALTZ
 70
     0
  9
$DIMALTTZ
 70
     0
  9
$DIMUPT
 70
     0
  9
$DIMDEC
 70
     4
  9
$DIMTDEC
 70
     4
  9
$DIMALTU
 70
     2
  9
$DIMALTTD
 70
     2
  9
$DIMTXSTY
  7
Standard
  9
$DIMAUNIT
 70
     0
  9
$DIMADEC
 70
     0
  9
$DIMALTRND
 40
0.0
  9
$DIMAZIN
 70
     0
  9
$DIMDSEP
 70
    46
  9
$DIMATFIT
 70
     3
  9
$DIMFRAC
 70
     0
  9
$DIMLDRBLK
  1

  9
$DIMLUNIT
 70
     2
  9
$DIMLWD
 70
    -2
  9
$DIMLWE
 70
    -2
  9
$DIMTMOVE
 70
     0
  9
$LUNITS
 70
     2
  9
$LUPREC
 70
     4
  9
$SKETCHINC
 40
0.1
  9
$FILLETRAD
 40
0.5
  9
$AUNITS
 70
     0
  9
$AUPREC
 70
     0
  9
$MENU
  1
.
  9
$ELEVATION
 40
0.0
  9
$PELEVATION
 40
0.0
  9
$THICKNESS
 40
0.0
  9
$LIMCHECK
 70
     0
  9
$CHAMFERA
 40
0.5
  9
$CHAMFERB
 40
0.5
  9
$CHAMFERC
 40
1.0
  9
$CHAMFERD
 40
0.0
  9
$SKPOLY
 70
     0
  9
$TDCREATE
 40
2454435.451229375
  9
$TDUCREATE
 40
2454435.409562708
  9
$TDUPDATE
 40
2454435.451229386
  9
$TDUUPDATE
 40
2454435.40956272
  9
$TDINDWG
 40
0.0000000116
  9
$TDUSRTIMER
 40
0.0000000116
  9
$USRTIMER
 70
     1
  9
$ANGBASE
 50
0.0
  9
$ANGDIR
 70
     0
  9
$PDMODE
 70
     0
  9
$PDSIZE
 40
0.0
  9
$PLINEWID
 40
0.0
  9
$SPLFRAME
 70
     0
  9
$SPLINETYPE
 70
     6
  9
$SPLINESEGS
 70
     8
  9
$HANDSEED
  5
163
  9
$SURFTAB1
 70
     6
  9
$SURFTAB2
 70
     6
  9
$SURFTYPE
 70
     6
  9
$SURFU
 70
     6
  9
$SURFV
 70
     6
  9
$UCSBASE
  2

  9
$UCSNAME
  2

  9
$UCSORG
 10
0.0
 20
0.0
 30
0.0
  9
$UCSXDIR
 10
1.0
 20
0.0
 30
0.0
  9
$UCSYDIR
 10
0.0
 20
1.0
 30
0.0
  9
$UCSORTHOREF
  2

  9
$UCSORTHOVIEW
 70
     0
  9
$UCSORGTOP
 10
0.0
 20
0.0
 30
0.0
  9
$UCSORGBOTTOM
 10
0.0
 20
0.0
 30
0.0
  9
$UCSORGLEFT
 10
0.0
 20
0.0
 30
0.0
  9
$UCSORGRIGHT
 10
0.0
 20
0.0
 30
0.0
  9
$UCSORGFRONT
 10
0.0
 20
0.0
 30
0.0
  9
$UCSORGBACK
 10
0.0
 20
0.0
 30
0.0
  9
$PUCSBASE
  2

  9
$PUCSNAME
  2

  9
$PUCSORG
 10
0.0
 20
0.0
 30
0.0
  9
$PUCSXDIR
 10
1.0
 20
0.0
 30
0.0
  9
$PUCSYDIR
 10
0.0
 20
1.0
 30
0.0
  9
$PUCSORTHOREF
  2

  9
$PUCSORTHOVIEW
 70
     0
  9
$PUCSORGTOP
 10
0.0
 20
0.0
 30
0.0
  9
$PUCSORGBOTTOM
 10
0.0
 20
0.0
 30
0.0
  9
$PUCSORGLEFT
 10
0.0
 20
0.0
 30
0.0
  9
$PUCSORGRIGHT
 10
0.0
 20
0.0
 30
0.0
  9
$PUCSORGFRONT
 10
0.0
 20
0.0
 30
0.0
  9
$PUCSORGBACK
 10
0.0
 20
0.0
 30
0.0
  9
$USERI1
 70
     0
  9
$USERI2
 70
     0
  9
$USERI3
 70
     0
  9
$USERI4
 70
     0
  9
$USERI5
 70
     0
  9
$USERR1
 40
14.5
  9
$USERR2
 40
0.0
  9
$USERR3
 40
0.0
  9
$USERR4
 40
0.0
  9
$USERR5
 40
0.0
  9
$WORLDVIEW
 70
     1
  9
$SHADEDGE
 70
     3
  9
$SHADEDIF
 70
    70
  9
$TILEMODE
 70
     1
  9
$MAXACTVP
 70
    64
  9
$PINSBASE
 10
0.0
 20
0.0
 30
0.0
  9
$PLIMCHECK
 70
     0
  9
$PEXTMIN
 10
1.00000000000000E+20
 20
1.00000000000000E+20
 30
1.00000000000000E+20
  9
$PEXTMAX
 10
-1.00000000000000E+20
 20
-1.00000000000000E+20
 30
-1.00000000000000E+20
  9
$PLIMMIN
 10
0.0
 20
0.0
  9
$PLIMMAX
 10
12.0
 20
9.0
  9
$UNITMODE
 70
     0
  9
$VISRETAIN
 70
     1
  9
$PLINEGEN
 70
     0
  9
$PSLTSCALE
 70
     1
  9
$TREEDEPTH
 70
  3020
  9
$CMLSTYLE
  2
Standard
  9
$CMLJUST
 70
     0
  9
$CMLSCALE
 40
1.0
  9
$PROXYGRAPHICS
 70
     1
  9
$MEASUREMENT
 70
     1
  9
$CELWEIGHT
370
    -1
  9
$ENDCAPS
280
     0
  9
$JOINSTYLE
280
     0
  9
$LWDISPLAY
290
     0
  9
$INSUNITS
 70
     1
  9
$HYPERLINKBASE
  1

  9
$STYLESHEET
  1

  9
$XEDIT
290
     1
  9
$CEPSNTYPE
380
     0
  9
$PSTYLEMODE
290
     1
  9
$FINGERPRINTGUID
  2
{09F2D127-3A69-4F2E-A668-CD0C6731AF05}
  9
$VERSIONGUID
  2
{FAEB1C32-E019-11D5-929B-00C0DF256EC4}
  9
$EXTNAMES
290
     1
  9
$PSVPSCALE
 40
0.0
  9
$OLESTARTUP
290
     0
  9
$SORTENTS
280
   127
  9
$INDEXCTL
280
     0
  9
$HIDETEXT
280
     1
  9
$XCLIPFRAME
290
     0
  9
$HALOGAP
280
     0
  9
$OBSCOLOR
 70
   257
  9
$OBSLTYPE
280
     0
  9
$INTERSECTIONDISPLAY
280
     0
  9
$INTERSECTIONCOLOR
 70
   257
  9
$DIMASSOC
280
     2
  9
$PROJECTNAME
  1

  0
ENDSEC
  0
SECTION
  2
CLASSES
  0
CLASS
  1
ACDBDICTIONARYWDFLT
  2
AcDbDictionaryWithDefault
  3
ObjectDBX Classes
 90
        0
 91
        3
280
     0
281
     0
  0
ENDSEC
  0
SECTION
  2
TABLES
  0
TABLE
  2
VPORT
  5
8
330
0
100
AcDbSymbolTable
 70
     1
  0
VPORT
  5
29
330
8
100
AcDbSymbolTableRecord
100
AcDbViewportTableRecord
  2
*Active
 70
     0
 10
0.0
 20
0.0
 11
1.0
 21
1.0
 12
17.75449309566937
 22
-0.45370986382435
 13
0.0
 23
0.0
 14
0.5
 24
0.5
 15
0.5
 25
0.5
 16
0.0
 26
0.0
 36
1.0
 17
0.0
 27
0.0
 37
0.0
 40
145.7756245241741
 41
1.60267857142857
 42
50.0
 43
0.0
 44
0.0
 50
0.0
 51
0.0
 71
     0
 72
   100
 73
     1
 74
     3
 75
     0
 76
     0
 77
     0
 78
     0
281
     0
 65
     1
110
0.0
120
0.0
130
0.0
111
1.0
121
0.0
131
0.0
112
0.0
122
1.0
132
0.0
 79
     0
146
0.0
  0
ENDTAB
  0
TABLE
  2
LTYPE
  5
5
330
0
100
AcDbSymbolTable
 70
     8
  0
LTYPE
  5
14
330
5
100
AcDbSymbolTableRecord
100
AcDbLinetypeTableRecord
  2
ByBlock
 70
     0
  3

 72
    65
 73
     0
 40
0.0
  0
LTYPE
  5
15
330
5
100
AcDbSymbolTableRecord
100
AcDbLinetypeTableRecord
  2
ByLayer
 70
     0
  3

 72
    65
 73
     0
 40
0.0
  0
LTYPE
  5
16
330
5
100
AcDbSymbolTableRecord
100
AcDbLinetypeTableRecord
  2
Continuous
 70
     0
  3
Solid line
 72
    65
 73
     0
 40
0.0
  0
LTYPE
  5
2A
330
5
100
AcDbSymbolTableRecord
100
AcDbLinetypeTableRecord
  2
DASHED
 70
     0
  3
Dashed
 72
    65
 73
     2
 40
15.0
 49
7.0
 74
     0
 49
-8.0
 74
     0
  0
LTYPE
  5
2B
330
5
100
AcDbSymbolTableRecord
100
AcDbLinetypeTableRecord
  2
DOTTED
 70
     0
  3
Dotted
 72
    65
 73
     2
 40
1.0
 49
0.0
 74
     0
 49
-1.0
 74
     0
  0
LTYPE
  5
2C
330
5
100
AcDbSymbolTableRecord
100
AcDbLinetypeTableRecord
  2
DOT_CENTER
 70
     0
  3
Dot_Center
 72
    65
 73
     4
 40
14.0
 49
12.0
 74
     0
 49
-1.0
 74
     0
 49
0.0
 74
     0
 49
-1.0
 74
     0
  0
LTYPE
  5
2D
330
5
100
AcDbSymbolTableRecord
100
AcDbLinetypeTableRecord
  2
LONG_DASHED
 70
     0
  3
Long_Dashed
 72
    65
 73
     2
 40
15.0
 49
10.0
 74
     0
 49
-5.0
 74
     0
  0
LTYPE
  5
2E
330
5
100
AcDbSymbolTableRecord
100
AcDbLinetypeTableRecord
  2
DASH_CENTER
 70
     0
  3
Dash_Center
 72
    65
 73
     4
 40
14.0
 49
11.0
 74
     0
 49
-1.0
 74
     0
 49
1.0
 74
     0
 49
-1.0
 74
     0
  0
LTYPE
  5
2F
330
5
100
AcDbSymbolTableRecord
100
AcDbLinetypeTableRecord
  2
PHANTOM
 70
     0
  3
Phantom
 72
    65
 73
     6
 40
13.0
 49
10.0
 74
     0
 49
-1.0
 74
     0
 49
0.0
 74
     0
 49
-1.0
 74
     0
 49
0.0
 74
     0
 49
-1.0
 74
     0
  0
LTYPE
  5
30
330
5
100
AcDbSymbolTableRecord
100
AcDbLinetypeTableRecord
  2
CENTER_DASH_DASH
 70
     0
  3
Center_Dash_Dash
 72
    65
 73
     6
 40
14.0
 49
9.0
 74
     0
 49
-1.0
 74
     0
 49
1.0
 74
     0
 49
-1.0
 74
     0
 49
1.0
 74
     0
 49
-1.0
 74
     0
  0
ENDTAB
  0
TABLE
  2
LAYER
  5
2
330
0
100
AcDbSymbolTable
 70
     3
  0
LAYER
  5
10
330
2
100
AcDbSymbolTableRecord
100
AcDbLayerTableRecord
  2
0
 70
     0
 62
     7
  6
Continuous
370
    -3
390
F
  0
LAYER
  5
31
330
2
100
AcDbSymbolTableRecord
100
AcDbLayerTableRecord
  2
1
 70
     0
 62
     7
  6
Continuous
370
    -3
390
F
  0
LAYER
  5
32
330
2
100
AcDbSymbolTableRecord
100
AcDbLayerTableRecord
  2
3
 70
     0
 62
     7
  6
Continuous
370
    -3
390
F
  0
ENDTAB
  0
TABLE
  2
STYLE
  5
3
330
0
100
AcDbSymbolTable
 70
     2
  0
STYLE
  5
11
330
3
100
AcDbSymbolTableRecord
100
AcDbTextStyleTableRecord
  2
Standard
 70
     0
 40
0.0
 41
1.0
 50
0.0
 71
     0
 42
0.2
  3
txt
  4

  0
STYLE
  5
E7
330
3
100
AcDbSymbolTableRecord
100
AcDbTextStyleTableRecord
  2
CONVERTER_11
 70
     0
 40
0.0
 41
0.9
 50
0.0
 71
     0
 42
0.2
  3
txt.shx
  4

  0
ENDTAB
  0
TABLE
  2
VIEW
  5
6
330
0
100
AcDbSymbolTable
 70
     0
  0
ENDTAB
  0
TABLE
  2
UCS
  5
7
330
0
100
AcDbSymbolTable
 70
     0
  0
ENDTAB
  0
TABLE
  2
APPID
  5
9
330
0
100
AcDbSymbolTable
 70
     1
  0
APPID
  5
12
330
9
100
AcDbSymbolTableRecord
100
AcDbRegAppTableRecord
  2
ACAD
 70
     0
  0
ENDTAB
  0
TABLE
  2
DIMSTYLE
  5
A
330
0
100
AcDbSymbolTable
 70
    12
100
AcDbDimStyleTable
  0
DIMSTYLE
105
27
330
A
100
AcDbSymbolTableRecord
100
AcDbDimStyleTableRecord
  2
Standard
 70
     0
340
11
  0
DIMSTYLE
105
EB
102
{ACAD_REACTORS
330
EC
102
}
330
A
100
AcDbSymbolTableRecord
100
AcDbDimStyleTableRecord
  2
ME10_DIM_10
 70
     0
 41
3.5
 42
0.0
 44
2.0
 73
     0
 74
     0
 77
     1
 78
     8
140
3.5
147
2.0
172
     1
173
     1
176
     2
177
     2
178
     2
271
     3
340
E7
  0
DIMSTYLE
105
F7
102
{ACAD_REACTORS
330
F8
102
}
330
A
100
AcDbSymbolTableRecord
100
AcDbDimStyleTableRecord
  2
ME10_DIM_11
 70
     0
 41
3.5
 42
0.0
 44
2.0
 73
     0
 74
     0
 77
     1
 78
     8
140
3.5
147
2.0
172
     1
173
     1
176
     2
177
     2
178
     2
271
     3
340
E7
  0
DIMSTYLE
105
104
102
{ACAD_REACTORS
330
105
102
}
330
A
100
AcDbSymbolTableRecord
100
AcDbDimStyleTableRecord
  2
ME10_DIM_12
 70
     0
 41
3.5
 42
0.0
 44
2.0
 73
     0
 74
     0
 77
     1
 78
     8
140
3.5
147
2.0
172
     1
173
     1
176
     2
177
     2
178
     2
271
     3
340
E7
  0
DIMSTYLE
105
10F
102
{ACAD_REACTORS
330
110
102
}
330
A
100
AcDbSymbolTableRecord
100
AcDbDimStyleTableRecord
  2
ME10_DIM_13
 70
     0
 41
3.5
 42
0.0
 44
2.0
 73
     0
 74
     0
 77
     1
 78
     8
140
3.5
147
2.0
172
     1
173
     1
176
     2
177
     2
178
     2
271
     3
340
E7
  0
DIMSTYLE
105
11B
102
{ACAD_REACTORS
330
11C
102
}
330
A
100
AcDbSymbolTableRecord
100
AcDbDimStyleTableRecord
  2
ME10_DIM_14
 70
     0
 41
3.5
 42
0.0
 44
2.0
 73
     0
 74
     0
 77
     1
 78
     8
140
3.5
147
2.0
172
     1
173
     1
176
     2
177
     2
178
     2
271
     3
340
E7
  0
DIMSTYLE
105
126
102
{ACAD_REACTORS
330
127
102
}
330
A
100
AcDbSymbolTableRecord
100
AcDbDimStyleTableRecord
  2
ME10_DIM_15
 70
     0
 41
3.5
 42
0.0
 44
2.0
 73
     0
 74
     0
 77
     1
 78
     8
140
3.5
147
2.0
172
     1
173
     1
176
     2
177
     2
178
     2
271
     2
340
E7
  0
DIMSTYLE
105
133
102
{ACAD_REACTORS
330
134
102
}
330
A
100
AcDbSymbolTableRecord
100
AcDbDimStyleTableRecord
  2
ME10_DIM_16
 70
     0
 41
3.5
 42
0.0
 44
2.0
 73
     0
 74
     0
 77
     1
 78
     8
140
3.5
147
2.0
172
     1
173
     1
176
     2
177
     2
178
     2
271
     2
340
E7
  0
DIMSTYLE
105
13E
102
{ACAD_REACTORS
330
13F
102
}
330
A
100
AcDbSymbolTableRecord
100
AcDbDimStyleTableRecord
  2
ME10_DIM_17
 70
     0
 41
3.5
 42
0.0
 44
2.0
 73
     0
 74
     0
 77
     1
 78
     8
140
3.5
147
2.0
172
     1
173
     1
176
     2
177
     2
178
     2
271
     2
340
E7
  0
DIMSTYLE
105
149
102
{ACAD_REACTORS
330
14A
102
}
330
A
100
AcDbSymbolTableRecord
100
AcDbDimStyleTableRecord
  2
ME10_DIM_18
 70
     0
 41
3.5
 42
0.0
 44
2.0
 73
     0
 74
     0
 77
     1
 78
     8
140
3.5
147
2.0
172
     1
173
     1
176
     2
177
     2
178
     2
271
     2
340
E7
  0
DIMSTYLE
105
156
102
{ACAD_REACTORS
330
157
102
}
330
A
100
AcDbSymbolTableRecord
100
AcDbDimStyleTableRecord
  2
ME10_DIM_19
 70
     0
 41
3.5
 42
0.0
 44
2.0
 73
     0
 74
     0
 77
     1
 78
     8
140
3.5
147
2.0
172
     1
173
     1
176
     2
177
     2
178
     2
271
     2
340
E7
  0
DIMSTYLE
105
161
102
{ACAD_REACTORS
330
162
102
}
330
A
100
AcDbSymbolTableRecord
100
AcDbDimStyleTableRecord
  2
ME10_DIM_20
 70
     0
 41
3.5
 42
0.0
 44
2.0
 73
     0
 74
     0
 77
     1
 78
     8
140
3.5
147
2.0
172
     1
173
     1
176
     2
177
     2
178
     2
271
     2
340
E7
  0
ENDTAB
  0
TABLE
  2
BLOCK_RECORD
  5
1
330
0
100
AcDbSymbolTable
 70
    12
  0
BLOCK_RECORD
  5
1F
330
1
100
AcDbSymbolTableRecord
100
AcDbBlockTableRecord
  2
*Model_Space
340
22
  0
BLOCK_RECORD
  5
1B
330
1
100
AcDbSymbolTableRecord
100
AcDbBlockTableRecord
  2
*Paper_Space
340
1E
  0
BLOCK_RECORD
  5
23
330
1
100
AcDbSymbolTableRecord
100
AcDbBlockTableRecord
  2
*Paper_Space0
340
26
  0
BLOCK_RECORD
  5
E1
330
1
100
AcDbSymbolTableRecord
100
AcDbBlockTableRecord
  2
*D1
340
0
  0
BLOCK_RECORD
  5
ED
330
1
100
AcDbSymbolTableRecord
100
AcDbBlockTableRecord
  2
*D2
340
0
  0
BLOCK_RECORD
  5
F9
330
1
100
AcDbSymbolTableRecord
100
AcDbBlockTableRecord
  2
*D3
340
0
  0
BLOCK_RECORD
  5
106
330
1
100
AcDbSymbolTableRecord
100
AcDbBlockTableRecord
  2
*D4
340
0
  0
BLOCK_RECORD
  5
111
330
1
100
AcDbSymbolTableRecord
100
AcDbBlockTableRecord
  2
*D5
340
0
  0
BLOCK_RECORD
  5
11D
330
1
100
AcDbSymbolTableRecord
100
AcDbBlockTableRecord
  2
*D6
340
0
  0
BLOCK_RECORD
  5
128
330
1
100
AcDbSymbolTableRecord
100
AcDbBlockTableRecord
  2
*D7
340
0
  0
BLOCK_RECORD
  5
135
330
1
100
AcDbSymbolTableRecord
100
AcDbBlockTableRecord
  2
*D8
340
0
  0
BLOCK_RECORD
  5
140
330
1
100
AcDbSymbolTableRecord
100
AcDbBlockTableRecord
  2
*D9
340
0
  0
BLOCK_RECORD
  5
14B
330
1
100
AcDbSymbolTableRecord
100
AcDbBlockTableRecord
  2
*D10
340
0
  0
BLOCK_RECORD
  5
158
330
1
100
AcDbSymbolTableRecord
100
AcDbBlockTableRecord
  2
*D11
340
0
  0
ENDTAB
  0
ENDSEC
  0
SECTION
  2
BLOCKS
  0
BLOCK
  5
20
330
1F
100
AcDbEntity
  8
0
100
AcDbBlockBegin
  2
*Model_Space
 70
     0
 71
     0
 10
0.0
 20
0.0
 30
0.0
  3
*Model_Space
  1

  0
ENDBLK
  5
21
330
1F
100
AcDbEntity
  8
0
100
AcDbBlockEnd
  0
BLOCK
  5
1C
330
1B
100
AcDbEntity
 67
     1
  8
0
100
AcDbBlockBegin
  2
*Paper_Space
 70
     0
 71
     0
 10
0.0
 20
0.0
 30
0.0
  3
*Paper_Space
  1

  0
ENDBLK
  5
1D
330
1B
100
AcDbEntity
 67
     1
  8
0
100
AcDbBlockEnd
  0
BLOCK
  5
24
330
23
100
AcDbEntity
  8
0
100
AcDbBlockBegin
  2
*Paper_Space0
 70
     0
 71
     0
 10
0.0
 20
0.0
 30
0.0
  3
*Paper_Space0
  1

  0
ENDBLK
  5
25
330
23
100
AcDbEntity
  8
0
100
AcDbBlockEnd
  0
BLOCK
  5
E9
330
E1
100
AcDbEntity
  8
0
100
AcDbBlockBegin
  2
*D1
 70
     1
 71
     0
 10
0.0
 20
0.0
 30
0.0
  3
*D1
  1

  0
LINE
  5
E2
330
E1
100
AcDbEntity
  8
1
  6
Continuous
 62
     2
100
AcDbLine
 10
10.29430618094688
 20
-64.6642424135985
 30
0.0
 11
21.79430618094688
 21
-64.6642424135985
 31
0.0
  0
LINE
  5
E3
330
E1
100
AcDbEntity
  8
1
  6
Continuous
 62
     2
100
AcDbLine
 10
10.29430618094688
 20
-16.67283103031977
 30
0.0
 11
10.29430618094688
 21
-66.6642424135985
 31
0.0
  0
LINE
  5
E4
330
E1
100
AcDbEntity
  8
1
  6
Continuous
 62
     2
100
AcDbLine
 10
21.79430618094688
 20
-20.17283103031977
 30
0.0
 11
21.79430618094688
 21
-66.6642424135985
 31
0.0
  0
SOLID
  5
E5
330
E1
100
AcDbEntity
  8
1
 62
     2
100
AcDbTrace
 10
13.79430618094688
 20
-64.20345867204261
 30
0.0
 11
13.79430618094688
 21
-65.12502615515439
 31
0.0
 12
10.29430618094688
 22
-64.6642424135985
 32
0.0
 13
10.29430618094688
 23
-64.6642424135985
 33
0.0
  0
SOLID
  5
E6
330
E1
100
AcDbEntity
  8
1
 62
     2
100
AcDbTrace
 10
18.29430618094688
 20
-65.12502615515439
 30
0.0
 11
18.29430618094688
 21
-64.20345867204261
 31
0.0
 12
21.79430618094688
 22
-64.6642424135985
 32
0.0
 13
21.79430618094688
 23
-64.6642424135985
 33
0.0
  0
MTEXT
  5
E8
330
E1
100
AcDbEntity
  8
1
 62
     2
100
AcDbMText
 10
12.416116616886
 20
-62.6642424135985
 30
0.0
 40
3.5
 41
0.0
 71
     7
 72
     1
  1
11.5
  7
CONVERTER_11
 11
0.9999999999970621
 21
2.424068405545307E-6
 31
0.0
 73
     1
 44
0.60024009603842
  0
ENDBLK
  5
EA
330
E1
100
AcDbEntity
  8
0
100
AcDbBlockEnd
  0
BLOCK
  5
F5
330
ED
100
AcDbEntity
  8
0
100
AcDbBlockBegin
  2
*D2
 70
     1
 71
     0
 10
0.0
 20
0.0
 30
0.0
  3
*D2
  1

  0
LINE
  5
EE
330
ED
100
AcDbEntity
  8
1
  6
Continuous
 62
     2
100
AcDbLine
 10
6.79430618094688
 20
60.3079376471639
 30
0.0
 11
-3.70569381905312
 21
60.3079376471639
 31
0.0
  0
LINE
  5
EF
330
ED
100
AcDbEntity
  8
1
  6
Continuous
 62
     2
100
AcDbLine
 10
6.79430618094688
 20
10.89742678218002
 30
0.0
 11
6.79430618094688
 21
62.3079376471639
 31
0.0
  0
LINE
  5
F0
330
ED
100
AcDbEntity
  8
1
  6
Continuous
 62
     2
100
AcDbLine
 10
-3.70569381905312
 20
11.57716896968881
 30
0.0
 11
-3.70569381905312
 21
45.50489955298269
 31
0.0
  0
LINE
  5
F1
330
ED
100
AcDbEntity
  8
1
  6
Continuous
 62
     2
100
AcDbLine
 10
-3.70569381905312
 20
53.80959279513998
 30
0.0
 11
-3.70569381905312
 21
62.3079376471639
 31
0.0
  0
SOLID
  5
F2
330
ED
100
AcDbEntity
  8
1
 62
     2
100
AcDbTrace
 10
3.29430618094688
 20
59.84715390560801
 30
0.0
 11
3.29430618094688
 21
60.76872138871978
 31
0.0
 12
6.79430618094688
 22
60.3079376471639
 32
0.0
 13
6.79430618094688
 23
60.3079376471639
 33
0.0
  0
SOLID
  5
F3
330
ED
100
AcDbEntity
  8
1
 62
     2
100
AcDbTrace
 10
-0.20569381905312
 20
60.76872138871978
 30
0.0
 11
-0.20569381905312
 21
59.84715390560801
 31
0.0
 12
-3.70569381905312
 22
60.3079376471639
 32
0.0
 13
-3.70569381905312
 23
60.3079376471639
 33
0.0
  0
MTEXT
  5
F4
330
ED
100
AcDbEntity
  8
1
 62
     2
100
AcDbMText
 10
-3.27742056806469
 20
62.3079376471639
 30
0.0
 40
3.5
 41
0.0
 71
     7
 72
     1
  1
10.5
  7
CONVERTER_11
 11
0.9999999999970621
 21
2.424068405545307E-6
 31
0.0
 73
     1
 44
0.60024009603842
  0
ENDBLK
  5
F6
330
ED
100
AcDbEntity
  8
0
100
AcDbBlockEnd
  0
BLOCK
  5
102
330
F9
100
AcDbEntity
  8
0
100
AcDbBlockBegin
  2
*D3
 70
     1
 71
     0
 10
0.0
 20
0.0
 30
0.0
  3
*D3
  1

  0
LINE
  5
FA
330
F9
100
AcDbEntity
  8
1
  6
Continuous
 62
     2
100
AcDbLine
 10
21.79430618094688
 20
-54.4817381622468
 30
0.0
 11
32.4631458219316
 21
-54.4817381622468
 31
0.0
  0
LINE
  5
FB
330
F9
100
AcDbEntity
  8
1
  6
Continuous
 62
     2
100
AcDbLine
 10
18.29430618094688
 20
-54.4817381622468
 30
0.0
 11
21.79430618094688
 21
-54.4817381622468
 31
0.0
  0
LINE
  5
FC
330
F9
100
AcDbEntity
  8
1
  6
Continuous
 62
     2
100
AcDbLine
 10
11.29430618094688
 20
-54.4817381622468
 30
0.0
 11
18.29430618094688
 21
-54.4817381622468
 31
0.0
  0
LINE
  5
FD
330
F9
100
AcDbEntity
  8
1
  6
Continuous
 62
     2
100
AcDbLine
 10
18.29430618094688
 20
-15.67283103031977
 30
0.0
 11
18.29430618094688
 21
-56.4817381622468
 31
0.0
  0
LINE
  5
FE
330
F9
100
AcDbEntity
  8
1
  6
Continuous
 62
     2
100
AcDbLine
 10
21.79430618094688
 20
-15.17283103031977
 30
0.0
 11
21.79430618094688
 21
-56.4817381622468
 31
0.0
  0
SOLID
  5
FF
330
F9
100
AcDbEntity
  8
1
 62
     2
100
AcDbTrace
 10
14.79430618094688
 20
-54.94252190380269
 30
0.0
 11
14.79430618094688
 21
-54.02095442069091
 31
0.0
 12
18.29430618094688
 22
-54.4817381622468
 32
0.0
 13
18.29430618094688
 23
-54.4817381622468
 33
0.0
  0
SOLID
  5
100
330
F9
100
AcDbEntity
  8
1
 62
     2
100
AcDbTrace
 10
25.29430618094688
 20
-54.02095442069091
 30
0.0
 11
25.29430618094688
 21
-54.94252190380269
 31
0.0
 12
21.79430618094688
 22
-54.4817381622468
 32
0.0
 13
21.79430618094688
 23
-54.4817381622468
 33
0.0
  0
MTEXT
  5
101
330
F9
100
AcDbEntity
  8
1
 62
     2
100
AcDbMText
 10
26.0756458219316
 20
-52.4817381622468
 30
0.0
 40
3.5
 41
0.0
 71
     7
 72
     1
  1
3.5
  7
CONVERTER_11
 11
0.9999999999970621
 21
2.424068405545307E-6
 31
0.0
 73
     1
 44
0.60024009603842
  0
ENDBLK
  5
103
330
F9
100
AcDbEntity
  8
0
100
AcDbBlockEnd
  0
BLOCK
  5
10D
330
106
100
AcDbEntity
  8
0
100
AcDbBlockBegin
  2
*D4
 70
     1
 71
     0
 10
0.0
 20
0.0
 30
0.0
  3
*D4
  1

  0
LINE
  5
107
330
106
100
AcDbEntity
  8
1
  6
Continuous
 62
     2
100
AcDbLine
 10
-14.70569381905312
 20
-64.7153573748126
 30
0.0
 11
10.29430618094688
 21
-64.7153573748126
 31
0.0
  0
LINE
  5
108
330
106
100
AcDbEntity
  8
1
  6
Continuous
 62
     2
100
AcDbLine
 10
-14.70569381905312
 20
-40.74007003186577
 30
0.0
 11
-14.70569381905312
 21
-66.7153573748126
 31
0.0
  0
LINE
  5
109
330
106
100
AcDbEntity
  8
1
  6
Continuous
 62
     2
100
AcDbLine
 10
10.29430618094688
 20
-16.67283103031977
 30
0.0
 11
10.29430618094688
 21
-66.7153573748126
 31
0.0
  0
SOLID
  5
10A
330
106
100
AcDbEntity
  8
1
 62
     2
100
AcDbTrace
 10
-11.20569381905312
 20
-64.25457363325671
 30
0.0
 11
-11.20569381905312
 21
-65.17614111636848
 31
0.0
 12
-14.70569381905312
 22
-64.7153573748126
 32
0.0
 13
-14.70569381905312
 23
-64.7153573748126
 33
0.0
  0
SOLID
  5
10B
330
106
100
AcDbEntity
  8
1
 62
     2
100
AcDbTrace
 10
6.79430618094688
 20
-65.17614111636848
 30
0.0
 11
6.79430618094688
 21
-64.25457363325671
 31
0.0
 12
10.29430618094688
 22
-64.7153573748126
 32
0.0
 13
10.29430618094688
 23
-64.7153573748126
 33
0.0
  0
MTEXT
  5
10C
330
106
100
AcDbEntity
  8
1
 62
     2
100
AcDbMText
 10
-4.68046298726387
 20
-62.7153573748126
 30
0.0
 40
3.5
 41
0.0
 71
     7
 72
     1
  1
25
  7
CONVERTER_11
 11
0.9999999999970621
 21
2.424068405545307E-6
 31
0.0
 73
     1
 44
0.60024009603842
  0
ENDBLK
  5
10E
330
106
100
AcDbEntity
  8
0
100
AcDbBlockEnd
  0
BLOCK
  5
119
330
111
100
AcDbEntity
  8
0
100
AcDbBlockBegin
  2
*D5
 70
     1
 71
     0
 10
0.0
 20
0.0
 30
0.0
  3
*D5
  1

  0
LINE
  5
112
330
111
100
AcDbEntity
  8
1
  6
Continuous
 62
     2
100
AcDbLine
 10
-2.70569381905312
 20
-54.6582126451499
 30
0.0
 11
10.29430618094688
 21
-54.6582126451499
 31
0.0
  0
LINE
  5
113
330
111
100
AcDbEntity
  8
1
  6
Continuous
 62
     2
100
AcDbLine
 10
-2.70569381905312
 20
-34.67283103031977
 30
0.0
 11
-2.70569381905312
 21
-37.7012360110177
 31
0.0
  0
LINE
  5
114
330
111
100
AcDbEntity
  8
1
  6
Continuous
 62
     2
100
AcDbLine
 10
-2.70569381905312
 20
-47.0834982496411
 30
0.0
 11
-2.70569381905312
 21
-56.6582126451499
 31
0.0
  0
LINE
  5
115
330
111
100
AcDbEntity
  8
1
  6
Continuous
 62
     2
100
AcDbLine
 10
10.29430618094688
 20
-16.67283103031977
 30
0.0
 11
10.29430618094688
 21
-56.6582126451499
 31
0.0
  0
SOLID
  5
116
330
111
100
AcDbEntity
  8
1
 62
     2
100
AcDbTrace
 10
0.79430618094688
 20
-54.19742890359402
 30
0.0
 11
0.79430618094688
 21
-55.11899638670579
 31
0.0
 12
-2.70569381905312
 22
-54.6582126451499
 32
0.0
 13
-2.70569381905312
 23
-54.6582126451499
 33
0.0
  0
SOLID
  5
117
330
111
100
AcDbEntity
  8
1
 62
     2
100
AcDbTrace
 10
6.79430618094688
 20
-55.11899638670579
 30
0.0
 11
6.79430618094688
 21
-54.19742890359402
 31
0.0
 12
10.29430618094688
 22
-54.6582126451499
 32
0.0
 13
10.29430618094688
 23
-54.6582126451499
 33
0.0
  0
MTEXT
  5
118
330
111
100
AcDbEntity
  8
1
 62
     2
100
AcDbMText
 10
0.51491576555169
 20
-52.6582126451499
 30
0.0
 40
3.5
 41
0.0
 71
     7
 72
     1
  1
13
  7
CONVERTER_11
 11
0.9999999999970621
 21
2.424068405545307E-6
 31
0.0
 73
     1
 44
0.60024009603842
  0
ENDBLK
  5
11A
330
111
100
AcDbEntity
  8
0
100
AcDbBlockEnd
  0
BLOCK
  5
124
330
11D
100
AcDbEntity
  8
0
100
AcDbBlockBegin
  2
*D6
 70
     1
 71
     0
 10
0.0
 20
0.0
 30
0.0
  3
*D6
  1

  0
LINE
  5
11E
330
11D
100
AcDbEntity
  8
1
  6
Continuous
 62
     2
100
AcDbLine
 10
88.476006418971
 20
-16.67283103031977
 30
0.0
 11
88.476006418971
 21
5.82716896968023
 31
0.0
  0
LINE
  5
11F
330
11D
100
AcDbEntity
  8
1
  6
Continuous
 62
     2
100
AcDbLine
 10
12.29430618094688
 20
-16.67283103031977
 30
0.0
 11
90.476006418971
 21
-16.67283103031977
 31
0.0
  0
LINE
  5
120
330
11D
100
AcDbEntity
  8
1
  6
Continuous
 62
     2
100
AcDbLine
 10
21.79430618094688
 20
5.82716896968023
 30
0.0
 11
90.476006418971
 21
5.82716896968023
 31
0.0
  0
SOLID
  5
121
330
11D
100
AcDbEntity
  8
1
 62
     2
100
AcDbTrace
 10
88.93679016052688
 20
2.32716896968023
 30
0.0
 11
88.01522267741511
 21
2.32716896968023
 31
0.0
 12
88.476006418971
 22
5.82716896968023
 32
0.0
 13
88.476006418971
 23
5.82716896968023
 33
0.0
  0
SOLID
  5
122
330
11D
100
AcDbEntity
  8
1
 62
     2
100
AcDbTrace
 10
88.01522267741511
 20
-13.17283103031977
 30
0.0
 11
88.93679016052688
 21
-13.17283103031977
 31
0.0
 12
88.476006418971
 22
-16.67283103031977
 32
0.0
 13
88.476006418971
 23
-16.67283103031977
 33
0.0
  0
MTEXT
  5
123
330
11D
100
AcDbEntity
  8
1
 62
     2
100
AcDbMText
 10
86.476006418971
 20
-8.97600862828275
 30
0.0
 40
3.5
 41
0.0
 71
     7
 72
     1
  1
22.5
  7
CONVERTER_11
 11
0.0
 21
1.0
 31
0.0
 73
     1
 44
0.60024009603842
  0
ENDBLK
  5
125
330
11D
100
AcDbEntity
  8
0
100
AcDbBlockEnd
  0
BLOCK
  5
131
330
128
100
AcDbEntity
  8
0
100
AcDbBlockBegin
  2
*D7
 70
     1
 71
     0
 10
0.0
 20
0.0
 30
0.0
  3
*D7
  1

  0
LINE
  5
129
330
128
100
AcDbEntity
  8
1
  6
Continuous
 62
     2
100
AcDbLine
 10
-7.20569381905312
 20
51.05002562780024
 30
0.0
 11
-0.20569381905312
 21
51.05002562780024
 31
0.0
  0
LINE
  5
12A
330
128
100
AcDbEntity
  8
1
  6
Continuous
 62
     2
100
AcDbLine
 10
-14.70569381905312
 20
51.05002562780024
 30
0.0
 11
-7.20569381905312
 21
51.05002562780024
 31
0.0
  0
LINE
  5
12B
330
128
100
AcDbEntity
  8
1
  6
Continuous
 62
     2
100
AcDbLine
 10
-21.70569381905312
 20
51.05002562780024
 30
0.0
 11
-14.70569381905312
 21
51.05002562780024
 31
0.0
  0
LINE
  5
12C
330
128
100
AcDbEntity
  8
1
  6
Continuous
 62
     2
100
AcDbLine
 10
-14.70569381905312
 20
-17.13084936295976
 30
0.0
 11
-14.70569381905312
 21
53.05002562780024
 31
0.0
  0
LINE
  5
12D
330
128
100
AcDbEntity
  8
1
  6
Continuous
 62
     2
100
AcDbLine
 10
-7.20569381905312
 20
11.57716896969035
 30
0.0
 11
-7.20569381905312
 21
53.05002562780024
 31
0.0
  0
SOLID
  5
12E
330
128
100
AcDbEntity
  8
1
 62
     2
100
AcDbTrace
 10
-18.20569381905312
 20
50.58924188624435
 30
0.0
 11
-18.20569381905312
 21
51.51080936935612
 31
0.0
 12
-14.70569381905312
 22
51.05002562780024
 32
0.0
 13
-14.70569381905312
 23
51.05002562780024
 33
0.0
  0
SOLID
  5
12F
330
128
100
AcDbEntity
  8
1
 62
     2
100
AcDbTrace
 10
-3.70569381905312
 20
51.51080936935612
 30
0.0
 11
-3.70569381905312
 21
50.58924188624435
 31
0.0
 12
-7.20569381905312
 22
51.05002562780024
 32
0.0
 13
-7.20569381905312
 23
51.05002562780024
 33
0.0
  0
MTEXT
  5
130
330
128
100
AcDbEntity
  8
1
 62
     2
100
AcDbMText
 10
-14.51491684540813
 20
53.05002562780024
 30
0.0
 40
3.5
 41
0.0
 71
     7
 72
     1
  1
7.5
  7
CONVERTER_11
 11
0.9999999999970621
 21
2.424068405545307E-6
 31
0.0
 73
     1
 44
0.60024009603842
  0
ENDBLK
  5
132
330
128
100
AcDbEntity
  8
0
100
AcDbBlockEnd
  0
BLOCK
  5
13C
330
135
100
AcDbEntity
  8
0
100
AcDbBlockBegin
  2
*D8
 70
     1
 71
     0
 10
0.0
 20
0.0
 30
0.0
  3
*D8
  1

  0
LINE
  5
136
330
135
100
AcDbEntity
  8
1
  6
Continuous
 62
     2
100
AcDbLine
 10
-49.57687704921
 20
-28.17283103031977
 30
0.0
 11
-49.57687704921
 21
-15.92283103031977
 31
0.0
  0
LINE
  5
137
330
135
100
AcDbEntity
  8
1
  6
Continuous
 62
     2
100
AcDbLine
 10
-26.54260463133
 20
-28.17283103031977
 30
0.0
 11
-51.57687704921
 21
-28.17283103031977
 31
0.0
  0
LINE
  5
138
330
135
100
AcDbEntity
  8
1
  6
Continuous
 62
     2
100
AcDbLine
 10
-42.70569381905301
 20
-15.92283103031977
 30
0.0
 11
-51.57687704921
 21
-15.92283103031977
 31
0.0
  0
SOLID
  5
139
330
135
100
AcDbEntity
  8
1
 62
     2
100
AcDbTrace
 10
-50.03766079076588
 20
-24.67283103031977
 30
0.0
 11
-49.11609330765411
 21
-24.67283103031977
 31
0.0
 12
-49.57687704921
 22
-28.17283103031977
 32
0.0
 13
-49.57687704921
 23
-28.17283103031977
 33
0.0
  0
SOLID
  5
13A
330
135
100
AcDbEntity
  8
1
 62
     2
100
AcDbTrace
 10
-49.11609330765411
 20
-19.42283103031977
 30
0.0
 11
-50.03766079076588
 21
-19.42283103031977
 31
0.0
 12
-49.57687704921
 22
-15.92283103031977
 32
0.0
 13
-49.57687704921
 23
-15.92283103031977
 33
0.0
  0
MTEXT
  5
13B
330
135
100
AcDbEntity
  8
1
 62
     2
100
AcDbMText
 10
-51.57687704921
 20
-23.47631666197376
 30
0.0
 40
3.5
 41
0.0
 71
     7
 72
     1
  1
12
  7
CONVERTER_11
 11
0.0
 21
1.0
 31
0.0
 73
     1
 44
0.60024009603842
  0
ENDBLK
  5
13D
330
135
100
AcDbEntity
  8
0
100
AcDbBlockEnd
  0
BLOCK
  5
147
330
140
100
AcDbEntity
  8
0
100
AcDbBlockBegin
  2
*D9
 70
     1
 71
     0
 10
0.0
 20
0.0
 30
0.0
  3
*D9
  1

  0
LINE
  5
141
330
140
100
AcDbEntity
  8
1
  6
Continuous
 62
     2
100
AcDbLine
 10
-57.61500677956713
 20
-28.17283103031976
 30
0.0
 11
-57.61500677956713
 21
11.57716896969035
 31
0.0
  0
LINE
  5
142
330
140
100
AcDbEntity
  8
1
  6
Continuous
 62
     2
100
AcDbLine
 10
-7.20569381905313
 20
11.57716896969035
 30
0.0
 11
-59.61500677956713
 21
11.57716896969035
 31
0.0
  0
LINE
  5
143
330
140
100
AcDbEntity
  8
1
  6
Continuous
 62
     2
100
AcDbLine
 10
-26.54260463133011
 20
-28.17283103031976
 30
0.0
 11
-59.61500677956713
 21
-28.17283103031976
 31
0.0
  0
SOLID
  5
144
330
140
100
AcDbEntity
  8
1
 62
     2
100
AcDbTrace
 10
-58.07579052112302
 20
-24.67283103031976
 30
0.0
 11
-57.15422303801125
 21
-24.67283103031976
 31
0.0
 12
-57.61500677956713
 22
-28.17283103031976
 32
0.0
 13
-57.61500677956713
 23
-28.17283103031976
 33
0.0
  0
SOLID
  5
145
330
140
100
AcDbEntity
  8
1
 62
     2
100
AcDbTrace
 10
-57.15422303801125
 20
8.07716896969035
 30
0.0
 11
-58.07579052112302
 21
8.07716896969035
 31
0.0
 12
-57.61500677956713
 22
11.57716896969035
 32
0.0
 13
-57.61500677956713
 23
11.57716896969035
 33
0.0
  0
MTEXT
  5
146
330
140
100
AcDbEntity
  8
1
 62
     2
100
AcDbMText
 10
-59.61500677956713
 20
-11.75422149955973
 30
0.0
 40
3.5
 41
0.0
 71
     7
 72
     1
  1
39.5
  7
CONVERTER_11
 11
0.0
 21
1.0
 31
0.0
 73
     1
 44
0.60024009603842
  0
ENDBLK
  5
148
330
140
100
AcDbEntity
  8
0
100
AcDbBlockEnd
  0
BLOCK
  5
154
330
14B
100
AcDbEntity
  8
0
100
AcDbBlockBegin
  2
*D10
 70
     1
 71
     0
 10
0.0
 20
0.0
 30
0.0
  3
*D10
  1

  0
LINE
  5
14C
330
14B
100
AcDbEntity
  8
3
  6
Continuous
 62
     2
100
AcDbLine
 10
10.29430618094688
 20
-45.11908546726278
 30
0.0
 11
17.29430618094688
 21
-45.11908546726278
 31
0.0
  0
LINE
  5
14D
330
14B
100
AcDbEntity
  8
3
  6
Continuous
 62
     2
100
AcDbLine
 10
6.79430618094688
 20
-45.11908546726278
 30
0.0
 11
10.29430618094688
 21
-45.11908546726278
 31
0.0
  0
LINE
  5
14E
330
14B
100
AcDbEntity
  8
3
  6
Continuous
 62
     2
100
AcDbLine
 10
-1.73573145474214
 20
-45.11908546726278
 30
0.0
 11
6.79430618094688
 21
-45.11908546726278
 31
0.0
  0
LINE
  5
14F
330
14B
100
AcDbEntity
  8
3
  6
Continuous
 62
     2
100
AcDbLine
 10
6.79430618094688
 20
-15.92283103031977
 30
0.0
 11
6.79430618094688
 21
-47.11908546726278
 31
0.0
  0
LINE
  5
150
330
14B
100
AcDbEntity
  8
3
  6
Continuous
 62
     2
100
AcDbLine
 10
10.29430618094688
 20
-19.27283103031976
 30
0.0
 11
10.29430618094688
 21
-47.11908546726278
 31
0.0
  0
SOLID
  5
151
330
14B
100
AcDbEntity
  8
3
 62
     2
100
AcDbTrace
 10
3.29430618094688
 20
-45.57986920881866
 30
0.0
 11
3.29430618094688
 21
-44.65830172570689
 31
0.0
 12
6.79430618094688
 22
-45.11908546726278
 32
0.0
 13
6.79430618094688
 23
-45.11908546726278
 33
0.0
  0
SOLID
  5
152
330
14B
100
AcDbEntity
  8
3
 62
     2
100
AcDbTrace
 10
13.79430618094688
 20
-44.65830172570689
 30
0.0
 11
13.79430618094688
 21
-45.57986920881866
 31
0.0
 12
10.29430618094688
 22
-45.11908546726278
 32
0.0
 13
10.29430618094688
 23
-45.11908546726278
 33
0.0
  0
MTEXT
  5
153
330
14B
100
AcDbEntity
  8
3
 62
     2
100
AcDbMText
 10
-1.73573145474214
 20
-43.11908546726278
 30
0.0
 40
3.5
 41
0.0
 71
     7
 72
     1
  1
3.5
  7
CONVERTER_11
 11
0.9999999999970621
 21
2.424068405545307E-6
 31
0.0
 73
     1
 44
0.60024009603842
  0
ENDBLK
  5
155
330
14B
100
AcDbEntity
  8
0
100
AcDbBlockEnd
  0
BLOCK
  5
15F
330
158
100
AcDbEntity
  8
0
100
AcDbBlockBegin
  2
*D11
 70
     1
 71
     0
 10
0.0
 20
0.0
 30
0.0
  3
*D11
  1

  0
LINE
  5
159
330
158
100
AcDbEntity
  8
1
  6
Continuous
 62
     2
100
AcDbLine
 10
96.62399297090587
 20
-24.17283103031977
 30
0.0
 11
96.62399297090587
 21
5.82716896968023
 31
0.0
  0
LINE
  5
15A
330
158
100
AcDbEntity
  8
1
  6
Continuous
 62
     2
100
AcDbLine
 10
21.79430618094688
 20
-24.17283103031977
 30
0.0
 11
98.62399297090587
 21
-24.17283103031977
 31
0.0
  0
LINE
  5
15B
330
158
100
AcDbEntity
  8
1
  6
Continuous
 62
     2
100
AcDbLine
 10
21.79430618094688
 20
5.82716896968023
 30
0.0
 11
98.62399297090587
 21
5.82716896968023
 31
0.0
  0
SOLID
  5
15C
330
158
100
AcDbEntity
  8
1
 62
     2
100
AcDbTrace
 10
97.08477671246176
 20
2.32716896968023
 30
0.0
 11
96.16320922934999
 21
2.32716896968023
 31
0.0
 12
96.62399297090587
 22
5.82716896968023
 32
0.0
 13
96.62399297090587
 23
5.82716896968023
 33
0.0
  0
SOLID
  5
15D
330
158
100
AcDbEntity
  8
1
 62
     2
100
AcDbTrace
 10
96.16320922934999
 20
-20.67283103031977
 30
0.0
 11
97.08477671246176
 21
-20.67283103031977
 31
0.0
 12
96.62399297090587
 22
-24.17283103031977
 32
0.0
 13
96.62399297090587
 23
-24.17283103031977
 33
0.0
  0
MTEXT
  5
15E
330
158
100
AcDbEntity
  8
1
 62
     2
100
AcDbMText
 10
94.62399297090587
 20
-11.7374318100474
 30
0.0
 40
3.5
 41
0.0
 71
     7
 72
     1
  1
30
  7
CONVERTER_11
 11
0.0
 21
1.0
 31
0.0
 73
     1
 44
0.60024009603842
  0
ENDBLK
  5
160
330
158
100
AcDbEntity
  8
0
100
AcDbBlockEnd
  0
ENDSEC
  0
SECTION
  2
ENTITIES
  0
POINT
  5
33
330
1F
100
AcDbEntity
  8
1
 62
     3
 60
     1
100
AcDbPoint
 10
6.79430618094688
 20
13.07716896968023
 30
0.0
  0
POINT
  5
34
330
1F
100
AcDbEntity
  8
1
 62
     3
 60
     1
100
AcDbPoint
 10
3.79430618094688
 20
13.07716896968023
 30
0.0
  0
POINT
  5
35
330
1F
100
AcDbEntity
  8
1
 62
     3
 60
     1
100
AcDbPoint
 10
-17.20569381905312
 20
13.07716896968023
 30
0.0
  0
POINT
  5
36
330
1F
100
AcDbEntity
  8
1
 62
     3
 60
     1
100
AcDbPoint
 10
-8.8253483789962
 20
-25.40307697885547
 30
0.0
  0
POINT
  5
37
330
1F
100
AcDbEntity
  8
1
 62
     3
 60
     1
100
AcDbPoint
 10
-5.6590085266579
 20
-23.91167095114394
 30
0.0
  0
POINT
  5
38
330
1F
100
AcDbEntity
  8
1
 62
     3
 60
     1
100
AcDbPoint
 10
-12.98830013358003
 20
-21.90381524400225
 30
0.0
  0
POINT
  5
39
330
1F
100
AcDbEntity
  8
1
 62
     3
 60
     1
100
AcDbPoint
 10
-12.29222386212224
 20
-18.46554618527136
 30
0.0
  0
POINT
  5
3A
330
1F
100
AcDbEntity
  8
1
 62
     3
 60
     1
100
AcDbPoint
 10
-14.70569381905312
 20
-28.17283103031977
 30
0.0
  0
LINE
  5
3B
330
1F
100
AcDbEntity
  8
1
  6
Continuous
 62
     7
100
AcDbLine
 10
6.79430618094688
 20
13.07716896968023
 30
0.0
 11
6.79430618094688
 21
10.89742678218002
 31
0.0
  0
LINE
  5
3C
330
1F
100
AcDbEntity
  8
1
  6
Continuous
 62
     7
100
AcDbLine
 10
3.79430618094688
 20
13.07716896968023
 30
0.0
 11
6.79430618094688
 21
13.07716896968023
 31
0.0
  0
LINE
  5
3D
330
1F
100
AcDbEntity
  8
1
  6
Continuous
 62
     7
100
AcDbLine
 10
3.79430618094688
 20
13.07716896968023
 30
0.0
 11
3.79430618094688
 21
-12.92283103031977
 31
0.0
  0
LINE
  5
3E
330
1F
100
AcDbEntity
  8
1
  6
Continuous
 62
     7
100
AcDbLine
 10
-17.20569381905312
 20
13.07716896968023
 30
0.0
 11
-17.20569381905312
 21
-10.92283103031977
 31
0.0
  0
LINE
  5
3F
330
1F
100
AcDbEntity
  8
1
  6
Continuous
 62
     7
100
AcDbLine
 10
-17.20569381905312
 20
13.07716896968023
 30
0.0
 11
3.79430618094688
 21
13.07716896968023
 31
0.0
  0
LINE
  5
40
330
1F
100
AcDbEntity
  8
1
  6
Continuous
 62
     7
100
AcDbLine
 10
-7.36494188700413
 20
-19.81537257573638
 30
0.0
 11
-7.20802731498799
 21
-18.19689954222437
 31
0.0
  0
LINE
  5
41
330
1F
100
AcDbEntity
  8
1
  6
Continuous
 62
     7
100
AcDbLine
 10
-8.8253483789962
 20
-25.40307697885547
 30
0.0
 11
-5.6590085266579
 21
-23.91167095114394
 31
0.0
  0
LINE
  5
42
330
1F
100
AcDbEntity
  8
1
  6
Continuous
 62
     7
100
AcDbLine
 10
-5.6590085266579
 20
-23.91167095114394
 30
0.0
 11
-5.22456366923615
 21
-24.03068689882281
 31
0.0
  0
LINE
  5
43
330
1F
100
AcDbEntity
  8
1
  6
Continuous
 62
     7
100
AcDbLine
 10
-12.98830013358003
 20
-21.90381524400225
 30
0.0
 11
-5.6590085266579
 21
-23.91167095114394
 31
0.0
  0
LINE
  5
44
330
1F
100
AcDbEntity
  8
1
  6
Continuous
 62
     7
100
AcDbLine
 10
-4.16770601663734
 20
-24.17283103031977
 30
0.0
 11
-2.70569381905312
 21
-24.17283103031977
 31
0.0
  0
LINE
  5
45
330
1F
100
AcDbEntity
  8
1
  6
Continuous
 62
     7
100
AcDbLine
 10
-4.16770601663735
 20
-20.67283103031977
 30
0.0
 11
-3.93166333564864
 21
-20.67283103031977
 31
0.0
  0
LINE
  5
46
330
1F
100
AcDbEntity
  8
1
  6
Continuous
 62
     7
100
AcDbLine
 10
-12.29222386212224
 20
-18.46554618527136
 30
0.0
 11
-4.2998132232122
 21
-20.65506301388265
 31
0.0
  0
LINE
  5
47
330
1F
100
AcDbEntity
  8
1
  6
DOT_CENTER
 62
     2
100
AcDbLine
 10
-8.20569381905304
 20
-28.17283103031977
 30
0.0
 11
-3.31984050270199
 21
-28.17283103031977
 31
0.0
  0
LINE
  5
48
330
1F
100
AcDbEntity
  8
1
  6
Continuous
 62
     7
100
AcDbLine
 10
18.29430618094688
 20
-6.92283103031977
 30
0.0
 11
18.29430618094688
 21
3.07716896968023
 31
0.0
  0
LINE
  5
49
330
1F
100
AcDbEntity
  8
1
  6
DASHED
 62
     2
100
AcDbLine
 10
18.59430618094688
 20
-6.92283103031977
 30
0.0
 11
18.29430618094688
 21
-6.92283103031977
 31
0.0
  0
LINE
  5
4A
330
1F
100
AcDbEntity
  8
1
  6
Continuous
 62
     7
100
AcDbLine
 10
18.29430618094688
 20
-17.42283103031977
 30
0.0
 11
18.29430618094688
 21
-15.67283103031977
 31
0.0
  0
LINE
  5
4B
330
1F
100
AcDbEntity
  8
1
  6
DASHED
 62
     2
100
AcDbLine
 10
18.59430618094688
 20
-17.42283103031977
 30
0.0
 11
18.29430618094688
 21
-17.42283103031977
 31
0.0
  0
LINE
  5
4C
330
1F
100
AcDbEntity
  8
1
  6
DASHED
 62
     2
100
AcDbLine
 10
18.59430618094688
 20
-17.42283103031977
 30
0.0
 11
18.59430618094688
 21
-6.92283103031977
 31
0.0
  0
LINE
  5
4D
330
1F
100
AcDbEntity
  8
1
  6
DASHED
 62
     2
100
AcDbLine
 10
20.84430618094688
 20
-15.17283103031977
 30
0.0
 11
20.84430618094688
 21
-9.17283103031977
 31
0.0
  0
LINE
  5
4E
330
1F
100
AcDbEntity
  8
1
  6
DASHED
 62
     2
100
AcDbLine
 10
18.59430618094688
 20
-6.92283103031977
 30
0.0
 11
18.59430618094688
 21
3.07716896968023
 31
0.0
  0
LINE
  5
4F
330
1F
100
AcDbEntity
  8
1
  6
DASHED
 62
     2
100
AcDbLine
 10
20.84430618094688
 20
-9.17283103031977
 30
0.0
 11
18.59430618094688
 21
-6.92283103031977
 31
0.0
  0
LINE
  5
50
330
1F
100
AcDbEntity
  8
1
  6
Continuous
 62
     7
100
AcDbLine
 10
21.79430618094688
 20
-9.17283103031977
 30
0.0
 11
21.79430618094688
 21
-5.17283103031977
 31
0.0
  0
LINE
  5
51
330
1F
100
AcDbEntity
  8
1
  6
DASHED
 62
     2
100
AcDbLine
 10
20.84430618094688
 20
-9.17283103031977
 30
0.0
 11
21.79430618094688
 21
-9.17283103031977
 31
0.0
  0
LINE
  5
52
330
1F
100
AcDbEntity
  8
1
  6
DASHED
 62
     2
100
AcDbLine
 10
21.79430618094688
 20
-9.17283103031977
 30
0.0
 11
20.84430618094688
 21
-9.17283103031977
 31
0.0
  0
LINE
  5
53
330
1F
100
AcDbEntity
  8
1
  6
DASHED
 62
     2
100
AcDbLine
 10
20.84430618094688
 20
-15.17283103031977
 30
0.0
 11
18.59430618094688
 21
-17.42283103031977
 31
0.0
  0
LINE
  5
54
330
1F
100
AcDbEntity
  8
1
  6
DASHED
 62
     2
100
AcDbLine
 10
21.79430618094688
 20
-15.17283103031977
 30
0.0
 11
20.84430618094688
 21
-15.17283103031977
 31
0.0
  0
LINE
  5
55
330
1F
100
AcDbEntity
  8
1
  6
DOT_CENTER
 62
     2
100
AcDbLine
 10
16.79430618094688
 20
-12.17283103031977
 30
0.0
 11
33.29430618094688
 21
-12.17283103031977
 31
0.0
  0
LINE
  5
56
330
1F
100
AcDbEntity
  8
1
  6
Continuous
 62
     7
100
AcDbLine
 10
18.29430618094688
 20
3.07716896968023
 30
0.0
 11
18.29430618094688
 21
5.82716896968023
 31
0.0
  0
LINE
  5
57
330
1F
100
AcDbEntity
  8
1
  6
DASHED
 62
     2
100
AcDbLine
 10
18.59430618094688
 20
3.07716896968023
 30
0.0
 11
18.29430618094688
 21
3.07716896968023
 31
0.0
  0
LINE
  5
58
330
1F
100
AcDbEntity
  8
1
  6
DASHED
 62
     2
100
AcDbLine
 10
18.59430618094688
 20
-7.42283103031977
 30
0.0
 11
18.29430618094688
 21
-7.42283103031977
 31
0.0
  0
LINE
  5
59
330
1F
100
AcDbEntity
  8
1
  6
DASHED
 62
     2
100
AcDbLine
 10
18.59430618094688
 20
-7.42283103031977
 30
0.0
 11
18.59430618094688
 21
-6.92283103031977
 31
0.0
  0
LINE
  5
5A
330
1F
100
AcDbEntity
  8
1
  6
DASHED
 62
     2
100
AcDbLine
 10
20.84430618094688
 20
-5.17283103031977
 30
0.0
 11
20.84430618094688
 21
0.82716896968023
 31
0.0
  0
LINE
  5
5B
330
1F
100
AcDbEntity
  8
1
  6
DASHED
 62
     2
100
AcDbLine
 10
20.84430618094688
 20
0.82716896968023
 30
0.0
 11
18.59430618094688
 21
3.07716896968023
 31
0.0
  0
LINE
  5
5C
330
1F
100
AcDbEntity
  8
1
  6
DASHED
 62
     2
100
AcDbLine
 10
21.79430618094688
 20
0.82716896968023
 30
0.0
 11
20.84430618094688
 21
0.82716896968023
 31
0.0
  0
LINE
  5
5D
330
1F
100
AcDbEntity
  8
1
  6
DASHED
 62
     2
100
AcDbLine
 10
20.84430618094688
 20
-5.17283103031977
 30
0.0
 11
18.59430618094688
 21
-7.42283103031977
 31
0.0
  0
LINE
  5
5E
330
1F
100
AcDbEntity
  8
1
  6
DASHED
 62
     2
100
AcDbLine
 10
21.79430618094688
 20
-5.17283103031977
 30
0.0
 11
20.84430618094688
 21
-5.17283103031977
 31
0.0
  0
LINE
  5
5F
330
1F
100
AcDbEntity
  8
1
  6
DOT_CENTER
 62
     2
100
AcDbLine
 10
16.79430618094688
 20
-2.17283103031977
 30
0.0
 11
33.29430618094688
 21
-2.17283103031977
 31
0.0
  0
LINE
  5
60
330
1F
100
AcDbEntity
  8
1
  6
Continuous
 62
     7
100
AcDbLine
 10
-7.20569381905312
 20
-12.92283103031977
 30
0.0
 11
-10.20569381905312
 21
-12.92283103031977
 31
0.0
  0
LINE
  5
61
330
1F
100
AcDbEntity
  8
1
  6
DASHED
 62
     2
100
AcDbLine
 10
-2.20569381905312
 20
-21.67283103031977
 30
0.0
 11
-2.20569381905312
 21
-20.67283103031977
 31
0.0
  0
LINE
  5
62
330
1F
100
AcDbEntity
  8
1
  6
Continuous
 62
     7
100
AcDbLine
 10
18.29430618094688
 20
-20.17283103031977
 30
0.0
 11
19.29430618094688
 21
-20.17283103031977
 31
0.0
  0
LINE
  5
63
330
1F
100
AcDbEntity
  8
1
  6
Continuous
 62
     7
100
AcDbLine
 10
21.79430618094688
 20
-20.17283103031977
 30
0.0
 11
19.29430618094688
 21
-20.17283103031977
 31
0.0
  0
LINE
  5
64
330
1F
100
AcDbEntity
  8
1
  6
Continuous
 62
     7
100
AcDbLine
 10
19.29430618094688
 20
-20.17283103031977
 30
0.0
 11
19.29430618094688
 21
-20.67283103031977
 31
0.0
  0
LINE
  5
65
330
1F
100
AcDbEntity
  8
1
  6
Continuous
 62
     7
100
AcDbLine
 10
18.29430618094688
 20
-21.67283103031977
 30
0.0
 11
-2.20569381905312
 21
-21.67283103031977
 31
0.0
  0
LINE
  5
66
330
1F
100
AcDbEntity
  8
1
  6
Continuous
 62
     7
100
AcDbLine
 10
-2.20569381905312
 20
-21.67283103031977
 30
0.0
 11
-2.20569381905312
 21
-24.17283103031977
 31
0.0
  0
LINE
  5
67
330
1F
100
AcDbEntity
  8
1
  6
DOT_CENTER
 62
     2
100
AcDbLine
 10
33.29430618094688
 20
-4.17283103031977
 30
0.0
 11
14.79430618094688
 21
-4.17283103031977
 31
0.0
  0
LINE
  5
68
330
1F
100
AcDbEntity
  8
1
  6
DOT_CENTER
 62
     2
100
AcDbLine
 10
8.79430618094688
 20
-4.17283103031977
 30
0.0
 11
14.79430618094688
 21
-4.17283103031977
 31
0.0
  0
LINE
  5
69
330
1F
100
AcDbEntity
  8
1
  6
Continuous
 62
     7
100
AcDbLine
 10
21.79430618094688
 20
-20.17283103031977
 30
0.0
 11
21.79430618094688
 21
-15.17283103031977
 31
0.0
  0
LINE
  5
6A
330
1F
100
AcDbEntity
  8
1
  6
Continuous
 62
     7
100
AcDbLine
 10
18.29430618094688
 20
-7.42283103031977
 30
0.0
 11
18.29430618094688
 21
-6.92283103031977
 31
0.0
  0
LINE
  5
6B
330
1F
100
AcDbEntity
  8
1
  6
Continuous
 62
     7
100
AcDbLine
 10
18.29430618094688
 20
-15.67283103031977
 30
0.0
 11
18.29430618094688
 21
-7.42283103031977
 31
0.0
  0
LINE
  5
6C
330
1F
100
AcDbEntity
  8
1
  6
Continuous
 62
     7
100
AcDbLine
 10
21.79430618094688
 20
-15.17283103031977
 30
0.0
 11
21.79430618094688
 21
-9.17283103031977
 31
0.0
  0
LINE
  5
6D
330
1F
100
AcDbEntity
  8
1
  6
Continuous
 62
     7
100
AcDbLine
 10
21.79430618094688
 20
-5.17283103031977
 30
0.0
 11
21.79430618094688
 21
0.82716896968023
 31
0.0
  0
LINE
  5
6E
330
1F
100
AcDbEntity
  8
1
  6
Continuous
 62
     7
100
AcDbLine
 10
-2.20569381905312
 20
-20.67283103031977
 30
0.0
 11
2.70127539295896
 21
-20.67283103031977
 31
0.0
  0
LINE
  5
6F
330
1F
100
AcDbEntity
  8
1
  6
Continuous
 62
     7
100
AcDbLine
 10
18.29430618094688
 20
-19.67283103031977
 30
0.0
 11
18.29430618094688
 21
-17.42283103031977
 31
0.0
  0
LINE
  5
70
330
1F
100
AcDbEntity
  8
1
  6
Continuous
 62
     7
100
AcDbLine
 10
-2.20569381905312
 20
-24.17283103031977
 30
0.0
 11
17.79430618094688
 21
-24.17283103031977
 31
0.0
  0
LINE
  5
71
330
1F
100
AcDbEntity
  8
1
  6
Continuous
 62
     7
100
AcDbLine
 10
21.79430618094688
 20
0.82716896968023
 30
0.0
 11
21.79430618094688
 21
5.82716896968023
 31
0.0
  0
LINE
  5
72
330
1F
100
AcDbEntity
  8
1
  6
Continuous
 62
     7
100
AcDbLine
 10
21.79430618094688
 20
5.82716896968023
 30
0.0
 11
18.29430618094688
 21
5.82716896968023
 31
0.0
  0
LINE
  5
73
330
1F
100
AcDbEntity
  8
1
  6
Continuous
 62
     7
100
AcDbLine
 10
18.29430618094688
 20
5.82716896968023
 30
0.0
 11
12.29430618094688
 21
5.82716896968023
 31
0.0
  0
LINE
  5
74
330
1F
100
AcDbEntity
  8
1
  6
Continuous
 62
     7
100
AcDbLine
 10
12.29430618094688
 20
-15.67283103031977
 30
0.0
 11
12.29430618094688
 21
5.82716896968023
 31
0.0
  0
LINE
  5
75
330
1F
100
AcDbEntity
  8
1
  6
Continuous
 62
     7
100
AcDbLine
 10
10.29430618094688
 20
5.82716896968023
 30
0.0
 11
10.29430618094688
 21
-16.67283103031977
 31
0.0
  0
LINE
  5
76
330
1F
100
AcDbEntity
  8
1
  6
Continuous
 62
     7
100
AcDbLine
 10
10.29430618094688
 20
-16.67283103031977
 30
0.0
 11
12.29430618094688
 21
-16.67283103031977
 31
0.0
  0
LINE
  5
77
330
1F
100
AcDbEntity
  8
1
  6
Continuous
 62
     7
100
AcDbLine
 10
12.29430618094688
 20
-16.67283103031977
 30
0.0
 11
12.29430618094688
 21
-15.67283103031977
 31
0.0
  0
LINE
  5
78
330
1F
100
AcDbEntity
  8
1
  6
Continuous
 62
     7
100
AcDbLine
 10
12.29430618094688
 20
-15.67283103031977
 30
0.0
 11
18.29430618094688
 21
-15.67283103031977
 31
0.0
  0
LINE
  5
79
330
1F
100
AcDbEntity
  8
1
  6
Continuous
 62
     7
100
AcDbLine
 10
12.29430618094688
 20
5.82716896968023
 30
0.0
 11
10.29430618094688
 21
5.82716896968023
 31
0.0
  0
LINE
  5
7A
330
1F
100
AcDbEntity
  8
1
  6
DOT_CENTER
 62
     2
100
AcDbLine
 10
-26.54260463132999
 20
-28.17283103031977
 30
0.0
 11
-8.20569381905304
 21
-28.17283103031977
 31
0.0
  0
LINE
  5
7B
330
1F
100
AcDbEntity
  8
1
  6
DOT_CENTER
 62
     2
100
AcDbLine
 10
-14.70569381905312
 20
-40.74007003186577
 30
0.0
 11
-14.70569381905312
 21
-17.13084936295976
 31
0.0
  0
LINE
  5
7C
330
1F
100
AcDbEntity
  8
1
  6
Continuous
 62
     7
100
AcDbLine
 10
10.29430618094688
 20
5.82716896968023
 30
0.0
 11
10.29430618094688
 21
9.07716896968023
 31
0.0
  0
LINE
  5
7D
330
1F
100
AcDbEntity
  8
1
  6
Continuous
 62
     7
100
AcDbLine
 10
10.29430618094688
 20
9.07716896968023
 30
0.0
 11
76.40287946404601
 21
9.07716896968023
 31
0.0
  0
LINE
  5
7E
330
1F
100
AcDbEntity
  8
1
  6
Continuous
 62
     7
100
AcDbLine
 10
-0.20569381905312
 20
-12.92283103031977
 30
0.0
 11
-3.70569381905312
 21
-12.92283103031977
 31
0.0
  0
LINE
  5
7F
330
1F
100
AcDbEntity
  8
1
  6
Continuous
 62
     7
100
AcDbLine
 10
-0.20569381905312
 20
-15.92283103031977
 30
0.0
 11
-3.70569381905312
 21
-15.92283103031977
 31
0.0
  0
LINE
  5
80
330
1F
100
AcDbEntity
  8
1
  6
Continuous
 62
     7
100
AcDbLine
 10
-0.20569381905312
 20
-12.92283103031977
 30
0.0
 11
-0.20569381905312
 21
-15.92283103031977
 31
0.0
  0
LINE
  5
81
330
1F
100
AcDbEntity
  8
1
  6
Continuous
 62
     7
100
AcDbLine
 10
-10.20569381905312
 20
-12.92283103031977
 30
0.0
 11
-17.20569381905312
 21
-12.92283103031977
 31
0.0
  0
LINE
  5
82
330
1F
100
AcDbEntity
  8
1
  6
Continuous
 62
     7
100
AcDbLine
 10
-10.20569381905312
 20
-15.92283103031977
 30
0.0
 11
-7.20569381905312
 21
-15.92283103031977
 31
0.0
  0
LINE
  5
83
330
1F
100
AcDbEntity
  8
1
  6
Continuous
 62
     7
100
AcDbLine
 10
-10.20569381905312
 20
-12.92283103031977
 30
0.0
 11
-10.20569381905312
 21
-15.92283103031977
 31
0.0
  0
LINE
  5
84
330
1F
100
AcDbEntity
  8
1
  6
Continuous
 62
     7
100
AcDbLine
 10
-17.20569381905312
 20
-12.92283103031977
 30
0.0
 11
-17.20569381905312
 21
-15.92283103031977
 31
0.0
  0
LINE
  5
85
330
1F
100
AcDbEntity
  8
1
  6
Continuous
 62
     7
100
AcDbLine
 10
3.79430618094688
 20
-12.92283103031977
 30
0.0
 11
-0.20569381905312
 21
-12.92283103031977
 31
0.0
  0
LINE
  5
86
330
1F
100
AcDbEntity
  8
1
  6
Continuous
 62
     7
100
AcDbLine
 10
-17.20569381905312
 20
-15.92283103031977
 30
0.0
 11
-10.20569381905312
 21
-15.92283103031977
 31
0.0
  0
LINE
  5
87
330
1F
100
AcDbEntity
  8
1
  6
Continuous
 62
     7
100
AcDbLine
 10
-17.20569381905312
 20
-10.92283103031977
 30
0.0
 11
-17.20569381905312
 21
-12.92283103031977
 31
0.0
  0
LINE
  5
88
330
1F
100
AcDbEntity
  8
1
  6
Continuous
 62
     7
100
AcDbLine
 10
6.79430618094688
 20
10.89742678218002
 30
0.0
 11
6.79430618094688
 21
-15.92283103031977
 31
0.0
  0
LINE
  5
89
330
1F
100
AcDbEntity
  8
1
  6
Continuous
 62
     7
100
AcDbLine
 10
-42.70569381905312
 20
-15.92283103031977
 30
0.0
 11
-17.20569381905312
 21
-15.92283103031977
 31
0.0
  0
LINE
  5
8A
330
1F
100
AcDbEntity
  8
1
  6
Continuous
 62
     7
100
AcDbLine
 10
-3.70569381905312
 20
-15.92283103031977
 30
0.0
 11
-3.70569381905312
 21
11.57716896968882
 31
0.0
  0
LINE
  5
8B
330
1F
100
AcDbEntity
  8
1
  6
Continuous
 62
     7
100
AcDbLine
 10
6.79430618094688
 20
-15.92283103031977
 30
0.0
 11
-0.20569381905312
 21
-15.92283103031977
 31
0.0
  0
LINE
  5
8C
330
1F
100
AcDbEntity
  8
1
  6
Continuous
 62
     7
100
AcDbLine
 10
19.7943061809471
 20
14.07716896968023
 30
0.0
 11
19.79430618094688
 21
40.07716896968023
 31
0.0
  0
LINE
  5
8D
330
1F
100
AcDbEntity
  8
1
  6
Continuous
 62
     7
100
AcDbLine
 10
6.79430618094688
 20
14.07716896968023
 30
0.0
 11
19.7943061809471
 21
14.07716896968023
 31
0.0
  0
LINE
  5
8E
330
1F
100
AcDbEntity
  8
1
  6
Continuous
 62
     7
100
AcDbLine
 10
-7.20569381905312
 20
11.57716896969035
 30
0.0
 11
-3.70569381905312
 21
11.57716896968882
 31
0.0
  0
LINE
  5
8F
330
1F
100
AcDbEntity
  8
1
  6
Continuous
 62
     7
100
AcDbLine
 10
-7.20569381905312
 20
11.57716896969035
 30
0.0
 11
-7.20569381905312
 21
-15.92283103031977
 31
0.0
  0
LINE
  5
90
330
1F
100
AcDbEntity
  8
1
  6
Continuous
 62
     7
100
AcDbLine
 10
6.79430618094688
 20
14.07716896968023
 30
0.0
 11
6.79430618094688
 21
13.07716896968023
 31
0.0
  0
LINE
  5
91
330
1F
100
AcDbEntity
  8
1
  6
DOT_CENTER
 62
     2
100
AcDbLine
 10
16.79430618094688
 20
-9.17283103031977
 30
0.0
 11
20.54430618094688
 21
-9.17283103031977
 31
0.0
  0
LINE
  5
92
330
1F
100
AcDbEntity
  8
1
  6
PHANTOM
 62
     2
100
AcDbLine
 10
-42.70569381905312
 20
-15.92283103031977
 30
0.0
 11
-42.70569381905312
 21
40.07716896968023
 31
0.0
  0
LINE
  5
93
330
1F
100
AcDbEntity
  8
1
  6
PHANTOM
 62
     2
100
AcDbLine
 10
-42.70569381905312
 20
40.07716896968023
 30
0.0
 11
19.79430618094688
 21
40.07716896968023
 31
0.0
  0
LINE
  5
94
330
1F
100
AcDbEntity
  8
1
  6
PHANTOM
 62
     2
100
AcDbLine
 10
19.79430618094688
 20
40.07716896968023
 30
0.0
 11
22.79922266118501
 21
40.07716896968023
 31
0.0
  0
LINE
  5
95
330
1F
100
AcDbEntity
  8
1
  6
PHANTOM
 62
     2
100
AcDbLine
 10
-42.70569381905312
 20
40.07716896968023
 30
0.0
 11
-42.70569381905312
 21
44.10761098898823
 31
0.0
  0
LINE
  5
96
330
1F
100
AcDbEntity
  8
1
  6
PHANTOM
 62
     2
100
AcDbLine
 10
-42.70569381905312
 20
-15.92283103031977
 30
0.0
 11
-42.70569381905312
 21
-21.31363986498286
 31
0.0
  0
LINE
  5
97
330
1F
100
AcDbEntity
  8
1
  6
PHANTOM
 62
     2
100
AcDbLine
 10
-42.70569381905312
 20
40.07716896968023
 30
0.0
 11
-46.40842814639512
 21
40.07716896968023
 31
0.0
  0
LINE
  5
98
330
1F
100
AcDbEntity
  8
1
  6
Continuous
 62
     7
100
AcDbLine
 10
-2.70569381905312
 20
-24.17283103031977
 30
0.0
 11
-2.70569381905312
 21
-34.67283103031977
 31
0.0
  0
LINE
  5
99
330
1F
100
AcDbEntity
  8
1
  6
Continuous
 62
     7
100
AcDbLine
 10
2.70127539295896
 20
-20.67283103031977
 30
0.0
 11
17.79430618094688
 21
-20.67283103031977
 31
0.0
  0
LINE
  5
9A
330
1F
100
AcDbEntity
  8
1
  6
Continuous
 62
     7
100
AcDbLine
 10
18.29430618094688
 20
-19.67283103031977
 30
0.0
 11
18.29430618094688
 21
-20.17283103031977
 31
0.0
  0
LINE
  5
9B
330
1F
100
AcDbEntity
  8
1
  6
Continuous
 62
     7
100
AcDbLine
 10
10.29430618094688
 20
-13.92283103031977
 30
0.0
 11
10.29430618094688
 21
-16.42283103031977
 31
0.0
  0
LINE
  5
9C
330
1F
100
AcDbEntity
  8
1
  6
Continuous
 62
     7
100
AcDbLine
 10
10.29430618094688
 20
-13.92283103031977
 30
0.0
 11
9.69430618094697
 21
-13.92283103031977
 31
0.0
  0
LINE
  5
9D
330
1F
100
AcDbEntity
  8
1
  6
Continuous
 62
     7
100
AcDbLine
 10
18.29430618094688
 20
-19.67283103031977
 30
0.0
 11
17.15552211311456
 21
-15.67283103031977
 31
0.0
  0
LINE
  5
9E
330
1F
100
AcDbEntity
  8
1
  6
Continuous
 62
     7
100
AcDbLine
 10
2.70127539295896
 20
-16.92283103031977
 30
0.0
 11
7.93417180102688
 21
-16.92283103031977
 31
0.0
  0
LINE
  5
9F
330
1F
100
AcDbEntity
  8
1
  6
Continuous
 62
     7
100
AcDbLine
 10
8.33417180102697
 20
-16.52283103031973
 30
0.0
 11
8.33417180102697
 21
-16.32283103031976
 31
0.0
  0
LINE
  5
A0
330
1F
100
AcDbEntity
  8
1
  6
Continuous
 62
     7
100
AcDbLine
 10
7.93417180102688
 20
-15.92283103031977
 30
0.0
 11
7.59430618094706
 21
-15.92283103031977
 31
0.0
  0
LINE
  5
A1
330
1F
100
AcDbEntity
  8
1
  6
Continuous
 62
     7
100
AcDbLine
 10
12.99165502265686
 20
-19.17456874645527
 30
0.0
 11
12.29430618094688
 21
-16.67283103031977
 31
0.0
  0
LINE
  5
A2
330
1F
100
AcDbEntity
  8
1
  6
Continuous
 62
     7
100
AcDbLine
 10
14.07376192398237
 20
-19.37635864836076
 30
0.0
 11
13.0144173914743
 21
-15.67283103031977
 31
0.0
  0
LINE
  5
A3
330
1F
100
AcDbEntity
  8
1
  6
Continuous
 62
     7
100
AcDbLine
 10
15.08496975229451
 20
-15.67283103031977
 30
0.0
 11
14.04969357188446
 21
-15.67283103031977
 31
0.0
  0
LINE
  5
A4
330
1F
100
AcDbEntity
  8
1
  6
Continuous
 62
     7
100
AcDbLine
 10
15.05355782109581
 20
-19.16930341227877
 30
0.0
 11
14.04969357188446
 21
-15.67283103031977
 31
0.0
  0
LINE
  5
A5
330
1F
100
AcDbEntity
  8
1
  6
Continuous
 62
     7
100
AcDbLine
 10
16.14431428480248
 20
-19.37635864836076
 30
0.0
 11
15.08496975229451
 21
-15.67283103031977
 31
0.0
  0
LINE
  5
A6
330
1F
100
AcDbEntity
  8
1
  6
Continuous
 62
     7
100
AcDbLine
 10
17.15552211311456
 20
-15.67283103031977
 30
0.0
 11
16.12024593270456
 21
-15.67283103031977
 31
0.0
  0
LINE
  5
A7
330
1F
100
AcDbEntity
  8
1
  6
Continuous
 62
     7
100
AcDbLine
 10
17.12411018191597
 20
-19.16930341227877
 30
0.0
 11
16.12024593270456
 21
-15.67283103031977
 31
0.0
  0
LINE
  5
A8
330
1F
100
AcDbEntity
  8
1
  6
Continuous
 62
     7
100
AcDbLine
 10
16.73773985140036
 20
-19.67283103031977
 30
0.0
 11
16.53068461531831
 21
-19.67283103031977
 31
0.0
  0
LINE
  5
A9
330
1F
100
AcDbEntity
  8
1
  6
Continuous
 62
     7
100
AcDbLine
 10
14.66718749058026
 20
-19.67283103031977
 30
0.0
 11
14.46013225449798
 21
-19.67283103031977
 31
0.0
  0
LINE
  5
AA
330
1F
100
AcDbEntity
  8
1
  6
Continuous
 62
     7
100
AcDbLine
 10
12.60391216512136
 20
-19.67283103031977
 30
0.0
 11
10.69430618094697
 21
-19.67283103031977
 31
0.0
  0
LINE
  5
AB
330
1F
100
AcDbEntity
  8
1
  6
Continuous
 62
     7
100
AcDbLine
 10
10.29430618094688
 20
-19.27283103031977
 30
0.0
 11
10.29430618094688
 21
-16.42283103031977
 31
0.0
  0
LINE
  5
AC
330
1F
100
AcDbEntity
  8
1
  6
Continuous
 62
     7
100
AcDbLine
 10
9.29430618094688
 20
-14.32283103031976
 30
0.0
 11
9.29430618094688
 21
-19.27283103031977
 31
0.0
  0
LINE
  5
AD
330
1F
100
AcDbEntity
  8
1
  6
Continuous
 62
     7
100
AcDbLine
 10
8.89430618094701
 20
-19.67283103031977
 30
0.0
 11
2.70127539295896
 21
-19.67283103031977
 31
0.0
  0
LINE
  5
AE
330
1F
100
AcDbEntity
  8
1
  6
Continuous
 62
     7
100
AcDbLine
 10
7.59430618094706
 20
-15.92283103031977
 30
0.0
 11
2.70127539295896
 21
-15.92283103031977
 31
0.0
  0
LINE
  5
AF
330
1F
100
AcDbEntity
  8
1
  6
Continuous
 62
     7
100
AcDbLine
 10
13.0144173914743
 20
-15.67283103031977
 30
0.0
 11
12.29430618094688
 21
-15.67283103031977
 31
0.0
  0
LINE
  5
B0
330
1F
100
AcDbEntity
  8
1
  6
Continuous
 62
     7
100
AcDbLine
 10
12.29430618094688
 20
-15.67283103031977
 30
0.0
 11
12.29430618094688
 21
-16.67283103031977
 31
0.0
  0
LINE
  5
B1
330
1F
100
AcDbEntity
  8
1
  6
Continuous
 62
     7
100
AcDbLine
 10
12.29430618094688
 20
-16.67283103031977
 30
0.0
 11
12.29430618094688
 21
-15.67283103031977
 31
0.0
  0
LINE
  5
B2
330
1F
100
AcDbEntity
  8
1
  6
Continuous
 62
     7
100
AcDbLine
 10
10.29430618094688
 20
-15.67283103031977
 30
0.0
 11
10.29430618094688
 21
-16.67283103031977
 31
0.0
  0
LINE
  5
B3
330
1F
100
AcDbEntity
  8
1
  6
Continuous
 62
     7
100
AcDbLine
 10
-2.70569381905312
 20
-34.67283103031977
 30
0.0
 11
76.40287946404601
 21
-34.67283103031977
 31
0.0
  0
LINE
  5
B4
330
1F
100
AcDbEntity
  8
1
  6
PHANTOM
 62
     2
100
AcDbLine
 10
76.40287946404601
 20
-34.67283103031977
 30
0.0
 11
76.40287946404601
 21
-37.19899895709377
 31
0.0
  0
LINE
  5
B5
330
1F
100
AcDbEntity
  8
1
  6
PHANTOM
 62
     2
100
AcDbLine
 10
76.40287946404601
 20
9.07716896968023
 30
0.0
 11
76.40287946404601
 21
-34.67283103031977
 31
0.0
  0
LINE
  5
B6
330
1F
100
AcDbEntity
  8
1
  6
PHANTOM
 62
     2
100
AcDbLine
 10
76.40287946404601
 20
12.33724678721214
 30
0.0
 11
76.40287946404601
 21
9.07716896968023
 31
0.0
  0
LINE
  5
B7
330
1F
100
AcDbEntity
  8
1
  6
Continuous
 62
     7
100
AcDbLine
 10
-2.70569381905312
 20
-24.17283103031977
 30
0.0
 11
-2.20569381905312
 21
-24.17283103031977
 31
0.0
  0
LINE
  5
B8
330
1F
100
AcDbEntity
  8
1
  6
Continuous
 62
     7
100
AcDbLine
 10
-3.70569381905312
 20
-15.92283103031977
 30
0.0
 11
-3.70569381905312
 21
-18.14864966417565
 31
0.0
  0
LINE
  5
B9
330
1F
100
AcDbEntity
  8
1
  6
Continuous
 62
     7
100
AcDbLine
 10
-7.20569381905312
 20
-15.92283103031977
 30
0.0
 11
-7.20569381905312
 21
-18.14864966417556
 31
0.0
  0
LINE
  5
BA
330
1F
100
AcDbEntity
  8
1
  6
Continuous
 62
     7
100
AcDbLine
 10
-3.93166333564864
 20
-20.67283103031977
 30
0.0
 11
-3.724361786533
 21
-18.53464868856577
 31
0.0
  0
LINE
  5
BB
330
1F
100
AcDbEntity
  8
1
  6
Continuous
 62
     7
100
AcDbLine
 10
-3.93166333564864
 20
-20.67283103031977
 30
0.0
 11
-2.20569381905312
 21
-20.67283103031977
 31
0.0
  0
LINE
  5
BC
330
1F
100
AcDbEntity
  8
1
  6
Continuous
 62
     7
100
AcDbLine
 10
-4.27099614545443
 20
-24.17283103031977
 30
0.0
 11
-4.752363737753
 21
-29.13782859129486
 31
0.0
  0
LINE
  5
BD
330
1F
100
AcDbEntity
  8
1
  6
DASHED
 62
     2
100
AcDbLine
 10
20.54430618094688
 20
-9.17283103031977
 30
0.0
 11
20.84430618094688
 21
-9.17283103031977
 31
0.0
  0
LINE
  5
BE
330
1F
100
AcDbEntity
  8
1
  6
Continuous
 62
     7
100
AcDbLine
 10
21.79430618094688
 20
-20.17283103031977
 30
0.0
 11
21.79430618094688
 21
-24.17283103031977
 31
0.0
  0
LINE
  5
BF
330
1F
100
AcDbEntity
  8
1
  6
Continuous
 62
     7
100
AcDbLine
 10
17.79430618094688
 20
-24.17283103031977
 30
0.0
 11
21.79430618094688
 21
-24.17283103031977
 31
0.0
  0
LINE
  5
C0
330
1F
100
AcDbEntity
  8
1
  6
Continuous
 62
     7
100
AcDbLine
 10
7.79430618094699
 20
12.34511816211133
 30
0.0
 11
7.79430618094688
 21
13.07716896968023
 31
0.0
  0
LINE
  5
C1
330
1F
100
AcDbEntity
  8
1
  6
Continuous
 62
     7
100
AcDbLine
 10
9.10370725770548
 20
10.07716896968023
 30
0.0
 11
7.79430618094699
 21
12.34511816211133
 31
0.0
  0
LINE
  5
C2
330
1F
100
AcDbEntity
  8
1
  6
Continuous
 62
     7
100
AcDbLine
 10
17.48490510418861
 20
10.07716896968023
 30
0.0
 11
9.10370725770548
 21
10.07716896968023
 31
0.0
  0
LINE
  5
C3
330
1F
100
AcDbEntity
  8
1
  6
Continuous
 62
     7
100
AcDbLine
 10
18.7943061809471
 20
12.34511816211133
 30
0.0
 11
17.48490510418861
 21
10.07716896968023
 31
0.0
  0
LINE
  5
C4
330
1F
100
AcDbEntity
  8
1
  6
Continuous
 62
     7
100
AcDbLine
 10
18.79430618094688
 20
13.07716896968023
 30
0.0
 11
18.7943061809471
 21
12.34511816211133
 31
0.0
  0
LINE
  5
C5
330
1F
100
AcDbEntity
  8
1
  6
Continuous
 62
     7
100
AcDbLine
 10
7.79430618094688
 20
13.07716896968023
 30
0.0
 11
18.79430618094688
 21
13.07716896968023
 31
0.0
  0
LINE
  5
C6
330
1F
100
AcDbEntity
  8
1
  6
Continuous
 62
     7
100
AcDbLine
 10
19.7943061809471
 20
12.07716896968023
 30
0.0
 11
19.7943061809471
 21
14.07716896968023
 31
0.0
  0
LINE
  5
C7
330
1F
100
AcDbEntity
  8
1
  6
Continuous
 62
     7
100
AcDbLine
 10
18.06225537337821
 20
9.07716896968023
 30
0.0
 11
19.7943061809471
 21
12.07716896968023
 31
0.0
  0
LINE
  5
C8
330
1F
100
AcDbEntity
  8
1
  6
Continuous
 62
     7
100
AcDbLine
 10
8.52635698851589
 20
9.07716896968023
 30
0.0
 11
10.29430618094688
 21
9.07716896968023
 31
0.0
  0
LINE
  5
C9
330
1F
100
AcDbEntity
  8
1
  6
Continuous
 62
     7
100
AcDbLine
 10
6.79430618094699
 20
12.07716896968023
 30
0.0
 11
8.52635698851589
 21
9.07716896968023
 31
0.0
  0
ARC
  5
CA
330
1F
100
AcDbEntity
  8
1
  6
Continuous
 62
     7
100
AcDbCircle
 10
-14.70569381905312
 20
-28.17283103031977
 30
0.0
 40
6.500000000000085
100
AcDbArc
 50
0.0
 51
25.22132353995669
  0
ARC
  5
CB
330
1F
100
AcDbEntity
  8
1
  6
Continuous
 62
     7
100
AcDbCircle
 10
-14.70935790539368
 20
-28.17213264855013
 30
0.0
 40
10.00301743236751
100
AcDbArc
 50
76.01661629134334
 51
25.20876162188264
  0
ARC
  5
CC
330
1F
100
AcDbEntity
  8
1
  6
Continuous
 62
     7
100
AcDbCircle
 10
-14.70569381905312
 20
-28.17283103031977
 30
0.0
 40
6.500000000000087
100
AcDbArc
 50
74.67972166645195
 51
0.0
  0
ARC
  5
CD
330
1F
100
AcDbEntity
  8
1
  6
Continuous
 62
     7
100
AcDbCircle
 10
-14.70569381905312
 20
-28.17283103031977
 30
0.0
 40
6.500000000000085
100
AcDbArc
 50
25.22132353995669
 51
74.67972166645195
  0
ARC
  5
CE
330
1F
100
AcDbEntity
  8
1
  6
Continuous
 62
     7
100
AcDbCircle
 10
2.70127539295896
 20
-18.29783103031977
 30
0.0
 40
1.375
100
AcDbArc
 50
90.0
 51
-90.0
  0
ARC
  5
CF
330
1F
100
AcDbEntity
  8
1
  6
Continuous
 62
     7
100
AcDbCircle
 10
2.70127539295896
 20
-18.29783103031977
 30
0.0
 40
2.375
100
AcDbArc
 50
90.0
 51
-90.0
  0
ARC
  5
D0
330
1F
100
AcDbEntity
  8
1
  6
Continuous
 62
     7
100
AcDbCircle
 10
-4.16770601663735
 20
-20.17283103031977
 30
0.0
 40
4.0
100
AcDbArc
 50
-105.3202783335479
 51
-89.99999999999983
  0
ARC
  5
D1
330
1F
100
AcDbEntity
  8
1
  6
Continuous
 62
     7
100
AcDbCircle
 10
-4.16770601663735
 20
-20.17283103031977
 30
0.0
 40
0.4999999999999998
100
AcDbArc
 50
-105.320278333548
 51
-90.0
  0
ARC
  5
D2
330
1F
100
AcDbEntity
  8
1
  6
Continuous
 62
     7
100
AcDbCircle
 10
18.29430618094688
 20
-20.67283103031977
 30
0.0
 40
1.0
100
AcDbArc
 50
-90.0
 51
0.0
  0
ARC
  5
D3
330
1F
100
AcDbEntity
  8
1
  6
Continuous
 62
     7
100
AcDbCircle
 10
17.79430618094688
 20
-20.17283103031977
 30
0.0
 40
4.0
100
AcDbArc
 50
-90.0
 51
0.0
  0
ARC
  5
D4
330
1F
100
AcDbEntity
  8
1
  6
Continuous
 62
     7
100
AcDbCircle
 10
9.69430618094697
 20
-14.32283103031976
 30
0.0
 40
0.3999999999999897
100
AcDbArc
 50
90.0
 51
180.0
  0
ARC
  5
D5
330
1F
100
AcDbEntity
  8
1
  6
Continuous
 62
     7
100
AcDbCircle
 10
7.93417180102688
 20
-16.52283103031973
 30
0.0
 40
0.4000000000000412
100
AcDbArc
 50
-90.0
 51
0.0
  0
ARC
  5
D6
330
1F
100
AcDbEntity
  8
1
  6
Continuous
 62
     7
100
AcDbCircle
 10
7.93417180102688
 20
-16.32283103031976
 30
0.0
 40
0.4000000000000909
100
AcDbArc
 50
0.0
 51
90.0
  0
ARC
  5
D7
330
1F
100
AcDbEntity
  8
1
  6
Continuous
 62
     7
100
AcDbCircle
 10
8.89430618094701
 20
-19.27283103031977
 30
0.0
 40
0.3999999999999986
100
AcDbArc
 50
-90.0
 51
0.0
  0
ARC
  5
D8
330
1F
100
AcDbEntity
  8
1
  6
Continuous
 62
     7
100
AcDbCircle
 10
10.69430618094697
 20
-19.27283103031977
 30
0.0
 40
0.4000000000000909
100
AcDbArc
 50
180.0
 51
-90.0
  0
ARC
  5
D9
330
1F
100
AcDbEntity
  8
1
  6
Continuous
 62
     7
100
AcDbCircle
 10
12.60391216512136
 20
-19.27283103031977
 30
0.0
 40
0.3999999999999986
100
AcDbArc
 50
-90.0
 51
14.22058743217558
  0
ARC
  5
DA
330
1F
100
AcDbEntity
  8
1
  6
Continuous
 62
     7
100
AcDbCircle
 10
14.46013225449798
 20
-19.27283103031977
 30
0.0
 40
0.3999999999999773
100
AcDbArc
 50
-165.000000000002
 51
-90.0
  0
ARC
  5
DB
330
1F
100
AcDbEntity
  8
1
  6
Continuous
 62
     7
100
AcDbCircle
 10
14.66718749058026
 20
-19.27283103031977
 30
0.0
 40
0.3999999999999986
100
AcDbArc
 50
-90.0
 51
15.00000000000211
  0
ARC
  5
DC
330
1F
100
AcDbEntity
  8
1
  6
Continuous
 62
     7
100
AcDbCircle
 10
16.53068461531831
 20
-19.27283103031977
 30
0.0
 40
0.4000000000001917
100
AcDbArc
 50
-165.0000000000103
 51
-90.0
  0
ARC
  5
DD
330
1F
100
AcDbEntity
  8
1
  6
Continuous
 62
     7
100
AcDbCircle
 10
16.73773985140036
 20
-19.27283103031977
 30
0.0
 40
0.3999999999999986
100
AcDbArc
 50
-90.0
 51
14.99999999999988
  0
ARC
  5
DE
330
1F
100
AcDbEntity
  8
1
  6
Continuous
 62
     7
100
AcDbCircle
 10
17.79430618094688
 20
-20.17283103031977
 30
0.0
 40
0.5
100
AcDbArc
 50
-90.0
 51
0.0
  0
ARC
  5
DF
330
1F
100
AcDbEntity
  8
1
  6
Continuous
 62
     7
100
AcDbCircle
 10
-7.70569381905312
 20
-18.14864966417565
 30
0.0
 40
4.000000000000123
100
AcDbArc
 50
-5.53764614825115
 51
0.0
  0
ARC
  5
E0
330
1F
100
AcDbEntity
  8
1
  6
Continuous
 62
     7
100
AcDbCircle
 10
-7.70569381905312
 20
-18.14864966417565
 30
0.0
 40
0.5000000000001311
100
AcDbArc
 50
-5.53764614824449
 51
0.00000000001018
  0
DIMENSION
  5
EC
330
1F
100
AcDbEntity
  8
1
100
AcDbDimension
  2
*D1
 10
10.29430618094688
 20
-64.6642424135985
 30
0.0
 11
16.134866616886
 21
-60.9142424135985
 31
0.0
 70
    32
  1
<>
 71
     5
 42
-1.0
 53
0.00013888888889
  3
ME10_DIM_10
100
AcDbAlignedDimension
 13
21.79430618094688
 23
-20.17283103031977
 33
0.0
 14
10.29430618094688
 24
-16.67283103031977
 34
0.0
100
AcDbRotatedDimension
  0
DIMENSION
  5
F8
330
1F
100
AcDbEntity
  8
1
100
AcDbDimension
  2
*D2
 10
6.79430618094688
 20
60.3079376471639
 30
0.0
 11
0.96632943193531
 21
64.0579376471639
 31
0.0
 70
    32
  1
<>
 71
     5
 42
-1.0
 53
0.00013888888889
  3
ME10_DIM_11
100
AcDbAlignedDimension
 13
-3.70569381905312
 23
11.57716896968882
 33
0.0
 14
6.79430618094688
 24
10.89742678218002
 34
0.0
100
AcDbRotatedDimension
  0
DIMENSION
  5
105
330
1F
100
AcDbEntity
  8
1
100
AcDbDimension
  2
*D3
 10
18.29430618094688
 20
-54.4817381622468
 30
0.0
 11
29.2693958219316
 21
-50.7317381622468
 31
0.0
 70
    32
  1
<>
 71
     5
 42
-1.0
 53
0.00013888888889
  3
ME10_DIM_12
100
AcDbAlignedDimension
 13
21.79430618094688
 23
-15.17283103031977
 33
0.0
 14
18.29430618094688
 24
-15.67283103031977
 34
0.0
100
AcDbRotatedDimension
  0
DIMENSION
  5
110
330
1F
100
AcDbEntity
  8
1
100
AcDbDimension
  2
*D4
 10
-14.70569381905312
 20
-64.7153573748126
 30
0.0
 11
-2.05546298726387
 21
-60.9653573748126
 31
0.0
 70
    32
  1
<>
 71
     5
 42
-1.0
 53
0.00013888888889
  3
ME10_DIM_13
100
AcDbAlignedDimension
 13
10.29430618094688
 23
-16.67283103031977
 33
0.0
 14
-14.70569381905312
 24
-40.74007003186577
 34
0.0
100
AcDbRotatedDimension
  0
DIMENSION
  5
11C
330
1F
100
AcDbEntity
  8
1
100
AcDbDimension
  2
*D5
 10
-2.70569381905312
 20
-54.6582126451499
 30
0.0
 11
2.61491576555169
 21
-50.9082126451499
 31
0.0
 70
    32
  1
<>
 71
     5
 42
-1.0
 53
0.00013888888889
  3
ME10_DIM_14
100
AcDbAlignedDimension
 13
10.29430618094688
 23
-16.67283103031977
 33
0.0
 14
-2.70569381905312
 24
-34.67283103031977
 34
0.0
100
AcDbRotatedDimension
  0
DIMENSION
  5
127
330
1F
100
AcDbEntity
  8
1
100
AcDbDimension
  2
*D6
 10
88.476006418971
 20
5.82716896968023
 30
0.0
 11
84.726006418971
 21
-4.20725862828274
 31
0.0
 70
    32
  1
<>
 71
     5
 42
-1.0
 53
90.0
  3
ME10_DIM_15
100
AcDbAlignedDimension
 13
12.29430618094688
 23
-16.67283103031977
 33
0.0
 14
21.79430618094688
 24
5.82716896968023
 34
0.0
 50
90.0
100
AcDbRotatedDimension
  0
DIMENSION
  5
134
330
1F
100
AcDbEntity
  8
1
100
AcDbDimension
  2
*D7
 10
-14.70569381905312
 20
51.05002562780024
 30
0.0
 11
-11.32116684540813
 21
54.80002562780024
 31
0.0
 70
    32
  1
<>
 71
     5
 42
-1.0
 53
0.00013888888889
  3
ME10_DIM_16
100
AcDbAlignedDimension
 13
-7.20569381905312
 23
11.57716896969035
 33
0.0
 14
-14.70569381905312
 24
-17.13084936295976
 34
0.0
100
AcDbRotatedDimension
  0
DIMENSION
  5
13F
330
1F
100
AcDbEntity
  8
1
100
AcDbDimension
  2
*D8
 10
-49.57687704921
 20
-28.17283103031977
 30
0.0
 11
-53.32687704921
 21
-21.37631666197376
 31
0.0
 70
    32
  1
12
 71
     5
 42
-1.0
 53
90.0
  3
ME10_DIM_17
100
AcDbAlignedDimension
 13
-42.70569381905312
 23
-15.92283103031977
 33
0.0
 14
-26.54260463132999
 24
-28.17283103031977
 34
0.0
 50
90.0
100
AcDbRotatedDimension
  0
DIMENSION
  5
14A
330
1F
100
AcDbEntity
  8
1
100
AcDbDimension
  2
*D9
 10
-57.61500677956713
 20
-28.17283103031976
 30
0.0
 11
-61.36500677956713
 21
-6.98547149955973
 31
0.0
 70
    32
  1
39.5
 71
     5
 42
-1.0
 53
90.0
  3
ME10_DIM_18
100
AcDbAlignedDimension
 13
-7.20569381905312
 23
11.57716896969035
 33
0.0
 14
-26.54260463132999
 24
-28.17283103031977
 34
0.0
 50
90.0
100
AcDbRotatedDimension
  0
DIMENSION
  5
157
330
1F
100
AcDbEntity
  8
3
100
AcDbDimension
  2
*D10
 10
6.79430618094688
 20
-45.11908546726278
 30
0.0
 11
1.45801854525786
 21
-41.36908546726278
 31
0.0
 70
    32
  1
<>
 71
     5
 42
-1.0
 53
0.00013888888889
  3
ME10_DIM_19
100
AcDbAlignedDimension
 13
10.29430618094688
 23
-19.27283103031977
 33
0.0
 14
6.79430618094688
 24
-15.92283103031977
 34
0.0
100
AcDbRotatedDimension
  0
DIMENSION
  5
162
330
1F
100
AcDbEntity
  8
1
100
AcDbDimension
  2
*D11
 10
96.62399297090587
 20
5.82716896968023
 30
0.0
 11
92.87399297090587
 21
-9.1124318100474
 31
0.0
 70
    32
  1
<>
 71
     5
 42
-1.0
 53
90.0
  3
ME10_DIM_20
100
AcDbAlignedDimension
 13
21.79430618094688
 23
-24.17283103031977
 33
0.0
 14
21.79430618094688
 24
5.82716896968023
 34
0.0
 50
90.0
100
AcDbRotatedDimension
  0
ENDSEC
  0
SECTION
  2
OBJECTS
  0
DICTIONARY
  5
C
330
0
100
AcDbDictionary
281
     1
  3
ACAD_GROUP
350
D
  3
ACAD_LAYOUT
350
1A
  3
ACAD_MLINESTYLE
350
17
  3
ACAD_PLOTSETTINGS
350
19
  3
ACAD_PLOTSTYLENAME
350
E
  0
DICTIONARY
  5
D
102
{ACAD_REACTORS
330
C
102
}
330
C
100
AcDbDictionary
281
     1
  0
DICTIONARY
  5
1A
102
{ACAD_REACTORS
330
C
102
}
330
C
100
AcDbDictionary
281
     1
  3
Layout1
350
1E
  3
Layout2
350
26
  3
Model
350
22
  0
DICTIONARY
  5
17
102
{ACAD_REACTORS
330
C
102
}
330
C
100
AcDbDictionary
281
     1
  3
Standard
350
18
  0
DICTIONARY
  5
19
102
{ACAD_REACTORS
330
C
102
}
330
C
100
AcDbDictionary
281
     1
  0
ACDBDICTIONARYWDFLT
  5
E
102
{ACAD_REACTORS
330
C
102
}
330
C
100
AcDbDictionary
281
     1
  3
Normal
350
F
100
AcDbDictionaryWithDefault
340
F
  0
LAYOUT
  5
1E
102
{ACAD_REACTORS
330
1A
102
}
330
1A
100
AcDbPlotSettings
  1

  2

  4

  6

 40
0.0
 41
0.0
 42
0.0
 43
0.0
 44
0.0
 45
0.0
 46
0.0
 47
0.0
 48
0.0
 49
0.0
140
0.0
141
0.0
142
1.0
143
1.0
 70
   688
 72
     0
 73
     0
 74
     5
  7

 75
    16
 76
     0
 77
     2
 78
   300
147
1.0
148
0.0
149
0.0
100
AcDbLayout
  1
Layout1
 70
     1
 71
     1
 10
0.0
 20
0.0
 11
0.0
 21
0.0
 12
0.0
 22
0.0
 32
0.0
 14
0.0
 24
0.0
 34
0.0
 15
0.0
 25
0.0
 35
0.0
146
0.0
 13
0.0
 23
0.0
 33
0.0
 16
1.0
 26
0.0
 36
0.0
 17
0.0
 27
1.0
 37
0.0
 76
     0
330
1B
  0
LAYOUT
  5
26
102
{ACAD_REACTORS
330
1A
102
}
330
1A
100
AcDbPlotSettings
  1

  2

  4

  6

 40
0.0
 41
0.0
 42
0.0
 43
0.0
 44
0.0
 45
0.0
 46
0.0
 47
0.0
 48
0.0
 49
0.0
140
0.0
141
0.0
142
1.0
143
1.0
 70
   688
 72
     0
 73
     0
 74
     5
  7

 75
    16
 76
     0
 77
     2
 78
   300
147
1.0
148
0.0
149
0.0
100
AcDbLayout
  1
Layout2
 70
     1
 71
     2
 10
0.0
 20
0.0
 11
0.0
 21
0.0
 12
0.0
 22
0.0
 32
0.0
 14
0.0
 24
0.0
 34
0.0
 15
0.0
 25
0.0
 35
0.0
146
0.0
 13
0.0
 23
0.0
 33
0.0
 16
1.0
 26
0.0
 36
0.0
 17
0.0
 27
1.0
 37
0.0
 76
     0
330
23
  0
LAYOUT
  5
22
102
{ACAD_REACTORS
330
1A
102
}
330
1A
100
AcDbPlotSettings
  1

  2

  4

  6

 40
0.0
 41
0.0
 42
0.0
 43
0.0
 44
0.0
 45
0.0
 46
0.0
 47
0.0
 48
0.0
 49
0.0
140
0.0
141
0.0
142
1.0
143
1.0
 70
  1712
 72
     0
 73
     0
 74
     0
  7

 75
     0
 76
     0
 77
     2
 78
   300
147
1.0
148
0.0
149
0.0
100
AcDbLayout
  1
Model
 70
     1
 71
     0
 10
0.0
 20
0.0
 11
0.0
 21
0.0
 12
0.0
 22
0.0
 32
0.0
 14
-63.11500677956713
 24
-66.7153573748126
 34
0.0
 15
98.62399297090587
 25
65.8079376471639
 35
0.0
146
0.0
 13
0.0
 23
0.0
 33
0.0
 16
1.0
 26
0.0
 36
0.0
 17
0.0
 27
1.0
 37
0.0
 76
     0
330
1F
  0
MLINESTYLE
  5
18
102
{ACAD_REACTORS
330
17
102
}
330
17
100
AcDbMlineStyle
  2
Standard
 70
     0
  3

 62
   256
 51
90.0
 52
90.0
 71
     2
 49
0.5
 62
   256
  6
BYLAYER
 49
-0.5
 62
   256
  6
BYLAYER
  0
ACDBPLACEHOLDER
  5
F
102
{ACAD_REACTORS
330
E
102
}
330
E
  0
ENDSEC
  0
EOF
