  0
SECTION
  2
HEADER
  9
$ACADVER
  1
AC1018
  9
$ACADMAINTVER
 70
     0
  9
$DWGCODEPAGE
  3
ANSI_1252
  9
$INSBASE
 10
0.0
 20
0.0
 30
0.0
  9
$EXTMIN
 10
-71.26463072356401
 20
-81.0908663577618
 30
0.0
  9
$EXTMAX
 10
40.05596457104
 20
125.602642732082
 30
0.0
  9
$LIMMIN
 10
0.0
 20
0.0
  9
$LIMMAX
 10
12.0
 20
9.0
  9
$ORTHOMODE
 70
     0
  9
$REGENMODE
 70
     1
  9
$FILLMODE
 70
     1
  9
$QTEXTMODE
 70
     0
  9
$MIRRTEXT
 70
     1
  9
$LTSCALE
 40
1.0
  9
$ATTMODE
 70
     1
  9
$TEXTSIZE
 40
0.2
  9
$TRACEWID
 40
0.05
  9
$TEXTSTYLE
  7
Standard
  9
$CLAYER
  8
0
  9
$CELTYPE
  6
ByLayer
  9
$CECOLOR
 62
   256
  9
$CELTSCALE
 40
1.0
  9
$DISPSILH
 70
     0
  9
$DIMSCALE
 40
1.0
  9
$DIMASZ
 40
0.18
  9
$DIMEXO
 40
0.0625
  9
$DIMDLI
 40
0.38
  9
$DIMRND
 40
0.0
  9
$DIMDLE
 40
0.0
  9
$DIMEXE
 40
0.18
  9
$DIMTP
 40
0.0
  9
$DIMTM
 40
0.0
  9
$DIMTXT
 40
0.18
  9
$DIMCEN
 40
0.09
  9
$DIMTSZ
 40
0.0
  9
$DIMTOL
 70
     0
  9
$DIMLIM
 70
     0
  9
$DIMTIH
 70
     1
  9
$DIMTOH
 70
     1
  9
$DIMSE1
 70
     0
  9
$DIMSE2
 70
     0
  9
$DIMTAD
 70
     0
  9
$DIMZIN
 70
     0
  9
$DIMBLK
  1

  9
$DIMASO
 70
     1
  9
$DIMSHO
 70
     1
  9
$DIMPOST
  1

  9
$DIMAPOST
  1

  9
$DIMALT
 70
     0
  9
$DIMALTD
 70
     2
  9
$DIMALTF
 40
25.4
  9
$DIMLFAC
 40
1.0
  9
$DIMTOFL
 70
     0
  9
$DIMTVP
 40
0.0
  9
$DIMTIX
 70
     0
  9
$DIMSOXD
 70
     0
  9
$DIMSAH
 70
     0
  9
$DIMBLK1
  1

  9
$DIMBLK2
  1

  9
$DIMSTYLE
  2
Standard
  9
$DIMCLRD
 70
     0
  9
$DIMCLRE
 70
     0
  9
$DIMCLRT
 70
     0
  9
$DIMTFAC
 40
1.0
  9
$DIMGAP
 40
0.09
  9
$DIMJUST
 70
     0
  9
$DIMSD1
 70
     0
  9
$DIMSD2
 70
     0
  9
$DIMTOLJ
 70
     1
  9
$DIMTZIN
 70
     0
  9
$DIMALTZ
 70
     0
  9
$DIMALTTZ
 70
     0
  9
$DIMUPT
 70
     0
  9
$DIMDEC
 70
     4
  9
$DIMTDEC
 70
     4
  9
$DIMALTU
 70
     2
  9
$DIMALTTD
 70
     2
  9
$DIMTXSTY
  7
Standard
  9
$DIMAUNIT
 70
     0
  9
$DIMADEC
 70
     0
  9
$DIMALTRND
 40
0.0
  9
$DIMAZIN
 70
     0
  9
$DIMDSEP
 70
    46
  9
$DIMATFIT
 70
     3
  9
$DIMFRAC
 70
     0
  9
$DIMLDRBLK
  1

  9
$DIMLUNIT
 70
     2
  9
$DIMLWD
 70
    -2
  9
$DIMLWE
 70
    -2
  9
$DIMTMOVE
 70
     0
  9
$LUNITS
 70
     2
  9
$LUPREC
 70
     4
  9
$SKETCHINC
 40
0.1
  9
$FILLETRAD
 40
0.5
  9
$AUNITS
 70
     0
  9
$AUPREC
 70
     0
  9
$MENU
  1
.
  9
$ELEVATION
 40
0.0
  9
$PELEVATION
 40
0.0
  9
$THICKNESS
 40
0.0
  9
$LIMCHECK
 70
     0
  9
$CHAMFERA
 40
0.5
  9
$CHAMFERB
 40
0.5
  9
$CHAMFERC
 40
1.0
  9
$CHAMFERD
 40
0.0
  9
$SKPOLY
 70
     0
  9
$TDCREATE
 40
2454627.424980313
  9
$TDUCREATE
 40
2454627.341646979
  9
$TDUPDATE
 40
2454627.424980324
  9
$TDUUPDATE
 40
2454627.341646991
  9
$TDINDWG
 40
0.0000000116
  9
$TDUSRTIMER
 40
0.0000000116
  9
$USRTIMER
 70
     1
  9
$ANGBASE
 50
0.0
  9
$ANGDIR
 70
     0
  9
$PDMODE
 70
     0
  9
$PDSIZE
 40
0.0
  9
$PLINEWID
 40
0.0
  9
$SPLFRAME
 70
     0
  9
$SPLINETYPE
 70
     6
  9
$SPLINESEGS
 70
     8
  9
$HANDSEED
  5
FD
  9
$SURFTAB1
 70
     6
  9
$SURFTAB2
 70
     6
  9
$SURFTYPE
 70
     6
  9
$SURFU
 70
     6
  9
$SURFV
 70
     6
  9
$UCSBASE
  2

  9
$UCSNAME
  2

  9
$UCSORG
 10
0.0
 20
0.0
 30
0.0
  9
$UCSXDIR
 10
1.0
 20
0.0
 30
0.0
  9
$UCSYDIR
 10
0.0
 20
1.0
 30
0.0
  9
$UCSORTHOREF
  2

  9
$UCSORTHOVIEW
 70
     0
  9
$UCSORGTOP
 10
0.0
 20
0.0
 30
0.0
  9
$UCSORGBOTTOM
 10
0.0
 20
0.0
 30
0.0
  9
$UCSORGLEFT
 10
0.0
 20
0.0
 30
0.0
  9
$UCSORGRIGHT
 10
0.0
 20
0.0
 30
0.0
  9
$UCSORGFRONT
 10
0.0
 20
0.0
 30
0.0
  9
$UCSORGBACK
 10
0.0
 20
0.0
 30
0.0
  9
$PUCSBASE
  2

  9
$PUCSNAME
  2

  9
$PUCSORG
 10
0.0
 20
0.0
 30
0.0
  9
$PUCSXDIR
 10
1.0
 20
0.0
 30
0.0
  9
$PUCSYDIR
 10
0.0
 20
1.0
 30
0.0
  9
$PUCSORTHOREF
  2

  9
$PUCSORTHOVIEW
 70
     0
  9
$PUCSORGTOP
 10
0.0
 20
0.0
 30
0.0
  9
$PUCSORGBOTTOM
 10
0.0
 20
0.0
 30
0.0
  9
$PUCSORGLEFT
 10
0.0
 20
0.0
 30
0.0
  9
$PUCSORGRIGHT
 10
0.0
 20
0.0
 30
0.0
  9
$PUCSORGFRONT
 10
0.0
 20
0.0
 30
0.0
  9
$PUCSORGBACK
 10
0.0
 20
0.0
 30
0.0
  9
$USERI1
 70
     0
  9
$USERI2
 70
     0
  9
$USERI3
 70
     0
  9
$USERI4
 70
     0
  9
$USERI5
 70
     0
  9
$USERR1
 40
14.5
  9
$USERR2
 40
0.0
  9
$USERR3
 40
0.0
  9
$USERR4
 40
0.0
  9
$USERR5
 40
0.0
  9
$WORLDVIEW
 70
     1
  9
$SHADEDGE
 70
     3
  9
$SHADEDIF
 70
    70
  9
$TILEMODE
 70
     1
  9
$MAXACTVP
 70
    64
  9
$PINSBASE
 10
0.0
 20
0.0
 30
0.0
  9
$PLIMCHECK
 70
     0
  9
$PEXTMIN
 10
1.00000000000000E+20
 20
1.00000000000000E+20
 30
1.00000000000000E+20
  9
$PEXTMAX
 10
-1.00000000000000E+20
 20
-1.00000000000000E+20
 30
-1.00000000000000E+20
  9
$PLIMMIN
 10
0.0
 20
0.0
  9
$PLIMMAX
 10
12.0
 20
9.0
  9
$UNITMODE
 70
     0
  9
$VISRETAIN
 70
     1
  9
$PLINEGEN
 70
     0
  9
$PSLTSCALE
 70
     1
  9
$TREEDEPTH
 70
  3020
  9
$CMLSTYLE
  2
Standard
  9
$CMLJUST
 70
     0
  9
$CMLSCALE
 40
1.0
  9
$PROXYGRAPHICS
 70
     1
  9
$MEASUREMENT
 70
     1
  9
$CELWEIGHT
370
    -1
  9
$ENDCAPS
280
     0
  9
$JOINSTYLE
280
     0
  9
$LWDISPLAY
290
     0
  9
$INSUNITS
 70
     1
  9
$HYPERLINKBASE
  1

  9
$STYLESHEET
  1

  9
$XEDIT
290
     1
  9
$CEPSNTYPE
380
     0
  9
$PSTYLEMODE
290
     1
  9
$FINGERPRINTGUID
  2
{45A2D457-5A33-460A-892A-F79783D845EE}
  9
$VERSIONGUID
  2
{FAEB1C32-E019-11D5-929B-00C0DF256EC4}
  9
$EXTNAMES
290
     1
  9
$PSVPSCALE
 40
0.0
  9
$OLESTARTUP
290
     0
  9
$SORTENTS
280
   127
  9
$INDEXCTL
280
     0
  9
$HIDETEXT
280
     1
  9
$XCLIPFRAME
290
     0
  9
$HALOGAP
280
     0
  9
$OBSCOLOR
 70
   257
  9
$OBSLTYPE
280
     0
  9
$INTERSECTIONDISPLAY
280
     0
  9
$INTERSECTIONCOLOR
 70
   257
  9
$DIMASSOC
280
     2
  9
$PROJECTNAME
  1

  0
ENDSEC
  0
SECTION
  2
CLASSES
  0
CLASS
  1
ACDBDICTIONARYWDFLT
  2
AcDbDictionaryWithDefault
  3
ObjectDBX Classes
 90
        0
 91
        3
280
     0
281
     0
  0
CLASS
  1

  2
exOdDbCircle
  3

 90
        0
 91
        3
280
     0
281
     1
  0
ENDSEC
  0
SECTION
  2
TABLES
  0
TABLE
  2
VPORT
  5
8
330
0
100
AcDbSymbolTable
 70
     1
  0
VPORT
  5
29
330
8
100
AcDbSymbolTableRecord
100
AcDbViewportTableRecord
  2
*Active
 70
     0
 10
0.0
 20
0.0
 11
1.0
 21
1.0
 12
-15.60433307626201
 22
22.2558881871601
 13
0.0
 23
0.0
 14
0.5
 24
0.5
 15
0.5
 25
0.5
 16
0.0
 26
0.0
 36
1.0
 17
0.0
 27
0.0
 37
0.0
 40
227.3628599988282
 41
1.60267857142857
 42
50.0
 43
0.0
 44
0.0
 50
0.0
 51
0.0
 71
     0
 72
   100
 73
     1
 74
     3
 75
     0
 76
     0
 77
     0
 78
     0
281
     0
 65
     1
110
0.0
120
0.0
130
0.0
111
1.0
121
0.0
131
0.0
112
0.0
122
1.0
132
0.0
 79
     0
146
0.0
  0
ENDTAB
  0
TABLE
  2
LTYPE
  5
5
330
0
100
AcDbSymbolTable
 70
     8
  0
LTYPE
  5
14
330
5
100
AcDbSymbolTableRecord
100
AcDbLinetypeTableRecord
  2
ByBlock
 70
     0
  3

 72
    65
 73
     0
 40
0.0
  0
LTYPE
  5
15
330
5
100
AcDbSymbolTableRecord
100
AcDbLinetypeTableRecord
  2
ByLayer
 70
     0
  3

 72
    65
 73
     0
 40
0.0
  0
LTYPE
  5
16
330
5
100
AcDbSymbolTableRecord
100
AcDbLinetypeTableRecord
  2
Continuous
 70
     0
  3
Solid line
 72
    65
 73
     0
 40
0.0
  0
LTYPE
  5
2A
330
5
100
AcDbSymbolTableRecord
100
AcDbLinetypeTableRecord
  2
DASHED
 70
     0
  3
Dashed
 72
    65
 73
     2
 40
15.0
 49
7.0
 74
     0
 49
-8.0
 74
     0
  0
LTYPE
  5
2B
330
5
100
AcDbSymbolTableRecord
100
AcDbLinetypeTableRecord
  2
DOTTED
 70
     0
  3
Dotted
 72
    65
 73
     2
 40
1.0
 49
0.0
 74
     0
 49
-1.0
 74
     0
  0
LTYPE
  5
2C
330
5
100
AcDbSymbolTableRecord
100
AcDbLinetypeTableRecord
  2
DOT_CENTER
 70
     0
  3
Dot_Center
 72
    65
 73
     4
 40
14.0
 49
12.0
 74
     0
 49
-1.0
 74
     0
 49
0.0
 74
     0
 49
-1.0
 74
     0
  0
LTYPE
  5
2D
330
5
100
AcDbSymbolTableRecord
100
AcDbLinetypeTableRecord
  2
LONG_DASHED
 70
     0
  3
Long_Dashed
 72
    65
 73
     2
 40
15.0
 49
10.0
 74
     0
 49
-5.0
 74
     0
  0
LTYPE
  5
2E
330
5
100
AcDbSymbolTableRecord
100
AcDbLinetypeTableRecord
  2
DASH_CENTER
 70
     0
  3
Dash_Center
 72
    65
 73
     4
 40
14.0
 49
11.0
 74
     0
 49
-1.0
 74
     0
 49
1.0
 74
     0
 49
-1.0
 74
     0
  0
LTYPE
  5
2F
330
5
100
AcDbSymbolTableRecord
100
AcDbLinetypeTableRecord
  2
PHANTOM
 70
     0
  3
Phantom
 72
    65
 73
     6
 40
13.0
 49
10.0
 74
     0
 49
-1.0
 74
     0
 49
0.0
 74
     0
 49
-1.0
 74
     0
 49
0.0
 74
     0
 49
-1.0
 74
     0
  0
LTYPE
  5
30
330
5
100
AcDbSymbolTableRecord
100
AcDbLinetypeTableRecord
  2
CENTER_DASH_DASH
 70
     0
  3
Center_Dash_Dash
 72
    65
 73
     6
 40
14.0
 49
9.0
 74
     0
 49
-1.0
 74
     0
 49
1.0
 74
     0
 49
-1.0
 74
     0
 49
1.0
 74
     0
 49
-1.0
 74
     0
  0
ENDTAB
  0
TABLE
  2
LAYER
  5
2
330
0
100
AcDbSymbolTable
 70
     2
  0
LAYER
  5
10
330
2
100
AcDbSymbolTableRecord
100
AcDbLayerTableRecord
  2
0
 70
     0
 62
     7
  6
Continuous
370
    -3
390
F
  0
LAYER
  5
31
330
2
100
AcDbSymbolTableRecord
100
AcDbLayerTableRecord
  2
1
 70
     0
 62
     7
  6
Continuous
370
    -3
390
F
  0
ENDTAB
  0
TABLE
  2
STYLE
  5
3
330
0
100
AcDbSymbolTable
 70
     3
  0
STYLE
  5
11
330
3
100
AcDbSymbolTableRecord
100
AcDbTextStyleTableRecord
  2
Standard
 70
     0
 40
0.0
 41
1.0
 50
0.0
 71
     0
 42
0.2
  3
txt
  4

  0
STYLE
  5
6F
330
3
100
AcDbSymbolTableRecord
100
AcDbTextStyleTableRecord
  2
CONVERTER_11
 70
     0
 40
0.0
 41
0.891
 50
0.0
 71
     0
 42
0.2
  3
txt.shx
  4

  0
STYLE
  5
F8
330
3
100
AcDbSymbolTableRecord
100
AcDbTextStyleTableRecord
  2
CONVERTER_12
 70
     0
 40
0.0
 41
0.9
 50
0.0
 71
     0
 42
0.2
  3
txt.shx
  4

  0
ENDTAB
  0
TABLE
  2
VIEW
  5
6
330
0
100
AcDbSymbolTable
 70
     0
  0
ENDTAB
  0
TABLE
  2
UCS
  5
7
330
0
100
AcDbSymbolTable
 70
     0
  0
ENDTAB
  0
TABLE
  2
APPID
  5
9
330
0
100
AcDbSymbolTable
 70
     1
  0
APPID
  5
12
330
9
100
AcDbSymbolTableRecord
100
AcDbRegAppTableRecord
  2
ACAD
 70
     0
  0
ENDTAB
  0
TABLE
  2
DIMSTYLE
  5
A
330
0
100
AcDbSymbolTable
 70
    12
100
AcDbDimStyleTable
  0
DIMSTYLE
105
27
330
A
100
AcDbSymbolTableRecord
100
AcDbDimStyleTableRecord
  2
Standard
 70
     0
340
11
  0
DIMSTYLE
105
7A
102
{ACAD_REACTORS
330
7B
102
}
330
A
100
AcDbSymbolTableRecord
100
AcDbDimStyleTableRecord
  2
ME10_DIM_10
 70
     0
 41
3.5
 42
0.0
 44
0.0
 73
     0
 74
     0
 77
     1
 78
     1
140
3.5
172
     1
173
     1
176
     2
177
     2
178
     2
271
     1
340
6F
  0
DIMSTYLE
105
85
102
{ACAD_REACTORS
330
86
102
}
330
A
100
AcDbSymbolTableRecord
100
AcDbDimStyleTableRecord
  2
ME10_DIM_11
 70
     0
 41
3.5
 42
0.0
 44
0.0
 73
     0
 74
     0
 77
     1
 78
     1
140
3.5
172
     1
173
     1
176
     2
177
     2
178
     2
271
     0
340
6F
  0
DIMSTYLE
105
91
102
{ACAD_REACTORS
330
92
102
}
330
A
100
AcDbSymbolTableRecord
100
AcDbDimStyleTableRecord
  2
ME10_DIM_12
 70
     0
 41
3.5
 42
0.0
 44
0.0
 73
     0
 74
     0
 77
     1
 78
     1
140
3.5
172
     1
173
     1
176
     2
177
     2
178
     2
271
     0
340
6F
  0
DIMSTYLE
105
9F
102
{ACAD_REACTORS
330
A0
102
}
330
A
100
AcDbSymbolTableRecord
100
AcDbDimStyleTableRecord
  2
ME10_DIM_13
 70
     0
 41
3.5
 42
0.0
 44
0.0
 73
     0
 74
     0
 77
     1
 78
     1
140
3.5
172
     1
173
     1
176
     2
177
     2
178
     2
271
     0
340
6F
  0
DIMSTYLE
105
AA
102
{ACAD_REACTORS
330
AB
102
}
330
A
100
AcDbSymbolTableRecord
100
AcDbDimStyleTableRecord
  2
ME10_DIM_14
 70
     0
 41
3.5
 42
0.0
 44
0.0
 73
     0
 74
     0
 77
     1
 78
     1
140
3.5
172
     1
173
     1
176
     2
177
     2
178
     2
271
     0
340
6F
  0
DIMSTYLE
105
B6
102
{ACAD_REACTORS
330
B7
102
}
330
A
100
AcDbSymbolTableRecord
100
AcDbDimStyleTableRecord
  2
ME10_DIM_15
 70
     0
 41
3.5
 42
0.0
 44
0.0
 73
     0
 74
     0
 77
     1
 78
     1
140
3.5
172
     1
173
     1
176
     2
177
     2
178
     2
271
     0
340
6F
  0
DIMSTYLE
105
C1
102
{ACAD_REACTORS
330
C2
102
}
330
A
100
AcDbSymbolTableRecord
100
AcDbDimStyleTableRecord
  2
ME10_DIM_16
 70
     0
 41
3.5
 42
0.0
 44
0.0
 73
     0
 74
     0
 77
     1
 78
     1
140
3.5
172
     1
173
     1
176
     2
177
     2
178
     2
271
     0
340
6F
  0
DIMSTYLE
105
CE
102
{ACAD_REACTORS
330
CF
102
}
330
A
100
AcDbSymbolTableRecord
100
AcDbDimStyleTableRecord
  2
ME10_DIM_17
 70
     0
 41
3.5
 42
0.0
 44
2.0
 73
     0
 74
     0
 77
     1
 78
     1
140
3.5
172
     1
173
     1
176
     2
177
     2
178
     2
271
     1
340
6F
  0
DIMSTYLE
105
DA
102
{ACAD_REACTORS
330
DB
102
}
330
A
100
AcDbSymbolTableRecord
100
AcDbDimStyleTableRecord
  2
ME10_DIM_18
 70
     0
 41
3.5
 42
0.0
 44
0.0
 73
     0
 74
     0
 77
     1
 78
     1
140
3.5
172
     1
173
     1
176
     2
177
     2
178
     2
271
     0
340
6F
  0
DIMSTYLE
105
E7
102
{ACAD_REACTORS
330
E8
102
}
330
A
100
AcDbSymbolTableRecord
100
AcDbDimStyleTableRecord
  2
ME10_DIM_19
 70
     0
 41
3.5
 42
0.0
 44
0.0
 73
     0
 74
     0
 77
     1
 78
     1
140
3.5
172
     1
173
     1
176
     2
177
     2
178
     2
271
     1
340
6F
  0
DIMSTYLE
105
F2
102
{ACAD_REACTORS
330
F3
102
}
330
A
100
AcDbSymbolTableRecord
100
AcDbDimStyleTableRecord
  2
ME10_DIM_20
 70
     0
 41
3.5
 42
0.0
 44
0.0
 73
     0
 74
     0
 77
     1
 78
     1
140
3.5
172
     1
173
     1
176
     2
177
     2
178
     2
271
     0
340
6F
  0
ENDTAB
  0
TABLE
  2
BLOCK_RECORD
  5
1
330
0
100
AcDbSymbolTable
 70
    13
  0
BLOCK_RECORD
  5
1F
330
1
100
AcDbSymbolTableRecord
100
AcDbBlockTableRecord
  2
*Model_Space
340
22
  0
BLOCK_RECORD
  5
1B
330
1
100
AcDbSymbolTableRecord
100
AcDbBlockTableRecord
  2
*Paper_Space
340
1E
  0
BLOCK_RECORD
  5
23
330
1
100
AcDbSymbolTableRecord
100
AcDbBlockTableRecord
  2
*Paper_Space0
340
26
  0
BLOCK_RECORD
  5
71
330
1
100
AcDbSymbolTableRecord
100
AcDbBlockTableRecord
  2
*D1
340
0
  0
BLOCK_RECORD
  5
7C
330
1
100
AcDbSymbolTableRecord
100
AcDbBlockTableRecord
  2
*D2
340
0
  0
BLOCK_RECORD
  5
87
330
1
100
AcDbSymbolTableRecord
100
AcDbBlockTableRecord
  2
*D3
340
0
  0
BLOCK_RECORD
  5
93
330
1
100
AcDbSymbolTableRecord
100
AcDbBlockTableRecord
  2
*D4
340
0
  0
BLOCK_RECORD
  5
A1
330
1
100
AcDbSymbolTableRecord
100
AcDbBlockTableRecord
  2
*D5
340
0
  0
BLOCK_RECORD
  5
AC
330
1
100
AcDbSymbolTableRecord
100
AcDbBlockTableRecord
  2
*D6
340
0
  0
BLOCK_RECORD
  5
B8
330
1
100
AcDbSymbolTableRecord
100
AcDbBlockTableRecord
  2
*D7
340
0
  0
BLOCK_RECORD
  5
C3
330
1
100
AcDbSymbolTableRecord
100
AcDbBlockTableRecord
  2
*D8
340
0
  0
BLOCK_RECORD
  5
D0
330
1
100
AcDbSymbolTableRecord
100
AcDbBlockTableRecord
  2
*D9
340
0
  0
BLOCK_RECORD
  5
DC
330
1
100
AcDbSymbolTableRecord
100
AcDbBlockTableRecord
  2
*D10
340
0
  0
BLOCK_RECORD
  5
E9
330
1
100
AcDbSymbolTableRecord
100
AcDbBlockTableRecord
  2
*D11
340
0
  0
BLOCK_RECORD
  5
F4
330
1
100
AcDbSymbolTableRecord
100
AcDbBlockTableRecord
  2
*D12
340
0
102
{BLKREFS
331
FC
102
}
  0
ENDTAB
  0
ENDSEC
  0
SECTION
  2
BLOCKS
  0
BLOCK
  5
20
330
1F
100
AcDbEntity
  8
0
100
AcDbBlockBegin
  2
*Model_Space
 70
     0
 71
     0
 10
0.0
 20
0.0
 30
0.0
  3
*Model_Space
  1

  0
ENDBLK
  5
21
330
1F
100
AcDbEntity
  8
0
100
AcDbBlockEnd
  0
BLOCK
  5
1C
330
1B
100
AcDbEntity
 67
     1
  8
0
100
AcDbBlockBegin
  2
*Paper_Space
 70
     0
 71
     0
 10
0.0
 20
0.0
 30
0.0
  3
*Paper_Space
  1

  0
ENDBLK
  5
1D
330
1B
100
AcDbEntity
 67
     1
  8
0
100
AcDbBlockEnd
  0
BLOCK
  5
24
330
23
100
AcDbEntity
  8
0
100
AcDbBlockBegin
  2
*Paper_Space0
 70
     0
 71
     0
 10
0.0
 20
0.0
 30
0.0
  3
*Paper_Space0
  1

  0
ENDBLK
  5
25
330
23
100
AcDbEntity
  8
0
100
AcDbBlockEnd
  0
BLOCK
  5
78
330
71
100
AcDbEntity
  8
0
100
AcDbBlockBegin
  2
*D1
 70
     1
 71
     0
 10
0.0
 20
0.0
 30
0.0
  3
*D1
  1

  0
LINE
  5
72
330
71
100
AcDbEntity
  8
1
  6
Continuous
 62
     2
100
AcDbLine
 10
-45.32386287294
 20
64.10264273208199
 30
0.0
 11
-45.32386287294
 21
115.602642732082
 31
0.0
  0
LINE
  5
73
330
71
100
AcDbEntity
  8
1
  6
Continuous
 62
     2
100
AcDbLine
 10
-43.68779447259999
 20
64.10264273208199
 30
0.0
 11
-47.32386287294
 21
64.10264273208199
 31
0.0
  0
LINE
  5
74
330
71
100
AcDbEntity
  8
1
  6
Continuous
 62
     2
100
AcDbLine
 10
-7.85541264433499
 20
115.602642732082
 30
0.0
 11
-47.32386287294
 21
115.602642732082
 31
0.0
  0
SOLID
  5
75
330
71
100
AcDbEntity
  8
1
 62
     2
100
AcDbTrace
 10
-45.78464661449588
 20
67.60264273208199
 30
0.0
 11
-44.86307913138411
 21
67.60264273208199
 31
0.0
 12
-45.32386287294
 22
64.10264273208199
 32
0.0
 13
-45.32386287294
 23
64.10264273208199
 33
0.0
  0
SOLID
  5
76
330
71
100
AcDbEntity
  8
1
 62
     2
100
AcDbTrace
 10
-44.86307913138411
 20
112.102642732082
 30
0.0
 11
-45.78464661449588
 21
112.102642732082
 31
0.0
 12
-45.32386287294
 22
115.602642732082
 32
0.0
 13
-45.32386287294
 23
115.602642732082
 33
0.0
  0
MTEXT
  5
77
330
71
100
AcDbEntity
  8
1
 62
     2
100
AcDbMText
 10
-47.32386287294
 20
82.229902948577
 30
0.0
 40
3.5
 41
0.0
 71
     7
 72
     1
  1
51.5
  7
CONVERTER_11
 11
0.0
 21
1.0
 31
0.0
 73
     1
 44
0.60024009603842
  0
ENDBLK
  5
79
330
71
100
AcDbEntity
  8
0
100
AcDbBlockEnd
  0
BLOCK
  5
83
330
7C
100
AcDbEntity
  8
0
100
AcDbBlockBegin
  2
*D2
 70
     1
 71
     0
 10
0.0
 20
0.0
 30
0.0
  3
*D2
  1

  0
LINE
  5
7D
330
7C
100
AcDbEntity
  8
1
  6
Continuous
 62
     2
100
AcDbLine
 10
23.45203292630299
 20
36.60264273208212
 30
0.0
 11
23.45203292630299
 21
91.60264273208199
 31
0.0
  0
LINE
  5
7E
330
7C
100
AcDbEntity
  8
1
  6
Continuous
 62
     2
100
AcDbLine
 10
3.04459938870999
 20
36.60264273208212
 30
0.0
 11
25.45203292630302
 21
36.60264273208212
 31
0.0
  0
LINE
  5
7F
330
7C
100
AcDbEntity
  8
1
  6
Continuous
 62
     2
100
AcDbLine
 10
3.04459938870999
 20
91.60264273208199
 30
0.0
 11
25.45203292630302
 21
91.60264273208199
 31
0.0
  0
SOLID
  5
80
330
7C
100
AcDbEntity
  8
1
 62
     2
100
AcDbTrace
 10
22.9912491847471
 20
40.10264273208212
 30
0.0
 11
23.91281666785887
 21
40.10264273208212
 31
0.0
 12
23.45203292630299
 22
36.60264273208212
 32
0.0
 13
23.45203292630299
 23
36.60264273208212
 33
0.0
  0
SOLID
  5
81
330
7C
100
AcDbEntity
  8
1
 62
     2
100
AcDbTrace
 10
23.91281666785887
 20
88.10264273208199
 30
0.0
 11
22.9912491847471
 21
88.10264273208199
 31
0.0
 12
23.45203292630299
 22
91.60264273208199
 32
0.0
 13
23.45203292630299
 23
91.60264273208199
 33
0.0
  0
MTEXT
  5
82
330
7C
100
AcDbEntity
  8
1
 62
     2
100
AcDbMText
 10
22.42522656499099
 20
61.28699008559201
 30
0.0
 40
3.5
 41
0.0
 71
     7
 72
     1
  1
55
  7
CONVERTER_11
 11
0.0
 21
1.0
 31
0.0
 73
     1
 44
0.60024009603842
  0
ENDBLK
  5
84
330
7C
100
AcDbEntity
  8
0
100
AcDbBlockEnd
  0
BLOCK
  5
8F
330
87
100
AcDbEntity
  8
0
100
AcDbBlockBegin
  2
*D3
 70
     1
 71
     0
 10
0.0
 20
0.0
 30
0.0
  3
*D3
  1

  0
LINE
  5
88
330
87
100
AcDbEntity
  8
1
  6
Continuous
 62
     2
100
AcDbLine
 10
0.14458735566501
 20
82.10799015127398
 30
0.0
 11
10.14458735566501
 21
82.10799015127398
 31
0.0
  0
LINE
  5
89
330
87
100
AcDbEntity
  8
1
  6
Continuous
 62
     2
100
AcDbLine
 10
0.14458735566501
 20
82.10799015127398
 30
0.0
 11
10.14458735566501
 21
82.10799015127398
 31
0.0
  0
LINE
  5
8A
330
87
100
AcDbEntity
  8
1
  6
Continuous
 62
     2
100
AcDbLine
 10
0.14458735566501
 20
88.62392644428999
 30
0.0
 11
0.14458735566501
 21
80.10799015127398
 31
0.0
  0
LINE
  5
8B
330
87
100
AcDbEntity
  8
1
  6
Continuous
 62
     2
100
AcDbLine
 10
10.14458735566501
 20
103.602642732082
 30
0.0
 11
10.14458735566501
 21
80.10799015127398
 31
0.0
  0
SOLID
  5
8C
330
87
100
AcDbEntity
  8
1
 62
     2
100
AcDbTrace
 10
6.64458735566501
 20
81.6472064097181
 30
0.0
 11
6.64458735566501
 21
82.56877389282987
 31
0.0
 12
10.14458735566501
 22
82.10799015127398
 32
0.0
 13
10.14458735566501
 23
82.10799015127398
 33
0.0
  0
SOLID
  5
8D
330
87
100
AcDbEntity
  8
1
 62
     2
100
AcDbTrace
 10
3.64458735566501
 20
82.56877389282987
 30
0.0
 11
3.64458735566501
 21
81.6472064097181
 31
0.0
 12
0.14458735566501
 22
82.10799015127398
 32
0.0
 13
0.14458735566501
 23
82.10799015127398
 33
0.0
  0
MTEXT
  5
8E
330
87
100
AcDbEntity
  8
1
 62
     2
100
AcDbMText
 10
2.775689129164
 20
84.10799015127398
 30
0.0
 40
3.5
 41
0.0
 71
     7
 72
     1
  1
10
  7
CONVERTER_11
 11
0.9999999999970621
 21
2.424068405545307E-6
 31
0.0
 73
     1
 44
0.60024009603842
  0
ENDBLK
  5
90
330
87
100
AcDbEntity
  8
0
100
AcDbBlockEnd
  0
BLOCK
  5
9D
330
93
100
AcDbEntity
  8
0
100
AcDbBlockBegin
  2
*D4
 70
     1
 71
     0
 10
0.0
 20
0.0
 30
0.0
  3
*D4
  1

  0
LINE
  5
94
330
93
100
AcDbEntity
  8
1
  6
Continuous
 62
     2
100
AcDbLine
 10
10.14458735566501
 20
95.93925705767998
 30
0.0
 11
17.14458735566501
 21
95.93925705767998
 31
0.0
  0
LINE
  5
95
330
93
100
AcDbEntity
  8
1
  6
Continuous
 62
     2
100
AcDbLine
 10
2.14458735566501
 20
95.93925705767998
 30
0.0
 11
-4.85541264433499
 21
95.93925705767998
 31
0.0
  0
LINE
  5
96
330
93
100
AcDbEntity
  8
1
  6
Continuous
 62
     2
100
AcDbLine
 10
10.14458735566501
 20
95.93925705767998
 30
0.0
 11
17.14458735566501
 21
95.93925705767998
 31
0.0
  0
LINE
  5
97
330
93
100
AcDbEntity
  8
1
  6
Continuous
 62
     2
100
AcDbLine
 10
2.14458735566501
 20
95.93925705767998
 30
0.0
 11
10.14458735566501
 21
95.93925705767998
 31
0.0
  0
LINE
  5
98
330
93
100
AcDbEntity
  8
1
  6
Continuous
 62
     2
100
AcDbLine
 10
2.14458735566501
 20
101.62392644429
 30
0.0
 11
2.14458735566501
 21
93.93925705767998
 31
0.0
  0
LINE
  5
99
330
93
100
AcDbEntity
  8
1
  6
Continuous
 62
     2
100
AcDbLine
 10
10.14458735566501
 20
103.602642732082
 30
0.0
 11
10.14458735566501
 21
93.93925705767998
 31
0.0
  0
SOLID
  5
9A
330
93
100
AcDbEntity
  8
1
 62
     2
100
AcDbTrace
 10
13.64458735566501
 20
96.40004079923587
 30
0.0
 11
13.64458735566501
 21
95.4784733161241
 31
0.0
 12
10.14458735566501
 22
95.93925705767998
 32
0.0
 13
10.14458735566501
 23
95.93925705767998
 33
0.0
  0
SOLID
  5
9B
330
93
100
AcDbEntity
  8
1
 62
     2
100
AcDbTrace
 10
-1.35541264433499
 20
95.4784733161241
 30
0.0
 11
-1.35541264433499
 21
96.40004079923587
 31
0.0
 12
2.14458735566501
 22
95.93925705767998
 32
0.0
 13
2.14458735566501
 23
95.93925705767998
 33
0.0
  0
MTEXT
  5
9C
330
93
100
AcDbEntity
  8
1
 62
     2
100
AcDbMText
 10
4.536036915817
 20
97.93925705767998
 30
0.0
 40
3.5
 41
0.0
 71
     7
 72
     1
  1
8
  7
CONVERTER_11
 11
0.9999999999970621
 21
2.424068405545307E-6
 31
0.0
 73
     1
 44
0.60024009603842
  0
ENDBLK
  5
9E
330
93
100
AcDbEntity
  8
0
100
AcDbBlockEnd
  0
BLOCK
  5
A8
330
A1
100
AcDbEntity
  8
0
100
AcDbBlockBegin
  2
*D5
 70
     1
 71
     0
 10
0.0
 20
0.0
 30
0.0
  3
*D5
  1

  0
LINE
  5
A2
330
A1
100
AcDbEntity
  8
1
  6
Continuous
 62
     2
100
AcDbLine
 10
38.05596457104
 20
12.60264273208199
 30
0.0
 11
38.05596457104
 21
115.602642732082
 31
0.0
  0
LINE
  5
A3
330
A1
100
AcDbEntity
  8
1
  6
Continuous
 62
     2
100
AcDbLine
 10
-1.85541264433499
 20
115.602642732082
 30
0.0
 11
40.05596457104
 21
115.602642732082
 31
0.0
  0
LINE
  5
A4
330
A1
100
AcDbEntity
  8
1
  6
Continuous
 62
     2
100
AcDbLine
 10
-1.85541264433499
 20
12.60264273208199
 30
0.0
 11
40.05596457104
 21
12.60264273208199
 31
0.0
  0
SOLID
  5
A5
330
A1
100
AcDbEntity
  8
1
 62
     2
100
AcDbTrace
 10
37.59518082948411
 20
16.10264273208199
 30
0.0
 11
38.51674831259589
 21
16.10264273208199
 31
0.0
 12
38.05596457104
 22
12.60264273208199
 32
0.0
 13
38.05596457104
 23
12.60264273208199
 33
0.0
  0
SOLID
  5
A6
330
A1
100
AcDbEntity
  8
1
 62
     2
100
AcDbTrace
 10
38.51674831259589
 20
112.102642732082
 30
0.0
 11
37.59518082948411
 21
112.102642732082
 31
0.0
 12
38.05596457104
 22
115.602642732082
 32
0.0
 13
38.05596457104
 23
115.602642732082
 33
0.0
  0
MTEXT
  5
A7
330
A1
100
AcDbEntity
  8
1
 62
     2
100
AcDbMText
 10
37.04263047139202
 20
60.55522490467399
 30
0.0
 40
3.5
 41
0.0
 71
     7
 72
     1
  1
103
  7
CONVERTER_11
 11
0.0
 21
1.0
 31
0.0
 73
     1
 44
0.60024009603842
  0
ENDBLK
  5
A9
330
A1
100
AcDbEntity
  8
0
100
AcDbBlockEnd
  0
BLOCK
  5
B4
330
AC
100
AcDbEntity
  8
0
100
AcDbBlockBegin
  2
*D6
 70
     1
 71
     0
 10
0.0
 20
0.0
 30
0.0
  3
*D6
  1

  0
LINE
  5
AD
330
AC
100
AcDbEntity
  8
1
  6
Continuous
 62
     2
100
AcDbLine
 10
-7.85541264433499
 20
41.12908070823698
 30
0.0
 11
10.14458735566501
 21
41.12908070823698
 31
0.0
  0
LINE
  5
AE
330
AC
100
AcDbEntity
  8
1
  6
Continuous
 62
     2
100
AcDbLine
 10
-7.85541264433499
 20
41.12908070823698
 30
0.0
 11
10.14458735566501
 21
41.12908070823698
 31
0.0
  0
LINE
  5
AF
330
AC
100
AcDbEntity
  8
1
  6
Continuous
 62
     2
100
AcDbLine
 10
-7.85541264433499
 20
46.22906682248497
 30
0.0
 11
-7.85541264433499
 21
39.12908070823698
 31
0.0
  0
LINE
  5
B0
330
AC
100
AcDbEntity
  8
1
  6
Continuous
 62
     2
100
AcDbLine
 10
10.14458735566501
 20
24.60264273208197
 30
0.0
 11
10.14458735566501
 21
43.12908070823698
 31
0.0
  0
SOLID
  5
B1
330
AC
100
AcDbEntity
  8
1
 62
     2
100
AcDbTrace
 10
6.64458735566501
 20
40.66829696668109
 30
0.0
 11
6.64458735566501
 21
41.58986444979286
 31
0.0
 12
10.14458735566501
 22
41.12908070823698
 32
0.0
 13
10.14458735566501
 23
41.12908070823698
 33
0.0
  0
SOLID
  5
B2
330
AC
100
AcDbEntity
  8
1
 62
     2
100
AcDbTrace
 10
-4.35541264433499
 20
41.58986444979286
 30
0.0
 11
-4.35541264433499
 21
40.66829696668109
 31
0.0
 12
-7.85541264433499
 22
41.12908070823698
 32
0.0
 13
-7.85541264433499
 23
41.12908070823698
 33
0.0
  0
MTEXT
  5
B3
330
AC
100
AcDbEntity
  8
1
 62
     2
100
AcDbMText
 10
-1.93441264433499
 20
43.12908070823698
 30
0.0
 40
3.5
 41
0.0
 71
     7
 72
     1
  1
18
  7
CONVERTER_11
 11
0.9999999999970621
 21
2.424068405545307E-6
 31
0.0
 73
     1
 44
0.60024009603842
  0
ENDBLK
  5
B5
330
AC
100
AcDbEntity
  8
0
100
AcDbBlockEnd
  0
BLOCK
  5
BF
330
B8
100
AcDbEntity
  8
0
100
AcDbBlockBegin
  2
*D7
 70
     1
 71
     0
 10
0.0
 20
0.0
 30
0.0
  3
*D7
  1

  0
LINE
  5
B9
330
B8
100
AcDbEntity
  8
1
  6
Continuous
 62
     2
100
AcDbLine
 10
-36.646308227947
 20
48.10264273208199
 30
0.0
 11
-36.646308227947
 21
80.10264273208199
 31
0.0
  0
LINE
  5
BA
330
B8
100
AcDbEntity
  8
1
  6
Continuous
 62
     2
100
AcDbLine
 10
-16.225764834844
 20
80.10264273208199
 30
0.0
 11
-38.646308227947
 21
80.10264273208199
 31
0.0
  0
LINE
  5
BB
330
B8
100
AcDbEntity
  8
1
  6
Continuous
 62
     2
100
AcDbLine
 10
-16.29720768279301
 20
48.10264273208199
 30
0.0
 11
-38.646308227947
 21
48.10264273208199
 31
0.0
  0
SOLID
  5
BC
330
B8
100
AcDbEntity
  8
1
 62
     2
100
AcDbTrace
 10
-37.10709196950289
 20
51.60264273208199
 30
0.0
 11
-36.18552448639112
 21
51.60264273208199
 31
0.0
 12
-36.646308227947
 22
48.10264273208199
 32
0.0
 13
-36.646308227947
 23
48.10264273208199
 33
0.0
  0
SOLID
  5
BD
330
B8
100
AcDbEntity
  8
1
 62
     2
100
AcDbTrace
 10
-36.18552448639112
 20
76.60264273208199
 30
0.0
 11
-37.10709196950289
 21
76.60264273208199
 31
0.0
 12
-36.646308227947
 22
80.10264273208199
 32
0.0
 13
-36.646308227947
 23
80.10264273208199
 33
0.0
  0
MTEXT
  5
BE
330
B8
100
AcDbEntity
  8
1
 62
     2
100
AcDbMText
 10
-38.646308227947
 20
61.50389273208199
 30
0.0
 40
3.5
 41
0.0
 71
     7
 72
     1
  1
32
  7
CONVERTER_11
 11
0.0
 21
1.0
 31
0.0
 73
     1
 44
0.60024009603842
  0
ENDBLK
  5
C0
330
B8
100
AcDbEntity
  8
0
100
AcDbBlockEnd
  0
BLOCK
  5
CC
330
C3
100
AcDbEntity
  8
0
100
AcDbBlockBegin
  2
*D8
 70
     1
 71
     0
 10
0.0
 20
0.0
 30
0.0
  3
*D8
  1

  0
LINE
  5
C4
330
C3
100
AcDbEntity
  8
1
  6
Continuous
 62
     2
100
AcDbLine
 10
-16.35541264433499
 20
-69.6463267550734
 30
0.0
 11
-7.2645959899307
 21
-69.6463267550734
 31
0.0
  0
LINE
  5
C5
330
C3
100
AcDbEntity
  8
1
  6
Continuous
 62
     2
100
AcDbLine
 10
-19.85541264433499
 20
-69.6463267550734
 30
0.0
 11
-16.35541264433499
 21
-69.6463267550734
 31
0.0
  0
LINE
  5
C6
330
C3
100
AcDbEntity
  8
1
  6
Continuous
 62
     2
100
AcDbLine
 10
-26.85541264433499
 20
-69.6463267550734
 30
0.0
 11
-19.85541264433499
 21
-69.6463267550734
 31
0.0
  0
LINE
  5
C7
330
C3
100
AcDbEntity
  8
1
  6
Continuous
 62
     2
100
AcDbLine
 10
-16.35541264433499
 20
-63.75985574564461
 30
0.0
 11
-16.35541264433499
 21
-71.6463267550734
 31
0.0
  0
LINE
  5
C8
330
C3
100
AcDbEntity
  8
1
  6
Continuous
 62
     2
100
AcDbLine
 10
-19.85541264433499
 20
-63.75985574564461
 30
0.0
 11
-19.85541264433499
 21
-71.6463267550734
 31
0.0
  0
SOLID
  5
C9
330
C3
100
AcDbEntity
  8
1
 62
     2
100
AcDbTrace
 10
-23.35541264433499
 20
-70.10711049662929
 30
0.0
 11
-23.35541264433499
 21
-69.18554301351752
 31
0.0
 12
-19.85541264433499
 22
-69.6463267550734
 32
0.0
 13
-19.85541264433499
 23
-69.6463267550734
 33
0.0
  0
SOLID
  5
CA
330
C3
100
AcDbEntity
  8
1
 62
     2
100
AcDbTrace
 10
-12.85541264433499
 20
-69.18554301351752
 30
0.0
 11
-12.85541264433499
 21
-70.10711049662929
 31
0.0
 12
-16.35541264433499
 22
-69.6463267550734
 32
0.0
 13
-16.35541264433499
 23
-69.6463267550734
 33
0.0
  0
MTEXT
  5
CB
330
C3
100
AcDbEntity
  8
1
 62
     2
100
AcDbMText
 10
-13.5882209899307
 20
-68.0814017976366
 30
0.0
 40
3.5
 41
0.0
 71
     7
 72
     1
  1
3.5
  7
CONVERTER_11
 11
0.9999999999970621
 21
2.424068405545307E-6
 31
0.0
 73
     1
 44
0.60024009603842
  0
ENDBLK
  5
CD
330
C3
100
AcDbEntity
  8
0
100
AcDbBlockEnd
  0
BLOCK
  5
D8
330
D0
100
AcDbEntity
  8
0
100
AcDbBlockBegin
  2
*D9
 70
     1
 71
     0
 10
0.0
 20
0.0
 30
0.0
  3
*D9
  1

  0
LINE
  5
D1
330
D0
100
AcDbEntity
  8
1
  6
Continuous
 62
     2
100
AcDbLine
 10
-19.85541264433499
 20
-79.0908663577618
 30
0.0
 11
10.14458735566501
 21
-79.0908663577618
 31
0.0
  0
LINE
  5
D2
330
D0
100
AcDbEntity
  8
1
  6
Continuous
 62
     2
100
AcDbLine
 10
-19.85541264433499
 20
-79.0908663577618
 30
0.0
 11
10.14458735566501
 21
-79.0908663577618
 31
0.0
  0
LINE
  5
D3
330
D0
100
AcDbEntity
  8
1
  6
Continuous
 62
     2
100
AcDbLine
 10
-19.85541264433499
 20
-63.75985574564461
 30
0.0
 11
-19.85541264433499
 21
-81.0908663577618
 31
0.0
  0
LINE
  5
D4
330
D0
100
AcDbEntity
  8
1
  6
Continuous
 62
     2
100
AcDbLine
 10
10.14458735566501
 20
-50.75985574564457
 30
0.0
 11
10.14458735566501
 21
-81.0908663577618
 31
0.0
  0
SOLID
  5
D5
330
D0
100
AcDbEntity
  8
1
 62
     2
100
AcDbTrace
 10
6.64458735566501
 20
-79.55165009931768
 30
0.0
 11
6.64458735566501
 21
-78.63008261620591
 31
0.0
 12
10.14458735566501
 22
-79.0908663577618
 32
0.0
 13
10.14458735566501
 23
-79.0908663577618
 33
0.0
  0
SOLID
  5
D6
330
D0
100
AcDbEntity
  8
1
 62
     2
100
AcDbTrace
 10
-16.35541264433499
 20
-78.63008261620591
 30
0.0
 11
-16.35541264433499
 21
-79.55165009931768
 31
0.0
 12
-19.85541264433499
 22
-79.0908663577618
 32
0.0
 13
-19.85541264433499
 23
-79.0908663577618
 33
0.0
  0
MTEXT
  5
D7
330
D0
100
AcDbEntity
  8
1
 62
     2
100
AcDbMText
 10
-7.71976926123631
 20
-77.0908663577618
 30
0.0
 40
3.5
 41
0.0
 71
     7
 72
     1
  1
30
  7
CONVERTER_11
 11
0.9999999999970621
 21
2.424068405545307E-6
 31
0.0
 73
     1
 44
0.60024009603842
  0
ENDBLK
  5
D9
330
D0
100
AcDbEntity
  8
0
100
AcDbBlockEnd
  0
BLOCK
  5
E5
330
DC
100
AcDbEntity
  8
0
100
AcDbBlockBegin
  2
*D10
 70
     1
 71
     0
 10
0.0
 20
0.0
 30
0.0
  3
*D10
  1

  0
LINE
  5
DD
330
DC
100
AcDbEntity
  8
1
  6
Continuous
 62
     2
100
AcDbLine
 10
26.70025063234212
 20
-39.25985574564459
 30
0.0
 11
26.70025063234212
 21
-29.2918986076091
 31
0.0
  0
LINE
  5
DE
330
DC
100
AcDbEntity
  8
1
  6
Continuous
 62
     2
100
AcDbLine
 10
26.70025063234212
 20
-50.75985574564457
 30
0.0
 11
26.70025063234212
 21
-39.25985574564459
 31
0.0
  0
LINE
  5
DF
330
DC
100
AcDbEntity
  8
1
  6
Continuous
 62
     2
100
AcDbLine
 10
26.70025063234212
 20
-57.75985574564457
 30
0.0
 11
26.70025063234212
 21
-50.75985574564457
 31
0.0
  0
LINE
  5
E0
330
DC
100
AcDbEntity
  8
1
  6
Continuous
 62
     2
100
AcDbLine
 10
10.14458735566509
 20
-39.25985574564459
 30
0.0
 11
28.70025063234212
 21
-39.25985574564459
 31
0.0
  0
LINE
  5
E1
330
DC
100
AcDbEntity
  8
1
  6
Continuous
 62
     2
100
AcDbLine
 10
15.14458735566501
 20
-50.75985574564457
 30
0.0
 11
28.70025063234212
 21
-50.75985574564457
 31
0.0
  0
SOLID
  5
E2
330
DC
100
AcDbEntity
  8
1
 62
     2
100
AcDbTrace
 10
26.23946689078623
 20
-47.25985574564457
 30
0.0
 11
27.161034373898
 21
-47.25985574564457
 31
0.0
 12
26.70025063234212
 22
-50.75985574564457
 32
0.0
 13
26.70025063234212
 23
-50.75985574564457
 33
0.0
  0
SOLID
  5
E3
330
DC
100
AcDbEntity
  8
1
 62
     2
100
AcDbTrace
 10
27.161034373898
 20
-42.75985574564459
 30
0.0
 11
26.23946689078623
 21
-42.75985574564459
 31
0.0
 12
26.70025063234212
 22
-39.25985574564459
 32
0.0
 13
26.70025063234212
 23
-39.25985574564459
 33
0.0
  0
MTEXT
  5
E4
330
DC
100
AcDbEntity
  8
1
 62
     2
100
AcDbMText
 10
24.70025063234209
 20
-36.6922111076091
 30
0.0
 40
3.5
 41
0.0
 71
     7
 72
     1
  1
11.5
  7
CONVERTER_11
 11
0.0
 21
1.0
 31
0.0
 73
     1
 44
0.60024009603842
  0
ENDBLK
  5
E6
330
DC
100
AcDbEntity
  8
0
100
AcDbBlockEnd
  0
BLOCK
  5
F0
330
E9
100
AcDbEntity
  8
0
100
AcDbBlockBegin
  2
*D11
 70
     1
 71
     0
 10
0.0
 20
0.0
 30
0.0
  3
*D11
  1

  0
LINE
  5
EA
330
E9
100
AcDbEntity
  8
1
  6
Continuous
 62
     2
100
AcDbLine
 10
30.887657765716
 20
23.60264273208199
 30
0.0
 11
30.887657765716
 21
104.602642732082
 31
0.0
  0
LINE
  5
EB
330
E9
100
AcDbEntity
  8
1
  6
Continuous
 62
     2
100
AcDbLine
 10
6.04459938871
 20
23.60264273208199
 30
0.0
 11
32.887657765716
 21
23.60264273208199
 31
0.0
  0
LINE
  5
EC
330
E9
100
AcDbEntity
  8
1
  6
Continuous
 62
     2
100
AcDbLine
 10
5.04459938871
 20
104.602642732082
 30
0.0
 11
32.887657765716
 21
104.602642732082
 31
0.0
  0
SOLID
  5
ED
330
E9
100
AcDbEntity
  8
1
 62
     2
100
AcDbTrace
 10
30.42687402416011
 20
27.10264273208199
 30
0.0
 11
31.34844150727189
 21
27.10264273208199
 31
0.0
 12
30.887657765716
 22
23.60264273208199
 32
0.0
 13
30.887657765716
 23
23.60264273208199
 33
0.0
  0
SOLID
  5
EE
330
E9
100
AcDbEntity
  8
1
 62
     2
100
AcDbTrace
 10
31.34844150727188
 20
101.102642732082
 30
0.0
 11
30.42687402416011
 21
101.102642732082
 31
0.0
 12
30.887657765716
 22
104.602642732082
 32
0.0
 13
30.887657765716
 23
104.602642732082
 33
0.0
  0
MTEXT
  5
EF
330
E9
100
AcDbEntity
  8
1
 62
     2
100
AcDbMText
 10
29.96472963250298
 20
61.80674008559201
 30
0.0
 40
3.5
 41
0.0
 71
     7
 72
     1
  1
81
  7
CONVERTER_11
 11
0.0
 21
1.0
 31
0.0
 73
     1
 44
0.60024009603842
  0
ENDBLK
  5
F1
330
E9
100
AcDbEntity
  8
0
100
AcDbBlockEnd
  0
BLOCK
  5
FA
330
F4
100
AcDbEntity
  8
0
100
AcDbBlockBegin
  2
*D12
 70
     1
 71
     0
 10
0.0
 20
0.0
 30
0.0
  3
*D12
  1

  0
LINE
  5
F5
330
F4
100
AcDbEntity
  8
1
  6
Continuous
 62
     2
100
AcDbLine
 10
-10.62125381294126
 20
16.40752048730934
 30
0.0
 11
6.91042852427128
 21
32.79776497685464
 31
0.0
  0
SOLID
  5
F6
330
F4
100
AcDbEntity
  8
1
 62
     2
100
AcDbTrace
 10
4.66840644096564
 20
30.0709245644997
 30
0.0
 11
4.03904325922327
 21
30.7441174130922
 31
0.0
 12
6.91042852427128
 22
32.79776497685464
 32
0.0
 13
6.91042852427128
 23
32.79776497685464
 33
0.0
  0
SOLID
  5
F7
330
F4
100
AcDbEntity
  8
1
 62
     2
100
AcDbTrace
 10
-8.37923172963562
 20
19.13436089966428
 30
0.0
 11
-7.74986854789325
 21
18.46116805107178
 31
0.0
 12
-10.62125381294126
 22
16.40752048730934
 32
0.0
 13
-10.62125381294126
 23
16.40752048730934
 33
0.0
  0
MTEXT
  5
F9
330
F4
100
AcDbEntity
  8
1
 62
     2
100
AcDbMText
 10
-4.85710916975128
 20
23.96963142768656
 30
0.0
 40
3.5
 41
0.0
 71
     7
 72
     1
  1
24
  7
CONVERTER_12
 11
0.7304867640505224
 21
0.682926853731054
 31
0.0
 73
     1
 44
0.60024009603842
  0
ENDBLK
  5
FB
330
F4
100
AcDbEntity
  8
0
100
AcDbBlockEnd
  0
ENDSEC
  0
SECTION
  2
ENTITIES
  0
LINE
  5
32
330
1F
100
AcDbEntity
  8
1
  6
Continuous
 62
     7
100
AcDbLine
 10
-12.35541264433499
 20
125.602642732082
 30
0.0
 11
-12.35541264433499
 21
114.7269404627255
 31
0.0
  0
LINE
  5
33
330
1F
100
AcDbEntity
  8
1
  6
Continuous
 62
     7
100
AcDbLine
 10
-12.35541264433499
 20
-19.89735726791811
 30
0.0
 11
-12.35541264433499
 21
13.4783450014385
 31
0.0
  0
LINE
  5
34
330
1F
100
AcDbEntity
  8
1
  6
Continuous
 62
     7
100
AcDbLine
 10
-12.35541264433499
 20
-50.75985574564459
 30
0.0
 11
10.14458735566501
 21
-50.75985574564457
 31
0.0
  0
LINE
  5
35
330
1F
100
AcDbEntity
  8
1
  6
Continuous
 62
     7
100
AcDbLine
 10
-12.35541264433499
 20
-42.75985574564459
 30
0.0
 11
-12.35541264433499
 21
-50.75985574564459
 31
0.0
  0
LINE
  5
36
330
1F
100
AcDbEntity
  8
1
  6
Continuous
 62
     7
100
AcDbLine
 10
-16.35541264433499
 20
-42.75985574564459
 30
0.0
 11
-12.35541264433499
 21
-42.75985574564459
 31
0.0
  0
LINE
  5
37
330
1F
100
AcDbEntity
  8
1
  6
Continuous
 62
     2
100
AcDbLine
 10
-29.3485106021669
 20
79.1049200593892
 30
0.0
 11
-25.3286625076872
 21
64.10264273208199
 31
0.0
  0
LINE
  5
38
330
1F
100
AcDbEntity
  8
1
  6
Continuous
 62
     2
100
AcDbLine
 10
-30.447588997971
 20
83.20673647403149
 30
0.0
 11
-29.90327003724579
 21
81.1753104570819
 31
0.0
  0
LINE
  5
39
330
1F
100
AcDbEntity
  8
1
  6
Continuous
 62
     2
100
AcDbLine
 10
-38.9513385348983
 20
114.9431618006845
 30
0.0
 11
-31.30557947236201
 21
86.4088005168689
 31
0.0
  0
LINE
  5
3A
330
1F
100
AcDbEntity
  8
1
  6
Continuous
 62
     2
100
AcDbLine
 10
-39.77242200323101
 20
118.007487021757
 30
0.0
 11
-39.37494287455561
 21
116.524074718592
 31
0.0
  0
LINE
  5
3B
330
1F
100
AcDbEntity
  8
1
  6
DOT_CENTER
 62
     7
100
AcDbLine
 10
-35.459469215767
 20
64.10264273208199
 30
0.0
 11
17.54210246784001
 21
64.10264273208199
 31
0.0
  0
LINE
  5
3C
330
1F
100
AcDbEntity
  8
1
  6
DOT_CENTER
 62
     2
100
AcDbLine
 10
3.04459938871
 20
36.6026427320821
 30
0.0
 11
-2.95540061129
 21
36.6026427320821
 31
0.0
  0
LINE
  5
3D
330
1F
100
AcDbEntity
  8
1
  6
DOT_CENTER
 62
     2
100
AcDbLine
 10
0.14458735566501
 20
39.58135901987399
 30
0.0
 11
0.14458735566501
 21
33.67483587942701
 31
0.0
  0
LINE
  5
3E
330
1F
100
AcDbEntity
  8
1
  6
DOT_CENTER
 62
     2
100
AcDbLine
 10
-2.95540061129
 20
91.60264273208199
 30
0.0
 11
3.04459938871
 21
91.60264273208199
 31
0.0
  0
LINE
  5
3F
330
1F
100
AcDbEntity
  8
1
  6
DOT_CENTER
 62
     2
100
AcDbLine
 10
0.14458735566501
 20
94.530449584737
 30
0.0
 11
0.14458735566501
 21
88.62392644428999
 31
0.0
  0
LINE
  5
40
330
1F
100
AcDbEntity
  8
1
  6
DOT_CENTER
 62
     7
100
AcDbLine
 10
-63.242542652834
 20
64.10264273208199
 30
0.0
 11
-55.19669631511999
 21
64.10264273208199
 31
0.0
  0
LINE
  5
41
330
1F
100
AcDbEntity
  8
1
  6
Continuous
 62
     7
100
AcDbLine
 10
-1.85541264433499
 20
12.60264273208199
 30
0.0
 11
-7.85541264433499
 21
12.60264273208199
 31
0.0
  0
LINE
  5
42
330
1F
100
AcDbEntity
  8
1
  6
Continuous
 62
     7
100
AcDbLine
 10
-7.85541264433499
 20
115.602642732082
 30
0.0
 11
-1.85541264433499
 21
115.602642732082
 31
0.0
  0
LINE
  5
43
330
1F
100
AcDbEntity
  8
1
  6
Continuous
 62
     7
100
AcDbLine
 10
-16.35541264433499
 20
112.0731799051307
 30
0.0
 11
-16.35541264433499
 21
125.602642732082
 31
0.0
  0
LINE
  5
44
330
1F
100
AcDbEntity
  8
1
  6
Continuous
 62
     7
100
AcDbLine
 10
-16.35541264433499
 20
-19.89735726791801
 30
0.0
 11
-16.35541264433499
 21
16.13210555903331
 31
0.0
  0
LINE
  5
45
330
1F
100
AcDbEntity
  8
1
  6
Continuous
 62
     7
100
AcDbLine
 10
-19.85541264433499
 20
-63.75985574564461
 30
0.0
 11
-16.35541264433499
 21
-63.75985574564461
 31
0.0
  0
LINE
  5
46
330
1F
100
AcDbEntity
  8
1
  6
Continuous
 62
     7
100
AcDbLine
 10
-16.35541264433499
 20
-63.75985574564461
 30
0.0
 11
-16.35541264433499
 21
-42.75985574564459
 31
0.0
  0
LINE
  5
47
330
1F
100
AcDbEntity
  8
1
  6
Continuous
 62
     7
100
AcDbLine
 10
-19.85541264433499
 20
-63.75985574564461
 30
0.0
 11
-19.85541264433499
 21
-39.2598557456446
 31
0.0
  0
LINE
  5
48
330
1F
100
AcDbEntity
  8
1
  6
DOT_CENTER
 62
     2
100
AcDbLine
 10
0.04459938871
 20
23.60264273208199
 30
0.0
 11
6.04459938871
 21
23.60264273208199
 31
0.0
  0
LINE
  5
49
330
1F
100
AcDbEntity
  8
1
  6
DOT_CENTER
 62
     2
100
AcDbLine
 10
3.14458735566501
 20
26.530449584737
 30
0.0
 11
3.14458735566501
 21
20.62392644428999
 31
0.0
  0
LINE
  5
4A
330
1F
100
AcDbEntity
  8
1
  6
DOT_CENTER
 62
     2
100
AcDbLine
 10
-0.95540061129
 20
104.602642732082
 30
0.0
 11
5.04459938871
 21
104.602642732082
 31
0.0
  0
LINE
  5
4B
330
1F
100
AcDbEntity
  8
1
  6
DOT_CENTER
 62
     2
100
AcDbLine
 10
2.14458735566501
 20
107.530449584737
 30
0.0
 11
2.14458735566501
 21
101.62392644429
 31
0.0
  0
LINE
  5
4C
330
1F
100
AcDbEntity
  8
1
  6
Continuous
 62
     7
100
AcDbLine
 10
-19.85541264433499
 20
103.602642732082
 30
0.0
 11
-19.85541264433499
 21
24.60264273208199
 31
0.0
  0
LINE
  5
4D
330
1F
100
AcDbEntity
  8
1
  6
DOT_CENTER
 62
     2
100
AcDbLine
 10
-32.85541264433499
 20
-19.89735726791811
 30
0.0
 11
20.242936398448
 21
-19.89735726791811
 31
0.0
  0
LINE
  5
4E
330
1F
100
AcDbEntity
  8
1
  6
DOT_CENTER
 62
     2
100
AcDbLine
 10
-36.85541264433499
 20
125.602642732082
 30
0.0
 11
20.242936398448
 21
125.602642732082
 31
0.0
  0
LINE
  5
4F
330
1F
100
AcDbEntity
  8
1
  6
Continuous
 62
     7
100
AcDbLine
 10
-30.85541264433499
 20
125.602642732082
 30
0.0
 11
-30.85541264433499
 21
-19.89735726791811
 31
0.0
  0
LINE
  5
50
330
1F
100
AcDbEntity
  8
1
  6
DOT_CENTER
 62
     2
100
AcDbLine
 10
15.14458735566501
 20
-32.7598557456446
 30
0.0
 11
20.14458735566501
 21
-32.7598557456446
 31
0.0
  0
LINE
  5
51
330
1F
100
AcDbEntity
  8
1
  6
Continuous
 62
     7
100
AcDbLine
 10
15.14458735566501
 20
-32.7598557456446
 30
0.0
 11
15.14458735566501
 21
-50.75985574564457
 31
0.0
  0
LINE
  5
52
330
1F
100
AcDbEntity
  8
1
  6
Continuous
 62
     7
100
AcDbLine
 10
10.14458735566501
 20
-50.75985574564457
 30
0.0
 11
15.14458735566501
 21
-50.75985574564457
 31
0.0
  0
LINE
  5
53
330
1F
100
AcDbEntity
  8
1
  6
Continuous
 62
     7
100
AcDbLine
 10
0.1445873556649
 20
-39.25985574564464
 30
0.0
 11
10.14458735566501
 21
-39.25985574564459
 31
0.0
  0
LINE
  5
54
330
1F
100
AcDbEntity
  8
1
  6
Continuous
 62
     7
100
AcDbLine
 10
-19.85541264433499
 20
-39.2598557456446
 30
0.0
 11
0.1445873556649
 21
-39.25985574564464
 31
0.0
  0
LINE
  5
55
330
1F
100
AcDbEntity
  8
1
  6
Continuous
 62
     7
100
AcDbLine
 10
10.14458735566501
 20
-39.25985574564459
 30
0.0
 11
10.14458735566501
 21
-50.75985574564457
 31
0.0
  0
LINE
  5
56
330
1F
100
AcDbEntity
  8
1
  6
Continuous
 62
     7
100
AcDbLine
 10
-30.85541264433499
 20
-32.7598557456446
 30
0.0
 11
-30.85541264433499
 21
-63.7598557456446
 31
0.0
  0
LINE
  5
57
330
1F
100
AcDbEntity
  8
1
  6
Continuous
 62
     7
100
AcDbLine
 10
-30.85541264433499
 20
-63.7598557456446
 30
0.0
 11
-19.85541264433499
 21
-63.75985574564461
 31
0.0
  0
LINE
  5
58
330
1F
100
AcDbEntity
  8
1
  6
Continuous
 62
     7
100
AcDbLine
 10
15.14458735566501
 20
125.602642732082
 30
0.0
 11
15.14458735566501
 21
-19.89735726791811
 31
0.0
  0
LINE
  5
59
330
1F
100
AcDbEntity
  8
1
  6
DOT_CENTER
 62
     2
100
AcDbLine
 10
-30.85541264433499
 20
-32.7598557456446
 30
0.0
 11
15.14458735566501
 21
-32.7598557456446
 31
0.0
  0
LINE
  5
5A
330
1F
100
AcDbEntity
  8
1
  6
DOT_CENTER
 62
     2
100
AcDbLine
 10
-7.85541264433499
 20
52.66402596173899
 30
0.0
 11
-7.85541264433499
 21
46.22906682248498
 31
0.0
  0
LINE
  5
5B
330
1F
100
AcDbEntity
  8
1
  6
DOT_CENTER
 62
     2
100
AcDbLine
 10
-16.29720768279302
 20
48.10264273208199
 30
0.0
 11
-5.85541264433499
 21
48.10264273208199
 31
0.0
  0
LINE
  5
5C
330
1F
100
AcDbEntity
  8
1
  6
DOT_CENTER
 62
     2
100
AcDbLine
 10
-16.225764834844
 20
80.10264273208199
 30
0.0
 11
-4.85541264433499
 21
80.10264273208199
 31
0.0
  0
LINE
  5
5D
330
1F
100
AcDbEntity
  8
1
  6
DOT_CENTER
 62
     2
100
AcDbLine
 10
-7.85541264433499
 20
82.70763009694198
 30
0.0
 11
-7.85541264433499
 21
77.09818074928398
 31
0.0
  0
LINE
  5
5E
330
1F
100
AcDbEntity
  8
1
  6
DOT_CENTER
 62
     2
100
AcDbLine
 10
-32.899513760514
 20
-32.7598557456446
 30
0.0
 11
-30.85541264433499
 21
-32.7598557456446
 31
0.0
  0
LINE
  5
5F
330
1F
100
AcDbEntity
  8
1
  6
Continuous
 62
     7
100
AcDbLine
 10
10.14458735566501
 20
103.602642732082
 30
0.0
 11
10.14458735566501
 21
24.60264273208199
 31
0.0
  0
LINE
  5
60
330
1F
100
AcDbEntity
  8
1
  6
Continuous
 62
     2
100
AcDbLine
 10
-39.77242200323101
 20
118.007487021757
 30
0.0
 11
-71.26463072356401
 21
118.007487021757
 31
0.0
  0
LINE
  5
61
330
1F
100
AcDbEntity
  8
1
  6
DOT_CENTER
 62
     7
100
AcDbLine
 10
-55.19669631511999
 20
64.10264273208199
 30
0.0
 11
-46.83492333369
 21
64.10264273208199
 31
0.0
  0
LINE
  5
62
330
1F
100
AcDbEntity
  8
1
  6
Continuous
 62
     2
100
AcDbLine
 10
-30.85541264433499
 20
-33.03794811154761
 30
0.0
 11
-30.5773202784319
 21
-32.7598557456446
 31
0.0
  0
LINE
  5
63
330
1F
100
AcDbEntity
  8
1
  6
Continuous
 62
     2
100
AcDbLine
 10
15.06229002835741
 20
-50.75985574564456
 30
0.0
 11
15.14458735566501
 21
-50.67755841833696
 31
0.0
  0
ARC
  5
64
330
1F
100
AcDbEntity
  8
1
  6
DOT_CENTER
 62
     2
100
AcDbCircle
 10
-1.85541264433499
 20
24.60264273208199
 30
0.0
 40
12.0
100
AcDbArc
 50
0.0
 51
-90.0
  0
ARC
  5
65
330
1F
100
AcDbEntity
  8
1
  6
Continuous
 62
     7
100
AcDbCircle
 10
-1.85541264433499
 20
24.60264273208199
 30
0.0
 40
12.0
100
AcDbArc
 50
-90.0
 51
0.0
  0
ARC
  5
66
330
1F
100
AcDbEntity
  8
1
  6
Continuous
 62
     7
100
AcDbCircle
 10
-7.85541264433499
 20
24.60264273208199
 30
0.0
 40
12.0
100
AcDbArc
 50
180.0
 51
-90.0
  0
ARC
  5
67
330
1F
100
AcDbEntity
  8
1
  6
Continuous
 62
     7
100
AcDbCircle
 10
-1.85541264433499
 20
103.602642732082
 30
0.0
 40
12.0
100
AcDbArc
 50
0.0
 51
90.0
  0
ARC
  5
68
330
1F
100
AcDbEntity
  8
1
  6
Continuous
 62
     7
100
AcDbCircle
 10
-7.85541264433499
 20
103.602642732082
 30
0.0
 40
12.0
100
AcDbArc
 50
90.0
 51
180.0
  0
CIRCLE
  5
69
330
1F
100
AcDbEntity
  8
1
  6
Continuous
 62
     7
100
AcDbCircle
 10
0.14458735566501
 20
36.6026427320821
 30
0.0
 40
1.5
  0
CIRCLE
  5
6A
330
1F
100
AcDbEntity
  8
1
  6
Continuous
 62
     7
100
AcDbCircle
 10
0.14458735566501
 20
91.60264273208199
 30
0.0
 40
1.5
  0
CIRCLE
  5
6B
330
1F
100
AcDbEntity
  8
1
  6
Continuous
 62
     7
100
AcDbCircle
 10
3.14458735566501
 20
23.60264273208199
 30
0.0
 40
1.5
  0
CIRCLE
  5
6C
330
1F
100
AcDbEntity
  8
1
  6
Continuous
 62
     7
100
AcDbCircle
 10
2.14458735566501
 20
104.602642732082
 30
0.0
 40
1.5
  0
CIRCLE
  5
6D
330
1F
100
AcDbEntity
  8
1
  6
Continuous
 62
     7
100
AcDbCircle
 10
-7.85541264433499
 20
48.10264273208199
 30
0.0
 40
1.5
  0
CIRCLE
  5
6E
330
1F
100
AcDbEntity
  8
1
  6
Continuous
 62
     7
100
AcDbCircle
 10
-7.85541264433499
 20
80.10264273208199
 30
0.0
 40
1.5
  0
MTEXT
  5
70
330
1F
100
AcDbEntity
  8
1
 62
     2
100
AcDbMText
 10
-56.204791353064
 20
121.074908282931
 30
0.0
 40
2.5
 41
0.0
 71
     5
 72
     1
  1
Bandbezugslinie
  7
CONVERTER_11
 73
     1
 44
0.60024009603842
  0
DIMENSION
  5
7B
330
1F
100
AcDbEntity
  8
1
100
AcDbDimension
  2
*D1
 10
-45.32386287294
 20
64.10264273208199
 30
0.0
 11
-49.07386287294
 21
86.431215448577
 31
0.0
 70
    32
  1
<>
 71
     5
 42
-1.0
 53
90.0
  3
ME10_DIM_10
100
AcDbAlignedDimension
 13
-7.85541264433499
 23
115.602642732082
 33
0.0
 14
-35.459469215767
 24
64.10264273208199
 34
0.0
 50
90.0
100
AcDbRotatedDimension
  0
DIMENSION
  5
86
330
1F
100
AcDbEntity
  8
1
100
AcDbDimension
  2
*D2
 10
23.45203292630299
 20
36.60264273208212
 30
0.0
 11
20.67522656499099
 21
63.88574008559201
 31
0.0
 70
    32
  1
<>
 71
     5
 42
-1.0
 53
90.0
  3
ME10_DIM_11
100
AcDbAlignedDimension
 13
3.04459938871
 23
91.60264273208199
 33
0.0
 14
3.04459938871
 24
36.6026427320821
 34
0.0
 50
90.0
100
AcDbRotatedDimension
  0
DIMENSION
  5
92
330
1F
100
AcDbEntity
  8
1
100
AcDbDimension
  2
*D3
 10
10.14458735566501
 20
82.10799015127398
 30
0.0
 11
4.854689129164
 21
85.85799015127398
 31
0.0
 70
    32
  1
<>
 71
     5
 42
-1.0
 53
0.00013888888889
  3
ME10_DIM_12
100
AcDbAlignedDimension
 13
0.14458735566501
 23
88.62392644428999
 33
0.0
 14
10.14458735566501
 24
103.602642732082
 34
0.0
100
AcDbRotatedDimension
  0
DIMENSION
  5
A0
330
1F
100
AcDbEntity
  8
1
100
AcDbDimension
  2
*D4
 10
10.14458735566501
 20
95.93925705767998
 30
0.0
 11
5.575536915817
 21
99.68925705767998
 31
0.0
 70
    32
  1
<>
 71
     5
 42
-1.0
 53
0.00013888888889
  3
ME10_DIM_13
100
AcDbAlignedDimension
 13
2.14458735566501
 23
101.62392644429
 33
0.0
 14
10.14458735566501
 24
103.602642732082
 34
0.0
100
AcDbRotatedDimension
  0
DIMENSION
  5
AB
330
1F
100
AcDbEntity
  8
1
100
AcDbDimension
  2
*D5
 10
38.05596457104
 20
12.60264273208199
 30
0.0
 11
35.29263047139202
 21
64.19347490467399
 31
0.0
 70
    32
  1
<>
 71
     5
 42
-1.0
 53
90.0
  3
ME10_DIM_14
100
AcDbAlignedDimension
 13
-1.85541264433499
 23
115.602642732082
 33
0.0
 14
-1.85541264433499
 24
12.60264273208199
 34
0.0
 50
90.0
100
AcDbRotatedDimension
  0
DIMENSION
  5
B7
330
1F
100
AcDbEntity
  8
1
100
AcDbDimension
  2
*D6
 10
10.14458735566501
 20
41.12908070823698
 30
0.0
 11
0.14458735566501
 21
44.87908070823698
 31
0.0
 70
    32
  1
<>
 71
     5
 42
-1.0
 53
0.00013888888889
  3
ME10_DIM_15
100
AcDbAlignedDimension
 13
-7.85541264433499
 23
46.22906682248498
 33
0.0
 14
10.14458735566501
 24
24.60264273208199
 34
0.0
100
AcDbRotatedDimension
  0
DIMENSION
  5
C2
330
1F
100
AcDbEntity
  8
1
100
AcDbDimension
  2
*D7
 10
-36.646308227947
 20
48.10264273208199
 30
0.0
 11
-40.396308227947
 21
64.10264273208199
 31
0.0
 70
    32
  1
<>
 71
     5
 42
-1.0
 53
90.0
  3
ME10_DIM_16
100
AcDbAlignedDimension
 13
-16.225764834844
 23
80.10264273208199
 33
0.0
 14
-16.29720768279302
 24
48.10264273208199
 34
0.0
 50
90.0
100
AcDbRotatedDimension
  0
DIMENSION
  5
CF
330
1F
100
AcDbEntity
  8
1
100
AcDbDimension
  2
*D8
 10
-19.85541264433499
 20
-69.6463267550734
 30
0.0
 11
-10.4264084899307
 21
-66.3314017976366
 31
0.0
 70
    32
  1
<>
 71
     5
 42
-1.0
 53
0.00013888888889
  3
ME10_DIM_17
100
AcDbAlignedDimension
 13
-16.35541264433499
 23
-63.75985574564461
 33
0.0
 14
-19.85541264433499
 24
-63.75985574564461
 34
0.0
100
AcDbRotatedDimension
  0
DIMENSION
  5
DB
330
1F
100
AcDbEntity
  8
1
100
AcDbDimension
  2
*D9
 10
10.14458735566501
 20
-79.0908663577618
 30
0.0
 11
-5.12101926123631
 21
-75.3408663577618
 31
0.0
 70
    32
  1
<>
 71
     5
 42
-1.0
 53
0.00013888888889
  3
ME10_DIM_18
100
AcDbAlignedDimension
 13
-19.85541264433499
 23
-63.75985574564461
 33
0.0
 14
10.14458735566501
 24
-50.75985574564457
 34
0.0
100
AcDbRotatedDimension
  0
DIMENSION
  5
E8
330
1F
100
AcDbEntity
  8
1
100
AcDbDimension
  2
*D10
 10
26.70025063234212
 20
-50.75985574564457
 30
0.0
 11
22.95025063234209
 21
-33.0106486076091
 31
0.0
 70
    32
  1
<>
 71
     5
 42
-1.0
 53
90.0
  3
ME10_DIM_19
100
AcDbAlignedDimension
 13
10.14458735566501
 23
-39.25985574564459
 33
0.0
 14
15.14458735566501
 24
-50.75985574564457
 34
0.0
 50
90.0
100
AcDbRotatedDimension
  0
DIMENSION
  5
F3
330
1F
100
AcDbEntity
  8
1
100
AcDbDimension
  2
*D11
 10
30.887657765716
 20
23.60264273208199
 30
0.0
 11
28.21472963250298
 21
63.88574008559201
 31
0.0
 70
    32
  1
<>
 71
     5
 42
-1.0
 53
90.0
  3
ME10_DIM_20
100
AcDbAlignedDimension
 13
5.04459938871
 23
104.602642732082
 33
0.0
 14
6.04459938871
 24
23.60264273208199
 34
0.0
 50
90.0
100
AcDbRotatedDimension
  0
INSERT
  5
FC
330
1F
100
AcDbEntity
  8
1
100
AcDbBlockReference
  2
*D12
 10
0.0
 20
0.0
 30
0.0
  0
ENDSEC
  0
SECTION
  2
OBJECTS
  0
DICTIONARY
  5
C
330
0
100
AcDbDictionary
281
     1
  3
ACAD_GROUP
350
D
  3
ACAD_LAYOUT
350
1A
  3
ACAD_MLINESTYLE
350
17
  3
ACAD_PLOTSETTINGS
350
19
  3
ACAD_PLOTSTYLENAME
350
E
  0
DICTIONARY
  5
D
102
{ACAD_REACTORS
330
C
102
}
330
C
100
AcDbDictionary
281
     1
  0
DICTIONARY
  5
1A
102
{ACAD_REACTORS
330
C
102
}
330
C
100
AcDbDictionary
281
     1
  3
Layout1
350
1E
  3
Layout2
350
26
  3
Model
350
22
  0
DICTIONARY
  5
17
102
{ACAD_REACTORS
330
C
102
}
330
C
100
AcDbDictionary
281
     1
  3
Standard
350
18
  0
DICTIONARY
  5
19
102
{ACAD_REACTORS
330
C
102
}
330
C
100
AcDbDictionary
281
     1
  0
ACDBDICTIONARYWDFLT
  5
E
102
{ACAD_REACTORS
330
C
102
}
330
C
100
AcDbDictionary
281
     1
  3
Normal
350
F
100
AcDbDictionaryWithDefault
340
F
  0
LAYOUT
  5
1E
102
{ACAD_REACTORS
330
1A
102
}
330
1A
100
AcDbPlotSettings
  1

  2

  4

  6

 40
0.0
 41
0.0
 42
0.0
 43
0.0
 44
0.0
 45
0.0
 46
0.0
 47
0.0
 48
0.0
 49
0.0
140
0.0
141
0.0
142
1.0
143
1.0
 70
   688
 72
     0
 73
     0
 74
     5
  7

 75
    16
 76
     0
 77
     2
 78
   300
147
1.0
148
0.0
149
0.0
100
AcDbLayout
  1
Layout1
 70
     1
 71
     1
 10
0.0
 20
0.0
 11
0.0
 21
0.0
 12
0.0
 22
0.0
 32
0.0
 14
0.0
 24
0.0
 34
0.0
 15
0.0
 25
0.0
 35
0.0
146
0.0
 13
0.0
 23
0.0
 33
0.0
 16
1.0
 26
0.0
 36
0.0
 17
0.0
 27
1.0
 37
0.0
 76
     0
330
1B
  0
LAYOUT
  5
26
102
{ACAD_REACTORS
330
1A
102
}
330
1A
100
AcDbPlotSettings
  1

  2

  4

  6

 40
0.0
 41
0.0
 42
0.0
 43
0.0
 44
0.0
 45
0.0
 46
0.0
 47
0.0
 48
0.0
 49
0.0
140
0.0
141
0.0
142
1.0
143
1.0
 70
   688
 72
     0
 73
     0
 74
     5
  7

 75
    16
 76
     0
 77
     2
 78
   300
147
1.0
148
0.0
149
0.0
100
AcDbLayout
  1
Layout2
 70
     1
 71
     2
 10
0.0
 20
0.0
 11
0.0
 21
0.0
 12
0.0
 22
0.0
 32
0.0
 14
0.0
 24
0.0
 34
0.0
 15
0.0
 25
0.0
 35
0.0
146
0.0
 13
0.0
 23
0.0
 33
0.0
 16
1.0
 26
0.0
 36
0.0
 17
0.0
 27
1.0
 37
0.0
 76
     0
330
23
  0
LAYOUT
  5
22
102
{ACAD_REACTORS
330
1A
102
}
330
1A
100
AcDbPlotSettings
  1

  2

  4

  6

 40
0.0
 41
0.0
 42
0.0
 43
0.0
 44
0.0
 45
0.0
 46
0.0
 47
0.0
 48
0.0
 49
0.0
140
0.0
141
0.0
142
1.0
143
1.0
 70
  1712
 72
     0
 73
     0
 74
     0
  7

 75
     0
 76
     0
 77
     2
 78
   300
147
1.0
148
0.0
149
0.0
100
AcDbLayout
  1
Model
 70
     1
 71
     0
 10
0.0
 20
0.0
 11
0.0
 21
0.0
 12
0.0
 22
0.0
 32
0.0
 14
-71.26463072356401
 24
-81.0908663577618
 34
0.0
 15
40.05596457104
 25
125.602642732082
 35
0.0
146
0.0
 13
0.0
 23
0.0
 33
0.0
 16
1.0
 26
0.0
 36
0.0
 17
0.0
 27
1.0
 37
0.0
 76
     0
330
1F
  0
MLINESTYLE
  5
18
102
{ACAD_REACTORS
330
17
102
}
330
17
100
AcDbMlineStyle
  2
Standard
 70
     0
  3

 62
   256
 51
90.0
 52
90.0
 71
     2
 49
0.5
 62
   256
  6
BYLAYER
 49
-0.5
 62
   256
  6
BYLAYER
  0
ACDBPLACEHOLDER
  5
F
102
{ACAD_REACTORS
330
E
102
}
330
E
  0
ENDSEC
  0
EOF
