999
DXF file: d:\tmp\workingDir\0000083987\vx_7859_160_4_18_12_fd_v01_01.dxf
999
Pro/ENGINEER 2016380 by Parametric Technology Corporation
  0
SECTION
  2
HEADER
  9
$ACADVER
  1
AC1014
  9
$DWGCODEPAGE
  3
ANSI_1252
  9
$EXTMAX
 10
169.926
 20
180.0
 30
0.0
  9
$EXTMIN
 10
0.0
 20
0.0
 30
0.0
  9
$LIMMIN
 10
0.0
 20
0.0
  9
$LIMMAX
 10
169.926
 20
180.0
  9
$VIEWCTR
 10
84.963
 20
90.0
  9
$VIEWSIZE
 40
180.0
  9
$CLAYER
  8
0
  9
$LTSCALE
 40
11.7333333333
  9
$CELTYPE
  6
BYLAYER
  9
$DIMSCALE
 40
1.0
  9
$DIMASZ
 40
3.5
  9
$DIMEXO
 40
0.0
  9
$DIMDLI
 40
8.1066666667
  9
$DIMEXE
 40
2.0
  9
$DIMCEN
 40
1.92
  9
$DIMLFAC
 40
1.0
  9
$DIMBLK
  1
_ARROW_FILLED
  9
$DIMALT
 70
0
  9
$DIMALTF
 40
25.4
  9
$DIMTXT
 40
3.5
  9
$DIMTOL
 70
1
  9
$DIMLIM
 70
0
  9
$DIMTFAC
 40
1.0
  9
$DIMTP
 40
0.01
  9
$DIMTM
 40
0.01
  9
$DIMGAP
 40
0.625
  9
$AUNITS
 70
0
  9
$PDMODE
 70
0
  9
$PDSIZE
 40
0.04
  9
$HANDSEED
  5
357
  9
$TILEMODE
 70
1
  9
$MEASUREMENT
 70
1
  0
ENDSEC
  0
SECTION
  2
CLASSES
  0
ENDSEC
  0
SECTION
  2
TABLES
  0
TABLE
  2
VPORT
  5
8
100
AcDbSymbolTable
 70
2
  0
VPORT
  5
1F4
100
AcDbSymbolTableRecord
100
AcDbViewportTableRecord
  2
*ACTIVE
 70
0
 10
0.0
 20
0.0
 11
1.0
 21
1.0
 12
84.963
 22
90.0
 13
0.0
 23
0.0
 14
1.0
 24
1.0
 15
0.0
 25
0.0
 16
0.0
 26
0.0
 36
1.0
 17
0.0
 27
0.0
 37
0.0
 40
180.0
 41
0.9440333333
 42
50.0
 43
0.0
 44
0.0
 50
0.0
 51
0.0
 71
0
 72
100
 73
1
 74
1
 75
0
 76
0
 77
0
 78
0
  0
ENDTAB
  0
TABLE
  2
LTYPE
  5
5
100
AcDbSymbolTable
 70
6
  0
LTYPE
  5
14
100
AcDbSymbolTableRecord
100
AcDbLinetypeTableRecord
  2
BYBLOCK
 70
0
  3

 72
65
 73
0
 40
0.0
  0
LTYPE
  5
15
100
AcDbSymbolTableRecord
100
AcDbLinetypeTableRecord
  2
BYLAYER
 70
0
  3

 72
65
 73
0
 40
0.0
  0
LTYPE
  5
16
100
AcDbSymbolTableRecord
100
AcDbLinetypeTableRecord
  2
CONTINUOUS
 70
64
  3
Solid line
 72
65
 73
0
 40
0.0
  0
LTYPE
  5
1F5
100
AcDbSymbolTableRecord
100
AcDbLinetypeTableRecord
  2
CENTER
 70
64
  3
____ _ ____ _ ____ _ ____ _ ____ _ ____ _ ____
 72
65
 73
4
 40
0.6
 49
0.375
 74
0
 49
-0.075
 74
0
 49
0.075
 74
0
 49
-0.075
 74
0
  0
LTYPE
  5
1F6
100
AcDbSymbolTableRecord
100
AcDbLinetypeTableRecord
  2
HIDDEN
 70
64
  3
- - - - - - - - - - - - - - - - - - - -
 72
65
 73
2
 40
0.2
 49
0.1
 74
0
 49
-0.1
 74
0
  0
LTYPE
  5
1F7
100
AcDbSymbolTableRecord
100
AcDbLinetypeTableRecord
  2
PHANTOM
 70
64
  3
_____ _ _ _____ _ _ _____ _ _ _____
 72
65
 73
6
 40
0.8
 49
0.45
 74
0
 49
-0.05
 74
0
 49
0.1
 74
0
 49
-0.05
 74
0
 49
0.1
 74
0
 49
-0.05
 74
0
  0
LTYPE
  5
1F8
100
AcDbSymbolTableRecord
100
AcDbLinetypeTableRecord
  2
DOT
 70
64
  3
. . . . . . . . . . . . . . . . . . . .
 72
65
 73
2
 40
0.2
 49
0.1
 74
0
 49
-0.1
 74
0
  0
LTYPE
  5
1F9
100
AcDbSymbolTableRecord
100
AcDbLinetypeTableRecord
  2
DASHED
 70
64
  3
- - - - - - - - - - - - - - - - - - - -
 72
65
 73
2
 40
0.2
 49
0.1
 74
0
 49
-0.1
 74
0
  0
ENDTAB
  0
TABLE
  2
LAYER
  5
2
100
AcDbSymbolTable
 70
36
  0
LAYER
  5
10
100
AcDbSymbolTableRecord
100
AcDbLayerTableRecord
  2
0
 70
0
 62
7
  6
CONTINUOUS
  0
LAYER
  5
1FA
100
AcDbSymbolTableRecord
100
AcDbLayerTableRecord
  2
DEFAULT_1
 70
0
 62
7
  6
CENTER
  0
LAYER
  5
1FB
100
AcDbSymbolTableRecord
100
AcDbLayerTableRecord
  2
DEFAULT_2
 70
0
 62
8
  6
HIDDEN
  0
LAYER
  5
1FC
100
AcDbSymbolTableRecord
100
AcDbLayerTableRecord
  2
DEFAULT_3
 70
0
 62
7
  6
PHANTOM
  0
LAYER
  5
1FD
100
AcDbSymbolTableRecord
100
AcDbLayerTableRecord
  2
A_ACHSEN
 70
0
 62
7
  6
CONTINUOUS
  0
LAYER
  5
1FE
100
AcDbSymbolTableRecord
100
AcDbLayerTableRecord
  2
A_BASISEBENEN
 70
0
 62
7
  6
CONTINUOUS
  0
LAYER
  5
1FF
100
AcDbSymbolTableRecord
100
AcDbLayerTableRecord
  2
A_BEMASSUNGEN
 70
0
 62
7
  6
CONTINUOUS
  0
LAYER
  5
200
100
AcDbSymbolTableRecord
100
AcDbLayerTableRecord
  2
A_BOHRUNGEN
 70
0
 62
7
  6
CONTINUOUS
  0
LAYER
  5
201
100
AcDbSymbolTableRecord
100
AcDbLayerTableRecord
  2
A_EBENEN
 70
0
 62
7
  6
CONTINUOUS
  0
LAYER
  5
202
100
AcDbSymbolTableRecord
100
AcDbLayerTableRecord
  2
A_FASEN
 70
0
 62
7
  6
CONTINUOUS
  0
LAYER
  5
203
100
AcDbSymbolTableRecord
100
AcDbLayerTableRecord
  2
A_FLAECHEN
 70
0
 62
7
  6
CONTINUOUS
  0
LAYER
  5
204
100
AcDbSymbolTableRecord
100
AcDbLayerTableRecord
  2
A_FL_VERBAENDE
 70
0
 62
7
  6
CONTINUOUS
  0
LAYER
  5
205
100
AcDbSymbolTableRecord
100
AcDbLayerTableRecord
  2
A_KURVEN
 70
0
 62
7
  6
CONTINUOUS
  0
LAYER
  5
206
100
AcDbSymbolTableRecord
100
AcDbLayerTableRecord
  2
A_NOTIZEN_SYMB
 70
0
 62
7
  6
CONTINUOUS
  0
LAYER
  5
207
100
AcDbSymbolTableRecord
100
AcDbLayerTableRecord
  2
A_RUNDUNGEN
 70
0
 62
7
  6
CONTINUOUS
  0
LAYER
  5
208
100
AcDbSymbolTableRecord
100
AcDbLayerTableRecord
  2
A_TABELLEN
 70
0
 62
7
  6
CONTINUOUS
  0
LAYER
  5
209
100
AcDbSymbolTableRecord
100
AcDbLayerTableRecord
  2
B-ACHSEN
 70
0
 62
7
  6
CONTINUOUS
  0
LAYER
  5
20A
100
AcDbSymbolTableRecord
100
AcDbLayerTableRecord
  2
B-EBENEN
 70
0
 62
7
  6
CONTINUOUS
  0
LAYER
  5
20B
100
AcDbSymbolTableRecord
100
AcDbLayerTableRecord
  2
B-KOORSYS
 70
0
 62
7
  6
CONTINUOUS
  0
LAYER
  5
20C
100
AcDbSymbolTableRecord
100
AcDbLayerTableRecord
  2
BASISEBENEN
 70
0
 62
7
  6
CONTINUOUS
  0
LAYER
  5
20D
100
AcDbSymbolTableRecord
100
AcDbLayerTableRecord
  2
BEMASSUNG
 70
0
 62
7
  6
CONTINUOUS
  0
LAYER
  5
20E
100
AcDbSymbolTableRecord
100
AcDbLayerTableRecord
  2
BOHRUNGEN
 70
0
 62
7
  6
CONTINUOUS
  0
LAYER
  5
20F
100
AcDbSymbolTableRecord
100
AcDbLayerTableRecord
  2
KOERPER
 70
0
 62
7
  6
CONTINUOUS
  0
LAYER
  5
210
100
AcDbSymbolTableRecord
100
AcDbLayerTableRecord
  2
RUNDUNGEN
 70
0
 62
7
  6
CONTINUOUS
  0
LAYER
  5
211
100
AcDbSymbolTableRecord
100
AcDbLayerTableRecord
  2
VERBUNDFLAECHEN
 70
0
 62
7
  6
CONTINUOUS
  0
LAYER
  5
212
100
AcDbSymbolTableRecord
100
AcDbLayerTableRecord
  2
XSEC_DATUMS
 70
0
 62
7
  6
CONTINUOUS
  0
ENDTAB
  0
TABLE
  2
STYLE
  5
3
100
AcDbSymbolTable
 70
1
  0
STYLE
  5
11
100
AcDbSymbolTableRecord
100
AcDbTextStyleTableRecord
  2
STANDARD
 70
0
 40
0.0
 41
1.0
 50
0.0
 71
0
 42
0.2
  3
txt
  4

  0
STYLE
  5
213
100
AcDbSymbolTableRecord
100
AcDbTextStyleTableRecord
  2
TEXTSTYLE_1
 70
0
 40
0.0
 41
0.8
 50
0.0
 71
0
 42
0.2
  3
gdt
  4

  0
STYLE
  5
214
100
AcDbSymbolTableRecord
100
AcDbTextStyleTableRecord
  2
TEXTSTYLE_2
 70
0
 40
0.0
 41
1.0
 50
0.0
 71
0
 42
0.2
  3
txt
  4

  0
ENDTAB
  0
TABLE
  2
VIEW
  5
6
100
AcDbSymbolTable
 70
0
  0
ENDTAB
  0
TABLE
  2
UCS
  5
7
100
AcDbSymbolTable
 70
0
  0
ENDTAB
  0
TABLE
  2
APPID
  5
9
100
AcDbSymbolTable
 70
1
  0
APPID
  5
215
100
AcDbSymbolTableRecord
100
AcDbRegAppTableRecord
  2
ACAD
 70
0
  0
ENDTAB
  0
TABLE
  2
BLOCK_RECORD
  5
1
100
AcDbSymbolTable
 70
0
  0
BLOCK_RECORD
  5
1F
100
AcDbSymbolTableRecord
100
AcDbBlockTableRecord
  2
*MODEL_SPACE
  0
BLOCK_RECORD
  5
1B
100
AcDbSymbolTableRecord
100
AcDbBlockTableRecord
  2
*PAPER_SPACE
  0
BLOCK_RECORD
  5
216
100
AcDbSymbolTableRecord
100
AcDbBlockTableRecord
  2
_ARROW_FILLED
  0
BLOCK_RECORD
  5
217
100
AcDbSymbolTableRecord
100
AcDbBlockTableRecord
  2
*D0
  0
BLOCK_RECORD
  5
218
100
AcDbSymbolTableRecord
100
AcDbBlockTableRecord
  2
*D1
  0
BLOCK_RECORD
  5
219
100
AcDbSymbolTableRecord
100
AcDbBlockTableRecord
  2
*D2
  0
BLOCK_RECORD
  5
21A
100
AcDbSymbolTableRecord
100
AcDbBlockTableRecord
  2
*D3
  0
BLOCK_RECORD
  5
21B
100
AcDbSymbolTableRecord
100
AcDbBlockTableRecord
  2
*D4
  0
BLOCK_RECORD
  5
21C
100
AcDbSymbolTableRecord
100
AcDbBlockTableRecord
  2
*D5
  0
ENDTAB
  0
TABLE
  2
DIMSTYLE
  5
A
100
AcDbSymbolTable
 70
1
  0
DIMSTYLE
105
21D
100
AcDbSymbolTableRecord
100
AcDbDimStyleTableRecord
  2
STANDARD
 70
0
  3

  4

  5
_ARROW_FILLED
  6
_ARROW_FILLED
  7
_ARROW_FILLED
 40
1.0
 41
3.5
 42
0.0
 43
0.38
 44
2.0
 45
0.0
 46
0.0
 47
0.01
 48
0.01
140
3.5
141
0.09
142
0.0
143
25.4
144
1.0
145
0.0
146
1.0
147
0.625
 71
1.0
 72
0.0
 73
0
 74
0
 75
0
 76
0
 77
1
 78
8
170
0
171
1
172
0
173
0
174
0
175
0
176
0
177
0
178
5
270
2
271
2
272
2
273
2
274
2
275
0
280
0
281
0
282
0
283
1
284
8
285
0
286
0
287
3
288
0
340
11
  0
DIMSTYLE
105
21E
100
AcDbSymbolTableRecord
100
AcDbDimStyleTableRecord
  2
DIMSTYLE_1
 70
0
  3

  4

  5
_ARROW_FILLED
  6
_ARROW_FILLED
  7
_ARROW_FILLED
 40
1.0
 41
3.5
 42
0.0
 43
0.38
 44
2.0
 45
0.0
 46
0.0
 47
0.2
 48
0.2
140
3.5
141
0.09
142
0.0
143
25.4
144
1.0
145
0.0
146
1.0
147
0.875
 71
0.0
 72
0.0
 73
0
 74
0
 75
0
 76
0
 77
1
 78
8
170
0
171
1
172
0
173
0
174
0
175
0
176
0
177
0
178
5
270
2
271
4
272
-1
273
2
274
2
275
0
280
0
281
0
282
0
283
1
284
8
285
0
286
0
287
3
288
0
340
214
  0
DIMSTYLE
105
21F
100
AcDbSymbolTableRecord
100
AcDbDimStyleTableRecord
  2
DIMSTYLE_2
 70
0
  3

  4

  5
_ARROW_FILLED
  6
_ARROW_FILLED
  7
_ARROW_FILLED
 40
1.0
 41
3.5
 42
0.0
 43
0.38
 44
2.0
 45
0.0
 46
0.0
 47
0.3
 48
0.3
140
3.5
141
0.09
142
0.0
143
25.4
144
1.0
145
0.0
146
1.0
147
0.875
 71
0.0
 72
0.0
 73
0
 74
0
 75
0
 76
0
 77
1
 78
8
170
0
171
1
172
0
173
0
174
0
175
0
176
0
177
0
178
5
270
2
271
4
272
-1
273
2
274
2
275
0
280
0
281
0
282
0
283
1
284
8
285
0
286
0
287
3
288
0
340
214
  0
DIMSTYLE
105
220
100
AcDbSymbolTableRecord
100
AcDbDimStyleTableRecord
  2
DIMSTYLE_3
 70
0
  3

  4

  5
_ARROW_FILLED
  6
_ARROW_FILLED
  7
_ARROW_FILLED
 40
1.0
 41
3.5
 42
0.0
 43
0.38
 44
2.0
 45
0.0
 46
0.0
 47
0.5
 48
0.5
140
3.5
141
0.09
142
0.0
143
25.4
144
1.0
145
0.0
146
1.0
147
0.875
 71
0.0
 72
0.0
 73
0
 74
0
 75
0
 76
0
 77
1
 78
8
170
0
171
1
172
0
173
0
174
0
175
0
176
0
177
0
178
5
270
2
271
4
272
-1
273
2
274
2
275
0
280
0
281
0
282
0
283
1
284
8
285
0
286
0
287
3
288
0
340
214
  0
ENDTAB
  0
ENDSEC
  0
SECTION
  2
BLOCKS
  0
BLOCK
  5
20
100
AcDbEntity
  8
0
100
AcDbBlockBegin
  2
*MODEL_SPACE
 70
0
 10
0.0
 20
0.0
 30
0.0
  3
*MODEL_SPACE
  1

  0
ENDBLK
  5
21
100
AcDbEntity
  8
0
100
AcDbBlockEnd
  0
BLOCK
  5
1C
100
AcDbEntity
  8
0
100
AcDbBlockBegin
  2
*PAPER_SPACE
 70
0
 10
0.0
 20
0.0
 30
0.0
  3
*PAPER_SPACE
  1

  0
ENDBLK
  5
1D
100
AcDbEntity
  8
0
100
AcDbBlockEnd
  0
BLOCK
  5
221
100
AcDbEntity
  8
0
100
AcDbBlockBegin
  2
_ARROW_FILLED
 70
64
 10
0.0
 20
0.0
  3
_ARROW_FILLED
  1

  0
SOLID
  5
222
100
AcDbEntity
  8
0
  6
BYBLOCK
 62
0
100
AcDbTrace
 10
0.0
 20
0.0
 11
-1.0
 21
0.0940374286
 12
-1.0
 22
-0.0940374286
 13
-1.0
 23
-0.0940374286
  0
ENDBLK
  5
223
100
AcDbEntity
  8
0
  6
BYBLOCK
 62
0
100
AcDbBlockEnd
  0
BLOCK
  5
224
100
AcDbEntity
  8
A_BEMASSUNGEN
100
AcDbBlockBegin
 62
2
  6
CONTINUOUS
  2
*D0
 70
65
 10
0.0
 20
0.0
  3
*D0
  1

  0
MTEXT
  5
225
100
AcDbEntity
  8
A_BEMASSUNGEN
100
AcDbMText
 62
5
  6
CONTINUOUS
  7
TEXTSTYLE_2
 71
2
 72
1
 10
153.9076311856
 20
99.8541069043
 30
0.0
 11
0.0
 21
1.0
 31
0.0
  1
28
 40
3.5
 41
8.25
  0
LINE
  5
226
100
AcDbEntity
  8
A_BEMASSUNGEN
100
AcDbLine
 62
2
  6
CONTINUOUS
 10
150.4048988739
 20
113.8541069043
 11
160.2826311856
 21
113.8541069043
  0
LINE
  5
227
100
AcDbEntity
  8
A_BEMASSUNGEN
100
AcDbLine
 62
2
  6
CONTINUOUS
 10
150.4048988739
 20
85.8541069043
 11
160.2826311856
 21
85.8541069043
  0
LINE
  5
228
100
AcDbEntity
  8
A_BEMASSUNGEN
100
AcDbLine
 62
2
  6
CONTINUOUS
 10
158.2826311856
 20
113.8541069043
 11
158.2826311856
 21
99.8541069043
  0
LINE
  5
229
100
AcDbEntity
  8
A_BEMASSUNGEN
100
AcDbLine
 62
2
  6
CONTINUOUS
 10
158.2826311856
 20
85.8541069043
 11
158.2826311856
 21
99.8541069043
  0
INSERT
  5
22A
100
AcDbEntity
  8
A_BEMASSUNGEN
100
AcDbBlockReference
 62
2
  6
CONTINUOUS
  2
_ARROW_FILLED
 10
158.2826311856
 20
113.8541069043
 41
3.5
 42
3.5
 43
3.5
 50
90.0
  0
INSERT
  5
22B
100
AcDbEntity
  8
A_BEMASSUNGEN
100
AcDbBlockReference
 62
2
  6
CONTINUOUS
  2
_ARROW_FILLED
 10
158.2826311856
 20
85.8541069043
 41
3.5
 42
3.5
 43
3.5
 50
270.0
  0
ENDBLK
  5
22C
100
AcDbEntity
  8
0
  6
BYBLOCK
 62
0
100
AcDbBlockEnd
  0
BLOCK
  5
22D
100
AcDbEntity
  8
A_BEMASSUNGEN
100
AcDbBlockBegin
 62
2
  6
CONTINUOUS
  2
*D1
 70
65
 10
0.0
 20
0.0
  3
*D1
  1

  0
MTEXT
  5
22E
100
AcDbEntity
  8
A_BEMASSUNGEN
100
AcDbMText
 62
5
  6
CONTINUOUS
  7
TEXTSTYLE_2
 71
2
 72
1
 10
153.9076311856
 20
71.8541069043
 30
0.0
 11
0.0
 21
1.0
 31
0.0
  1
28
 40
3.5
 41
8.25
  0
LINE
  5
22F
100
AcDbEntity
  8
A_BEMASSUNGEN
100
AcDbLine
 62
2
  6
CONTINUOUS
 10
150.4048988739
 20
85.8541069043
 11
160.2826311856
 21
85.8541069043
  0
LINE
  5
230
100
AcDbEntity
  8
A_BEMASSUNGEN
100
AcDbLine
 62
2
  6
CONTINUOUS
 10
150.4048988739
 20
57.8541069043
 11
160.2826311856
 21
57.8541069043
  0
LINE
  5
231
100
AcDbEntity
  8
A_BEMASSUNGEN
100
AcDbLine
 62
2
  6
CONTINUOUS
 10
158.2826311856
 20
85.8541069043
 11
158.2826311856
 21
71.8541069043
  0
LINE
  5
232
100
AcDbEntity
  8
A_BEMASSUNGEN
100
AcDbLine
 62
2
  6
CONTINUOUS
 10
158.2826311856
 20
57.8541069043
 11
158.2826311856
 21
71.8541069043
  0
INSERT
  5
233
100
AcDbEntity
  8
A_BEMASSUNGEN
100
AcDbBlockReference
 62
2
  6
CONTINUOUS
  2
_ARROW_FILLED
 10
158.2826311856
 20
85.8541069043
 41
3.5
 42
3.5
 43
3.5
 50
90.0
  0
INSERT
  5
234
100
AcDbEntity
  8
A_BEMASSUNGEN
100
AcDbBlockReference
 62
2
  6
CONTINUOUS
  2
_ARROW_FILLED
 10
158.2826311856
 20
57.8541069043
 41
3.5
 42
3.5
 43
3.5
 50
270.0
  0
ENDBLK
  5
235
100
AcDbEntity
  8
0
  6
BYBLOCK
 62
0
100
AcDbBlockEnd
  0
BLOCK
  5
236
100
AcDbEntity
  8
A_BEMASSUNGEN
100
AcDbBlockBegin
 62
2
  6
CONTINUOUS
  2
*D2
 70
65
 10
0.0
 20
0.0
  3
*D2
  1

  0
MTEXT
  5
237
100
AcDbEntity
  8
A_BEMASSUNGEN
100
AcDbMText
 62
5
  6
CONTINUOUS
  7
TEXTSTYLE_2
 71
2
 72
1
 10
163.4089139344
 20
85.8541069043
 30
0.0
 11
0.0
 21
1.0
 31
0.0
  1
84
 40
3.5
 41
8.25
  0
LINE
  5
238
100
AcDbEntity
  8
A_BEMASSUNGEN
100
AcDbLine
 62
2
  6
CONTINUOUS
 10
116.8338310621
 20
127.8541069043
 11
169.7839139344
 21
127.8541069043
  0
LINE
  5
239
100
AcDbEntity
  8
A_BEMASSUNGEN
100
AcDbLine
 62
2
  6
CONTINUOUS
 10
116.8338310621
 20
43.8541069043
 11
169.7839139344
 21
43.8541069043
  0
LINE
  5
23A
100
AcDbEntity
  8
A_BEMASSUNGEN
100
AcDbLine
 62
2
  6
CONTINUOUS
 10
167.7839139344
 20
127.8541069043
 11
167.7839139344
 21
85.8541069043
  0
LINE
  5
23B
100
AcDbEntity
  8
A_BEMASSUNGEN
100
AcDbLine
 62
2
  6
CONTINUOUS
 10
167.7839139344
 20
43.8541069043
 11
167.7839139344
 21
85.8541069043
  0
INSERT
  5
23C
100
AcDbEntity
  8
A_BEMASSUNGEN
100
AcDbBlockReference
 62
2
  6
CONTINUOUS
  2
_ARROW_FILLED
 10
167.7839139344
 20
127.8541069043
 41
3.5
 42
3.5
 43
3.5
 50
90.0
  0
INSERT
  5
23D
100
AcDbEntity
  8
A_BEMASSUNGEN
100
AcDbBlockReference
 62
2
  6
CONTINUOUS
  2
_ARROW_FILLED
 10
167.7839139344
 20
43.8541069043
 41
3.5
 42
3.5
 43
3.5
 50
270.0
  0
ENDBLK
  5
23E
100
AcDbEntity
  8
0
  6
BYBLOCK
 62
0
100
AcDbBlockEnd
  0
BLOCK
  5
23F
100
AcDbEntity
  8
A_BEMASSUNGEN
100
AcDbBlockBegin
 62
2
  6
CONTINUOUS
  2
*D3
 70
65
 10
0.0
 20
0.0
  3
*D3
  1

  0
MTEXT
  5
240
100
AcDbEntity
  8
A_BEMASSUNGEN
100
AcDbMText
 62
5
  6
CONTINUOUS
  7
TEXTSTYLE_2
 71
2
 72
1
 10
88.4048988739
 20
178.309226492
 30
0.0
 11
1.0
 21
0.0
 31
0.0
  1
ø22.5
 40
3.5
 41
20.25
  0
LINE
  5
241
100
AcDbEntity
  8
A_BEMASSUNGEN
100
AcDbLine
 62
2
  6
CONTINUOUS
 10
77.1548988739
 20
165.8541069043
 11
77.1548988739
 21
175.934226492
  0
LINE
  5
242
100
AcDbEntity
  8
A_BEMASSUNGEN
100
AcDbLine
 62
2
  6
CONTINUOUS
 10
99.6548988739
 20
165.8541069043
 11
99.6548988739
 21
175.934226492
  0
LINE
  5
243
100
AcDbEntity
  8
A_BEMASSUNGEN
100
AcDbLine
 62
2
  6
CONTINUOUS
 10
77.1548988739
 20
173.934226492
 11
88.4048988739
 21
173.934226492
  0
LINE
  5
244
100
AcDbEntity
  8
A_BEMASSUNGEN
100
AcDbLine
 62
2
  6
CONTINUOUS
 10
99.6548988739
 20
173.934226492
 11
88.4048988739
 21
173.934226492
  0
INSERT
  5
245
100
AcDbEntity
  8
A_BEMASSUNGEN
100
AcDbBlockReference
 62
2
  6
CONTINUOUS
  2
_ARROW_FILLED
 10
77.1548988739
 20
173.934226492
 41
3.5
 42
3.5
 43
3.5
 50
180.0
  0
INSERT
  5
246
100
AcDbEntity
  8
A_BEMASSUNGEN
100
AcDbBlockReference
 62
2
  6
CONTINUOUS
  2
_ARROW_FILLED
 10
99.6548988739
 20
173.934226492
 41
3.5
 42
3.5
 43
3.5
  0
ENDBLK
  5
247
100
AcDbEntity
  8
0
  6
BYBLOCK
 62
0
100
AcDbBlockEnd
  0
BLOCK
  5
248
100
AcDbEntity
  8
A_BEMASSUNGEN
100
AcDbBlockBegin
 62
2
  6
CONTINUOUS
  2
*D4
 70
65
 10
0.0
 20
0.0
  3
*D4
  1

  0
MTEXT
  5
249
100
AcDbEntity
  8
A_BEMASSUNGEN
100
AcDbMText
 62
5
  6
CONTINUOUS
  7
TEXTSTYLE_2
 71
2
 72
1
 10
2.3195846994
 20
85.8541069043
 30
0.0
 11
0.0
 21
1.0
 31
0.0
  1
160
 40
3.5
 41
11.25
  0
LINE
  5
24A
100
AcDbEntity
  8
A_BEMASSUNGEN
100
AcDbLine
 62
2
  6
CONTINUOUS
 10
44.9048988739
 20
165.8541069043
 11
4.6945846994
 21
165.8541069043
  0
LINE
  5
24B
100
AcDbEntity
  8
A_BEMASSUNGEN
100
AcDbLine
 62
2
  6
CONTINUOUS
 10
44.9048988739
 20
5.8541069043
 11
4.6945846994
 21
5.8541069043
  0
LINE
  5
24C
100
AcDbEntity
  8
A_BEMASSUNGEN
100
AcDbLine
 62
2
  6
CONTINUOUS
 10
6.6945846994
 20
165.8541069043
 11
6.6945846994
 21
85.8541069043
  0
LINE
  5
24D
100
AcDbEntity
  8
A_BEMASSUNGEN
100
AcDbLine
 62
2
  6
CONTINUOUS
 10
6.6945846994
 20
5.8541069043
 11
6.6945846994
 21
85.8541069043
  0
INSERT
  5
24E
100
AcDbEntity
  8
A_BEMASSUNGEN
100
AcDbBlockReference
 62
2
  6
CONTINUOUS
  2
_ARROW_FILLED
 10
6.6945846994
 20
165.8541069043
 41
3.5
 42
3.5
 43
3.5
 50
90.0
  0
INSERT
  5
24F
100
AcDbEntity
  8
A_BEMASSUNGEN
100
AcDbBlockReference
 62
2
  6
CONTINUOUS
  2
_ARROW_FILLED
 10
6.6945846994
 20
5.8541069043
 41
3.5
 42
3.5
 43
3.5
 50
270.0
  0
ENDBLK
  5
250
100
AcDbEntity
  8
0
  6
BYBLOCK
 62
0
100
AcDbBlockEnd
  0
BLOCK
  5
251
100
AcDbEntity
  8
A_BEMASSUNGEN
100
AcDbBlockBegin
 62
2
  6
CONTINUOUS
  2
*D5
 70
65
 10
0.0
 20
0.0
  3
*D5
  1

  0
MTEXT
  5
252
100
AcDbEntity
  8
A_BEMASSUNGEN
100
AcDbMText
 62
5
  6
CONTINUOUS
  7
TEXTSTYLE_2
 71
2
 72
1
 10
11.9316174641
 20
125.8541069043
 30
0.0
 11
0.0
 21
1.0
 31
0.0
  1
80
 40
3.5
 41
8.25
  0
LINE
  5
253
100
AcDbEntity
  8
A_BEMASSUNGEN
100
AcDbLine
 62
2
  6
CONTINUOUS
 10
44.9048988739
 20
165.8541069043
 11
14.3066174641
 21
165.8541069043
  0
LINE
  5
254
100
AcDbEntity
  8
A_BEMASSUNGEN
100
AcDbLine
 62
2
  6
CONTINUOUS
 10
30.7548988739
 20
85.8541069043
 11
14.3066174641
 21
85.8541069043
  0
LINE
  5
255
100
AcDbEntity
  8
A_BEMASSUNGEN
100
AcDbLine
 62
2
  6
CONTINUOUS
 10
16.3066174641
 20
165.8541069043
 11
16.3066174641
 21
125.8541069043
  0
LINE
  5
256
100
AcDbEntity
  8
A_BEMASSUNGEN
100
AcDbLine
 62
2
  6
CONTINUOUS
 10
16.3066174641
 20
85.8541069043
 11
16.3066174641
 21
125.8541069043
  0
INSERT
  5
257
100
AcDbEntity
  8
A_BEMASSUNGEN
100
AcDbBlockReference
 62
2
  6
CONTINUOUS
  2
_ARROW_FILLED
 10
16.3066174641
 20
165.8541069043
 41
3.5
 42
3.5
 43
3.5
 50
90.0
  0
INSERT
  5
258
100
AcDbEntity
  8
A_BEMASSUNGEN
100
AcDbBlockReference
 62
2
  6
CONTINUOUS
  2
_ARROW_FILLED
 10
16.3066174641
 20
85.8541069043
 41
3.5
 42
3.5
 43
3.5
 50
270.0
  0
ENDBLK
  5
259
100
AcDbEntity
  8
0
  6
BYBLOCK
 62
0
100
AcDbBlockEnd
  0
ENDSEC
  0
SECTION
  2
ENTITIES
  0
DIMENSION
  5
25A
100
AcDbEntity
  8
A_BEMASSUNGEN
100
AcDbDimension
 62
2
  6
CONTINUOUS
  2
*D0
 10
158.2826311856
 20
85.8541069043
 11
158.2826311856
 21
99.3541111354
 70
160
  3
DIMSTYLE_1
100
AcDbAlignedDimension
 13
150.4048988739
 23
113.8541069043
 14
150.4048988739
 24
85.8541069043
 50
270.0
100
AcDbRotatedDimension
  0
DIMENSION
  5
25B
100
AcDbEntity
  8
A_BEMASSUNGEN
100
AcDbDimension
 62
2
  6
CONTINUOUS
  2
*D1
 10
158.2826311856
 20
57.8541069043
 11
158.2826311856
 21
71.3541111354
 70
160
  3
DIMSTYLE_1
100
AcDbAlignedDimension
 13
150.4048988739
 23
85.8541069043
 14
150.4048988739
 24
57.8541069043
 50
270.0
100
AcDbRotatedDimension
  0
DIMENSION
  5
25C
100
AcDbEntity
  8
A_BEMASSUNGEN
100
AcDbDimension
 62
2
  6
CONTINUOUS
  2
*D2
 10
167.7839139344
 20
43.8541069043
 11
167.7839139344
 21
85.3541044282
 70
160
  3
DIMSTYLE_2
100
AcDbAlignedDimension
 13
116.8338310621
 23
127.8541069043
 14
116.8338310621
 24
43.8541069043
 50
270.0
100
AcDbRotatedDimension
  0
DIMENSION
  5
25D
100
AcDbEntity
  8
A_BEMASSUNGEN
100
AcDbDimension
 62
2
  6
CONTINUOUS
  2
*D3
 10
99.6548988739
 20
173.934226492
 11
88.4048988739
 21
173.934226492
 70
160
  1
ø<>
  3
DIMSTYLE_1
100
AcDbAlignedDimension
 13
77.1548988739
 23
165.8541069043
 14
99.6548988739
 24
165.8541069043
100
AcDbRotatedDimension
  0
DIMENSION
  5
25E
100
AcDbEntity
  8
A_BEMASSUNGEN
100
AcDbDimension
 62
2
  6
CONTINUOUS
  2
*D4
 10
6.6945846994
 20
5.8541069043
 11
6.6945846994
 21
85.3541074914
 70
160
  3
DIMSTYLE_3
100
AcDbAlignedDimension
 13
44.9048988739
 23
165.8541069043
 14
44.9048988739
 24
5.8541069043
 50
270.0
100
AcDbRotatedDimension
  0
DIMENSION
  5
25F
100
AcDbEntity
  8
A_BEMASSUNGEN
100
AcDbDimension
 62
2
  6
CONTINUOUS
  2
*D5
 10
16.3066174641
 20
85.8541069043
 11
16.3066174641
 21
125.3541059767
 70
160
  3
DIMSTYLE_2
100
AcDbAlignedDimension
 13
44.9048988739
 23
165.8541069043
 14
30.7548988739
 24
85.8541069043
 50
270.0
100
AcDbRotatedDimension
  0
MTEXT
  5
260
100
AcDbEntity
  8
A_NOTIZEN_SYMB
100
AcDbMText
 62
5
  6
CONTINUOUS
  7
TEXTSTYLE_2
 71
1
 72
1
 10
78.9996923674
 20
91.5136706973
 30
0.0
 11
1.0
 21
0.0
 31
0.0
  1
BBL
 40
3.5
 41
12.625
  0
LINE
  5
261
100
AcDbEntity
  8
A_NOTIZEN_SYMB
100
AcDbLine
 62
7
  6
CONTINUOUS
 10
117.7835785304
 20
43.8541069043
 11
117.7835785304
 21
127.8541069043
  0
LINE
  5
262
100
AcDbEntity
  8
A_NOTIZEN_SYMB
100
AcDbLine
 62
8
  6
HIDDEN
 10
121.3191124363
 20
43.8584637543
 11
121.3191124363
 21
127.8497500542
  0
LINE
  5
263
100
AcDbEntity
  8
DEFAULT_2
100
AcDbLine
 62
8
  6
HIDDEN
 10
39.4151652317
 20
158.7656808844
 11
39.4828867603
 21
158.8722594279
  0
LINE
  5
264
100
AcDbEntity
  8
DEFAULT_2
100
AcDbLine
 62
8
  6
HIDDEN
 10
39.4828867603
 20
12.8359543806
 11
39.4151652317
 21
12.9425329241
  0
LINE
  5
265
100
AcDbEntity
  8
DEFAULT_2
100
AcDbLine
 62
8
  6
HIDDEN
 10
35.3480452516
 20
151.7105038536
 11
35.4064842135
 21
151.8224416894
  0
LINE
  5
266
100
AcDbEntity
  8
DEFAULT_2
100
AcDbLine
 62
8
  6
HIDDEN
 10
40.3946325161
 20
148.9425329241
 11
40.3269109876
 21
148.8359543806
  0
LINE
  5
267
100
AcDbEntity
  8
0
100
AcDbLine
 62
7
  6
CONTINUOUS
 10
99.6558214387
 20
5.8541069043
 11
77.1549611107
 21
5.8541069043
  0
LINE
  5
268
100
AcDbEntity
  8
A_RUNDUNGEN
100
AcDbLine
 62
7
  6
CONTINUOUS
 10
53.4048988739
 20
5.8541069043
 11
44.9048988739
 21
5.8541069043
  0
LINE
  5
269
100
AcDbEntity
  8
0
100
AcDbLine
 62
3
  6
CONTINUOUS
 10
61.8617174775
 20
5.8541069043
 11
65.4048988739
 21
5.8541069043
  0
LINE
  5
26A
100
AcDbEntity
  8
A_ACHSEN
100
AcDbLine
 62
3
  6
CONTINUOUS
 10
65.4048988739
 20
5.8541069043
 11
77.1549611107
 21
5.8541069043
  0
LINE
  5
26B
100
AcDbEntity
  8
0
100
AcDbLine
 62
7
  6
CONTINUOUS
 10
57.9048988739
 20
7.3541069043
 11
53.4048988739
 21
7.3541069043
  0
LINE
  5
26C
100
AcDbEntity
  8
DEFAULT_2
100
AcDbLine
 62
8
  6
HIDDEN
 10
40.3269109876
 20
22.8722594279
 11
40.3946325161
 21
22.7656808844
  0
LINE
  5
26D
100
AcDbEntity
  8
DEFAULT_2
100
AcDbLine
 62
8
  6
HIDDEN
 10
35.4064842135
 20
19.8857721191
 11
35.3480452516
 21
19.997709955
  0
LINE
  5
26E
100
AcDbEntity
  8
DEFAULT_2
100
AcDbLine
 62
8
  6
HIDDEN
 10
44.4617524963
 20
155.997709955
 11
44.4033135344
 21
155.8857721191
  0
LINE
  5
26F
100
AcDbEntity
  8
DEFAULT_2
100
AcDbLine
 62
8
  6
HIDDEN
 10
44.0397403827
 20
14.9795574313
 11
43.9135798922
 21
14.974198139
  0
LINE
  5
270
100
AcDbEntity
  8
0
100
AcDbLine
 62
3
  6
CONTINUOUS
 10
60.9048988739
 20
10.8541069043
 11
61.8617174775
 21
10.8541069043
  0
LINE
  5
271
100
AcDbEntity
  8
0
100
AcDbLine
 62
3
  6
CONTINUOUS
 10
60.4048988739
 20
16.8541069043
 11
60.9048988739
 21
16.8541069043
  0
LINE
  5
272
100
AcDbEntity
  8
DEFAULT_2
100
AcDbLine
 62
8
  6
HIDDEN
 10
35.8962178556
 20
14.974198139
 11
35.7700573652
 21
14.9795574313
  0
LINE
  5
273
100
AcDbEntity
  8
DEFAULT_2
100
AcDbLine
 62
8
  6
HIDDEN
 10
44.4033135344
 20
15.8224416894
 11
44.4617524963
 21
15.7105038536
  0
LINE
  5
274
100
AcDbEntity
  8
DEFAULT_2
100
AcDbLine
 62
8
  6
HIDDEN
 10
35.7700573652
 20
20.7286563772
 11
35.8962178556
 21
20.7340156696
  0
LINE
  5
275
100
AcDbEntity
  8
DEFAULT_1
100
AcDbLine
 62
7
  6
CENTER
 10
39.9048988739
 20
17.8541069043
 11
30.7548988739
 21
17.8541069043
  0
LINE
  5
276
100
AcDbEntity
  8
DEFAULT_1
100
AcDbLine
 62
7
  6
CENTER
 10
39.9048988739
 20
17.8541069043
 11
49.0548988739
 21
17.8541069043
  0
LINE
  5
277
100
AcDbEntity
  8
DEFAULT_2
100
AcDbLine
 62
8
  6
HIDDEN
 10
43.9135798922
 20
20.7340156696
 11
44.0397403827
 21
20.7286563772
  0
LINE
  5
278
100
AcDbEntity
  8
A_RUNDUNGEN
100
AcDbLine
 62
7
  6
CONTINUOUS
 10
32.9048988739
 20
17.8541069043
 11
32.9048988739
 21
153.8541069043
  0
LINE
  5
279
100
AcDbEntity
  8
0
100
AcDbLine
 62
3
  6
CONTINUOUS
 10
148.4048988739
 20
45.1041069043
 11
144.6728480664
 21
44.1041069043
  0
LINE
  5
27A
100
AcDbEntity
  8
DEFAULT_1
100
AcDbLine
 62
7
  6
CENTER
 10
39.9048988739
 20
153.8541069043
 11
39.9048988739
 21
144.7041069043
  0
LINE
  5
27B
100
AcDbEntity
  8
DEFAULT_1
100
AcDbLine
 62
7
  6
CENTER
 10
39.9048988739
 20
85.8541069043
 11
39.9048988739
 21
76.7041069043
  0
LINE
  5
27C
100
AcDbEntity
  8
DEFAULT_1
100
AcDbLine
 62
7
  6
CENTER
 10
39.9048988739
 20
17.8541069043
 11
39.9048988739
 21
8.7041069043
  0
LINE
  5
27D
100
AcDbEntity
  8
DEFAULT_1
100
AcDbLine
 62
7
  6
CENTER
 10
39.9048988739
 20
17.8541069043
 11
39.9048988739
 21
27.0041069043
  0
LINE
  5
27E
100
AcDbEntity
  8
DEFAULT_1
100
AcDbLine
 62
7
  6
CENTER
 10
39.9048988739
 20
85.8541069043
 11
39.9048988739
 21
95.0041069043
  0
LINE
  5
27F
100
AcDbEntity
  8
DEFAULT_1
100
AcDbLine
 62
7
  6
CENTER
 10
39.9048988739
 20
153.8541069043
 11
39.9048988739
 21
163.0041069043
  0
LINE
  5
280
100
AcDbEntity
  8
DEFAULT_2
100
AcDbLine
 62
8
  6
HIDDEN
 10
35.3480452516
 20
83.7105038536
 11
35.4064842135
 21
83.8224416894
  0
LINE
  5
281
100
AcDbEntity
  8
DEFAULT_1
100
AcDbLine
 62
7
  6
CENTER
 10
44.9048988739
 20
35.8541069043
 11
39.9048988739
 21
35.8541069043
  0
LINE
  5
282
100
AcDbEntity
  8
DEFAULT_1
100
AcDbLine
 62
7
  6
CENTER
 10
39.9048988739
 20
35.8541069043
 11
38.4048988739
 21
35.8541069043
  0
LINE
  5
283
100
AcDbEntity
  8
DEFAULT_1
100
AcDbLine
 62
7
  6
CENTER
 10
44.9048988739
 20
35.8541069043
 11
49.9048988739
 21
35.8541069043
  0
LINE
  5
284
100
AcDbEntity
  8
DEFAULT_1
100
AcDbLine
 62
7
  6
CENTER
 10
49.9048988739
 20
35.8541069043
 11
51.4048988739
 21
35.8541069043
  0
LINE
  5
285
100
AcDbEntity
  8
DEFAULT_2
100
AcDbLine
 62
8
  6
HIDDEN
 10
35.4064842135
 20
87.8857721191
 11
35.3480452516
 21
87.997709955
  0
LINE
  5
286
100
AcDbEntity
  8
DEFAULT_1
100
AcDbLine
 62
7
  6
CENTER
 10
44.9048988739
 20
135.8541069043
 11
44.9048988739
 21
130.8541069043
  0
LINE
  5
287
100
AcDbEntity
  8
DEFAULT_1
100
AcDbLine
 62
7
  6
CENTER
 10
44.9048988739
 20
130.8541069043
 11
44.9048988739
 21
129.3541069043
  0
LINE
  5
288
100
AcDbEntity
  8
DEFAULT_1
100
AcDbLine
 62
7
  6
CENTER
 10
44.9048988739
 20
35.8541069043
 11
44.9048988739
 21
30.8541069043
  0
LINE
  5
289
100
AcDbEntity
  8
DEFAULT_1
100
AcDbLine
 62
7
  6
CENTER
 10
44.9048988739
 20
30.8541069043
 11
44.9048988739
 21
29.3541069043
  0
LINE
  5
28A
100
AcDbEntity
  8
DEFAULT_1
100
AcDbLine
 62
7
  6
CENTER
 10
44.9048988739
 20
35.8541069043
 11
44.9048988739
 21
40.8541069043
  0
LINE
  5
28B
100
AcDbEntity
  8
DEFAULT_1
100
AcDbLine
 62
7
  6
CENTER
 10
44.9048988739
 20
40.8541069043
 11
44.9048988739
 21
42.3541069043
  0
LINE
  5
28C
100
AcDbEntity
  8
DEFAULT_1
100
AcDbLine
 62
7
  6
CENTER
 10
44.9048988739
 20
135.8541069043
 11
44.9048988739
 21
140.8541069043
  0
LINE
  5
28D
100
AcDbEntity
  8
DEFAULT_1
100
AcDbLine
 62
7
  6
CENTER
 10
44.9048988739
 20
140.8541069043
 11
44.9048988739
 21
142.3541069043
  0
LINE
  5
28E
100
AcDbEntity
  8
DEFAULT_2
100
AcDbLine
 62
8
  6
HIDDEN
 10
44.4617524963
 20
87.997709955
 11
44.4033135344
 21
87.8857721191
  0
LINE
  5
28F
100
AcDbEntity
  8
DEFAULT_2
100
AcDbLine
 62
8
  6
HIDDEN
 10
39.4151652317
 20
90.7656808844
 11
39.4828867603
 21
90.8722594279
  0
LINE
  5
290
100
AcDbEntity
  8
0
100
AcDbLine
 62
3
  6
CONTINUOUS
 10
120.9855522444
 20
43.8541069043
 11
144.6728480664
 21
44.1041069043
  0
LINE
  5
291
100
AcDbEntity
  8
A_RUNDUNGEN
100
AcDbLine
 62
3
  6
CONTINUOUS
 10
77.1549611107
 20
42.9541069043
 11
75.9048988739
 21
42.9541069043
  0
LINE
  5
292
100
AcDbEntity
  8
0
100
AcDbLine
 62
7
  6
CONTINUOUS
 10
77.1549611107
 20
42.9541069043
 11
99.6558214387
 21
42.9541069043
  0
LINE
  5
293
100
AcDbEntity
  8
A_ACHSEN
100
AcDbLine
 62
7
  6
CONTINUOUS
 10
78.6808181524
 20
43.0541069043
 11
98.1289795954
 21
43.0541069043
  0
LINE
  5
294
100
AcDbEntity
  8
DEFAULT_2
100
AcDbLine
 62
8
  6
HIDDEN
 10
121.2524003979
 20
43.8541069043
 11
120.9855522444
 21
43.8541069043
  0
LINE
  5
295
100
AcDbEntity
  8
0
100
AcDbLine
 62
7
  6
CONTINUOUS
 10
99.6538286685
 20
43.8541069043
 11
77.1550544677
 21
43.8541069043
  0
LINE
  5
296
100
AcDbEntity
  8
A_ACHSEN
100
AcDbLine
 62
8
  6
HIDDEN
 10
99.5880334971
 20
43.8541069043
 11
99.6538286685
 21
43.8541069043
  0
LINE
  5
297
100
AcDbEntity
  8
A_ACHSEN
100
AcDbLine
 62
3
  6
CONTINUOUS
 10
99.6538286685
 20
43.8541069043
 11
116.8338310621
 21
43.8541069043
  0
LINE
  5
298
100
AcDbEntity
  8
0
100
AcDbLine
 62
3
  6
CONTINUOUS
 10
116.8338310621
 20
43.8541069043
 11
117.5409378433
 21
43.8541069043
  0
LINE
  5
299
100
AcDbEntity
  8
A_ACHSEN
100
AcDbLine
 62
3
  6
CONTINUOUS
 10
117.5409378433
 20
43.8541069043
 11
117.7835785304
 21
43.8541069043
  0
LINE
  5
29A
100
AcDbEntity
  8
0
100
AcDbLine
 62
3
  6
CONTINUOUS
 10
117.7835785304
 20
43.8541069043
 11
120.9855522444
 21
43.8541069043
  0
LINE
  5
29B
100
AcDbEntity
  8
DEFAULT_2
100
AcDbLine
 62
8
  6
HIDDEN
 10
39.4828867603
 20
80.8359543806
 11
39.4151652317
 21
80.9425329241
  0
LINE
  5
29C
100
AcDbEntity
  8
DEFAULT_2
100
AcDbLine
 62
8
  6
HIDDEN
 10
44.4033135344
 20
83.8224416894
 11
44.4617524963
 21
83.7105038536
  0
LINE
  5
29D
100
AcDbEntity
  8
DEFAULT_1
100
AcDbLine
 62
7
  6
CENTER
 10
52.9048988739
 20
119.8541069043
 11
52.9048988739
 21
110.7041069043
  0
LINE
  5
29E
100
AcDbEntity
  8
DEFAULT_1
100
AcDbLine
 62
7
  6
CENTER
 10
52.9048988739
 20
51.8541069043
 11
52.9048988739
 21
42.7041069043
  0
LINE
  5
29F
100
AcDbEntity
  8
DEFAULT_1
100
AcDbLine
 62
7
  6
CENTER
 10
52.9048988739
 20
51.8541069043
 11
52.9048988739
 21
61.0041069043
  0
LINE
  5
2A0
100
AcDbEntity
  8
DEFAULT_1
100
AcDbLine
 62
7
  6
CENTER
 10
52.9048988739
 20
119.8541069043
 11
52.9048988739
 21
129.0041069043
  0
LINE
  5
2A1
100
AcDbEntity
  8
0
100
AcDbLine
 62
7
  6
CONTINUOUS
 10
53.4048988739
 20
165.8541069043
 11
53.4048988739
 21
164.3541069043
  0
LINE
  5
2A2
100
AcDbEntity
  8
0
100
AcDbLine
 62
7
  6
CONTINUOUS
 10
53.4048988739
 20
5.8541069043
 11
53.4048988739
 21
7.3541069043
  0
LINE
  5
2A3
100
AcDbEntity
  8
0
100
AcDbLine
 62
7
  6
CONTINUOUS
 10
54.9048988739
 20
7.3541069043
 11
54.9048988739
 21
164.3541069043
  0
LINE
  5
2A4
100
AcDbEntity
  8
DEFAULT_2
100
AcDbLine
 62
8
  6
HIDDEN
 10
40.3946325161
 20
80.9425329241
 11
40.3269109876
 21
80.8359543806
  0
LINE
  5
2A5
100
AcDbEntity
  8
0
100
AcDbLine
 62
3
  6
CONTINUOUS
 10
132.9048988739
 20
50.8541069043
 11
138.9636696912
 21
50.8541069043
  0
LINE
  5
2A6
100
AcDbEntity
  8
DEFAULT_1
100
AcDbLine
 62
7
  6
CENTER
 10
52.9048988739
 20
51.8541069043
 11
43.7548988739
 21
51.8541069043
  0
LINE
  5
2A7
100
AcDbEntity
  8
DEFAULT_1
100
AcDbLine
 62
7
  6
CENTER
 10
52.9048988739
 20
51.8541069043
 11
62.0548988739
 21
51.8541069043
  0
LINE
  5
2A8
100
AcDbEntity
  8
DEFAULT_2
100
AcDbLine
 62
8
  6
HIDDEN
 10
40.3269109876
 20
90.8722594279
 11
40.3946325161
 21
90.7656808844
  0
LINE
  5
2A9
100
AcDbEntity
  8
0
100
AcDbLine
 62
3
  6
CONTINUOUS
 10
57.9048988739
 20
7.3541069043
 11
57.9048988739
 21
164.3541069043
  0
LINE
  5
2AA
100
AcDbEntity
  8
0
100
AcDbLine
 62
3
  6
CONTINUOUS
 10
60.4048988739
 20
8.1073125595
 11
60.4048988739
 21
16.8541069043
  0
LINE
  5
2AB
100
AcDbEntity
  8
0
100
AcDbLine
 62
3
  6
CONTINUOUS
 10
60.4048988739
 20
154.8541069043
 11
60.4048988739
 21
163.6009012491
  0
LINE
  5
2AC
100
AcDbEntity
  8
0
100
AcDbLine
 62
3
  6
CONTINUOUS
 10
60.9048988739
 20
10.8541069043
 11
60.9048988739
 21
160.8541069043
  0
LINE
  5
2AD
100
AcDbEntity
  8
0
100
AcDbLine
 62
3
  6
CONTINUOUS
 10
61.8617174775
 20
165.8541069043
 11
61.8617174775
 21
160.8541069043
  0
LINE
  5
2AE
100
AcDbEntity
  8
0
100
AcDbLine
 62
3
  6
CONTINUOUS
 10
61.8617174775
 20
5.8541069043
 11
61.8617174775
 21
10.8541069043
  0
LINE
  5
2AF
100
AcDbEntity
  8
0
100
AcDbLine
 62
3
  6
CONTINUOUS
 10
143.8048988739
 20
54.6041069043
 11
145.9048988739
 21
54.6041069043
  0
LINE
  5
2B0
100
AcDbEntity
  8
DEFAULT_1
100
AcDbLine
 62
7
  6
CENTER
 10
124.278335301
 20
57.8541069043
 11
150.4048988739
 21
57.8541069043
  0
LINE
  5
2B1
100
AcDbEntity
  8
0
100
AcDbLine
 62
3
  6
CONTINUOUS
 10
145.9048988739
 20
61.1041069043
 11
143.8048988739
 21
61.1041069043
  0
LINE
  5
2B2
100
AcDbEntity
  8
0
100
AcDbLine
 62
3
  6
CONTINUOUS
 10
138.9636696912
 20
64.8541069043
 11
132.9048988739
 21
64.8541069043
  0
LINE
  5
2B3
100
AcDbEntity
  8
A_RUNDUNGEN
100
AcDbLine
 62
3
  6
CONTINUOUS
 10
74.9048988739
 20
43.9541069043
 11
74.9048988739
 21
127.7541069043
  0
LINE
  5
2B4
100
AcDbEntity
  8
0
100
AcDbLine
 62
7
  6
CONTINUOUS
 10
77.1548988739
 20
5.8541069043
 11
77.1548988739
 21
42.9541069043
  0
LINE
  5
2B5
100
AcDbEntity
  8
0
100
AcDbLine
 62
7
  6
CONTINUOUS
 10
77.1548988739
 20
43.8541069043
 11
77.1548988739
 21
127.8541069043
  0
LINE
  5
2B6
100
AcDbEntity
  8
0
100
AcDbLine
 62
7
  6
CONTINUOUS
 10
77.1548988739
 20
128.7541069043
 11
77.1548988739
 21
165.8541069043
  0
LINE
  5
2B7
100
AcDbEntity
  8
DEFAULT_2
100
AcDbLine
 62
8
  6
HIDDEN
 10
35.3480452516
 20
15.7105038536
 11
35.4064842135
 21
15.8224416894
  0
LINE
  5
2B8
100
AcDbEntity
  8
DEFAULT_2
100
AcDbLine
 62
8
  6
HIDDEN
 10
35.4064842135
 20
155.8857721191
 11
35.3480452516
 21
155.997709955
  0
LINE
  5
2B9
100
AcDbEntity
  8
A_ACHSEN
100
AcDbLine
 62
7
  6
CONTINUOUS
 10
78.6798988739
 20
128.6541069043
 11
78.6798988739
 21
127.8541069043
  0
LINE
  5
2BA
100
AcDbEntity
  8
A_ACHSEN
100
AcDbLine
 62
7
  6
CONTINUOUS
 10
78.6798988739
 20
43.0541069043
 11
78.6798988739
 21
43.8541069043
  0
LINE
  5
2BB
100
AcDbEntity
  8
A_ACHSEN
100
AcDbLine
 62
7
  6
CONTINUOUS
 10
83.4048988739
 20
42.9541069043
 11
83.4048988739
 21
43.0541069043
  0
LINE
  5
2BC
100
AcDbEntity
  8
A_ACHSEN
100
AcDbLine
 62
7
  6
CONTINUOUS
 10
83.4048988739
 20
128.6541069043
 11
83.4048988739
 21
128.7541069043
  0
LINE
  5
2BD
100
AcDbEntity
  8
DEFAULT_2
100
AcDbLine
 62
8
  6
HIDDEN
 10
44.4617524963
 20
19.997709955
 11
44.4033135344
 21
19.8857721191
  0
LINE
  5
2BE
100
AcDbEntity
  8
DEFAULT_2
100
AcDbLine
 62
8
  6
HIDDEN
 10
39.4151652317
 20
22.7656808844
 11
39.4828867603
 21
22.8722594279
  0
LINE
  5
2BF
100
AcDbEntity
  8
0
100
AcDbLine
 62
3
  6
CONTINUOUS
 10
132.9048988739
 20
78.8541069043
 11
138.9636696912
 21
78.8541069043
  0
LINE
  5
2C0
100
AcDbEntity
  8
DEFAULT_2
100
AcDbLine
 62
8
  6
HIDDEN
 10
39.4828867603
 20
148.8359543806
 11
39.4151652317
 21
148.9425329241
  0
LINE
  5
2C1
100
AcDbEntity
  8
DEFAULT_2
100
AcDbLine
 62
8
  6
HIDDEN
 10
44.4033135344
 20
151.8224416894
 11
44.4617524963
 21
151.7105038536
  0
LINE
  5
2C2
100
AcDbEntity
  8
DEFAULT_1
100
AcDbLine
 62
7
  6
CENTER
 10
88.4048988739
 20
3.6427759001
 11
88.4048988739
 21
168.0654379084
  0
LINE
  5
2C3
100
AcDbEntity
  8
DEFAULT_2
100
AcDbLine
 62
8
  6
HIDDEN
 10
40.3946325161
 20
12.9425329241
 11
40.3269109876
 21
12.8359543806
  0
LINE
  5
2C4
100
AcDbEntity
  8
DEFAULT_2
100
AcDbLine
 62
8
  6
HIDDEN
 10
44.0397403827
 20
82.9795574313
 11
43.9135798922
 21
82.974198139
  0
LINE
  5
2C5
100
AcDbEntity
  8
0
100
AcDbLine
 62
3
  6
CONTINUOUS
 10
143.8048988739
 20
82.6041069043
 11
145.9048988739
 21
82.6041069043
  0
LINE
  5
2C6
100
AcDbEntity
  8
DEFAULT_1
100
AcDbLine
 62
7
  6
CENTER
 10
39.9048988739
 20
85.8541069043
 11
30.7548988739
 21
85.8541069043
  0
LINE
  5
2C7
100
AcDbEntity
  8
A_KURVEN
100
AcDbLine
 62
7
  6
PHANTOM
 10
24.9048988739
 20
85.8541069043
 11
156.4048988739
 21
85.8541069043
  0
LINE
  5
2C8
100
AcDbEntity
  8
DEFAULT_1
100
AcDbLine
 62
7
  6
CENTER
 10
39.9048988739
 20
85.8541069043
 11
47.2483920589
 21
85.8541069043
  0
LINE
  5
2C9
100
AcDbEntity
  8
DEFAULT_2
100
AcDbLine
 62
8
  6
HIDDEN
 10
35.8962178556
 20
82.974198139
 11
35.7700573652
 21
82.9795574313
  0
LINE
  5
2CA
100
AcDbEntity
  8
DEFAULT_2
100
AcDbLine
 62
8
  6
HIDDEN
 10
43.9135798922
 20
88.7340156696
 11
44.0397403827
 21
88.7286563772
  0
LINE
  5
2CB
100
AcDbEntity
  8
DEFAULT_2
100
AcDbLine
 62
8
  6
HIDDEN
 10
40.3269109876
 20
158.8722594279
 11
40.3946325161
 21
158.7656808844
  0
LINE
  5
2CC
100
AcDbEntity
  8
A_ACHSEN
100
AcDbLine
 62
7
  6
CONTINUOUS
 10
93.4048988739
 20
42.9541069043
 11
93.4048988739
 21
43.0541069043
  0
LINE
  5
2CD
100
AcDbEntity
  8
A_ACHSEN
100
AcDbLine
 62
7
  6
CONTINUOUS
 10
93.4048988739
 20
128.6541069043
 11
93.4048988739
 21
128.7541069043
  0
LINE
  5
2CE
100
AcDbEntity
  8
A_ACHSEN
100
AcDbLine
 62
7
  6
CONTINUOUS
 10
98.1298988739
 20
128.6541069043
 11
98.1298988739
 21
127.8541069043
  0
LINE
  5
2CF
100
AcDbEntity
  8
A_ACHSEN
100
AcDbLine
 62
7
  6
CONTINUOUS
 10
98.1298988739
 20
43.0541069043
 11
98.1298988739
 21
43.8541069043
  0
LINE
  5
2D0
100
AcDbEntity
  8
DEFAULT_2
100
AcDbLine
 62
8
  6
HIDDEN
 10
35.7700573652
 20
88.7286563772
 11
35.8962178556
 21
88.7340156696
  0
LINE
  5
2D1
100
AcDbEntity
  8
0
100
AcDbLine
 62
3
  6
CONTINUOUS
 10
145.9048988739
 20
89.1041069043
 11
143.8048988739
 21
89.1041069043
  0
LINE
  5
2D2
100
AcDbEntity
  8
0
100
AcDbLine
 62
3
  6
CONTINUOUS
 10
138.9636696912
 20
92.8541069043
 11
132.9048988739
 21
92.8541069043
  0
LINE
  5
2D3
100
AcDbEntity
  8
0
100
AcDbLine
 62
7
  6
CONTINUOUS
 10
99.6538286685
 20
43.8541069043
 11
99.6538286685
 21
127.8541069043
  0
LINE
  5
2D4
100
AcDbEntity
  8
0
100
AcDbLine
 62
7
  6
CONTINUOUS
 10
99.6548988739
 20
5.8541069043
 11
99.6548988739
 21
42.9541069043
  0
LINE
  5
2D5
100
AcDbEntity
  8
0
100
AcDbLine
 62
7
  6
CONTINUOUS
 10
99.6548988739
 20
128.7541069043
 11
99.6548988739
 21
165.8541069043
  0
LINE
  5
2D6
100
AcDbEntity
  8
0
100
AcDbLine
 62
3
  6
CONTINUOUS
 10
132.9048988739
 20
106.8541069043
 11
138.9636696912
 21
106.8541069043
  0
LINE
  5
2D7
100
AcDbEntity
  8
0
100
AcDbLine
 62
3
  6
CONTINUOUS
 10
143.8048988739
 20
110.6041069043
 11
145.9048988739
 21
110.6041069043
  0
LINE
  5
2D8
100
AcDbEntity
  8
DEFAULT_1
100
AcDbLine
 62
7
  6
CENTER
 10
126.0198410157
 20
113.8541069043
 11
150.4048988739
 21
113.8541069043
  0
LINE
  5
2D9
100
AcDbEntity
  8
0
100
AcDbLine
 62
3
  6
CONTINUOUS
 10
145.9048988739
 20
117.1041069043
 11
143.8048988739
 21
117.1041069043
  0
LINE
  5
2DA
100
AcDbEntity
  8
DEFAULT_1
100
AcDbLine
 62
7
  6
CENTER
 10
52.9048988739
 20
119.8541069043
 11
43.7548988739
 21
119.8541069043
  0
LINE
  5
2DB
100
AcDbEntity
  8
DEFAULT_1
100
AcDbLine
 62
7
  6
CENTER
 10
52.9048988739
 20
119.8541069043
 11
62.0548988739
 21
119.8541069043
  0
LINE
  5
2DC
100
AcDbEntity
  8
0
100
AcDbLine
 62
3
  6
CONTINUOUS
 10
138.9636696912
 20
120.8541069043
 11
132.9048988739
 21
120.8541069043
  0
LINE
  5
2DD
100
AcDbEntity
  8
0
100
AcDbLine
 62
3
  6
CONTINUOUS
 10
129.9048988739
 20
117.8541069043
 11
129.9048988739
 21
109.8541069043
  0
LINE
  5
2DE
100
AcDbEntity
  8
0
100
AcDbLine
 62
3
  6
CONTINUOUS
 10
129.9048988739
 20
89.8541069043
 11
129.9048988739
 21
81.8541069043
  0
LINE
  5
2DF
100
AcDbEntity
  8
0
100
AcDbLine
 62
3
  6
CONTINUOUS
 10
129.9048988739
 20
61.8541069043
 11
129.9048988739
 21
53.8541069043
  0
LINE
  5
2E0
100
AcDbEntity
  8
DEFAULT_2
100
AcDbLine
 62
8
  6
HIDDEN
 10
121.2524003979
 20
127.8541069043
 11
120.9855522444
 21
127.8541069043
  0
LINE
  5
2E1
100
AcDbEntity
  8
0
100
AcDbLine
 62
7
  6
CONTINUOUS
 10
99.6538286685
 20
127.8541069043
 11
77.1550544677
 21
127.8541069043
  0
LINE
  5
2E2
100
AcDbEntity
  8
A_ACHSEN
100
AcDbLine
 62
8
  6
HIDDEN
 10
99.5880334971
 20
127.8541069043
 11
99.6538286685
 21
127.8541069043
  0
LINE
  5
2E3
100
AcDbEntity
  8
A_ACHSEN
100
AcDbLine
 62
3
  6
CONTINUOUS
 10
99.6538286685
 20
127.8541069043
 11
116.8338310621
 21
127.8541069043
  0
LINE
  5
2E4
100
AcDbEntity
  8
0
100
AcDbLine
 62
3
  6
CONTINUOUS
 10
116.8338310621
 20
127.8541069043
 11
117.5409378433
 21
127.8541069043
  0
LINE
  5
2E5
100
AcDbEntity
  8
A_ACHSEN
100
AcDbLine
 62
3
  6
CONTINUOUS
 10
117.5409378433
 20
127.8541069043
 11
117.7835785304
 21
127.8541069043
  0
LINE
  5
2E6
100
AcDbEntity
  8
0
100
AcDbLine
 62
3
  6
CONTINUOUS
 10
117.7835785304
 20
127.8541069043
 11
120.9855522444
 21
127.8541069043
  0
LINE
  5
2E7
100
AcDbEntity
  8
0
100
AcDbLine
 62
3
  6
CONTINUOUS
 10
121.3191124363
 20
127.8497500542
 11
144.6728480664
 21
127.6041069043
  0
LINE
  5
2E8
100
AcDbEntity
  8
A_ACHSEN
100
AcDbLine
 62
7
  6
CONTINUOUS
 10
78.6808181524
 20
128.6541069043
 11
98.1289795954
 21
128.6541069043
  0
LINE
  5
2E9
100
AcDbEntity
  8
A_RUNDUNGEN
100
AcDbLine
 62
3
  6
CONTINUOUS
 10
77.1549611107
 20
128.7541069043
 11
75.9048988739
 21
128.7541069043
  0
LINE
  5
2EA
100
AcDbEntity
  8
0
100
AcDbLine
 62
7
  6
CONTINUOUS
 10
77.1549611107
 20
128.7541069043
 11
99.6558214387
 21
128.7541069043
  0
LINE
  5
2EB
100
AcDbEntity
  8
0
100
AcDbLine
 62
3
  6
CONTINUOUS
 10
121.3191124363
 20
127.8497500542
 11
120.9855522444
 21
127.8541069043
  0
LINE
  5
2EC
100
AcDbEntity
  8
DEFAULT_1
100
AcDbLine
 62
7
  6
CENTER
 10
44.9048988739
 20
135.8541069043
 11
39.9048988739
 21
135.8541069043
  0
LINE
  5
2ED
100
AcDbEntity
  8
DEFAULT_1
100
AcDbLine
 62
7
  6
CENTER
 10
39.9048988739
 20
135.8541069043
 11
38.4048988739
 21
135.8541069043
  0
LINE
  5
2EE
100
AcDbEntity
  8
DEFAULT_1
100
AcDbLine
 62
7
  6
CENTER
 10
44.9048988739
 20
135.8541069043
 11
49.9048988739
 21
135.8541069043
  0
LINE
  5
2EF
100
AcDbEntity
  8
DEFAULT_1
100
AcDbLine
 62
7
  6
CENTER
 10
49.9048988739
 20
135.8541069043
 11
51.4048988739
 21
135.8541069043
  0
LINE
  5
2F0
100
AcDbEntity
  8
0
100
AcDbLine
 62
3
  6
CONTINUOUS
 10
144.6728480664
 20
127.6041069043
 11
148.4048988739
 21
126.6041069043
  0
LINE
  5
2F1
100
AcDbEntity
  8
0
100
AcDbLine
 62
3
  6
CONTINUOUS
 10
148.4048988739
 20
45.1041069043
 11
148.4048988739
 21
52.1041069043
  0
LINE
  5
2F2
100
AcDbEntity
  8
0
100
AcDbLine
 62
3
  6
CONTINUOUS
 10
148.4048988739
 20
63.6041069043
 11
148.4048988739
 21
80.1041069043
  0
LINE
  5
2F3
100
AcDbEntity
  8
0
100
AcDbLine
 62
3
  6
CONTINUOUS
 10
148.4048988739
 20
91.6041069043
 11
148.4048988739
 21
108.1041069043
  0
LINE
  5
2F4
100
AcDbEntity
  8
0
100
AcDbLine
 62
3
  6
CONTINUOUS
 10
148.4048988739
 20
119.6041069043
 11
148.4048988739
 21
126.6041069043
  0
LINE
  5
2F5
100
AcDbEntity
  8
DEFAULT_2
100
AcDbLine
 62
8
  6
HIDDEN
 10
35.8962178556
 20
150.974198139
 11
35.7700573652
 21
150.9795574313
  0
LINE
  5
2F6
100
AcDbEntity
  8
DEFAULT_2
100
AcDbLine
 62
8
  6
HIDDEN
 10
44.0397403827
 20
150.9795574313
 11
43.9135798922
 21
150.974198139
  0
LINE
  5
2F7
100
AcDbEntity
  8
DEFAULT_1
100
AcDbLine
 62
7
  6
CENTER
 10
39.9048988739
 20
153.8541069043
 11
30.7548988739
 21
153.8541069043
  0
LINE
  5
2F8
100
AcDbEntity
  8
DEFAULT_1
100
AcDbLine
 62
7
  6
CENTER
 10
39.9048988739
 20
153.8541069043
 11
49.0548988739
 21
153.8541069043
  0
LINE
  5
2F9
100
AcDbEntity
  8
0
100
AcDbLine
 62
3
  6
CONTINUOUS
 10
60.9048988739
 20
154.8541069043
 11
60.4048988739
 21
154.8541069043
  0
LINE
  5
2FA
100
AcDbEntity
  8
DEFAULT_2
100
AcDbLine
 62
8
  6
HIDDEN
 10
43.9135798922
 20
156.7340156696
 11
44.0397403827
 21
156.7286563772
  0
LINE
  5
2FB
100
AcDbEntity
  8
DEFAULT_2
100
AcDbLine
 62
8
  6
HIDDEN
 10
35.7700573652
 20
156.7286563772
 11
35.8962178556
 21
156.7340156696
  0
LINE
  5
2FC
100
AcDbEntity
  8
0
100
AcDbLine
 62
3
  6
CONTINUOUS
 10
60.9048988739
 20
160.8541069043
 11
61.8617174775
 21
160.8541069043
  0
LINE
  5
2FD
100
AcDbEntity
  8
0
100
AcDbLine
 62
7
  6
CONTINUOUS
 10
57.9048988739
 20
164.3541069043
 11
53.4048988739
 21
164.3541069043
  0
LINE
  5
2FE
100
AcDbEntity
  8
0
100
AcDbLine
 62
7
  6
CONTINUOUS
 10
99.6558214387
 20
165.8541069043
 11
77.1549611107
 21
165.8541069043
  0
LINE
  5
2FF
100
AcDbEntity
  8
A_RUNDUNGEN
100
AcDbLine
 62
7
  6
CONTINUOUS
 10
53.4048988739
 20
165.8541069043
 11
44.9048988739
 21
165.8541069043
  0
LINE
  5
300
100
AcDbEntity
  8
0
100
AcDbLine
 62
3
  6
CONTINUOUS
 10
61.8617174775
 20
165.8541069043
 11
65.4048988739
 21
165.8541069043
  0
LINE
  5
301
100
AcDbEntity
  8
A_ACHSEN
100
AcDbLine
 62
3
  6
CONTINUOUS
 10
65.4048988739
 20
165.8541069043
 11
77.1549611107
 21
165.8541069043
  0
ARC
  5
302
100
AcDbEntity
  8
A_RUNDUNGEN
100
AcDbCircle
 62
7
  6
CONTINUOUS
 10
44.9048988739
 20
17.8541069043
 40
12.0
100
AcDbArc
 50
180.0
 51
270.0
  0
ARC
  5
303
100
AcDbEntity
  8
0
100
AcDbCircle
 62
3
  6
CONTINUOUS
 10
53.4048988739
 20
17.8541069043
 40
12.0
100
AcDbArc
 50
270.0
 51
305.6853347127
  0
CIRCLE
  5
304
100
AcDbEntity
  8
A_ACHSEN
100
AcDbCircle
 62
8
  6
HIDDEN
 10
39.9048988739
 20
17.8541069043
 40
6.15
  0
ARC
  5
305
100
AcDbEntity
  8
DEFAULT_2
100
AcDbCircle
 62
8
  6
HIDDEN
 10
35.7098988739
 20
25.120060042
 40
4.39
100
AcDbArc
 50
272.432459861
 51
327.567540139
  0
ARC
  5
306
100
AcDbEntity
  8
DEFAULT_2
100
AcDbCircle
 62
8
  6
HIDDEN
 10
31.5148988739
 20
17.8541069043
 40
4.39
100
AcDbArc
 50
332.432459861
 51
27.5675401389
  0
ARC
  5
307
100
AcDbEntity
  8
DEFAULT_2
100
AcDbCircle
 62
8
  6
HIDDEN
 10
35.7098988739
 20
10.5881537665
 40
4.39
100
AcDbArc
 50
32.432459861
 51
87.567540139
  0
ARC
  5
308
100
AcDbEntity
  8
DEFAULT_2
100
AcDbCircle
 62
8
  6
HIDDEN
 10
44.0998988739
 20
10.5881537665
 40
4.39
100
AcDbArc
 50
92.4324598611
 51
147.567540139
  0
ARC
  5
309
100
AcDbEntity
  8
DEFAULT_2
100
AcDbCircle
 62
8
  6
HIDDEN
 10
48.2948988739
 20
17.8541069043
 40
4.39
100
AcDbArc
 50
152.4324598607
 51
207.567540139
  0
ARC
  5
30A
100
AcDbEntity
  8
DEFAULT_2
100
AcDbCircle
 62
8
  6
HIDDEN
 10
44.0998988739
 20
25.120060042
 40
4.39
100
AcDbArc
 50
212.4324598611
 51
267.567540139
  0
CIRCLE
  5
30B
100
AcDbEntity
  8
A_ACHSEN
100
AcDbCircle
 62
7
  6
CONTINUOUS
 10
44.9048988739
 20
35.8541069043
 40
3.5
  0
CIRCLE
  5
30C
100
AcDbEntity
  8
A_ACHSEN
100
AcDbCircle
 62
7
  6
CONTINUOUS
 10
44.9048988739
 20
35.8541069043
 40
2.0
  0
ARC
  5
30D
100
AcDbEntity
  8
DEFAULT_2
100
AcDbCircle
 62
8
  6
HIDDEN
 10
35.791278206
 20
20.2291069043
 40
0.5
100
AcDbArc
 50
92.432459861
 51
207.5675401389
  0
ARC
  5
30E
100
AcDbEntity
  8
DEFAULT_2
100
AcDbCircle
 62
8
  6
HIDDEN
 10
35.791278206
 20
15.4791069043
 40
0.5
100
AcDbArc
 50
152.432459861
 51
267.567540139
  0
ARC
  5
30F
100
AcDbEntity
  8
DEFAULT_2
100
AcDbCircle
 62
8
  6
HIDDEN
 10
44.0185195419
 20
15.4791069043
 40
0.5
100
AcDbArc
 50
272.4324598611
 51
27.567540139
  0
ARC
  5
310
100
AcDbEntity
  8
DEFAULT_2
100
AcDbCircle
 62
8
  6
HIDDEN
 10
44.0185195419
 20
20.2291069043
 40
0.5
100
AcDbArc
 50
332.4324598607
 51
87.567540139
  0
ARC
  5
311
100
AcDbEntity
  8
DEFAULT_2
100
AcDbCircle
 62
8
  6
HIDDEN
 10
39.9048988739
 20
22.6041069043
 40
0.5
100
AcDbArc
 50
32.4324598611
 51
147.567540139
  0
ARC
  5
312
100
AcDbEntity
  8
DEFAULT_2
100
AcDbCircle
 62
8
  6
HIDDEN
 10
39.9048988739
 20
13.1041069043
 40
0.5
100
AcDbArc
 50
212.432459861
 51
327.567540139
  0
ARC
  5
313
100
AcDbEntity
  8
A_ACHSEN
100
AcDbCircle
 62
8
  6
HIDDEN
 10
52.9048988739
 20
51.8541069043
 40
6.15
100
AcDbArc
 50
35.0192725585
 51
324.9807274415
  0
ARC
  5
314
100
AcDbEntity
  8
A_ACHSEN
100
AcDbCircle
 62
3
  6
CONTINUOUS
 10
52.9048988739
 20
51.8541069043
 40
6.15
100
AcDbArc
 50
324.9807274415
 51
35.0192725585
  0
ARC
  5
315
100
AcDbEntity
  8
DEFAULT_2
100
AcDbCircle
 62
8
  6
HIDDEN
 10
35.7098988739
 20
78.5881537665
 40
4.39
100
AcDbArc
 50
32.432459861
 51
87.567540139
  0
ARC
  5
316
100
AcDbEntity
  8
DEFAULT_2
100
AcDbCircle
 62
8
  6
HIDDEN
 10
44.0998988739
 20
78.5881537665
 40
4.39
100
AcDbArc
 50
92.4324598611
 51
147.567540139
  0
CIRCLE
  5
317
100
AcDbEntity
  8
A_ACHSEN
100
AcDbCircle
 62
8
  6
HIDDEN
 10
52.9048988739
 20
51.8541069043
 40
3.5
  0
ARC
  5
318
100
AcDbEntity
  8
DEFAULT_2
100
AcDbCircle
 62
8
  6
HIDDEN
 10
35.791278206
 20
83.4791069043
 40
0.5
100
AcDbArc
 50
152.432459861
 51
267.567540139
  0
ARC
  5
319
100
AcDbEntity
  8
DEFAULT_2
100
AcDbCircle
 62
8
  6
HIDDEN
 10
44.0185195419
 20
83.4791069043
 40
0.5
100
AcDbArc
 50
272.4324598611
 51
27.567540139
  0
ARC
  5
31A
100
AcDbEntity
  8
DEFAULT_2
100
AcDbCircle
 62
8
  6
HIDDEN
 10
39.9048988739
 20
81.1041069043
 40
0.5
100
AcDbArc
 50
212.432459861
 51
327.567540139
  0
ARC
  5
31B
100
AcDbEntity
  8
A_RUNDUNGEN
100
AcDbCircle
 62
3
  6
CONTINUOUS
 10
75.9048988739
 20
43.9541069043
 40
1.0
100
AcDbArc
 50
180.0
 51
270.0
  0
CIRCLE
  5
31C
100
AcDbEntity
  8
A_ACHSEN
100
AcDbCircle
 62
8
  6
HIDDEN
 10
39.9048988739
 20
85.8541069043
 40
6.15
  0
ARC
  5
31D
100
AcDbEntity
  8
DEFAULT_2
100
AcDbCircle
 62
8
  6
HIDDEN
 10
35.7098988739
 20
93.120060042
 40
4.39
100
AcDbArc
 50
272.432459861
 51
327.567540139
  0
ARC
  5
31E
100
AcDbEntity
  8
DEFAULT_2
100
AcDbCircle
 62
8
  6
HIDDEN
 10
31.5148988739
 20
85.8541069043
 40
4.39
100
AcDbArc
 50
332.432459861
 51
27.5675401389
  0
ARC
  5
31F
100
AcDbEntity
  8
DEFAULT_2
100
AcDbCircle
 62
8
  6
HIDDEN
 10
35.791278206
 20
88.2291069043
 40
0.5
100
AcDbArc
 50
92.432459861
 51
207.5675401389
  0
ARC
  5
320
100
AcDbEntity
  8
DEFAULT_2
100
AcDbCircle
 62
8
  6
HIDDEN
 10
39.9048988739
 20
90.6041069043
 40
0.5
100
AcDbArc
 50
32.4324598611
 51
147.567540139
  0
ARC
  5
321
100
AcDbEntity
  8
DEFAULT_2
100
AcDbCircle
 62
8
  6
HIDDEN
 10
48.2948988739
 20
85.8541069043
 40
4.39
100
AcDbArc
 50
152.4324598607
 51
207.567540139
  0
ARC
  5
322
100
AcDbEntity
  8
DEFAULT_2
100
AcDbCircle
 62
8
  6
HIDDEN
 10
44.0998988739
 20
93.120060042
 40
4.39
100
AcDbArc
 50
212.4324598611
 51
267.567540139
  0
ARC
  5
323
100
AcDbEntity
  8
DEFAULT_2
100
AcDbCircle
 62
8
  6
HIDDEN
 10
44.0185195419
 20
88.2291069043
 40
0.5
100
AcDbArc
 50
332.4324598607
 51
87.567540139
  0
ARC
  5
324
100
AcDbEntity
  8
A_ACHSEN
100
AcDbCircle
 62
8
  6
HIDDEN
 10
52.9048988739
 20
119.8541069043
 40
6.15
100
AcDbArc
 50
35.0192725585
 51
324.9807274415
  0
ARC
  5
325
100
AcDbEntity
  8
A_ACHSEN
100
AcDbCircle
 62
3
  6
CONTINUOUS
 10
52.9048988739
 20
119.8541069043
 40
6.15
100
AcDbArc
 50
324.9807274415
 51
35.0192725585
  0
CIRCLE
  5
326
100
AcDbEntity
  8
A_ACHSEN
100
AcDbCircle
 62
8
  6
HIDDEN
 10
52.9048988739
 20
119.8541069043
 40
3.5
  0
ARC
  5
327
100
AcDbEntity
  8
A_RUNDUNGEN
100
AcDbCircle
 62
7
  6
CONTINUOUS
 10
44.9048988739
 20
153.8541069043
 40
12.0
100
AcDbArc
 50
90.0
 51
180.0
  0
ARC
  5
328
100
AcDbEntity
  8
0
100
AcDbCircle
 62
3
  6
CONTINUOUS
 10
53.4048988739
 20
153.8541069043
 40
12.0
100
AcDbArc
 50
54.3146652873
 51
90.0
  0
CIRCLE
  5
329
100
AcDbEntity
  8
A_ACHSEN
100
AcDbCircle
 62
8
  6
HIDDEN
 10
39.9048988739
 20
153.8541069043
 40
6.15
  0
ARC
  5
32A
100
AcDbEntity
  8
DEFAULT_2
100
AcDbCircle
 62
8
  6
HIDDEN
 10
35.7098988739
 20
161.120060042
 40
4.39
100
AcDbArc
 50
272.432459861
 51
327.567540139
  0
ARC
  5
32B
100
AcDbEntity
  8
DEFAULT_2
100
AcDbCircle
 62
8
  6
HIDDEN
 10
31.5148988739
 20
153.8541069043
 40
4.39
100
AcDbArc
 50
332.432459861
 51
27.5675401389
  0
ARC
  5
32C
100
AcDbEntity
  8
DEFAULT_2
100
AcDbCircle
 62
8
  6
HIDDEN
 10
35.7098988739
 20
146.5881537665
 40
4.39
100
AcDbArc
 50
32.432459861
 51
87.567540139
  0
ARC
  5
32D
100
AcDbEntity
  8
DEFAULT_2
100
AcDbCircle
 62
8
  6
HIDDEN
 10
44.0998988739
 20
146.5881537665
 40
4.39
100
AcDbArc
 50
92.4324598611
 51
147.567540139
  0
ARC
  5
32E
100
AcDbEntity
  8
DEFAULT_2
100
AcDbCircle
 62
8
  6
HIDDEN
 10
48.2948988739
 20
153.8541069043
 40
4.39
100
AcDbArc
 50
152.4324598607
 51
207.567540139
  0
ARC
  5
32F
100
AcDbEntity
  8
DEFAULT_2
100
AcDbCircle
 62
8
  6
HIDDEN
 10
44.0998988739
 20
161.120060042
 40
4.39
100
AcDbArc
 50
212.4324598611
 51
267.567540139
  0
CIRCLE
  5
330
100
AcDbEntity
  8
A_ACHSEN
100
AcDbCircle
 62
7
  6
CONTINUOUS
 10
44.9048988739
 20
135.8541069043
 40
3.5
  0
CIRCLE
  5
331
100
AcDbEntity
  8
A_ACHSEN
100
AcDbCircle
 62
7
  6
CONTINUOUS
 10
44.9048988739
 20
135.8541069043
 40
2.0
  0
ARC
  5
332
100
AcDbEntity
  8
DEFAULT_2
100
AcDbCircle
 62
8
  6
HIDDEN
 10
35.791278206
 20
156.2291069043
 40
0.5
100
AcDbArc
 50
92.432459861
 51
207.5675401389
  0
ARC
  5
333
100
AcDbEntity
  8
DEFAULT_2
100
AcDbCircle
 62
8
  6
HIDDEN
 10
35.791278206
 20
151.4791069043
 40
0.5
100
AcDbArc
 50
152.432459861
 51
267.567540139
  0
ARC
  5
334
100
AcDbEntity
  8
DEFAULT_2
100
AcDbCircle
 62
8
  6
HIDDEN
 10
44.0185195419
 20
151.4791069043
 40
0.5
100
AcDbArc
 50
272.4324598611
 51
27.567540139
  0
ARC
  5
335
100
AcDbEntity
  8
DEFAULT_2
100
AcDbCircle
 62
8
  6
HIDDEN
 10
44.0185195419
 20
156.2291069043
 40
0.5
100
AcDbArc
 50
332.4324598607
 51
87.567540139
  0
ARC
  5
336
100
AcDbEntity
  8
DEFAULT_2
100
AcDbCircle
 62
8
  6
HIDDEN
 10
39.9048988739
 20
158.6041069043
 40
0.5
100
AcDbArc
 50
32.4324598611
 51
147.567540139
  0
ARC
  5
337
100
AcDbEntity
  8
DEFAULT_2
100
AcDbCircle
 62
8
  6
HIDDEN
 10
39.9048988739
 20
149.1041069043
 40
0.5
100
AcDbArc
 50
212.432459861
 51
327.567540139
  0
ARC
  5
338
100
AcDbEntity
  8
A_RUNDUNGEN
100
AcDbCircle
 62
3
  6
CONTINUOUS
 10
75.9048988739
 20
127.7541069043
 40
1.0
100
AcDbArc
 50
90.0
 51
180.0
  0
ARC
  5
339
100
AcDbEntity
  8
0
100
AcDbCircle
 62
3
  6
CONTINUOUS
 10
132.9048988739
 20
81.8541069043
 40
3.0
100
AcDbArc
 50
180.0
 51
270.0
  0
ARC
  5
33A
100
AcDbEntity
  8
0
100
AcDbCircle
 62
3
  6
CONTINUOUS
 10
138.9636696912
 20
81.8541069043
 40
3.0
100
AcDbArc
 50
270.0
 51
345.5224878141
  0
ARC
  5
33B
100
AcDbEntity
  8
0
100
AcDbCircle
 62
3
  6
CONTINUOUS
 10
138.9636696912
 20
61.8541069043
 40
3.0
100
AcDbArc
 50
14.4775121859
 51
90.0
  0
ARC
  5
33C
100
AcDbEntity
  8
0
100
AcDbCircle
 62
3
  6
CONTINUOUS
 10
132.9048988739
 20
61.8541069043
 40
3.0
100
AcDbArc
 50
90.0
 51
180.0
  0
ARC
  5
33D
100
AcDbEntity
  8
0
100
AcDbCircle
 62
3
  6
CONTINUOUS
 10
132.9048988739
 20
53.8541069043
 40
3.0
100
AcDbArc
 50
180.0
 51
270.0
  0
ARC
  5
33E
100
AcDbEntity
  8
0
100
AcDbCircle
 62
3
  6
CONTINUOUS
 10
138.9636696912
 20
53.8541069043
 40
3.0
100
AcDbArc
 50
270.0
 51
345.5224878141
  0
ARC
  5
33F
100
AcDbEntity
  8
0
100
AcDbCircle
 62
3
  6
CONTINUOUS
 10
145.9048988739
 20
80.1041069043
 40
2.5
100
AcDbArc
 50
0.0
 51
90.0
  0
ARC
  5
340
100
AcDbEntity
  8
0
100
AcDbCircle
 62
3
  6
CONTINUOUS
 10
145.9048988739
 20
63.6041069043
 40
2.5
100
AcDbArc
 50
270.0
 51
360.0
  0
ARC
  5
341
100
AcDbEntity
  8
0
100
AcDbCircle
 62
3
  6
CONTINUOUS
 10
145.9048988739
 20
52.1041069043
 40
2.5
100
AcDbArc
 50
0.0
 51
90.0
  0
ARC
  5
342
100
AcDbEntity
  8
0
100
AcDbCircle
 62
3
  6
CONTINUOUS
 10
143.8048988739
 20
80.6041069043
 40
2.0
100
AcDbArc
 50
90.0
 51
165.5224878141
  0
ARC
  5
343
100
AcDbEntity
  8
0
100
AcDbCircle
 62
3
  6
CONTINUOUS
 10
143.8048988739
 20
63.1041069043
 40
2.0
100
AcDbArc
 50
194.4775121859
 51
270.0
  0
ARC
  5
344
100
AcDbEntity
  8
0
100
AcDbCircle
 62
3
  6
CONTINUOUS
 10
143.8048988739
 20
52.6041069043
 40
2.0
100
AcDbArc
 50
90.0
 51
165.5224878141
  0
ARC
  5
345
100
AcDbEntity
  8
0
100
AcDbCircle
 62
3
  6
CONTINUOUS
 10
138.9636696912
 20
117.8541069043
 40
3.0
100
AcDbArc
 50
14.4775121859
 51
90.0
  0
ARC
  5
346
100
AcDbEntity
  8
0
100
AcDbCircle
 62
3
  6
CONTINUOUS
 10
132.9048988739
 20
117.8541069043
 40
3.0
100
AcDbArc
 50
90.0
 51
180.0
  0
ARC
  5
347
100
AcDbEntity
  8
0
100
AcDbCircle
 62
3
  6
CONTINUOUS
 10
132.9048988739
 20
109.8541069043
 40
3.0
100
AcDbArc
 50
180.0
 51
270.0
  0
ARC
  5
348
100
AcDbEntity
  8
0
100
AcDbCircle
 62
3
  6
CONTINUOUS
 10
138.9636696912
 20
109.8541069043
 40
3.0
100
AcDbArc
 50
270.0
 51
345.5224878141
  0
ARC
  5
349
100
AcDbEntity
  8
0
100
AcDbCircle
 62
3
  6
CONTINUOUS
 10
138.9636696912
 20
89.8541069043
 40
3.0
100
AcDbArc
 50
14.4775121859
 51
90.0
  0
ARC
  5
34A
100
AcDbEntity
  8
0
100
AcDbCircle
 62
3
  6
CONTINUOUS
 10
132.9048988739
 20
89.8541069043
 40
3.0
100
AcDbArc
 50
90.0
 51
180.0
  0
ARC
  5
34B
100
AcDbEntity
  8
0
100
AcDbCircle
 62
3
  6
CONTINUOUS
 10
145.9048988739
 20
119.6041069043
 40
2.5
100
AcDbArc
 50
270.0
 51
360.0
  0
ARC
  5
34C
100
AcDbEntity
  8
0
100
AcDbCircle
 62
3
  6
CONTINUOUS
 10
145.9048988739
 20
108.1041069043
 40
2.5
100
AcDbArc
 50
0.0
 51
90.0
  0
ARC
  5
34D
100
AcDbEntity
  8
0
100
AcDbCircle
 62
3
  6
CONTINUOUS
 10
145.9048988739
 20
91.6041069043
 40
2.5
100
AcDbArc
 50
270.0
 51
360.0
  0
ARC
  5
34E
100
AcDbEntity
  8
0
100
AcDbCircle
 62
3
  6
CONTINUOUS
 10
143.8048988739
 20
119.1041069043
 40
2.0
100
AcDbArc
 50
194.4775121859
 51
270.0
  0
ARC
  5
34F
100
AcDbEntity
  8
0
100
AcDbCircle
 62
3
  6
CONTINUOUS
 10
143.8048988739
 20
108.6041069043
 40
2.0
100
AcDbArc
 50
90.0
 51
165.5224878141
  0
ARC
  5
350
100
AcDbEntity
  8
0
100
AcDbCircle
 62
3
  6
CONTINUOUS
 10
143.8048988739
 20
91.1041069043
 40
2.0
100
AcDbArc
 50
194.4775121859
 51
270.0
  0
LINE
  5
351
100
AcDbEntity
  8
DEFAULT_2
100
AcDbLine
 62
8
  6
HIDDEN
 10
121.319112452
 20
43.8584635144
 11
121.2524003979
 21
43.8541069043
  0
LINE
  5
352
100
AcDbEntity
  8
DEFAULT_2
100
AcDbLine
 62
8
  6
HIDDEN
 10
121.319112452
 20
127.8497502942
 11
121.2524003979
 21
127.8541069043
  0
ENDSEC
  0
SECTION
  2
OBJECTS
  0
DICTIONARY
  5
353
100
AcDbDictionary
  3
ACAD_GROUP
350
354
  3
ACAD_MLINESTYLE
350
355
  0
DICTIONARY
  5
354
102
{ACAD_REACTORS
330
353
102
}
100
AcDbDictionary
  0
DICTIONARY
  5
355
102
{ACAD_REACTORS
330
353
102
}
100
AcDbDictionary
  3
STANDARD
350
356
  0
MLINESTYLE
  5
356
102
{ACAD_REACTORS
330
355
102
}
100
AcDbMlineStyle
  2
STANDARD
 70
0
  3

 62
256
 51
90.0
 52
90.0
 71
2
 49
0.5
 62
256
  6
BYLAYER
 49
-0.5
 62
256
  6
BYLAYER
  0
ENDSEC
  0
EOF
