999
DXF file: d:\tmp\workingDir\0000083989\vx_7859_160_4_18_12_fd_q01_01.dxf
999
Pro/ENGINEER 2016380 by Parametric Technology Corporation
  0
SECTION
  2
HEADER
  9
$ACADVER
  1
AC1014
  9
$DWGCODEPAGE
  3
ANSI_1252
  9
$EXTMAX
 10
154.94
 20
140.0
 30
0.0
  9
$EXTMIN
 10
0.0
 20
0.0
 30
0.0
  9
$LIMMIN
 10
0.0
 20
0.0
  9
$LIMMAX
 10
154.94
 20
140.0
  9
$VIEWCTR
 10
77.47
 20
70.0
  9
$VIEWSIZE
 40
140.0
  9
$CLAYER
  8
0
  9
$LTSCALE
 40
9.1259259259
  9
$CELTYPE
  6
BYLAYER
  9
$DIMSCALE
 40
1.0
  9
$DIMASZ
 40
3.5
  9
$DIMEXO
 40
0.0
  9
$DIMDLI
 40
6.3051851852
  9
$DIMEXE
 40
2.0
  9
$DIMCEN
 40
1.4933333333
  9
$DIMLFAC
 40
1.0
  9
$DIMBLK
  1
_ARROW_FILLED
  9
$DIMALT
 70
0
  9
$DIMALTF
 40
25.4
  9
$DIMTXT
 40
3.5
  9
$DIMTOL
 70
1
  9
$DIMLIM
 70
0
  9
$DIMTFAC
 40
1.0
  9
$DIMTP
 40
0.01
  9
$DIMTM
 40
0.01
  9
$DIMGAP
 40
0.625
  9
$AUNITS
 70
0
  9
$PDMODE
 70
0
  9
$PDSIZE
 40
0.04
  9
$HANDSEED
  5
56D
  9
$TILEMODE
 70
1
  9
$MEASUREMENT
 70
1
  0
ENDSEC
  0
SECTION
  2
CLASSES
  0
ENDSEC
  0
SECTION
  2
TABLES
  0
TABLE
  2
VPORT
  5
8
100
AcDbSymbolTable
 70
2
  0
VPORT
  5
1F4
100
AcDbSymbolTableRecord
100
AcDbViewportTableRecord
  2
*ACTIVE
 70
0
 10
0.0
 20
0.0
 11
1.0
 21
1.0
 12
77.47
 22
70.0
 13
0.0
 23
0.0
 14
1.0
 24
1.0
 15
0.0
 25
0.0
 16
0.0
 26
0.0
 36
1.0
 17
0.0
 27
0.0
 37
0.0
 40
140.0
 41
1.1067142857
 42
50.0
 43
0.0
 44
0.0
 50
0.0
 51
0.0
 71
0
 72
100
 73
1
 74
1
 75
0
 76
0
 77
0
 78
0
  0
ENDTAB
  0
TABLE
  2
LTYPE
  5
5
100
AcDbSymbolTable
 70
6
  0
LTYPE
  5
14
100
AcDbSymbolTableRecord
100
AcDbLinetypeTableRecord
  2
BYBLOCK
 70
0
  3

 72
65
 73
0
 40
0.0
  0
LTYPE
  5
15
100
AcDbSymbolTableRecord
100
AcDbLinetypeTableRecord
  2
BYLAYER
 70
0
  3

 72
65
 73
0
 40
0.0
  0
LTYPE
  5
16
100
AcDbSymbolTableRecord
100
AcDbLinetypeTableRecord
  2
CONTINUOUS
 70
64
  3
Solid line
 72
65
 73
0
 40
0.0
  0
LTYPE
  5
1F5
100
AcDbSymbolTableRecord
100
AcDbLinetypeTableRecord
  2
CENTER
 70
64
  3
____ _ ____ _ ____ _ ____ _ ____ _ ____ _ ____
 72
65
 73
4
 40
0.6
 49
0.375
 74
0
 49
-0.075
 74
0
 49
0.075
 74
0
 49
-0.075
 74
0
  0
LTYPE
  5
1F6
100
AcDbSymbolTableRecord
100
AcDbLinetypeTableRecord
  2
HIDDEN
 70
64
  3
- - - - - - - - - - - - - - - - - - - -
 72
65
 73
2
 40
0.2
 49
0.1
 74
0
 49
-0.1
 74
0
  0
LTYPE
  5
1F7
100
AcDbSymbolTableRecord
100
AcDbLinetypeTableRecord
  2
PHANTOM
 70
64
  3
_____ _ _ _____ _ _ _____ _ _ _____
 72
65
 73
6
 40
0.8
 49
0.45
 74
0
 49
-0.05
 74
0
 49
0.1
 74
0
 49
-0.05
 74
0
 49
0.1
 74
0
 49
-0.05
 74
0
  0
LTYPE
  5
1F8
100
AcDbSymbolTableRecord
100
AcDbLinetypeTableRecord
  2
DOT
 70
64
  3
. . . . . . . . . . . . . . . . . . . .
 72
65
 73
2
 40
0.2
 49
0.1
 74
0
 49
-0.1
 74
0
  0
LTYPE
  5
1F9
100
AcDbSymbolTableRecord
100
AcDbLinetypeTableRecord
  2
DASHED
 70
64
  3
- - - - - - - - - - - - - - - - - - - -
 72
65
 73
2
 40
0.2
 49
0.1
 74
0
 49
-0.1
 74
0
  0
ENDTAB
  0
TABLE
  2
LAYER
  5
2
100
AcDbSymbolTable
 70
36
  0
LAYER
  5
10
100
AcDbSymbolTableRecord
100
AcDbLayerTableRecord
  2
0
 70
0
 62
7
  6
CONTINUOUS
  0
LAYER
  5
1FA
100
AcDbSymbolTableRecord
100
AcDbLayerTableRecord
  2
DEFAULT_1
 70
0
 62
7
  6
CENTER
  0
LAYER
  5
1FB
100
AcDbSymbolTableRecord
100
AcDbLayerTableRecord
  2
DEFAULT_2
 70
0
 62
8
  6
HIDDEN
  0
LAYER
  5
1FC
100
AcDbSymbolTableRecord
100
AcDbLayerTableRecord
  2
DEFAULT_3
 70
0
 62
7
  6
PHANTOM
  0
LAYER
  5
1FD
100
AcDbSymbolTableRecord
100
AcDbLayerTableRecord
  2
A_ACHSEN
 70
0
 62
7
  6
CONTINUOUS
  0
LAYER
  5
1FE
100
AcDbSymbolTableRecord
100
AcDbLayerTableRecord
  2
A_BASISEBENEN
 70
0
 62
7
  6
CONTINUOUS
  0
LAYER
  5
1FF
100
AcDbSymbolTableRecord
100
AcDbLayerTableRecord
  2
A_BEMASSUNGEN
 70
0
 62
7
  6
CONTINUOUS
  0
LAYER
  5
200
100
AcDbSymbolTableRecord
100
AcDbLayerTableRecord
  2
A_BOHRUNGEN
 70
0
 62
7
  6
CONTINUOUS
  0
LAYER
  5
201
100
AcDbSymbolTableRecord
100
AcDbLayerTableRecord
  2
A_EBENEN
 70
0
 62
7
  6
CONTINUOUS
  0
LAYER
  5
202
100
AcDbSymbolTableRecord
100
AcDbLayerTableRecord
  2
A_FASEN
 70
0
 62
7
  6
CONTINUOUS
  0
LAYER
  5
203
100
AcDbSymbolTableRecord
100
AcDbLayerTableRecord
  2
A_FLAECHEN
 70
0
 62
7
  6
CONTINUOUS
  0
LAYER
  5
204
100
AcDbSymbolTableRecord
100
AcDbLayerTableRecord
  2
A_FL_VERBAENDE
 70
0
 62
7
  6
CONTINUOUS
  0
LAYER
  5
205
100
AcDbSymbolTableRecord
100
AcDbLayerTableRecord
  2
A_KURVEN
 70
0
 62
7
  6
CONTINUOUS
  0
LAYER
  5
206
100
AcDbSymbolTableRecord
100
AcDbLayerTableRecord
  2
A_NOTIZEN_SYMB
 70
0
 62
7
  6
CONTINUOUS
  0
LAYER
  5
207
100
AcDbSymbolTableRecord
100
AcDbLayerTableRecord
  2
A_PUNKTE
 70
0
 62
7
  6
CONTINUOUS
  0
LAYER
  5
208
100
AcDbSymbolTableRecord
100
AcDbLayerTableRecord
  2
A_RUNDUNGEN
 70
0
 62
7
  6
CONTINUOUS
  0
LAYER
  5
209
100
AcDbSymbolTableRecord
100
AcDbLayerTableRecord
  2
B-ACHSEN
 70
0
 62
7
  6
CONTINUOUS
  0
LAYER
  5
20A
100
AcDbSymbolTableRecord
100
AcDbLayerTableRecord
  2
B-EBENEN
 70
0
 62
7
  6
CONTINUOUS
  0
LAYER
  5
20B
100
AcDbSymbolTableRecord
100
AcDbLayerTableRecord
  2
B-KOORSYS
 70
0
 62
7
  6
CONTINUOUS
  0
LAYER
  5
20C
100
AcDbSymbolTableRecord
100
AcDbLayerTableRecord
  2
BASISEBENEN
 70
0
 62
7
  6
CONTINUOUS
  0
LAYER
  5
20D
100
AcDbSymbolTableRecord
100
AcDbLayerTableRecord
  2
BEMASSUNG
 70
0
 62
7
  6
CONTINUOUS
  0
LAYER
  5
20E
100
AcDbSymbolTableRecord
100
AcDbLayerTableRecord
  2
BOHRUNGEN
 70
0
 62
7
  6
CONTINUOUS
  0
LAYER
  5
20F
100
AcDbSymbolTableRecord
100
AcDbLayerTableRecord
  2
INTF_2
 70
0
 62
7
  6
CONTINUOUS
  0
LAYER
  5
210
100
AcDbSymbolTableRecord
100
AcDbLayerTableRecord
  2
INTF_3
 70
0
 62
7
  6
CONTINUOUS
  0
LAYER
  5
211
100
AcDbSymbolTableRecord
100
AcDbLayerTableRecord
  2
INTF_YELLOW
 70
0
 62
7
  6
CONTINUOUS
  0
LAYER
  5
212
100
AcDbSymbolTableRecord
100
AcDbLayerTableRecord
  2
KOERPER
 70
0
 62
7
  6
CONTINUOUS
  0
LAYER
  5
213
100
AcDbSymbolTableRecord
100
AcDbLayerTableRecord
  2
RUNDUNGEN
 70
0
 62
7
  6
CONTINUOUS
  0
LAYER
  5
214
100
AcDbSymbolTableRecord
100
AcDbLayerTableRecord
  2
VERBUNDFLAECHEN
 70
0
 62
7
  6
CONTINUOUS
  0
LAYER
  5
215
100
AcDbSymbolTableRecord
100
AcDbLayerTableRecord
  2
XSEC_DATUMS
 70
0
 62
7
  6
CONTINUOUS
  0
ENDTAB
  0
TABLE
  2
STYLE
  5
3
100
AcDbSymbolTable
 70
1
  0
STYLE
  5
11
100
AcDbSymbolTableRecord
100
AcDbTextStyleTableRecord
  2
STANDARD
 70
0
 40
0.0
 41
1.0
 50
0.0
 71
0
 42
0.2
  3
txt
  4

  0
STYLE
  5
216
100
AcDbSymbolTableRecord
100
AcDbTextStyleTableRecord
  2
TEXTSTYLE_1
 70
0
 40
0.0
 41
0.8
 50
0.0
 71
0
 42
0.2
  3
gdt
  4

  0
STYLE
  5
217
100
AcDbSymbolTableRecord
100
AcDbTextStyleTableRecord
  2
TEXTSTYLE_2
 70
0
 40
0.0
 41
1.0
 50
0.0
 71
0
 42
0.2
  3
txt
  4

  0
ENDTAB
  0
TABLE
  2
VIEW
  5
6
100
AcDbSymbolTable
 70
0
  0
ENDTAB
  0
TABLE
  2
UCS
  5
7
100
AcDbSymbolTable
 70
0
  0
ENDTAB
  0
TABLE
  2
APPID
  5
9
100
AcDbSymbolTable
 70
1
  0
APPID
  5
218
100
AcDbSymbolTableRecord
100
AcDbRegAppTableRecord
  2
ACAD
 70
0
  0
ENDTAB
  0
TABLE
  2
BLOCK_RECORD
  5
1
100
AcDbSymbolTable
 70
0
  0
BLOCK_RECORD
  5
1F
100
AcDbSymbolTableRecord
100
AcDbBlockTableRecord
  2
*MODEL_SPACE
  0
BLOCK_RECORD
  5
1B
100
AcDbSymbolTableRecord
100
AcDbBlockTableRecord
  2
*PAPER_SPACE
  0
BLOCK_RECORD
  5
219
100
AcDbSymbolTableRecord
100
AcDbBlockTableRecord
  2
_ARROW_FILLED
  0
BLOCK_RECORD
  5
21A
100
AcDbSymbolTableRecord
100
AcDbBlockTableRecord
  2
*D0
  0
BLOCK_RECORD
  5
21B
100
AcDbSymbolTableRecord
100
AcDbBlockTableRecord
  2
*D1
  0
BLOCK_RECORD
  5
21C
100
AcDbSymbolTableRecord
100
AcDbBlockTableRecord
  2
*D2
  0
BLOCK_RECORD
  5
21D
100
AcDbSymbolTableRecord
100
AcDbBlockTableRecord
  2
*D3
  0
BLOCK_RECORD
  5
21E
100
AcDbSymbolTableRecord
100
AcDbBlockTableRecord
  2
*D4
  0
BLOCK_RECORD
  5
21F
100
AcDbSymbolTableRecord
100
AcDbBlockTableRecord
  2
*D5
  0
BLOCK_RECORD
  5
220
100
AcDbSymbolTableRecord
100
AcDbBlockTableRecord
  2
*D6
  0
BLOCK_RECORD
  5
221
100
AcDbSymbolTableRecord
100
AcDbBlockTableRecord
  2
*D7
  0
BLOCK_RECORD
  5
222
100
AcDbSymbolTableRecord
100
AcDbBlockTableRecord
  2
*D8
  0
BLOCK_RECORD
  5
223
100
AcDbSymbolTableRecord
100
AcDbBlockTableRecord
  2
*D9
  0
BLOCK_RECORD
  5
224
100
AcDbSymbolTableRecord
100
AcDbBlockTableRecord
  2
*D10
  0
ENDTAB
  0
TABLE
  2
DIMSTYLE
  5
A
100
AcDbSymbolTable
 70
1
  0
DIMSTYLE
105
225
100
AcDbSymbolTableRecord
100
AcDbDimStyleTableRecord
  2
STANDARD
 70
0
  3

  4

  5
_ARROW_FILLED
  6
_ARROW_FILLED
  7
_ARROW_FILLED
 40
1.0
 41
3.5
 42
0.0
 43
0.38
 44
2.0
 45
0.0
 46
0.0
 47
0.01
 48
0.01
140
3.5
141
0.09
142
0.0
143
25.4
144
1.0
145
0.0
146
1.0
147
0.625
 71
1.0
 72
0.0
 73
0
 74
0
 75
0
 76
0
 77
1
 78
8
170
0
171
1
172
0
173
0
174
0
175
0
176
0
177
0
178
5
270
2
271
2
272
2
273
2
274
2
275
0
280
0
281
0
282
0
283
1
284
8
285
0
286
0
287
3
288
0
340
11
  0
DIMSTYLE
105
226
100
AcDbSymbolTableRecord
100
AcDbDimStyleTableRecord
  2
DIMSTYLE_1
 70
0
  3

  4

  5
_ARROW_FILLED
  6
_ARROW_FILLED
  7
_ARROW_FILLED
 40
1.0
 41
3.5
 42
0.0
 43
0.38
 44
2.0
 45
0.0
 46
0.0
 47
0.2
 48
0.2
140
3.5
141
0.09
142
0.0
143
25.4
144
1.0
145
0.0
146
1.0
147
0.875
 71
0.0
 72
0.0
 73
0
 74
0
 75
0
 76
0
 77
1
 78
8
170
0
171
1
172
0
173
0
174
0
175
0
176
0
177
0
178
5
270
2
271
4
272
-1
273
2
274
2
275
0
280
0
281
0
282
0
283
1
284
8
285
0
286
0
287
3
288
0
340
217
  0
DIMSTYLE
105
227
100
AcDbSymbolTableRecord
100
AcDbDimStyleTableRecord
  2
DIMSTYLE_2
 70
0
  3

  4

  5
_ARROW_FILLED
  6
_ARROW_FILLED
  7
_ARROW_FILLED
 40
1.0
 41
3.5
 42
0.0
 43
0.38
 44
2.0
 45
0.0
 46
0.0
 47
0.1
 48
0.1
140
3.5
141
0.09
142
0.0
143
25.4
144
1.0
145
0.0
146
1.0
147
0.875
 71
0.0
 72
0.0
 73
0
 74
0
 75
0
 76
0
 77
1
 78
8
170
0
171
1
172
0
173
0
174
0
175
0
176
0
177
0
178
5
270
2
271
4
272
-1
273
2
274
2
275
0
280
0
281
0
282
0
283
1
284
8
285
0
286
0
287
3
288
0
340
217
  0
DIMSTYLE
105
228
100
AcDbSymbolTableRecord
100
AcDbDimStyleTableRecord
  2
DIMSTYLE_3
 70
0
  3

  4

  5
_ARROW_FILLED
  6
_ARROW_FILLED
  7
_ARROW_FILLED
 40
1.0
 41
3.5
 42
0.0
 43
0.38
 44
2.0
 45
0.0
 46
0.0
 47
0.3
 48
0.3
140
3.5
141
0.09
142
0.0
143
25.4
144
1.0
145
0.0
146
1.0
147
0.875
 71
0.0
 72
0.0
 73
0
 74
0
 75
0
 76
0
 77
1
 78
8
170
0
171
1
172
0
173
0
174
0
175
0
176
0
177
0
178
5
270
2
271
4
272
-1
273
2
274
2
275
0
280
0
281
0
282
0
283
1
284
8
285
0
286
0
287
3
288
0
340
217
  0
ENDTAB
  0
ENDSEC
  0
SECTION
  2
BLOCKS
  0
BLOCK
  5
20
100
AcDbEntity
  8
0
100
AcDbBlockBegin
  2
*MODEL_SPACE
 70
0
 10
0.0
 20
0.0
 30
0.0
  3
*MODEL_SPACE
  1

  0
ENDBLK
  5
21
100
AcDbEntity
  8
0
100
AcDbBlockEnd
  0
BLOCK
  5
1C
100
AcDbEntity
  8
0
100
AcDbBlockBegin
  2
*PAPER_SPACE
 70
0
 10
0.0
 20
0.0
 30
0.0
  3
*PAPER_SPACE
  1

  0
ENDBLK
  5
1D
100
AcDbEntity
  8
0
100
AcDbBlockEnd
  0
BLOCK
  5
229
100
AcDbEntity
  8
0
100
AcDbBlockBegin
  2
_ARROW_FILLED
 70
64
 10
0.0
 20
0.0
  3
_ARROW_FILLED
  1

  0
SOLID
  5
22A
100
AcDbEntity
  8
0
  6
BYBLOCK
 62
0
100
AcDbTrace
 10
0.0
 20
0.0
 11
-1.0
 21
0.1428571429
 12
-1.0
 22
-0.1428571429
 13
-1.0
 23
-0.1428571429
  0
ENDBLK
  5
22B
100
AcDbEntity
  8
0
  6
BYBLOCK
 62
0
100
AcDbBlockEnd
  0
BLOCK
  5
22C
100
AcDbEntity
  8
A_BEMASSUNGEN
100
AcDbBlockBegin
 62
2
  6
CONTINUOUS
  2
*D0
 70
65
 10
0.0
 20
0.0
  3
*D0
  1

  0
MTEXT
  5
22D
100
AcDbEntity
  8
A_BEMASSUNGEN
100
AcDbMText
 62
5
  6
CONTINUOUS
  7
TEXTSTYLE_2
 71
2
 72
1
 10
81.9133336522
 20
113.5923253003
 30
0.0
 11
1.0
 21
0.0
 31
0.0
  1
12
 40
3.5
 41
7.125
  0
LINE
  5
22E
100
AcDbEntity
  8
A_BEMASSUNGEN
100
AcDbLine
 62
2
  6
CONTINUOUS
 10
88.4603641883
 20
91.75750913
 11
88.4603747106
 21
111.2173217602
  0
LINE
  5
22F
100
AcDbEntity
  8
A_BEMASSUNGEN
100
AcDbLine
 62
2
  6
CONTINUOUS
 10
76.4603661023
 20
97.7803049508
 11
76.4603733679
 21
111.2173282488
  0
LINE
  5
230
100
AcDbEntity
  8
A_BEMASSUNGEN
100
AcDbLine
 62
2
  6
CONTINUOUS
 10
88.4603736291
 20
109.2173217602
 11
82.4603729578
 21
109.2173250045
  0
LINE
  5
231
100
AcDbEntity
  8
A_BEMASSUNGEN
100
AcDbLine
 62
2
  6
CONTINUOUS
 10
76.4603722865
 20
109.2173282488
 11
82.4603729578
 21
109.2173250045
  0
INSERT
  5
232
100
AcDbEntity
  8
A_BEMASSUNGEN
100
AcDbBlockReference
 62
2
  6
CONTINUOUS
  2
_ARROW_FILLED
 10
88.4603736291
 20
109.2173217602
 41
3.5
 42
3.5
 43
3.5
 50
359.999969019
  0
INSERT
  5
233
100
AcDbEntity
  8
A_BEMASSUNGEN
100
AcDbBlockReference
 62
2
  6
CONTINUOUS
  2
_ARROW_FILLED
 10
76.4603722865
 20
109.2173282488
 41
3.5
 42
3.5
 43
3.5
 50
179.999969019
  0
ENDBLK
  5
234
100
AcDbEntity
  8
0
  6
BYBLOCK
 62
0
100
AcDbBlockEnd
  0
BLOCK
  5
235
100
AcDbEntity
  8
A_BEMASSUNGEN
100
AcDbBlockBegin
 62
2
  6
CONTINUOUS
  2
*D1
 70
65
 10
0.0
 20
0.0
  3
*D1
  1

  0
MTEXT
  5
236
100
AcDbEntity
  8
A_BEMASSUNGEN
100
AcDbMText
 62
5
  6
CONTINUOUS
  7
TEXTSTYLE_2
 71
2
 72
1
 10
38.258732356
 20
43.0075038778
 30
0.0
 11
0.0
 21
1.0
 31
0.0
  1
13.5
 40
3.5
 41
13.5
  0
LINE
  5
237
100
AcDbEntity
  8
A_BEMASSUNGEN
100
AcDbLine
 62
2
  6
CONTINUOUS
 10
49.1571276974
 20
36.2575221073
 11
40.633732356
 21
36.2575221073
  0
LINE
  5
238
100
AcDbEntity
  8
A_BEMASSUNGEN
100
AcDbLine
 62
2
  6
CONTINUOUS
 10
42.633732356
 20
49.7574856484
 11
42.633732356
 21
43.0075038778
  0
LINE
  5
239
100
AcDbEntity
  8
A_BEMASSUNGEN
100
AcDbLine
 62
2
  6
CONTINUOUS
 10
42.633732356
 20
36.2575221073
 11
42.633732356
 21
43.0075038778
  0
INSERT
  5
23A
100
AcDbEntity
  8
A_BEMASSUNGEN
100
AcDbBlockReference
 62
2
  6
CONTINUOUS
  2
_ARROW_FILLED
 10
42.633732356
 20
49.7574856484
 41
3.5
 42
3.5
 43
3.5
 50
90.0
  0
INSERT
  5
23B
100
AcDbEntity
  8
A_BEMASSUNGEN
100
AcDbBlockReference
 62
2
  6
CONTINUOUS
  2
_ARROW_FILLED
 10
42.633732356
 20
36.2575221073
 41
3.5
 42
3.5
 43
3.5
 50
270.0
  0
ENDBLK
  5
23C
100
AcDbEntity
  8
0
  6
BYBLOCK
 62
0
100
AcDbBlockEnd
  0
BLOCK
  5
23D
100
AcDbEntity
  8
A_BEMASSUNGEN
100
AcDbBlockBegin
 62
2
  6
CONTINUOUS
  2
*D2
 70
65
 10
0.0
 20
0.0
  3
*D2
  1

  0
MTEXT
  5
23E
100
AcDbEntity
  8
A_BEMASSUNGEN
100
AcDbMText
 62
5
  6
CONTINUOUS
  7
TEXTSTYLE_2
 71
2
 72
1
 10
13.7389960601
 20
62.2574856484
 30
0.0
 11
0.0
 21
1.0
 31
0.0
  1
25
 40
3.5
 41
7.875
  0
LINE
  5
23F
100
AcDbEntity
  8
A_BEMASSUNGEN
100
AcDbLine
 62
2
  6
CONTINUOUS
 10
51.4603613586
 20
74.7574856484
 11
16.1139960601
 21
74.7574856484
  0
LINE
  5
240
100
AcDbEntity
  8
A_BEMASSUNGEN
100
AcDbLine
 62
2
  6
CONTINUOUS
 10
27.4603613586
 20
49.7574856484
 11
16.1139960601
 21
49.7574856484
  0
LINE
  5
241
100
AcDbEntity
  8
A_BEMASSUNGEN
100
AcDbLine
 62
2
  6
CONTINUOUS
 10
18.1139960601
 20
74.7574856484
 11
18.1139960601
 21
62.2574856484
  0
LINE
  5
242
100
AcDbEntity
  8
A_BEMASSUNGEN
100
AcDbLine
 62
2
  6
CONTINUOUS
 10
18.1139960601
 20
49.7574856484
 11
18.1139960601
 21
62.2574856484
  0
INSERT
  5
243
100
AcDbEntity
  8
A_BEMASSUNGEN
100
AcDbBlockReference
 62
2
  6
CONTINUOUS
  2
_ARROW_FILLED
 10
18.1139960601
 20
74.7574856484
 41
3.5
 42
3.5
 43
3.5
 50
90.0
  0
INSERT
  5
244
100
AcDbEntity
  8
A_BEMASSUNGEN
100
AcDbBlockReference
 62
2
  6
CONTINUOUS
  2
_ARROW_FILLED
 10
18.1139960601
 20
49.7574856484
 41
3.5
 42
3.5
 43
3.5
 50
270.0
  0
ENDBLK
  5
245
100
AcDbEntity
  8
0
  6
BYBLOCK
 62
0
100
AcDbBlockEnd
  0
BLOCK
  5
246
100
AcDbEntity
  8
A_BEMASSUNGEN
100
AcDbBlockBegin
 62
2
  6
CONTINUOUS
  2
*D3
 70
65
 10
0.0
 20
0.0
  3
*D3
  1

  0
MTEXT
  5
247
100
AcDbEntity
  8
A_BEMASSUNGEN
100
AcDbMText
 62
5
  6
CONTINUOUS
  7
TEXTSTYLE_2
 71
2
 72
1
 10
71.4603622229
 20
113.5923282488
 30
0.0
 11
1.0
 21
0.0
 31
0.0
  1
10
 40
3.5
 41
7.125
  0
LINE
  5
248
100
AcDbEntity
  8
A_BEMASSUNGEN
100
AcDbLine
 62
2
  6
CONTINUOUS
 10
76.4603613586
 20
98.7574856484
 11
76.4603613586
 21
111.2173282488
  0
LINE
  5
249
100
AcDbEntity
  8
A_BEMASSUNGEN
100
AcDbLine
 62
2
  6
CONTINUOUS
 10
66.4603630871
 20
95.1928357821
 11
66.4603630871
 21
111.2173282488
  0
LINE
  5
24A
100
AcDbEntity
  8
A_BEMASSUNGEN
100
AcDbLine
 62
2
  6
CONTINUOUS
 10
76.4603613586
 20
109.2173282488
 11
71.4603622229
 21
109.2173282488
  0
LINE
  5
24B
100
AcDbEntity
  8
A_BEMASSUNGEN
100
AcDbLine
 62
2
  6
CONTINUOUS
 10
66.4603630871
 20
109.2173282488
 11
71.4603622229
 21
109.2173282488
  0
INSERT
  5
24C
100
AcDbEntity
  8
A_BEMASSUNGEN
100
AcDbBlockReference
 62
2
  6
CONTINUOUS
  2
_ARROW_FILLED
 10
76.4603613586
 20
109.2173282488
 41
3.5
 42
3.5
 43
3.5
  0
INSERT
  5
24D
100
AcDbEntity
  8
A_BEMASSUNGEN
100
AcDbBlockReference
 62
2
  6
CONTINUOUS
  2
_ARROW_FILLED
 10
66.4603630871
 20
109.2173282488
 41
3.5
 42
3.5
 43
3.5
 50
180.0
  0
ENDBLK
  5
24E
100
AcDbEntity
  8
0
  6
BYBLOCK
 62
0
100
AcDbBlockEnd
  0
BLOCK
  5
24F
100
AcDbEntity
  8
A_BEMASSUNGEN
100
AcDbBlockBegin
 62
2
  6
CONTINUOUS
  2
*D4
 70
65
 10
0.0
 20
0.0
  3
*D4
  1

  0
MTEXT
  5
250
100
AcDbEntity
  8
A_BEMASSUNGEN
100
AcDbMText
 62
5
  6
CONTINUOUS
  7
TEXTSTYLE_2
 71
2
 72
1
 10
97.4603255118
 20
24.6048958997
 30
0.0
 11
1.0
 21
0.0
 31
0.0
  1
4
 40
3.5
 41
4.125
  0
LINE
  5
251
100
AcDbEntity
  8
A_BEMASSUNGEN
100
AcDbLine
 62
2
  6
CONTINUOUS
 10
99.4603493185
 20
64.2575031821
 11
99.4603244304
 21
18.2298948182
  0
LINE
  5
252
100
AcDbEntity
  8
A_BEMASSUNGEN
100
AcDbLine
 62
2
  6
CONTINUOUS
 10
95.4603493185
 20
64.257505345
 11
95.4603244304
 21
18.2298969811
  0
LINE
  5
253
100
AcDbEntity
  8
A_BEMASSUNGEN
100
AcDbLine
 62
2
  6
CONTINUOUS
 10
99.4603255118
 20
20.2298948182
 11
106.9603255118
 21
20.2298907628
  0
LINE
  5
254
100
AcDbEntity
  8
A_BEMASSUNGEN
100
AcDbLine
 62
2
  6
CONTINUOUS
 10
106.9603255118
 20
20.2298907628
 11
97.4603255118
 21
20.2298958997
  0
LINE
  5
255
100
AcDbEntity
  8
A_BEMASSUNGEN
100
AcDbLine
 62
2
  6
CONTINUOUS
 10
95.4603255118
 20
20.2298969811
 11
87.9603255118
 21
20.2299010365
  0
LINE
  5
256
100
AcDbEntity
  8
A_BEMASSUNGEN
100
AcDbLine
 62
2
  6
CONTINUOUS
 10
87.9603255118
 20
20.2299010365
 11
97.4603255118
 21
20.2298958997
  0
INSERT
  5
257
100
AcDbEntity
  8
A_BEMASSUNGEN
100
AcDbBlockReference
 62
2
  6
CONTINUOUS
  2
_ARROW_FILLED
 10
99.4603255118
 20
20.2298948182
 41
3.5
 42
3.5
 43
3.5
 50
179.999969019
  0
INSERT
  5
258
100
AcDbEntity
  8
A_BEMASSUNGEN
100
AcDbBlockReference
 62
2
  6
CONTINUOUS
  2
_ARROW_FILLED
 10
95.4603255118
 20
20.2298969811
 41
3.5
 42
3.5
 43
3.5
 50
359.999969019
  0
ENDBLK
  5
259
100
AcDbEntity
  8
0
  6
BYBLOCK
 62
0
100
AcDbBlockEnd
  0
BLOCK
  5
25A
100
AcDbEntity
  8
A_BEMASSUNGEN
100
AcDbBlockBegin
 62
2
  6
CONTINUOUS
  2
*D5
 70
65
 10
0.0
 20
0.0
  3
*D5
  1

  0
MTEXT
  5
25B
100
AcDbEntity
  8
A_BEMASSUNGEN
100
AcDbMText
 62
5
  6
CONTINUOUS
  7
TEXTSTYLE_2
 71
2
 72
1
 10
79.4603198074
 20
14.0552132098
 30
0.0
 11
1.0
 21
0.0
 31
0.0
  1
18
 40
3.5
 41
7.125
  0
LINE
  5
25C
100
AcDbEntity
  8
A_BEMASSUNGEN
100
AcDbLine
 62
2
  6
CONTINUOUS
 10
70.4603396141
 20
46.3105034944
 11
70.460318726
 21
7.6802180763
  0
LINE
  5
25D
100
AcDbEntity
  8
A_BEMASSUNGEN
100
AcDbLine
 62
2
  6
CONTINUOUS
 10
88.4603525628
 20
70.25750913
 11
88.460327409
 21
23.7384214023
  0
LINE
  5
25E
100
AcDbEntity
  8
A_BEMASSUNGEN
100
AcDbLine
 62
2
  6
CONTINUOUS
 10
88.4603240813
 20
17.5843546915
 11
88.4603187259
 21
7.6802083433
  0
LINE
  5
25F
100
AcDbEntity
  8
A_BEMASSUNGEN
100
AcDbLine
 62
2
  6
CONTINUOUS
 10
70.4603198074
 20
9.6802180763
 11
79.4603198074
 21
9.6802132098
  0
LINE
  5
260
100
AcDbEntity
  8
A_BEMASSUNGEN
100
AcDbLine
 62
2
  6
CONTINUOUS
 10
88.4603198074
 20
9.6802083433
 11
79.4603198074
 21
9.6802132098
  0
INSERT
  5
261
100
AcDbEntity
  8
A_BEMASSUNGEN
100
AcDbBlockReference
 62
2
  6
CONTINUOUS
  2
_ARROW_FILLED
 10
70.4603198074
 20
9.6802180763
 41
3.5
 42
3.5
 43
3.5
 50
179.999969019
  0
INSERT
  5
262
100
AcDbEntity
  8
A_BEMASSUNGEN
100
AcDbBlockReference
 62
2
  6
CONTINUOUS
  2
_ARROW_FILLED
 10
88.4603198074
 20
9.6802083433
 41
3.5
 42
3.5
 43
3.5
 50
359.999969019
  0
ENDBLK
  5
263
100
AcDbEntity
  8
0
  6
BYBLOCK
 62
0
100
AcDbBlockEnd
  0
BLOCK
  5
264
100
AcDbEntity
  8
A_BEMASSUNGEN
100
AcDbBlockBegin
 62
2
  6
CONTINUOUS
  2
*D6
 70
65
 10
0.0
 20
0.0
  3
*D6
  1

  0
MTEXT
  5
265
100
AcDbEntity
  8
A_BEMASSUNGEN
100
AcDbMText
 62
5
  6
CONTINUOUS
  7
TEXTSTYLE_2
 71
2
 72
1
 10
75.4603255666
 20
24.7062648231
 30
0.0
 11
1.0
 21
0.0
 31
0.0
  1
10
 40
3.5
 41
7.125
  0
LINE
  5
266
100
AcDbEntity
  8
A_BEMASSUNGEN
100
AcDbLine
 62
2
  6
CONTINUOUS
 10
70.4603396141
 20
46.3105034944
 11
70.4603244852
 21
18.3312675267
  0
LINE
  5
267
100
AcDbEntity
  8
A_BEMASSUNGEN
100
AcDbLine
 62
2
  6
CONTINUOUS
 10
80.4603506703
 20
66.7575134558
 11
80.4603244852
 21
18.3312621195
  0
LINE
  5
268
100
AcDbEntity
  8
A_BEMASSUNGEN
100
AcDbLine
 62
2
  6
CONTINUOUS
 10
70.4603255666
 20
20.3312675267
 11
75.4603255666
 21
20.3312648231
  0
LINE
  5
269
100
AcDbEntity
  8
A_BEMASSUNGEN
100
AcDbLine
 62
2
  6
CONTINUOUS
 10
80.4603255666
 20
20.3312621195
 11
75.4603255666
 21
20.3312648231
  0
INSERT
  5
26A
100
AcDbEntity
  8
A_BEMASSUNGEN
100
AcDbBlockReference
 62
2
  6
CONTINUOUS
  2
_ARROW_FILLED
 10
70.4603255666
 20
20.3312675267
 41
3.5
 42
3.5
 43
3.5
 50
179.999969019
  0
INSERT
  5
26B
100
AcDbEntity
  8
A_BEMASSUNGEN
100
AcDbBlockReference
 62
2
  6
CONTINUOUS
  2
_ARROW_FILLED
 10
80.4603255666
 20
20.3312621195
 41
3.5
 42
3.5
 43
3.5
 50
359.999969019
  0
ENDBLK
  5
26C
100
AcDbEntity
  8
0
  6
BYBLOCK
 62
0
100
AcDbBlockEnd
  0
BLOCK
  5
26D
100
AcDbEntity
  8
A_BEMASSUNGEN
100
AcDbBlockBegin
 62
2
  6
CONTINUOUS
  2
*D7
 70
65
 10
0.0
 20
0.0
  3
*D7
  1

  0
MTEXT
  5
26E
100
AcDbEntity
  8
A_BEMASSUNGEN
100
AcDbMText
 62
5
  6
CONTINUOUS
  7
TEXTSTYLE_2
 71
2
 72
1
 10
120.0031708001
 20
75.7574898886
 30
0.0
 11
0.0
 21
1.0
 31
0.0
  1
32
 40
3.5
 41
7.875
  0
LINE
  5
26F
100
AcDbEntity
  8
A_BEMASSUNGEN
100
AcDbLine
 62
2
  6
CONTINUOUS
 10
99.4603641883
 20
91.7575035422
 11
126.3781794516
 21
91.7574889872
  0
LINE
  5
270
100
AcDbEntity
  8
A_BEMASSUNGEN
100
AcDbLine
 62
2
  6
CONTINUOUS
 10
94.9603468852
 20
59.7575056153
 11
126.3781621486
 21
59.7574886271
  0
LINE
  5
271
100
AcDbEntity
  8
A_BEMASSUNGEN
100
AcDbLine
 62
2
  6
CONTINUOUS
 10
124.3781794516
 20
91.7574900686
 11
124.3781708001
 21
75.7574898886
  0
LINE
  5
272
100
AcDbEntity
  8
A_BEMASSUNGEN
100
AcDbLine
 62
2
  6
CONTINUOUS
 10
124.3781621486
 20
59.7574897085
 11
124.3781708001
 21
75.7574898886
  0
INSERT
  5
273
100
AcDbEntity
  8
A_BEMASSUNGEN
100
AcDbBlockReference
 62
2
  6
CONTINUOUS
  2
_ARROW_FILLED
 10
124.3781794516
 20
91.7574900686
 41
3.5
 42
3.5
 43
3.5
 50
89.999969019
  0
INSERT
  5
274
100
AcDbEntity
  8
A_BEMASSUNGEN
100
AcDbBlockReference
 62
2
  6
CONTINUOUS
  2
_ARROW_FILLED
 10
124.3781621486
 20
59.7574897085
 41
3.5
 42
3.5
 43
3.5
 50
269.999969019
  0
ENDBLK
  5
275
100
AcDbEntity
  8
0
  6
BYBLOCK
 62
0
100
AcDbBlockEnd
  0
BLOCK
  5
276
100
AcDbEntity
  8
A_BEMASSUNGEN
100
AcDbBlockBegin
 62
2
  6
CONTINUOUS
  2
*D8
 70
65
 10
0.0
 20
0.0
  3
*D8
  1

  0
MTEXT
  5
277
100
AcDbEntity
  8
A_BEMASSUNGEN
100
AcDbMText
 62
5
  6
CONTINUOUS
  7
TEXTSTYLE_2
 71
2
 72
1
 10
131.3881880023
 20
64.0074878698
 30
0.0
 11
0.0
 21
1.0
 31
0.0
  1
55.5
 40
3.5
 41
14.25
  0
LINE
  5
278
100
AcDbEntity
  8
A_BEMASSUNGEN
100
AcDbLine
 62
2
  6
CONTINUOUS
 10
99.4603641883
 20
91.7575035422
 11
137.7632030073
 21
91.757482831
  0
LINE
  5
279
100
AcDbEntity
  8
A_BEMASSUNGEN
100
AcDbLine
 62
2
  6
CONTINUOUS
 10
79.7635406592
 20
36.2575221073
 11
80.0829879338
 21
36.2575219346
  0
LINE
  5
27A
100
AcDbEntity
  8
A_BEMASSUNGEN
100
AcDbLine
 62
2
  6
CONTINUOUS
 10
81.8231028481
 20
36.2575209937
 11
87.66899455
 21
36.2575178327
  0
LINE
  5
27B
100
AcDbEntity
  8
A_BEMASSUNGEN
100
AcDbLine
 62
2
  6
CONTINUOUS
 10
89.4388517375
 20
36.2575168757
 11
93.8844444973
 21
36.2575144719
  0
LINE
  5
27C
100
AcDbEntity
  8
A_BEMASSUNGEN
100
AcDbLine
 62
2
  6
CONTINUOUS
 10
101.3911900873
 20
36.2575104128
 11
137.7631729973
 21
36.2574907457
  0
LINE
  5
27D
100
AcDbEntity
  8
A_BEMASSUNGEN
100
AcDbLine
 62
2
  6
CONTINUOUS
 10
135.7632030073
 20
91.7574839125
 11
135.7631880023
 21
64.0074878698
  0
LINE
  5
27E
100
AcDbEntity
  8
A_BEMASSUNGEN
100
AcDbLine
 62
2
  6
CONTINUOUS
 10
135.7631729973
 20
36.2574918272
 11
135.7631880023
 21
64.0074878698
  0
INSERT
  5
27F
100
AcDbEntity
  8
A_BEMASSUNGEN
100
AcDbBlockReference
 62
2
  6
CONTINUOUS
  2
_ARROW_FILLED
 10
135.7632030073
 20
91.7574839125
 41
3.5
 42
3.5
 43
3.5
 50
89.999969019
  0
INSERT
  5
280
100
AcDbEntity
  8
A_BEMASSUNGEN
100
AcDbBlockReference
 62
2
  6
CONTINUOUS
  2
_ARROW_FILLED
 10
135.7631729973
 20
36.2574918272
 41
3.5
 42
3.5
 43
3.5
 50
269.999969019
  0
ENDBLK
  5
281
100
AcDbEntity
  8
0
  6
BYBLOCK
 62
0
100
AcDbBlockEnd
  0
BLOCK
  5
282
100
AcDbEntity
  8
A_BEMASSUNGEN
100
AcDbBlockBegin
 62
2
  6
CONTINUOUS
  2
*D9
 70
65
 10
0.0
 20
0.0
  3
*D9
  1

  0
MTEXT
  5
283
100
AcDbEntity
  8
A_BEMASSUNGEN
100
AcDbMText
 62
5
  6
CONTINUOUS
  7
TEXTSTYLE_2
 71
2
 72
1
 10
93.1921253516
 20
14.2248940117
 30
0.0
 11
1.0
 21
0.0
 31
0.0
  1
11
 40
3.5
 41
6.0
  0
LINE
  5
284
100
AcDbEntity
  8
A_BEMASSUNGEN
100
AcDbLine
 62
2
  6
CONTINUOUS
 10
99.4603531035
 20
71.2575031821
 11
99.4603188177
 21
7.8498906223
  0
LINE
  5
285
100
AcDbEntity
  8
A_BEMASSUNGEN
100
AcDbLine
 62
2
  6
CONTINUOUS
 10
88.4603225724
 20
15.9588394644
 11
88.4603181877
 21
7.8498965702
  0
LINE
  5
286
100
AcDbEntity
  8
A_BEMASSUNGEN
100
AcDbLine
 62
2
  6
CONTINUOUS
 10
99.4603198991
 20
9.8498906223
 11
93.9603195841
 21
9.8498935963
  0
LINE
  5
287
100
AcDbEntity
  8
A_BEMASSUNGEN
100
AcDbLine
 62
2
  6
CONTINUOUS
 10
88.4603192691
 20
9.8498965702
 11
93.9603195841
 21
9.8498935963
  0
INSERT
  5
288
100
AcDbEntity
  8
A_BEMASSUNGEN
100
AcDbBlockReference
 62
2
  6
CONTINUOUS
  2
_ARROW_FILLED
 10
99.4603198991
 20
9.8498906223
 41
3.5
 42
3.5
 43
3.5
 50
359.999969019
  0
INSERT
  5
289
100
AcDbEntity
  8
A_BEMASSUNGEN
100
AcDbBlockReference
 62
2
  6
CONTINUOUS
  2
_ARROW_FILLED
 10
88.4603192691
 20
9.8498965702
 41
3.5
 42
3.5
 43
3.5
 50
179.999969019
  0
ENDBLK
  5
28A
100
AcDbEntity
  8
0
  6
BYBLOCK
 62
0
100
AcDbBlockEnd
  0
BLOCK
  5
28B
100
AcDbEntity
  8
A_BEMASSUNGEN
100
AcDbBlockBegin
 62
2
  6
CONTINUOUS
  2
*D10
 70
65
 10
0.0
 20
0.0
  3
*D10
  1

  0
MTEXT
  5
28C
100
AcDbEntity
  8
A_BEMASSUNGEN
100
AcDbMText
 62
5
  6
CONTINUOUS
  7
TEXTSTYLE_2
 71
2
 72
1
 10
4.1600995475
 20
68.8518056629
 30
0.0
 11
0.0
 21
1.0
 31
0.0
  1
60
 40
3.5
 41
8.25
  0
LINE
  5
28D
100
AcDbEntity
  8
A_BEMASSUNGEN
100
AcDbLine
 62
2
  6
CONTINUOUS
 10
62.4603666215
 20
96.2575231888
 11
6.5351143664
 21
96.2575534287
  0
LINE
  5
28E
100
AcDbEntity
  8
A_BEMASSUNGEN
100
AcDbLine
 62
2
  6
CONTINUOUS
 10
49.1571276974
 20
36.2575221073
 11
6.5350819231
 21
36.2575451539
  0
LINE
  5
28F
100
AcDbEntity
  8
A_BEMASSUNGEN
100
AcDbLine
 62
2
  6
CONTINUOUS
 10
8.5351143664
 20
96.2575523472
 11
8.5350981447
 21
66.2575482099
  0
LINE
  5
290
100
AcDbEntity
  8
A_BEMASSUNGEN
100
AcDbLine
 62
2
  6
CONTINUOUS
 10
8.5350819231
 20
36.2575440725
 11
8.5350981447
 21
66.2575482099
  0
INSERT
  5
291
100
AcDbEntity
  8
A_BEMASSUNGEN
100
AcDbBlockReference
 62
2
  6
CONTINUOUS
  2
_ARROW_FILLED
 10
8.5351143664
 20
96.2575523472
 41
3.5
 42
3.5
 43
3.5
 50
89.999969019
  0
INSERT
  5
292
100
AcDbEntity
  8
A_BEMASSUNGEN
100
AcDbBlockReference
 62
2
  6
CONTINUOUS
  2
_ARROW_FILLED
 10
8.5350819231
 20
36.2575440725
 41
3.5
 42
3.5
 43
3.5
 50
269.999969019
  0
ENDBLK
  5
293
100
AcDbEntity
  8
0
  6
BYBLOCK
 62
0
100
AcDbBlockEnd
  0
ENDSEC
  0
SECTION
  2
ENTITIES
  0
DIMENSION
  5
294
100
AcDbEntity
  8
A_BEMASSUNGEN
100
AcDbDimension
 62
2
  6
CONTINUOUS
  2
*D0
 10
76.4603722865
 20
109.2173282488
 11
81.4133319139
 21
109.2173255707
 70
160
  3
DIMSTYLE_1
100
AcDbAlignedDimension
 13
88.4603641883
 23
91.75750913
 14
76.4603661023
 24
97.7803049508
 50
179.999969019
100
AcDbRotatedDimension
  0
DIMENSION
  5
295
100
AcDbEntity
  8
A_BEMASSUNGEN
100
AcDbDimension
 62
2
  6
CONTINUOUS
  2
*D1
 10
42.633732356
 20
36.2575221073
 11
42.633732356
 21
42.5075056075
 70
160
  3
DIMSTYLE_1
100
AcDbAlignedDimension
 13
27.4603613586
 23
49.7574856484
 14
49.1571276974
 24
36.2575221073
 50
270.0
100
AcDbRotatedDimension
  0
DIMENSION
  5
296
100
AcDbEntity
  8
A_BEMASSUNGEN
100
AcDbDimension
 62
2
  6
CONTINUOUS
  2
*D2
 10
18.1139960601
 20
49.7574856484
 11
18.1139960601
 21
61.7574853565
 70
160
  3
DIMSTYLE_1
100
AcDbAlignedDimension
 13
51.4603613586
 23
74.7574856484
 14
27.4603613586
 24
49.7574856484
 50
270.0
100
AcDbRotatedDimension
  0
DIMENSION
  5
297
100
AcDbEntity
  8
A_BEMASSUNGEN
100
AcDbDimension
 62
2
  6
CONTINUOUS
  2
*D3
 10
66.4603630871
 20
109.2173282488
 11
70.9603620515
 21
109.2173282488
 70
160
  3
DIMSTYLE_1
100
AcDbAlignedDimension
 13
76.4603613586
 23
98.7574856484
 14
66.4603630871
 24
95.1928357821
 50
180.0
100
AcDbRotatedDimension
  0
DIMENSION
  5
298
100
AcDbEntity
  8
A_BEMASSUNGEN
100
AcDbDimension
 62
2
  6
CONTINUOUS
  2
*D4
 10
95.4603255118
 20
20.2298969811
 11
96.9603197612
 21
20.22989617
 70
160
  3
DIMSTYLE_2
100
AcDbAlignedDimension
 13
99.4603493185
 23
64.2575031821
 14
95.4603493185
 24
64.257505345
 50
179.999969019
100
AcDbRotatedDimension
  0
DIMENSION
  5
299
100
AcDbEntity
  8
A_BEMASSUNGEN
100
AcDbDimension
 62
2
  6
CONTINUOUS
  2
*D5
 10
88.4603198074
 20
9.6802083433
 11
78.960316506
 21
9.6802134801
 70
160
  3
DIMSTYLE_1
100
AcDbAlignedDimension
 13
70.4603396141
 23
46.3105034944
 14
88.4603525628
 24
70.25750913
 50
359.999969019
100
AcDbRotatedDimension
  0
DIMENSION
  5
29A
100
AcDbEntity
  8
A_BEMASSUNGEN
100
AcDbDimension
 62
2
  6
CONTINUOUS
  2
*D6
 10
80.4603255666
 20
20.3312621195
 11
74.9603233781
 21
20.3312650935
 70
160
  3
DIMSTYLE_1
100
AcDbAlignedDimension
 13
70.4603396141
 23
46.3105034944
 14
80.4603506703
 24
66.7575134558
 50
359.999969019
100
AcDbRotatedDimension
  0
DIMENSION
  5
29B
100
AcDbEntity
  8
A_BEMASSUNGEN
100
AcDbDimension
 62
2
  6
CONTINUOUS
  2
*D7
 10
124.3781621486
 20
59.7574897085
 11
124.3781705298
 21
75.2574896887
 70
160
  3
DIMSTYLE_3
100
AcDbAlignedDimension
 13
99.4603641883
 23
91.7575035422
 14
94.9603468852
 24
59.7575056153
 50
269.999969019
100
AcDbRotatedDimension
  0
DIMENSION
  5
29C
100
AcDbEntity
  8
A_BEMASSUNGEN
100
AcDbDimension
 62
2
  6
CONTINUOUS
  2
*D8
 10
135.7631729973
 20
36.2574918272
 11
135.7631877319
 21
63.5074856588
 70
160
  3
DIMSTYLE_3
100
AcDbAlignedDimension
 13
99.4603641883
 23
91.7575035422
 14
79.7635406592
 24
36.2575221073
 50
269.999969019
100
AcDbRotatedDimension
  0
DIMENSION
  5
29D
100
AcDbEntity
  8
A_BEMASSUNGEN
100
AcDbDimension
 62
2
  6
CONTINUOUS
  2
*D9
 10
88.4603192691
 20
9.8498965702
 11
92.6921224232
 21
9.849894282
 70
160
  3
DIMSTYLE_1
100
AcDbAlignedDimension
 13
99.4603531035
 23
71.2575031821
 14
88.4603225724
 24
15.9588394644
 50
179.999969019
100
AcDbRotatedDimension
  0
DIMENSION
  5
29E
100
AcDbEntity
  8
A_BEMASSUNGEN
100
AcDbDimension
 62
2
  6
CONTINUOUS
  2
*D10
 10
8.5350819231
 20
36.2575440725
 11
8.5350992771
 21
68.3518046128
 70
160
  3
DIMSTYLE_3
100
AcDbAlignedDimension
 13
62.4603666215
 23
96.2575231888
 14
49.1571276974
 24
36.2575221073
 50
269.999969019
100
AcDbRotatedDimension
  0
LINE
  5
29F
100
AcDbEntity
  8
A_NOTIZEN_SYMB
100
AcDbLine
 62
7
  6
CONTINUOUS
 10
72.4603613586
 20
98.7574856484
 11
72.4603613586
 21
73.7574856484
  0
LINE
  5
2A0
100
AcDbEntity
  8
A_NOTIZEN_SYMB
100
AcDbLine
 62
7
  6
CONTINUOUS
 10
72.4603613586
 20
73.7574856484
 11
69.4603613586
 21
73.7574856484
  0
LINE
  5
2A1
100
AcDbEntity
  8
A_NOTIZEN_SYMB
100
AcDbLine
 62
7
  6
CONTINUOUS
 10
51.4603613586
 20
98.7574856484
 11
76.4603613586
 21
98.7574856484
  0
LINE
  5
2A2
100
AcDbEntity
  8
0
100
AcDbLine
 62
7
  6
CONTINUOUS
 10
26.4603613586
 20
50.7574856484
 11
26.4603613586
 21
133.2574856484
  0
LINE
  5
2A3
100
AcDbEntity
  8
A_ACHSEN
100
AcDbLine
 62
7
  6
CENTER
 10
49.1571276974
 20
36.2575221073
 11
79.7635406592
 21
36.2575221073
  0
LINE
  5
2A4
100
AcDbEntity
  8
0
100
AcDbLine
 62
7
  6
CONTINUOUS
 10
51.4603613586
 20
74.7574856484
 11
51.4603613586
 21
98.7574856484
  0
LINE
  5
2A5
100
AcDbEntity
  8
0
100
AcDbLine
 62
7
  6
CONTINUOUS
 10
57.4603613586
 20
49.7574856484
 11
57.4603613586
 21
74.7574856484
  0
LINE
  5
2A6
100
AcDbEntity
  8
A_ACHSEN
100
AcDbLine
 62
7
  6
CONTINUOUS
 10
60.4603402252
 20
47.4406588934
 11
60.4603495504
 21
64.6864564583
  0
LINE
  5
2A7
100
AcDbEntity
  8
0
100
AcDbLine
 62
7
  6
CONTINUOUS
 10
59.4603613586
 20
49.7574856484
 11
27.4603613586
 21
49.7574856484
  0
LINE
  5
2A8
100
AcDbEntity
  8
0
100
AcDbLine
 62
7
  6
CONTINUOUS
 10
148.457892557
 20
49.7574856486
 11
73.460341798
 21
49.7575182009
  0
LINE
  5
2A9
100
AcDbEntity
  8
0
100
AcDbLine
 62
7
  6
CONTINUOUS
 10
62.4603519757
 20
69.1717367511
 11
62.4603666215
 21
96.2575231888
  0
LINE
  5
2AA
100
AcDbEntity
  8
A_ACHSEN
100
AcDbLine
 62
7
  6
CENTER
 10
64.4603341783
 20
20.9543156264
 11
64.4603402392
 21
47.4665125175
  0
LINE
  5
2AB
100
AcDbEntity
  8
A_ACHSEN
100
AcDbLine
 62
3
  6
CONTINUOUS
 10
64.4603402392
 20
47.4665125175
 11
64.4603495504
 21
64.6864542955
  0
LINE
  5
2AC
100
AcDbEntity
  8
A_ACHSEN
100
AcDbLine
 62
3
  6
CONTINUOUS
 10
66.4603466149
 20
59.2575210259
 11
66.4603396141
 21
46.3105056573
  0
LINE
  5
2AD
100
AcDbEntity
  8
A_RUNDUNGEN
100
AcDbLine
 62
8
  6
HIDDEN
 10
66.4603396141
 20
46.3105056573
 11
66.460341478
 21
49.7575210259
  0
LINE
  5
2AE
100
AcDbEntity
  8
0
100
AcDbLine
 62
3
  6
CONTINUOUS
 10
66.4603519757
 20
69.1717345883
 11
66.4603666215
 21
96.2575210259
  0
LINE
  5
2AF
100
AcDbEntity
  8
0
100
AcDbLine
 62
7
  6
CONTINUOUS
 10
69.4754855829
 20
68.7721354142
 11
69.5355122506
 21
68.7106926698
  0
LINE
  5
2B0
100
AcDbEntity
  8
0
100
AcDbLine
 62
7
  6
CONTINUOUS
 10
69.5355122506
 20
68.7106926698
 11
69.6646864522
 21
68.5743618027
  0
LINE
  5
2B1
100
AcDbEntity
  8
0
100
AcDbLine
 62
7
  6
CONTINUOUS
 10
69.466497291
 20
68.7817855941
 11
69.4754855829
 21
68.7721354142
  0
LINE
  5
2B2
100
AcDbEntity
  8
0
100
AcDbLine
 62
7
  6
CONTINUOUS
 10
69.6646864522
 20
68.5743618027
 11
69.8026619903
 21
68.4229484655
  0
LINE
  5
2B3
100
AcDbEntity
  8
0
100
AcDbLine
 62
7
  6
CONTINUOUS
 10
69.8026619903
 20
68.4229484655
 11
70.0888381446
 21
68.0885487295
  0
LINE
  5
2B4
100
AcDbEntity
  8
0
100
AcDbLine
 62
7
  6
CONTINUOUS
 10
69.8389573946
 20
67.5380928641
 11
69.3590938672
 21
68.1137559235
  0
LINE
  5
2B5
100
AcDbEntity
  8
0
100
AcDbLine
 62
7
  6
CONTINUOUS
 10
69.3590938672
 20
68.1137559235
 11
68.900511371
 21
68.6788791009
  0
LINE
  5
2B6
100
AcDbEntity
  8
0
100
AcDbLine
 62
7
  6
CONTINUOUS
 10
70.0888381446
 20
68.0885487295
 11
70.3617438521
 21
67.7348321774
  0
LINE
  5
2B7
100
AcDbEntity
  8
0
100
AcDbLine
 62
7
  6
CONTINUOUS
 10
70.0347111908
 20
67.2779671341
 11
69.8389573946
 21
67.5380928641
  0
LINE
  5
2B8
100
AcDbEntity
  8
0
100
AcDbLine
 62
7
  6
CONTINUOUS
 10
70.3617438521
 20
67.7348321774
 11
70.4831203314
 21
67.5592740668
  0
LINE
  5
2B9
100
AcDbEntity
  8
0
100
AcDbLine
 62
7
  6
CONTINUOUS
 10
68.900511371
 20
68.6788791009
 11
68.7313693642
 21
68.9258284815
  0
LINE
  5
2BA
100
AcDbEntity
  8
0
100
AcDbLine
 62
7
  6
CONTINUOUS
 10
70.4831203314
 20
67.5592740668
 11
70.5890652511
 21
67.3891385197
  0
LINE
  5
2BB
100
AcDbEntity
  8
0
100
AcDbLine
 62
7
  6
CONTINUOUS
 10
70.1731928191
 20
67.0531989393
 11
70.0347111908
 21
67.2779671341
  0
LINE
  5
2BC
100
AcDbEntity
  8
0
100
AcDbLine
 62
7
  6
CONTINUOUS
 10
70.5890652511
 20
67.3891385197
 11
70.6755376282
 21
67.2278433745
  0
LINE
  5
2BD
100
AcDbEntity
  8
0
100
AcDbLine
 62
7
  6
CONTINUOUS
 10
68.7313693642
 20
68.9258284815
 11
68.6301440403
 21
69.132152387
  0
LINE
  5
2BE
100
AcDbEntity
  8
0
100
AcDbLine
 62
7
  6
CONTINUOUS
 10
69.0728143532
 20
64.0077854463
 11
69.0668867018
 21
64.0204847425
  0
LINE
  5
2BF
100
AcDbEntity
  8
0
100
AcDbLine
 62
7
  6
CONTINUOUS
 10
70.6755376282
 20
67.2278433745
 11
70.7385004801
 21
67.0788064706
  0
LINE
  5
2C0
100
AcDbEntity
  8
0
100
AcDbLine
 62
7
  6
CONTINUOUS
 10
70.2335346387
 20
66.8764482807
 11
70.1731928191
 21
67.0531989393
  0
LINE
  5
2C1
100
AcDbEntity
  8
0
100
AcDbLine
 62
7
  6
CONTINUOUS
 10
70.7739158241
 20
66.9454446473
 11
70.780028999
 21
66.8857084024
  0
LINE
  5
2C2
100
AcDbEntity
  8
0
100
AcDbLine
 62
7
  6
CONTINUOUS
 10
72.3131269894
 20
69.2824202789
 11
72.3216978887
 21
69.1784267388
  0
LINE
  5
2C3
100
AcDbEntity
  8
0
100
AcDbLine
 62
7
  6
CONTINUOUS
 10
71.3503088247
 20
68.6567844354
 11
71.3481381512
 21
68.6834738124
  0
LINE
  5
2C4
100
AcDbEntity
  8
0
100
AcDbLine
 62
7
  6
CONTINUOUS
 10
69.4603613586
 20
69.7574856484
 11
69.4603613586
 21
73.7574856484
  0
LINE
  5
2C5
100
AcDbEntity
  8
A_ACHSEN
100
AcDbLine
 62
7
  6
CONTINUOUS
 10
70.4603466149
 20
59.257518863
 11
70.4603396141
 21
46.3105034944
  0
LINE
  5
2C6
100
AcDbEntity
  8
A_RUNDUNGEN
100
AcDbLine
 62
8
  6
HIDDEN
 10
70.4603396141
 20
46.3105034944
 11
70.460341478
 21
49.757518863
  0
LINE
  5
2C7
100
AcDbEntity
  8
0
100
AcDbLine
 62
7
  6
CONTINUOUS
 10
72.4603613586
 20
98.7574856484
 11
72.4603613586
 21
74.7574856484
  0
LINE
  5
2C8
100
AcDbEntity
  8
0
100
AcDbLine
 62
7
  6
CONTINUOUS
 10
69.0668867018
 20
64.0204847425
 11
69.0672059239
 21
65.12576988
  0
LINE
  5
2C9
100
AcDbEntity
  8
0
100
AcDbLine
 62
7
  6
CONTINUOUS
 10
70.780028999
 20
66.8857084024
 11
70.7796182658
 21
66.8430422826
  0
LINE
  5
2CA
100
AcDbEntity
  8
0
100
AcDbLine
 62
7
  6
CONTINUOUS
 10
71.3501606546
 20
68.6434633923
 11
71.3503088247
 21
68.6567844354
  0
LINE
  5
2CB
100
AcDbEntity
  8
0
100
AcDbLine
 62
7
  6
CONTINUOUS
 10
72.8720057975
 20
65.3597937986
 11
72.8715716743
 21
65.3289186726
  0
LINE
  5
2CC
100
AcDbEntity
  8
0
100
AcDbLine
 62
7
  6
CONTINUOUS
 10
72.0450807387
 20
65.2868380484
 11
72.0465122259
 21
65.3234034614
  0
LINE
  5
2CD
100
AcDbEntity
  8
0
100
AcDbLine
 62
7
  6
CONTINUOUS
 10
72.0443705994
 20
65.2734098436
 11
72.0450807387
 21
65.2868380484
  0
LINE
  5
2CE
100
AcDbEntity
  8
0
100
AcDbLine
 62
7
  6
CONTINUOUS
 10
72.0465122259
 20
65.3234034614
 11
72.0515680873
 21
65.3969279181
  0
LINE
  5
2CF
100
AcDbEntity
  8
0
100
AcDbLine
 62
7
  6
CONTINUOUS
 10
69.4661393882
 20
68.8249837293
 11
69.4643197603
 21
68.7993422051
  0
LINE
  5
2D0
100
AcDbEntity
  8
0
100
AcDbLine
 62
7
  6
CONTINUOUS
 10
69.0672059239
 20
65.12576988
 11
69.0812024468
 21
65.2839489106
  0
LINE
  5
2D1
100
AcDbEntity
  8
0
100
AcDbLine
 62
7
  6
CONTINUOUS
 10
71.3488407002
 20
68.6293920122
 11
71.3501606546
 21
68.6434633923
  0
LINE
  5
2D2
100
AcDbEntity
  8
0
100
AcDbLine
 62
7
  6
CONTINUOUS
 10
71.314754529
 20
68.504768207
 11
71.3181585095
 21
68.5396181871
  0
LINE
  5
2D3
100
AcDbEntity
  8
0
100
AcDbLine
 62
7
  6
CONTINUOUS
 10
70.224630704
 20
66.7857877171
 11
70.2335346387
 21
66.8764482807
  0
LINE
  5
2D4
100
AcDbEntity
  8
0
100
AcDbLine
 62
7
  6
CONTINUOUS
 10
66.360340174
 20
47.3459159142
 11
65.6847824866
 21
43.403375894
  0
LINE
  5
2D5
100
AcDbEntity
  8
0
100
AcDbLine
 62
7
  6
CONTINUOUS
 10
68.6301440403
 20
69.132152387
 11
68.6734641397
 21
69.2918088484
  0
LINE
  5
2D6
100
AcDbEntity
  8
0
100
AcDbLine
 62
7
  6
CONTINUOUS
 10
93.5600807215
 20
99.3555828226
 11
93.2093514773
 21
99.2172439874
  0
LINE
  5
2D7
100
AcDbEntity
  8
0
100
AcDbLine
 62
7
  6
CONTINUOUS
 10
92.8183846803
 20
98.3120875528
 11
93.1065154084
 21
98.4209063906
  0
LINE
  5
2D8
100
AcDbEntity
  8
0
100
AcDbLine
 62
7
  6
CONTINUOUS
 10
93.1065154084
 20
98.4209063906
 11
93.4303893424
 21
98.5324925042
  0
LINE
  5
2D9
100
AcDbEntity
  8
0
100
AcDbLine
 62
7
  6
CONTINUOUS
 10
94.475442729
 20
98.8158740471
 11
94.4962578983
 21
98.8229009377
  0
LINE
  5
2DA
100
AcDbEntity
  8
0
100
AcDbLine
 62
7
  6
CONTINUOUS
 10
93.4303893424
 20
98.5324925042
 11
93.7734785745
 21
98.6395661417
  0
LINE
  5
2DB
100
AcDbEntity
  8
0
100
AcDbLine
 62
7
  6
CONTINUOUS
 10
93.9463644102
 20
99.4749878784
 11
93.5600807215
 21
99.3555828226
  0
LINE
  5
2DC
100
AcDbEntity
  8
0
100
AcDbLine
 62
7
  6
CONTINUOUS
 10
89.1150060769
 20
99.7363359451
 11
88.7937135525
 21
99.6407175743
  0
LINE
  5
2DD
100
AcDbEntity
  8
0
100
AcDbLine
 62
7
  6
CONTINUOUS
 10
70.9603468852
 20
59.7575185926
 11
99.4603468852
 21
59.7575035422
  0
LINE
  5
2DE
100
AcDbEntity
  8
0
100
AcDbLine
 62
3
  6
CONTINUOUS
 10
80.8257472115
 20
63.7575132582
 11
70.9603490481
 21
63.7575185926
  0
LINE
  5
2DF
100
AcDbEntity
  8
A_RUNDUNGEN
100
AcDbLine
 62
3
  6
CONTINUOUS
 10
80.8257472115
 20
63.7575132582
 11
81.8257472115
 21
63.7575127175
  0
LINE
  5
2E0
100
AcDbEntity
  8
0
100
AcDbLine
 62
3
  6
CONTINUOUS
 10
81.8257472115
 20
63.7575127175
 11
94.9603490481
 21
63.7575056153
  0
LINE
  5
2E1
100
AcDbEntity
  8
0
100
AcDbLine
 62
7
  6
CONTINUOUS
 10
73.0021707225
 20
65.213990216
 11
73.0607783128
 21
65.2075968589
  0
LINE
  5
2E2
100
AcDbEntity
  8
0
100
AcDbLine
 62
7
  6
CONTINUOUS
 10
73.9982227193
 20
65.2941425919
 11
73.0499143442
 21
65.4170469511
  0
LINE
  5
2E3
100
AcDbEntity
  8
0
100
AcDbLine
 62
7
  6
CONTINUOUS
 10
74.257128355
 20
65.8971700542
 11
74.466643842
 21
65.8537682897
  0
LINE
  5
2E4
100
AcDbEntity
  8
0
100
AcDbLine
 62
7
  6
CONTINUOUS
 10
74.466643842
 20
65.8537682897
 11
74.6430384729
 21
65.8029050024
  0
LINE
  5
2E5
100
AcDbEntity
  8
0
100
AcDbLine
 62
7
  6
CONTINUOUS
 10
72.9520256547
 20
65.2316097997
 11
73.0021707225
 21
65.213990216
  0
LINE
  5
2E6
100
AcDbEntity
  8
0
100
AcDbLine
 62
7
  6
CONTINUOUS
 10
69.6119680334
 20
65.4442360848
 11
70.2702568198
 21
65.2084012705
  0
LINE
  5
2E7
100
AcDbEntity
  8
0
100
AcDbLine
 62
7
  6
CONTINUOUS
 10
74.6430384729
 20
65.8029050024
 11
74.7160486109
 21
65.7746099922
  0
LINE
  5
2E8
100
AcDbEntity
  8
0
100
AcDbLine
 62
7
  6
CONTINUOUS
 10
72.5450682424
 20
67.9668259094
 11
71.3325633488
 21
68.4567033252
  0
LINE
  5
2E9
100
AcDbEntity
  8
0
100
AcDbLine
 62
7
  6
CONTINUOUS
 10
74.8270464774
 20
65.6637889003
 11
74.8739493372
 21
65.6434143844
  0
LINE
  5
2EA
100
AcDbEntity
  8
0
100
AcDbLine
 62
7
  6
CONTINUOUS
 10
74.7160486109
 20
65.7746099922
 11
74.7488896844
 21
65.7594500725
  0
LINE
  5
2EB
100
AcDbEntity
  8
0
100
AcDbLine
 62
7
  6
CONTINUOUS
 10
72.1113631896
 20
69.493863279
 11
72.2016054563
 21
69.4477322224
  0
LINE
  5
2EC
100
AcDbEntity
  8
0
100
AcDbLine
 62
7
  6
CONTINUOUS
 10
71.2726771098
 20
68.8122991221
 11
71.2289917031
 21
68.8380545633
  0
LINE
  5
2ED
100
AcDbEntity
  8
0
100
AcDbLine
 62
7
  6
CONTINUOUS
 10
72.8916540756
 20
65.2719240342
 11
72.9520256547
 21
65.2316097997
  0
LINE
  5
2EE
100
AcDbEntity
  8
0
100
AcDbLine
 62
7
  6
CONTINUOUS
 10
74.9346285695
 20
68.713837957
 11
74.8879947804
 21
68.7478795509
  0
LINE
  5
2EF
100
AcDbEntity
  8
0
100
AcDbLine
 62
7
  6
CONTINUOUS
 10
74.787608568
 20
65.6947715629
 11
74.8270464774
 21
65.6637889003
  0
LINE
  5
2F0
100
AcDbEntity
  8
0
100
AcDbLine
 62
7
  6
CONTINUOUS
 10
74.9931199591
 20
65.912565658
 11
74.965039318
 21
65.9391385857
  0
LINE
  5
2F1
100
AcDbEntity
  8
0
100
AcDbLine
 62
7
  6
CONTINUOUS
 10
71.3082673226
 20
68.7767823531
 11
71.2726771098
 21
68.8122991221
  0
LINE
  5
2F2
100
AcDbEntity
  8
0
100
AcDbLine
 62
7
  6
CONTINUOUS
 10
72.2016054563
 20
69.4477322224
 11
72.2710013452
 21
69.3750871712
  0
LINE
  5
2F3
100
AcDbEntity
  8
0
100
AcDbLine
 62
7
  6
CONTINUOUS
 10
75.0346542116
 20
65.8595205972
 11
74.9931199591
 21
65.912565658
  0
LINE
  5
2F4
100
AcDbEntity
  8
0
100
AcDbLine
 62
7
  6
CONTINUOUS
 10
74.7596015548
 20
65.7330735123
 11
74.787608568
 21
65.6947715629
  0
LINE
  5
2F5
100
AcDbEntity
  8
0
100
AcDbLine
 62
7
  6
CONTINUOUS
 10
74.965039318
 20
65.9391385857
 11
74.9556513344
 21
65.9529928871
  0
LINE
  5
2F6
100
AcDbEntity
  8
0
100
AcDbLine
 62
7
  6
CONTINUOUS
 10
71.3325633488
 20
68.4567033252
 11
71.3233283816
 21
68.4705006706
  0
LINE
  5
2F7
100
AcDbEntity
  8
0
100
AcDbLine
 62
7
  6
CONTINUOUS
 10
74.963045365
 20
68.6693371253
 11
74.9346285695
 21
68.713837957
  0
LINE
  5
2F8
100
AcDbEntity
  8
0
100
AcDbLine
 62
7
  6
CONTINUOUS
 10
71.3340058379
 20
68.7332557514
 11
71.3082673226
 21
68.7767823531
  0
LINE
  5
2F9
100
AcDbEntity
  8
0
100
AcDbLine
 62
7
  6
CONTINUOUS
 10
72.2710013452
 20
69.3750871712
 11
72.3131269894
 21
69.2824202789
  0
LINE
  5
2FA
100
AcDbEntity
  8
0
100
AcDbLine
 62
7
  6
CONTINUOUS
 10
75.0572750567
 20
65.8078900987
 11
75.0346542116
 21
65.8595205972
  0
LINE
  5
2FB
100
AcDbEntity
  8
0
100
AcDbLine
 62
7
  6
CONTINUOUS
 10
74.7488896844
 20
65.7594500725
 11
74.7596015548
 21
65.7330735123
  0
LINE
  5
2FC
100
AcDbEntity
  8
0
100
AcDbLine
 62
7
  6
CONTINUOUS
 10
72.8715716743
 20
65.3289186726
 11
72.8916540756
 21
65.2719240342
  0
LINE
  5
2FD
100
AcDbEntity
  8
0
100
AcDbLine
 62
7
  6
CONTINUOUS
 10
71.3481381512
 20
68.6834738124
 11
71.3340058379
 21
68.7332557514
  0
LINE
  5
2FE
100
AcDbEntity
  8
0
100
AcDbLine
 62
7
  6
CONTINUOUS
 10
70.7385004801
 20
67.0788064706
 11
70.7739158241
 21
66.9454446473
  0
LINE
  5
2FF
100
AcDbEntity
  8
0
100
AcDbLine
 62
7
  6
CONTINUOUS
 10
71.3233283816
 20
68.4705006706
 11
71.314754529
 21
68.504768207
  0
LINE
  5
300
100
AcDbEntity
  8
0
100
AcDbLine
 62
7
  6
CONTINUOUS
 10
74.9757059794
 20
68.6185077632
 11
74.963045365
 21
68.6693371253
  0
LINE
  5
301
100
AcDbEntity
  8
0
100
AcDbLine
 62
7
  6
CONTINUOUS
 10
74.9556513344
 20
65.9529928871
 11
74.9493556965
 21
65.9865140785
  0
LINE
  5
302
100
AcDbEntity
  8
0
100
AcDbLine
 62
7
  6
CONTINUOUS
 10
69.4643197603
 20
68.7993422051
 11
69.466497291
 21
68.7817855941
  0
LINE
  5
303
100
AcDbEntity
  8
0
100
AcDbLine
 62
7
  6
CONTINUOUS
 10
74.9493556965
 20
65.9865140785
 11
74.9437970676
 21
66.0408734826
  0
LINE
  5
304
100
AcDbEntity
  8
0
100
AcDbLine
 62
7
  6
CONTINUOUS
 10
75.0616990539
 20
65.7592063687
 11
75.0572750567
 21
65.8078900987
  0
LINE
  5
305
100
AcDbEntity
  8
0
100
AcDbLine
 62
7
  6
CONTINUOUS
 10
74.9437970676
 20
66.0408734826
 11
74.9389350254
 21
66.1140610877
  0
LINE
  5
306
100
AcDbEntity
  8
0
100
AcDbLine
 62
7
  6
CONTINUOUS
 10
74.9389350254
 20
66.1140610877
 11
74.9347281487
 21
66.2040638819
  0
LINE
  5
307
100
AcDbEntity
  8
0
100
AcDbLine
 62
7
  6
CONTINUOUS
 10
74.9347281487
 20
66.2040638819
 11
74.9311310157
 21
66.3088708521
  0
LINE
  5
308
100
AcDbEntity
  8
0
100
AcDbLine
 62
7
  6
CONTINUOUS
 10
74.9311310157
 20
66.3088708521
 11
74.9256052923
 21
66.5548582736
  0
LINE
  5
309
100
AcDbEntity
  8
0
100
AcDbLine
 62
7
  6
CONTINUOUS
 10
74.9256052923
 20
66.5548582736
 11
74.9220264803
 21
66.8359352562
  0
LINE
  5
30A
100
AcDbEntity
  8
0
100
AcDbLine
 62
7
  6
CONTINUOUS
 10
74.9220264803
 20
66.8359352562
 11
74.9193390944
 21
67.4390005085
  0
LINE
  5
30B
100
AcDbEntity
  8
0
100
AcDbLine
 62
3
  6
CONTINUOUS
 10
76.4603613586
 20
98.7574856484
 11
76.4603613586
 21
69.7574856484
  0
LINE
  5
30C
100
AcDbEntity
  8
0
100
AcDbLine
 62
7
  6
CONTINUOUS
 10
74.9193390944
 20
67.4390005085
 11
74.9195647709
 21
67.7288135854
  0
LINE
  5
30D
100
AcDbEntity
  8
0
100
AcDbLine
 62
7
  6
CONTINUOUS
 10
74.9195647709
 20
67.7288135854
 11
74.9209140069
 21
68.1036349888
  0
LINE
  5
30E
100
AcDbEntity
  8
0
100
AcDbLine
 62
7
  6
CONTINUOUS
 10
74.9209140069
 20
68.1036349888
 11
74.9230588694
 21
68.4345396191
  0
LINE
  5
30F
100
AcDbEntity
  8
0
100
AcDbLine
 62
7
  6
CONTINUOUS
 10
75.4629563819
 20
66.0607237457
 11
75.4626510065
 21
66.0481166574
  0
LINE
  5
310
100
AcDbEntity
  8
0
100
AcDbLine
 62
7
  6
CONTINUOUS
 10
74.9740885937
 20
68.5641982959
 11
74.9757059794
 21
68.6185077632
  0
LINE
  5
311
100
AcDbEntity
  8
0
100
AcDbLine
 62
7
  6
CONTINUOUS
 10
75.5495255818
 20
68.7973597481
 11
75.4639275813
 21
66.0913340262
  0
LINE
  5
312
100
AcDbEntity
  8
0
100
AcDbLine
 62
7
  6
CONTINUOUS
 10
75.4639275813
 20
66.0913340262
 11
75.4629563819
 21
66.0607237457
  0
LINE
  5
313
100
AcDbEntity
  8
0
100
AcDbLine
 62
7
  6
CONTINUOUS
 10
75.4626510065
 20
66.0481166574
 11
75.4613755469
 21
66.0114552891
  0
LINE
  5
314
100
AcDbEntity
  8
0
100
AcDbLine
 62
7
  6
CONTINUOUS
 10
75.4613755469
 20
66.0114552891
 11
75.4508484141
 21
65.8762672569
  0
LINE
  5
315
100
AcDbEntity
  8
0
100
AcDbLine
 62
7
  6
CONTINUOUS
 10
72.0515680873
 20
65.3969279181
 11
72.0709202875
 21
65.542317488
  0
LINE
  5
316
100
AcDbEntity
  8
0
100
AcDbLine
 62
7
  6
CONTINUOUS
 10
75.4508484141
 20
65.8762672569
 11
75.4320182464
 21
65.7585898382
  0
LINE
  5
317
100
AcDbEntity
  8
0
100
AcDbLine
 62
7
  6
CONTINUOUS
 10
70.7796182658
 20
66.8430422826
 11
70.7655456994
 21
66.7615342332
  0
LINE
  5
318
100
AcDbEntity
  8
0
100
AcDbLine
 62
7
  6
CONTINUOUS
 10
72.0709202875
 20
65.542317488
 11
72.1034048961
 21
65.6793318332
  0
LINE
  5
319
100
AcDbEntity
  8
0
100
AcDbLine
 62
7
  6
CONTINUOUS
 10
74.9596733891
 20
68.5092571492
 11
74.9740885937
 21
68.5641982959
  0
LINE
  5
31A
100
AcDbEntity
  8
0
100
AcDbLine
 62
7
  6
CONTINUOUS
 10
71.3313373133
 20
68.5681279773
 11
71.3488407002
 21
68.6293920122
  0
LINE
  5
31B
100
AcDbEntity
  8
0
100
AcDbLine
 62
7
  6
CONTINUOUS
 10
69.0812024468
 20
65.2839489106
 11
69.1432729614
 21
65.4630327638
  0
LINE
  5
31C
100
AcDbEntity
  8
0
100
AcDbLine
 62
7
  6
CONTINUOUS
 10
70.7655456994
 20
66.7615342332
 11
70.7339931486
 21
66.673013158
  0
LINE
  5
31D
100
AcDbEntity
  8
0
100
AcDbLine
 62
7
  6
CONTINUOUS
 10
72.1034048961
 20
65.6793318332
 11
72.1500050394
 21
65.8005762361
  0
LINE
  5
31E
100
AcDbEntity
  8
0
100
AcDbLine
 62
7
  6
CONTINUOUS
 10
70.1261748071
 20
66.5662904012
 11
70.224630704
 21
66.7857877171
  0
LINE
  5
31F
100
AcDbEntity
  8
0
100
AcDbLine
 62
7
  6
CONTINUOUS
 10
72.3216978887
 20
69.1784267388
 11
72.24177341
 21
69.0026937526
  0
LINE
  5
320
100
AcDbEntity
  8
0
100
AcDbLine
 62
7
  6
CONTINUOUS
 10
71.3181585095
 20
68.5396181871
 11
71.3313373133
 21
68.5681279773
  0
LINE
  5
321
100
AcDbEntity
  8
0
100
AcDbLine
 62
7
  6
CONTINUOUS
 10
69.4879464846
 20
68.8698680009
 11
69.4661393882
 21
68.8249837293
  0
LINE
  5
322
100
AcDbEntity
  8
0
100
AcDbLine
 62
7
  6
CONTINUOUS
 10
70.7339931486
 20
66.673013158
 11
70.6855055978
 21
66.5775332135
  0
LINE
  5
323
100
AcDbEntity
  8
0
100
AcDbLine
 62
7
  6
CONTINUOUS
 10
89.9349166893
 20
96.5306805248
 11
89.6392444219
 21
96.1941595095
  0
LINE
  5
324
100
AcDbEntity
  8
0
100
AcDbLine
 62
7
  6
CONTINUOUS
 10
90.216645065
 20
96.2476605058
 11
90.3415808547
 21
96.3771124284
  0
LINE
  5
325
100
AcDbEntity
  8
A_ACHSEN
100
AcDbLine
 62
7
  6
CONTINUOUS
 10
61.9248175562
 20
68.2219895724
 11
62.1674583745
 21
68.4646301283
  0
LINE
  5
326
100
AcDbEntity
  8
0
100
AcDbLine
 62
7
  6
CONTINUOUS
 10
90.0780581817
 20
96.1115756585
 11
90.216645065
 21
96.2476605058
  0
LINE
  5
327
100
AcDbEntity
  8
0
100
AcDbLine
 62
7
  6
CONTINUOUS
 10
89.6392444219
 20
96.1941595095
 11
89.2527624227
 21
95.8219083862
  0
LINE
  5
328
100
AcDbEntity
  8
0
100
AcDbLine
 62
7
  6
CONTINUOUS
 10
89.1983253024
 20
95.7736207343
 11
89.1852528548
 21
95.7612619757
  0
LINE
  5
329
100
AcDbEntity
  8
0
100
AcDbLine
 62
7
  6
CONTINUOUS
 10
89.9263731882
 20
95.9689150454
 11
90.0780581817
 21
96.1115756585
  0
LINE
  5
32A
100
AcDbEntity
  8
0
100
AcDbLine
 62
7
  6
CONTINUOUS
 10
89.7621360691
 20
95.8197328235
 11
89.9263731882
 21
95.9689150454
  0
LINE
  5
32B
100
AcDbEntity
  8
0
100
AcDbLine
 62
7
  6
CONTINUOUS
 10
89.6754842076
 20
95.7427129092
 11
89.7621360691
 21
95.8197328235
  0
LINE
  5
32C
100
AcDbEntity
  8
0
100
AcDbLine
 62
7
  6
CONTINUOUS
 10
89.2527624227
 20
95.8219083862
 11
89.1983253024
 21
95.7736207343
  0
LINE
  5
32D
100
AcDbEntity
  8
0
100
AcDbLine
 62
7
  6
CONTINUOUS
 10
88.7937135525
 20
99.6407175743
 11
88.6818649851
 21
99.5418004154
  0
LINE
  5
32E
100
AcDbEntity
  8
0
100
AcDbLine
 62
7
  6
CONTINUOUS
 10
89.6203687926
 20
95.6942276307
 11
89.6754842076
 21
95.7427129092
  0
LINE
  5
32F
100
AcDbEntity
  8
0
100
AcDbLine
 62
7
  6
CONTINUOUS
 10
92.2978842036
 20
96.21617183
 11
92.2201026123
 21
96.1486484662
  0
LINE
  5
330
100
AcDbEntity
  8
0
100
AcDbLine
 62
7
  6
CONTINUOUS
 10
92.639833947
 20
98.8815982457
 11
92.5829396431
 21
98.8339488874
  0
LINE
  5
331
100
AcDbEntity
  8
0
100
AcDbLine
 62
7
  6
CONTINUOUS
 10
92.5829396431
 20
98.8339488874
 11
92.5747055923
 21
98.82716752
  0
LINE
  5
332
100
AcDbEntity
  8
0
100
AcDbLine
 62
7
  6
CONTINUOUS
 10
92.0419897422
 20
95.5011812346
 11
92.0200798034
 21
95.4835729351
  0
LINE
  5
333
100
AcDbEntity
  8
0
100
AcDbLine
 62
7
  6
CONTINUOUS
 10
94.5727579541
 20
98.8609809319
 11
94.6434565084
 21
98.9112392588
  0
LINE
  5
334
100
AcDbEntity
  8
0
100
AcDbLine
 62
7
  6
CONTINUOUS
 10
89.4963473205
 20
99.1198595496
 11
89.5381678653
 21
99.1492765736
  0
LINE
  5
335
100
AcDbEntity
  8
0
100
AcDbLine
 62
7
  6
CONTINUOUS
 10
92.9004978337
 20
99.05943019
 11
92.639833947
 21
98.8815982457
  0
LINE
  5
336
100
AcDbEntity
  8
0
100
AcDbLine
 62
7
  6
CONTINUOUS
 10
99.8245811069
 20
99.6577667864
 11
99.6700966756
 21
99.5688053707
  0
LINE
  5
337
100
AcDbEntity
  8
0
100
AcDbLine
 62
7
  6
CONTINUOUS
 10
92.0800685277
 20
99.1612513329
 11
92.2501742489
 21
99.2526852396
  0
LINE
  5
338
100
AcDbEntity
  8
0
100
AcDbLine
 62
7
  6
CONTINUOUS
 10
93.2093514773
 20
99.2172439874
 11
92.9004978337
 21
99.05943019
  0
LINE
  5
339
100
AcDbEntity
  8
0
100
AcDbLine
 62
7
  6
CONTINUOUS
 10
95.1195422635
 20
95.5832929889
 11
95.2398246475
 21
95.6445865708
  0
LINE
  5
33A
100
AcDbEntity
  8
0
100
AcDbLine
 62
7
  6
CONTINUOUS
 10
92.3199599733
 20
96.2274111769
 11
92.2978842036
 21
96.21617183
  0
LINE
  5
33B
100
AcDbEntity
  8
0
100
AcDbLine
 62
7
  6
CONTINUOUS
 10
94.4962578983
 20
98.8229009377
 11
94.5727579541
 21
98.8609809319
  0
LINE
  5
33C
100
AcDbEntity
  8
0
100
AcDbLine
 62
7
  6
CONTINUOUS
 10
94.7111473994
 20
98.9951107224
 11
94.7474883552
 21
99.0126621706
  0
LINE
  5
33D
100
AcDbEntity
  8
0
100
AcDbLine
 62
7
  6
CONTINUOUS
 10
92.5825000663
 20
98.2133147354
 11
92.6928763648
 21
98.2609904689
  0
LINE
  5
33E
100
AcDbEntity
  8
0
100
AcDbLine
 62
7
  6
CONTINUOUS
 10
92.6928763648
 20
98.2609904689
 11
92.8183846803
 21
98.3120875528
  0
LINE
  5
33F
100
AcDbEntity
  8
0
100
AcDbLine
 62
7
  6
CONTINUOUS
 10
99.319283684
 20
95.4919943487
 11
99.2368413307
 21
95.4619056465
  0
LINE
  5
340
100
AcDbEntity
  8
0
100
AcDbLine
 62
7
  6
CONTINUOUS
 10
103.1869462152
 20
97.0629573094
 11
102.5421361106
 21
96.8371299267
  0
LINE
  5
341
100
AcDbEntity
  8
0
100
AcDbLine
 62
7
  6
CONTINUOUS
 10
92.0200798034
 20
95.4835729351
 11
91.9582270119
 21
95.4619681524
  0
LINE
  5
342
100
AcDbEntity
  8
0
100
AcDbLine
 62
7
  6
CONTINUOUS
 10
92.9164086618
 20
95.6511596233
 11
92.9538051265
 21
95.6634623747
  0
LINE
  5
343
100
AcDbEntity
  8
0
100
AcDbLine
 62
7
  6
CONTINUOUS
 10
75.1111415068
 20
65.3333015661
 11
75.0444803791
 21
65.3163453999
  0
LINE
  5
344
100
AcDbEntity
  8
0
100
AcDbLine
 62
7
  6
CONTINUOUS
 10
74.9243442025
 20
65.636933873
 11
74.9742641278
 21
65.6476352258
  0
LINE
  5
345
100
AcDbEntity
  8
0
100
AcDbLine
 62
7
  6
CONTINUOUS
 10
75.0444803791
 20
65.3163453999
 11
75.022145315
 21
65.312463767
  0
LINE
  5
346
100
AcDbEntity
  8
0
100
AcDbLine
 62
7
  6
CONTINUOUS
 10
72.3447755598
 20
65.9866152418
 11
72.3925983072
 21
65.9944569916
  0
LINE
  5
347
100
AcDbEntity
  8
0
100
AcDbLine
 62
7
  6
CONTINUOUS
 10
79.1834892116
 20
65.2062213919
 11
79.2284405767
 21
65.211914316
  0
LINE
  5
348
100
AcDbEntity
  8
0
100
AcDbLine
 62
7
  6
CONTINUOUS
 10
84.1911761302
 20
65.5133031528
 11
84.3213156487
 21
65.5289095695
  0
LINE
  5
349
100
AcDbEntity
  8
0
100
AcDbLine
 62
7
  6
CONTINUOUS
 10
72.9967597851
 20
65.4189836688
 11
72.945404368
 21
65.4134709035
  0
LINE
  5
34A
100
AcDbEntity
  8
0
100
AcDbLine
 62
7
  6
CONTINUOUS
 10
72.3925983072
 20
65.9944569916
 11
72.4532044483
 21
66.0009314166
  0
LINE
  5
34B
100
AcDbEntity
  8
0
100
AcDbLine
 62
7
  6
CONTINUOUS
 10
71.8906884176
 20
65.2079346561
 11
71.949826258
 21
65.2119766589
  0
LINE
  5
34C
100
AcDbEntity
  8
0
100
AcDbLine
 62
7
  6
CONTINUOUS
 10
72.4532044483
 20
66.0009314166
 11
72.6083449414
 21
66.009673021
  0
LINE
  5
34D
100
AcDbEntity
  8
0
100
AcDbLine
 62
7
  6
CONTINUOUS
 10
72.0140398398
 20
68.9072552735
 11
71.6450122963
 21
68.8986581749
  0
LINE
  5
34E
100
AcDbEntity
  8
0
100
AcDbLine
 62
7
  6
CONTINUOUS
 10
79.1636573214
 20
65.2058366901
 11
79.1834892116
 21
65.2062213919
  0
LINE
  5
34F
100
AcDbEntity
  8
0
100
AcDbLine
 62
7
  6
CONTINUOUS
 10
75.022145315
 20
65.312463767
 11
73.9982227193
 21
65.2941425919
  0
LINE
  5
350
100
AcDbEntity
  8
0
100
AcDbLine
 62
7
  6
CONTINUOUS
 10
72.6083449414
 20
66.009673021
 11
72.8013220991
 21
66.0126305035
  0
LINE
  5
351
100
AcDbEntity
  8
0
100
AcDbLine
 62
7
  6
CONTINUOUS
 10
77.4489983876
 20
68.9130878658
 11
77.0575544994
 21
68.9091643225
  0
LINE
  5
352
100
AcDbEntity
  8
A_ACHSEN
100
AcDbLine
 62
8
  6
HIDDEN
 10
95.4603500484
 20
65.607505345
 11
96.4603500484
 21
65.6075048043
  0
LINE
  5
353
100
AcDbEntity
  8
0
100
AcDbLine
 62
3
  6
CONTINUOUS
 10
80.4603506703
 20
66.7575134558
 11
89.9603506703
 21
66.7575083189
  0
LINE
  5
354
100
AcDbEntity
  8
0
100
AcDbLine
 62
7
  6
CONTINUOUS
 10
84.4397300656
 20
64.0075165517
 11
69.0728143532
 21
64.0077854463
  0
LINE
  5
355
100
AcDbEntity
  8
0
100
AcDbLine
 62
7
  6
CONTINUOUS
 10
73.0607783128
 20
65.2075968589
 11
79.1636573214
 21
65.2058366901
  0
LINE
  5
356
100
AcDbEntity
  8
0
100
AcDbLine
 62
7
  6
CONTINUOUS
 10
70.2702568198
 20
65.2084012705
 11
71.8906884176
 21
65.2079346561
  0
LINE
  5
357
100
AcDbEntity
  8
0
100
AcDbLine
 62
7
  6
CONTINUOUS
 10
79.3540402634
 20
68.6703215698
 11
79.2816452302
 21
68.6704267557
  0
LINE
  5
358
100
AcDbEntity
  8
0
100
AcDbLine
 62
7
  6
CONTINUOUS
 10
72.8013220991
 20
66.0126305035
 11
73.0232699812
 21
66.0095943151
  0
LINE
  5
359
100
AcDbEntity
  8
0
100
AcDbLine
 62
7
  6
CONTINUOUS
 10
77.8306567722
 20
68.9048485951
 11
77.4489983876
 21
68.9130878658
  0
LINE
  5
35A
100
AcDbEntity
  8
0
100
AcDbLine
 62
7
  6
CONTINUOUS
 10
71.1553589836
 20
68.854459394
 11
69.5587315118
 21
68.9067584508
  0
LINE
  5
35B
100
AcDbEntity
  8
0
100
AcDbLine
 62
7
  6
CONTINUOUS
 10
80.2373141569
 20
69.5055795523
 11
80.253565323
 21
69.5050042246
  0
LINE
  5
35C
100
AcDbEntity
  8
0
100
AcDbLine
 62
7
  6
CONTINUOUS
 10
73.0499143442
 20
65.4170469511
 11
72.9967597851
 21
65.4189836688
  0
LINE
  5
35D
100
AcDbEntity
  8
0
100
AcDbLine
 62
7
  6
CONTINUOUS
 10
73.0232699812
 20
66.0095943151
 11
73.2653186476
 21
66.0003549056
  0
LINE
  5
35E
100
AcDbEntity
  8
0
100
AcDbLine
 62
7
  6
CONTINUOUS
 10
83.1358319282
 20
65.6077647372
 11
83.0776149709
 21
65.6110859995
  0
LINE
  5
35F
100
AcDbEntity
  8
0
100
AcDbLine
 62
7
  6
CONTINUOUS
 10
78.194757019
 20
68.8831732758
 11
77.8306567722
 21
68.9048485951
  0
LINE
  5
360
100
AcDbEntity
  8
0
100
AcDbLine
 62
7
  6
CONTINUOUS
 10
73.2653186476
 20
66.0003549056
 11
73.7742375731
 21
65.9624272221
  0
LINE
  5
361
100
AcDbEntity
  8
0
100
AcDbLine
 62
7
  6
CONTINUOUS
 10
77.5496063804
 20
69.5635448182
 11
78.3655826232
 21
69.4967324149
  0
LINE
  5
362
100
AcDbEntity
  8
0
100
AcDbLine
 62
7
  6
CONTINUOUS
 10
81.3192376625
 20
65.2919144394
 11
83.233965222
 21
65.1302479315
  0
LINE
  5
363
100
AcDbEntity
  8
0
100
AcDbLine
 62
7
  6
CONTINUOUS
 10
74.8333487929
 20
68.7652188405
 11
74.7831684854
 21
68.7697594134
  0
LINE
  5
364
100
AcDbEntity
  8
0
100
AcDbLine
 62
7
  6
CONTINUOUS
 10
71.1789616071
 20
68.8522941799
 11
71.1553589836
 21
68.854459394
  0
LINE
  5
365
100
AcDbEntity
  8
0
100
AcDbLine
 62
7
  6
CONTINUOUS
 10
78.5335164945
 20
68.8467866703
 11
78.194757019
 21
68.8831732758
  0
LINE
  5
366
100
AcDbEntity
  8
0
100
AcDbLine
 62
7
  6
CONTINUOUS
 10
73.7742375731
 20
65.9624272221
 11
74.023371952
 21
65.9333198489
  0
LINE
  5
367
100
AcDbEntity
  8
0
100
AcDbLine
 62
7
  6
CONTINUOUS
 10
72.5740992506
 20
67.9633232558
 11
72.5450682424
 21
67.9668259094
  0
LINE
  5
368
100
AcDbEntity
  8
0
100
AcDbLine
 62
7
  6
CONTINUOUS
 10
74.8739493372
 20
65.6434143844
 11
74.9243442025
 21
65.636933873
  0
LINE
  5
369
100
AcDbEntity
  8
0
100
AcDbLine
 62
7
  6
CONTINUOUS
 10
72.014195301
 20
69.507374343
 11
72.1113631896
 21
69.493863279
  0
LINE
  5
36A
100
AcDbEntity
  8
0
100
AcDbLine
 62
7
  6
CONTINUOUS
 10
78.3655826232
 20
69.4967324149
 11
78.7257659178
 21
69.4435869681
  0
LINE
  5
36B
100
AcDbEntity
  8
0
100
AcDbLine
 62
7
  6
CONTINUOUS
 10
74.023371952
 20
65.9333198489
 11
74.257128355
 21
65.8971700542
  0
LINE
  5
36C
100
AcDbEntity
  8
0
100
AcDbLine
 62
7
  6
CONTINUOUS
 10
78.8391575648
 20
68.7944135422
 11
78.5335164945
 21
68.8467866703
  0
LINE
  5
36D
100
AcDbEntity
  8
0
100
AcDbLine
 62
7
  6
CONTINUOUS
 10
79.4112480959
 20
68.6604780171
 11
79.3540402634
 21
68.6703215698
  0
LINE
  5
36E
100
AcDbEntity
  8
0
100
AcDbLine
 62
7
  6
CONTINUOUS
 10
80.4867334472
 20
66.7046801465
 11
80.7182294876
 21
66.6593567015
  0
LINE
  5
36F
100
AcDbEntity
  8
0
100
AcDbLine
 62
7
  6
CONTINUOUS
 10
79.2609656911
 20
68.6688208101
 11
79.2451377985
 21
68.6719232596
  0
LINE
  5
370
100
AcDbEntity
  8
0
100
AcDbLine
 62
7
  6
CONTINUOUS
 10
83.2375528553
 20
65.5871639819
 11
83.1358319282
 21
65.6077647372
  0
LINE
  5
371
100
AcDbEntity
  8
0
100
AcDbLine
 62
7
  6
CONTINUOUS
 10
78.7257659178
 20
69.4435869681
 11
79.0456507869
 21
69.3780029347
  0
LINE
  5
372
100
AcDbEntity
  8
0
100
AcDbLine
 62
7
  6
CONTINUOUS
 10
84.3213156487
 20
65.5289095695
 11
84.5701461151
 21
65.4681941077
  0
LINE
  5
373
100
AcDbEntity
  8
0
100
AcDbLine
 62
7
  6
CONTINUOUS
 10
79.1038985966
 20
68.7247776544
 11
78.8391575648
 21
68.7944135422
  0
LINE
  5
374
100
AcDbEntity
  8
0
100
AcDbLine
 62
7
  6
CONTINUOUS
 10
79.0456507869
 20
69.3780029347
 11
79.3189160741
 21
69.3005234974
  0
LINE
  5
375
100
AcDbEntity
  8
0
100
AcDbLine
 62
7
  6
CONTINUOUS
 10
71.2289917031
 20
68.8380545633
 11
71.1789616071
 21
68.8522941799
  0
LINE
  5
376
100
AcDbEntity
  8
0
100
AcDbLine
 62
7
  6
CONTINUOUS
 10
74.8879947804
 20
68.7478795509
 11
74.8333487929
 21
68.7652188405
  0
LINE
  5
377
100
AcDbEntity
  8
0
100
AcDbLine
 62
7
  6
CONTINUOUS
 10
80.7182294876
 20
66.6593567015
 11
80.7452460407
 21
66.6504804686
  0
LINE
  5
378
100
AcDbEntity
  8
0
100
AcDbLine
 62
7
  6
CONTINUOUS
 10
71.6073318301
 20
68.8967963414
 11
72.566304763
 21
68.5771760402
  0
LINE
  5
379
100
AcDbEntity
  8
0
100
AcDbLine
 62
7
  6
CONTINUOUS
 10
79.2185005875
 20
68.6830876017
 11
79.1038985966
 21
68.7247776544
  0
LINE
  5
37A
100
AcDbEntity
  8
0
100
AcDbLine
 62
7
  6
CONTINUOUS
 10
79.3189160741
 20
69.3005234974
 11
79.5392406242
 21
69.2116878387
  0
LINE
  5
37B
100
AcDbEntity
  8
0
100
AcDbLine
 62
7
  6
CONTINUOUS
 10
79.2451377985
 20
68.6719232596
 11
79.2185005875
 21
68.6830876017
  0
LINE
  5
37C
100
AcDbEntity
  8
0
100
AcDbLine
 62
7
  6
CONTINUOUS
 10
79.4550424544
 20
68.6418466075
 11
79.4112480959
 21
68.6604780171
  0
LINE
  5
37D
100
AcDbEntity
  8
0
100
AcDbLine
 62
7
  6
CONTINUOUS
 10
83.0776149709
 20
65.6110859995
 11
82.9853740901
 21
65.6558744814
  0
LINE
  5
37E
100
AcDbEntity
  8
0
100
AcDbLine
 62
7
  6
CONTINUOUS
 10
83.3236848659
 20
65.5349667433
 11
83.2375528553
 21
65.5871639819
  0
LINE
  5
37F
100
AcDbEntity
  8
0
100
AcDbLine
 62
7
  6
CONTINUOUS
 10
84.1482312802
 20
65.5406008069
 11
84.1911761302
 21
65.5133031528
  0
LINE
  5
380
100
AcDbEntity
  8
0
100
AcDbLine
 62
7
  6
CONTINUOUS
 10
80.4686977345
 20
66.7175909616
 11
80.4867334472
 21
66.7046801465
  0
LINE
  5
381
100
AcDbEntity
  8
0
100
AcDbLine
 62
7
  6
CONTINUOUS
 10
84.5701461151
 20
65.4681941077
 11
84.7845186029
 21
65.3100107349
  0
LINE
  5
382
100
AcDbEntity
  8
0
100
AcDbLine
 62
7
  6
CONTINUOUS
 10
79.5094766575
 20
68.5820192553
 11
79.4550424544
 21
68.6418466075
  0
LINE
  5
383
100
AcDbEntity
  8
0
100
AcDbLine
 62
7
  6
CONTINUOUS
 10
83.3876112055
 20
65.4572751194
 11
83.3236848659
 21
65.5349667433
  0
LINE
  5
384
100
AcDbEntity
  8
0
100
AcDbLine
 62
7
  6
CONTINUOUS
 10
83.2428345035
 20
66.7466185483
 11
84.1482312802
 21
65.5406008069
  0
LINE
  5
385
100
AcDbEntity
  8
0
100
AcDbLine
 62
7
  6
CONTINUOUS
 10
82.9853740901
 20
65.6558744814
 11
82.9288448379
 21
65.733263232
  0
LINE
  5
386
100
AcDbEntity
  8
0
100
AcDbLine
 62
7
  6
CONTINUOUS
 10
84.7845186029
 20
65.3100107349
 11
84.9413964495
 21
65.0844858291
  0
LINE
  5
387
100
AcDbEntity
  8
0
100
AcDbLine
 62
7
  6
CONTINUOUS
 10
82.9288448379
 20
65.733263232
 11
82.5340535341
 21
66.5759797613
  0
LINE
  5
388
100
AcDbEntity
  8
0
100
AcDbLine
 62
7
  6
CONTINUOUS
 10
81.3036529457
 20
65.3257089601
 11
81.3192376625
 21
65.2919144394
  0
LINE
  5
389
100
AcDbEntity
  8
0
100
AcDbLine
 62
7
  6
CONTINUOUS
 10
80.7452460407
 20
66.6504804686
 11
81.3036529457
 21
65.3257089601
  0
LINE
  5
38A
100
AcDbEntity
  8
0
100
AcDbLine
 62
7
  6
CONTINUOUS
 10
79.5315266887
 20
68.4984375914
 11
79.5094766575
 21
68.5820192553
  0
LINE
  5
38B
100
AcDbEntity
  8
0
100
AcDbLine
 62
7
  6
CONTINUOUS
 10
79.5353853637
 20
68.3987016967
 11
79.5315266887
 21
68.4984375914
  0
LINE
  5
38C
100
AcDbEntity
  8
0
100
AcDbLine
 62
7
  6
CONTINUOUS
 10
83.4253733524
 20
65.2759049688
 11
83.4227111193
 21
65.3601912069
  0
LINE
  5
38D
100
AcDbEntity
  8
0
100
AcDbLine
 62
7
  6
CONTINUOUS
 10
82.5340535341
 20
66.5759797613
 11
82.5337353258
 21
66.5871386703
  0
LINE
  5
38E
100
AcDbEntity
  8
0
100
AcDbLine
 62
7
  6
CONTINUOUS
 10
80.4603506703
 20
66.7575134558
 11
80.4603522924
 21
69.7575134558
  0
LINE
  5
38F
100
AcDbEntity
  8
0
100
AcDbLine
 62
7
  6
CONTINUOUS
 10
79.4678978127
 20
65.5276411748
 11
79.4684616346
 21
67.4795134176
  0
LINE
  5
390
100
AcDbEntity
  8
0
100
AcDbLine
 62
7
  6
CONTINUOUS
 10
80.4687093387
 20
66.757511026
 11
80.4686977345
 21
66.7175909616
  0
LINE
  5
391
100
AcDbEntity
  8
0
100
AcDbLine
 62
7
  6
CONTINUOUS
 10
79.5348029604
 20
68.3263426711
 11
79.5353853637
 21
68.3987016967
  0
LINE
  5
392
100
AcDbEntity
  8
0
100
AcDbLine
 62
7
  6
CONTINUOUS
 10
79.4617795387
 20
65.4451174124
 11
79.4678978127
 21
65.5276411748
  0
LINE
  5
393
100
AcDbEntity
  8
0
100
AcDbLine
 62
7
  6
CONTINUOUS
 10
79.4684616346
 20
67.4795134176
 11
79.5348029604
 21
68.3263426711
  0
LINE
  5
394
100
AcDbEntity
  8
0
100
AcDbLine
 62
7
  6
CONTINUOUS
 10
75.4320182464
 20
65.7585898382
 11
75.4054053585
 21
65.6573291826
  0
LINE
  5
395
100
AcDbEntity
  8
0
100
AcDbLine
 62
7
  6
CONTINUOUS
 10
88.6818649851
 20
99.5418004154
 11
88.6385448822
 21
99.3821439549
  0
LINE
  5
396
100
AcDbEntity
  8
0
100
AcDbLine
 62
7
  6
CONTINUOUS
 10
75.048634762
 20
65.7150036108
 11
75.0616990539
 21
65.7592063687
  0
LINE
  5
397
100
AcDbEntity
  8
0
100
AcDbLine
 62
7
  6
CONTINUOUS
 10
89.151673721
 20
95.7130243202
 11
89.0896032024
 21
95.5339404684
  0
LINE
  5
398
100
AcDbEntity
  8
0
100
AcDbLine
 62
7
  6
CONTINUOUS
 10
75.4054053585
 20
65.6573291826
 11
75.3715210643
 21
65.5713934371
  0
LINE
  5
399
100
AcDbEntity
  8
0
100
AcDbLine
 62
7
  6
CONTINUOUS
 10
90.2330314932
 20
97.0357792492
 11
90.1345755914
 21
96.8162819356
  0
LINE
  5
39A
100
AcDbEntity
  8
0
100
AcDbLine
 62
7
  6
CONTINUOUS
 10
92.2501742489
 20
99.2526852396
 11
92.3300987315
 21
99.428418224
  0
LINE
  5
39B
100
AcDbEntity
  8
0
100
AcDbLine
 62
7
  6
CONTINUOUS
 10
91.3397381425
 20
98.8181194847
 11
91.3265593381
 21
98.7896096948
  0
LINE
  5
39C
100
AcDbEntity
  8
0
100
AcDbLine
 62
7
  6
CONTINUOUS
 10
72.0335889874
 20
65.2511897429
 11
72.0443705994
 21
65.2734098436
  0
LINE
  5
39D
100
AcDbEntity
  8
0
100
AcDbLine
 62
7
  6
CONTINUOUS
 10
89.4745402232
 20
99.0749752785
 11
89.4963473205
 21
99.1198595496
  0
LINE
  5
39E
100
AcDbEntity
  8
0
100
AcDbLine
 62
7
  6
CONTINUOUS
 10
74.9339425473
 20
68.4565307492
 11
74.9596733891
 21
68.5092571492
  0
LINE
  5
39F
100
AcDbEntity
  8
0
100
AcDbLine
 62
7
  6
CONTINUOUS
 10
74.9230588694
 20
68.4345396191
 11
74.9339425473
 21
68.4565307492
  0
LINE
  5
3A0
100
AcDbEntity
  8
0
100
AcDbLine
 62
7
  6
CONTINUOUS
 10
90.6939063824
 20
96.8275247354
 11
90.7423939353
 21
96.9230046788
  0
LINE
  5
3A1
100
AcDbEntity
  8
0
100
AcDbLine
 62
7
  6
CONTINUOUS
 10
75.3715210643
 20
65.5713934371
 11
75.3308886783
 21
65.499688752
  0
LINE
  5
3A2
100
AcDbEntity
  8
0
100
AcDbLine
 62
7
  6
CONTINUOUS
 10
72.1500050394
 20
65.8005762361
 11
72.211701843
 21
65.8986569785
  0
LINE
  5
3A3
100
AcDbEntity
  8
0
100
AcDbLine
 62
7
  6
CONTINUOUS
 10
92.2201026123
 20
96.1486484662
 11
92.1584058065
 21
96.0505677252
  0
LINE
  5
3A4
100
AcDbEntity
  8
0
100
AcDbLine
 62
7
  6
CONTINUOUS
 10
70.6855055978
 20
66.5775332135
 11
70.6206320312
 21
66.4751495576
  0
LINE
  5
3A5
100
AcDbEntity
  8
0
100
AcDbLine
 62
7
  6
CONTINUOUS
 10
90.6290328135
 20
96.7251410809
 11
90.6939063824
 21
96.8275247354
  0
LINE
  5
3A6
100
AcDbEntity
  8
0
100
AcDbLine
 62
7
  6
CONTINUOUS
 10
69.1432729614
 20
65.4630327638
 11
69.1651141769
 21
65.4970680447
  0
LINE
  5
3A7
100
AcDbEntity
  8
0
100
AcDbLine
 62
7
  6
CONTINUOUS
 10
89.1735149373
 20
95.7470596006
 11
89.151673721
 21
95.7130243202
  0
LINE
  5
3A8
100
AcDbEntity
  8
0
100
AcDbLine
 62
7
  6
CONTINUOUS
 10
90.1345755914
 20
96.8162819356
 11
89.9349166893
 21
96.5306805248
  0
LINE
  5
3A9
100
AcDbEntity
  8
0
100
AcDbLine
 62
7
  6
CONTINUOUS
 10
69.9265159114
 20
66.2806889859
 11
70.1261748071
 21
66.5662904012
  0
LINE
  5
3AA
100
AcDbEntity
  8
0
100
AcDbLine
 62
7
  6
CONTINUOUS
 10
94.6434565084
 20
98.9112392588
 11
94.6841741161
 21
98.9682649668
  0
LINE
  5
3AB
100
AcDbEntity
  8
0
100
AcDbLine
 62
7
  6
CONTINUOUS
 10
74.6757732835
 20
68.7182735344
 11
74.6350556772
 21
68.6612478254
  0
LINE
  5
3AC
100
AcDbEntity
  8
0
100
AcDbLine
 62
7
  6
CONTINUOUS
 10
90.5483262131
 20
96.6159078745
 11
90.6290328135
 21
96.7251410809
  0
LINE
  5
3AD
100
AcDbEntity
  8
0
100
AcDbLine
 62
7
  6
CONTINUOUS
 10
70.6206320312
 20
66.4751495576
 11
70.5399254332
 21
66.3659163493
  0
LINE
  5
3AE
100
AcDbEntity
  8
0
100
AcDbLine
 62
7
  6
CONTINUOUS
 10
95.0570355272
 20
95.9649950349
 11
95.0272005052
 21
95.9268044562
  0
LINE
  5
3AF
100
AcDbEntity
  8
0
100
AcDbLine
 62
7
  6
CONTINUOUS
 10
89.1852528548
 20
95.7612619757
 11
89.1735149373
 21
95.7470596006
  0
LINE
  5
3B0
100
AcDbEntity
  8
0
100
AcDbLine
 62
7
  6
CONTINUOUS
 10
69.1651141769
 20
65.4970680447
 11
69.1768520941
 21
65.51127042
  0
LINE
  5
3B1
100
AcDbEntity
  8
0
100
AcDbLine
 62
7
  6
CONTINUOUS
 10
90.4523245653
 20
96.4998802706
 11
90.5483262131
 21
96.6159078745
  0
LINE
  5
3B2
100
AcDbEntity
  8
0
100
AcDbLine
 62
7
  6
CONTINUOUS
 10
70.5399254332
 20
66.3659163493
 11
70.4439237881
 21
66.2498887433
  0
LINE
  5
3B3
100
AcDbEntity
  8
0
100
AcDbLine
 62
7
  6
CONTINUOUS
 10
92.8804065548
 20
95.6097852715
 11
92.9164086618
 21
95.6511596233
  0
LINE
  5
3B4
100
AcDbEntity
  8
0
100
AcDbLine
 62
7
  6
CONTINUOUS
 10
69.6308436515
 20
65.944167964
 11
69.9265159114
 21
66.2806889859
  0
LINE
  5
3B5
100
AcDbEntity
  8
0
100
AcDbLine
 62
7
  6
CONTINUOUS
 10
90.3415808547
 20
96.3771124284
 11
90.4523245653
 21
96.4998802706
  0
LINE
  5
3B6
100
AcDbEntity
  8
0
100
AcDbLine
 62
7
  6
CONTINUOUS
 10
95.2398246475
 20
95.6445865708
 11
95.3392894387
 21
95.7496801698
  0
LINE
  5
3B7
100
AcDbEntity
  8
A_ACHSEN
100
AcDbLine
 62
3
  6
CONTINUOUS
 10
64.7532431515
 20
65.3935609183
 11
64.9958839699
 21
65.6362014742
  0
LINE
  5
3B8
100
AcDbEntity
  8
0
100
AcDbLine
 62
7
  6
CONTINUOUS
 10
94.6841741161
 20
98.9682649668
 11
94.7111473994
 21
98.9951107224
  0
LINE
  5
3B9
100
AcDbEntity
  8
0
100
AcDbLine
 62
7
  6
CONTINUOUS
 10
68.6734641397
 20
69.2918088484
 11
68.7853127049
 21
69.3907260098
  0
LINE
  5
3BA
100
AcDbEntity
  8
0
100
AcDbLine
 62
7
  6
CONTINUOUS
 10
99.6700966756
 20
99.5688053707
 11
99.5476414678
 21
99.4616791622
  0
LINE
  5
3BB
100
AcDbEntity
  8
0
100
AcDbLine
 62
7
  6
CONTINUOUS
 10
99.3883828464
 20
95.5436162158
 11
99.319283684
 21
95.4919943487
  0
LINE
  5
3BC
100
AcDbEntity
  8
0
100
AcDbLine
 62
7
  6
CONTINUOUS
 10
95.0272005052
 20
95.9268044562
 11
94.9826648915
 21
95.8976266516
  0
LINE
  5
3BD
100
AcDbEntity
  8
0
100
AcDbLine
 62
7
  6
CONTINUOUS
 10
104.4481307926
 20
94.2575077654
 11
104.7339820903
 21
94.4026079494
  0
LINE
  5
3BE
100
AcDbEntity
  8
0
100
AcDbLine
 62
7
  6
CONTINUOUS
 10
103.3671089069
 20
95.4361460363
 11
103.2423659741
 21
95.3802391722
  0
LINE
  5
3BF
100
AcDbEntity
  8
0
100
AcDbLine
 62
7
  6
CONTINUOUS
 10
79.8161802589
 20
69.4077754691
 11
80.157114695
 21
69.5036964943
  0
LINE
  5
3C0
100
AcDbEntity
  8
0
100
AcDbLine
 62
7
  6
CONTINUOUS
 10
72.3115592022
 20
65.9774196915
 11
72.3447755598
 21
65.9866152418
  0
LINE
  5
3C1
100
AcDbEntity
  8
0
100
AcDbLine
 62
7
  6
CONTINUOUS
 10
74.1108753695
 20
68.4848561123
 11
73.7650777493
 21
68.3895746889
  0
LINE
  5
3C2
100
AcDbEntity
  8
0
100
AcDbLine
 62
7
  6
CONTINUOUS
 10
69.5587315118
 20
68.9067584508
 11
69.5297670287
 21
68.8992850258
  0
LINE
  5
3C3
100
AcDbEntity
  8
0
100
AcDbLine
 62
7
  6
CONTINUOUS
 10
74.4428694718
 20
68.5610675662
 11
74.1108753695
 21
68.4848561123
  0
LINE
  5
3C4
100
AcDbEntity
  8
0
100
AcDbLine
 62
7
  6
CONTINUOUS
 10
73.9379635663
 20
69.2249964294
 11
74.7918996518
 21
69.4091649501
  0
LINE
  5
3C5
100
AcDbEntity
  8
0
100
AcDbLine
 62
7
  6
CONTINUOUS
 10
74.4670418999
 20
68.5658826099
 11
74.4428694718
 21
68.5610675662
  0
LINE
  5
3C6
100
AcDbEntity
  8
0
100
AcDbLine
 62
7
  6
CONTINUOUS
 10
74.7831684854
 20
68.7697594134
 11
74.7390875216
 21
68.7626707395
  0
LINE
  5
3C7
100
AcDbEntity
  8
0
100
AcDbLine
 62
7
  6
CONTINUOUS
 10
74.7918996518
 20
69.4091649501
 11
75.712200647
 21
69.5240935484
  0
LINE
  5
3C8
100
AcDbEntity
  8
0
100
AcDbLine
 62
7
  6
CONTINUOUS
 10
69.1066052271
 20
69.4863443878
 11
69.2684915376
 21
69.5061569322
  0
LINE
  5
3C9
100
AcDbEntity
  8
0
100
AcDbLine
 62
7
  6
CONTINUOUS
 10
75.9023131485
 20
68.8371771788
 11
75.5495255818
 21
68.7973597481
  0
LINE
  5
3CA
100
AcDbEntity
  8
0
100
AcDbLine
 62
7
  6
CONTINUOUS
 10
76.2764297462
 20
68.8699337416
 11
75.9023131485
 21
68.8371771788
  0
LINE
  5
3CB
100
AcDbEntity
  8
0
100
AcDbLine
 62
7
  6
CONTINUOUS
 10
79.2816452302
 20
68.6704267557
 11
79.2609656911
 21
68.6688208101
  0
LINE
  5
3CC
100
AcDbEntity
  8
0
100
AcDbLine
 62
7
  6
CONTINUOUS
 10
72.0716676909
 20
68.9112598421
 11
72.0140398398
 21
68.9072552735
  0
LINE
  5
3CD
100
AcDbEntity
  8
0
100
AcDbLine
 62
7
  6
CONTINUOUS
 10
75.712200647
 20
69.5240935484
 11
76.6482903059
 21
69.5741086834
  0
LINE
  5
3CE
100
AcDbEntity
  8
0
100
AcDbLine
 62
7
  6
CONTINUOUS
 10
77.0575544994
 20
68.9091643225
 11
76.2764297462
 21
68.8699337416
  0
LINE
  5
3CF
100
AcDbEntity
  8
0
100
AcDbLine
 62
7
  6
CONTINUOUS
 10
71.6450122963
 20
68.8986581749
 11
71.6073318301
 21
68.8967963414
  0
LINE
  5
3D0
100
AcDbEntity
  8
0
100
AcDbLine
 62
7
  6
CONTINUOUS
 10
80.157114695
 20
69.5036964943
 11
80.2373141569
 21
69.5055795523
  0
LINE
  5
3D1
100
AcDbEntity
  8
0
100
AcDbLine
 62
7
  6
CONTINUOUS
 10
69.2684915376
 20
69.5061569322
 11
72.014195301
 21
69.507374343
  0
LINE
  5
3D2
100
AcDbEntity
  8
0
100
AcDbLine
 62
3
  6
CONTINUOUS
 10
76.4603613586
 20
69.7574856484
 11
69.4603613586
 21
69.7574856484
  0
LINE
  5
3D3
100
AcDbEntity
  8
0
100
AcDbLine
 62
7
  6
CONTINUOUS
 10
69.4603613586
 20
69.7574856484
 11
66.4603522924
 21
69.7574856484
  0
LINE
  5
3D4
100
AcDbEntity
  8
0
100
AcDbLine
 62
7
  6
CONTINUOUS
 10
80.4603522924
 20
69.7575134558
 11
89.9603522924
 21
69.7575083189
  0
LINE
  5
3D5
100
AcDbEntity
  8
0
100
AcDbLine
 62
7
  6
CONTINUOUS
 10
88.4603525628
 20
70.25750913
 11
90.4603525628
 21
70.2575080486
  0
LINE
  5
3D6
100
AcDbEntity
  8
0
100
AcDbLine
 62
7
  6
CONTINUOUS
 10
93.4603525628
 20
70.2575064264
 11
95.4603525628
 21
70.257505345
  0
LINE
  5
3D7
100
AcDbEntity
  8
A_ACHSEN
100
AcDbLine
 62
7
  6
CENTER
 10
94.3657704783
 20
71.7575059368
 11
116.3009282676
 21
71.7574940761
  0
LINE
  5
3D8
100
AcDbEntity
  8
0
100
AcDbLine
 62
7
  6
CONTINUOUS
 10
70.1269089807
 20
73.7574856484
 11
69.4603613586
 21
73.7574856484
  0
LINE
  5
3D9
100
AcDbEntity
  8
0
100
AcDbLine
 62
7
  6
CONTINUOUS
 10
72.4603613586
 20
74.7574856484
 11
66.460354996
 21
74.7574856484
  0
LINE
  5
3DA
100
AcDbEntity
  8
0
100
AcDbLine
 62
7
  6
CONTINUOUS
 10
51.4603613586
 20
74.7574856484
 11
62.460354996
 21
74.7574856484
  0
LINE
  5
3DB
100
AcDbEntity
  8
0
100
AcDbLine
 62
7
  6
CONTINUOUS
 10
80.253565323
 20
69.5050042246
 11
80.4595933484
 21
69.5049454593
  0
LINE
  5
3DC
100
AcDbEntity
  8
0
100
AcDbLine
 62
7
  6
CONTINUOUS
 10
76.6482903059
 20
69.5741086834
 11
77.5496063804
 21
69.5635448182
  0
LINE
  5
3DD
100
AcDbEntity
  8
0
100
AcDbLine
 62
7
  6
CONTINUOUS
 10
83.4227111193
 20
65.3601912069
 11
83.3876112055
 21
65.4572751194
  0
LINE
  5
3DE
100
AcDbEntity
  8
0
100
AcDbLine
 62
7
  6
CONTINUOUS
 10
84.9413964495
 20
65.0844858291
 11
85.0177469933
 21
64.8217427696
  0
LINE
  5
3DF
100
AcDbEntity
  8
0
100
AcDbLine
 62
7
  6
CONTINUOUS
 10
85.9603504703
 20
66.7575129419
 11
85.9603492481
 21
63.7575129419
  0
LINE
  5
3E0
100
AcDbEntity
  8
0
100
AcDbLine
 62
7
  6
CONTINUOUS
 10
88.4603525628
 20
70.25750913
 11
88.4603613586
 21
92.2575106087
  0
LINE
  5
3E1
100
AcDbEntity
  8
0
100
AcDbLine
 62
7
  6
CONTINUOUS
 10
89.075606676
 20
95.3757614381
 11
89.0752874291
 21
94.2704763007
  0
LINE
  5
3E2
100
AcDbEntity
  8
0
100
AcDbLine
 62
7
  6
CONTINUOUS
 10
85.0177469933
 20
64.8217427696
 11
84.99944074
 21
64.5617584957
  0
LINE
  5
3E3
100
AcDbEntity
  8
0
100
AcDbLine
 62
7
  6
CONTINUOUS
 10
89.4727205946
 20
99.0493337543
 11
89.4745402232
 21
99.0749752785
  0
LINE
  5
3E4
100
AcDbEntity
  8
0
100
AcDbLine
 62
7
  6
CONTINUOUS
 10
89.0896032024
 20
95.5339404684
 11
89.075606676
 21
95.3757614381
  0
LINE
  5
3E5
100
AcDbEntity
  8
0
100
AcDbLine
 62
7
  6
CONTINUOUS
 10
91.3585614854
 20
98.8934548992
 11
91.3572415307
 21
98.8793835192
  0
LINE
  5
3E6
100
AcDbEntity
  8
0
100
AcDbLine
 62
7
  6
CONTINUOUS
 10
91.3265593381
 20
98.7896096948
 11
91.3231553568
 21
98.7547597148
  0
LINE
  5
3E7
100
AcDbEntity
  8
0
100
AcDbLine
 62
7
  6
CONTINUOUS
 10
90.24193543
 20
97.1264398127
 11
90.2330314932
 21
97.0357792492
  0
LINE
  5
3E8
100
AcDbEntity
  8
0
100
AcDbLine
 62
7
  6
CONTINUOUS
 10
90.7739464881
 20
97.0115257533
 11
90.7880190563
 21
97.0930338023
  0
LINE
  5
3E9
100
AcDbEntity
  8
0
100
AcDbLine
 62
7
  6
CONTINUOUS
 10
92.1118056606
 20
95.9293233233
 11
92.0793210488
 21
95.7923089788
  0
LINE
  5
3EA
100
AcDbEntity
  8
0
100
AcDbLine
 62
7
  6
CONTINUOUS
 10
91.3572415307
 20
98.8793835192
 11
91.3397381425
 21
98.8181194847
  0
LINE
  5
3EB
100
AcDbEntity
  8
0
100
AcDbLine
 62
7
  6
CONTINUOUS
 10
90.7423939353
 20
96.9230046788
 11
90.7739464881
 21
97.0115257533
  0
LINE
  5
3EC
100
AcDbEntity
  8
0
100
AcDbLine
 62
7
  6
CONTINUOUS
 10
79.4316442355
 20
65.3626917448
 11
79.4617795387
 21
65.4451174124
  0
LINE
  5
3ED
100
AcDbEntity
  8
0
100
AcDbLine
 62
7
  6
CONTINUOUS
 10
92.1584058065
 20
96.0505677252
 11
92.1118056606
 21
95.9293233233
  0
LINE
  5
3EE
100
AcDbEntity
  8
0
100
AcDbLine
 62
7
  6
CONTINUOUS
 10
95.3799218264
 20
95.821384854
 11
95.4138061225
 21
95.9073205988
  0
LINE
  5
3EF
100
AcDbEntity
  8
0
100
AcDbLine
 62
7
  6
CONTINUOUS
 10
92.0527713547
 20
95.5234013351
 11
92.0419897422
 21
95.5011812346
  0
LINE
  5
3F0
100
AcDbEntity
  8
0
100
AcDbLine
 62
7
  6
CONTINUOUS
 10
94.9680742169
 20
98.7592485753
 11
94.9423433739
 21
98.7065221759
  0
LINE
  5
3F1
100
AcDbEntity
  8
0
100
AcDbLine
 62
7
  6
CONTINUOUS
 10
94.9423433739
 20
98.7065221759
 11
94.9314596956
 21
98.684531046
  0
LINE
  5
3F2
100
AcDbEntity
  8
0
100
AcDbLine
 62
7
  6
CONTINUOUS
 10
95.3392894387
 20
95.7496801698
 11
95.3799218264
 21
95.821384854
  0
LINE
  5
3F3
100
AcDbEntity
  8
0
100
AcDbLine
 62
7
  6
CONTINUOUS
 10
99.4400449928
 20
95.6126830707
 11
99.3883828464
 21
95.5436162158
  0
LINE
  5
3F4
100
AcDbEntity
  8
0
100
AcDbLine
 62
7
  6
CONTINUOUS
 10
75.0187997408
 20
65.6768130314
 11
75.048634762
 21
65.7150036108
  0
LINE
  5
3F5
100
AcDbEntity
  8
0
100
AcDbLine
 62
7
  6
CONTINUOUS
 10
72.9080079036
 20
65.4011681512
 11
72.8720057975
 21
65.3597937986
  0
LINE
  5
3F6
100
AcDbEntity
  8
0
100
AcDbLine
 62
7
  6
CONTINUOUS
 10
70.4439237881
 20
66.2498887433
 11
70.3331800802
 21
66.1271208986
  0
LINE
  5
3F7
100
AcDbEntity
  8
0
100
AcDbLine
 62
7
  6
CONTINUOUS
 10
75.3308886783
 20
65.499688752
 11
75.2314238894
 21
65.3945951508
  0
LINE
  5
3F8
100
AcDbEntity
  8
0
100
AcDbLine
 62
7
  6
CONTINUOUS
 10
70.3331800802
 20
66.1271208986
 11
70.2082442935
 21
65.9976689733
  0
LINE
  5
3F9
100
AcDbEntity
  8
0
100
AcDbLine
 62
7
  6
CONTINUOUS
 10
74.7027465663
 20
68.7451192905
 11
74.6757732835
 21
68.7182735344
  0
LINE
  5
3FA
100
AcDbEntity
  8
0
100
AcDbLine
 62
7
  6
CONTINUOUS
 10
70.2082442935
 20
65.9976689733
 11
70.0696574132
 21
65.8615841229
  0
LINE
  5
3FB
100
AcDbEntity
  8
0
100
AcDbLine
 62
7
  6
CONTINUOUS
 10
69.2443616606
 20
65.5719168321
 11
69.6308436515
 21
65.944167964
  0
LINE
  5
3FC
100
AcDbEntity
  8
0
100
AcDbLine
 62
7
  6
CONTINUOUS
 10
69.1768520941
 20
65.51127042
 11
69.1899245414
 21
65.523629179
  0
LINE
  5
3FD
100
AcDbEntity
  8
0
100
AcDbLine
 62
7
  6
CONTINUOUS
 10
70.0696574132
 20
65.8615841229
 11
69.9179724229
 21
65.7189235064
  0
LINE
  5
3FE
100
AcDbEntity
  8
0
100
AcDbLine
 62
7
  6
CONTINUOUS
 10
69.9179724229
 20
65.7189235064
 11
69.7537353071
 21
65.5697412808
  0
LINE
  5
3FF
100
AcDbEntity
  8
0
100
AcDbLine
 62
7
  6
CONTINUOUS
 10
69.7537353071
 20
65.5697412808
 11
69.6670834474
 21
65.4927213645
  0
LINE
  5
400
100
AcDbEntity
  8
0
100
AcDbLine
 62
7
  6
CONTINUOUS
 10
69.1899245414
 20
65.523629179
 11
69.2443616606
 21
65.5719168321
  0
LINE
  5
401
100
AcDbEntity
  8
0
100
AcDbLine
 62
7
  6
CONTINUOUS
 10
69.6670834474
 20
65.4927213645
 11
69.6119680334
 21
65.4442360848
  0
LINE
  5
402
100
AcDbEntity
  8
0
100
AcDbLine
 62
7
  6
CONTINUOUS
 10
72.211701843
 20
65.8986569785
 11
72.2894834327
 21
65.9661803441
  0
LINE
  5
403
100
AcDbEntity
  8
0
100
AcDbLine
 62
7
  6
CONTINUOUS
 10
72.5745388136
 20
68.5839574079
 11
72.6314331164
 21
68.6316067674
  0
LINE
  5
404
100
AcDbEntity
  8
0
100
AcDbLine
 62
7
  6
CONTINUOUS
 10
72.566304763
 20
68.5771760402
 11
72.5745388136
 21
68.5839574079
  0
LINE
  5
405
100
AcDbEntity
  8
0
100
AcDbLine
 62
7
  6
CONTINUOUS
 10
72.011679049
 20
65.2335814429
 11
72.0335889874
 21
65.2511897429
  0
LINE
  5
406
100
AcDbEntity
  8
0
100
AcDbLine
 62
7
  6
CONTINUOUS
 10
74.6350556772
 20
68.6612478254
 11
74.5643571239
 21
68.6109894969
  0
LINE
  5
407
100
AcDbEntity
  8
0
100
AcDbLine
 62
7
  6
CONTINUOUS
 10
69.5297670287
 20
68.8992850258
 11
69.4879464846
 21
68.8698680009
  0
LINE
  5
408
100
AcDbEntity
  8
0
100
AcDbLine
 62
7
  6
CONTINUOUS
 10
72.6314331164
 20
68.6316067674
 11
72.8920969991
 21
68.8094387176
  0
LINE
  5
409
100
AcDbEntity
  8
0
100
AcDbLine
 62
7
  6
CONTINUOUS
 10
99.4603559423
 20
76.5075066264
 11
100.4603546923
 21
76.5075062015
  0
LINE
  5
40A
100
AcDbEntity
  8
A_ACHSEN
100
AcDbLine
 62
8
  6
HIDDEN
 10
95.4603566993
 20
77.907505345
 11
96.4603566993
 21
77.9075048043
  0
LINE
  5
40B
100
AcDbEntity
  8
A_ACHSEN
100
AcDbLine
 62
8
  6
HIDDEN
 10
95.4603570778
 20
78.607505345
 11
96.4603570778
 21
78.6075048043
  0
LINE
  5
40C
100
AcDbEntity
  8
DEFAULT_2
100
AcDbLine
 62
8
  6
HIDDEN
 10
99.4603579085
 20
80.1438825141
 11
97.4213193976
 21
80.1438836167
  0
LINE
  5
40D
100
AcDbEntity
  8
0
100
AcDbLine
 62
7
  6
CONTINUOUS
 10
90.7884297905
 20
97.1356999222
 11
90.7823166169
 21
97.1954361672
  0
LINE
  5
40E
100
AcDbEntity
  8
0
100
AcDbLine
 62
7
  6
CONTINUOUS
 10
92.3300987315
 20
99.428418224
 11
92.3215278346
 21
99.5324117642
  0
LINE
  5
40F
100
AcDbEntity
  8
0
100
AcDbLine
 62
7
  6
CONTINUOUS
 10
91.3587096558
 20
98.9067759424
 11
91.356538983
 21
98.9334653195
  0
LINE
  5
410
100
AcDbEntity
  8
0
100
AcDbLine
 62
7
  6
CONTINUOUS
 10
94.9304272707
 20
97.0859266832
 11
94.9340060763
 21
96.8048497004
  0
LINE
  5
411
100
AcDbEntity
  8
0
100
AcDbLine
 62
7
  6
CONTINUOUS
 10
94.9277398982
 20
97.6889919355
 11
94.9304272707
 21
97.0859266832
  0
LINE
  5
412
100
AcDbEntity
  8
0
100
AcDbLine
 62
7
  6
CONTINUOUS
 10
90.4603641883
 20
91.7575080486
 11
90.4603525628
 21
70.2575080486
  0
LINE
  5
413
100
AcDbEntity
  8
A_RUNDUNGEN
100
AcDbLine
 62
7
  6
CONTINUOUS
 10
90.4603531035
 20
71.2575080486
 11
90.4603641883
 21
91.7575080486
  0
LINE
  5
414
100
AcDbEntity
  8
0
100
AcDbLine
 62
7
  6
CONTINUOUS
 10
93.4603641883
 20
91.7575064264
 11
93.4603531035
 21
71.2575064264
  0
LINE
  5
415
100
AcDbEntity
  8
0
100
AcDbLine
 62
3
  6
CONTINUOUS
 10
93.4603525628
 20
70.2575064264
 11
93.4603531035
 21
71.2575064264
  0
LINE
  5
416
100
AcDbEntity
  8
A_RUNDUNGEN
100
AcDbLine
 62
3
  6
CONTINUOUS
 10
93.4603531035
 20
71.2575064264
 11
93.4603641883
 21
91.7575064264
  0
LINE
  5
417
100
AcDbEntity
  8
0
100
AcDbLine
 62
7
  6
CONTINUOUS
 10
94.9279655813
 20
97.9788050124
 11
94.9277398982
 21
97.6889919355
  0
LINE
  5
418
100
AcDbEntity
  8
0
100
AcDbLine
 62
7
  6
CONTINUOUS
 10
94.9308706095
 20
98.6083048735
 11
94.9279655813
 21
97.9788050124
  0
LINE
  5
419
100
AcDbEntity
  8
0
100
AcDbLine
 62
7
  6
CONTINUOUS
 10
94.9314596956
 20
98.684531046
 11
94.9308706095
 21
98.6083048735
  0
LINE
  5
41A
100
AcDbEntity
  8
0
100
AcDbLine
 62
7
  6
CONTINUOUS
 10
90.7880190563
 20
97.0930338023
 11
90.7884297905
 21
97.1356999222
  0
LINE
  5
41B
100
AcDbEntity
  8
0
100
AcDbLine
 62
7
  6
CONTINUOUS
 10
91.3587096558
 20
98.9067759424
 11
91.3585614854
 21
98.8934548992
  0
LINE
  5
41C
100
AcDbEntity
  8
0
100
AcDbLine
 62
7
  6
CONTINUOUS
 10
92.8799724309
 20
95.5789101454
 11
92.8804065548
 21
95.6097852715
  0
LINE
  5
41D
100
AcDbEntity
  8
0
100
AcDbLine
 62
7
  6
CONTINUOUS
 10
95.4710517792
 20
96.2981080722
 11
95.4713571549
 21
96.3107151605
  0
LINE
  5
41E
100
AcDbEntity
  8
0
100
AcDbLine
 62
7
  6
CONTINUOUS
 10
94.9841068097
 20
98.8684991889
 11
94.9824894228
 21
98.8141897217
  0
LINE
  5
41F
100
AcDbEntity
  8
0
100
AcDbLine
 62
7
  6
CONTINUOUS
 10
95.4713571549
 20
96.3107151605
 11
95.4742340132
 21
96.4016479913
  0
LINE
  5
420
100
AcDbEntity
  8
0
100
AcDbLine
 62
7
  6
CONTINUOUS
 10
95.4742340132
 20
96.4016479913
 11
95.5579264161
 21
99.047351161
  0
LINE
  5
421
100
AcDbEntity
  8
0
100
AcDbLine
 62
7
  6
CONTINUOUS
 10
95.4697763188
 20
96.261446704
 11
95.4710517792
 21
96.2981080722
  0
LINE
  5
422
100
AcDbEntity
  8
0
100
AcDbLine
 62
7
  6
CONTINUOUS
 10
92.0549129824
 20
95.5733949528
 11
92.0534814943
 21
95.5368295398
  0
LINE
  5
423
100
AcDbEntity
  8
0
100
AcDbLine
 62
7
  6
CONTINUOUS
 10
92.0534814943
 20
95.5368295398
 11
92.0527713547
 21
95.5234013351
  0
LINE
  5
424
100
AcDbEntity
  8
0
100
AcDbLine
 62
7
  6
CONTINUOUS
 10
92.0599688454
 20
95.6469194093
 11
92.0549129824
 21
95.5733949528
  0
LINE
  5
425
100
AcDbEntity
  8
0
100
AcDbLine
 62
7
  6
CONTINUOUS
 10
95.4592491829
 20
96.126258672
 11
95.4697763188
 21
96.261446704
  0
LINE
  5
426
100
AcDbEntity
  8
0
100
AcDbLine
 62
7
  6
CONTINUOUS
 10
92.0793210488
 20
95.7923089788
 11
92.0599688454
 21
95.6469194093
  0
LINE
  5
427
100
AcDbEntity
  8
0
100
AcDbLine
 62
7
  6
CONTINUOUS
 10
95.4404190127
 20
96.0085812537
 11
95.4592491829
 21
96.126258672
  0
LINE
  5
428
100
AcDbEntity
  8
0
100
AcDbLine
 62
7
  6
CONTINUOUS
 10
94.9824894228
 20
98.8141897217
 11
94.9680742169
 21
98.7592485753
  0
LINE
  5
429
100
AcDbEntity
  8
0
100
AcDbLine
 62
7
  6
CONTINUOUS
 10
95.4138061225
 20
95.9073205988
 11
95.4404190127
 21
96.0085812537
  0
LINE
  5
42A
100
AcDbEntity
  8
0
100
AcDbLine
 62
7
  6
CONTINUOUS
 10
95.0700998201
 20
96.0091977925
 11
95.0570355272
 21
95.9649950349
  0
LINE
  5
42B
100
AcDbEntity
  8
0
100
AcDbLine
 62
7
  6
CONTINUOUS
 10
99.4701802979
 20
95.6951087376
 11
99.4400449928
 21
95.6126830707
  0
LINE
  5
42C
100
AcDbEntity
  8
0
100
AcDbLine
 62
7
  6
CONTINUOUS
 10
84.99944074
 20
64.5617584957
 11
84.8972684912
 21
64.3330501109
  0
LINE
  5
42D
100
AcDbEntity
  8
0
100
AcDbLine
 62
7
  6
CONTINUOUS
 10
103.4337741078
 20
95.5258962053
 11
103.3671089069
 21
95.4361460363
  0
LINE
  5
42E
100
AcDbEntity
  8
0
100
AcDbLine
 62
7
  6
CONTINUOUS
 10
83.3587081535
 20
65.1861547984
 11
83.4253733524
 21
65.2759049688
  0
LINE
  5
42F
100
AcDbEntity
  8
0
100
AcDbLine
 62
7
  6
CONTINUOUS
 10
79.3799820906
 20
65.2936248887
 11
79.4316442355
 21
65.3626917448
  0
LINE
  5
430
100
AcDbEntity
  8
0
100
AcDbLine
 62
7
  6
CONTINUOUS
 10
104.7339820903
 20
94.4026079494
 11
104.9056692255
 21
94.5830413144
  0
LINE
  5
431
100
AcDbEntity
  8
A_ACHSEN
100
AcDbLine
 62
8
  6
HIDDEN
 10
96.4603570778
 20
78.6075048043
 11
98.6103582403
 21
80.7575036417
  0
LINE
  5
432
100
AcDbEntity
  8
0
100
AcDbLine
 62
7
  6
CONTINUOUS
 10
79.5392406242
 20
69.2116878387
 11
79.6616958296
 21
69.3188140499
  0
LINE
  5
433
100
AcDbEntity
  8
0
100
AcDbLine
 62
7
  6
CONTINUOUS
 10
79.3108829294
 20
65.2420030201
 11
79.3799820906
 21
65.2936248887
  0
LINE
  5
434
100
AcDbEntity
  8
0
100
AcDbLine
 62
7
  6
CONTINUOUS
 10
74.9742641278
 20
65.6476352258
 11
75.0187997408
 21
65.6768130314
  0
LINE
  5
435
100
AcDbEntity
  8
0
100
AcDbLine
 62
7
  6
CONTINUOUS
 10
79.6616958296
 20
69.3188140499
 11
79.8161802589
 21
69.4077754691
  0
LINE
  5
436
100
AcDbEntity
  8
0
100
AcDbLine
 62
7
  6
CONTINUOUS
 10
72.24177341
 20
69.0026937526
 11
72.0716676909
 21
68.9112598421
  0
LINE
  5
437
100
AcDbEntity
  8
0
100
AcDbLine
 62
7
  6
CONTINUOUS
 10
72.8920969991
 20
68.8094387176
 11
73.2009506392
 21
68.9672525219
  0
LINE
  5
438
100
AcDbEntity
  8
0
100
AcDbLine
 62
7
  6
CONTINUOUS
 10
72.2894834327
 20
65.9661803441
 11
72.3115592022
 21
65.9774196915
  0
LINE
  5
439
100
AcDbEntity
  8
0
100
AcDbLine
 62
7
  6
CONTINUOUS
 10
74.5643571239
 20
68.6109894969
 11
74.487857069
 21
68.572909501
  0
LINE
  5
43A
100
AcDbEntity
  8
0
100
AcDbLine
 62
7
  6
CONTINUOUS
 10
74.7390875216
 20
68.7626707395
 11
74.7027465663
 21
68.7451192905
  0
LINE
  5
43B
100
AcDbEntity
  8
DEFAULT_2
100
AcDbLine
 62
8
  6
HIDDEN
 10
98.5517917971
 20
80.7293771492
 11
98.6103582595
 21
80.7575036493
  0
LINE
  5
43C
100
AcDbEntity
  8
0
100
AcDbLine
 62
7
  6
CONTINUOUS
 10
72.6844755481
 20
68.0109989918
 11
72.5740992506
 21
67.9633232558
  0
LINE
  5
43D
100
AcDbEntity
  8
0
100
AcDbLine
 62
7
  6
CONTINUOUS
 10
72.8099838624
 20
68.0620960786
 11
72.6844755481
 21
68.0109989918
  0
LINE
  5
43E
100
AcDbEntity
  8
0
100
AcDbLine
 62
7
  6
CONTINUOUS
 10
73.2009506392
 20
68.9672525219
 11
73.5516798803
 21
69.1055913649
  0
LINE
  5
43F
100
AcDbEntity
  8
0
100
AcDbLine
 62
7
  6
CONTINUOUS
 10
73.0981145881
 20
68.1709149228
 11
72.8099838624
 21
68.0620960786
  0
LINE
  5
440
100
AcDbEntity
  8
0
100
AcDbLine
 62
7
  6
CONTINUOUS
 10
73.4219885196
 20
68.2825010437
 11
73.0981145881
 21
68.1709149228
  0
LINE
  5
441
100
AcDbEntity
  8
0
100
AcDbLine
 62
7
  6
CONTINUOUS
 10
74.487857069
 20
68.572909501
 11
74.4670418999
 21
68.5658826099
  0
LINE
  5
442
100
AcDbEntity
  8
0
100
AcDbLine
 62
7
  6
CONTINUOUS
 10
73.7650777493
 20
68.3895746889
 11
73.4219885196
 21
68.2825010437
  0
LINE
  5
443
100
AcDbEntity
  8
0
100
AcDbLine
 62
7
  6
CONTINUOUS
 10
73.5516798803
 20
69.1055913649
 11
73.9379635663
 21
69.2249964294
  0
LINE
  5
444
100
AcDbEntity
  8
0
100
AcDbLine
 62
7
  6
CONTINUOUS
 10
68.7853127049
 20
69.3907260098
 11
69.1066052271
 21
69.4863443878
  0
LINE
  5
445
100
AcDbEntity
  8
DEFAULT_2
100
AcDbLine
 62
8
  6
HIDDEN
 10
99.4603582403
 20
80.7575031821
 11
98.6103582403
 21
80.7575036417
  0
LINE
  5
446
100
AcDbEntity
  8
A_ACHSEN
100
AcDbLine
 62
7
  6
CENTER
 10
93.1236758843
 20
84.7575066085
 11
115.5977005843
 21
84.7574944563
  0
LINE
  5
447
100
AcDbEntity
  8
A_ACHSEN
100
AcDbLine
 62
8
  6
HIDDEN
 10
96.4603566993
 20
77.9075048043
 11
99.4603552664
 21
75.2575031821
  0
LINE
  5
448
100
AcDbEntity
  8
0
100
AcDbLine
 62
7
  6
CONTINUOUS
 10
90.7823166169
 20
97.1954361672
 11
90.7469012759
 21
97.3287979913
  0
LINE
  5
449
100
AcDbEntity
  8
0
100
AcDbLine
 62
7
  6
CONTINUOUS
 10
89.4748981249
 20
99.0317771433
 11
89.4727205946
 21
99.0493337543
  0
LINE
  5
44A
100
AcDbEntity
  8
0
100
AcDbLine
 62
7
  6
CONTINUOUS
 10
94.9521978401
 20
96.290864909
 11
94.9577564679
 21
96.2365055048
  0
LINE
  5
44B
100
AcDbEntity
  8
0
100
AcDbLine
 62
7
  6
CONTINUOUS
 10
95.0656758241
 20
96.0578815227
 11
95.0700998201
 21
96.0091977925
  0
LINE
  5
44C
100
AcDbEntity
  8
0
100
AcDbLine
 62
7
  6
CONTINUOUS
 10
94.9473357995
 20
96.3640525143
 11
94.9521978401
 21
96.290864909
  0
LINE
  5
44D
100
AcDbEntity
  8
0
100
AcDbLine
 62
7
  6
CONTINUOUS
 10
94.9431289249
 20
96.4540553086
 11
94.9473357995
 21
96.3640525143
  0
LINE
  5
44E
100
AcDbEntity
  8
0
100
AcDbLine
 62
7
  6
CONTINUOUS
 10
99.5399275164
 20
98.7484289151
 11
99.5437861891
 21
98.6486930203
  0
LINE
  5
44F
100
AcDbEntity
  8
0
100
AcDbLine
 62
7
  6
CONTINUOUS
 10
94.9395317943
 20
96.5588622788
 11
94.9431289249
 21
96.4540553086
  0
LINE
  5
450
100
AcDbEntity
  8
0
100
AcDbLine
 62
7
  6
CONTINUOUS
 10
94.9340060763
 20
96.8048497004
 11
94.9395317943
 21
96.5588622788
  0
LINE
  5
451
100
AcDbEntity
  8
0
100
AcDbLine
 62
7
  6
CONTINUOUS
 10
100.4773348382
 20
97.783916366
 11
100.4687529868
 21
99.7208889789
  0
LINE
  5
452
100
AcDbEntity
  8
0
100
AcDbLine
 62
7
  6
CONTINUOUS
 10
95.4603641883
 20
91.757505345
 11
95.4603576996
 21
79.757505345
  0
LINE
  5
453
100
AcDbEntity
  8
0
100
AcDbLine
 62
3
  6
CONTINUOUS
 10
95.4603493185
 20
64.257505345
 11
95.4603576996
 21
79.757505345
  0
LINE
  5
454
100
AcDbEntity
  8
A_ACHSEN
100
AcDbLine
 62
8
  6
HIDDEN
 10
95.4603500484
 20
65.607505345
 11
95.4603576996
 21
79.757505345
  0
LINE
  5
455
100
AcDbEntity
  8
A_ACHSEN
100
AcDbLine
 62
3
  6
CONTINUOUS
 10
95.4603576996
 20
79.757505345
 11
95.4603641883
 21
91.757505345
  0
LINE
  5
456
100
AcDbEntity
  8
0
100
AcDbLine
 62
7
  6
CONTINUOUS
 10
96.4050783586
 20
133.2574856484
 11
96.4050783586
 21
101.7574856484
  0
LINE
  5
457
100
AcDbEntity
  8
A_ACHSEN
100
AcDbLine
 62
8
  6
HIDDEN
 10
96.4603637287
 20
90.9075048043
 11
96.4603570778
 21
78.6075048043
  0
LINE
  5
458
100
AcDbEntity
  8
A_ACHSEN
100
AcDbLine
 62
8
  6
HIDDEN
 10
96.4603500484
 20
65.6075048043
 11
96.4603566993
 21
77.9075048043
  0
LINE
  5
459
100
AcDbEntity
  8
A_ACHSEN
100
AcDbLine
 62
8
  6
HIDDEN
 10
99.4603576996
 20
79.7575031821
 11
99.4603566182
 21
77.7575031821
  0
LINE
  5
45A
100
AcDbEntity
  8
A_ACHSEN
100
AcDbLine
 62
8
  6
HIDDEN
 10
99.4603552664
 20
75.2575031821
 11
99.4603514813
 21
68.2575031821
  0
LINE
  5
45B
100
AcDbEntity
  8
0
100
AcDbLine
 62
7
  6
CONTINUOUS
 10
99.4603468852
 20
59.7575035422
 11
99.4603576996
 21
79.7575031821
  0
LINE
  5
45C
100
AcDbEntity
  8
DEFAULT_2
100
AcDbLine
 62
8
  6
HIDDEN
 10
99.4603579086
 20
80.1440052616
 11
99.4603628978
 21
89.3710011026
  0
LINE
  5
45D
100
AcDbEntity
  8
A_ACHSEN
100
AcDbLine
 62
7
  6
CONTINUOUS
 10
99.4603576996
 20
79.7575031821
 11
99.4603641883
 21
91.7575031821
  0
LINE
  5
45E
100
AcDbEntity
  8
0
100
AcDbLine
 62
7
  6
CONTINUOUS
 10
100.4603546923
 20
76.5075062015
 11
100.4603565811
 21
81.7575062015
  0
LINE
  5
45F
100
AcDbEntity
  8
0
100
AcDbLine
 62
7
  6
CONTINUOUS
 10
100.4603580625
 20
83.7575062015
 11
100.4603599513
 21
89.0075062015
  0
LINE
  5
460
100
AcDbEntity
  8
0
100
AcDbLine
 62
7
  6
CONTINUOUS
 10
100.4679930622
 20
97.2575061958
 11
100.4680026174
 21
118.2575091958
  0
LINE
  5
461
100
AcDbEntity
  8
0
100
AcDbLine
 62
7
  6
CONTINUOUS
 10
99.4768624394
 20
97.7295047427
 11
99.4768580634
 21
97.7168987409
  0
LINE
  5
462
100
AcDbEntity
  8
0
100
AcDbLine
 62
7
  6
CONTINUOUS
 10
99.4768580634
 20
97.7168987409
 11
99.4762985738
 21
95.7776324999
  0
LINE
  5
463
100
AcDbEntity
  8
0
100
AcDbLine
 62
7
  6
CONTINUOUS
 10
100.4770985222
 20
96.9675822643
 11
100.4773348382
 21
97.783916366
  0
LINE
  5
464
100
AcDbEntity
  8
0
100
AcDbLine
 62
7
  6
CONTINUOUS
 10
99.5437861891
 20
98.6486930203
 11
99.5432037842
 21
98.5763339946
  0
LINE
  5
465
100
AcDbEntity
  8
0
100
AcDbLine
 62
7
  6
CONTINUOUS
 10
99.4762985738
 20
95.7776324999
 11
99.4701802979
 21
95.6951087376
  0
LINE
  5
466
100
AcDbEntity
  8
0
100
AcDbLine
 62
7
  6
CONTINUOUS
 10
99.5432037842
 20
98.5763339946
 11
99.5328768733
 21
98.4445618756
  0
LINE
  5
467
100
AcDbEntity
  8
0
100
AcDbLine
 62
7
  6
CONTINUOUS
 10
99.5328768733
 20
98.4445618756
 11
99.4768624394
 21
97.7295047427
  0
LINE
  5
468
100
AcDbEntity
  8
0
100
AcDbLine
 62
7
  6
CONTINUOUS
 10
104.9056692255
 20
94.5830413144
 11
105.0078414794
 21
94.8117496969
  0
LINE
  5
469
100
AcDbEntity
  8
0
100
AcDbLine
 62
7
  6
CONTINUOUS
 10
84.8972684912
 20
64.3330501109
 11
84.7255813601
 21
64.1526167421
  0
LINE
  5
46A
100
AcDbEntity
  8
0
100
AcDbLine
 62
7
  6
CONTINUOUS
 10
100.4603565811
 20
81.7575062015
 11
101.4603573218
 21
82.7575054607
  0
LINE
  5
46B
100
AcDbEntity
  8
0
100
AcDbLine
 62
7
  6
CONTINUOUS
 10
75.2314238894
 20
65.3945951508
 11
75.1111415068
 21
65.3333015661
  0
LINE
  5
46C
100
AcDbEntity
  8
0
100
AcDbLine
 62
7
  6
CONTINUOUS
 10
83.233965222
 20
65.1302479315
 11
83.3587081535
 21
65.1861547984
  0
LINE
  5
46D
100
AcDbEntity
  8
0
100
AcDbLine
 62
7
  6
CONTINUOUS
 10
79.2284405767
 20
65.211914316
 11
79.3108829294
 21
65.2420030201
  0
LINE
  5
46E
100
AcDbEntity
  8
0
100
AcDbLine
 62
7
  6
CONTINUOUS
 10
82.5337353258
 20
66.5871386703
 11
83.0202077492
 21
66.7575120716
  0
LINE
  5
46F
100
AcDbEntity
  8
0
100
AcDbLine
 62
7
  6
CONTINUOUS
 10
71.949826258
 20
65.2119766589
 11
72.011679049
 21
65.2335814429
  0
LINE
  5
470
100
AcDbEntity
  8
0
100
AcDbLine
 62
7
  6
CONTINUOUS
 10
72.945404368
 20
65.4134709035
 11
72.9080079036
 21
65.4011681512
  0
LINE
  5
471
100
AcDbEntity
  8
DEFAULT_2
100
AcDbLine
 62
8
  6
HIDDEN
 10
99.4603625661
 20
88.7575031821
 11
98.6103625661
 21
88.7575036417
  0
LINE
  5
472
100
AcDbEntity
  8
0
100
AcDbLine
 62
7
  6
CONTINUOUS
 10
100.4603599513
 20
89.0075062015
 11
99.4603627013
 21
89.0075066264
  0
LINE
  5
473
100
AcDbEntity
  8
DEFAULT_2
100
AcDbLine
 62
8
  6
HIDDEN
 10
99.4603628979
 20
89.3711238501
 11
97.421324387
 21
89.3711249526
  0
LINE
  5
474
100
AcDbEntity
  8
A_ACHSEN
100
AcDbLine
 62
8
  6
HIDDEN
 10
95.4603637287
 20
90.907505345
 11
96.4603637287
 21
90.9075048043
  0
LINE
  5
475
100
AcDbEntity
  8
0
100
AcDbLine
 62
7
  6
CONTINUOUS
 10
101.4603573218
 20
82.7575054607
 11
100.4603580625
 21
83.7575062015
  0
LINE
  5
476
100
AcDbEntity
  8
0
100
AcDbLine
 62
7
  6
CONTINUOUS
 10
89.8473582007
 20
97.788084405
 11
90.0431119911
 21
97.5279586705
  0
LINE
  5
477
100
AcDbEntity
  8
0
100
AcDbLine
 62
7
  6
CONTINUOUS
 10
90.491521138
 20
97.8092655932
 11
90.3701446626
 21
97.9848237065
  0
LINE
  5
478
100
AcDbEntity
  8
0
100
AcDbLine
 62
7
  6
CONTINUOUS
 10
88.7397702014
 20
99.1758200471
 11
88.9089122027
 21
98.9288706627
  0
LINE
  5
479
100
AcDbEntity
  8
0
100
AcDbLine
 62
7
  6
CONTINUOUS
 10
90.5974660538
 20
97.6391300437
 11
90.491521138
 21
97.8092655932
  0
LINE
  5
47A
100
AcDbEntity
  8
0
100
AcDbLine
 62
7
  6
CONTINUOUS
 10
90.0431119911
 20
97.5279586705
 11
90.1815936143
 21
97.3031904727
  0
LINE
  5
47B
100
AcDbEntity
  8
0
100
AcDbLine
 62
7
  6
CONTINUOUS
 10
90.6839384274
 20
97.4778348966
 11
90.5974660538
 21
97.6391300437
  0
LINE
  5
47C
100
AcDbEntity
  8
0
100
AcDbLine
 62
7
  6
CONTINUOUS
 10
88.6385448822
 20
99.3821439549
 11
88.7397702014
 21
99.1758200471
  0
LINE
  5
47D
100
AcDbEntity
  8
0
100
AcDbLine
 62
7
  6
CONTINUOUS
 10
89.0752874291
 20
94.2704763007
 11
89.0812150802
 21
94.2577770042
  0
LINE
  5
47E
100
AcDbEntity
  8
0
100
AcDbLine
 62
7
  6
CONTINUOUS
 10
92.3215278346
 20
99.5324117642
 11
92.2794021925
 21
99.6250786576
  0
LINE
  5
47F
100
AcDbEntity
  8
0
100
AcDbLine
 62
7
  6
CONTINUOUS
 10
90.7469012759
 20
97.3287979913
 11
90.6839384274
 21
97.4778348966
  0
LINE
  5
480
100
AcDbEntity
  8
0
100
AcDbLine
 62
7
  6
CONTINUOUS
 10
94.7680023204
 20
95.9830649428
 11
94.7572904507
 21
96.0094415033
  0
LINE
  5
481
100
AcDbEntity
  8
0
100
AcDbLine
 62
7
  6
CONTINUOUS
 10
92.9000548309
 20
95.5219155066
 11
92.8799724309
 21
95.5789101454
  0
LINE
  5
482
100
AcDbEntity
  8
0
100
AcDbLine
 62
7
  6
CONTINUOUS
 10
90.1815936143
 20
97.3031904727
 11
90.24193543
 21
97.1264398127
  0
LINE
  5
483
100
AcDbEntity
  8
0
100
AcDbLine
 62
7
  6
CONTINUOUS
 10
91.3424066708
 20
98.9832472587
 11
91.356538983
 21
98.9334653195
  0
LINE
  5
484
100
AcDbEntity
  8
0
100
AcDbLine
 62
7
  6
CONTINUOUS
 10
91.3231553568
 20
98.7547597148
 11
91.3317292086
 21
98.7204921782
  0
LINE
  5
485
100
AcDbEntity
  8
0
100
AcDbLine
 62
7
  6
CONTINUOUS
 10
94.9714461964
 20
98.9193285513
 11
94.9841068097
 21
98.8684991889
  0
LINE
  5
486
100
AcDbEntity
  8
0
100
AcDbLine
 62
7
  6
CONTINUOUS
 10
94.9577564679
 20
96.2365055048
 11
94.964052105
 21
96.2029843133
  0
LINE
  5
487
100
AcDbEntity
  8
0
100
AcDbLine
 62
7
  6
CONTINUOUS
 10
103.4311118766
 20
95.6101824434
 11
103.4337741078
 21
95.5258962053
  0
LINE
  5
488
100
AcDbEntity
  8
0
100
AcDbLine
 62
7
  6
CONTINUOUS
 10
102.5421361106
 20
96.8371299267
 11
102.5424543187
 21
96.8259710177
  0
LINE
  5
489
100
AcDbEntity
  8
0
100
AcDbLine
 62
7
  6
CONTINUOUS
 10
100.4687529868
 20
99.7208889789
 11
100.4679941986
 21
99.7549367621
  0
LINE
  5
48A
100
AcDbEntity
  8
0
100
AcDbLine
 62
7
  6
CONTINUOUS
 10
105.9679918401
 20
94.2575041218
 11
105.9679930622
 21
97.2575041218
  0
LINE
  5
48B
100
AcDbEntity
  8
0
100
AcDbLine
 62
7
  6
CONTINUOUS
 10
105.0078414794
 20
94.8117496969
 11
105.0261477385
 21
95.0717339704
  0
LINE
  5
48C
100
AcDbEntity
  8
A_ACHSEN
100
AcDbLine
 62
8
  6
HIDDEN
 10
96.4603500484
 20
65.6075048043
 11
99.4603514813
 21
68.2575031821
  0
LINE
  5
48D
100
AcDbEntity
  8
0
100
AcDbLine
 62
7
  6
CONTINUOUS
 10
84.7255813601
 20
64.1526167421
 11
84.4397300656
 21
64.0075165517
  0
LINE
  5
48E
100
AcDbEntity
  8
0
100
AcDbLine
 62
7
  6
CONTINUOUS
 10
100.1655155451
 20
99.7536878039
 11
99.8245811069
 21
99.6577667864
  0
LINE
  5
48F
100
AcDbEntity
  8
0
100
AcDbLine
 62
7
  6
CONTINUOUS
 10
92.3531763311
 20
96.2366067265
 11
92.3199599733
 21
96.2274111769
  0
LINE
  5
490
100
AcDbEntity
  8
0
100
AcDbLine
 62
7
  6
CONTINUOUS
 10
93.7734785745
 20
98.6395661417
 11
94.1192761968
 21
98.7348475574
  0
LINE
  5
491
100
AcDbEntity
  8
0
100
AcDbLine
 62
7
  6
CONTINUOUS
 10
95.0528811354
 20
95.5663368241
 11
95.1195422635
 21
95.5832929889
  0
LINE
  5
492
100
AcDbEntity
  8
0
100
AcDbLine
 62
7
  6
CONTINUOUS
 10
94.9826648915
 20
95.8976266516
 11
94.932744966
 21
95.8869252999
  0
LINE
  5
493
100
AcDbEntity
  8
0
100
AcDbLine
 62
7
  6
CONTINUOUS
 10
95.0305460712
 20
95.5624551917
 11
95.0528811354
 21
95.5663368241
  0
LINE
  5
494
100
AcDbEntity
  8
0
100
AcDbLine
 62
7
  6
CONTINUOUS
 10
92.4009990787
 20
96.2444484752
 11
92.3531763311
 21
96.2366067265
  0
LINE
  5
495
100
AcDbEntity
  8
0
100
AcDbLine
 62
7
  6
CONTINUOUS
 10
99.2368413307
 20
95.4619056465
 11
99.1918899655
 21
95.4562127234
  0
LINE
  5
496
100
AcDbEntity
  8
0
100
AcDbLine
 62
7
  6
CONTINUOUS
 10
104.3297164097
 20
95.7789007859
 11
104.199576891
 21
95.7632943721
  0
LINE
  5
497
100
AcDbEntity
  8
0
100
AcDbLine
 62
7
  6
CONTINUOUS
 10
92.9538051265
 20
95.6634623747
 11
93.0051605438
 21
95.6689751389
  0
LINE
  5
498
100
AcDbEntity
  8
0
100
AcDbLine
 62
7
  6
CONTINUOUS
 10
92.4616052199
 20
96.2509228988
 11
92.4009990787
 21
96.2444484752
  0
LINE
  5
499
100
AcDbEntity
  8
0
100
AcDbLine
 62
7
  6
CONTINUOUS
 10
91.9582270119
 20
95.4619681524
 11
91.8990891715
 21
95.457926151
  0
LINE
  5
49A
100
AcDbEntity
  8
0
100
AcDbLine
 62
7
  6
CONTINUOUS
 10
92.6167457133
 20
96.2596644998
 11
92.4616052199
 21
96.2509228988
  0
LINE
  5
49B
100
AcDbEntity
  8
0
100
AcDbLine
 62
7
  6
CONTINUOUS
 10
99.1918899655
 20
95.4562127234
 11
99.1720580752
 21
95.455828022
  0
LINE
  5
49C
100
AcDbEntity
  8
0
100
AcDbLine
 62
7
  6
CONTINUOUS
 10
103.2012281408
 20
97.0632184153
 11
103.1869462152
 21
97.0629573094
  0
LINE
  5
49D
100
AcDbEntity
  8
0
100
AcDbLine
 62
7
  6
CONTINUOUS
 10
94.0066234751
 20
95.5441340395
 11
95.0305460712
 21
95.5624551917
  0
LINE
  5
49E
100
AcDbEntity
  8
0
100
AcDbLine
 62
7
  6
CONTINUOUS
 10
92.809722871
 20
96.262621978
 11
92.6167457133
 21
96.2596644998
  0
LINE
  5
49F
100
AcDbEntity
  8
0
100
AcDbLine
 62
7
  6
CONTINUOUS
 10
88.4603641883
 20
91.75750913
 11
90.4603641883
 21
91.7575080486
  0
LINE
  5
4A0
100
AcDbEntity
  8
A_RUNDUNGEN
100
AcDbLine
 62
7
  6
CONTINUOUS
 10
90.4603641883
 20
91.7575080486
 11
93.4603641883
 21
91.7575064264
  0
LINE
  5
4A1
100
AcDbEntity
  8
0
100
AcDbLine
 62
7
  6
CONTINUOUS
 10
93.4603641883
 20
91.7575064264
 11
95.4603641883
 21
91.757505345
  0
LINE
  5
4A2
100
AcDbEntity
  8
A_ACHSEN
100
AcDbLine
 62
7
  6
CONTINUOUS
 10
95.4603641883
 20
91.757505345
 11
99.4603641883
 21
91.7575031821
  0
LINE
  5
4A3
100
AcDbEntity
  8
0
100
AcDbLine
 62
7
  6
CONTINUOUS
 10
62.4603666215
 20
96.2575231888
 11
66.4603666215
 21
96.2575210259
  0
LINE
  5
4A4
100
AcDbEntity
  8
0
100
AcDbLine
 62
7
  6
CONTINUOUS
 10
89.0812150802
 20
94.2577770042
 11
105.9679918401
 21
94.2575041218
  0
LINE
  5
4A5
100
AcDbEntity
  8
0
100
AcDbLine
 62
7
  6
CONTINUOUS
 10
91.8990891715
 20
95.457926151
 11
90.2786575737
 21
95.4583928017
  0
LINE
  5
4A6
100
AcDbEntity
  8
0
100
AcDbLine
 62
7
  6
CONTINUOUS
 10
99.1720580752
 20
95.455828022
 11
93.0691790667
 21
95.4575883276
  0
LINE
  5
4A7
100
AcDbEntity
  8
0
100
AcDbLine
 62
7
  6
CONTINUOUS
 10
93.031670753
 20
96.2595857846
 11
92.809722871
 21
96.262621978
  0
LINE
  5
4A8
100
AcDbEntity
  8
0
100
AcDbLine
 62
7
  6
CONTINUOUS
 10
93.0051605438
 20
95.6689751389
 11
93.0583151027
 21
95.66703842
  0
LINE
  5
4A9
100
AcDbEntity
  8
0
100
AcDbLine
 62
7
  6
CONTINUOUS
 10
93.2737194192
 20
96.2503463696
 11
93.031670753
 21
96.2595857846
  0
LINE
  5
4AA
100
AcDbEntity
  8
0
100
AcDbLine
 62
7
  6
CONTINUOUS
 10
103.0860157338
 20
95.8610772437
 11
103.144232691
 21
95.8577559801
  0
LINE
  5
4AB
100
AcDbEntity
  8
0
100
AcDbLine
 62
7
  6
CONTINUOUS
 10
93.7826383439
 20
96.2124186747
 11
93.2737194192
 21
96.2503463696
  0
LINE
  5
4AC
100
AcDbEntity
  8
0
100
AcDbLine
 62
7
  6
CONTINUOUS
 10
103.2423659741
 20
95.3802391722
 11
101.3276384183
 21
95.541905723
  0
LINE
  5
4AD
100
AcDbEntity
  8
0
100
AcDbLine
 62
7
  6
CONTINUOUS
 10
93.0691790667
 20
95.4575883276
 11
93.0105714766
 21
95.463981686
  0
LINE
  5
4AE
100
AcDbEntity
  8
0
100
AcDbLine
 62
7
  6
CONTINUOUS
 10
94.0317727221
 20
96.183311296
 11
93.7826383439
 21
96.2124186747
  0
LINE
  5
4AF
100
AcDbEntity
  8
0
100
AcDbLine
 62
7
  6
CONTINUOUS
 10
94.932744966
 20
95.8869252999
 11
94.8823501008
 21
95.8934058124
  0
LINE
  5
4B0
100
AcDbEntity
  8
0
100
AcDbLine
 62
7
  6
CONTINUOUS
 10
93.0583151027
 20
95.66703842
 11
94.0066234751
 21
95.5441340395
  0
LINE
  5
4B1
100
AcDbEntity
  8
0
100
AcDbLine
 62
7
  6
CONTINUOUS
 10
94.2655291243
 20
96.147161496
 11
94.0317727221
 21
96.183311296
  0
LINE
  5
4B2
100
AcDbEntity
  8
0
100
AcDbLine
 62
7
  6
CONTINUOUS
 10
94.4750446104
 20
96.1037597268
 11
94.2655291243
 21
96.147161496
  0
LINE
  5
4B3
100
AcDbEntity
  8
0
100
AcDbLine
 62
7
  6
CONTINUOUS
 10
93.0105714766
 20
95.463981686
 11
92.9604264091
 21
95.4816012707
  0
LINE
  5
4B4
100
AcDbEntity
  8
0
100
AcDbLine
 62
7
  6
CONTINUOUS
 10
90.2786575737
 20
95.4583928017
 11
89.6203687926
 21
95.6942276307
  0
LINE
  5
4B5
100
AcDbEntity
  8
0
100
AcDbLine
 62
7
  6
CONTINUOUS
 10
94.8823501008
 20
95.8934058124
 11
94.8354472415
 21
95.9137803294
  0
LINE
  5
4B6
100
AcDbEntity
  8
0
100
AcDbLine
 62
7
  6
CONTINUOUS
 10
94.7572904507
 20
96.0094415033
 11
94.7244493775
 21
96.0246014237
  0
LINE
  5
4B7
100
AcDbEntity
  8
DEFAULT_2
100
AcDbLine
 62
8
  6
HIDDEN
 10
98.5517961533
 20
88.7856301975
 11
98.6103625852
 21
88.7575036341
  0
LINE
  5
4B8
100
AcDbEntity
  8
0
100
AcDbLine
 62
7
  6
CONTINUOUS
 10
92.9604264091
 20
95.4816012707
 11
92.9000548309
 21
95.5219155066
  0
LINE
  5
4B9
100
AcDbEntity
  8
0
100
AcDbLine
 62
7
  6
CONTINUOUS
 10
94.8354472415
 20
95.9137803294
 11
94.7960093328
 21
95.9447629929
  0
LINE
  5
4BA
100
AcDbEntity
  8
0
100
AcDbLine
 62
7
  6
CONTINUOUS
 10
94.9734400883
 20
96.1891300117
 11
95.0015207287
 21
96.1625570833
  0
LINE
  5
4BB
100
AcDbEntity
  8
0
100
AcDbLine
 62
7
  6
CONTINUOUS
 10
91.2810779445
 20
99.0622906309
 11
91.3166681565
 21
99.026773861
  0
LINE
  5
4BC
100
AcDbEntity
  8
A_ACHSEN
100
AcDbLine
 62
8
  6
HIDDEN
 10
96.4603637287
 20
90.9075048043
 11
98.6103625661
 21
88.7575036417
  0
LINE
  5
4BD
100
AcDbEntity
  8
0
100
AcDbLine
 62
7
  6
CONTINUOUS
 10
89.543913083
 20
98.9606842174
 11
89.4838864167
 21
99.0221269632
  0
LINE
  5
4BE
100
AcDbEntity
  8
0
100
AcDbLine
 62
7
  6
CONTINUOUS
 10
92.2794021925
 20
99.6250786576
 11
92.2100063052
 21
99.6977237103
  0
LINE
  5
4BF
100
AcDbEntity
  8
0
100
AcDbLine
 62
7
  6
CONTINUOUS
 10
89.6730872815
 20
98.8243533475
 11
89.543913083
 21
98.9606842174
  0
LINE
  5
4C0
100
AcDbEntity
  8
0
100
AcDbLine
 62
7
  6
CONTINUOUS
 10
89.4838864167
 20
99.0221269632
 11
89.4748981249
 21
99.0317771433
  0
LINE
  5
4C1
100
AcDbEntity
  8
0
100
AcDbLine
 62
7
  6
CONTINUOUS
 10
89.8110628163
 20
98.6729400071
 11
89.6730872815
 21
98.8243533475
  0
LINE
  5
4C2
100
AcDbEntity
  8
0
100
AcDbLine
 62
7
  6
CONTINUOUS
 10
90.0972389631
 20
98.3385402647
 11
89.8110628163
 21
98.6729400071
  0
LINE
  5
4C3
100
AcDbEntity
  8
0
100
AcDbLine
 62
7
  6
CONTINUOUS
 10
89.3674946862
 20
98.3637474751
 11
89.8473582007
 21
97.788084405
  0
LINE
  5
4C4
100
AcDbEntity
  8
0
100
AcDbLine
 62
7
  6
CONTINUOUS
 10
88.9089122027
 20
98.9288706627
 11
89.3674946862
 21
98.3637474751
  0
LINE
  5
4C5
100
AcDbEntity
  8
0
100
AcDbLine
 62
7
  6
CONTINUOUS
 10
95.0015207287
 20
96.1625570833
 11
95.0430549801
 21
96.1095120216
  0
LINE
  5
4C6
100
AcDbEntity
  8
0
100
AcDbLine
 62
7
  6
CONTINUOUS
 10
90.3701446626
 20
97.9848237065
 11
90.0972389631
 21
98.3385402647
  0
LINE
  5
4C7
100
AcDbEntity
  8
0
100
AcDbLine
 62
7
  6
CONTINUOUS
 10
94.7960093328
 20
95.9447629929
 11
94.7680023204
 21
95.9830649428
  0
LINE
  5
4C8
100
AcDbEntity
  8
0
100
AcDbLine
 62
7
  6
CONTINUOUS
 10
94.964052105
 20
96.2029843133
 11
94.9734400883
 21
96.1891300117
  0
LINE
  5
4C9
100
AcDbEntity
  8
0
100
AcDbLine
 62
7
  6
CONTINUOUS
 10
91.3317292086
 20
98.7204921782
 11
91.3409641755
 21
98.7066948326
  0
LINE
  5
4CA
100
AcDbEntity
  8
0
100
AcDbLine
 62
7
  6
CONTINUOUS
 10
94.9430294019
 20
98.9638293837
 11
94.9714461964
 21
98.9193285513
  0
LINE
  5
4CB
100
AcDbEntity
  8
0
100
AcDbLine
 62
7
  6
CONTINUOUS
 10
91.3166681565
 20
99.026773861
 11
91.3424066708
 21
98.9832472587
  0
LINE
  5
4CC
100
AcDbEntity
  8
0
100
AcDbLine
 62
7
  6
CONTINUOUS
 10
95.0430549801
 20
96.1095120216
 11
95.0656758241
 21
96.0578815227
  0
LINE
  5
4CD
100
AcDbEntity
  8
0
100
AcDbLine
 62
7
  6
CONTINUOUS
 10
99.517877487
 20
98.8320105795
 11
99.5399275164
 21
98.7484289151
  0
LINE
  5
4CE
100
AcDbEntity
  8
0
100
AcDbLine
 62
7
  6
CONTINUOUS
 10
89.5381678653
 20
99.1492765736
 11
89.5671323485
 21
99.1567499979
  0
LINE
  5
4CF
100
AcDbEntity
  8
0
100
AcDbLine
 62
7
  6
CONTINUOUS
 10
94.1192761968
 20
98.7348475574
 11
94.4512703008
 21
98.8110590039
  0
LINE
  5
4D0
100
AcDbEntity
  8
0
100
AcDbLine
 62
7
  6
CONTINUOUS
 10
94.8003004998
 20
99.65915638
 11
93.9463644102
 21
99.4749878784
  0
LINE
  5
4D1
100
AcDbEntity
  8
0
100
AcDbLine
 62
7
  6
CONTINUOUS
 10
94.4512703008
 20
98.8110590039
 11
94.475442729
 21
98.8158740471
  0
LINE
  5
4D2
100
AcDbEntity
  8
0
100
AcDbLine
 62
7
  6
CONTINUOUS
 10
94.7474883552
 20
99.0126621706
 11
94.7915693191
 21
99.0197508435
  0
LINE
  5
4D3
100
AcDbEntity
  8
0
100
AcDbLine
 62
7
  6
CONTINUOUS
 10
95.7206014976
 20
99.7740849577
 11
94.8003004998
 21
99.65915638
  0
LINE
  5
4D4
100
AcDbEntity
  8
0
100
AcDbLine
 62
7
  6
CONTINUOUS
 10
89.2768923878
 20
99.7561484858
 11
89.1150060769
 21
99.7363359451
  0
LINE
  5
4D5
100
AcDbEntity
  8
0
100
AcDbLine
 62
7
  6
CONTINUOUS
 10
95.5579264161
 20
99.047351161
 11
95.9107139837
 21
99.0871685838
  0
LINE
  5
4D6
100
AcDbEntity
  8
0
100
AcDbLine
 62
7
  6
CONTINUOUS
 10
95.9107139837
 20
99.0871685838
 11
96.2848305822
 21
99.1199251382
  0
LINE
  5
4D7
100
AcDbEntity
  8
0
100
AcDbLine
 62
7
  6
CONTINUOUS
 10
99.2693665225
 20
98.9188121398
 11
99.2900460617
 21
98.920418085
  0
LINE
  5
4D8
100
AcDbEntity
  8
0
100
AcDbLine
 62
7
  6
CONTINUOUS
 10
92.0224406766
 20
99.1572467656
 11
92.0800685277
 21
99.1612513329
  0
LINE
  5
4D9
100
AcDbEntity
  8
0
100
AcDbLine
 62
7
  6
CONTINUOUS
 10
96.6566911576
 20
99.8241000717
 11
95.7206014976
 21
99.7740849577
  0
LINE
  5
4DA
100
AcDbEntity
  8
0
100
AcDbLine
 62
7
  6
CONTINUOUS
 10
96.2848305822
 20
99.1199251382
 11
97.0659553362
 21
99.1591557016
  0
LINE
  5
4DB
100
AcDbEntity
  8
0
100
AcDbLine
 62
7
  6
CONTINUOUS
 10
91.6157326666
 20
99.1467878426
 11
91.6534131329
 21
99.1486496753
  0
LINE
  5
4DC
100
AcDbEntity
  8
0
100
AcDbLine
 62
7
  6
CONTINUOUS
 10
100.2457150071
 20
99.7555708602
 11
100.1655155451
 21
99.7536878039
  0
LINE
  5
4DD
100
AcDbEntity
  8
0
100
AcDbLine
 62
7
  6
CONTINUOUS
 10
91.6534131329
 20
99.1486496753
 11
92.0224406766
 21
99.1572467656
  0
LINE
  5
4DE
100
AcDbEntity
  8
0
100
AcDbLine
 62
7
  6
CONTINUOUS
 10
97.0659553362
 20
99.1591557016
 11
97.4573992245
 21
99.1630792361
  0
LINE
  5
4DF
100
AcDbEntity
  8
0
100
AcDbLine
 62
7
  6
CONTINUOUS
 10
105.9679930622
 20
97.2575041218
 11
100.4679930622
 21
97.2575061958
  0
LINE
  5
4E0
100
AcDbEntity
  8
0
100
AcDbLine
 62
7
  6
CONTINUOUS
 10
51.4603613586
 20
98.7574856484
 11
72.4603613586
 21
98.7574856484
  0
LINE
  5
4E1
100
AcDbEntity
  8
0
100
AcDbLine
 62
7
  6
CONTINUOUS
 10
94.4050783586
 20
99.7574856484
 11
92.1197640395
 21
99.7574856484
  0
LINE
  5
4E2
100
AcDbEntity
  8
0
100
AcDbLine
 62
7
  6
CONTINUOUS
 10
92.1197640395
 20
99.7574856484
 11
89.2768923878
 21
99.7561484858
  0
LINE
  5
4E3
100
AcDbEntity
  8
0
100
AcDbLine
 62
7
  6
CONTINUOUS
 10
91.5895061884
 20
99.7574856484
 11
77.4603613586
 21
99.7574856484
  0
LINE
  5
4E4
100
AcDbEntity
  8
0
100
AcDbLine
 62
7
  6
CONTINUOUS
 10
100.4679941986
 20
99.7549367621
 11
100.2619661732
 21
99.7549955321
  0
LINE
  5
4E5
100
AcDbEntity
  8
0
100
AcDbLine
 62
7
  6
CONTINUOUS
 10
99.2900460617
 20
98.920418085
 11
99.3624410949
 21
98.9203128975
  0
LINE
  5
4E6
100
AcDbEntity
  8
0
100
AcDbLine
 62
7
  6
CONTINUOUS
 10
97.5580072319
 20
99.8135361863
 11
96.6566911576
 21
99.8241000717
  0
LINE
  5
4E7
100
AcDbEntity
  8
0
100
AcDbLine
 62
7
  6
CONTINUOUS
 10
97.4573992245
 20
99.1630792361
 11
97.8390576089
 21
99.1548399569
  0
LINE
  5
4E8
100
AcDbEntity
  8
0
100
AcDbLine
 62
7
  6
CONTINUOUS
 10
89.5671323485
 20
99.1567499979
 11
91.1637598192
 21
99.1044509054
  0
LINE
  5
4E9
100
AcDbEntity
  8
0
100
AcDbLine
 62
7
  6
CONTINUOUS
 10
100.2619661732
 20
99.7549955321
 11
100.2457150071
 21
99.7555708602
  0
LINE
  5
4EA
100
AcDbEntity
  8
0
100
AcDbLine
 62
7
  6
CONTINUOUS
 10
97.8390576089
 20
99.1548399569
 11
98.2031578553
 21
99.1331646295
  0
LINE
  5
4EB
100
AcDbEntity
  8
0
100
AcDbLine
 62
7
  6
CONTINUOUS
 10
98.3739834732
 20
99.7467237646
 11
97.5580072319
 21
99.8135361863
  0
LINE
  5
4EC
100
AcDbEntity
  8
0
100
AcDbLine
 62
7
  6
CONTINUOUS
 10
94.7915693191
 20
99.0197508435
 11
94.8417496265
 21
99.0152102694
  0
LINE
  5
4ED
100
AcDbEntity
  8
0
100
AcDbLine
 62
7
  6
CONTINUOUS
 10
91.1637598192
 20
99.1044509054
 11
91.1873624426
 21
99.1022856907
  0
LINE
  5
4EE
100
AcDbEntity
  8
0
100
AcDbLine
 62
7
  6
CONTINUOUS
 10
98.2031578553
 20
99.1331646295
 11
98.5419173299
 21
99.0967780163
  0
LINE
  5
4EF
100
AcDbEntity
  8
0
100
AcDbLine
 62
7
  6
CONTINUOUS
 10
92.5534690581
 20
98.2168173896
 11
92.5825000663
 21
98.2133147354
  0
LINE
  5
4F0
100
AcDbEntity
  8
0
100
AcDbLine
 62
7
  6
CONTINUOUS
 10
92.1197640395
 20
99.7438547689
 11
92.0225961513
 21
99.7573658351
  0
LINE
  5
4F1
100
AcDbEntity
  8
0
100
AcDbLine
 62
7
  6
CONTINUOUS
 10
98.7341667666
 20
99.6935783098
 11
98.3739834732
 21
99.7467237646
  0
LINE
  5
4F2
100
AcDbEntity
  8
0
100
AcDbLine
 62
7
  6
CONTINUOUS
 10
98.5419173299
 20
99.0967780163
 11
98.847558399
 21
99.0444048814
  0
LINE
  5
4F3
100
AcDbEntity
  8
0
100
AcDbLine
 62
7
  6
CONTINUOUS
 10
99.3624410949
 20
98.9203128975
 11
99.4196489272
 21
98.9104693435
  0
LINE
  5
4F4
100
AcDbEntity
  8
0
100
AcDbLine
 62
7
  6
CONTINUOUS
 10
100.726630274
 20
96.9093479986
 11
100.4951342346
 21
96.9546714488
  0
LINE
  5
4F5
100
AcDbEntity
  8
0
100
AcDbLine
 62
7
  6
CONTINUOUS
 10
99.25353863
 20
98.9219145897
 11
99.2693665225
 21
98.9188121398
  0
LINE
  5
4F6
100
AcDbEntity
  8
0
100
AcDbLine
 62
7
  6
CONTINUOUS
 10
103.144232691
 20
95.8577559801
 11
103.2459536177
 21
95.8371552225
  0
LINE
  5
4F7
100
AcDbEntity
  8
0
100
AcDbLine
 62
7
  6
CONTINUOUS
 10
99.0540516342
 20
99.6279942693
 11
98.7341667666
 21
99.6935783098
  0
LINE
  5
4F8
100
AcDbEntity
  8
0
100
AcDbLine
 62
7
  6
CONTINUOUS
 10
104.5785468748
 20
95.7181853185
 11
104.3297164097
 21
95.7789007859
  0
LINE
  5
4F9
100
AcDbEntity
  8
0
100
AcDbLine
 62
7
  6
CONTINUOUS
 10
98.847558399
 20
99.0444048814
 11
99.1122994293
 21
98.9747689877
  0
LINE
  5
4FA
100
AcDbEntity
  8
0
100
AcDbLine
 62
7
  6
CONTINUOUS
 10
99.3273169197
 20
99.5505148258
 11
99.0540516342
 21
99.6279942693
  0
LINE
  5
4FB
100
AcDbEntity
  8
0
100
AcDbLine
 62
7
  6
CONTINUOUS
 10
91.1873624426
 20
99.1022856907
 11
91.2373925383
 21
99.088046073
  0
LINE
  5
4FC
100
AcDbEntity
  8
0
100
AcDbLine
 62
7
  6
CONTINUOUS
 10
94.6514392401
 20
96.0528964356
 11
94.4750446104
 21
96.1037597268
  0
LINE
  5
4FD
100
AcDbEntity
  8
0
100
AcDbLine
 62
7
  6
CONTINUOUS
 10
94.8417496265
 20
99.0152102694
 11
94.8963956136
 21
98.9978709786
  0
LINE
  5
4FE
100
AcDbEntity
  8
0
100
AcDbLine
 62
7
  6
CONTINUOUS
 10
100.7536468269
 20
96.9004717651
 11
100.726630274
 21
96.9093479986
  0
LINE
  5
4FF
100
AcDbEntity
  8
0
100
AcDbLine
 62
7
  6
CONTINUOUS
 10
92.5747055923
 20
98.82716752
 11
91.6157326666
 21
99.1467878426
  0
LINE
  5
500
100
AcDbEntity
  8
0
100
AcDbLine
 62
7
  6
CONTINUOUS
 10
99.1122994293
 20
98.9747689877
 11
99.2269014193
 21
98.9330789323
  0
LINE
  5
501
100
AcDbEntity
  8
0
100
AcDbLine
 62
7
  6
CONTINUOUS
 10
94.7244493775
 20
96.0246014237
 11
94.6514392401
 21
96.0528964356
  0
LINE
  5
502
100
AcDbEntity
  8
0
100
AcDbLine
 62
7
  6
CONTINUOUS
 10
99.5476414678
 20
99.4616791622
 11
99.3273169197
 21
99.5505148258
  0
LINE
  5
503
100
AcDbEntity
  8
0
100
AcDbLine
 62
7
  6
CONTINUOUS
 10
91.3409641755
 20
98.7066948326
 11
92.5534690581
 21
98.2168173896
  0
LINE
  5
504
100
AcDbEntity
  8
0
100
AcDbLine
 62
7
  6
CONTINUOUS
 10
99.2269014193
 20
98.9330789323
 11
99.25353863
 21
98.9219145897
  0
LINE
  5
505
100
AcDbEntity
  8
0
100
AcDbLine
 62
7
  6
CONTINUOUS
 10
99.4196489272
 20
98.9104693435
 11
99.4634432852
 21
98.8918379329
  0
LINE
  5
506
100
AcDbEntity
  8
0
100
AcDbLine
 62
7
  6
CONTINUOUS
 10
102.993774854
 20
95.9058657277
 11
103.0860157338
 21
95.8610772437
  0
LINE
  5
507
100
AcDbEntity
  8
0
100
AcDbLine
 62
7
  6
CONTINUOUS
 10
92.2100063052
 20
99.6977237103
 11
92.1197640395
 21
99.7438547689
  0
LINE
  5
508
100
AcDbEntity
  8
0
100
AcDbLine
 62
7
  6
CONTINUOUS
 10
91.2373925383
 20
99.088046073
 11
91.2810779445
 21
99.0622906309
  0
LINE
  5
509
100
AcDbEntity
  8
0
100
AcDbLine
 62
7
  6
CONTINUOUS
 10
103.2459536177
 20
95.8371552225
 11
103.3320856272
 21
95.784957982
  0
LINE
  5
50A
100
AcDbEntity
  8
0
100
AcDbLine
 62
7
  6
CONTINUOUS
 10
104.199576891
 20
95.7632943721
 11
104.1566320415
 21
95.7905920272
  0
LINE
  5
50B
100
AcDbEntity
  8
0
100
AcDbLine
 62
7
  6
CONTINUOUS
 10
100.4951342346
 20
96.9546714488
 11
100.4770985222
 21
96.9675822643
  0
LINE
  5
50C
100
AcDbEntity
  8
0
100
AcDbLine
 62
7
  6
CONTINUOUS
 10
94.8963956136
 20
98.9978709786
 11
94.9430294019
 21
98.9638293837
  0
LINE
  5
50D
100
AcDbEntity
  8
0
100
AcDbLine
 62
7
  6
CONTINUOUS
 10
104.7929193591
 20
95.5600019408
 11
104.5785468748
 21
95.7181853185
  0
LINE
  5
50E
100
AcDbEntity
  8
0
100
AcDbLine
 62
7
  6
CONTINUOUS
 10
99.4634432852
 20
98.8918379329
 11
99.517877487
 21
98.8320105795
  0
LINE
  5
50F
100
AcDbEntity
  8
0
100
AcDbLine
 62
7
  6
CONTINUOUS
 10
103.3320856272
 20
95.784957982
 11
103.396011965
 21
95.7072663567
  0
LINE
  5
510
100
AcDbEntity
  8
0
100
AcDbLine
 62
7
  6
CONTINUOUS
 10
104.1566320415
 20
95.7905920272
 11
103.2012281408
 21
97.0632184153
  0
LINE
  5
511
100
AcDbEntity
  8
0
100
AcDbLine
 62
7
  6
CONTINUOUS
 10
102.9372456035
 20
95.9832544796
 11
102.993774854
 21
95.9058657277
  0
LINE
  5
512
100
AcDbEntity
  8
0
100
AcDbLine
 62
7
  6
CONTINUOUS
 10
104.9497972006
 20
95.3344770316
 11
104.7929193591
 21
95.5600019408
  0
LINE
  5
513
100
AcDbEntity
  8
0
100
AcDbLine
 62
7
  6
CONTINUOUS
 10
102.5424543187
 20
96.8259710177
 11
102.9372456035
 21
95.9832544796
  0
LINE
  5
514
100
AcDbEntity
  8
0
100
AcDbLine
 62
7
  6
CONTINUOUS
 10
101.3276384183
 20
95.541905723
 11
101.3120537022
 21
95.5757002441
  0
LINE
  5
515
100
AcDbEntity
  8
0
100
AcDbLine
 62
7
  6
CONTINUOUS
 10
101.3120537022
 20
95.5757002441
 11
100.7536468269
 21
96.9004717651
  0
LINE
  5
516
100
AcDbEntity
  8
0
100
AcDbLine
 62
7
  6
CONTINUOUS
 10
103.396011965
 20
95.7072663567
 11
103.4311118766
 21
95.6101824434
  0
LINE
  5
517
100
AcDbEntity
  8
0
100
AcDbLine
 62
7
  6
CONTINUOUS
 10
105.0261477385
 20
95.0717339704
 11
104.9497972006
 21
95.3344770316
  0
LINE
  5
518
100
AcDbEntity
  8
0
100
AcDbLine
 62
7
  6
CONTINUOUS
 10
100.4680026174
 20
118.2575091958
 11
150.4603616173
 21
118.2574721654
  0
LINE
  5
519
100
AcDbEntity
  8
0
100
AcDbLine
 62
7
  6
CONTINUOUS
 10
27.4603613586
 20
134.2574856484
 11
95.4050783586
 21
134.2574856484
  0
LINE
  5
51A
100
AcDbEntity
  8
0
100
AcDbLine
 62
7
  6
CONTINUOUS
 10
151.4603608766
 20
117.2574719053
 11
151.4603441002
 21
52.7574838666
  0
ARC
  5
51B
100
AcDbEntity
  8
0
100
AcDbCircle
 62
7
  6
CONTINUOUS
 10
27.4603613586
 20
50.7574856484
 40
1.0
100
AcDbArc
 50
180.0
 51
270.0
  0
ARC
  5
51C
100
AcDbEntity
  8
0
100
AcDbCircle
 62
7
  6
CONTINUOUS
 10
64.4603341783
 20
36.2575221073
 40
11.25
100
AcDbArc
 50
79.753171103
 51
55.15006444
  0
ARC
  5
51D
100
AcDbEntity
  8
0
100
AcDbCircle
 62
7
  6
CONTINUOUS
 10
64.4603341783
 20
36.2575221073
 40
10.0
100
AcDbArc
 50
78.2414765634
 51
80.2771812771
  0
ARC
  5
51E
100
AcDbEntity
  8
0
100
AcDbCircle
 62
3
  6
CONTINUOUS
 10
64.4603341783
 20
36.2575221073
 40
7.25
100
AcDbArc
 50
56.6953279295
 51
55.15006444
  0
ARC
  5
51F
100
AcDbEntity
  8
0
100
AcDbCircle
 62
7
  6
CONTINUOUS
 10
59.4603613586
 20
52.7574856484
 40
3.0
100
AcDbArc
 50
270.0
 51
289.5467255186
  0
ARC
  5
520
100
AcDbEntity
  8
0
100
AcDbCircle
 62
7
  6
CONTINUOUS
 10
59.4603402252
 20
47.4406594341
 40
1.0
100
AcDbArc
 50
294.0894751308
 51
359.999969019
  0
ARC
  5
521
100
AcDbEntity
  8
0
100
AcDbCircle
 62
3
  6
CONTINUOUS
 10
71.4603396141
 20
46.3105029537
 40
5.0
100
AcDbArc
 50
179.999969019
 51
235.15006444
  0
ARC
  5
522
100
AcDbEntity
  8
0
100
AcDbCircle
 62
7
  6
CONTINUOUS
 10
73.4603431002
 20
52.7575182009
 40
3.0
100
AcDbArc
 50
179.999969019
 51
269.999975131
  0
ARC
  5
523
100
AcDbEntity
  8
0
100
AcDbCircle
 62
7
  6
CONTINUOUS
 10
71.4603396141
 20
46.3105029537
 40
1.0
100
AcDbArc
 50
179.999969019
 51
235.15006444
  0
ARC
  5
524
100
AcDbEntity
  8
DEFAULT_2
100
AcDbCircle
 62
8
  6
HIDDEN
 10
75.9495431302
 20
71.6596788871
 40
27.6514630521
100
AcDbArc
 50
38.2174290615
 51
38.5509225999
  0
ARC
  5
525
100
AcDbEntity
  8
DEFAULT_2
100
AcDbCircle
 62
8
  6
HIDDEN
 10
86.1634292477
 20
69.6842961232
 40
22.7057653625
100
AcDbArc
 50
59.6835825723
 51
59.8303176846
  0
ARC
  5
526
100
AcDbEntity
  8
DEFAULT_2
100
AcDbCircle
 62
8
  6
HIDDEN
 10
86.4106327151
 20
70.1082923827
 40
22.2149680795
100
AcDbArc
 50
59.5333631945
 51
59.8319499119
  0
ARC
  5
527
100
AcDbEntity
  8
DEFAULT_2
100
AcDbCircle
 62
8
  6
HIDDEN
 10
86.6506012129
 20
70.5174256703
 40
21.7406532624
100
AcDbArc
 50
59.5317535018
 51
59.6836054873
  0
ARC
  5
528
100
AcDbEntity
  8
DEFAULT_2
100
AcDbCircle
 62
8
  6
HIDDEN
 10
85.4306543504
 20
66.3071949708
 40
21.7368888381
100
AcDbArc
 50
55.7176321464
 51
56.0358388035
  0
ARC
  5
529
100
AcDbEntity
  8
0
100
AcDbCircle
 62
7
  6
CONTINUOUS
 10
65.4603495504
 20
64.6864537547
 40
5.0
100
AcDbArc
 50
134.999969019
 51
179.999969019
  0
ARC
  5
52A
100
AcDbEntity
  8
0
100
AcDbCircle
 62
3
  6
CONTINUOUS
 10
61.4603519757
 20
69.1717372919
 40
5.0
100
AcDbArc
 50
314.999969019
 51
359.999969019
  0
ARC
  5
52B
100
AcDbEntity
  8
0
100
AcDbCircle
 62
3
  6
CONTINUOUS
 10
70.9603466149
 20
59.2575185926
 40
4.5
100
AcDbArc
 50
89.999969019
 51
179.999969019
  0
ARC
  5
52C
100
AcDbEntity
  8
0
100
AcDbCircle
 62
7
  6
CONTINUOUS
 10
87.4603574331
 20
70.7575108308
 40
1.0000002845
100
AcDbArc
 50
269.9081227375
 51
346.9275229072
  0
ARC
  5
52D
100
AcDbEntity
  8
0
100
AcDbCircle
 62
7
  6
CONTINUOUS
 10
61.4603519757
 20
69.1717372919
 40
1.0
100
AcDbArc
 50
314.999969019
 51
359.999969019
  0
ARC
  5
52E
100
AcDbEntity
  8
0
100
AcDbCircle
 62
3
  6
CONTINUOUS
 10
65.4603495504
 20
64.6864537547
 40
1.0
100
AcDbArc
 50
134.999969019
 51
179.999969019
  0
ARC
  5
52F
100
AcDbEntity
  8
0
100
AcDbCircle
 62
7
  6
CONTINUOUS
 10
70.9603466149
 20
59.2575185926
 40
0.5
100
AcDbArc
 50
89.999969019
 51
179.999969019
  0
ARC
  5
530
100
AcDbEntity
  8
DEFAULT_2
100
AcDbCircle
 62
8
  6
HIDDEN
 10
75.9495572953
 20
97.8553529022
 40
27.6514630513
100
AcDbArc
 50
321.4490154381
 51
321.7825089765
  0
ARC
  5
531
100
AcDbEntity
  8
DEFAULT_2
100
AcDbCircle
 62
8
  6
HIDDEN
 10
86.1634455533
 20
99.8307246125
 40
22.7057653529
100
AcDbArc
 50
300.1696203534
 51
300.3163554656
  0
ARC
  5
532
100
AcDbEntity
  8
DEFAULT_2
100
AcDbCircle
 62
8
  6
HIDDEN
 10
86.4106485563
 20
99.4067280956
 40
22.2149680814
100
AcDbArc
 50
300.1679881263
 51
300.4665748436
  0
ARC
  5
533
100
AcDbEntity
  8
DEFAULT_2
100
AcDbCircle
 62
8
  6
HIDDEN
 10
86.6506166036
 20
98.9975945624
 40
21.7406532804
100
AcDbArc
 50
300.3163325506
 51
300.4681845361
  0
ARC
  5
534
100
AcDbEntity
  8
DEFAULT_2
100
AcDbCircle
 62
8
  6
HIDDEN
 10
85.4306743041
 20
103.2078265646
 40
21.7368888367
100
AcDbArc
 50
303.9640992345
 51
304.2823058916
  0
ARC
  5
535
100
AcDbEntity
  8
0
100
AcDbCircle
 62
7
  6
CONTINUOUS
 10
77.4603613586
 20
98.7574856484
 40
1.0
100
AcDbArc
 50
90.0
 51
180.0
  0
ARC
  5
536
100
AcDbEntity
  8
0
100
AcDbCircle
 62
7
  6
CONTINUOUS
 10
27.4603613586
 20
133.2574856484
 40
1.0
100
AcDbArc
 50
90.0
 51
180.0
  0
ARC
  5
537
100
AcDbEntity
  8
DEFAULT_2
100
AcDbCircle
 62
8
  6
HIDDEN
 10
104.2086923753
 20
69.1521421615
 40
12.8864611507
100
AcDbArc
 50
120.0374521532
 51
120.4684776968
  0
ARC
  5
538
100
AcDbEntity
  8
DEFAULT_2
100
AcDbCircle
 62
8
  6
HIDDEN
 10
104.1472410735
 20
69.2597351707
 40
12.762557642
100
AcDbArc
 50
118.404305834
 51
120.0404111269
  0
ARC
  5
539
100
AcDbEntity
  8
DEFAULT_2
100
AcDbCircle
 62
8
  6
HIDDEN
 10
104.1078334979
 20
69.3290765293
 40
12.6828183328
100
AcDbArc
 50
118.3962589678
 51
120.4810636677
  0
ARC
  5
53A
100
AcDbEntity
  8
DEFAULT_2
100
AcDbCircle
 62
8
  6
HIDDEN
 10
103.966998577
 20
69.5422431669
 40
12.4288553631
100
AcDbArc
 50
115.8237874485
 51
116.0588395485
  0
ARC
  5
53B
100
AcDbEntity
  8
DEFAULT_2
100
AcDbCircle
 62
8
  6
HIDDEN
 10
103.881812158
 20
69.7416462692
 40
12.2124011806
100
AcDbArc
 50
117.7073137421
 51
118.3839580079
  0
ARC
  5
53C
100
AcDbEntity
  8
DEFAULT_2
100
AcDbCircle
 62
8
  6
HIDDEN
 10
103.8523221907
 20
69.7969143018
 40
12.1497585526
100
AcDbArc
 50
117.7048572232
 51
118.3859919349
  0
ARC
  5
53D
100
AcDbEntity
  8
DEFAULT_2
100
AcDbCircle
 62
8
  6
HIDDEN
 10
103.8390560671
 20
69.8237073678
 40
12.1198695718
100
AcDbArc
 50
116.808964193
 51
117.7082200119
  0
ARC
  5
53E
100
AcDbEntity
  8
DEFAULT_2
100
AcDbCircle
 62
8
  6
HIDDEN
 10
103.8267072898
 20
69.8298937435
 40
12.1088179426
100
AcDbArc
 50
115.8251316465
 51
116.0590961531
  0
ARC
  5
53F
100
AcDbEntity
  8
DEFAULT_2
100
AcDbCircle
 62
8
  6
HIDDEN
 10
103.7662728151
 20
69.9649362602
 40
11.9609943921
100
AcDbArc
 50
116.8006616081
 51
117.7146373649
  0
ARC
  5
540
100
AcDbEntity
  8
DEFAULT_2
100
AcDbCircle
 62
8
  6
HIDDEN
 10
103.6395086592
 20
70.2129843513
 40
11.6824351307
100
AcDbArc
 50
116.0610667793
 51
116.7942595607
  0
ARC
  5
541
100
AcDbEntity
  8
DEFAULT_2
100
AcDbCircle
 62
8
  6
HIDDEN
 10
103.6045366271
 20
70.2835082801
 40
11.6037181021
100
AcDbArc
 50
116.057549795
 51
116.7994143316
  0
ARC
  5
542
100
AcDbEntity
  8
0
100
AcDbCircle
 62
7
  6
CONTINUOUS
 10
94.9603493185
 20
64.2575056153
 40
4.5
100
AcDbArc
 50
269.999969019
 51
359.999969019
  0
ARC
  5
543
100
AcDbEntity
  8
0
100
AcDbCircle
 62
3
  6
CONTINUOUS
 10
89.9603525628
 20
70.2575083189
 40
3.5
100
AcDbArc
 50
269.999969019
 51
359.999969019
  0
ARC
  5
544
100
AcDbEntity
  8
0
100
AcDbCircle
 62
7
  6
CONTINUOUS
 10
148.4603441002
 20
52.7574846469
 40
3.0
100
AcDbArc
 50
269.9531789688
 51
359.9999850974
  0
ARC
  5
545
100
AcDbEntity
  8
0
100
AcDbCircle
 62
7
  6
CONTINUOUS
 10
89.9603525628
 20
70.2575083189
 40
0.5
100
AcDbArc
 50
269.999969019
 51
359.999969019
  0
ARC
  5
546
100
AcDbEntity
  8
0
100
AcDbCircle
 62
3
  6
CONTINUOUS
 10
94.9603493185
 20
64.2575056153
 40
0.5
100
AcDbArc
 50
269.999969019
 51
359.999969019
  0
ARC
  5
547
100
AcDbEntity
  8
DEFAULT_2
100
AcDbCircle
 62
8
  6
HIDDEN
 10
104.2098422263
 20
100.3647823883
 40
12.8886933677
100
AcDbArc
 50
239.5314546927
 51
239.9623665848
  0
ARC
  5
548
100
AcDbEntity
  8
DEFAULT_2
100
AcDbCircle
 62
8
  6
HIDDEN
 10
104.1748873129
 20
100.3047037006
 40
12.8191866684
100
AcDbArc
 50
239.5299533411
 51
241.5921182236
  0
ARC
  5
549
100
AcDbEntity
  8
DEFAULT_2
100
AcDbCircle
 62
8
  6
HIDDEN
 10
104.0707613757
 20
100.1185274131
 40
12.605892025
100
AcDbArc
 50
239.9493415679
 51
241.6062890036
  0
ARC
  5
54A
100
AcDbEntity
  8
DEFAULT_2
100
AcDbCircle
 62
8
  6
HIDDEN
 10
103.9670150253
 20
99.9727583111
 40
12.4288553492
100
AcDbArc
 50
243.9410984911
 51
244.1761505895
  0
ARC
  5
54B
100
AcDbEntity
  8
DEFAULT_2
100
AcDbCircle
 62
8
  6
HIDDEN
 10
103.881828397
 20
99.7733553138
 40
12.212401181
100
AcDbArc
 50
241.6159800301
 51
242.2926242978
  0
ARC
  5
54C
100
AcDbEntity
  8
DEFAULT_2
100
AcDbCircle
 62
8
  6
HIDDEN
 10
103.8523383696
 20
99.7180873126
 40
12.1497585524
100
AcDbArc
 50
241.6139461031
 51
242.2950808168
  0
ARC
  5
54D
100
AcDbEntity
  8
DEFAULT_2
100
AcDbCircle
 62
8
  6
HIDDEN
 10
103.8390722169
 20
99.6912942607
 40
12.1198695714
100
AcDbArc
 50
242.291718028
 51
243.190973845
  0
ARC
  5
54E
100
AcDbEntity
  8
DEFAULT_2
100
AcDbCircle
 62
8
  6
HIDDEN
 10
103.8267234305
 20
99.6851078934
 40
12.1088179366
100
AcDbArc
 50
243.9408418867
 51
244.1748063916
  0
ARC
  5
54F
100
AcDbEntity
  8
DEFAULT_2
100
AcDbCircle
 62
8
  6
HIDDEN
 10
103.7662888123
 20
99.5500654474
 40
11.9609943921
100
AcDbArc
 50
242.2853006751
 51
243.1992764299
  0
ARC
  5
550
100
AcDbEntity
  8
DEFAULT_2
100
AcDbCircle
 62
8
  6
HIDDEN
 10
103.6395243883
 20
99.3020174936
 40
11.6824351309
100
AcDbArc
 50
243.2056784772
 51
243.9388712605
  0
ARC
  5
551
100
AcDbEntity
  8
DEFAULT_2
100
AcDbCircle
 62
8
  6
HIDDEN
 10
103.60455228
 20
99.2314936026
 40
11.6037181024
100
AcDbArc
 50
243.2005237064
 51
243.9423882448
  0
ARC
  5
552
100
AcDbEntity
  8
0
100
AcDbCircle
 62
7
  6
CONTINUOUS
 10
90.4603613586
 20
92.2575106087
 40
2.0
100
AcDbArc
 50
89.9999760333
 51
180.0
  0
ARC
  5
553
100
AcDbEntity
  8
0
100
AcDbCircle
 62
7
  6
CONTINUOUS
 10
94.4050783586
 20
101.7574856484
 40
2.0
100
AcDbArc
 50
270.0
 51
360.0
  0
ARC
  5
554
100
AcDbEntity
  8
0
100
AcDbCircle
 62
7
  6
CONTINUOUS
 10
150.4603608766
 20
117.2574721654
 40
1.0
100
AcDbArc
 50
359.9999850974
 51
89.9999575598
  0
ARC
  5
555
100
AcDbEntity
  8
0
100
AcDbCircle
 62
7
  6
CONTINUOUS
 10
95.4050783586
 20
133.2574856484
 40
1.0
100
AcDbArc
 50
0.0
 51
90.0
  0
SPLINE
  5
556
100
AcDbEntity
  8
DEFAULT_2
100
AcDbSpline
 62
8
  6
HIDDEN
 70
0
 71
3
 72
16
 73
12
 74
0
 42
0.0000001
 43
0.0000001
 44
0.0000000001
 40
0.0
 40
0.0
 40
0.0
 40
0.0
 40
0.0659369936
 40
0.0963671112
 40
0.1298506198
 40
0.1696971875
 40
0.2172195602
 40
0.3357493217
 40
0.4820296525
 40
0.6468136927
 40
1.0
 40
1.0
 40
1.0
 40
1.0
 10
97.4213542557
 20
80.1439374061
 30
0.0
 10
97.4087696946
 20
80.1439732127
 30
0.0
 10
97.3892048926
 20
80.1475116806
 30
0.0
 10
97.3708380695
 20
80.1651254078
 30
0.0
 10
97.3627859216
 20
80.1836620362
 30
0.0
 10
97.3598880862
 20
80.2067366561
 30
0.0
 10
97.3623256611
 20
80.246115853
 30
0.0
 10
97.3785536361
 20
80.3040208659
 30
0.0
 10
97.4120490512
 20
80.3789700668
 30
0.0
 10
97.4745134631
 20
80.4894619942
 30
0.0
 10
97.5324841064
 20
80.56994412
 30
0.0
 10
97.5744919088
 20
80.6226626931
 30
0.0
  0
SPLINE
  5
557
100
AcDbEntity
  8
DEFAULT_2
100
AcDbSpline
 62
8
  6
HIDDEN
 70
0
 71
3
 72
16
 73
12
 74
0
 42
0.0000001
 43
0.0000001
 44
0.0000000001
 40
0.0
 40
0.0
 40
0.0
 40
0.0
 40
0.353299971
 40
0.5181603147
 40
0.6646813702
 40
0.7831082917
 40
0.8304201165
 40
0.8701837979
 40
0.9037620762
 40
0.9341796141
 40
1.0
 40
1.0
 40
1.0
 40
1.0
 10
97.5744963804
 20
88.8923457105
 30
0.0
 10
97.5324752159
 20
88.9450811696
 30
0.0
 10
97.4744597082
 20
89.0255744085
 30
0.0
 10
97.4120002464
 20
89.1361732162
 30
0.0
 10
97.3785610318
 20
89.2111757486
 30
0.0
 10
97.3621929165
 20
89.2690386649
 30
0.0
 10
97.359903671
 20
89.3083658709
 30
0.0
 10
97.3629401381
 20
89.331372228
 30
0.0
 10
97.3709066095
 20
89.3499289459
 30
0.0
 10
97.3891947371
 20
89.3676382992
 30
0.0
 10
97.4087797114
 20
89.3710945935
 30
0.0
 10
97.4213420373
 20
89.3710985003
 30
0.0
  0
SPLINE
  5
558
100
AcDbEntity
  8
DEFAULT_2
100
AcDbSpline
 62
8
  6
HIDDEN
 70
0
 71
3
 72
9
 73
5
 74
0
 42
0.0000001
 43
0.0000001
 44
0.0000000001
 40
0.0
 40
0.0
 40
0.0
 40
0.0
 40
0.4326665905
 40
1.0
 40
1.0
 40
1.0
 40
1.0
 10
97.4213420373
 20
89.3710985003
 30
0.0
 10
97.4450621454
 20
89.3711058771
 30
0.0
 10
97.4991085586
 20
89.355177997
 30
0.0
 10
97.5476069758
 20
89.3299892539
 30
0.0
 10
97.5744966086
 20
89.3143578242
 30
0.0
  0
SPLINE
  5
559
100
AcDbEntity
  8
DEFAULT_2
100
AcDbSpline
 62
8
  6
HIDDEN
 70
0
 71
3
 72
8
 73
4
 74
0
 42
0.0000001
 43
0.0000001
 44
0.0000000001
 40
0.0
 40
0.0
 40
0.0
 40
0.0
 40
1.0
 40
1.0
 40
1.0
 40
1.0
 10
97.421337048
 20
80.143910069
 30
0.0
 10
97.4269896769
 20
80.143908305
 30
0.0
 10
97.4326503233
 20
80.1443535374
 30
0.0
 10
97.4382527866
 20
80.1451049511
 30
0.0
  0
SPLINE
  5
55A
100
AcDbEntity
  8
DEFAULT_2
100
AcDbSpline
 62
8
  6
HIDDEN
 70
0
 71
3
 72
8
 73
4
 74
0
 42
0.0000001
 43
0.0000001
 44
0.0000000001
 40
0.0
 40
0.0
 40
0.0
 40
0.0
 40
1.0
 40
1.0
 40
1.0
 40
1.0
 10
97.4213420373
 20
89.3710985003
 30
0.0
 10
97.4269946663
 20
89.3711002582
 30
0.0
 10
97.4326553121
 20
89.3706550196
 30
0.0
 10
97.4382577746
 20
89.3699035999
 30
0.0
  0
SPLINE
  5
55B
100
AcDbEntity
  8
DEFAULT_2
100
AcDbSpline
 62
8
  6
HIDDEN
 70
0
 71
3
 72
13
 73
9
 74
0
 42
0.0000001
 43
0.0000001
 44
0.0000000001
 40
0.0
 40
0.0
 40
0.0
 40
0.0
 40
0.02158583
 40
0.0836670565
 40
0.1812687874
 40
0.3076830636
 40
0.624487905
 40
1.0
 40
1.0
 40
1.0
 40
1.0
 10
98.6103582595
 20
80.7575036493
 30
0.0
 10
98.603588469
 20
80.7539801652
 30
0.0
 10
98.5766009213
 20
80.7418234093
 30
0.0
 10
98.519174356
 20
80.7133782835
 30
0.0
 10
98.4282517666
 20
80.6690445713
 30
0.0
 10
98.2576195552
 20
80.5827409538
 30
0.0
 10
98.0017182746
 20
80.4473647103
 30
0.0
 10
97.7888598626
 20
80.3264105298
 30
0.0
 10
97.6744286761
 20
80.2590894873
 30
0.0
  0
SPLINE
  5
55C
100
AcDbEntity
  8
DEFAULT_2
100
AcDbSpline
 62
8
  6
HIDDEN
 70
0
 71
3
 72
8
 73
4
 74
0
 42
0.0000001
 43
0.0000001
 44
0.0000000001
 40
0.0
 40
0.0
 40
0.0
 40
0.0
 40
1.0
 40
1.0
 40
1.0
 40
1.0
 10
97.438270504
 20
80.1450985519
 30
0.0
 10
97.4326676793
 20
80.1443544704
 30
0.0
 10
97.4270062503
 20
80.1439213247
 30
0.0
 10
97.4213542557
 20
80.1439374061
 30
0.0
  0
SPLINE
  5
55D
100
AcDbEntity
  8
DEFAULT_2
100
AcDbSpline
 62
8
  6
HIDDEN
 70
0
 71
3
 72
12
 73
8
 74
0
 42
0.0000001
 43
0.0000001
 44
0.0000000001
 40
0.0
 40
0.0
 40
0.0
 40
0.0
 40
0.3755179926
 40
0.69233841
 40
0.9163389674
 40
0.9784255576
 40
1.0
 40
1.0
 40
1.0
 40
1.0
 10
97.6744335408
 20
89.2559188083
 30
0.0
 10
97.7888661204
 20
89.1885967796
 30
0.0
 10
98.0076013461
 20
89.0647684571
 30
0.0
 10
98.2731282683
 20
88.9234642169
 30
0.0
 10
98.5056352165
 20
88.8075354748
 30
0.0
 10
98.5582156936
 20
88.7827636721
 30
0.0
 10
98.6171287808
 20
88.7539820116
 30
0.0
 10
98.6103625852
 20
88.7575036341
 30
0.0
  0
SPLINE
  5
55E
100
AcDbEntity
  8
DEFAULT_2
100
AcDbSpline
 62
8
  6
HIDDEN
 70
0
 71
3
 72
8
 73
4
 74
0
 42
0.0000001
 43
0.0000001
 44
0.0000000001
 40
0.0
 40
0.0
 40
0.0
 40
0.0
 40
1.0
 40
1.0
 40
1.0
 40
1.0
 10
97.438275492
 20
89.3699099991
 30
0.0
 10
97.4326726681
 20
89.3706540866
 30
0.0
 10
97.4270112396
 20
89.3710872385
 30
0.0
 10
97.421359245
 20
89.3710711631
 30
0.0
  0
SPLINE
  5
55F
100
AcDbEntity
  8
DEFAULT_2
100
AcDbSpline
 62
8
  6
HIDDEN
 70
0
 71
3
 72
9
 73
5
 74
0
 42
0.0000001
 43
0.0000001
 44
0.0000000001
 40
0.0
 40
0.0
 40
0.0
 40
0.0
 40
0.5674594613
 40
1.0
 40
1.0
 40
1.0
 40
1.0
 10
97.5744916806
 20
80.2006505795
 30
0.0
 10
97.5475989406
 20
80.1850173824
 30
0.0
 10
97.499124986
 20
80.1598160426
 30
0.0
 10
97.4450648155
 20
80.1438699431
 30
0.0
 10
97.4213542557
 20
80.1439374061
 30
0.0
  0
SPLINE
  5
560
100
AcDbEntity
  8
DEFAULT_2
100
AcDbSpline
 62
8
  6
HIDDEN
 70
0
 71
3
 72
14
 73
10
 74
0
 42
0.0000001
 43
0.0000001
 44
0.0000000001
 40
0.0
 40
0.0
 40
0.0
 40
0.0
 40
0.227234371
 40
0.3435441955
 40
0.4627982753
 40
0.5869093626
 40
0.7178871903
 40
0.8561284282
 40
1.0
 40
1.0
 40
1.0
 40
1.0
 10
97.6744308437
 20
84.2677705056
 30
0.0
 10
97.8555319155
 20
84.1443029773
 30
0.0
 10
98.1129529652
 20
83.928548023
 30
0.0
 10
98.3843681989
 20
83.5717933958
 30
0.0
 10
98.5391751695
 20
83.2582461249
 30
0.0
 10
98.6191562625
 20
82.9022141267
 30
0.0
 10
98.6071370663
 20
82.5193010942
 30
0.0
 10
98.5085503295
 20
82.1308162578
 30
0.0
 10
98.3996944471
 20
81.8804190683
 30
0.0
 10
98.3375487098
 20
81.7563369858
 30
0.0
  0
SPLINE
  5
561
100
AcDbEntity
  8
DEFAULT_2
100
AcDbSpline
 62
8
  6
HIDDEN
 70
0
 71
3
 72
9
 73
5
 74
0
 42
0.0000001
 43
0.0000001
 44
0.0000000001
 40
0.0
 40
0.0
 40
0.0
 40
0.0
 40
0.4964257542
 40
1.0
 40
1.0
 40
1.0
 40
1.0
 10
98.3375487098
 20
81.7563369858
 30
0.0
 10
98.2480606491
 20
81.577662383
 30
0.0
 10
98.039291108
 20
81.2319990106
 30
0.0
 10
97.7998289886
 20
80.9080898597
 30
0.0
 10
97.6744289409
 20
80.7488231295
 30
0.0
  0
SPLINE
  5
562
100
AcDbEntity
  8
DEFAULT_2
100
AcDbSpline
 62
8
  6
HIDDEN
 70
0
 71
3
 72
9
 73
5
 74
0
 42
0.0000001
 43
0.0000001
 44
0.0000000001
 40
0.0
 40
0.0
 40
0.0
 40
0.0
 40
0.2426702274
 40
1.0
 40
1.0
 40
1.0
 40
1.0
 10
97.4425087948
 20
89.0829736459
 30
0.0
 10
97.4519305663
 20
89.066745271
 30
0.0
 10
97.4923510598
 20
89.0007996731
 30
0.0
 10
97.5380012574
 20
88.9381461325
 30
0.0
 10
97.5744963804
 20
88.8923457105
 30
0.0
  0
SPLINE
  5
563
100
AcDbEntity
  8
DEFAULT_2
100
AcDbSpline
 62
8
  6
HIDDEN
 70
0
 71
3
 72
15
 73
11
 74
0
 42
0.0000001
 43
0.0000001
 44
0.0000000001
 40
0.0
 40
0.0
 40
0.0
 40
0.0
 40
0.1080265043
 40
0.2179637947
 40
0.331112081
 40
0.4505924841
 40
0.5793560093
 40
0.7160199307
 40
0.8570778327
 40
1.0
 40
1.0
 40
1.0
 40
1.0
 10
97.6744308437
 20
84.2677705056
 30
0.0
 10
97.7963920734
 20
84.1846221762
 30
0.0
 10
98.0315243256
 20
83.9997043405
 30
0.0
 10
98.3352228715
 20
83.6604076129
 30
0.0
 10
98.5579786162
 20
83.2413649537
 30
0.0
 10
98.6389793903
 20
82.7441526778
 30
0.0
 10
98.5476141436
 20
82.2184806752
 30
0.0
 10
98.326935499
 20
81.7056154688
 30
0.0
 10
98.0264863071
 20
81.2143107552
 30
0.0
 10
97.7952392017
 20
80.902260513
 30
0.0
 10
97.6744289409
 20
80.7488231295
 30
0.0
  0
SPLINE
  5
564
100
AcDbEntity
  8
DEFAULT_2
100
AcDbSpline
 62
8
  6
HIDDEN
 70
0
 71
3
 72
9
 73
5
 74
0
 42
0.0000001
 43
0.0000001
 44
0.0000000001
 40
0.0
 40
0.0
 40
0.0
 40
0.0
 40
0.2553971655
 40
1.0
 40
1.0
 40
1.0
 40
1.0
 10
97.5744919088
 20
80.6226626931
 30
0.0
 10
97.5616565854
 20
80.6065547347
 30
0.0
 10
97.5124247936
 20
80.5426951736
 30
0.0
 10
97.4672123062
 20
80.4755790479
 30
0.0
 10
97.4375257954
 20
80.4233823267
 30
0.0
  0
SPLINE
  5
565
100
AcDbEntity
  8
DEFAULT_2
100
AcDbSpline
 62
8
  6
HIDDEN
 70
0
 71
3
 72
13
 73
9
 74
0
 42
0.0000001
 43
0.0000001
 44
0.0000000001
 40
0.0
 40
0.0
 40
0.0
 40
0.0
 40
0.3740272072
 40
0.6594229788
 40
0.7625341751
 40
0.8436974416
 40
0.9171252928
 40
1.0
 40
1.0
 40
1.0
 40
1.0
 10
97.4375257954
 20
80.4233823267
 30
0.0
 10
97.4171601982
 20
80.3875742318
 30
0.0
 10
97.3845431209
 20
80.3227777482
 30
0.0
 10
97.359328876
 20
80.2410140196
 30
0.0
 10
97.3608030705
 20
80.18882666
 30
0.0
 10
97.3719191764
 20
80.1614108301
 30
0.0
 10
97.3946490784
 20
80.1459503243
 30
0.0
 10
97.4122094438
 20
80.1439129175
 30
0.0
 10
97.421337048
 20
80.143910069
 30
0.0
  0
SPLINE
  5
566
100
AcDbEntity
  8
DEFAULT_2
100
AcDbSpline
 62
8
  6
HIDDEN
 70
0
 71
3
 72
9
 73
5
 74
0
 42
0.0000001
 43
0.0000001
 44
0.0000000001
 40
0.0
 40
0.0
 40
0.0
 40
0.0
 40
0.5414447832
 40
1.0
 40
1.0
 40
1.0
 40
1.0
 10
97.3603604032
 20
84.7575043176
 30
0.0
 10
97.3603603556
 20
84.6694945027
 30
0.0
 10
97.3997622678
 20
84.5035901553
 30
0.0
 10
97.512675991
 20
84.3771360925
 30
0.0
 10
97.5744939164
 20
84.3354920882
 30
0.0
  0
SPLINE
  5
567
100
AcDbEntity
  8
DEFAULT_2
100
AcDbSpline
 62
8
  6
HIDDEN
 70
0
 71
3
 72
15
 73
11
 74
0
 42
0.0000001
 43
0.0000001
 44
0.0000000001
 40
0.0
 40
0.0
 40
0.0
 40
0.0
 40
0.1429234799
 40
0.2839870358
 40
0.4206504509
 40
0.5494063608
 40
0.668893808
 40
0.7820417368
 40
0.8919745054
 40
1.0
 40
1.0
 40
1.0
 40
1.0
 10
97.674433276
 20
88.7661851661
 30
0.0
 10
97.7952444672
 20
88.6127462596
 30
0.0
 10
98.0264955455
 20
88.3006876199
 30
0.0
 10
98.3269573358
 20
87.8093793859
 30
0.0
 10
98.5476149851
 20
87.2965082908
 30
0.0
 10
98.6389808764
 20
86.7708412533
 30
0.0
 10
98.5579841857
 20
86.273625819
 30
0.0
 10
98.3352046581
 20
85.8545929735
 30
0.0
 10
98.031519384
 20
85.5152974726
 30
0.0
 10
97.7963915396
 20
85.3303852012
 30
0.0
 10
97.6744313733
 20
85.24723779
 30
0.0
  0
SPLINE
  5
568
100
AcDbEntity
  8
DEFAULT_2
100
AcDbSpline
 62
8
  6
HIDDEN
 70
0
 71
3
 72
9
 73
5
 74
0
 42
0.0000001
 43
0.0000001
 44
0.0000000001
 40
0.0
 40
0.0
 40
0.0
 40
0.0
 40
0.4585632983
 40
1.0
 40
1.0
 40
1.0
 40
1.0
 10
97.5744943728
 20
85.1795163155
 30
0.0
 10
97.5126753955
 20
85.1378716998
 30
0.0
 10
97.3997642301
 20
85.0114156059
 30
0.0
 10
97.3603604508
 20
84.8455127012
 30
0.0
 10
97.3603604032
 20
84.7575043176
 30
0.0
  0
ENDSEC
  0
SECTION
  2
OBJECTS
  0
DICTIONARY
  5
569
100
AcDbDictionary
  3
ACAD_GROUP
350
56A
  3
ACAD_MLINESTYLE
350
56B
  0
DICTIONARY
  5
56A
102
{ACAD_REACTORS
330
569
102
}
100
AcDbDictionary
  0
DICTIONARY
  5
56B
102
{ACAD_REACTORS
330
569
102
}
100
AcDbDictionary
  3
STANDARD
350
56C
  0
MLINESTYLE
  5
56C
102
{ACAD_REACTORS
330
56B
102
}
100
AcDbMlineStyle
  2
STANDARD
 70
0
  3

 62
256
 51
90.0
 52
90.0
 71
2
 49
0.5
 62
256
  6
BYLAYER
 49
-0.5
 62
256
  6
BYLAYER
  0
ENDSEC
  0
EOF
