  0
SECTION
  2
HEADER
  9
$ACADVER
  1
AC1018
  9
$ACADMAINTVER
 70
     0
  9
$DWGCODEPAGE
  3
ANSI_1252
  9
$INSBASE
 10
0.0
 20
0.0
 30
0.0
  9
$EXTMIN
 10
-186.009164453936
 20
-128.0586834761568
 30
0.0
  9
$EXTMAX
 10
157.7418726874361
 20
112.8805415769215
 30
0.0
  9
$LIMMIN
 10
0.0
 20
0.0
  9
$LIMMAX
 10
12.0
 20
9.0
  9
$ORTHOMODE
 70
     0
  9
$REGENMODE
 70
     1
  9
$FILLMODE
 70
     1
  9
$QTEXTMODE
 70
     0
  9
$MIRRTEXT
 70
     1
  9
$LTSCALE
 40
1.0
  9
$ATTMODE
 70
     1
  9
$TEXTSIZE
 40
0.2
  9
$TRACEWID
 40
0.05
  9
$TEXTSTYLE
  7
Standard
  9
$CLAYER
  8
0
  9
$CELTYPE
  6
ByLayer
  9
$CECOLOR
 62
   256
  9
$CELTSCALE
 40
1.0
  9
$DISPSILH
 70
     0
  9
$DIMSCALE
 40
1.0
  9
$DIMASZ
 40
0.18
  9
$DIMEXO
 40
0.0625
  9
$DIMDLI
 40
0.38
  9
$DIMRND
 40
0.0
  9
$DIMDLE
 40
0.0
  9
$DIMEXE
 40
0.18
  9
$DIMTP
 40
0.0
  9
$DIMTM
 40
0.0
  9
$DIMTXT
 40
0.18
  9
$DIMCEN
 40
0.09
  9
$DIMTSZ
 40
0.0
  9
$DIMTOL
 70
     0
  9
$DIMLIM
 70
     0
  9
$DIMTIH
 70
     1
  9
$DIMTOH
 70
     1
  9
$DIMSE1
 70
     0
  9
$DIMSE2
 70
     0
  9
$DIMTAD
 70
     0
  9
$DIMZIN
 70
     0
  9
$DIMBLK
  1

  9
$DIMASO
 70
     1
  9
$DIMSHO
 70
     1
  9
$DIMPOST
  1

  9
$DIMAPOST
  1

  9
$DIMALT
 70
     0
  9
$DIMALTD
 70
     2
  9
$DIMALTF
 40
25.4
  9
$DIMLFAC
 40
1.0
  9
$DIMTOFL
 70
     0
  9
$DIMTVP
 40
0.0
  9
$DIMTIX
 70
     0
  9
$DIMSOXD
 70
     0
  9
$DIMSAH
 70
     0
  9
$DIMBLK1
  1

  9
$DIMBLK2
  1

  9
$DIMSTYLE
  2
Standard
  9
$DIMCLRD
 70
     0
  9
$DIMCLRE
 70
     0
  9
$DIMCLRT
 70
     0
  9
$DIMTFAC
 40
1.0
  9
$DIMGAP
 40
0.09
  9
$DIMJUST
 70
     0
  9
$DIMSD1
 70
     0
  9
$DIMSD2
 70
     0
  9
$DIMTOLJ
 70
     1
  9
$DIMTZIN
 70
     0
  9
$DIMALTZ
 70
     0
  9
$DIMALTTZ
 70
     0
  9
$DIMUPT
 70
     0
  9
$DIMDEC
 70
     4
  9
$DIMTDEC
 70
     4
  9
$DIMALTU
 70
     2
  9
$DIMALTTD
 70
     2
  9
$DIMTXSTY
  7
Standard
  9
$DIMAUNIT
 70
     0
  9
$DIMADEC
 70
     0
  9
$DIMALTRND
 40
0.0
  9
$DIMAZIN
 70
     0
  9
$DIMDSEP
 70
    46
  9
$DIMATFIT
 70
     3
  9
$DIMFRAC
 70
     0
  9
$DIMLDRBLK
  1

  9
$DIMLUNIT
 70
     2
  9
$DIMLWD
 70
    -2
  9
$DIMLWE
 70
    -2
  9
$DIMTMOVE
 70
     0
  9
$LUNITS
 70
     2
  9
$LUPREC
 70
     4
  9
$SKETCHINC
 40
0.1
  9
$FILLETRAD
 40
0.5
  9
$AUNITS
 70
     0
  9
$AUPREC
 70
     0
  9
$MENU
  1
.
  9
$ELEVATION
 40
0.0
  9
$PELEVATION
 40
0.0
  9
$THICKNESS
 40
0.0
  9
$LIMCHECK
 70
     0
  9
$CHAMFERA
 40
0.5
  9
$CHAMFERB
 40
0.5
  9
$CHAMFERC
 40
1.0
  9
$CHAMFERD
 40
0.0
  9
$SKPOLY
 70
     0
  9
$TDCREATE
 40
2454627.428465197
  9
$TDUCREATE
 40
2454627.345131863
  9
$TDUPDATE
 40
2454627.428465209
  9
$TDUUPDATE
 40
2454627.345131875
  9
$TDINDWG
 40
0.0000000116
  9
$TDUSRTIMER
 40
0.0000000116
  9
$USRTIMER
 70
     1
  9
$ANGBASE
 50
0.0
  9
$ANGDIR
 70
     0
  9
$PDMODE
 70
     0
  9
$PDSIZE
 40
0.0
  9
$PLINEWID
 40
0.0
  9
$SPLFRAME
 70
     0
  9
$SPLINETYPE
 70
     6
  9
$SPLINESEGS
 70
     8
  9
$HANDSEED
  5
20F
  9
$SURFTAB1
 70
     6
  9
$SURFTAB2
 70
     6
  9
$SURFTYPE
 70
     6
  9
$SURFU
 70
     6
  9
$SURFV
 70
     6
  9
$UCSBASE
  2

  9
$UCSNAME
  2

  9
$UCSORG
 10
0.0
 20
0.0
 30
0.0
  9
$UCSXDIR
 10
1.0
 20
0.0
 30
0.0
  9
$UCSYDIR
 10
0.0
 20
1.0
 30
0.0
  9
$UCSORTHOREF
  2

  9
$UCSORTHOVIEW
 70
     0
  9
$UCSORGTOP
 10
0.0
 20
0.0
 30
0.0
  9
$UCSORGBOTTOM
 10
0.0
 20
0.0
 30
0.0
  9
$UCSORGLEFT
 10
0.0
 20
0.0
 30
0.0
  9
$UCSORGRIGHT
 10
0.0
 20
0.0
 30
0.0
  9
$UCSORGFRONT
 10
0.0
 20
0.0
 30
0.0
  9
$UCSORGBACK
 10
0.0
 20
0.0
 30
0.0
  9
$PUCSBASE
  2

  9
$PUCSNAME
  2

  9
$PUCSORG
 10
0.0
 20
0.0
 30
0.0
  9
$PUCSXDIR
 10
1.0
 20
0.0
 30
0.0
  9
$PUCSYDIR
 10
0.0
 20
1.0
 30
0.0
  9
$PUCSORTHOREF
  2

  9
$PUCSORTHOVIEW
 70
     0
  9
$PUCSORGTOP
 10
0.0
 20
0.0
 30
0.0
  9
$PUCSORGBOTTOM
 10
0.0
 20
0.0
 30
0.0
  9
$PUCSORGLEFT
 10
0.0
 20
0.0
 30
0.0
  9
$PUCSORGRIGHT
 10
0.0
 20
0.0
 30
0.0
  9
$PUCSORGFRONT
 10
0.0
 20
0.0
 30
0.0
  9
$PUCSORGBACK
 10
0.0
 20
0.0
 30
0.0
  9
$USERI1
 70
     0
  9
$USERI2
 70
     0
  9
$USERI3
 70
     0
  9
$USERI4
 70
     0
  9
$USERI5
 70
     0
  9
$USERR1
 40
14.5
  9
$USERR2
 40
0.0
  9
$USERR3
 40
0.0
  9
$USERR4
 40
0.0
  9
$USERR5
 40
0.0
  9
$WORLDVIEW
 70
     1
  9
$SHADEDGE
 70
     3
  9
$SHADEDIF
 70
    70
  9
$TILEMODE
 70
     1
  9
$MAXACTVP
 70
    64
  9
$PINSBASE
 10
0.0
 20
0.0
 30
0.0
  9
$PLIMCHECK
 70
     0
  9
$PEXTMIN
 10
1.00000000000000E+20
 20
1.00000000000000E+20
 30
1.00000000000000E+20
  9
$PEXTMAX
 10
-1.00000000000000E+20
 20
-1.00000000000000E+20
 30
-1.00000000000000E+20
  9
$PLIMMIN
 10
0.0
 20
0.0
  9
$PLIMMAX
 10
12.0
 20
9.0
  9
$UNITMODE
 70
     0
  9
$VISRETAIN
 70
     1
  9
$PLINEGEN
 70
     0
  9
$PSLTSCALE
 70
     1
  9
$TREEDEPTH
 70
  3020
  9
$CMLSTYLE
  2
Standard
  9
$CMLJUST
 70
     0
  9
$CMLSCALE
 40
1.0
  9
$PROXYGRAPHICS
 70
     1
  9
$MEASUREMENT
 70
     1
  9
$CELWEIGHT
370
    -1
  9
$ENDCAPS
280
     0
  9
$JOINSTYLE
280
     0
  9
$LWDISPLAY
290
     0
  9
$INSUNITS
 70
     1
  9
$HYPERLINKBASE
  1

  9
$STYLESHEET
  1

  9
$XEDIT
290
     1
  9
$CEPSNTYPE
380
     0
  9
$PSTYLEMODE
290
     1
  9
$FINGERPRINTGUID
  2
{DC3E6CA2-D007-4177-93A1-F2464F31FD58}
  9
$VERSIONGUID
  2
{FAEB1C32-E019-11D5-929B-00C0DF256EC4}
  9
$EXTNAMES
290
     1
  9
$PSVPSCALE
 40
0.0
  9
$OLESTARTUP
290
     0
  9
$SORTENTS
280
   127
  9
$INDEXCTL
280
     0
  9
$HIDETEXT
280
     1
  9
$XCLIPFRAME
290
     0
  9
$HALOGAP
280
     0
  9
$OBSCOLOR
 70
   257
  9
$OBSLTYPE
280
     0
  9
$INTERSECTIONDISPLAY
280
     0
  9
$INTERSECTIONCOLOR
 70
   257
  9
$DIMASSOC
280
     2
  9
$PROJECTNAME
  1

  0
ENDSEC
  0
SECTION
  2
CLASSES
  0
CLASS
  1
ACDBDICTIONARYWDFLT
  2
AcDbDictionaryWithDefault
  3
ObjectDBX Classes
 90
        0
 91
        3
280
     0
281
     0
  0
CLASS
  1

  2
exOdDbCircle
  3

 90
        0
 91
        3
280
     0
281
     1
  0
CLASS
  1

  2
exOdDbPolyline
  3

 90
        0
 91
        3
280
     0
281
     1
  0
ENDSEC
  0
SECTION
  2
TABLES
  0
TABLE
  2
VPORT
  5
8
330
0
100
AcDbSymbolTable
 70
     1
  0
VPORT
  5
29
330
8
100
AcDbSymbolTableRecord
100
AcDbViewportTableRecord
  2
*Active
 70
     0
 10
0.0
 20
0.0
 11
1.0
 21
1.0
 12
-14.13364588324994
 22
-7.58907094961765
 13
0.0
 23
0.0
 14
0.5
 24
0.5
 15
0.5
 25
0.5
 16
0.0
 26
0.0
 36
1.0
 17
0.0
 27
0.0
 37
0.0
 40
265.0331475583861
 41
1.60267857142857
 42
50.0
 43
0.0
 44
0.0
 50
0.0
 51
0.0
 71
     0
 72
   100
 73
     1
 74
     3
 75
     0
 76
     0
 77
     0
 78
     0
281
     0
 65
     1
110
0.0
120
0.0
130
0.0
111
1.0
121
0.0
131
0.0
112
0.0
122
1.0
132
0.0
 79
     0
146
0.0
  0
ENDTAB
  0
TABLE
  2
LTYPE
  5
5
330
0
100
AcDbSymbolTable
 70
     8
  0
LTYPE
  5
14
330
5
100
AcDbSymbolTableRecord
100
AcDbLinetypeTableRecord
  2
ByBlock
 70
     0
  3

 72
    65
 73
     0
 40
0.0
  0
LTYPE
  5
15
330
5
100
AcDbSymbolTableRecord
100
AcDbLinetypeTableRecord
  2
ByLayer
 70
     0
  3

 72
    65
 73
     0
 40
0.0
  0
LTYPE
  5
16
330
5
100
AcDbSymbolTableRecord
100
AcDbLinetypeTableRecord
  2
Continuous
 70
     0
  3
Solid line
 72
    65
 73
     0
 40
0.0
  0
LTYPE
  5
2A
330
5
100
AcDbSymbolTableRecord
100
AcDbLinetypeTableRecord
  2
DASHED
 70
     0
  3
Dashed
 72
    65
 73
     2
 40
15.0
 49
7.0
 74
     0
 49
-8.0
 74
     0
  0
LTYPE
  5
2B
330
5
100
AcDbSymbolTableRecord
100
AcDbLinetypeTableRecord
  2
DOTTED
 70
     0
  3
Dotted
 72
    65
 73
     2
 40
1.0
 49
0.0
 74
     0
 49
-1.0
 74
     0
  0
LTYPE
  5
2C
330
5
100
AcDbSymbolTableRecord
100
AcDbLinetypeTableRecord
  2
DOT_CENTER
 70
     0
  3
Dot_Center
 72
    65
 73
     4
 40
14.0
 49
12.0
 74
     0
 49
-1.0
 74
     0
 49
0.0
 74
     0
 49
-1.0
 74
     0
  0
LTYPE
  5
2D
330
5
100
AcDbSymbolTableRecord
100
AcDbLinetypeTableRecord
  2
LONG_DASHED
 70
     0
  3
Long_Dashed
 72
    65
 73
     2
 40
15.0
 49
10.0
 74
     0
 49
-5.0
 74
     0
  0
LTYPE
  5
2E
330
5
100
AcDbSymbolTableRecord
100
AcDbLinetypeTableRecord
  2
DASH_CENTER
 70
     0
  3
Dash_Center
 72
    65
 73
     4
 40
14.0
 49
11.0
 74
     0
 49
-1.0
 74
     0
 49
1.0
 74
     0
 49
-1.0
 74
     0
  0
LTYPE
  5
2F
330
5
100
AcDbSymbolTableRecord
100
AcDbLinetypeTableRecord
  2
PHANTOM
 70
     0
  3
Phantom
 72
    65
 73
     6
 40
13.0
 49
10.0
 74
     0
 49
-1.0
 74
     0
 49
0.0
 74
     0
 49
-1.0
 74
     0
 49
0.0
 74
     0
 49
-1.0
 74
     0
  0
LTYPE
  5
30
330
5
100
AcDbSymbolTableRecord
100
AcDbLinetypeTableRecord
  2
CENTER_DASH_DASH
 70
     0
  3
Center_Dash_Dash
 72
    65
 73
     6
 40
14.0
 49
9.0
 74
     0
 49
-1.0
 74
     0
 49
1.0
 74
     0
 49
-1.0
 74
     0
 49
1.0
 74
     0
 49
-1.0
 74
     0
  0
ENDTAB
  0
TABLE
  2
LAYER
  5
2
330
0
100
AcDbSymbolTable
 70
     2
  0
LAYER
  5
10
330
2
100
AcDbSymbolTableRecord
100
AcDbLayerTableRecord
  2
0
 70
     0
 62
     7
  6
Continuous
370
    -3
390
F
  0
LAYER
  5
31
330
2
100
AcDbSymbolTableRecord
100
AcDbLayerTableRecord
  2
1
 70
     0
 62
     7
  6
Continuous
370
    -3
390
F
  0
ENDTAB
  0
TABLE
  2
STYLE
  5
3
330
0
100
AcDbSymbolTable
 70
     4
  0
STYLE
  5
11
330
3
100
AcDbSymbolTableRecord
100
AcDbTextStyleTableRecord
  2
Standard
 70
     0
 40
0.0
 41
1.0
 50
0.0
 71
     0
 42
0.2
  3
txt
  4

  0
STYLE
  5
13A
330
3
100
AcDbSymbolTableRecord
100
AcDbTextStyleTableRecord
  2
CONVERTER_11
 70
     0
 40
0.0
 41
0.891
 50
0.0
 71
     0
 42
0.2
  3
txt.shx
  4

  0
STYLE
  5
13D
330
3
100
AcDbSymbolTableRecord
100
AcDbTextStyleTableRecord
  2
CONVERTER_12
 70
     0
 40
0.0
 41
0.88209
 50
0.0
 71
     0
 42
0.2
  3
txt.shx
  4

  0
STYLE
  5
14A
330
3
100
AcDbSymbolTableRecord
100
AcDbTextStyleTableRecord
  2
CONVERTER_13
 70
     0
 40
0.0
 41
0.9
 50
0.0
 71
     0
 42
0.2
  3
txt.shx
  4

  0
ENDTAB
  0
TABLE
  2
VIEW
  5
6
330
0
100
AcDbSymbolTable
 70
     0
  0
ENDTAB
  0
TABLE
  2
UCS
  5
7
330
0
100
AcDbSymbolTable
 70
     0
  0
ENDTAB
  0
TABLE
  2
APPID
  5
9
330
0
100
AcDbSymbolTable
 70
     1
  0
APPID
  5
12
330
9
100
AcDbSymbolTableRecord
100
AcDbRegAppTableRecord
  2
ACAD
 70
     0
  0
ENDTAB
  0
TABLE
  2
DIMSTYLE
  5
A
330
0
100
AcDbSymbolTable
 70
    16
100
AcDbDimStyleTable
  0
DIMSTYLE
105
27
330
A
100
AcDbSymbolTableRecord
100
AcDbDimStyleTableRecord
  2
Standard
 70
     0
340
11
  0
DIMSTYLE
105
156
102
{ACAD_REACTORS
330
157
102
}
330
A
100
AcDbSymbolTableRecord
100
AcDbDimStyleTableRecord
  2
ME10_DIM_10
 70
     0
 41
3.5
 42
0.0
 44
0.0
 73
     0
 74
     0
 77
     1
 78
     1
140
3.5
172
     1
173
     1
176
     2
177
     2
178
     2
271
     0
340
13A
  0
DIMSTYLE
105
163
102
{ACAD_REACTORS
330
164
102
}
330
A
100
AcDbSymbolTableRecord
100
AcDbDimStyleTableRecord
  2
ME10_DIM_11
 70
     0
 41
3.5
 42
0.0
 44
2.0
 73
     0
 74
     0
 77
     1
 78
     1
140
3.5
172
     1
173
     1
176
     2
177
     2
178
     2
271
     1
340
13A
  0
DIMSTYLE
105
16E
102
{ACAD_REACTORS
330
16F
102
}
330
A
100
AcDbSymbolTableRecord
100
AcDbDimStyleTableRecord
  2
ME10_DIM_12
 70
     0
 41
3.5
 42
0.0
 44
0.0
 73
     0
 74
     0
 77
     1
 78
     1
140
3.5
172
     1
173
     1
176
     2
177
     2
178
     2
271
     0
340
13A
  0
DIMSTYLE
105
17A
102
{ACAD_REACTORS
330
17B
102
}
330
A
100
AcDbSymbolTableRecord
100
AcDbDimStyleTableRecord
  2
ME10_DIM_13
 70
     0
 41
3.5
 42
0.0
 44
0.0
 73
     0
 74
     0
 77
     1
 78
     1
140
3.5
172
     1
173
     1
176
     2
177
     2
178
     2
271
     0
340
13A
  0
DIMSTYLE
105
185
102
{ACAD_REACTORS
330
186
102
}
330
A
100
AcDbSymbolTableRecord
100
AcDbDimStyleTableRecord
  2
ME10_DIM_14
 70
     0
 41
3.5
 42
0.0
 44
0.0
 73
     0
 74
     0
 77
     1
 78
     1
140
3.5
172
     1
173
     1
176
     2
177
     2
178
     2
271
     0
340
13A
  0
DIMSTYLE
105
190
102
{ACAD_REACTORS
330
191
102
}
330
A
100
AcDbSymbolTableRecord
100
AcDbDimStyleTableRecord
  2
ME10_DIM_15
 70
     0
 41
3.5
 42
0.0
 44
0.0
 73
     0
 74
     0
 77
     1
 78
     1
140
3.5
172
     1
173
     1
176
     2
177
     2
178
     2
271
     0
340
13A
  0
DIMSTYLE
105
19B
102
{ACAD_REACTORS
330
19C
102
}
330
A
100
AcDbSymbolTableRecord
100
AcDbDimStyleTableRecord
  2
ME10_DIM_16
 70
     0
 41
3.5
 42
0.0
 44
0.0
 73
     0
 74
     0
 77
     1
 78
     1
140
3.5
172
     1
173
     1
176
     2
177
     2
178
     2
271
     0
340
13A
  0
DIMSTYLE
105
1A7
102
{ACAD_REACTORS
330
1A8
102
}
330
A
100
AcDbSymbolTableRecord
100
AcDbDimStyleTableRecord
  2
ME10_DIM_17
 70
     0
 41
3.5
 42
0.0
 44
0.0
 73
     0
 74
     0
 77
     1
 78
     1
140
3.5
172
     1
173
     1
176
     2
177
     2
178
     2
271
     0
340
13A
  0
DIMSTYLE
105
1B3
102
{ACAD_REACTORS
330
1B4
102
}
330
A
100
AcDbSymbolTableRecord
100
AcDbDimStyleTableRecord
  2
ME10_DIM_18
 70
     0
 41
3.5
 42
0.0
 44
0.0
 73
     0
 74
     0
 77
     1
 78
     1
140
3.5
172
     1
173
     1
176
     2
177
     2
178
     2
271
     0
340
13A
  0
DIMSTYLE
105
1BE
102
{ACAD_REACTORS
330
1BF
102
}
330
A
100
AcDbSymbolTableRecord
100
AcDbDimStyleTableRecord
  2
ME10_DIM_19
 70
     0
 41
3.5
 42
0.0
 44
0.0
 73
     0
 74
     0
 77
     1
 78
     1
140
3.5
172
     1
173
     1
176
     2
177
     2
178
     2
271
     0
340
13D
  0
DIMSTYLE
105
1CB
102
{ACAD_REACTORS
330
1CC
102
}
330
A
100
AcDbSymbolTableRecord
100
AcDbDimStyleTableRecord
  2
ME10_DIM_20
 70
     0
 41
3.5
 42
0.0
 44
0.0
 73
     0
 74
     0
 77
     1
 78
     1
140
3.5
172
     1
173
     1
176
     2
177
     2
178
     2
271
     0
340
13D
  0
DIMSTYLE
105
1D6
102
{ACAD_REACTORS
330
1D7
102
}
330
A
100
AcDbSymbolTableRecord
100
AcDbDimStyleTableRecord
  2
ME10_DIM_21
 70
     0
 41
3.5
 42
0.0
 44
0.0
 73
     0
 74
     0
 77
     1
 78
     1
140
3.5
172
     1
173
     1
176
     2
177
     2
178
     2
271
     0
340
13D
  0
DIMSTYLE
105
1E1
102
{ACAD_REACTORS
330
1E2
102
}
330
A
100
AcDbSymbolTableRecord
100
AcDbDimStyleTableRecord
  2
ME10_DIM_22
 70
     0
 41
3.5
 42
0.0
 44
0.0
 73
     0
 74
     0
 77
     1
 78
     1
140
3.5
172
     1
173
     1
176
     2
177
     2
178
     2
271
     0
340
13D
  0
DIMSTYLE
105
1EE
102
{ACAD_REACTORS
330
1EF
102
}
330
A
100
AcDbSymbolTableRecord
100
AcDbDimStyleTableRecord
  2
ME10_DIM_23
 70
     0
 41
3.5
 42
0.0
 44
0.0
 73
     0
 74
     0
 77
     1
 78
     1
140
3.5
172
     1
173
     1
176
     2
177
     2
178
     2
271
     0
340
13D
  0
DIMSTYLE
105
1FB
102
{ACAD_REACTORS
330
1FC
102
}
330
A
100
AcDbSymbolTableRecord
100
AcDbDimStyleTableRecord
  2
ME10_DIM_24
 70
     0
 41
3.5
 42
0.0
 44
2.0
 73
     0
 74
     0
 77
     1
 78
     8
140
3.5
147
2.0
172
     1
173
     1
176
     2
177
     2
178
     2
271
     3
340
14A
  0
ENDTAB
  0
TABLE
  2
BLOCK_RECORD
  5
1
330
0
100
AcDbSymbolTable
 70
    18
  0
BLOCK_RECORD
  5
1F
330
1
100
AcDbSymbolTableRecord
100
AcDbBlockTableRecord
  2
*Model_Space
340
22
  0
BLOCK_RECORD
  5
1B
330
1
100
AcDbSymbolTableRecord
100
AcDbBlockTableRecord
  2
*Paper_Space
340
1E
  0
BLOCK_RECORD
  5
23
330
1
100
AcDbSymbolTableRecord
100
AcDbBlockTableRecord
  2
*Paper_Space0
340
26
  0
BLOCK_RECORD
  5
14D
330
1
100
AcDbSymbolTableRecord
100
AcDbBlockTableRecord
  2
*D1
340
0
  0
BLOCK_RECORD
  5
158
330
1
100
AcDbSymbolTableRecord
100
AcDbBlockTableRecord
  2
*D2
340
0
  0
BLOCK_RECORD
  5
165
330
1
100
AcDbSymbolTableRecord
100
AcDbBlockTableRecord
  2
*D3
340
0
  0
BLOCK_RECORD
  5
170
330
1
100
AcDbSymbolTableRecord
100
AcDbBlockTableRecord
  2
*D4
340
0
  0
BLOCK_RECORD
  5
17C
330
1
100
AcDbSymbolTableRecord
100
AcDbBlockTableRecord
  2
*D5
340
0
  0
BLOCK_RECORD
  5
187
330
1
100
AcDbSymbolTableRecord
100
AcDbBlockTableRecord
  2
*D6
340
0
  0
BLOCK_RECORD
  5
192
330
1
100
AcDbSymbolTableRecord
100
AcDbBlockTableRecord
  2
*D7
340
0
  0
BLOCK_RECORD
  5
19D
330
1
100
AcDbSymbolTableRecord
100
AcDbBlockTableRecord
  2
*D8
340
0
  0
BLOCK_RECORD
  5
1A9
330
1
100
AcDbSymbolTableRecord
100
AcDbBlockTableRecord
  2
*D9
340
0
  0
BLOCK_RECORD
  5
1B5
330
1
100
AcDbSymbolTableRecord
100
AcDbBlockTableRecord
  2
*D10
340
0
  0
BLOCK_RECORD
  5
1C0
330
1
100
AcDbSymbolTableRecord
100
AcDbBlockTableRecord
  2
*D11
340
0
  0
BLOCK_RECORD
  5
1CD
330
1
100
AcDbSymbolTableRecord
100
AcDbBlockTableRecord
  2
*D12
340
0
  0
BLOCK_RECORD
  5
1D8
330
1
100
AcDbSymbolTableRecord
100
AcDbBlockTableRecord
  2
*D13
340
0
  0
BLOCK_RECORD
  5
1E3
330
1
100
AcDbSymbolTableRecord
100
AcDbBlockTableRecord
  2
*D14
340
0
  0
BLOCK_RECORD
  5
1F0
330
1
100
AcDbSymbolTableRecord
100
AcDbBlockTableRecord
  2
*D15
340
0
  0
BLOCK_RECORD
  5
1FD
330
1
100
AcDbSymbolTableRecord
100
AcDbBlockTableRecord
  2
*D16
340
0
102
{BLKREFS
331
204
102
}
  0
BLOCK_RECORD
  5
205
330
1
100
AcDbSymbolTableRecord
100
AcDbBlockTableRecord
  2
*D17
340
0
102
{BLKREFS
331
20C
102
}
  0
ENDTAB
  0
ENDSEC
  0
SECTION
  2
BLOCKS
  0
BLOCK
  5
20
330
1F
100
AcDbEntity
  8
0
100
AcDbBlockBegin
  2
*Model_Space
 70
     0
 71
     0
 10
0.0
 20
0.0
 30
0.0
  3
*Model_Space
  1

  0
ENDBLK
  5
21
330
1F
100
AcDbEntity
  8
0
100
AcDbBlockEnd
  0
BLOCK
  5
1C
330
1B
100
AcDbEntity
 67
     1
  8
0
100
AcDbBlockBegin
  2
*Paper_Space
 70
     0
 71
     0
 10
0.0
 20
0.0
 30
0.0
  3
*Paper_Space
  1

  0
ENDBLK
  5
1D
330
1B
100
AcDbEntity
 67
     1
  8
0
100
AcDbBlockEnd
  0
BLOCK
  5
24
330
23
100
AcDbEntity
  8
0
100
AcDbBlockBegin
  2
*Paper_Space0
 70
     0
 71
     0
 10
0.0
 20
0.0
 30
0.0
  3
*Paper_Space0
  1

  0
ENDBLK
  5
25
330
23
100
AcDbEntity
  8
0
100
AcDbBlockEnd
  0
BLOCK
  5
154
330
14D
100
AcDbEntity
  8
0
100
AcDbBlockBegin
  2
*D1
 70
     1
 71
     0
 10
0.0
 20
0.0
 30
0.0
  3
*D1
  1

  0
LINE
  5
14E
330
14D
100
AcDbEntity
  8
1
  6
Continuous
 62
     2
100
AcDbLine
 10
-54.93609947070732
 20
10.25851397607219
 30
0.0
 11
-54.93609947070732
 21
90.26000017564729
 31
0.0
  0
LINE
  5
14F
330
14D
100
AcDbEntity
  8
1
  6
Continuous
 62
     2
100
AcDbLine
 10
-108.1902736152913
 20
90.26000017564729
 30
0.0
 11
-52.93609947070732
 21
90.26000017564729
 31
0.0
  0
LINE
  5
150
330
14D
100
AcDbEntity
  8
1
  6
Continuous
 62
     2
100
AcDbLine
 10
-62.73972934015134
 20
10.25851397607219
 30
0.0
 11
-52.93609947070732
 21
10.25851397607219
 31
0.0
  0
SOLID
  5
151
330
14D
100
AcDbEntity
  8
1
 62
     2
100
AcDbTrace
 10
-55.39688321226321
 20
13.75851397607219
 30
0.0
 11
-54.47531572915143
 21
13.75851397607219
 31
0.0
 12
-54.93609947070732
 22
10.25851397607219
 32
0.0
 13
-54.93609947070732
 23
10.25851397607219
 33
0.0
  0
SOLID
  5
152
330
14D
100
AcDbEntity
  8
1
 62
     2
100
AcDbTrace
 10
-54.47531572915143
 20
86.76000017564729
 30
0.0
 11
-55.39688321226321
 21
86.76000017564729
 31
0.0
 12
-54.93609947070732
 22
90.26000017564729
 32
0.0
 13
-54.93609947070732
 23
90.26000017564729
 33
0.0
  0
MTEXT
  5
153
330
14D
100
AcDbEntity
  8
1
 62
     2
100
AcDbMText
 10
-56.93609947070732
 20
48.88330387589747
 30
0.0
 40
3.5
 41
0.0
 71
     7
 72
     1
  1
80
  7
CONVERTER_11
 11
0.0
 21
1.0
 31
0.0
 73
     1
 44
0.60024009603842
  0
ENDBLK
  5
155
330
14D
100
AcDbEntity
  8
0
100
AcDbBlockEnd
  0
BLOCK
  5
161
330
158
100
AcDbEntity
  8
0
100
AcDbBlockBegin
  2
*D2
 70
     1
 71
     0
 10
0.0
 20
0.0
 30
0.0
  3
*D2
  1

  0
LINE
  5
159
330
158
100
AcDbEntity
  8
1
  6
Continuous
 62
     2
100
AcDbLine
 10
-78.73764091890132
 20
-117.5586834761568
 30
0.0
 11
-78.73764091890132
 21
-107.14488771784
 31
0.0
  0
LINE
  5
15A
330
158
100
AcDbEntity
  8
1
  6
Continuous
 62
     2
100
AcDbLine
 10
-78.73764091890132
 20
-121.0586834761568
 30
0.0
 11
-78.73764091890132
 21
-117.5586834761568
 31
0.0
  0
LINE
  5
15B
330
158
100
AcDbEntity
  8
1
  6
Continuous
 62
     2
100
AcDbLine
 10
-78.73764091890132
 20
-128.0586834761568
 30
0.0
 11
-78.73764091890132
 21
-121.0586834761568
 31
0.0
  0
LINE
  5
15C
330
158
100
AcDbEntity
  8
1
  6
Continuous
 62
     2
100
AcDbLine
 10
-96.19027361529132
 20
-117.5586834761568
 30
0.0
 11
-76.73764091890132
 21
-117.5586834761568
 31
0.0
  0
LINE
  5
15D
330
158
100
AcDbEntity
  8
1
  6
Continuous
 62
     2
100
AcDbLine
 10
-88.69027361529132
 20
-121.0586834761568
 30
0.0
 11
-76.73764091890132
 21
-121.0586834761568
 31
0.0
  0
SOLID
  5
15E
330
158
100
AcDbEntity
  8
1
 62
     2
100
AcDbTrace
 10
-79.1984246604572
 20
-114.0586834761568
 30
0.0
 11
-78.27685717734543
 21
-114.0586834761568
 31
0.0
 12
-78.73764091890132
 22
-117.5586834761568
 32
0.0
 13
-78.73764091890132
 23
-117.5586834761568
 33
0.0
  0
SOLID
  5
15F
330
158
100
AcDbEntity
  8
1
 62
     2
100
AcDbTrace
 10
-78.27685717734543
 20
-124.5586834761568
 30
0.0
 11
-79.1984246604572
 21
-124.5586834761568
 31
0.0
 12
-78.73764091890132
 22
-121.0586834761568
 32
0.0
 13
-78.73764091890132
 23
-121.0586834761568
 33
0.0
  0
MTEXT
  5
160
330
158
100
AcDbEntity
  8
1
 62
     2
100
AcDbMText
 10
-81.0291604863282
 20
-113.46851271784
 30
0.0
 40
3.5
 41
0.0
 71
     7
 72
     1
  1
3.5
  7
CONVERTER_11
 11
0.0
 21
1.0
 31
0.0
 73
     1
 44
0.60024009603842
  0
ENDBLK
  5
162
330
158
100
AcDbEntity
  8
0
100
AcDbBlockEnd
  0
BLOCK
  5
16C
330
165
100
AcDbEntity
  8
0
100
AcDbBlockBegin
  2
*D3
 70
     1
 71
     0
 10
0.0
 20
0.0
 30
0.0
  3
*D3
  1

  0
LINE
  5
166
330
165
100
AcDbEntity
  8
1
  6
Continuous
 62
     2
100
AcDbLine
 10
-139.9480230845063
 20
-39.54148602392783
 30
0.0
 11
-139.9480230845063
 21
60.45851397607218
 31
0.0
  0
LINE
  5
167
330
165
100
AcDbEntity
  8
1
  6
Continuous
 62
     2
100
AcDbLine
 10
-118.6415096356843
 20
60.45851397607218
 30
0.0
 11
-141.9480230845063
 21
60.45851397607218
 31
0.0
  0
LINE
  5
168
330
165
100
AcDbEntity
  8
1
  6
Continuous
 62
     2
100
AcDbLine
 10
-117.1902736152913
 20
-39.54148602392783
 30
0.0
 11
-141.9480230845063
 21
-39.54148602392783
 31
0.0
  0
SOLID
  5
169
330
165
100
AcDbEntity
  8
1
 62
     2
100
AcDbTrace
 10
-140.4088068260622
 20
-36.04148602392783
 30
0.0
 11
-139.4872393429504
 21
-36.04148602392783
 31
0.0
 12
-139.9480230845063
 22
-39.54148602392783
 32
0.0
 13
-139.9480230845063
 23
-39.54148602392783
 33
0.0
  0
SOLID
  5
16A
330
165
100
AcDbEntity
  8
1
 62
     2
100
AcDbTrace
 10
-139.4872393429504
 20
56.95851397607218
 30
0.0
 11
-140.4088068260622
 21
56.95851397607218
 31
0.0
 12
-139.9480230845063
 22
60.45851397607218
 32
0.0
 13
-139.9480230845063
 23
60.45851397607218
 33
0.0
  0
MTEXT
  5
16B
330
165
100
AcDbEntity
  8
1
 62
     2
100
AcDbMText
 10
-141.9480230845063
 20
6.82026397607226
 30
0.0
 40
3.5
 41
0.0
 71
     7
 72
     1
  1
100
  7
CONVERTER_11
 11
0.0
 21
1.0
 31
0.0
 73
     1
 44
0.60024009603842
  0
ENDBLK
  5
16D
330
165
100
AcDbEntity
  8
0
100
AcDbBlockEnd
  0
BLOCK
  5
178
330
170
100
AcDbEntity
  8
0
100
AcDbBlockBegin
  2
*D4
 70
     1
 71
     0
 10
0.0
 20
0.0
 30
0.0
  3
*D4
  1

  0
LINE
  5
171
330
170
100
AcDbEntity
  8
1
  6
Continuous
 62
     2
100
AcDbLine
 10
-108.1902736152913
 20
48.93129110022927
 30
0.0
 11
-96.1902736152913
 21
48.93129110022927
 31
0.0
  0
LINE
  5
172
330
170
100
AcDbEntity
  8
1
  6
Continuous
 62
     2
100
AcDbLine
 10
-108.1902736152913
 20
48.93129110022927
 30
0.0
 11
-96.1902736152913
 21
48.93129110022927
 31
0.0
  0
LINE
  5
173
330
170
100
AcDbEntity
  8
1
  6
Continuous
 62
     2
100
AcDbLine
 10
-108.1902736152913
 20
75.50720222576527
 30
0.0
 11
-108.1902736152913
 21
46.93129110022927
 31
0.0
  0
LINE
  5
174
330
170
100
AcDbEntity
  8
1
  6
Continuous
 62
     2
100
AcDbLine
 10
-96.1902736152913
 20
78.26000017564739
 30
0.0
 11
-96.1902736152913
 21
46.93129110022927
 31
0.0
  0
SOLID
  5
175
330
170
100
AcDbEntity
  8
1
 62
     2
100
AcDbTrace
 10
-99.6902736152913
 20
48.47050735867338
 30
0.0
 11
-99.6902736152913
 21
49.39207484178515
 31
0.0
 12
-96.1902736152913
 22
48.93129110022927
 32
0.0
 13
-96.1902736152913
 23
48.93129110022927
 33
0.0
  0
SOLID
  5
176
330
170
100
AcDbEntity
  8
1
 62
     2
100
AcDbTrace
 10
-104.6902736152913
 20
49.39207484178515
 30
0.0
 11
-104.6902736152913
 21
48.47050735867338
 31
0.0
 12
-108.1902736152913
 22
48.93129110022927
 32
0.0
 13
-108.1902736152913
 23
48.93129110022927
 33
0.0
  0
MTEXT
  5
177
330
170
100
AcDbEntity
  8
1
 62
     2
100
AcDbMText
 10
-104.3150742112143
 20
50.93129110022927
 30
0.0
 40
3.5
 41
0.0
 71
     7
 72
     1
  1
12
  7
CONVERTER_11
 11
0.9999999999970621
 21
2.424068405545307E-6
 31
0.0
 73
     1
 44
0.60024009603842
  0
ENDBLK
  5
179
330
170
100
AcDbEntity
  8
0
100
AcDbBlockEnd
  0
BLOCK
  5
183
330
17C
100
AcDbEntity
  8
0
100
AcDbBlockBegin
  2
*D5
 70
     1
 71
     0
 10
0.0
 20
0.0
 30
0.0
  3
*D5
  1

  0
LINE
  5
17D
330
17C
100
AcDbEntity
  8
1
  6
Continuous
 62
     2
100
AcDbLine
 10
-73.48793815881632
 20
-23.54148602392783
 30
0.0
 11
-73.48793815881632
 21
44.45851397607217
 31
0.0
  0
LINE
  5
17E
330
17C
100
AcDbEntity
  8
1
  6
Continuous
 62
     2
100
AcDbLine
 10
-115.1902736152913
 20
44.45851397607217
 30
0.0
 11
-71.48793815881632
 21
44.45851397607217
 31
0.0
  0
LINE
  5
17F
330
17C
100
AcDbEntity
  8
1
  6
Continuous
 62
     2
100
AcDbLine
 10
-115.1902736152913
 20
-23.54148602392783
 30
0.0
 11
-71.48793815881632
 21
-23.54148602392783
 31
0.0
  0
SOLID
  5
180
330
17C
100
AcDbEntity
  8
1
 62
     2
100
AcDbTrace
 10
-73.9487219003722
 20
-20.04148602392783
 30
0.0
 11
-73.02715441726043
 21
-20.04148602392783
 31
0.0
 12
-73.48793815881632
 22
-23.54148602392783
 32
0.0
 13
-73.48793815881632
 23
-23.54148602392783
 33
0.0
  0
SOLID
  5
181
330
17C
100
AcDbEntity
  8
1
 62
     2
100
AcDbTrace
 10
-73.02715441726043
 20
40.95851397607217
 30
0.0
 11
-73.9487219003722
 21
40.95851397607217
 31
0.0
 12
-73.48793815881632
 22
44.45851397607217
 32
0.0
 13
-73.48793815881632
 23
44.45851397607217
 33
0.0
  0
MTEXT
  5
182
330
17C
100
AcDbEntity
  8
1
 62
     2
100
AcDbMText
 10
-75.48793815881632
 20
8.19373425208127
 30
0.0
 40
3.5
 41
0.0
 71
     7
 72
     1
  1
68
  7
CONVERTER_11
 11
0.0
 21
1.0
 31
0.0
 73
     1
 44
0.60024009603842
  0
ENDBLK
  5
184
330
17C
100
AcDbEntity
  8
0
100
AcDbBlockEnd
  0
BLOCK
  5
18E
330
187
100
AcDbEntity
  8
0
100
AcDbBlockBegin
  2
*D6
 70
     1
 71
     0
 10
0.0
 20
0.0
 30
0.0
  3
*D6
  1

  0
LINE
  5
188
330
187
100
AcDbEntity
  8
1
  6
Continuous
 62
     2
100
AcDbLine
 10
-64.47074070658732
 20
-57.54148602392783
 30
0.0
 11
-64.47074070658732
 21
78.45851397607217
 31
0.0
  0
LINE
  5
189
330
187
100
AcDbEntity
  8
1
  6
Continuous
 62
     2
100
AcDbLine
 10
-105.6230504689833
 20
78.45851397607217
 30
0.0
 11
-62.47074070658732
 21
78.45851397607217
 31
0.0
  0
LINE
  5
18A
330
187
100
AcDbEntity
  8
1
  6
Continuous
 62
     2
100
AcDbLine
 10
-105.1954834277243
 20
-57.54148602392783
 30
0.0
 11
-62.47074070658732
 21
-57.54148602392783
 31
0.0
  0
SOLID
  5
18B
330
187
100
AcDbEntity
  8
1
 62
     2
100
AcDbTrace
 10
-64.93152444814321
 20
-54.04148602392783
 30
0.0
 11
-64.00995696503144
 21
-54.04148602392783
 31
0.0
 12
-64.47074070658732
 22
-57.54148602392783
 32
0.0
 13
-64.47074070658732
 23
-57.54148602392783
 33
0.0
  0
SOLID
  5
18C
330
187
100
AcDbEntity
  8
1
 62
     2
100
AcDbTrace
 10
-64.00995696503144
 20
74.95851397607217
 30
0.0
 11
-64.93152444814321
 21
74.95851397607217
 31
0.0
 12
-64.47074070658732
 22
78.45851397607217
 32
0.0
 13
-64.47074070658732
 23
78.45851397607217
 33
0.0
  0
MTEXT
  5
18D
330
187
100
AcDbEntity
  8
1
 62
     2
100
AcDbMText
 10
-66.47074070658732
 20
7.15423425208127
 30
0.0
 40
3.5
 41
0.0
 71
     7
 72
     1
  1
136
  7
CONVERTER_11
 11
0.0
 21
1.0
 31
0.0
 73
     1
 44
0.60024009603842
  0
ENDBLK
  5
18F
330
187
100
AcDbEntity
  8
0
100
AcDbBlockEnd
  0
BLOCK
  5
199
330
192
100
AcDbEntity
  8
0
100
AcDbBlockBegin
  2
*D7
 70
     1
 71
     0
 10
0.0
 20
0.0
 30
0.0
  3
*D7
  1

  0
LINE
  5
193
330
192
100
AcDbEntity
  8
1
  6
Continuous
 62
     2
100
AcDbLine
 10
-44.51247980642134
 20
-69.73999982435264
 30
0.0
 11
-44.51247980642134
 21
90.26000017564729
 31
0.0
  0
LINE
  5
194
330
192
100
AcDbEntity
  8
1
  6
Continuous
 62
     2
100
AcDbLine
 10
-108.1902736152913
 20
-69.73999982435264
 30
0.0
 11
-42.51247980642134
 21
-69.73999982435264
 31
0.0
  0
LINE
  5
195
330
192
100
AcDbEntity
  8
1
  6
Continuous
 62
     2
100
AcDbLine
 10
-108.1902736152913
 20
90.26000017564729
 30
0.0
 11
-42.51247980642134
 21
90.26000017564729
 31
0.0
  0
SOLID
  5
196
330
192
100
AcDbEntity
  8
1
 62
     2
100
AcDbTrace
 10
-44.97326354797723
 20
-66.23999982435264
 30
0.0
 11
-44.05169606486545
 21
-66.23999982435264
 31
0.0
 12
-44.51247980642134
 22
-69.73999982435264
 32
0.0
 13
-44.51247980642134
 23
-69.73999982435264
 33
0.0
  0
SOLID
  5
197
330
192
100
AcDbEntity
  8
1
 62
     2
100
AcDbTrace
 10
-44.05169606486545
 20
86.76000017564729
 30
0.0
 11
-44.97326354797723
 21
86.76000017564729
 31
0.0
 12
-44.51247980642134
 22
90.26000017564729
 32
0.0
 13
-44.51247980642134
 23
90.26000017564729
 33
0.0
  0
MTEXT
  5
198
330
192
100
AcDbEntity
  8
1
 62
     2
100
AcDbMText
 10
-46.51247980642134
 20
5.76326523119048
 30
0.0
 40
3.5
 41
0.0
 71
     7
 72
     1
  1
160
  7
CONVERTER_11
 11
0.0
 21
1.0
 31
0.0
 73
     1
 44
0.60024009603842
  0
ENDBLK
  5
19A
330
192
100
AcDbEntity
  8
0
100
AcDbBlockEnd
  0
BLOCK
  5
1A5
330
19D
100
AcDbEntity
  8
0
100
AcDbBlockBegin
  2
*D8
 70
     1
 71
     0
 10
0.0
 20
0.0
 30
0.0
  3
*D8
  1

  0
LINE
  5
19E
330
19D
100
AcDbEntity
  8
1
  6
Continuous
 62
     2
100
AcDbLine
 10
-118.1902736152913
 20
33.09216578074328
 30
0.0
 11
-96.19027361529129
 21
33.09216578074328
 31
0.0
  0
LINE
  5
19F
330
19D
100
AcDbEntity
  8
1
  6
Continuous
 62
     2
100
AcDbLine
 10
-118.1902736152913
 20
33.09216578074328
 30
0.0
 11
-96.19027361529129
 21
33.09216578074328
 31
0.0
  0
LINE
  5
1A0
330
19D
100
AcDbEntity
  8
1
  6
Continuous
 62
     2
100
AcDbLine
 10
-118.1902736152913
 20
40.70090514812828
 30
0.0
 11
-118.1902736152913
 21
31.09216578074328
 31
0.0
  0
LINE
  5
1A1
330
19D
100
AcDbEntity
  8
1
  6
Continuous
 62
     2
100
AcDbLine
 10
-96.19027361529129
 20
78.26000017564739
 30
0.0
 11
-96.19027361529129
 21
31.09216578074328
 31
0.0
  0
SOLID
  5
1A2
330
19D
100
AcDbEntity
  8
1
 62
     2
100
AcDbTrace
 10
-99.69027361529129
 20
32.63138203918739
 30
0.0
 11
-99.69027361529129
 21
33.55294952229917
 31
0.0
 12
-96.19027361529129
 22
33.09216578074328
 32
0.0
 13
-96.19027361529129
 23
33.09216578074328
 33
0.0
  0
SOLID
  5
1A3
330
19D
100
AcDbEntity
  8
1
 62
     2
100
AcDbTrace
 10
-114.6902736152913
 20
33.55294952229917
 30
0.0
 11
-114.6902736152913
 21
32.63138203918739
 31
0.0
 12
-118.1902736152913
 22
33.09216578074328
 32
0.0
 13
-118.1902736152913
 23
33.09216578074328
 33
0.0
  0
MTEXT
  5
1A4
330
19D
100
AcDbEntity
  8
1
 62
     2
100
AcDbMText
 10
-109.7987247421892
 20
35.09216578074328
 30
0.0
 40
3.5
 41
0.0
 71
     7
 72
     1
  1
22
  7
CONVERTER_11
 11
0.9999999999970621
 21
2.424068405545307E-6
 31
0.0
 73
     1
 44
0.60024009603842
  0
ENDBLK
  5
1A6
330
19D
100
AcDbEntity
  8
0
100
AcDbBlockEnd
  0
BLOCK
  5
1B1
330
1A9
100
AcDbEntity
  8
0
100
AcDbBlockBegin
  2
*D9
 70
     1
 71
     0
 10
0.0
 20
0.0
 30
0.0
  3
*D9
  1

  0
LINE
  5
1AA
330
1A9
100
AcDbEntity
  8
1
  6
Continuous
 62
     2
100
AcDbLine
 10
-111.1902736152913
 20
-51.73628432541373
 30
0.0
 11
-96.19027361529128
 21
-51.73628432541373
 31
0.0
  0
LINE
  5
1AB
330
1A9
100
AcDbEntity
  8
1
  6
Continuous
 62
     2
100
AcDbLine
 10
-111.1902736152913
 20
-51.73628432541373
 30
0.0
 11
-96.19027361529128
 21
-51.73628432541373
 31
0.0
  0
LINE
  5
1AC
330
1A9
100
AcDbEntity
  8
1
  6
Continuous
 62
     2
100
AcDbLine
 10
-96.19027361529128
 20
-57.73999982435263
 30
0.0
 11
-96.19027361529128
 21
-49.73628432541373
 31
0.0
  0
LINE
  5
1AD
330
1A9
100
AcDbEntity
  8
1
  6
Continuous
 62
     2
100
AcDbLine
 10
-111.1902736152913
 20
-31.84332405206473
 30
0.0
 11
-111.1902736152913
 21
-53.73628432541373
 31
0.0
  0
SOLID
  5
1AE
330
1A9
100
AcDbEntity
  8
1
 62
     2
100
AcDbTrace
 10
-99.69027361529128
 20
-52.19706806696961
 30
0.0
 11
-99.69027361529128
 21
-51.27550058385784
 31
0.0
 12
-96.19027361529128
 22
-51.73628432541373
 32
0.0
 13
-96.19027361529128
 23
-51.73628432541373
 33
0.0
  0
SOLID
  5
1AF
330
1A9
100
AcDbEntity
  8
1
 62
     2
100
AcDbTrace
 10
-107.6902736152913
 20
-51.27550058385784
 30
0.0
 11
-107.6902736152913
 21
-52.19706806696961
 31
0.0
 12
-111.1902736152913
 22
-51.73628432541373
 32
0.0
 13
-111.1902736152913
 23
-51.73628432541373
 33
0.0
  0
MTEXT
  5
1B0
330
1A9
100
AcDbEntity
  8
1
 62
     2
100
AcDbMText
 10
-105.7005899634873
 20
-49.73628432541373
 30
0.0
 40
3.5
 41
0.0
 71
     7
 72
     1
  1
15
  7
CONVERTER_11
 11
0.9999999999970621
 21
2.424068405545307E-6
 31
0.0
 73
     1
 44
0.60024009603842
  0
ENDBLK
  5
1B2
330
1A9
100
AcDbEntity
  8
0
100
AcDbBlockEnd
  0
BLOCK
  5
1BC
330
1B5
100
AcDbEntity
  8
0
100
AcDbBlockBegin
  2
*D10
 70
     1
 71
     0
 10
0.0
 20
0.0
 30
0.0
  3
*D10
  1

  0
LINE
  5
1B6
330
1B5
100
AcDbEntity
  8
1
  6
Continuous
 62
     2
100
AcDbLine
 10
96.57674246417628
 20
-40.54003845822032
 30
0.0
 11
96.57674246417628
 21
-77.34003845821334
 31
0.0
  0
LINE
  5
1B7
330
1B5
100
AcDbEntity
  8
1
  6
Continuous
 62
     2
100
AcDbLine
 10
65.65002053255157
 20
-77.34003845821334
 30
0.0
 11
96.57674246417628
 21
-77.34003845821334
 31
0.0
  0
LINE
  5
1B8
330
1B5
100
AcDbEntity
  8
1
  6
Continuous
 62
     2
100
AcDbLine
 10
60.45813620658438
 20
-40.54003845822032
 30
0.0
 11
96.57674246417628
 21
-40.54003845822032
 31
0.0
  0
SOLID
  5
1B9
330
1B5
100
AcDbEntity
  8
1
 62
     2
100
AcDbTrace
 10
97.03752620573216
 20
-44.04003845822032
 30
0.0
 11
96.11595872262039
 21
-44.04003845822032
 31
0.0
 12
96.57674246417628
 22
-40.54003845822032
 32
0.0
 13
96.57674246417628
 23
-40.54003845822032
 33
0.0
  0
SOLID
  5
1BA
330
1B5
100
AcDbEntity
  8
1
 62
     2
100
AcDbTrace
 10
96.11595872262039
 20
-73.84003845821334
 30
0.0
 11
97.03752620573216
 21
-73.84003845821334
 31
0.0
 12
96.57674246417628
 22
-77.34003845821334
 32
0.0
 13
96.57674246417628
 23
-77.34003845821334
 33
0.0
  0
MTEXT
  5
1BB
330
1B5
100
AcDbEntity
  8
1
 62
     2
100
AcDbMText
 10
94.684151583736
 20
-59.96914345821683
 30
0.0
 40
3.5
 41
0.0
 71
     7
 72
     1
  1
C
  7
CONVERTER_12
 11
0.0
 21
1.0
 31
0.0
 73
     1
 44
0.60024009603842
  0
ENDBLK
  5
1BD
330
1B5
100
AcDbEntity
  8
0
100
AcDbBlockEnd
  0
BLOCK
  5
1C9
330
1C0
100
AcDbEntity
  8
0
100
AcDbBlockBegin
  2
*D11
 70
     1
 71
     0
 10
0.0
 20
0.0
 30
0.0
  3
*D11
  1

  0
LINE
  5
1C1
330
1C0
100
AcDbEntity
  8
1
  6
Continuous
 62
     2
100
AcDbLine
 10
111.2872978033695
 20
-27.94003845822044
 30
0.0
 11
111.2872978033695
 21
-34.94003845822044
 31
0.0
  0
LINE
  5
1C2
330
1C0
100
AcDbEntity
  8
1
  6
Continuous
 62
     2
100
AcDbLine
 10
111.2872978033695
 20
-34.94003845822044
 30
0.0
 11
111.2872978033695
 21
-40.54003845822032
 31
0.0
  0
LINE
  5
1C3
330
1C0
100
AcDbEntity
  8
1
  6
Continuous
 62
     2
100
AcDbLine
 10
111.2872978033695
 20
-40.54003845822032
 30
0.0
 11
111.2872978033695
 21
-47.54003845822032
 31
0.0
  0
LINE
  5
1C4
330
1C0
100
AcDbEntity
  8
1
  6
Continuous
 62
     2
100
AcDbLine
 10
60.45813620658437
 20
-40.54003845822032
 30
0.0
 11
111.2872978033695
 21
-40.54003845822032
 31
0.0
  0
LINE
  5
1C5
330
1C0
100
AcDbEntity
  8
1
  6
Continuous
 62
     2
100
AcDbLine
 10
86.44924731769729
 20
-34.94003845822044
 30
0.0
 11
111.2872978033695
 21
-34.94003845822044
 31
0.0
  0
SOLID
  5
1C6
330
1C0
100
AcDbEntity
  8
1
 62
     2
100
AcDbTrace
 10
110.8265140618136
 20
-31.44003845822044
 30
0.0
 11
111.7480815449254
 21
-31.44003845822044
 31
0.0
 12
111.2872978033695
 22
-34.94003845822044
 32
0.0
 13
111.2872978033695
 23
-34.94003845822044
 33
0.0
  0
SOLID
  5
1C7
330
1C0
100
AcDbEntity
  8
1
 62
     2
100
AcDbTrace
 10
111.7480815449254
 20
-44.04003845822032
 30
0.0
 11
110.8265140618136
 21
-44.04003845822032
 31
0.0
 12
111.2872978033695
 22
-40.54003845822032
 32
0.0
 13
111.2872978033695
 23
-40.54003845822032
 33
0.0
  0
MTEXT
  5
1C8
330
1C0
100
AcDbEntity
  8
1
 62
     2
100
AcDbMText
 10
116.428561884996
 20
-46.48852146676511
 30
0.0
 40
3.5
 41
0.0
 71
     7
 72
     1
  1
Mass X
  7
CONVERTER_12
 11
0.0
 21
1.0
 31
0.0
 73
     1
 44
0.60024009603842
  0
ENDBLK
  5
1CA
330
1C0
100
AcDbEntity
  8
0
100
AcDbBlockEnd
  0
BLOCK
  5
1D4
330
1CD
100
AcDbEntity
  8
0
100
AcDbBlockBegin
  2
*D12
 70
     1
 71
     0
 10
0.0
 20
0.0
 30
0.0
  3
*D12
  1

  0
LINE
  5
1CE
330
1CD
100
AcDbEntity
  8
1
  6
Continuous
 62
     2
100
AcDbLine
 10
25.58818500924295
 20
-77.34003845821334
 30
0.0
 11
25.58818500924295
 21
-67.34003845821873
 31
0.0
  0
LINE
  5
1CF
330
1CD
100
AcDbEntity
  8
1
  6
Continuous
 62
     2
100
AcDbLine
 10
39.75813620658593
 20
-67.34003845821873
 30
0.0
 11
23.58818500924295
 21
-67.34003845821873
 31
0.0
  0
LINE
  5
1D0
330
1CD
100
AcDbEntity
  8
1
  6
Continuous
 62
     2
100
AcDbLine
 10
43.54942092206053
 20
-77.34003845821334
 30
0.0
 11
23.58818500924295
 21
-77.34003845821334
 31
0.0
  0
SOLID
  5
1D1
330
1CD
100
AcDbEntity
  8
1
 62
     2
100
AcDbTrace
 10
25.12740126768706
 20
-73.84003845821334
 30
0.0
 11
26.04896875079884
 21
-73.84003845821334
 31
0.0
 12
25.58818500924295
 22
-77.34003845821334
 32
0.0
 13
25.58818500924295
 23
-77.34003845821334
 33
0.0
  0
SOLID
  5
1D2
330
1CD
100
AcDbEntity
  8
1
 62
     2
100
AcDbTrace
 10
26.04896875079883
 20
-70.84003845821873
 30
0.0
 11
25.12740126768706
 21
-70.84003845821873
 31
0.0
 12
25.58818500924295
 22
-67.34003845821873
 32
0.0
 13
25.58818500924295
 23
-67.34003845821873
 33
0.0
  0
MTEXT
  5
1D3
330
1CD
100
AcDbEntity
  8
1
 62
     2
100
AcDbMText
 10
23.58818500924295
 20
-73.45490220821615
 30
0.0
 40
3.5
 41
0.0
 71
     7
 72
     1
  1
B
  7
CONVERTER_12
 11
0.0
 21
1.0
 31
0.0
 73
     1
 44
0.60024009603842
  0
ENDBLK
  5
1D5
330
1CD
100
AcDbEntity
  8
0
100
AcDbBlockEnd
  0
BLOCK
  5
1DF
330
1D8
100
AcDbEntity
  8
0
100
AcDbBlockBegin
  2
*D13
 70
     1
 71
     0
 10
0.0
 20
0.0
 30
0.0
  3
*D13
  1

  0
LINE
  5
1D9
330
1D8
100
AcDbEntity
  8
1
  6
Continuous
 62
     2
100
AcDbLine
 10
25.58818500924295
 20
-67.34003845821871
 30
0.0
 11
25.58818500924295
 21
-34.94003845822032
 31
0.0
  0
LINE
  5
1DA
330
1D8
100
AcDbEntity
  8
1
  6
Continuous
 62
     2
100
AcDbLine
 10
39.75813620658593
 20
-67.34003845821871
 30
0.0
 11
23.58818500924295
 21
-67.34003845821871
 31
0.0
  0
LINE
  5
1DB
330
1D8
100
AcDbEntity
  8
1
  6
Continuous
 62
     2
100
AcDbLine
 10
56.01434245658602
 20
-34.94003845822032
 30
0.0
 11
23.58818500924295
 21
-34.94003845822032
 31
0.0
  0
SOLID
  5
1DC
330
1D8
100
AcDbEntity
  8
1
 62
     2
100
AcDbTrace
 10
25.12740126768706
 20
-63.84003845821871
 30
0.0
 11
26.04896875079884
 21
-63.84003845821871
 31
0.0
 12
25.58818500924295
 22
-67.34003845821871
 32
0.0
 13
25.58818500924295
 23
-67.34003845821871
 33
0.0
  0
SOLID
  5
1DD
330
1D8
100
AcDbEntity
  8
1
 62
     2
100
AcDbTrace
 10
26.04896875079883
 20
-38.44003845822032
 30
0.0
 11
25.12740126768706
 21
-38.44003845822032
 31
0.0
 12
25.58818500924295
 22
-34.94003845822032
 32
0.0
 13
25.58818500924295
 23
-34.94003845822032
 33
0.0
  0
MTEXT
  5
1DE
330
1D8
100
AcDbEntity
  8
1
 62
     2
100
AcDbMText
 10
23.58818500924295
 20
-49.51449638802622
 30
0.0
 40
3.5
 41
0.0
 71
     7
 72
     1
  1
A
  7
CONVERTER_12
 11
0.0
 21
1.0
 31
0.0
 73
     1
 44
0.60024009603842
  0
ENDBLK
  5
1E0
330
1D8
100
AcDbEntity
  8
0
100
AcDbBlockEnd
  0
BLOCK
  5
1EC
330
1E3
100
AcDbEntity
  8
0
100
AcDbBlockBegin
  2
*D14
 70
     1
 71
     0
 10
0.0
 20
0.0
 30
0.0
  3
*D14
  1

  0
LINE
  5
1E4
330
1E3
100
AcDbEntity
  8
1
  6
Continuous
 62
     2
100
AcDbLine
 10
133.0286382439604
 20
-71.37546863322592
 30
0.0
 11
126.9664604174694
 21
-67.87546863322588
 31
0.0
  0
LINE
  5
1E5
330
1E3
100
AcDbEntity
  8
1
  6
Continuous
 62
     2
100
AcDbLine
 10
124.5415892868735
 20
-66.47546863322619
 30
0.0
 11
126.9664604174694
 21
-67.87546863322588
 31
0.0
  0
LINE
  5
1E6
330
1E3
100
AcDbEntity
  8
1
  6
Continuous
 62
     2
100
AcDbLine
 10
124.5415892868735
 20
-66.47546863322619
 30
0.0
 11
106.6843031741185
 21
-56.16555968903085
 31
0.0
  0
LINE
  5
1E7
330
1E3
100
AcDbEntity
  8
1
  6
Continuous
 62
     2
100
AcDbLine
 10
132.6303347875717
 20
-58.06535045652162
 30
0.0
 11
126.9664604174694
 21
-67.87546863322588
 31
0.0
  0
LINE
  5
1E8
330
1E3
100
AcDbEntity
  8
1
  6
Continuous
 62
     2
100
AcDbLine
 10
130.2054636569758
 20
-56.66535045652193
 30
0.0
 11
124.5415892868735
 21
-66.47546863322619
 31
0.0
  0
SOLID
  5
1E9
330
1E3
100
AcDbEntity
  8
1
 62
     2
100
AcDbTrace
 10
123.7049796334459
 20
-66.5245190590641
 30
0.0
 11
124.1657633750018
 21
-65.72641820738764
 31
0.0
 12
126.9664604174694
 22
-67.87546863322588
 32
0.0
 13
126.9664604174694
 23
-67.87546863322588
 33
0.0
  0
SOLID
  5
1EA
330
1E3
100
AcDbEntity
  8
1
 62
     2
100
AcDbTrace
 10
127.803070070897
 20
-67.82641820738796
 30
0.0
 11
127.3422863293411
 21
-68.62451905906443
 31
0.0
 12
124.5415892868735
 22
-66.47546863322619
 32
0.0
 13
124.5415892868735
 23
-66.47546863322619
 33
0.0
  0
MTEXT
  5
1EB
330
1E3
100
AcDbEntity
  8
1
 62
     2
100
AcDbMText
 10
107.6526116175606
 20
-54.67031276759126
 30
0.0
 40
3.5
 41
0.0
 71
     7
 72
     1
  1
Mass X
  7
CONVERTER_12
 11
0.8660254037844347
 21
-0.5000000000000068
 31
0.0
 73
     1
 44
0.60024009603842
  0
ENDBLK
  5
1ED
330
1E3
100
AcDbEntity
  8
0
100
AcDbBlockEnd
  0
BLOCK
  5
1F9
330
1F0
100
AcDbEntity
  8
0
100
AcDbBlockBegin
  2
*D15
 70
     1
 71
     0
 10
0.0
 20
0.0
 30
0.0
  3
*D15
  1

  0
LINE
  5
1F1
330
1F0
100
AcDbEntity
  8
1
  6
Continuous
 62
     2
100
AcDbLine
 10
-111.1902736152913
 20
-8.929132249667
 30
0.0
 11
-104.1902736152913
 21
-8.929132249667
 31
0.0
  0
LINE
  5
1F2
330
1F0
100
AcDbEntity
  8
1
  6
Continuous
 62
     2
100
AcDbLine
 10
-104.1902736152913
 20
-8.929132249667
 30
0.0
 11
-96.19027361529132
 21
-8.929132249667
 31
0.0
  0
LINE
  5
1F3
330
1F0
100
AcDbEntity
  8
1
  6
Continuous
 62
     2
100
AcDbLine
 10
-96.19027361529132
 20
-8.929132249667
 30
0.0
 11
-89.19027361529132
 21
-8.929132249667
 31
0.0
  0
LINE
  5
1F4
330
1F0
100
AcDbEntity
  8
1
  6
Continuous
 62
     2
100
AcDbLine
 10
-96.19027361529132
 20
-57.73999982435263
 30
0.0
 11
-96.19027361529132
 21
-6.929132249667
 31
0.0
  0
LINE
  5
1F5
330
1F0
100
AcDbEntity
  8
1
  6
Continuous
 62
     2
100
AcDbLine
 10
-104.1902736152913
 20
2.22233668783029
 30
0.0
 11
-104.1902736152913
 21
-10.929132249667
 31
0.0
  0
SOLID
  5
1F6
330
1F0
100
AcDbEntity
  8
1
 62
     2
100
AcDbTrace
 10
-107.6902736152913
 20
-9.38991599122288
 30
0.0
 11
-107.6902736152913
 21
-8.46834850811111
 31
0.0
 12
-104.1902736152913
 22
-8.929132249667
 32
0.0
 13
-104.1902736152913
 23
-8.929132249667
 33
0.0
  0
SOLID
  5
1F7
330
1F0
100
AcDbEntity
  8
1
 62
     2
100
AcDbTrace
 10
-92.69027361529132
 20
-8.46834850811111
 30
0.0
 11
-92.69027361529132
 21
-9.38991599122289
 31
0.0
 12
-96.19027361529132
 22
-8.929132249667
 32
0.0
 13
-96.19027361529132
 23
-8.929132249667
 33
0.0
  0
MTEXT
  5
1F8
330
1F0
100
AcDbEntity
  8
1
 62
     2
100
AcDbMText
 10
-101.527349455973
 20
-6.929132249667
 30
0.0
 40
3.5
 41
0.0
 71
     7
 72
     1
  1
8
  7
CONVERTER_13
 11
0.9999999999970621
 21
2.424068405545307E-6
 31
0.0
 73
     1
 44
0.60024009603842
  0
ENDBLK
  5
1FA
330
1F0
100
AcDbEntity
  8
0
100
AcDbBlockEnd
  0
BLOCK
  5
202
330
1FD
100
AcDbEntity
  8
0
100
AcDbBlockBegin
  2
*D16
 70
     1
 71
     0
 10
0.0
 20
0.0
 30
0.0
  3
*D16
  1

  0
LINE
  5
1FE
330
1FD
100
AcDbEntity
  8
1
  6
Continuous
 62
     2
100
AcDbLine
 10
-97.50261154101618
 20
72.80345553768245
 30
0.0
 11
-118.8779356895663
 21
83.71654481361227
 31
0.0
  0
SOLID
  5
1FF
330
1FD
100
AcDbEntity
  8
1
 62
     2
100
AcDbTrace
 10
-100.8293702338672
 20
73.98455598049985
 30
0.0
 11
-100.4103223914925
 21
74.80533946701141
 31
0.0
 12
-97.5026115410163
 22
72.80345553768257
 32
0.0
 13
-97.5026115410163
 23
72.80345553768257
 33
0.0
  0
SOLID
  5
200
330
1FD
100
AcDbEntity
  8
1
 62
     2
100
AcDbTrace
 10
-115.5511769967153
 20
82.53544437079488
 30
0.0
 11
-115.97022483909
 21
81.71466088428332
 31
0.0
 12
-118.8779356895662
 22
83.71654481361216
 32
0.0
 13
-118.8779356895662
 23
83.71654481361216
 33
0.0
  0
MTEXT
  5
201
330
1FD
100
AcDbEntity
  8
1
 62
     2
100
AcDbMText
 10
-112.6516282505325
 20
82.7833075535394
 30
0.0
 40
3.5
 41
0.0
 71
     7
 72
     1
  1
\C2;ø\C2;24
  7
CONVERTER_11
 11
0.8906385061895848
 21
-0.454712053163741
 31
0.0
 73
     1
 44
0.60024009603842
  0
ENDBLK
  5
203
330
1FD
100
AcDbEntity
  8
0
100
AcDbBlockEnd
  0
BLOCK
  5
20A
330
205
100
AcDbEntity
  8
0
100
AcDbBlockBegin
  2
*D17
 70
     1
 71
     0
 10
0.0
 20
0.0
 30
0.0
  3
*D17
  1

  0
LINE
  5
206
330
205
100
AcDbEntity
  8
1
  6
Continuous
 62
     2
100
AcDbLine
 10
-107.3674969000014
 20
-34.91694516184891
 30
0.0
 11
-121.441590529849
 21
-51.94284699588213
 31
0.0
  0
SOLID
  5
207
330
205
100
AcDbEntity
  8
1
 62
     2
100
AcDbTrace
 10
-109.2422977770194
 20
-37.90817289106228
 30
0.0
 11
-109.9526021908216
 21
-37.32101510506095
 31
0.0
 12
-107.3674969000014
 22
-34.91694516184891
 32
0.0
 13
-107.3674969000014
 23
-34.91694516184891
 33
0.0
  0
SOLID
  5
208
330
205
100
AcDbEntity
  8
1
 62
     2
100
AcDbTrace
 10
-113.1382494535632
 20
-41.17479915679338
 30
0.0
 11
-112.4279450397609
 21
-41.76195694279471
 31
0.0
 12
-115.0130503305812
 22
-44.16602688600673
 32
0.0
 13
-115.0130503305812
 23
-44.16602688600673
 33
0.0
  0
MTEXT
  5
209
330
205
100
AcDbEntity
  8
1
 62
     2
100
AcDbMText
 10
-122.1357219786527
 20
-49.64348153302471
 30
0.0
 40
3.5
 41
0.0
 71
     7
 72
     1
  1
\C2;ø\C2;12
  7
CONVERTER_11
 11
0.6371294525483204
 21
0.7707568103464786
 31
0.0
 73
     1
 44
0.60024009603842
  0
ENDBLK
  5
20B
330
205
100
AcDbEntity
  8
0
100
AcDbBlockEnd
  0
ENDSEC
  0
SECTION
  2
ENTITIES
  0
POINT
  5
32
330
1F
100
AcDbEntity
  8
1
 62
     3
 60
     1
100
AcDbPoint
 10
-183.866622937217
 20
69.7871243236084
 30
0.0
  0
POINT
  5
33
330
1F
100
AcDbEntity
  8
1
 62
     3
 60
     1
100
AcDbPoint
 10
-148.278020919141
 20
69.7871243236084
 30
0.0
  0
POINT
  5
34
330
1F
100
AcDbEntity
  8
1
 62
     3
 60
     1
100
AcDbPoint
 10
-108.9306688121253
 20
13.93664575427605
 30
0.0
  0
POINT
  5
35
330
1F
100
AcDbEntity
  8
1
 62
     3
 60
     1
100
AcDbPoint
 10
-186.009164453936
 20
-4.58790077531695
 30
0.0
  0
POINT
  5
36
330
1F
100
AcDbEntity
  8
1
 62
     3
 60
     1
100
AcDbPoint
 10
-150.009164453936
 20
-4.58790077531695
 30
0.0
  0
POINT
  5
37
330
1F
100
AcDbEntity
  8
1
 62
     3
 60
     1
100
AcDbPoint
 10
-144.009164453936
 20
5.41209922468305
 30
0.0
  0
POINT
  5
38
330
1F
100
AcDbEntity
  8
1
 62
     3
 60
     1
100
AcDbPoint
 10
54.35813620658607
 20
-77.34003845821597
 30
0.0
  0
LINE
  5
39
330
1F
100
AcDbEntity
  8
1
  6
Continuous
 62
     2
100
AcDbLine
 10
-96.19027361529132
 20
78.26000017564738
 30
0.0
 11
-96.19027361529132
 21
110.5734821289385
 31
0.0
  0
LINE
  5
3A
330
1F
100
AcDbEntity
  8
1
  6
Continuous
 62
     2
100
AcDbLine
 10
-88.69027361529132
 20
100.2600001756473
 30
0.0
 11
-88.69027361529132
 21
110.5734821289385
 31
0.0
  0
LINE
  5
3B
330
1F
100
AcDbEntity
  8
1
  6
Continuous
 62
     2
100
AcDbLine
 10
-96.19027361529132
 20
108.5734821289385
 30
0.0
 11
-88.69027361529132
 21
108.5734821289385
 31
0.0
  0
LINE
  5
3C
330
1F
100
AcDbEntity
  8
1
  6
Continuous
 62
     2
100
AcDbLine
 10
-96.19027361529132
 20
108.5734821289385
 30
0.0
 11
-103.1902736152913
 21
108.5734821289385
 31
0.0
  0
LINE
  5
3D
330
1F
100
AcDbEntity
  8
1
  6
Continuous
 62
     2
100
AcDbLine
 10
-88.69027361529132
 20
108.5734821289385
 30
0.0
 11
-81.69027361529132
 21
108.5734821289385
 31
0.0
  0
LINE
  5
3E
330
1F
100
AcDbEntity
  8
1
  6
DOT_CENTER
 62
     2
100
AcDbLine
 10
-84.25131395499432
 20
100.2600001756473
 30
0.0
 11
-134.3468553562683
 21
100.2600001756473
 31
0.0
  0
LINE
  5
3F
330
1F
100
AcDbEntity
  8
1
  6
DOT_CENTER
 62
     7
100
AcDbLine
 10
-121.1305666630153
 20
10.25851397607219
 30
0.0
 11
-136.3506770123193
 21
10.25851397607219
 31
0.0
  0
LINE
  5
40
330
1F
100
AcDbEntity
  8
1
  6
DOT_CENTER
 62
     2
100
AcDbLine
 10
-128.1902736152913
 20
-79.73999982435268
 30
0.0
 11
-83.91734367898633
 21
-79.73999982435268
 31
0.0
  0
LINE
  5
41
330
1F
100
AcDbEntity
  8
1
  6
DOT_CENTER
 62
     2
100
AcDbLine
 10
-111.1902736152913
 20
-92.74225076083377
 30
0.0
 11
-111.1902736152913
 21
-119.6640839656967
 31
0.0
  0
LINE
  5
42
330
1F
100
AcDbEntity
  8
1
  6
Continuous
 62
     7
100
AcDbLine
 10
-105.1902736152913
 20
-117.5586834761568
 30
0.0
 11
-96.19027361529132
 21
-117.5586834761568
 31
0.0
  0
LINE
  5
43
330
1F
100
AcDbEntity
  8
1
  6
Continuous
 62
     7
100
AcDbLine
 10
-96.19027361529132
 20
-121.0586834761568
 30
0.0
 11
-88.69027361529132
 21
-121.0586834761568
 31
0.0
  0
LINE
  5
44
330
1F
100
AcDbEntity
  8
1
  6
Continuous
 62
     7
100
AcDbLine
 10
-96.19027361529132
 20
-117.5586834761568
 30
0.0
 11
-96.19027361529132
 21
-121.0586834761568
 31
0.0
  0
LINE
  5
45
330
1F
100
AcDbEntity
  8
1
  6
Continuous
 62
     7
100
AcDbLine
 10
-128.1902736152913
 20
-117.5586834761568
 30
0.0
 11
-128.1902736152913
 21
-121.0586834761568
 31
0.0
  0
LINE
  5
46
330
1F
100
AcDbEntity
  8
1
  6
Continuous
 62
     7
100
AcDbLine
 10
-128.1902736152913
 20
-117.5586834761568
 30
0.0
 11
-105.1902736152913
 21
-117.5586834761568
 31
0.0
  0
LINE
  5
47
330
1F
100
AcDbEntity
  8
1
  6
Continuous
 62
     7
100
AcDbLine
 10
-128.1902736152913
 20
-121.0586834761568
 30
0.0
 11
-96.19027361529132
 21
-121.0586834761568
 31
0.0
  0
LINE
  5
48
330
1F
100
AcDbEntity
  8
1
  6
Continuous
 62
     7
100
AcDbLine
 10
-88.69027361529132
 20
100.2600001756473
 30
0.0
 11
-88.69027361529132
 21
-79.73999982435274
 31
0.0
  0
LINE
  5
49
330
1F
100
AcDbEntity
  8
1
  6
Continuous
 62
     7
100
AcDbLine
 10
-128.1902736152913
 20
10.45851397607217
 30
0.0
 11
-128.1902736152913
 21
-69.73999982435264
 31
0.0
  0
LINE
  5
4A
330
1F
100
AcDbEntity
  8
1
  6
DOT_CENTER
 62
     2
100
AcDbLine
 10
-128.1902736152913
 20
-95.05868347615683
 30
0.0
 11
-88.69027361529132
 21
-95.05868347615683
 31
0.0
  0
LINE
  5
4B
330
1F
100
AcDbEntity
  8
1
  6
Continuous
 62
     7
100
AcDbLine
 10
-96.19027361529132
 20
78.26000017564738
 30
0.0
 11
-96.19027361529132
 21
-57.73999982435263
 31
0.0
  0
LINE
  5
4C
330
1F
100
AcDbEntity
  8
1
  6
Continuous
 62
     7
100
AcDbLine
 10
-128.1902736152913
 20
90.26000017564729
 30
0.0
 11
-128.1902736152913
 21
10.45851397607217
 31
0.0
  0
LINE
  5
4D
330
1F
100
AcDbEntity
  8
1
  6
Continuous
 62
     7
100
AcDbLine
 10
-128.1902736152913
 20
-69.73999982435264
 30
0.0
 11
-108.1902736152913
 21
-69.73999982435264
 31
0.0
  0
LINE
  5
4E
330
1F
100
AcDbEntity
  8
1
  6
Continuous
 62
     7
100
AcDbLine
 10
-128.1902736152913
 20
90.26000017564729
 30
0.0
 11
-108.1902736152913
 21
90.26000017564729
 31
0.0
  0
LINE
  5
4F
330
1F
100
AcDbEntity
  8
1
  6
Continuous
 62
     7
100
AcDbLine
 10
-128.1902736152913
 20
90.26000017564729
 30
0.0
 11
-128.1902736152913
 21
100.2600001756473
 31
0.0
  0
LINE
  5
50
330
1F
100
AcDbEntity
  8
1
  6
Continuous
 62
     7
100
AcDbLine
 10
-128.1902736152913
 20
-69.73999982435264
 30
0.0
 11
-128.1902736152913
 21
-79.73999982435268
 31
0.0
  0
LINE
  5
51
330
1F
100
AcDbEntity
  8
1
  6
DOT_CENTER
 62
     2
100
AcDbLine
 10
-134.3468553562683
 20
-79.73999982435268
 30
0.0
 11
-128.1902736152913
 21
-79.73999982435268
 31
0.0
  0
LINE
  5
52
330
1F
100
AcDbEntity
  8
1
  6
DOT_CENTER
 62
     7
100
AcDbLine
 10
-101.6902736152913
 20
10.25851397607219
 30
0.0
 11
-82.58146257495233
 21
10.25851397607219
 31
0.0
  0
LINE
  5
53
330
1F
100
AcDbEntity
  8
1
  6
DOT_CENTER
 62
     2
100
AcDbLine
 10
-111.1902736152913
 20
-57.54148602392782
 30
0.0
 11
-105.1954834277243
 21
-57.54148602392782
 31
0.0
  0
LINE
  5
54
330
1F
100
AcDbEntity
  8
1
  6
DOT_CENTER
 62
     2
100
AcDbLine
 10
-121.2389762897293
 20
-23.54148602392783
 30
0.0
 11
-115.1902736152913
 21
-23.54148602392783
 31
0.0
  0
LINE
  5
55
330
1F
100
AcDbEntity
  8
1
  6
DOT_CENTER
 62
     2
100
AcDbLine
 10
-117.1902736152913
 20
-39.54148602392782
 30
0.0
 11
-103.5149960516313
 21
-39.54148602392782
 31
0.0
  0
LINE
  5
56
330
1F
100
AcDbEntity
  8
1
  6
DOT_CENTER
 62
     2
100
AcDbLine
 10
-119.6196667391953
 20
-39.54148602392782
 30
0.0
 11
-117.1902736152913
 21
-39.54148602392782
 31
0.0
  0
LINE
  5
57
330
1F
100
AcDbEntity
  8
1
  6
DOT_CENTER
 62
     2
100
AcDbLine
 10
-118.1902736152913
 20
-20.64007487810673
 30
0.0
 11
-118.1902736152913
 21
-26.52178069443474
 31
0.0
  0
LINE
  5
58
330
1F
100
AcDbEntity
  8
1
  6
DOT_CENTER
 62
     2
100
AcDbLine
 10
-111.1902736152913
 20
-31.84332405206473
 30
0.0
 11
-111.1902736152913
 21
-46.96771043690773
 31
0.0
  0
LINE
  5
59
330
1F
100
AcDbEntity
  8
1
  6
DOT_CENTER
 62
     2
100
AcDbLine
 10
-108.1902736152913
 20
-54.66994424400372
 30
0.0
 11
-108.1902736152913
 21
-60.69169067500673
 31
0.0
  0
LINE
  5
5A
330
1F
100
AcDbEntity
  8
1
  6
DOT_CENTER
 62
     2
100
AcDbLine
 10
-110.4145666900613
 20
78.45851397607217
 30
0.0
 11
-105.6230504689833
 21
78.45851397607217
 31
0.0
  0
LINE
  5
5B
330
1F
100
AcDbEntity
  8
1
  6
DOT_CENTER
 62
     2
100
AcDbLine
 10
-118.6415096356843
 20
60.45851397607218
 30
0.0
 11
-103.5437132409693
 21
60.45851397607218
 31
0.0
  0
LINE
  5
5C
330
1F
100
AcDbEntity
  8
1
  6
DOT_CENTER
 62
     2
100
AcDbLine
 10
-120.7429843405403
 20
44.45851397607218
 30
0.0
 11
-115.1902736152913
 21
44.45851397607218
 31
0.0
  0
LINE
  5
5D
330
1F
100
AcDbEntity
  8
1
  6
DOT_CENTER
 62
     2
100
AcDbLine
 10
-108.1902736152913
 20
81.02196617832527
 30
0.0
 11
-108.1902736152913
 21
75.50720222576527
 31
0.0
  0
LINE
  5
5E
330
1F
100
AcDbEntity
  8
1
  6
DOT_CENTER
 62
     2
100
AcDbLine
 10
-111.1902736152913
 20
68.45553684380226
 30
0.0
 11
-111.1902736152913
 21
53.17692851621627
 31
0.0
  0
LINE
  5
5F
330
1F
100
AcDbEntity
  8
1
  6
DOT_CENTER
 62
     2
100
AcDbLine
 10
-118.1902736152913
 20
48.29500632870327
 30
0.0
 11
-118.1902736152913
 21
40.70090514812828
 31
0.0
  0
LINE
  5
60
330
1F
100
AcDbEntity
  8
1
  6
Continuous
 62
     7
100
AcDbLine
 10
-128.1902736152913
 20
-95.05868347615683
 30
0.0
 11
-128.1902736152913
 21
-117.5586834761568
 31
0.0
  0
LINE
  5
61
330
1F
100
AcDbEntity
  8
1
  6
Continuous
 62
     7
100
AcDbLine
 10
-88.69027361529132
 20
-95.05868347615683
 30
0.0
 11
-88.69027361529132
 21
-121.0586834761568
 31
0.0
  0
LINE
  5
62
330
1F
100
AcDbEntity
  8
1
  6
DOT_CENTER
 62
     2
100
AcDbLine
 10
-133.0681929358853
 20
-95.05868347615683
 30
0.0
 11
-128.1902736152913
 21
-95.05868347615683
 31
0.0
  0
LINE
  5
63
330
1F
100
AcDbEntity
  8
1
  6
DOT_CENTER
 62
     2
100
AcDbLine
 10
-88.69027361529132
 20
-95.05868347615683
 30
0.0
 11
-83.30662181062033
 21
-95.05868347615683
 31
0.0
  0
LINE
  5
64
330
1F
100
AcDbEntity
  8
1
  6
Continuous
 62
     2
100
AcDbLine
 10
-131.6750931482003
 20
10.25851397607219
 30
0.0
 11
-138.986994254405
 21
21.73434987651996
 31
0.0
  0
LINE
  5
65
330
1F
100
AcDbEntity
  8
1
  6
DOT_CENTER
 62
     7
100
AcDbLine
 10
-121.1305666630153
 20
10.25851397607219
 30
0.0
 11
-101.6902736152913
 21
10.25851397607219
 31
0.0
  0
LINE
  5
66
330
1F
100
AcDbEntity
  8
1
  6
Continuous
 62
     2
100
AcDbLine
 10
-154.0181759036384
 20
45.32539295696427
 30
0.0
 11
-184.8359259181599
 21
45.32539295696427
 31
0.0
  0
LINE
  5
67
330
1F
100
AcDbEntity
  8
1
  6
Continuous
 62
     2
100
AcDbLine
 10
-141.3935787594593
 20
25.51142077223097
 30
0.0
 11
-154.0181759036384
 21
45.32539295696427
 31
0.0
  0
LINE
  5
69
330
1F
100
AcDbEntity
  8
1
  6
DOT_CENTER
 62
     2
100
AcDbLine
 10
39.75813620658605
 20
-24.35086991493773
 30
0.0
 11
36.39947724969974
 21
-24.35086991493773
 31
0.0
  0
LINE
  5
6A
330
1F
100
AcDbEntity
  8
1
  6
DOT_CENTER
 62
     2
100
AcDbLine
 10
64.15813620658614
 20
-24.35086991493773
 30
0.0
 11
66.89408597217184
 21
-24.35086991493773
 31
0.0
  0
LINE
  5
6B
330
1F
100
AcDbEntity
  8
1
  6
DOT_CENTER
 62
     2
100
AcDbLine
 10
39.75813620658605
 20
-24.35086991493773
 30
0.0
 11
39.75813620658605
 21
-21.81726282542533
 31
0.0
  0
LINE
  5
6C
330
1F
100
AcDbEntity
  8
1
  6
DOT_CENTER
 62
     2
100
AcDbLine
 10
39.75813620658605
 20
-24.35086991493773
 30
0.0
 11
64.15813620658614
 21
-24.35086991493773
 31
0.0
  0
LINE
  5
6D
330
1F
100
AcDbEntity
  8
1
  6
DOT_CENTER
 62
     2
100
AcDbLine
 10
39.75813620658605
 20
-67.34003845821873
 30
0.0
 11
39.75813620658605
 21
-70.92843043090505
 31
0.0
  0
LINE
  5
6E
330
1F
100
AcDbEntity
  8
1
  6
DOT_CENTER
 62
     2
100
AcDbLine
 10
39.75813620658605
 20
-67.34003845821873
 30
0.0
 11
39.75813620658605
 21
-24.35086991493773
 31
0.0
  0
LINE
  5
6F
330
1F
100
AcDbEntity
  8
1
  6
Continuous
 62
     2
100
AcDbLine
 10
111.4055498850348
 20
-91.27656928142954
 30
0.0
 11
103.1729822439253
 21
-46.70744774360103
 31
0.0
  0
LINE
  5
70
330
1F
100
AcDbEntity
  8
1
  6
Continuous
 62
     2
100
AcDbLine
 10
74.17387164381964
 20
-91.27656928142954
 30
0.0
 11
111.4055498850348
 21
-91.27656928142954
 31
0.0
  0
LINE
  5
71
330
1F
100
AcDbEntity
  8
1
  6
DOT_CENTER
 62
     2
100
AcDbLine
 10
86.44924731769729
 20
-34.94003845822044
 30
0.0
 11
86.44924731769717
 21
-32.51191594814991
 31
0.0
  0
LINE
  5
72
330
1F
100
AcDbEntity
  8
1
  6
DOT_CENTER
 62
     2
100
AcDbLine
 10
86.44924731769717
 20
-66.94003845822053
 30
0.0
 11
86.44924731769729
 21
-69.04154001211643
 31
0.0
  0
LINE
  5
73
330
1F
100
AcDbEntity
  8
1
  6
DOT_CENTER
 62
     2
100
AcDbLine
 10
86.44924731769729
 20
-34.94003845822044
 30
0.0
 11
86.44924731769717
 21
-66.94003845822053
 31
0.0
  0
LINE
  5
74
330
1F
100
AcDbEntity
  8
1
  6
Continuous
 62
     7
100
AcDbLine
 10
60.45813620658436
 20
-66.94003845822033
 30
0.0
 11
86.44924731769717
 21
-66.94003845822053
 31
0.0
  0
LINE
  5
75
330
1F
100
AcDbEntity
  8
1
  6
Continuous
 62
     7
100
AcDbLine
 10
56.95813620658603
 20
-40.54003845821912
 30
0.0
 11
60.45813620658437
 21
-40.54003845822032
 31
0.0
  0
LINE
  5
76
330
1F
100
AcDbEntity
  8
1
  6
Continuous
 62
     7
100
AcDbLine
 10
56.95813620658603
 20
-40.54003845821912
 30
0.0
 11
56.95813620658603
 21
-34.94003845822032
 31
0.0
  0
LINE
  5
77
330
1F
100
AcDbEntity
  8
1
  6
DASHED
 62
     2
100
AcDbLine
 10
56.95813620658603
 20
-66.94003845821914
 30
0.0
 11
60.45813620658436
 21
-66.94003845822033
 31
0.0
  0
LINE
  5
78
330
1F
100
AcDbEntity
  8
1
  6
Continuous
 62
     7
100
AcDbLine
 10
60.45813620658436
 20
-66.94003845822033
 30
0.0
 11
60.45813620658436
 21
-68.44426381033074
 31
0.0
  0
LINE
  5
79
330
1F
100
AcDbEntity
  8
1
  6
Continuous
 62
     7
100
AcDbLine
 10
56.95813620658603
 20
-66.94003845821914
 30
0.0
 11
56.95813620658603
 21
-68.05056041347893
 31
0.0
  0
LINE
  5
7A
330
1F
100
AcDbEntity
  8
1
  6
Continuous
 62
     7
100
AcDbLine
 10
39.75813620658605
 20
-67.34003845821873
 30
0.0
 11
54.55813620658617
 21
-67.34003845821873
 31
0.0
  0
LINE
  5
7B
330
1F
100
AcDbEntity
  8
1
  6
DOT_CENTER
 62
     2
100
AcDbLine
 10
54.35813620658607
 20
-67.43718027874434
 30
0.0
 11
54.35813620658607
 21
-87.78714283517203
 31
0.0
  0
LINE
  5
7C
330
1F
100
AcDbEntity
  8
1
  6
Continuous
 62
     7
100
AcDbLine
 10
60.50151331727854
 20
-68.62542703734763
 30
0.0
 11
62.20383977131414
 21
-73.35444746384655
 31
0.0
  0
LINE
  5
7D
330
1F
100
AcDbEntity
  8
1
  6
DOT_CENTER
 62
     2
100
AcDbLine
 10
43.54942092206065
 20
-77.34003845821334
 30
0.0
 11
45.55813620658617
 21
-77.34003845821803
 31
0.0
  0
LINE
  5
7E
330
1F
100
AcDbEntity
  8
1
  6
Continuous
 62
     7
100
AcDbLine
 10
60.45813620658436
 20
-66.94003845822033
 30
0.0
 11
60.45813620658265
 21
-60.54003845822032
 31
0.0
  0
LINE
  5
7F
330
1F
100
AcDbEntity
  8
1
  6
Continuous
 62
     7
100
AcDbLine
 10
60.45813620658318
 20
-49.34003845822033
 30
0.0
 11
60.45813620658437
 21
-40.54003845822032
 31
0.0
  0
LINE
  5
80
330
1F
100
AcDbEntity
  8
1
  6
Continuous
 62
     7
100
AcDbLine
 10
60.45813620658265
 20
-60.54003845822032
 30
0.0
 11
60.45813620658534
 21
-55.74003845822093
 31
0.0
  0
LINE
  5
81
330
1F
100
AcDbEntity
  8
1
  6
Continuous
 62
     7
100
AcDbLine
 10
56.95813620657597
 20
-62.34003845821912
 30
0.0
 11
56.95813620658603
 21
-66.94003845821914
 31
0.0
  0
LINE
  5
82
330
1F
100
AcDbEntity
  8
1
  6
Continuous
 62
     7
100
AcDbLine
 10
60.45813620658534
 20
-55.74003845822093
 30
0.0
 11
60.45813620658318
 21
-49.34003845822033
 31
0.0
  0
LINE
  5
83
330
1F
100
AcDbEntity
  8
1
  6
Continuous
 62
     7
100
AcDbLine
 10
56.95813620658603
 20
-40.54003845821912
 30
0.0
 11
56.95813620657597
 21
-62.34003845821912
 31
0.0
  0
LINE
  5
84
330
1F
100
AcDbEntity
  8
1
  6
Continuous
 62
     7
100
AcDbLine
 10
56.95813620658603
 20
-34.94003845822032
 30
0.0
 11
86.44924731769729
 21
-34.94003845822044
 31
0.0
  0
LINE
  5
85
330
1F
100
AcDbEntity
  8
1
  6
Continuous
 62
     2
100
AcDbLine
 10
65.61031260563416
 20
-95.38286814818645
 30
0.0
 11
82.42192390786275
 21
-53.13911098060003
 31
0.0
  0
LINE
  5
86
330
1F
100
AcDbEntity
  8
1
  6
DOT_CENTER
 62
     2
100
AcDbLine
 10
142.9754893610019
 20
-21.29257267874422
 30
0.0
 11
141.9240814723908
 21
-20.68554205122652
 31
0.0
  0
LINE
  5
87
330
1F
100
AcDbEntity
  8
1
  6
DOT_CENTER
 62
     2
100
AcDbLine
 10
156.8318958215531
 20
-29.29257267874422
 30
0.0
 11
157.7418726874361
 21
-29.81794806721814
 31
0.0
  0
LINE
  5
88
330
1F
100
AcDbEntity
  8
1
  6
DOT_CENTER
 62
     2
100
AcDbLine
 10
142.9754893610019
 20
-21.29257267874422
 30
0.0
 11
156.8318958215531
 21
-29.29257267874422
 31
0.0
  0
LINE
  5
89
330
1F
100
AcDbEntity
  8
1
  6
Continuous
 62
     7
100
AcDbLine
 10
144.0618701175264
 20
-36.66535045652162
 30
0.0
 11
156.8318958215531
 21
-29.29257267874422
 31
0.0
  0
LINE
  5
8A
330
1F
100
AcDbEntity
  8
1
  6
Continuous
 62
     7
100
AcDbLine
 10
132.6303347875717
 20
-30.06535045652163
 30
0.0
 11
130.2054636569759
 21
-28.66535045652193
 31
0.0
  0
LINE
  5
8B
330
1F
100
AcDbEntity
  8
1
  6
Continuous
 62
     7
100
AcDbLine
 10
142.070011688818
 20
-35.51535045652414
 30
0.0
 11
144.0618701175264
 21
-36.66535045652162
 31
0.0
  0
LINE
  5
8C
330
1F
100
AcDbEntity
  8
1
  6
Continuous
 62
     7
100
AcDbLine
 10
132.6303347875717
 20
-30.06535045652163
 30
0.0
 11
142.070011688818
 21
-35.51535045652414
 31
0.0
  0
LINE
  5
8D
330
1F
100
AcDbEntity
  8
1
  6
Continuous
 62
     7
100
AcDbLine
 10
130.2054636569759
 20
-28.66535045652193
 30
0.0
 11
142.9754893610019
 21
-21.29257267874422
 31
0.0
  0
LINE
  5
8E
330
1F
100
AcDbEntity
  8
1
  6
Continuous
 62
     7
100
AcDbLine
 10
144.0618701175266
 20
-92.66535045652165
 30
0.0
 11
156.8318958215531
 21
-85.29257267874425
 31
0.0
  0
LINE
  5
8F
330
1F
100
AcDbEntity
  8
1
  6
Continuous
 62
     7
100
AcDbLine
 10
132.6303347875717
 20
-86.06535045652166
 30
0.0
 11
130.205463656976
 21
-84.66535045652194
 31
0.0
  0
LINE
  5
90
330
1F
100
AcDbEntity
  8
1
  6
Continuous
 62
     7
100
AcDbLine
 10
142.070011688818
 20
-91.51535045652415
 30
0.0
 11
144.0618701175266
 21
-92.66535045652165
 31
0.0
  0
LINE
  5
91
330
1F
100
AcDbEntity
  8
1
  6
Continuous
 62
     7
100
AcDbLine
 10
132.6303347875717
 20
-86.06535045652166
 30
0.0
 11
142.070011688818
 21
-91.51535045652415
 31
0.0
  0
LINE
  5
92
330
1F
100
AcDbEntity
  8
1
  6
DOT_CENTER
 62
     2
100
AcDbLine
 10
127.2854205842939
 20
-54.97946280246361
 30
0.0
 11
147.5259717326647
 21
-66.66535045652194
 31
0.0
  0
LINE
  5
93
330
1F
100
AcDbEntity
  8
1
  6
Continuous
 62
     7
100
AcDbLine
 10
136.7872567257371
 20
-40.46535045652163
 30
0.0
 11
144.0618701175264
 21
-44.66535045652163
 31
0.0
  0
LINE
  5
94
330
1F
100
AcDbEntity
  8
1
  6
Continuous
 62
     7
100
AcDbLine
 10
132.6303347875717
 20
-73.26535045652165
 30
0.0
 11
132.6303347875717
 21
-58.06535045652162
 31
0.0
  0
LINE
  5
95
330
1F
100
AcDbEntity
  8
1
  6
Continuous
 62
     7
100
AcDbLine
 10
144.0618701175266
 20
-84.66535045652165
 30
0.0
 11
136.7872567257371
 21
-80.46535045652163
 31
0.0
  0
LINE
  5
96
330
1F
100
AcDbEntity
  8
1
  6
Continuous
 62
     7
100
AcDbLine
 10
130.2054636569759
 20
-28.66535045652193
 30
0.0
 11
130.2054636569759
 21
-56.66535045652193
 31
0.0
  0
LINE
  5
97
330
1F
100
AcDbEntity
  8
1
  6
Continuous
 62
     7
100
AcDbLine
 10
156.8318958215531
 20
-29.29257267874422
 30
0.0
 11
156.8318958215531
 21
-85.29257267874425
 31
0.0
  0
LINE
  5
98
330
1F
100
AcDbEntity
  8
1
  6
Continuous
 62
     7
100
AcDbLine
 10
145.1877031424463
 20
-84.01535045652165
 30
0.0
 11
137.9130897506568
 21
-79.81535045652166
 31
0.0
  0
LINE
  5
99
330
1F
100
AcDbEntity
  8
1
  6
Continuous
 62
     7
100
AcDbLine
 10
133.7561678124916
 20
-72.61535045652175
 30
0.0
 11
133.7561678124916
 21
-42.21535045652163
 31
0.0
  0
LINE
  5
9A
330
1F
100
AcDbEntity
  8
1
  6
Continuous
 62
     7
100
AcDbLine
 10
144.0618701175264
 20
-36.66535045652162
 30
0.0
 11
144.0618701175264
 21
-44.66535045652163
 31
0.0
  0
LINE
  5
9B
330
1F
100
AcDbEntity
  8
1
  6
Continuous
 62
     7
100
AcDbLine
 10
144.0618701175266
 20
-92.66535045652165
 30
0.0
 11
144.0618701175266
 21
-84.66535045652165
 31
0.0
  0
LINE
  5
9C
330
1F
100
AcDbEntity
  8
1
  6
Continuous
 62
     7
100
AcDbLine
 10
144.0618701175266
 20
-84.66535045652165
 30
0.0
 11
145.1877031424463
 21
-84.01535045652165
 31
0.0
  0
LINE
  5
9D
330
1F
100
AcDbEntity
  8
1
  6
Continuous
 62
     7
100
AcDbLine
 10
145.1877031424463
 20
-84.01535045652165
 30
0.0
 11
145.1877031424463
 21
-44.01535045652162
 31
0.0
  0
LINE
  5
9E
330
1F
100
AcDbEntity
  8
1
  6
Continuous
 62
     7
100
AcDbLine
 10
144.0618701175264
 20
-44.66535045652163
 30
0.0
 11
145.1877031424463
 21
-44.01535045652162
 31
0.0
  0
LINE
  5
9F
330
1F
100
AcDbEntity
  8
1
  6
Continuous
 62
     7
100
AcDbLine
 10
130.2054636569759
 20
-56.66535045652193
 30
0.0
 11
130.205463656976
 21
-84.66535045652194
 31
0.0
  0
LINE
  5
A0
330
1F
100
AcDbEntity
  8
1
  6
Continuous
 62
     7
100
AcDbLine
 10
132.6303347875717
 20
-58.06535045652162
 30
0.0
 11
132.6303347875717
 21
-42.86535045652163
 31
0.0
  0
LINE
  5
A1
330
1F
100
AcDbEntity
  8
1
  6
Continuous
 62
     2
100
AcDbLine
 10
70.40475127124918
 20
-25.95488524840883
 30
0.0
 11
111.1441891624428
 21
-25.95488524840883
 31
0.0
  0
LINE
  5
A2
330
1F
100
AcDbEntity
  8
1
  6
Continuous
 62
     2
100
AcDbLine
 10
70.40475127124918
 20
-25.95488524840883
 30
0.0
 11
63.65431582415644
 21
-33.92890693187223
 31
0.0
  0
LINE
  5
A3
330
1F
100
AcDbEntity
  8
1
  6
Continuous
 62
     7
100
AcDbLine
 10
64.15813620658614
 20
-31.74003845822034
 30
0.0
 11
64.15813620658614
 21
-24.35086991493773
 31
0.0
  0
LINE
  5
A4
330
1F
100
AcDbEntity
  8
1
  6
Continuous
 62
     7
100
AcDbLine
 10
54.55813620658617
 20
-67.34003845821873
 30
0.0
 11
54.55813620658617
 21
-33.48383220822043
 31
0.0
  0
LINE
  5
A5
330
1F
100
AcDbEntity
  8
1
  6
Continuous
 62
     7
100
AcDbLine
 10
54.55813620658617
 20
-31.74003845822034
 30
0.0
 11
54.55813620658617
 21
-33.48383220822043
 31
0.0
  0
LINE
  5
A6
330
1F
100
AcDbEntity
  8
1
  6
Continuous
 62
     7
100
AcDbLine
 10
55.35813620658607
 20
-33.15246135832202
 30
0.0
 11
55.35813620658607
 21
-32.54003845822032
 31
0.0
  0
LINE
  5
A7
330
1F
100
AcDbEntity
  8
1
  6
Continuous
 62
     7
100
AcDbLine
 10
56.34571330648467
 20
-34.14003845822034
 30
0.0
 11
55.35813620658607
 21
-33.15246135832202
 31
0.0
  0
LINE
  5
A8
330
1F
100
AcDbEntity
  8
1
  6
Continuous
 62
     7
100
AcDbLine
 10
62.37055910668764
 20
-34.14003845822034
 30
0.0
 11
56.34571330648467
 21
-34.14003845822034
 31
0.0
  0
LINE
  5
A9
330
1F
100
AcDbEntity
  8
1
  6
Continuous
 62
     7
100
AcDbLine
 10
63.35813620658607
 20
-33.15246135832202
 30
0.0
 11
62.37055910668764
 21
-34.14003845822034
 31
0.0
  0
LINE
  5
AA
330
1F
100
AcDbEntity
  8
1
  6
Continuous
 62
     7
100
AcDbLine
 10
63.35813620658607
 20
-32.54003845822032
 30
0.0
 11
63.35813620658607
 21
-33.15246135832202
 31
0.0
  0
LINE
  5
AB
330
1F
100
AcDbEntity
  8
1
  6
Continuous
 62
     7
100
AcDbLine
 10
55.35813620658607
 20
-32.54003845822032
 30
0.0
 11
63.35813620658607
 21
-32.54003845822032
 31
0.0
  0
LINE
  5
AC
330
1F
100
AcDbEntity
  8
1
  6
Continuous
 62
     7
100
AcDbLine
 10
54.55813620658617
 20
-31.74003845822034
 30
0.0
 11
64.15813620658614
 21
-31.74003845822034
 31
0.0
  0
LINE
  5
AD
330
1F
100
AcDbEntity
  8
1
  6
Continuous
 62
     7
100
AcDbLine
 10
64.15813620658614
 20
-31.74003845822034
 30
0.0
 11
64.15813620658614
 21
-33.48383220822043
 31
0.0
  0
LINE
  5
AE
330
1F
100
AcDbEntity
  8
1
  6
Continuous
 62
     7
100
AcDbLine
 10
64.15813620658614
 20
-33.48383220822043
 30
0.0
 11
62.70192995658627
 21
-34.94003845822032
 31
0.0
  0
LINE
  5
AF
330
1F
100
AcDbEntity
  8
1
  6
Continuous
 62
     7
100
AcDbLine
 10
54.55813620658617
 20
-33.48383220822043
 30
0.0
 11
56.01434245658615
 21
-34.94003845822032
 31
0.0
  0
LINE
  5
B0
330
1F
100
AcDbEntity
  8
1
  6
Continuous
 62
     7
100
AcDbLine
 10
56.01434245658615
 20
-34.94003845822032
 30
0.0
 11
62.70192995658627
 21
-34.94003845822032
 31
0.0
  0
LINE
  5
B1
330
1F
100
AcDbEntity
  8
1
  6
DOT_CENTER
 62
     2
100
AcDbLine
 10
45.55813620658617
 20
-77.34003845821803
 30
0.0
 11
59.65813620658278
 21
-77.34003845821597
 31
0.0
  0
LINE
  5
B2
330
1F
100
AcDbEntity
  8
1
  6
Continuous
 62
     2
100
AcDbLine
 10
65.61031260563416
 20
-95.38286814818645
 30
0.0
 11
37.90031708908273
 21
-95.38286814818645
 31
0.0
  0
LINE
  5
B3
330
1F
100
AcDbEntity
  8
1
  6
Continuous
 62
     2
100
AcDbLine
 10
111.4055498850348
 20
-91.27656928142954
 30
0.0
 11
116.2001347624745
 21
-65.51465365907693
 31
0.0
  0
LINE
  5
BC
330
1F
100
AcDbEntity
  8
1
  6
DOT_CENTER
 62
     2
100
AcDbLine
 10
-104.1902736152913
 20
17.41831562062828
 30
0.0
 11
-104.1902736152913
 21
2.22233668783029
 31
0.0
  0
LINE
  5
BD
330
1F
100
AcDbEntity
  8
1
  6
DOT_CENTER
 62
     2
100
AcDbLine
 10
-104.1902736152913
 20
-92.74225076083377
 30
0.0
 11
-104.1902736152913
 21
-119.6640839656967
 31
0.0
  0
LINE
  5
BE
330
1F
100
AcDbEntity
  8
1
  6
Continuous
 62
     2
100
AcDbLine
 10
-183.866622937217
 20
69.7871243236084
 30
0.0
 11
-148.278020919141
 21
69.7871243236084
 31
0.0
  0
LINE
  5
BF
330
1F
100
AcDbEntity
  8
1
  6
Continuous
 62
     2
100
AcDbLine
 10
-148.278020919141
 20
69.7871243236084
 30
0.0
 11
-143.2041737493104
 21
62.58519643143479
 31
0.0
  0
LINE
  5
C0
330
1F
100
AcDbEntity
  8
1
  6
Continuous
 62
     2
100
AcDbLine
 10
-137.4275412766991
 20
54.38571995238199
 30
0.0
 11
-108.9306688121253
 21
13.93664575427605
 31
0.0
  0
LINE
  5
C1
330
1F
100
AcDbEntity
  8
1
  6
Continuous
 62
     2
100
AcDbLine
 10
-186.009164453936
 20
-4.58790077531695
 30
0.0
 11
-150.009164453936
 21
-4.58790077531695
 31
0.0
  0
LINE
  5
C2
330
1F
100
AcDbEntity
  8
1
  6
Continuous
 62
     2
100
AcDbLine
 10
-150.009164453936
 20
-4.58790077531695
 30
0.0
 11
-144.009164453936
 21
5.41209922468305
 31
0.0
  0
LINE
  5
C3
330
1F
100
AcDbEntity
  8
1
  6
DOT_CENTER
 62
     2
100
AcDbLine
 10
59.65813620658278
 20
-77.34003845821597
 30
0.0
 11
65.65002053255157
 21
-77.34003845821334
 31
0.0
  0
ARC
  5
C4
330
1F
100
AcDbEntity
  8
1
  6
Continuous
 62
     7
100
AcDbCircle
 10
-108.1902736152913
 20
-57.73999982435263
 30
0.0
 40
12.00000000000001
100
AcDbArc
 50
-90.0
 51
0.0
  0
ARC
  5
C5
330
1F
100
AcDbEntity
  8
1
  6
Continuous
 62
     7
100
AcDbCircle
 10
-108.1902736152913
 20
78.26000017564738
 30
0.0
 40
11.99999999999999
100
AcDbArc
 50
0.0
 51
90.0
  0
ARC
  5
C6
330
1F
100
AcDbEntity
  8
1
  6
DOT_CENTER
 62
     2
100
AcDbCircle
 10
-108.1902736152913
 20
78.26000017564738
 30
0.0
 40
11.99999999999991
100
AcDbArc
 50
90.0
 51
0.0
  0
ARC
  5
122
330
1F
100
AcDbEntity
  8
1
  6
Continuous
 62
     7
100
AcDbCircle
 10
59.95813620658603
 20
-68.05056041347893
 30
0.0
 40
3.0
100
AcDbArc
 50
180.0
 51
-161.9525772966078
  0
ARC
  5
123
330
1F
100
AcDbEntity
  8
1
  6
Continuous
 62
     7
100
AcDbCircle
 10
60.85813620658423
 20
-68.44426381033074
 30
0.0
 40
0.3999999999998636
100
AcDbArc
 50
180.0
 51
-153.0695838103671
  0
ARC
  5
124
330
1F
100
AcDbEntity
  8
1
  6
Continuous
 62
     7
100
AcDbCircle
 10
54.35813620658607
 20
-77.34003845821803
 30
0.0
 40
8.800000000000068
100
AcDbArc
 50
71.8065010224437
 51
134.7928337023662
  0
ARC
  5
125
330
1F
100
AcDbEntity
  8
1
  6
Continuous
 62
     7
100
AcDbCircle
 10
54.35813620658607
 20
-77.34003845821803
 30
0.0
 40
8.799999999999898
100
AcDbArc
 50
180.0
 51
26.93041618962303
  0
ARC
  5
126
330
1F
100
AcDbEntity
  8
1
  6
Continuous
 62
     7
100
AcDbCircle
 10
54.35813620658607
 20
-77.34003845821803
 30
0.0
 40
8.800000000000107
100
AcDbArc
 50
26.93041618962303
 51
71.8065010224437
  0
ARC
  5
127
330
1F
100
AcDbEntity
  8
1
  6
Continuous
 62
     7
100
AcDbCircle
 10
54.35813620658607
 20
-77.34003845821334
 30
0.0
 40
8.79999999999682
100
AcDbArc
 50
134.7928337023877
 51
-179.9999999999695
  0
CIRCLE
  5
128
330
1F
100
AcDbEntity
  8
1
  6
DASHED
 62
     2
100
AcDbCircle
 10
-111.1902736152913
 20
60.45851397607218
 30
0.0
 40
6.0
  0
CIRCLE
  5
129
330
1F
100
AcDbEntity
  8
1
  6
DASHED
 62
     2
100
AcDbCircle
 10
-111.1902736152913
 20
-39.54148602392782
 30
0.0
 40
6.0
  0
CIRCLE
  5
12A
330
1F
100
AcDbEntity
  8
1
  6
Continuous
 62
     7
100
AcDbCircle
 10
-108.1902736152913
 20
78.26000017564738
 30
0.0
 40
1.5
  0
CIRCLE
  5
12B
330
1F
100
AcDbEntity
  8
1
  6
Continuous
 62
     7
100
AcDbCircle
 10
-118.1902736152913
 20
44.45851397607218
 30
0.0
 40
1.5
  0
CIRCLE
  5
12C
330
1F
100
AcDbEntity
  8
1
  6
Continuous
 62
     7
100
AcDbCircle
 10
-104.1902736152913
 20
10.25851397607219
 30
0.0
 40
1.5
  0
CIRCLE
  5
12D
330
1F
100
AcDbEntity
  8
1
  6
Continuous
 62
     7
100
AcDbCircle
 10
-118.1902736152913
 20
-23.54148602392783
 30
0.0
 40
1.5
  0
CIRCLE
  5
12E
330
1F
100
AcDbEntity
  8
1
  6
Continuous
 62
     7
100
AcDbCircle
 10
-108.1902736152913
 20
-57.54148602392782
 30
0.0
 40
1.5
  0
CIRCLE
  5
12F
330
1F
100
AcDbEntity
  8
1
  6
DASHED
 62
     2
100
AcDbCircle
 10
-104.1902736152913
 20
10.25851397607219
 30
0.0
 40
5.999999999999996
  0
CIRCLE
  5
130
330
1F
100
AcDbEntity
  8
1
  6
Continuous
 62
     7
100
AcDbCircle
 10
54.35813620658607
 20
-77.34003845821597
 30
0.0
 40
5.299999999996714
  0
LWPOLYLINE
  5
133
330
1F
100
AcDbEntity
  8
1
  6
Continuous
 62
     7
100
AcDbPolyline
 90
       21
 70
     0
 43
0.0
 10
132.6303347875717
 20
-73.26535045652165
 42
0.01652830894578
 10
132.6431883597797
 20
-73.64995222135703
 42
0.01533837708382
 10
132.6815525778457
 20
-74.0460912685546
 42
0.01435962970463
 10
132.7451326939324
 20
-74.45188639306703
 42
0.01356756740109
 10
132.8336339602026
 20
-74.86545638984693
 42
0.01293936130616
 10
132.946761628819
 20
-75.28492005384695
 42
0.01238660966278
 10
133.0836396020008
 20
-75.7067363671022
 42
0.01195087158203
 10
133.2430286999747
 20
-76.12732834560045
 42
0.01164333100033
 10
133.4240895519156
 20
-76.54476083522334
 42
0.0114553263855
 10
133.6259827869983
 20
-76.95709868185243
 42
0.01138039112678
 10
133.8478690343973
 20
-77.36240673136935
 42
0.01261122852628
 10
134.1156225950338
 20
-77.80026717863856
 42
0.01269978857412
 10
134.4030612303145
 20
-78.220858693728
 42
0.01294329869559
 10
134.7084617479009
 20
-78.62185686852104
 42
0.01335183383536
 10
135.030100955456
 20
-79.00093729490104
 42
0.01137127295462
 10
135.3348934068942
 20
-79.3243298904761
 42
0.01182842246173
 10
135.6165673737671
 20
-79.59517190346605
 42
0.01237473572948
 10
135.9037539854382
 20
-79.84559343511431
 42
0.01304664755557
 10
136.195339945557
 20
-80.07469601687221
 42
0.01386007663805
 10
136.4902119577735
 20
-80.2815811801909
 42
0.01483204614512
 10
136.7872567257371
 20
-80.46535045652163
  0
LWPOLYLINE
  5
134
330
1F
100
AcDbEntity
  8
1
  6
Continuous
 62
     7
100
AcDbPolyline
 90
       17
 70
     0
 43
0.0
 10
136.7872567257371
 20
-40.46535045652163
 42
0.00822821548428
 10
136.6314591899577
 20
-40.37877298381946
 42
0.00854089662779
 10
136.4761123488947
 20
-40.29917577260271
 42
0.00887863757831
 10
136.3213762065913
 20
-40.2266144508454
 42
0.00924242504402
 10
136.1674107670903
 20
-40.16114464652122
 42
0.00963296641939
 10
136.014376034435
 20
-40.10282198760405
 42
0.01005056809359
 10
135.8624320126683
 20
-40.05170210206773
 42
0.01049498562418
 10
135.7117387058331
 20
-40.00784061788613
 42
0.01096524461324
 10
135.5624561179724
 20
-39.97129316303304
 42
0.01145943407579
 10
135.4147442531292
 20
-39.94211536548242
 42
0.01197447880349
 10
135.2687631153466
 20
-39.92036285320805
 42
0.01214717359203
 10
135.1267160614708
 20
-39.90624217034291
 42
0.01261927548912
 10
134.9890456109918
 20
-39.8994993396448
 42
0.01308685834124
 10
134.8539331595427
 20
-39.89986933578134
 42
0.01354577897315
 10
134.7215033982617
 20
-39.90732794423682
 42
0.01398771708055
 10
134.5918810182863
 20
-39.92185095049573
 42
0.01440339905041
 10
134.4651907107543
 20
-39.94341414004234
  0
LWPOLYLINE
  5
135
330
1F
100
AcDbEntity
  8
1
  6
Continuous
 62
     7
100
AcDbPolyline
 90
       21
 70
     0
 43
0.0
 10
133.7561678124916
 20
-72.61535045652175
 42
0.01652830894623
 10
133.7690213846996
 20
-72.99995222135708
 42
0.01533837708368
 10
133.8073856027656
 20
-73.39609126855463
 42
0.01435962970491
 10
133.8709657188521
 20
-73.80188639306705
 42
0.01356756740123
 10
133.9594669851224
 20
-74.21545638984693
 42
0.0129393613059
 10
134.0725946537388
 20
-74.63492005384691
 42
0.01238660966299
 10
134.2094726269204
 20
-75.05673636710223
 42
0.01195087158175
 10
134.3688617248946
 20
-75.47732834560045
 42
0.01164333100043
 10
134.5499225768356
 20
-75.89476083522331
 42
0.01145532638529
 10
134.7518158119181
 20
-76.30709868185244
 42
0.01138039112642
 10
134.9737020593171
 20
-76.7124067313694
 42
0.01261122852661
 10
135.2414556199537
 20
-77.15026717863856
 42
0.01269978857411
 10
135.5288942552342
 20
-77.57085869372798
 42
0.01294329869555
 10
135.8342947728208
 20
-77.97185686852103
 42
0.01335183383508
 10
136.1559339803758
 20
-78.35093729490099
 42
0.01137127295433
 10
136.4607264318139
 20
-78.67432989047622
 42
0.01182842246168
 10
136.7424003986868
 20
-78.94517190346603
 42
0.01237473572933
 10
137.029587010358
 20
-79.19559343511439
 42
0.01304664755534
 10
137.3211729704767
 20
-79.42469601687216
 42
0.01386007663827
 10
137.6160449826932
 20
-79.63158118019089
 42
0.01483204614545
 10
137.9130897506568
 20
-79.81535045652166
  0
LWPOLYLINE
  5
136
330
1F
100
AcDbEntity
  8
1
  6
Continuous
 62
     7
100
AcDbPolyline
 90
       16
 70
     0
 43
0.0
 10
134.4651907107543
 20
-39.94341414004233
 42
0.0159371603995
 10
134.3752226717455
 20
-40.05257795874302
 42
0.01544499060618
 10
134.2908681530041
 20
-40.16906197860044
 42
0.01491607940248
 10
134.2122380480653
 20
-40.29273858541738
 42
0.01436403512634
 10
134.1394432504653
 20
-40.42348016499707
 42
0.01380095957552
 10
134.0725946537388
 20
-40.56115910314212
 42
0.01363263607618
 10
134.0100020507909
 20
-40.71027321534115
 42
0.01299435250021
 10
133.9541924907653
 20
-40.86583395736621
 42
0.01238042264074
 10
133.9052089460834
 20
-41.02761668137352
 42
0.01179655664147
 10
133.8630943891662
 20
-41.19539673951933
 42
0.01124636000703
 10
133.8278917924351
 20
-41.36894948395953
 42
0.01073175412797
 10
133.7996441283113
 20
-41.54805026685042
 42
0.01025336465561
 10
133.7783943692159
 20
-41.73247444034814
 42
0.00981085827313
 10
133.7641854875703
 20
-41.92199735660872
 42
0.00940322146226
 10
133.7570604557957
 20
-42.11639436778832
 10
133.7561678124916
 20
-42.21535045652163
  0
LWPOLYLINE
  5
137
330
1F
100
AcDbEntity
  8
1
  6
Continuous
 62
     7
100
AcDbPolyline
 90
       22
 70
     0
 43
0.0
 10
134.4651907107543
 20
-39.94341414004233
 42
0.01743481144889
 10
134.3199377000387
 20
-39.97779838866082
 42
0.01788572378941
 10
134.1791267000056
 20
-40.02187125014155
 42
0.01824127756089
 10
134.0429612973581
 20
-40.07559318876823
 42
0.01848528762272
 10
133.9116450787991
 20
-40.13892466882501
 42
0.02005196075152
 10
133.7805825197966
 20
-40.21485014399725
 42
0.01995150199177
 10
133.6510655822526
 20
-40.30415504202443
 42
0.01969501056051
 10
133.5284324726698
 20
-40.40391993253524
 42
0.0192966575285
 10
133.412854037949
 20
-40.51394820812553
 42
0.01877783487984
 10
133.3045011249917
 20
-40.63404326139191
 42
0.01816363538091
 10
133.203544580699
 20
-40.76400848493042
 42
0.01748027274635
 10
133.1101552519719
 20
-40.90364727133743
 42
0.01675287782882
 10
133.0245039857114
 20
-41.05276301320919
 42
0.01600391336724
 10
132.946761628819
 20
-41.21115910314203
 42
0.01613230485669
 10
132.8731867605915
 20
-41.38895657602915
 42
0.01523808316105
 10
132.8091884048276
 20
-41.57578540640173
 42
0.01438726973228
 10
132.7548385214488
 20
-41.77126940784353
 42
0.01358969849329
 10
132.7102090703762
 20
-41.97503239393833
 42
0.01285068008554
 10
132.675372011531
 20
-42.18669817826983
 42
0.01217213446312
 10
132.6503993048343
 20
-42.40589057442173
 42
0.01155357496319
 10
132.6353629102075
 20
-42.63223339597773
 42
0.01099290389353
 10
132.6303347875717
 20
-42.86535045652163
  0
LWPOLYLINE
  5
138
330
1F
100
AcDbEntity
  8
1
  6
Continuous
 62
     3
100
AcDbPolyline
 90
        5
 70
     1
 43
0.0
 10
102.5137761996851
 20
27.25773012319457
 10
102.5137761996851
 20
35.25773012319457
 10
37.52977619968507
 20
35.25773012319457
 10
37.52977619968507
 20
27.25773012319457
 10
102.5137761996851
 20
27.25773012319457
  0
LWPOLYLINE
  5
139
330
1F
100
AcDbEntity
  8
1
  6
Continuous
 62
     3
100
AcDbPolyline
 90
        5
 70
     1
 43
0.0
 10
126.1747761996851
 20
61.67959504230635
 10
126.1747761996851
 20
70.87959504230636
 10
37.52977619968507
 20
70.87959504230636
 10
37.52977619968507
 20
61.67959504230635
 10
126.1747761996851
 20
61.67959504230635
  0
TEXT
  5
13B
330
1F
100
AcDbEntity
  8
1
 62
     2
100
AcDbText
 10
-92.98263030319032
 20
110.4305415769215
 30
0.0
 40
3.5
  1
x
 41
0.891
  7
CONVERTER_11
100
AcDbText
  0
MTEXT
  5
13C
330
1F
100
AcDbEntity
  8
1
 62
     2
100
AcDbMText
 10
-169.4852481890623
 20
47.46360228393326
 30
0.0
 40
2.5
 41
0.0
 71
     5
 72
     1
  1
Bandbezugslinie
  7
CONVERTER_11
 73
     1
 44
0.60024009603842
  0
TEXT
  5
13E
330
1F
100
AcDbEntity
  8
1
 62
     2
100
AcDbText
 10
39.52977619968507
 20
3.82546053801687
 30
0.0
 40
3.2
  1
herstellerspezifisch.
 41
0.88209
  7
CONVERTER_12
100
AcDbText
  0
TEXT
  5
13F
330
1F
100
AcDbEntity
  8
1
 62
     2
100
AcDbText
 10
39.52977619968507
 20
10.86546053801687
 30
0.0
 40
3.2
  1
der Dichtungsandruck sind jeweils
 41
0.88209
  7
CONVERTER_12
100
AcDbText
  0
TEXT
  5
140
330
1F
100
AcDbEntity
  8
1
 62
     2
100
AcDbText
 10
39.52977619968507
 20
17.90546053801686
 30
0.0
 40
3.2
  1
Die Tuerdicke, Zargenfalztiefe und
 41
0.88209
  7
CONVERTER_12
100
AcDbText
  0
MTEXT
  5
141
330
1F
100
AcDbEntity
  8
1
 62
     3
100
AcDbMText
 10
39.52977619968507
 20
33.25773012319457
 30
0.0
 40
4.0
 41
0.0
 71
     1
 72
     1
  1
A + B - C = Mass X
  7
CONVERTER_12
 73
     1
 44
0.60024009603842
  0
MTEXT
  5
142
330
1F
100
AcDbEntity
  8
1
 62
     2
100
AcDbMText
 10
49.30891544376848
 20
-92.53899397273494
 30
0.0
 40
2.8
 41
0.0
 71
     5
 72
     1
  1
Tuerdicke
  7
CONVERTER_12
 73
     1
 44
0.60024009603842
  0
TEXT
  5
143
330
1F
100
AcDbEntity
  8
1
 62
     2
100
AcDbText
 10
74.65479911222187
 20
-95.23134803488304
 30
0.0
 40
2.8
  1
Mass
 41
0.88209
  7
CONVERTER_12
100
AcDbText
  0
TEXT
  5
144
330
1F
100
AcDbEntity
  8
1
 62
     2
100
AcDbText
 10
74.65479911222187
 20
-89.07134803488304
 30
0.0
 40
2.8
  1
zu ermittelndes
 41
0.88209
  7
CONVERTER_12
100
AcDbText
  0
TEXT
  5
145
330
1F
100
AcDbEntity
  8
1
 62
     2
100
AcDbText
 10
39.52977619968507
 20
41.24888723706528
 30
0.0
 40
3.2
  1
C = Breite Bandfluegelteil
 41
0.88209
  7
CONVERTER_12
100
AcDbText
  0
TEXT
  5
146
330
1F
100
AcDbEntity
  8
1
 62
     2
100
AcDbText
 10
39.52977619968507
 20
48.28888723706525
 30
0.0
 40
3.2
  1
B = Bandabstand zum Zargenspiegel
 41
0.88209
  7
CONVERTER_12
100
AcDbText
  0
TEXT
  5
147
330
1F
100
AcDbEntity
  8
1
 62
     2
100
AcDbText
 10
39.52977619968507
 20
55.32888723706527
 30
0.0
 40
3.2
  1
A = Zargenfalztiefe bis Schliessebene
 41
0.88209
  7
CONVERTER_12
100
AcDbText
  0
MTEXT
  5
148
330
1F
100
AcDbEntity
  8
1
 62
     2
100
AcDbMText
 10
90.55595628257564
 20
-22.25781394046214
 30
0.0
 40
2.8
 41
0.0
 71
     5
 72
     1
  1
Dichtungsandruck
  7
CONVERTER_12
 73
     1
 44
0.60024009603842
  0
MTEXT
  5
149
330
1F
100
AcDbEntity
  8
1
 62
     3
100
AcDbMText
 10
39.52977619968507
 20
68.87959504230636
 30
0.0
 40
4.0
 41
0.0
 71
     1
 72
     1
  1
Berechnung der Fraesbreite:
  7
CONVERTER_12
 73
     1
 44
0.60024009603842
  0
MTEXT
  5
14B
330
1F
100
AcDbEntity
  8
1
 62
     2
100
AcDbMText
 10
-187.765796023064
 20
-4.73587505060575
 30
0.0
 40
2.5
 41
0.0
 71
     4
 72
     1
  1
für Ausführung mit\P2 Tragzapfen
  7
CONVERTER_13
 73
     1
 44
1.32052821128451
  0
MTEXT
  5
14C
330
1F
100
AcDbEntity
  8
1
 62
     2
100
AcDbMText
 10
-185.713307110805
 20
69.6668480187533
 30
0.0
 40
2.5
 41
0.0
 71
     4
 72
     1
  1
für Ausführung mit\P1 Tragzapfen
  7
CONVERTER_13
 73
     1
 44
1.32052821128451
  0
DIMENSION
  5
157
330
1F
100
AcDbEntity
  8
1
100
AcDbDimension
  2
*D1
 10
-54.93609947070732
 20
10.25851397607219
 30
0.0
 11
-58.68609947070732
 21
51.48205387589747
 31
0.0
 70
    32
  1
<>
 71
     5
 42
-1.0
 53
90.0
  3
ME10_DIM_10
100
AcDbAlignedDimension
 13
-108.1902736152913
 23
90.26000017564729
 33
0.0
 14
-82.58146257495233
 24
10.25851397607219
 34
0.0
 50
90.0
100
AcDbRotatedDimension
  0
DIMENSION
  5
164
330
1F
100
AcDbEntity
  8
1
100
AcDbDimension
  2
*D2
 10
-78.73764091890132
 20
-117.5586834761568
 30
0.0
 11
-82.7791604863282
 21
-110.30670021784
 31
0.0
 70
    32
  1
<>
 71
     5
 42
-1.0
 53
90.0
  3
ME10_DIM_11
100
AcDbAlignedDimension
 13
-88.69027361529132
 23
-121.0586834761568
 33
0.0
 14
-96.19027361529132
 24
-117.5586834761568
 34
0.0
 50
90.0
100
AcDbRotatedDimension
  0
DIMENSION
  5
16F
330
1F
100
AcDbEntity
  8
1
100
AcDbDimension
  2
*D3
 10
-139.9480230845063
 20
-39.54148602392783
 30
0.0
 11
-143.6980230845063
 21
10.45851397607226
 31
0.0
 70
    32
  1
<>
 71
     5
 42
-1.0
 53
90.0
  3
ME10_DIM_12
100
AcDbAlignedDimension
 13
-118.6415096356843
 23
60.45851397607218
 33
0.0
 14
-117.1902736152913
 24
-39.54148602392782
 34
0.0
 50
90.0
100
AcDbRotatedDimension
  0
DIMENSION
  5
17B
330
1F
100
AcDbEntity
  8
1
100
AcDbDimension
  2
*D4
 10
-96.1902736152913
 20
48.93129110022927
 30
0.0
 11
-102.2360742112143
 21
52.68129110022927
 31
0.0
 70
    32
  1
<>
 71
     5
 42
-1.0
 53
0.00013888888889
  3
ME10_DIM_13
100
AcDbAlignedDimension
 13
-108.1902736152913
 23
75.50720222576527
 33
0.0
 14
-96.19027361529132
 24
78.26000017564738
 34
0.0
100
AcDbRotatedDimension
  0
DIMENSION
  5
186
330
1F
100
AcDbEntity
  8
1
100
AcDbDimension
  2
*D5
 10
-73.48793815881632
 20
-23.54148602392783
 30
0.0
 11
-77.23793815881632
 21
10.79248425208127
 31
0.0
 70
    32
  1
<>
 71
     5
 42
-1.0
 53
90.0
  3
ME10_DIM_14
100
AcDbAlignedDimension
 13
-115.1902736152913
 23
44.45851397607218
 33
0.0
 14
-115.1902736152913
 24
-23.54148602392783
 34
0.0
 50
90.0
100
AcDbRotatedDimension
  0
DIMENSION
  5
191
330
1F
100
AcDbEntity
  8
1
100
AcDbDimension
  2
*D6
 10
-64.47074070658732
 20
-57.54148602392783
 30
0.0
 11
-68.22074070658732
 21
10.79248425208127
 31
0.0
 70
    32
  1
<>
 71
     5
 42
-1.0
 53
90.0
  3
ME10_DIM_15
100
AcDbAlignedDimension
 13
-105.6230504689833
 23
78.45851397607217
 33
0.0
 14
-105.1954834277243
 24
-57.54148602392782
 34
0.0
 50
90.0
100
AcDbRotatedDimension
  0
DIMENSION
  5
19C
330
1F
100
AcDbEntity
  8
1
100
AcDbDimension
  2
*D7
 10
-44.51247980642134
 20
-69.73999982435264
 30
0.0
 11
-48.26247980642134
 21
9.40151523119048
 31
0.0
 70
    32
  1
<>
 71
     5
 42
-1.0
 53
90.0
  3
ME10_DIM_16
100
AcDbAlignedDimension
 13
-108.1902736152913
 23
90.26000017564729
 33
0.0
 14
-108.1902736152913
 24
-69.73999982435264
 34
0.0
 50
90.0
100
AcDbRotatedDimension
  0
DIMENSION
  5
1A8
330
1F
100
AcDbEntity
  8
1
100
AcDbDimension
  2
*D8
 10
-96.19027361529129
 20
33.09216578074328
 30
0.0
 11
-107.1999747421892
 21
36.84216578074328
 31
0.0
 70
    32
  1
<>
 71
     5
 42
-1.0
 53
0.00013888888889
  3
ME10_DIM_17
100
AcDbAlignedDimension
 13
-118.1902736152913
 23
40.70090514812828
 33
0.0
 14
-96.19027361529132
 24
78.26000017564738
 34
0.0
100
AcDbRotatedDimension
  0
DIMENSION
  5
1B4
330
1F
100
AcDbEntity
  8
1
100
AcDbDimension
  2
*D9
 10
-96.19027361529128
 20
-51.73628432541373
 30
0.0
 11
-103.6215899634873
 21
-47.98628432541373
 31
0.0
 70
    32
  1
<>
 71
     5
 42
-1.0
 53
0.00013888888889
  3
ME10_DIM_18
100
AcDbAlignedDimension
 13
-111.1902736152913
 23
-31.84332405206473
 33
0.0
 14
-96.19027361529132
 24
-57.73999982435263
 34
0.0
100
AcDbRotatedDimension
  0
DIMENSION
  5
1BF
330
1F
100
AcDbEntity
  8
1
100
AcDbDimension
  2
*D10
 10
96.57674246417628
 20
-40.54003845822032
 30
0.0
 11
92.934151583736
 21
-58.94003845821683
 31
0.0
 70
    32
  1
C
 71
     5
 42
-1.0
 53
90.0
  3
ME10_DIM_19
100
AcDbAlignedDimension
 13
65.65002053255157
 23
-77.34003845821334
 33
0.0
 14
60.45813620658437
 24
-40.54003845822032
 34
0.0
 50
90.0
100
AcDbRotatedDimension
  0
DIMENSION
  5
1CC
330
1F
100
AcDbEntity
  8
1
100
AcDbDimension
  2
*D11
 10
111.2872978033695
 20
-34.94003845822044
 30
0.0
 11
114.678561884996
 21
-37.4838527167651
 31
0.0
 70
    32
  1
Mass X
 71
     5
 42
-1.0
 53
90.0
  3
ME10_DIM_20
100
AcDbAlignedDimension
 13
60.45813620658437
 23
-40.54003845822032
 33
0.0
 14
86.44924731769729
 24
-34.94003845822044
 34
0.0
 50
90.0
100
AcDbRotatedDimension
  0
DIMENSION
  5
1D7
330
1F
100
AcDbEntity
  8
1
100
AcDbDimension
  2
*D12
 10
25.58818500924295
 20
-77.34003845821334
 30
0.0
 11
21.83818500924295
 21
-72.34003845821616
 31
0.0
 70
    32
  1
B
 71
     5
 42
-1.0
 53
90.0
  3
ME10_DIM_21
100
AcDbAlignedDimension
 13
39.75813620658605
 23
-67.34003845821873
 33
0.0
 14
43.54942092206065
 24
-77.34003845821334
 34
0.0
 50
90.0
100
AcDbRotatedDimension
  0
DIMENSION
  5
1E2
330
1F
100
AcDbEntity
  8
1
100
AcDbDimension
  2
*D13
 10
25.58818500924295
 20
-67.34003845821871
 30
0.0
 11
21.83818500924295
 21
-48.14235638802622
 31
0.0
 70
    32
  1
A
 71
     5
 42
-1.0
 53
90.0
  3
ME10_DIM_22
100
AcDbAlignedDimension
 13
56.01434245658615
 23
-34.94003845822032
 33
0.0
 14
39.75813620658605
 24
-67.34003845821873
 34
0.0
 50
90.0
100
AcDbRotatedDimension
  0
DIMENSION
  5
1EF
330
1F
100
AcDbEntity
  8
1
100
AcDbDimension
  2
*D14
 10
126.9664604174694
 20
-67.87546863322588
 30
0.0
 11
116.3258835077245
 21
-57.65710268596853
 31
0.0
 70
    33
  1
Mass X
 71
     5
 42
-1.0
 53
-30.00000000000079
  3
ME10_DIM_23
100
AcDbAlignedDimension
 13
130.2054636569759
 23
-56.66535045652193
 33
0.0
 14
132.6303347875717
 24
-58.06535045652162
 34
0.0
  0
DIMENSION
  5
1FC
330
1F
100
AcDbEntity
  8
1
100
AcDbDimension
  2
*D15
 10
-104.1902736152913
 20
-8.929132249667
 30
0.0
 11
-100.477349455973
 21
-5.179132249667
 31
0.0
 70
    32
  1
<>
 71
     5
 42
-1.0
 53
0.00013888888889
  3
ME10_DIM_24
100
AcDbAlignedDimension
 13
-96.19027361529132
 23
-57.73999982435263
 33
0.0
 14
-104.1902736152913
 24
2.22233668783029
 34
0.0
100
AcDbRotatedDimension
  0
INSERT
  5
204
330
1F
100
AcDbEntity
  8
1
100
AcDbBlockReference
  2
*D16
 10
0.0
 20
0.0
 30
0.0
  0
INSERT
  5
20C
330
1F
100
AcDbEntity
  8
1
100
AcDbBlockReference
  2
*D17
 10
0.0
 20
0.0
 30
0.0
  0
HATCH
  5
20D
330
1F
100
AcDbEntity
  8
1
  6
Continuous
 62
     2
100
AcDbHatch
 10
0.0
 20
0.0
 30
0.0
210
0.0
220
0.0
230
1.0
  2
SOLID
 70
     1
 71
     0
 91
        1
 92
        1
 93
        3
 72
     1
 10
-88.69027361529132
 20
108.5734821289385
 11
-85.19027361529132
 21
109.0284821289385
 72
     1
 10
-85.19027361529132
 20
109.0284821289385
 11
-85.19027361529132
 21
108.1184821289385
 72
     1
 10
-85.19027361529132
 20
108.1184821289385
 11
-88.69027361529132
 21
108.5734821289385
 97
        0
 75
     0
 76
     1
 98
        1
 10
0.0
 20
0.0
  0
HATCH
  5
20E
330
1F
100
AcDbEntity
  8
1
  6
Continuous
 62
     2
100
AcDbHatch
 10
0.0
 20
0.0
 30
0.0
210
0.0
220
0.0
230
1.0
  2
SOLID
 70
     1
 71
     0
 91
        1
 92
        1
 93
        3
 72
     1
 10
-96.19027361529132
 20
108.5734821289385
 11
-99.69027361529132
 21
108.1184821289385
 72
     1
 10
-99.69027361529132
 20
108.1184821289385
 11
-99.69027361529132
 21
109.0284821289385
 72
     1
 10
-99.69027361529132
 20
109.0284821289385
 11
-96.19027361529132
 21
108.5734821289385
 97
        0
 75
     0
 76
     1
 98
        1
 10
0.0
 20
0.0
  0
ENDSEC
  0
SECTION
  2
OBJECTS
  0
DICTIONARY
  5
C
330
0
100
AcDbDictionary
281
     1
  3
ACAD_GROUP
350
D
  3
ACAD_LAYOUT
350
1A
  3
ACAD_MLINESTYLE
350
17
  3
ACAD_PLOTSETTINGS
350
19
  3
ACAD_PLOTSTYLENAME
350
E
  0
DICTIONARY
  5
D
102
{ACAD_REACTORS
330
C
102
}
330
C
100
AcDbDictionary
281
     1
  0
DICTIONARY
  5
1A
102
{ACAD_REACTORS
330
C
102
}
330
C
100
AcDbDictionary
281
     1
  3
Layout1
350
1E
  3
Layout2
350
26
  3
Model
350
22
  0
DICTIONARY
  5
17
102
{ACAD_REACTORS
330
C
102
}
330
C
100
AcDbDictionary
281
     1
  3
Standard
350
18
  0
DICTIONARY
  5
19
102
{ACAD_REACTORS
330
C
102
}
330
C
100
AcDbDictionary
281
     1
  0
ACDBDICTIONARYWDFLT
  5
E
102
{ACAD_REACTORS
330
C
102
}
330
C
100
AcDbDictionary
281
     1
  3
Normal
350
F
100
AcDbDictionaryWithDefault
340
F
  0
LAYOUT
  5
1E
102
{ACAD_REACTORS
330
1A
102
}
330
1A
100
AcDbPlotSettings
  1

  2

  4

  6

 40
0.0
 41
0.0
 42
0.0
 43
0.0
 44
0.0
 45
0.0
 46
0.0
 47
0.0
 48
0.0
 49
0.0
140
0.0
141
0.0
142
1.0
143
1.0
 70
   688
 72
     0
 73
     0
 74
     5
  7

 75
    16
 76
     0
 77
     2
 78
   300
147
1.0
148
0.0
149
0.0
100
AcDbLayout
  1
Layout1
 70
     1
 71
     1
 10
0.0
 20
0.0
 11
0.0
 21
0.0
 12
0.0
 22
0.0
 32
0.0
 14
0.0
 24
0.0
 34
0.0
 15
0.0
 25
0.0
 35
0.0
146
0.0
 13
0.0
 23
0.0
 33
0.0
 16
1.0
 26
0.0
 36
0.0
 17
0.0
 27
1.0
 37
0.0
 76
     0
330
1B
  0
LAYOUT
  5
26
102
{ACAD_REACTORS
330
1A
102
}
330
1A
100
AcDbPlotSettings
  1

  2

  4

  6

 40
0.0
 41
0.0
 42
0.0
 43
0.0
 44
0.0
 45
0.0
 46
0.0
 47
0.0
 48
0.0
 49
0.0
140
0.0
141
0.0
142
1.0
143
1.0
 70
   688
 72
     0
 73
     0
 74
     5
  7

 75
    16
 76
     0
 77
     2
 78
   300
147
1.0
148
0.0
149
0.0
100
AcDbLayout
  1
Layout2
 70
     1
 71
     2
 10
0.0
 20
0.0
 11
0.0
 21
0.0
 12
0.0
 22
0.0
 32
0.0
 14
0.0
 24
0.0
 34
0.0
 15
0.0
 25
0.0
 35
0.0
146
0.0
 13
0.0
 23
0.0
 33
0.0
 16
1.0
 26
0.0
 36
0.0
 17
0.0
 27
1.0
 37
0.0
 76
     0
330
23
  0
LAYOUT
  5
22
102
{ACAD_REACTORS
330
1A
102
}
330
1A
100
AcDbPlotSettings
  1

  2

  4

  6

 40
0.0
 41
0.0
 42
0.0
 43
0.0
 44
0.0
 45
0.0
 46
0.0
 47
0.0
 48
0.0
 49
0.0
140
0.0
141
0.0
142
1.0
143
1.0
 70
  1712
 72
     0
 73
     0
 74
     0
  7

 75
     0
 76
     0
 77
     2
 78
   300
147
1.0
148
0.0
149
0.0
100
AcDbLayout
  1
Model
 70
     1
 71
     0
 10
0.0
 20
0.0
 11
0.0
 21
0.0
 12
0.0
 22
0.0
 32
0.0
 14
-186.009164453936
 24
-128.0586834761568
 34
0.0
 15
157.7418726874361
 25
112.8805415769215
 35
0.0
146
0.0
 13
0.0
 23
0.0
 33
0.0
 16
1.0
 26
0.0
 36
0.0
 17
0.0
 27
1.0
 37
0.0
 76
     0
330
1F
  0
MLINESTYLE
  5
18
102
{ACAD_REACTORS
330
17
102
}
330
17
100
AcDbMlineStyle
  2
Standard
 70
     0
  3

 62
   256
 51
90.0
 52
90.0
 71
     2
 49
0.5
 62
   256
  6
BYLAYER
 49
-0.5
 62
   256
  6
BYLAYER
  0
ACDBPLACEHOLDER
  5
F
102
{ACAD_REACTORS
330
E
102
}
330
E
  0
ENDSEC
  0
EOF
