  0
SECTION
  2
HEADER
  9
$ACADVER
  1
AC1018
  9
$ACADMAINTVER
 70
     0
  9
$DWGCODEPAGE
  3
ANSI_1252
  9
$INSBASE
 10
0.0
 20
0.0
 30
0.0
  9
$EXTMIN
 10
-78.95406207055704
 20
-76.50605732902588
 30
0.0
  9
$EXTMAX
 10
60.1936351805157
 20
102.310749785278
 30
0.0
  9
$LIMMIN
 10
0.0
 20
0.0
  9
$LIMMAX
 10
12.0
 20
9.0
  9
$ORTHOMODE
 70
     0
  9
$REGENMODE
 70
     1
  9
$FILLMODE
 70
     1
  9
$QTEXTMODE
 70
     0
  9
$MIRRTEXT
 70
     1
  9
$LTSCALE
 40
1.0
  9
$ATTMODE
 70
     1
  9
$TEXTSIZE
 40
0.2
  9
$TRACEWID
 40
0.05
  9
$TEXTSTYLE
  7
Standard
  9
$CLAYER
  8
0
  9
$CELTYPE
  6
ByLayer
  9
$CECOLOR
 62
   256
  9
$CELTSCALE
 40
1.0
  9
$DISPSILH
 70
     0
  9
$DIMSCALE
 40
1.0
  9
$DIMASZ
 40
0.18
  9
$DIMEXO
 40
0.0625
  9
$DIMDLI
 40
0.38
  9
$DIMRND
 40
0.0
  9
$DIMDLE
 40
0.0
  9
$DIMEXE
 40
0.18
  9
$DIMTP
 40
0.0
  9
$DIMTM
 40
0.0
  9
$DIMTXT
 40
0.18
  9
$DIMCEN
 40
0.09
  9
$DIMTSZ
 40
0.0
  9
$DIMTOL
 70
     0
  9
$DIMLIM
 70
     0
  9
$DIMTIH
 70
     1
  9
$DIMTOH
 70
     1
  9
$DIMSE1
 70
     0
  9
$DIMSE2
 70
     0
  9
$DIMTAD
 70
     0
  9
$DIMZIN
 70
     0
  9
$DIMBLK
  1

  9
$DIMASO
 70
     1
  9
$DIMSHO
 70
     1
  9
$DIMPOST
  1

  9
$DIMAPOST
  1

  9
$DIMALT
 70
     0
  9
$DIMALTD
 70
     2
  9
$DIMALTF
 40
25.4
  9
$DIMLFAC
 40
1.0
  9
$DIMTOFL
 70
     0
  9
$DIMTVP
 40
0.0
  9
$DIMTIX
 70
     0
  9
$DIMSOXD
 70
     0
  9
$DIMSAH
 70
     0
  9
$DIMBLK1
  1

  9
$DIMBLK2
  1

  9
$DIMSTYLE
  2
Standard
  9
$DIMCLRD
 70
     0
  9
$DIMCLRE
 70
     0
  9
$DIMCLRT
 70
     0
  9
$DIMTFAC
 40
1.0
  9
$DIMGAP
 40
0.09
  9
$DIMJUST
 70
     0
  9
$DIMSD1
 70
     0
  9
$DIMSD2
 70
     0
  9
$DIMTOLJ
 70
     1
  9
$DIMTZIN
 70
     0
  9
$DIMALTZ
 70
     0
  9
$DIMALTTZ
 70
     0
  9
$DIMUPT
 70
     0
  9
$DIMDEC
 70
     4
  9
$DIMTDEC
 70
     4
  9
$DIMALTU
 70
     2
  9
$DIMALTTD
 70
     2
  9
$DIMTXSTY
  7
Standard
  9
$DIMAUNIT
 70
     0
  9
$DIMADEC
 70
     0
  9
$DIMALTRND
 40
0.0
  9
$DIMAZIN
 70
     0
  9
$DIMDSEP
 70
    46
  9
$DIMATFIT
 70
     3
  9
$DIMFRAC
 70
     0
  9
$DIMLDRBLK
  1

  9
$DIMLUNIT
 70
     2
  9
$DIMLWD
 70
    -2
  9
$DIMLWE
 70
    -2
  9
$DIMTMOVE
 70
     0
  9
$LUNITS
 70
     2
  9
$LUPREC
 70
     4
  9
$SKETCHINC
 40
0.1
  9
$FILLETRAD
 40
0.5
  9
$AUNITS
 70
     0
  9
$AUPREC
 70
     0
  9
$MENU
  1
.
  9
$ELEVATION
 40
0.0
  9
$PELEVATION
 40
0.0
  9
$THICKNESS
 40
0.0
  9
$LIMCHECK
 70
     0
  9
$CHAMFERA
 40
0.5
  9
$CHAMFERB
 40
0.5
  9
$CHAMFERC
 40
1.0
  9
$CHAMFERD
 40
0.0
  9
$SKPOLY
 70
     0
  9
$TDCREATE
 40
2456636.470128287
  9
$TDUCREATE
 40
2456636.428461621
  9
$TDUPDATE
 40
2456636.470128299
  9
$TDUUPDATE
 40
2456636.428461632
  9
$TDINDWG
 40
0.0000000116
  9
$TDUSRTIMER
 40
0.0000000116
  9
$USRTIMER
 70
     1
  9
$ANGBASE
 50
0.0
  9
$ANGDIR
 70
     0
  9
$PDMODE
 70
     0
  9
$PDSIZE
 40
0.0
  9
$PLINEWID
 40
0.0
  9
$SPLFRAME
 70
     0
  9
$SPLINETYPE
 70
     6
  9
$SPLINESEGS
 70
     8
  9
$HANDSEED
  5
194
  9
$SURFTAB1
 70
     6
  9
$SURFTAB2
 70
     6
  9
$SURFTYPE
 70
     6
  9
$SURFU
 70
     6
  9
$SURFV
 70
     6
  9
$UCSBASE
  2

  9
$UCSNAME
  2

  9
$UCSORG
 10
0.0
 20
0.0
 30
0.0
  9
$UCSXDIR
 10
1.0
 20
0.0
 30
0.0
  9
$UCSYDIR
 10
0.0
 20
1.0
 30
0.0
  9
$UCSORTHOREF
  2

  9
$UCSORTHOVIEW
 70
     0
  9
$UCSORGTOP
 10
0.0
 20
0.0
 30
0.0
  9
$UCSORGBOTTOM
 10
0.0
 20
0.0
 30
0.0
  9
$UCSORGLEFT
 10
0.0
 20
0.0
 30
0.0
  9
$UCSORGRIGHT
 10
0.0
 20
0.0
 30
0.0
  9
$UCSORGFRONT
 10
0.0
 20
0.0
 30
0.0
  9
$UCSORGBACK
 10
0.0
 20
0.0
 30
0.0
  9
$PUCSBASE
  2

  9
$PUCSNAME
  2

  9
$PUCSORG
 10
0.0
 20
0.0
 30
0.0
  9
$PUCSXDIR
 10
1.0
 20
0.0
 30
0.0
  9
$PUCSYDIR
 10
0.0
 20
1.0
 30
0.0
  9
$PUCSORTHOREF
  2

  9
$PUCSORTHOVIEW
 70
     0
  9
$PUCSORGTOP
 10
0.0
 20
0.0
 30
0.0
  9
$PUCSORGBOTTOM
 10
0.0
 20
0.0
 30
0.0
  9
$PUCSORGLEFT
 10
0.0
 20
0.0
 30
0.0
  9
$PUCSORGRIGHT
 10
0.0
 20
0.0
 30
0.0
  9
$PUCSORGFRONT
 10
0.0
 20
0.0
 30
0.0
  9
$PUCSORGBACK
 10
0.0
 20
0.0
 30
0.0
  9
$USERI1
 70
     0
  9
$USERI2
 70
     0
  9
$USERI3
 70
     0
  9
$USERI4
 70
     0
  9
$USERI5
 70
     0
  9
$USERR1
 40
14.5
  9
$USERR2
 40
0.0
  9
$USERR3
 40
0.0
  9
$USERR4
 40
0.0
  9
$USERR5
 40
0.0
  9
$WORLDVIEW
 70
     1
  9
$SHADEDGE
 70
     3
  9
$SHADEDIF
 70
    70
  9
$TILEMODE
 70
     1
  9
$MAXACTVP
 70
    64
  9
$PINSBASE
 10
0.0
 20
0.0
 30
0.0
  9
$PLIMCHECK
 70
     0
  9
$PEXTMIN
 10
1.00000000000000E+20
 20
1.00000000000000E+20
 30
1.00000000000000E+20
  9
$PEXTMAX
 10
-1.00000000000000E+20
 20
-1.00000000000000E+20
 30
-1.00000000000000E+20
  9
$PLIMMIN
 10
0.0
 20
0.0
  9
$PLIMMAX
 10
12.0
 20
9.0
  9
$UNITMODE
 70
     0
  9
$VISRETAIN
 70
     1
  9
$PLINEGEN
 70
     0
  9
$PSLTSCALE
 70
     1
  9
$TREEDEPTH
 70
  3020
  9
$CMLSTYLE
  2
Standard
  9
$CMLJUST
 70
     0
  9
$CMLSCALE
 40
1.0
  9
$PROXYGRAPHICS
 70
     1
  9
$MEASUREMENT
 70
     1
  9
$CELWEIGHT
370
    -1
  9
$ENDCAPS
280
     0
  9
$JOINSTYLE
280
     0
  9
$LWDISPLAY
290
     0
  9
$INSUNITS
 70
     1
  9
$HYPERLINKBASE
  1

  9
$STYLESHEET
  1

  9
$XEDIT
290
     1
  9
$CEPSNTYPE
380
     0
  9
$PSTYLEMODE
290
     1
  9
$FINGERPRINTGUID
  2
{4E7FD33B-D058-487D-AE41-C16188784B50}
  9
$VERSIONGUID
  2
{FAEB1C32-E019-11D5-929B-00C0DF256EC4}
  9
$EXTNAMES
290
     1
  9
$PSVPSCALE
 40
0.0
  9
$OLESTARTUP
290
     0
  9
$SORTENTS
280
   127
  9
$INDEXCTL
280
     0
  9
$HIDETEXT
280
     1
  9
$XCLIPFRAME
290
     0
  9
$HALOGAP
280
     0
  9
$OBSCOLOR
 70
   257
  9
$OBSLTYPE
280
     0
  9
$INTERSECTIONDISPLAY
280
     0
  9
$INTERSECTIONCOLOR
 70
   257
  9
$DIMASSOC
280
     2
  9
$PROJECTNAME
  1

  0
ENDSEC
  0
SECTION
  2
CLASSES
  0
CLASS
  1
ACDBDICTIONARYWDFLT
  2
AcDbDictionaryWithDefault
  3
ObjectDBX Classes
 90
        0
 91
        3
280
     0
281
     0
  0
CLASS
  1

  2
exOdDbCircle
  3

 90
        0
 91
        3
280
     0
281
     1
  0
CLASS
  1

  2
exOdDbPolyline
  3

 90
        0
 91
        3
280
     0
281
     1
  0
ENDSEC
  0
SECTION
  2
TABLES
  0
TABLE
  2
VPORT
  5
8
330
0
100
AcDbSymbolTable
 70
     1
  0
VPORT
  5
29
330
8
100
AcDbSymbolTableRecord
100
AcDbViewportTableRecord
  2
*Active
 70
     0
 10
0.0
 20
0.0
 11
1.0
 21
1.0
 12
-9.38021344502067
 22
12.90234622812606
 13
0.0
 23
0.0
 14
0.5
 24
0.5
 15
0.5
 25
0.5
 16
0.0
 26
0.0
 36
1.0
 17
0.0
 27
0.0
 37
0.0
 40
196.6984878257343
 41
1.60267857142857
 42
50.0
 43
0.0
 44
0.0
 50
0.0
 51
0.0
 71
     0
 72
   100
 73
     1
 74
     3
 75
     0
 76
     0
 77
     0
 78
     0
281
     0
 65
     1
110
0.0
120
0.0
130
0.0
111
1.0
121
0.0
131
0.0
112
0.0
122
1.0
132
0.0
 79
     0
146
0.0
  0
ENDTAB
  0
TABLE
  2
LTYPE
  5
5
330
0
100
AcDbSymbolTable
 70
     8
  0
LTYPE
  5
14
330
5
100
AcDbSymbolTableRecord
100
AcDbLinetypeTableRecord
  2
ByBlock
 70
     0
  3

 72
    65
 73
     0
 40
0.0
  0
LTYPE
  5
15
330
5
100
AcDbSymbolTableRecord
100
AcDbLinetypeTableRecord
  2
ByLayer
 70
     0
  3

 72
    65
 73
     0
 40
0.0
  0
LTYPE
  5
16
330
5
100
AcDbSymbolTableRecord
100
AcDbLinetypeTableRecord
  2
Continuous
 70
     0
  3
Solid line
 72
    65
 73
     0
 40
0.0
  0
LTYPE
  5
2A
330
5
100
AcDbSymbolTableRecord
100
AcDbLinetypeTableRecord
  2
DASHED
 70
     0
  3
Dashed
 72
    65
 73
     2
 40
15.0
 49
7.0
 74
     0
 49
-8.0
 74
     0
  0
LTYPE
  5
2B
330
5
100
AcDbSymbolTableRecord
100
AcDbLinetypeTableRecord
  2
DOTTED
 70
     0
  3
Dotted
 72
    65
 73
     2
 40
1.0
 49
0.0
 74
     0
 49
-1.0
 74
     0
  0
LTYPE
  5
2C
330
5
100
AcDbSymbolTableRecord
100
AcDbLinetypeTableRecord
  2
DOT_CENTER
 70
     0
  3
Dot_Center
 72
    65
 73
     4
 40
14.0
 49
12.0
 74
     0
 49
-1.0
 74
     0
 49
0.0
 74
     0
 49
-1.0
 74
     0
  0
LTYPE
  5
2D
330
5
100
AcDbSymbolTableRecord
100
AcDbLinetypeTableRecord
  2
LONG_DASHED
 70
     0
  3
Long_Dashed
 72
    65
 73
     2
 40
15.0
 49
10.0
 74
     0
 49
-5.0
 74
     0
  0
LTYPE
  5
2E
330
5
100
AcDbSymbolTableRecord
100
AcDbLinetypeTableRecord
  2
DASH_CENTER
 70
     0
  3
Dash_Center
 72
    65
 73
     4
 40
14.0
 49
11.0
 74
     0
 49
-1.0
 74
     0
 49
1.0
 74
     0
 49
-1.0
 74
     0
  0
LTYPE
  5
2F
330
5
100
AcDbSymbolTableRecord
100
AcDbLinetypeTableRecord
  2
PHANTOM
 70
     0
  3
Phantom
 72
    65
 73
     6
 40
13.0
 49
10.0
 74
     0
 49
-1.0
 74
     0
 49
0.0
 74
     0
 49
-1.0
 74
     0
 49
0.0
 74
     0
 49
-1.0
 74
     0
  0
LTYPE
  5
30
330
5
100
AcDbSymbolTableRecord
100
AcDbLinetypeTableRecord
  2
CENTER_DASH_DASH
 70
     0
  3
Center_Dash_Dash
 72
    65
 73
     6
 40
14.0
 49
9.0
 74
     0
 49
-1.0
 74
     0
 49
1.0
 74
     0
 49
-1.0
 74
     0
 49
1.0
 74
     0
 49
-1.0
 74
     0
  0
ENDTAB
  0
TABLE
  2
LAYER
  5
2
330
0
100
AcDbSymbolTable
 70
     2
  0
LAYER
  5
10
330
2
100
AcDbSymbolTableRecord
100
AcDbLayerTableRecord
  2
0
 70
     0
 62
     7
  6
Continuous
370
    -3
390
F
  0
LAYER
  5
31
330
2
100
AcDbSymbolTableRecord
100
AcDbLayerTableRecord
  2
1
 70
     0
 62
     7
  6
Continuous
370
    -3
390
F
  0
ENDTAB
  0
TABLE
  2
STYLE
  5
3
330
0
100
AcDbSymbolTable
 70
     2
  0
STYLE
  5
11
330
3
100
AcDbSymbolTableRecord
100
AcDbTextStyleTableRecord
  2
Standard
 70
     0
 40
0.0
 41
1.0
 50
0.0
 71
     0
 42
0.2
  3
txt
  4

  0
STYLE
  5
14F
330
3
100
AcDbSymbolTableRecord
100
AcDbTextStyleTableRecord
  2
CONVERTER_11
 70
     0
 40
0.0
 41
0.9
 50
0.0
 71
     0
 42
0.2
  3
txt.shx
  4

  0
ENDTAB
  0
TABLE
  2
VIEW
  5
6
330
0
100
AcDbSymbolTable
 70
     0
  0
ENDTAB
  0
TABLE
  2
UCS
  5
7
330
0
100
AcDbSymbolTable
 70
     0
  0
ENDTAB
  0
TABLE
  2
APPID
  5
9
330
0
100
AcDbSymbolTable
 70
     1
  0
APPID
  5
12
330
9
100
AcDbSymbolTableRecord
100
AcDbRegAppTableRecord
  2
ACAD
 70
     0
  0
ENDTAB
  0
TABLE
  2
DIMSTYLE
  5
A
330
0
100
AcDbSymbolTable
 70
     7
100
AcDbDimStyleTable
  0
DIMSTYLE
105
27
330
A
100
AcDbSymbolTableRecord
100
AcDbDimStyleTableRecord
  2
Standard
 70
     0
340
11
  0
DIMSTYLE
105
15B
102
{ACAD_REACTORS
330
15C
102
}
330
A
100
AcDbSymbolTableRecord
100
AcDbDimStyleTableRecord
  2
ME10_DIM_10
 70
     0
  3
ø<>
 41
3.5
 42
0.0
 44
2.0
 73
     0
 74
     0
 77
     1
 78
     8
140
3.5
147
2.0
172
     1
173
     1
176
     2
177
     2
178
     2
271
     2
340
14F
  0
DIMSTYLE
105
166
102
{ACAD_REACTORS
330
167
102
}
330
A
100
AcDbSymbolTableRecord
100
AcDbDimStyleTableRecord
  2
ME10_DIM_11
 70
     0
 41
3.5
 42
0.0
 44
2.0
 73
     0
 74
     0
 77
     1
 78
     8
140
3.5
147
2.0
172
     1
173
     1
176
     2
177
     2
178
     2
271
     2
340
14F
  0
DIMSTYLE
105
171
102
{ACAD_REACTORS
330
172
102
}
330
A
100
AcDbSymbolTableRecord
100
AcDbDimStyleTableRecord
  2
ME10_DIM_12
 70
     0
 41
3.5
 42
0.0
 44
2.0
 73
     0
 74
     0
 77
     1
 78
     8
140
3.5
147
2.0
172
     1
173
     1
176
     2
177
     2
178
     2
271
     2
340
14F
  0
DIMSTYLE
105
17C
102
{ACAD_REACTORS
330
17D
102
}
330
A
100
AcDbSymbolTableRecord
100
AcDbDimStyleTableRecord
  2
ME10_DIM_13
 70
     0
 41
3.5
 42
0.0
 44
2.0
 73
     0
 74
     0
 77
     1
 78
     8
140
3.5
147
2.0
172
     1
173
     1
176
     2
177
     2
178
     2
271
     3
340
14F
  0
DIMSTYLE
105
187
102
{ACAD_REACTORS
330
188
102
}
330
A
100
AcDbSymbolTableRecord
100
AcDbDimStyleTableRecord
  2
ME10_DIM_14
 70
     0
 41
3.5
 42
0.0
 44
2.0
 73
     0
 74
     0
 77
     1
 78
     8
140
3.5
147
2.0
172
     1
173
     1
176
     2
177
     2
178
     2
271
     3
340
14F
  0
DIMSTYLE
105
192
102
{ACAD_REACTORS
330
193
102
}
330
A
100
AcDbSymbolTableRecord
100
AcDbDimStyleTableRecord
  2
ME10_DIM_15
 70
     0
 41
3.5
 42
0.0
 44
2.0
 73
     0
 74
     0
 77
     1
 78
     8
140
3.5
147
2.0
172
     1
173
     1
176
     2
177
     2
178
     2
271
     3
340
14F
  0
ENDTAB
  0
TABLE
  2
BLOCK_RECORD
  5
1
330
0
100
AcDbSymbolTable
 70
     7
  0
BLOCK_RECORD
  5
1F
330
1
100
AcDbSymbolTableRecord
100
AcDbBlockTableRecord
  2
*Model_Space
340
22
  0
BLOCK_RECORD
  5
1B
330
1
100
AcDbSymbolTableRecord
100
AcDbBlockTableRecord
  2
*Paper_Space
340
1E
  0
BLOCK_RECORD
  5
23
330
1
100
AcDbSymbolTableRecord
100
AcDbBlockTableRecord
  2
*Paper_Space0
340
26
  0
BLOCK_RECORD
  5
152
330
1
100
AcDbSymbolTableRecord
100
AcDbBlockTableRecord
  2
*D1
340
0
  0
BLOCK_RECORD
  5
15D
330
1
100
AcDbSymbolTableRecord
100
AcDbBlockTableRecord
  2
*D2
340
0
  0
BLOCK_RECORD
  5
168
330
1
100
AcDbSymbolTableRecord
100
AcDbBlockTableRecord
  2
*D3
340
0
  0
BLOCK_RECORD
  5
173
330
1
100
AcDbSymbolTableRecord
100
AcDbBlockTableRecord
  2
*D4
340
0
  0
BLOCK_RECORD
  5
17E
330
1
100
AcDbSymbolTableRecord
100
AcDbBlockTableRecord
  2
*D5
340
0
  0
BLOCK_RECORD
  5
189
330
1
100
AcDbSymbolTableRecord
100
AcDbBlockTableRecord
  2
*D6
340
0
  0
ENDTAB
  0
ENDSEC
  0
SECTION
  2
BLOCKS
  0
BLOCK
  5
20
330
1F
100
AcDbEntity
  8
0
100
AcDbBlockBegin
  2
*Model_Space
 70
     0
 71
     0
 10
0.0
 20
0.0
 30
0.0
  3
*Model_Space
  1

  0
ENDBLK
  5
21
330
1F
100
AcDbEntity
  8
0
100
AcDbBlockEnd
  0
BLOCK
  5
1C
330
1B
100
AcDbEntity
 67
     1
  8
0
100
AcDbBlockBegin
  2
*Paper_Space
 70
     0
 71
     0
 10
0.0
 20
0.0
 30
0.0
  3
*Paper_Space
  1

  0
ENDBLK
  5
1D
330
1B
100
AcDbEntity
 67
     1
  8
0
100
AcDbBlockEnd
  0
BLOCK
  5
24
330
23
100
AcDbEntity
  8
0
100
AcDbBlockBegin
  2
*Paper_Space0
 70
     0
 71
     0
 10
0.0
 20
0.0
 30
0.0
  3
*Paper_Space0
  1

  0
ENDBLK
  5
25
330
23
100
AcDbEntity
  8
0
100
AcDbBlockEnd
  0
BLOCK
  5
159
330
152
100
AcDbEntity
  8
0
100
AcDbBlockBegin
  2
*D1
 70
     1
 71
     0
 10
0.0
 20
0.0
 30
0.0
  3
*D1
  1

  0
LINE
  5
153
330
152
100
AcDbEntity
  8
1
  6
Continuous
 62
     2
100
AcDbLine
 10
-15.93523675989307
 20
96.810749785278
 30
0.0
 11
6.56476324010697
 21
96.810749785278
 31
0.0
  0
LINE
  5
154
330
152
100
AcDbEntity
  8
1
  6
Continuous
 62
     2
100
AcDbLine
 10
-15.93523675989307
 20
86.059861038321
 30
0.0
 11
-15.93523675989307
 21
98.810749785278
 31
0.0
  0
LINE
  5
155
330
152
100
AcDbEntity
  8
1
  6
Continuous
 62
     2
100
AcDbLine
 10
6.56476324010697
 20
86.059861038321
 30
0.0
 11
6.56476324010697
 21
98.810749785278
 31
0.0
  0
SOLID
  5
156
330
152
100
AcDbEntity
  8
1
 62
     2
100
AcDbTrace
 10
-12.43523675989307
 20
97.27153352683389
 30
0.0
 11
-12.43523675989307
 21
96.34996604372212
 31
0.0
 12
-15.93523675989307
 22
96.810749785278
 32
0.0
 13
-15.93523675989307
 23
96.810749785278
 33
0.0
  0
SOLID
  5
157
330
152
100
AcDbEntity
  8
1
 62
     2
100
AcDbTrace
 10
3.06476324010697
 20
96.34996604372212
 30
0.0
 11
3.06476324010697
 21
97.27153352683389
 31
0.0
 12
6.56476324010697
 22
96.810749785278
 32
0.0
 13
6.56476324010697
 23
96.810749785278
 33
0.0
  0
MTEXT
  5
158
330
152
100
AcDbEntity
  8
1
 62
     2
100
AcDbMText
 10
-10.44595380058377
 20
98.81074282820168
 30
0.0
 40
3.5
 41
0.0
 71
     7
 72
     1
  1
\C2;ø\C2;22.5
  7
CONVERTER_11
 11
0.9999999999970621
 21
2.424068405545307E-6
 31
0.0
 73
     1
 44
0.60024009603842
  0
ENDBLK
  5
15A
330
152
100
AcDbEntity
  8
0
100
AcDbBlockEnd
  0
BLOCK
  5
164
330
15D
100
AcDbEntity
  8
0
100
AcDbBlockBegin
  2
*D2
 70
     1
 71
     0
 10
0.0
 20
0.0
 30
0.0
  3
*D2
  1

  0
LINE
  5
15E
330
15D
100
AcDbEntity
  8
1
  6
Continuous
 62
     2
100
AcDbLine
 10
-73.45406207055704
 20
-73.940138961679
 30
0.0
 11
-73.45406207055704
 21
86.059861038321
 31
0.0
  0
LINE
  5
15F
330
15D
100
AcDbEntity
  8
1
  6
Continuous
 62
     2
100
AcDbLine
 10
-41.18523675989308
 20
86.059861038321
 30
0.0
 11
-75.45406207055704
 21
86.059861038321
 31
0.0
  0
LINE
  5
160
330
15D
100
AcDbEntity
  8
1
  6
Continuous
 62
     2
100
AcDbLine
 10
-41.18523675989298
 20
-73.940138961679
 30
0.0
 11
-75.45406207055704
 21
-73.940138961679
 31
0.0
  0
SOLID
  5
161
330
15D
100
AcDbEntity
  8
1
 62
     2
100
AcDbTrace
 10
-72.99327832900116
 20
82.559861038321
 30
0.0
 11
-73.91484581211293
 21
82.559861038321
 31
0.0
 12
-73.45406207055704
 22
86.059861038321
 32
0.0
 13
-73.45406207055704
 23
86.059861038321
 33
0.0
  0
SOLID
  5
162
330
15D
100
AcDbEntity
  8
1
 62
     2
100
AcDbTrace
 10
-73.91484581211293
 20
-70.440138961679
 30
0.0
 11
-72.99327832900116
 21
-70.440138961679
 31
0.0
 12
-73.45406207055704
 22
-73.940138961679
 32
0.0
 13
-73.45406207055704
 23
-73.940138961679
 33
0.0
  0
MTEXT
  5
163
330
15D
100
AcDbEntity
  8
1
 62
     2
100
AcDbMText
 10
-75.45406207055704
 20
1.98358337909802
 30
0.0
 40
3.5
 41
0.0
 71
     7
 72
     1
  1
160
  7
CONVERTER_11
 11
0.0
 21
1.0
 31
0.0
 73
     1
 44
0.60024009603842
  0
ENDBLK
  5
165
330
15D
100
AcDbEntity
  8
0
100
AcDbBlockEnd
  0
BLOCK
  5
16F
330
168
100
AcDbEntity
  8
0
100
AcDbBlockBegin
  2
*D3
 70
     1
 71
     0
 10
0.0
 20
0.0
 30
0.0
  3
*D3
  1

  0
LINE
  5
169
330
168
100
AcDbEntity
  8
1
  6
Continuous
 62
     2
100
AcDbLine
 10
-63.5558798097293
 20
6.059861038321
 30
0.0
 11
-63.5558798097293
 21
86.059861038321
 31
0.0
  0
LINE
  5
16A
330
168
100
AcDbEntity
  8
1
  6
Continuous
 62
     2
100
AcDbLine
 10
-41.18523675989307
 20
86.059861038321
 30
0.0
 11
-65.5558798097293
 21
86.059861038321
 31
0.0
  0
LINE
  5
16B
330
168
100
AcDbEntity
  8
1
  6
Continuous
 62
     2
100
AcDbLine
 10
-62.49288982111708
 20
6.059861038321
 30
0.0
 11
-65.5558798097293
 21
6.059861038321
 31
0.0
  0
SOLID
  5
16C
330
168
100
AcDbEntity
  8
1
 62
     2
100
AcDbTrace
 10
-63.09509606817342
 20
82.559861038321
 30
0.0
 11
-64.01666355128519
 21
82.559861038321
 31
0.0
 12
-63.5558798097293
 22
86.059861038321
 32
0.0
 13
-63.5558798097293
 23
86.059861038321
 33
0.0
  0
SOLID
  5
16D
330
168
100
AcDbEntity
  8
1
 62
     2
100
AcDbTrace
 10
-64.01666355128519
 20
9.559861038321
 30
0.0
 11
-63.09509606817342
 21
9.559861038321
 31
0.0
 12
-63.5558798097293
 22
6.059861038321
 32
0.0
 13
-63.5558798097293
 23
6.059861038321
 33
0.0
  0
MTEXT
  5
16E
330
168
100
AcDbEntity
  8
1
 62
     2
100
AcDbMText
 10
-65.5558798097293
 20
43.69638618033702
 30
0.0
 40
3.5
 41
0.0
 71
     7
 72
     1
  1
80
  7
CONVERTER_11
 11
0.0
 21
1.0
 31
0.0
 73
     1
 44
0.60024009603842
  0
ENDBLK
  5
170
330
168
100
AcDbEntity
  8
0
100
AcDbBlockEnd
  0
BLOCK
  5
17A
330
173
100
AcDbEntity
  8
0
100
AcDbBlockBegin
  2
*D4
 70
     1
 71
     0
 10
0.0
 20
0.0
 30
0.0
  3
*D4
  1

  0
LINE
  5
174
330
173
100
AcDbEntity
  8
1
  6
Continuous
 62
     2
100
AcDbLine
 10
58.1936351805157
 20
48.059861038321
 30
0.0
 11
58.1936351805157
 21
-35.940138961679
 31
0.0
  0
LINE
  5
175
330
173
100
AcDbEntity
  8
1
  6
Continuous
 62
     2
100
AcDbLine
 10
33.5827124325381
 20
-35.940138961679
 30
0.0
 11
60.1936351805157
 21
-35.940138961679
 31
0.0
  0
LINE
  5
176
330
173
100
AcDbEntity
  8
1
  6
Continuous
 62
     2
100
AcDbLine
 10
33.5827124325381
 20
48.059861038321
 30
0.0
 11
60.1936351805157
 21
48.059861038321
 31
0.0
  0
SOLID
  5
177
330
173
100
AcDbEntity
  8
1
 62
     2
100
AcDbTrace
 10
58.65441892207159
 20
44.559861038321
 30
0.0
 11
57.73285143895981
 21
44.559861038321
 31
0.0
 12
58.1936351805157
 22
48.059861038321
 32
0.0
 13
58.1936351805157
 23
48.059861038321
 33
0.0
  0
SOLID
  5
178
330
173
100
AcDbEntity
  8
1
 62
     2
100
AcDbTrace
 10
57.73285143895981
 20
-32.440138961679
 30
0.0
 11
58.65441892207159
 21
-32.440138961679
 31
0.0
 12
58.1936351805157
 22
-35.940138961679
 32
0.0
 13
58.1936351805157
 23
-35.940138961679
 33
0.0
  0
MTEXT
  5
179
330
173
100
AcDbEntity
  8
1
 62
     2
100
AcDbMText
 10
56.1936351805157
 20
3.434861038321
 30
0.0
 40
3.5
 41
0.0
 71
     7
 72
     1
  1
84
  7
CONVERTER_11
 11
0.0
 21
1.0
 31
0.0
 73
     1
 44
0.60024009603842
  0
ENDBLK
  5
17B
330
173
100
AcDbEntity
  8
0
100
AcDbBlockEnd
  0
BLOCK
  5
185
330
17E
100
AcDbEntity
  8
0
100
AcDbBlockBegin
  2
*D5
 70
     1
 71
     0
 10
0.0
 20
0.0
 30
0.0
  3
*D5
  1

  0
LINE
  5
17F
330
17E
100
AcDbEntity
  8
1
  6
Continuous
 62
     2
100
AcDbLine
 10
47.5968667198196
 20
34.059861038321
 30
0.0
 11
47.5968667198196
 21
6.059861038321
 31
0.0
  0
LINE
  5
180
330
17E
100
AcDbEntity
  8
1
  6
Continuous
 62
     2
100
AcDbLine
 10
43.672322554329
 20
6.059861038321
 30
0.0
 11
49.5968667198196
 21
6.059861038321
 31
0.0
  0
LINE
  5
181
330
17E
100
AcDbEntity
  8
1
  6
Continuous
 62
     2
100
AcDbLine
 10
38.67232255432904
 20
34.059861038321
 30
0.0
 11
49.5968667198196
 21
34.059861038321
 31
0.0
  0
SOLID
  5
182
330
17E
100
AcDbEntity
  8
1
 62
     2
100
AcDbTrace
 10
48.05765046137549
 20
30.559861038321
 30
0.0
 11
47.13608297826372
 21
30.559861038321
 31
0.0
 12
47.5968667198196
 22
34.059861038321
 32
0.0
 13
47.5968667198196
 23
34.059861038321
 33
0.0
  0
SOLID
  5
183
330
17E
100
AcDbEntity
  8
1
 62
     2
100
AcDbTrace
 10
47.13608297826372
 20
9.559861038321
 30
0.0
 11
48.05765046137549
 21
9.559861038321
 31
0.0
 12
47.5968667198196
 22
6.059861038321
 32
0.0
 13
47.5968667198196
 23
6.059861038321
 33
0.0
  0
MTEXT
  5
184
330
17E
100
AcDbEntity
  8
1
 62
     2
100
AcDbMText
 10
45.5968667198196
 20
17.7039218523382
 30
0.0
 40
3.5
 41
0.0
 71
     7
 72
     1
  1
28
  7
CONVERTER_11
 11
0.0
 21
1.0
 31
0.0
 73
     1
 44
0.60024009603842
  0
ENDBLK
  5
186
330
17E
100
AcDbEntity
  8
0
100
AcDbBlockEnd
  0
BLOCK
  5
190
330
189
100
AcDbEntity
  8
0
100
AcDbBlockBegin
  2
*D6
 70
     1
 71
     0
 10
0.0
 20
0.0
 30
0.0
  3
*D6
  1

  0
LINE
  5
18A
330
189
100
AcDbEntity
  8
1
  6
Continuous
 62
     2
100
AcDbLine
 10
47.5968667198196
 20
6.059861038321
 30
0.0
 11
47.5968667198196
 21
-21.940138961679
 31
0.0
  0
LINE
  5
18B
330
189
100
AcDbEntity
  8
1
  6
Continuous
 62
     2
100
AcDbLine
 10
38.67232255432904
 20
-21.940138961679
 30
0.0
 11
49.5968667198196
 21
-21.940138961679
 31
0.0
  0
LINE
  5
18C
330
189
100
AcDbEntity
  8
1
  6
Continuous
 62
     2
100
AcDbLine
 10
43.672322554329
 20
6.059861038321
 30
0.0
 11
49.5968667198196
 21
6.059861038321
 31
0.0
  0
SOLID
  5
18D
330
189
100
AcDbEntity
  8
1
 62
     2
100
AcDbTrace
 10
48.05765046137549
 20
2.559861038321
 30
0.0
 11
47.13608297826372
 21
2.559861038321
 31
0.0
 12
47.5968667198196
 22
6.059861038321
 32
0.0
 13
47.5968667198196
 23
6.059861038321
 33
0.0
  0
SOLID
  5
18E
330
189
100
AcDbEntity
  8
1
 62
     2
100
AcDbTrace
 10
47.13608297826372
 20
-18.440138961679
 30
0.0
 11
48.05765046137549
 21
-18.440138961679
 31
0.0
 12
47.5968667198196
 22
-21.940138961679
 32
0.0
 13
47.5968667198196
 23
-21.940138961679
 33
0.0
  0
MTEXT
  5
18F
330
189
100
AcDbEntity
  8
1
 62
     2
100
AcDbMText
 10
45.5968667198196
 20
-10.11259535698899
 30
0.0
 40
3.5
 41
0.0
 71
     7
 72
     1
  1
28
  7
CONVERTER_11
 11
0.0
 21
1.0
 31
0.0
 73
     1
 44
0.60024009603842
  0
ENDBLK
  5
191
330
189
100
AcDbEntity
  8
0
100
AcDbBlockEnd
  0
ENDSEC
  0
SECTION
  2
ENTITIES
  0
POINT
  5
32
330
1F
100
AcDbEntity
  8
1
 62
     3
 60
     1
100
AcDbPoint
 10
33.5827124325381
 20
-35.940138961679
 30
0.0
  0
POINT
  5
33
330
1F
100
AcDbEntity
  8
1
 62
     3
 60
     1
100
AcDbPoint
 10
37.314763240107
 20
-34.940138961679
 30
0.0
  0
POINT
  5
34
330
1F
100
AcDbEntity
  8
1
 62
     3
 60
     1
100
AcDbPoint
 10
37.314763240107
 20
47.059861038321
 30
0.0
  0
POINT
  5
35
330
1F
100
AcDbEntity
  8
1
 62
     3
 60
     1
100
AcDbPoint
 10
33.5827124325381
 20
48.059861038321
 30
0.0
  0
POINT
  5
36
330
1F
100
AcDbEntity
  8
1
 62
     3
 60
     1
100
AcDbPoint
 10
32.65599242286626
 20
30.809861038321
 30
0.0
  0
POINT
  5
37
330
1F
100
AcDbEntity
  8
1
 62
     3
 60
     1
100
AcDbPoint
 10
32.65599242286626
 20
37.309861038321
 30
0.0
  0
POINT
  5
38
330
1F
100
AcDbEntity
  8
1
 62
     3
 60
     1
100
AcDbPoint
 10
30.71950074976255
 20
29.309861038321
 30
0.0
  0
POINT
  5
39
330
1F
100
AcDbEntity
  8
1
 62
     3
 60
     1
100
AcDbPoint
 10
30.71950074976255
 20
38.809861038321
 30
0.0
  0
POINT
  5
3A
330
1F
100
AcDbEntity
  8
1
 62
     3
 60
     1
100
AcDbPoint
 10
30.71950074976255
 20
10.809861038321
 30
0.0
  0
POINT
  5
3B
330
1F
100
AcDbEntity
  8
1
 62
     3
 60
     1
100
AcDbPoint
 10
32.65599242286626
 20
9.309861038321
 30
0.0
  0
POINT
  5
3C
330
1F
100
AcDbEntity
  8
1
 62
     3
 60
     1
100
AcDbPoint
 10
30.71950074976255
 20
1.309861038321
 30
0.0
  0
POINT
  5
3D
330
1F
100
AcDbEntity
  8
1
 62
     3
 60
     1
100
AcDbPoint
 10
32.65599242286626
 20
2.809861038321
 30
0.0
  0
LINE
  5
3E
330
1F
100
AcDbEntity
  8
1
  6
Continuous
 62
     7
100
AcDbLine
 10
-14.43523675989306
 20
48.95986103832104
 30
0.0
 11
-14.43523675989306
 21
48.059861038321
 31
0.0
  0
LINE
  5
3F
330
1F
100
AcDbEntity
  8
1
  6
Continuous
 62
     7
100
AcDbLine
 10
5.06476324010691
 20
48.059861038321
 30
0.0
 11
5.06476324010691
 21
48.95986103832104
 31
0.0
  0
LINE
  5
40
330
1F
100
AcDbEntity
  8
1
  6
Continuous
 62
     7
100
AcDbLine
 10
-14.43523675989306
 20
-35.940138961679
 30
0.0
 11
-14.43523675989306
 21
-36.840138961679
 31
0.0
  0
LINE
  5
41
330
1F
100
AcDbEntity
  8
1
  6
Continuous
 62
     7
100
AcDbLine
 10
5.06476324010691
 20
-36.840138961679
 30
0.0
 11
5.06476324010691
 21
-35.940138961679
 31
0.0
  0
LINE
  5
42
330
1F
100
AcDbEntity
  8
1
  6
Continuous
 62
     7
100
AcDbLine
 10
6.56476324010691
 20
48.059861038321
 30
0.0
 11
6.56476324010691
 21
-35.940138961679
 31
0.0
  0
LINE
  5
43
330
1F
100
AcDbEntity
  8
1
  6
Continuous
 62
     7
100
AcDbLine
 10
-15.93523675989306
 20
48.059861038321
 30
0.0
 11
-15.93523675989306
 21
-35.940138961679
 31
0.0
  0
LINE
  5
44
330
1F
100
AcDbEntity
  8
1
  6
Continuous
 62
     7
100
AcDbLine
 10
-15.93523675989306
 20
-35.940138961679
 30
0.0
 11
-14.68523675989306
 21
-35.940138961679
 31
0.0
  0
LINE
  5
45
330
1F
100
AcDbEntity
  8
1
  6
Continuous
 62
     7
100
AcDbLine
 10
5.31476324010691
 20
-35.940138961679
 30
0.0
 11
6.56476324010691
 21
-35.940138961679
 31
0.0
  0
LINE
  5
46
330
1F
100
AcDbEntity
  8
1
  6
Continuous
 62
     7
100
AcDbLine
 10
5.06476324010691
 20
-35.940138961679
 30
0.0
 11
5.31476324010691
 21
-35.940138961679
 31
0.0
  0
LINE
  5
47
330
1F
100
AcDbEntity
  8
1
  6
Continuous
 62
     7
100
AcDbLine
 10
-14.68523675989306
 20
-35.940138961679
 30
0.0
 11
-14.43523675989306
 21
-35.940138961679
 31
0.0
  0
LINE
  5
48
330
1F
100
AcDbEntity
  8
1
  6
Continuous
 62
     7
100
AcDbLine
 10
-14.68523675989306
 20
48.059861038321
 30
0.0
 11
-15.93523675989306
 21
48.059861038321
 31
0.0
  0
LINE
  5
49
330
1F
100
AcDbEntity
  8
1
  6
Continuous
 62
     7
100
AcDbLine
 10
6.56476324010691
 20
48.059861038321
 30
0.0
 11
5.31476324010691
 21
48.059861038321
 31
0.0
  0
LINE
  5
4A
330
1F
100
AcDbEntity
  8
1
  6
Continuous
 62
     7
100
AcDbLine
 10
5.31476324010691
 20
48.059861038321
 30
0.0
 11
5.06476324010691
 21
48.059861038321
 31
0.0
  0
LINE
  5
4B
330
1F
100
AcDbEntity
  8
1
  6
Continuous
 62
     7
100
AcDbLine
 10
-14.43523675989306
 20
48.059861038321
 30
0.0
 11
-14.68523675989306
 21
48.059861038321
 31
0.0
  0
LINE
  5
4C
330
1F
100
AcDbEntity
  8
1
  6
DOT_CENTER
 62
     2
100
AcDbLine
 10
-4.68523675989307
 20
48.65986103832103
 30
0.0
 11
-4.68523675989307
 21
-36.54013896167899
 31
0.0
  0
LINE
  5
4D
330
1F
100
AcDbEntity
  8
1
  6
Continuous
 62
     7
100
AcDbLine
 10
-14.43523675989306
 20
-35.940138961679
 30
0.0
 11
5.06476324010691
 21
-35.940138961679
 31
0.0
  0
LINE
  5
4E
330
1F
100
AcDbEntity
  8
1
  6
Continuous
 62
     7
100
AcDbLine
 10
-14.43523675989306
 20
48.059861038321
 30
0.0
 11
5.06476324010691
 21
48.059861038321
 31
0.0
  0
LINE
  5
4F
330
1F
100
AcDbEntity
  8
1
  6
Continuous
 62
     7
100
AcDbLine
 10
-41.18523675989307
 20
86.059861038321
 30
0.0
 11
-15.93523675989307
 21
86.059861038321
 31
0.0
  0
LINE
  5
50
330
1F
100
AcDbEntity
  8
1
  6
Continuous
 62
     7
100
AcDbLine
 10
-15.93523675989307
 20
48.95986103832104
 30
0.0
 11
-15.93523675989307
 21
86.059861038321
 31
0.0
  0
LINE
  5
51
330
1F
100
AcDbEntity
  8
1
  6
Continuous
 62
     7
100
AcDbLine
 10
6.56476324010697
 20
48.95986103832104
 30
0.0
 11
-15.93523675989307
 21
48.95986103832104
 31
0.0
  0
LINE
  5
52
330
1F
100
AcDbEntity
  8
1
  6
Continuous
 62
     7
100
AcDbLine
 10
6.56476324010697
 20
48.95986103832104
 30
0.0
 11
6.56476324010697
 21
86.059861038321
 31
0.0
  0
LINE
  5
53
330
1F
100
AcDbEntity
  8
1
  6
DOT_CENTER
 62
     2
100
AcDbLine
 10
-4.68523675989307
 20
88.62577940566803
 30
0.0
 11
-4.68523675989307
 21
48.65986103832103
 31
0.0
  0
LINE
  5
54
330
1F
100
AcDbEntity
  8
1
  6
Continuous
 62
     7
100
AcDbLine
 10
-53.18523675989297
 20
-61.940138961679
 30
0.0
 11
-53.18523675989306
 21
74.059861038321
 31
0.0
  0
LINE
  5
55
330
1F
100
AcDbEntity
  8
1
  6
Continuous
 62
     7
100
AcDbLine
 10
-15.93523675989307
 20
86.059861038321
 30
0.0
 11
6.56476324010697
 21
86.059861038321
 31
0.0
  0
LINE
  5
56
330
1F
100
AcDbEntity
  8
1
  6
DOT_CENTER
 62
     7
100
AcDbLine
 10
-62.49288982111708
 20
6.059861038321
 30
0.0
 11
43.672322554329
 21
6.059861038321
 31
0.0
  0
LINE
  5
57
330
1F
100
AcDbEntity
  8
1
  6
Continuous
 62
     7
100
AcDbLine
 10
-15.93523675989307
 20
-73.940138961679
 30
0.0
 11
-15.93523675989307
 21
-36.840138961679
 31
0.0
  0
LINE
  5
58
330
1F
100
AcDbEntity
  8
1
  6
Continuous
 62
     7
100
AcDbLine
 10
-15.93523675989307
 20
-36.840138961679
 30
0.0
 11
6.56476324010697
 21
-36.840138961679
 31
0.0
  0
LINE
  5
59
330
1F
100
AcDbEntity
  8
1
  6
Continuous
 62
     7
100
AcDbLine
 10
6.56476324010697
 20
-73.940138961679
 30
0.0
 11
6.56476324010697
 21
-36.840138961679
 31
0.0
  0
LINE
  5
5A
330
1F
100
AcDbEntity
  8
1
  6
DOT_CENTER
 62
     2
100
AcDbLine
 10
-4.68523675989307
 20
-36.54013896167899
 30
0.0
 11
-4.68523675989307
 21
-76.50605732902588
 31
0.0
  0
LINE
  5
5B
330
1F
100
AcDbEntity
  8
1
  6
Continuous
 62
     7
100
AcDbLine
 10
6.56476324010697
 20
-73.940138961679
 30
0.0
 11
-15.93523675989307
 21
-73.940138961679
 31
0.0
  0
LINE
  5
5C
330
1F
100
AcDbEntity
  8
1
  6
Continuous
 62
     7
100
AcDbLine
 10
-15.93523675989307
 20
-73.940138961679
 30
0.0
 11
-41.18523675989297
 21
-73.940138961679
 31
0.0
  0
LINE
  5
5D
330
1F
100
AcDbEntity
  8
1
  6
DOT_CENTER
 62
     2
100
AcDbLine
 10
-50.41023675989298
 20
74.059861038321
 30
0.0
 11
-31.96023675989297
 21
74.059861038321
 31
0.0
  0
LINE
  5
5E
330
1F
100
AcDbEntity
  8
1
  6
DOT_CENTER
 62
     2
100
AcDbLine
 10
-41.18523675989297
 20
64.83486103832101
 30
0.0
 11
-41.18523675989297
 21
83.28486103832101
 31
0.0
  0
LINE
  5
5F
330
1F
100
AcDbEntity
  8
1
  6
DOT_CENTER
 62
     2
100
AcDbLine
 10
-50.41023675989298
 20
-61.940138961679
 30
0.0
 11
-31.96023675989297
 21
-61.940138961679
 31
0.0
  0
LINE
  5
60
330
1F
100
AcDbEntity
  8
1
  6
DOT_CENTER
 62
     2
100
AcDbLine
 10
-41.18523675989297
 20
-71.16513896167899
 30
0.0
 11
-41.18523675989297
 21
-52.71513896167899
 31
0.0
  0
LINE
  5
61
330
1F
100
AcDbEntity
  8
1
  6
DOT_CENTER
 62
     2
100
AcDbLine
 10
-40.41023675989307
 20
-27.940138961679
 30
0.0
 11
-21.96023675989306
 21
-27.940138961679
 31
0.0
  0
LINE
  5
62
330
1F
100
AcDbEntity
  8
1
  6
DOT_CENTER
 62
     2
100
AcDbLine
 10
-31.18523675989307
 20
-37.16513896167901
 30
0.0
 11
-31.18523675989307
 21
-18.715138961679
 31
0.0
  0
LINE
  5
63
330
1F
100
AcDbEntity
  8
1
  6
DOT_CENTER
 62
     2
100
AcDbLine
 10
-40.41023675989307
 20
40.059861038321
 30
0.0
 11
-21.96023675989306
 21
40.059861038321
 31
0.0
  0
LINE
  5
64
330
1F
100
AcDbEntity
  8
1
  6
DOT_CENTER
 62
     2
100
AcDbLine
 10
-31.18523675989307
 20
30.834861038321
 30
0.0
 11
-31.18523675989307
 21
49.284861038321
 31
0.0
  0
LINE
  5
65
330
1F
100
AcDbEntity
  8
1
  6
DOT_CENTER
 62
     2
100
AcDbLine
 10
-45.18523675989297
 20
-3.16513896167901
 30
0.0
 11
-45.18523675989297
 21
15.284861038321
 31
0.0
  0
LINE
  5
66
330
1F
100
AcDbEntity
  8
1
  6
Continuous
 62
     7
100
AcDbLine
 10
33.5827124325381
 20
48.059861038321
 30
0.0
 11
6.56476324010691
 21
48.059861038321
 31
0.0
  0
LINE
  5
67
330
1F
100
AcDbEntity
  8
1
  6
Continuous
 62
     7
100
AcDbLine
 10
37.314763240107
 20
47.059861038321
 30
0.0
 11
37.314763240107
 21
39.809861038321
 31
0.0
  0
LINE
  5
68
330
1F
100
AcDbEntity
  8
1
  6
Continuous
 62
     7
100
AcDbLine
 10
33.5827124325381
 20
48.059861038321
 30
0.0
 11
37.314763240107
 21
47.059861038321
 31
0.0
  0
LINE
  5
69
330
1F
100
AcDbEntity
  8
1
  6
Continuous
 62
     7
100
AcDbLine
 10
33.5827124325381
 20
-35.940138961679
 30
0.0
 11
37.314763240107
 21
-34.940138961679
 31
0.0
  0
LINE
  5
6A
330
1F
100
AcDbEntity
  8
1
  6
Continuous
 62
     7
100
AcDbLine
 10
37.314763240107
 20
0.309861038321
 30
0.0
 11
37.314763240107
 21
-16.190138961679
 31
0.0
  0
LINE
  5
6B
330
1F
100
AcDbEntity
  8
1
  6
Continuous
 62
     7
100
AcDbLine
 10
32.65599242286626
 20
37.309861038321
 30
0.0
 11
34.814763240107
 21
37.309861038321
 31
0.0
  0
LINE
  5
6C
330
1F
100
AcDbEntity
  8
1
  6
Continuous
 62
     7
100
AcDbLine
 10
6.56476324010691
 20
-35.940138961679
 30
0.0
 11
33.5827124325381
 21
-35.940138961679
 31
0.0
  0
LINE
  5
6D
330
1F
100
AcDbEntity
  8
1
  6
Continuous
 62
     7
100
AcDbLine
 10
18.814763240107
 20
38.059861038321
 30
0.0
 11
18.814763240107
 21
30.059861038321
 31
0.0
  0
LINE
  5
6E
330
1F
100
AcDbEntity
  8
1
  6
Continuous
 62
     7
100
AcDbLine
 10
21.814763240107
 20
41.059861038321
 30
0.0
 11
27.814763240107
 21
41.059861038321
 31
0.0
  0
LINE
  5
6F
330
1F
100
AcDbEntity
  8
1
  6
DOT_CENTER
 62
     2
100
AcDbLine
 10
17.31964654649701
 20
34.059861038321
 30
0.0
 11
38.67232255432904
 21
34.059861038321
 31
0.0
  0
LINE
  5
70
330
1F
100
AcDbEntity
  8
1
  6
Continuous
 62
     7
100
AcDbLine
 10
27.814763240107
 20
27.059861038321
 30
0.0
 11
21.814763240107
 21
27.059861038321
 31
0.0
  0
LINE
  5
71
330
1F
100
AcDbEntity
  8
1
  6
Continuous
 62
     7
100
AcDbLine
 10
34.81476324010697
 20
30.809861038321
 30
0.0
 11
32.65599242286626
 21
30.809861038321
 31
0.0
  0
LINE
  5
72
330
1F
100
AcDbEntity
  8
1
  6
Continuous
 62
     7
100
AcDbLine
 10
18.814763240107
 20
10.059861038321
 30
0.0
 11
18.814763240107
 21
2.059861038321
 31
0.0
  0
LINE
  5
73
330
1F
100
AcDbEntity
  8
1
  6
Continuous
 62
     7
100
AcDbLine
 10
21.814763240107
 20
13.059861038321
 30
0.0
 11
27.814763240107
 21
13.059861038321
 31
0.0
  0
LINE
  5
74
330
1F
100
AcDbEntity
  8
1
  6
Continuous
 62
     7
100
AcDbLine
 10
27.814763240107
 20
-28.940138961679
 30
0.0
 11
21.814763240107
 21
-28.940138961679
 31
0.0
  0
LINE
  5
75
330
1F
100
AcDbEntity
  8
1
  6
Continuous
 62
     7
100
AcDbLine
 10
34.814763240107
 20
-25.190138961679
 30
0.0
 11
32.65599242286626
 21
-25.19013896167899
 31
0.0
  0
LINE
  5
76
330
1F
100
AcDbEntity
  8
1
  6
Continuous
 62
     7
100
AcDbLine
 10
37.314763240107
 20
-27.690138961679
 30
0.0
 11
37.314763240107
 21
-34.940138961679
 31
0.0
  0
LINE
  5
77
330
1F
100
AcDbEntity
  8
1
  6
DOT_CENTER
 62
     2
100
AcDbLine
 10
38.67232255432904
 20
-21.940138961679
 30
0.0
 11
17.31964654649701
 21
-21.940138961679
 31
0.0
  0
LINE
  5
78
330
1F
100
AcDbEntity
  8
1
  6
Continuous
 62
     7
100
AcDbLine
 10
18.814763240107
 20
-17.940138961679
 30
0.0
 11
18.814763240107
 21
-25.940138961679
 31
0.0
  0
LINE
  5
79
330
1F
100
AcDbEntity
  8
1
  6
Continuous
 62
     7
100
AcDbLine
 10
21.814763240107
 20
-14.940138961679
 30
0.0
 11
27.814763240107
 21
-14.940138961679
 31
0.0
  0
LINE
  5
7A
330
1F
100
AcDbEntity
  8
1
  6
Continuous
 62
     7
100
AcDbLine
 10
32.65599242286626
 20
-18.69013896167899
 30
0.0
 11
34.81476324010697
 21
-18.690138961679
 31
0.0
  0
LINE
  5
7B
330
1F
100
AcDbEntity
  8
1
  6
Continuous
 62
     7
100
AcDbLine
 10
27.814763240107
 20
-0.940138961679
 30
0.0
 11
21.814763240107
 21
-0.940138961679
 31
0.0
  0
LINE
  5
7C
330
1F
100
AcDbEntity
  8
1
  6
DOT_CENTER
 62
     2
100
AcDbLine
 10
17.31964654649701
 20
6.059861038321
 30
0.0
 11
38.67232255432904
 21
6.059861038321
 31
0.0
  0
LINE
  5
7D
330
1F
100
AcDbEntity
  8
1
  6
Continuous
 62
     7
100
AcDbLine
 10
32.65599242286626
 20
9.309861038321
 30
0.0
 11
34.814763240107
 21
9.309861038321
 31
0.0
  0
LINE
  5
7E
330
1F
100
AcDbEntity
  8
1
  6
Continuous
 62
     7
100
AcDbLine
 10
34.81476324010697
 20
2.809861038321
 30
0.0
 11
32.65599242286626
 21
2.809861038321
 31
0.0
  0
LINE
  5
7F
330
1F
100
AcDbEntity
  8
1
  6
Continuous
 62
     7
100
AcDbLine
 10
37.314763240107
 20
11.809861038321
 30
0.0
 11
37.314763240107
 21
28.309861038321
 31
0.0
  0
ARC
  5
80
330
1F
100
AcDbEntity
  8
0
  6
Continuous
 62
     2
100
AcDbCircle
 10
-17.42588317159311
 20
-60.03260284337901
 30
0.0
 40
4.918554055799942
100
AcDbArc
 50
-107.7159175273036
 51
-72.28408247269618
  0
ARC
  5
81
330
1F
100
AcDbEntity
  8
0
  6
Continuous
 62
     2
100
AcDbCircle
 10
-17.42588317159311
 20
-59.232602843379
 30
0.0
 40
4.918554055799942
100
AcDbArc
 50
-107.7159175273036
 51
-72.28408247269618
  0
ARC
  5
82
330
1F
100
AcDbEntity
  8
0
  6
Continuous
 62
     2
100
AcDbCircle
 10
-17.42588317159311
 20
-58.43260284337899
 30
0.0
 40
4.918554055799969
100
AcDbArc
 50
-107.7159175273035
 51
-72.2840824726963
  0
ARC
  5
83
330
1F
100
AcDbEntity
  8
0
  6
Continuous
 62
     2
100
AcDbCircle
 10
-17.42588317159311
 20
-57.632602843379
 30
0.0
 40
4.918554055799955
100
AcDbArc
 50
-107.7159175273036
 51
-72.28408247269624
  0
ARC
  5
84
330
1F
100
AcDbEntity
  8
0
  6
Continuous
 62
     2
100
AcDbCircle
 10
-17.42588317159311
 20
-56.83260284337899
 30
0.0
 40
4.918554055799936
100
AcDbArc
 50
-107.7159175273036
 51
-72.28408247269617
  0
ARC
  5
85
330
1F
100
AcDbEntity
  8
0
  6
Continuous
 62
     2
100
AcDbCircle
 10
-17.42588317159311
 20
-56.03260284337901
 30
0.0
 40
4.918554055799942
100
AcDbArc
 50
-107.7159175273036
 51
-72.28408247269618
  0
ARC
  5
86
330
1F
100
AcDbEntity
  8
0
  6
Continuous
 62
     2
100
AcDbCircle
 10
-17.42588317159311
 20
-55.232602843379
 30
0.0
 40
4.918554055799942
100
AcDbArc
 50
-107.7159175273036
 51
-72.28408247269618
  0
ARC
  5
87
330
1F
100
AcDbEntity
  8
0
  6
Continuous
 62
     2
100
AcDbCircle
 10
-17.42588317159311
 20
-54.43260284337899
 30
0.0
 40
4.918554055799969
100
AcDbArc
 50
-107.7159175273035
 51
-72.2840824726963
  0
ARC
  5
88
330
1F
100
AcDbEntity
  8
0
  6
Continuous
 62
     2
100
AcDbCircle
 10
-17.42588317159311
 20
-53.632602843379
 30
0.0
 40
4.918554055799955
100
AcDbArc
 50
-107.7159175273036
 51
-72.28408247269624
  0
ARC
  5
89
330
1F
100
AcDbEntity
  8
0
  6
Continuous
 62
     2
100
AcDbCircle
 10
-17.42588317159311
 20
-52.83260284337899
 30
0.0
 40
4.918554055799936
100
AcDbArc
 50
-107.7159175273036
 51
-72.28408247269617
  0
ARC
  5
8A
330
1F
100
AcDbEntity
  8
0
  6
Continuous
 62
     2
100
AcDbCircle
 10
-17.42588317159311
 20
-52.03260284337901
 30
0.0
 40
4.918554055799942
100
AcDbArc
 50
-107.7159175273036
 51
-72.28408247269618
  0
ARC
  5
8B
330
1F
100
AcDbEntity
  8
0
  6
Continuous
 62
     2
100
AcDbCircle
 10
-17.42588317159311
 20
-51.232602843379
 30
0.0
 40
4.918554055799942
100
AcDbArc
 50
-107.7159175273036
 51
-72.28408247269618
  0
ARC
  5
8C
330
1F
100
AcDbEntity
  8
0
  6
Continuous
 62
     2
100
AcDbCircle
 10
-17.42588317159311
 20
-50.43260284337899
 30
0.0
 40
4.918554055799969
100
AcDbArc
 50
-107.7159175273035
 51
-72.2840824726963
  0
ARC
  5
8D
330
1F
100
AcDbEntity
  8
0
  6
Continuous
 62
     2
100
AcDbCircle
 10
-17.42588317159311
 20
-49.632602843379
 30
0.0
 40
4.918554055799955
100
AcDbArc
 50
-107.7159175273036
 51
-72.28408247269624
  0
ARC
  5
8E
330
1F
100
AcDbEntity
  8
0
  6
Continuous
 62
     2
100
AcDbCircle
 10
-17.42588317159311
 20
-48.83260284337899
 30
0.0
 40
4.918554055799936
100
AcDbArc
 50
-107.7159175273036
 51
-72.28408247269617
  0
ARC
  5
8F
330
1F
100
AcDbEntity
  8
0
  6
Continuous
 62
     2
100
AcDbCircle
 10
-17.42588317159311
 20
-48.03260284337901
 30
0.0
 40
4.918554055799942
100
AcDbArc
 50
-107.7159175273036
 51
-72.28408247269618
  0
ARC
  5
90
330
1F
100
AcDbEntity
  8
0
  6
Continuous
 62
     2
100
AcDbCircle
 10
-17.42588317159311
 20
-47.232602843379
 30
0.0
 40
4.918554055799942
100
AcDbArc
 50
-107.7159175273036
 51
-72.28408247269618
  0
ARC
  5
91
330
1F
100
AcDbEntity
  8
0
  6
Continuous
 62
     2
100
AcDbCircle
 10
-17.42588317159311
 20
-46.43260284337899
 30
0.0
 40
4.918554055799969
100
AcDbArc
 50
-107.7159175273035
 51
-72.2840824726963
  0
ARC
  5
92
330
1F
100
AcDbEntity
  8
0
  6
Continuous
 62
     2
100
AcDbCircle
 10
-17.42588317159311
 20
-45.632602843379
 30
0.0
 40
4.918554055799955
100
AcDbArc
 50
-107.7159175273036
 51
-72.28408247269624
  0
ARC
  5
93
330
1F
100
AcDbEntity
  8
0
  6
Continuous
 62
     2
100
AcDbCircle
 10
-17.42588317159311
 20
-44.83260284337899
 30
0.0
 40
4.918554055799936
100
AcDbArc
 50
-107.7159175273036
 51
-72.28408247269617
  0
ARC
  5
94
330
1F
100
AcDbEntity
  8
0
  6
Continuous
 62
     2
100
AcDbCircle
 10
-17.42588317159311
 20
-44.03260284337901
 30
0.0
 40
4.918554055799942
100
AcDbArc
 50
-107.7159175273036
 51
-72.28408247269618
  0
ARC
  5
95
330
1F
100
AcDbEntity
  8
0
  6
Continuous
 62
     2
100
AcDbCircle
 10
-17.42588317159311
 20
-43.232602843379
 30
0.0
 40
4.918554055799942
100
AcDbArc
 50
-107.7159175273036
 51
-72.28408247269618
  0
ARC
  5
96
330
1F
100
AcDbEntity
  8
0
  6
Continuous
 62
     2
100
AcDbCircle
 10
-17.42588317159311
 20
-42.43260284337899
 30
0.0
 40
4.918554055799969
100
AcDbArc
 50
-107.7159175273035
 51
-72.2840824726963
  0
ARC
  5
97
330
1F
100
AcDbEntity
  8
0
  6
Continuous
 62
     2
100
AcDbCircle
 10
-17.42588317159311
 20
-41.632602843379
 30
0.0
 40
4.918554055799955
100
AcDbArc
 50
-107.7159175273036
 51
-72.28408247269624
  0
ARC
  5
98
330
1F
100
AcDbEntity
  8
0
  6
Continuous
 62
     2
100
AcDbCircle
 10
-17.42588317159311
 20
-40.83260284337899
 30
0.0
 40
4.918554055799936
100
AcDbArc
 50
-107.7159175273036
 51
-72.28408247269617
  0
ARC
  5
99
330
1F
100
AcDbEntity
  8
0
  6
Continuous
 62
     2
100
AcDbCircle
 10
-17.42588317159311
 20
-40.03260284337901
 30
0.0
 40
4.918554055799942
100
AcDbArc
 50
-107.7159175273036
 51
-72.28408247269618
  0
ARC
  5
9A
330
1F
100
AcDbEntity
  8
0
  6
Continuous
 62
     2
100
AcDbCircle
 10
8.0053254799069
 20
-23.84809240867901
 30
0.0
 40
4.298166113999591
100
AcDbArc
 50
-110.363720857802
 51
-69.63627914219799
  0
ARC
  5
9B
330
1F
100
AcDbEntity
  8
0
  6
Continuous
 62
     2
100
AcDbCircle
 10
8.0053254799069
 20
-23.048092408679
 30
0.0
 40
4.298166113999618
100
AcDbArc
 50
-110.3637208578019
 51
-69.63627914219812
  0
ARC
  5
9C
330
1F
100
AcDbEntity
  8
0
  6
Continuous
 62
     2
100
AcDbCircle
 10
8.0053254799069
 20
-22.24809240867899
 30
0.0
 40
4.298166113999612
100
AcDbArc
 50
-110.3637208578019
 51
-69.63627914219808
  0
ARC
  5
9D
330
1F
100
AcDbEntity
  8
0
  6
Continuous
 62
     2
100
AcDbCircle
 10
8.0053254799069
 20
-21.448092408679
 30
0.0
 40
4.298166113999591
100
AcDbArc
 50
-110.363720857802
 51
-69.63627914219799
  0
ARC
  5
9E
330
1F
100
AcDbEntity
  8
0
  6
Continuous
 62
     2
100
AcDbCircle
 10
8.0053254799069
 20
-20.64809240867899
 30
0.0
 40
4.298166113999618
100
AcDbArc
 50
-110.3637208578019
 51
-69.63627914219812
  0
ARC
  5
9F
330
1F
100
AcDbEntity
  8
0
  6
Continuous
 62
     2
100
AcDbCircle
 10
8.0053254799069
 20
-19.84809240867901
 30
0.0
 40
4.298166113999591
100
AcDbArc
 50
-110.363720857802
 51
-69.63627914219799
  0
ARC
  5
A0
330
1F
100
AcDbEntity
  8
0
  6
Continuous
 62
     2
100
AcDbCircle
 10
8.0053254799069
 20
-19.048092408679
 30
0.0
 40
4.298166113999618
100
AcDbArc
 50
-110.3637208578019
 51
-69.63627914219812
  0
ARC
  5
A1
330
1F
100
AcDbEntity
  8
0
  6
Continuous
 62
     2
100
AcDbCircle
 10
8.0053254799069
 20
-18.24809240867899
 30
0.0
 40
4.298166113999612
100
AcDbArc
 50
-110.3637208578019
 51
-69.63627914219808
  0
ARC
  5
A2
330
1F
100
AcDbEntity
  8
0
  6
Continuous
 62
     2
100
AcDbCircle
 10
8.0053254799069
 20
-17.448092408679
 30
0.0
 40
4.298166113999591
100
AcDbArc
 50
-110.363720857802
 51
-69.63627914219799
  0
ARC
  5
A3
330
1F
100
AcDbEntity
  8
0
  6
Continuous
 62
     2
100
AcDbCircle
 10
8.0053254799069
 20
-16.64809240867899
 30
0.0
 40
4.298166113999618
100
AcDbArc
 50
-110.3637208578019
 51
-69.63627914219812
  0
ARC
  5
A4
330
1F
100
AcDbEntity
  8
0
  6
Continuous
 62
     2
100
AcDbCircle
 10
8.0053254799069
 20
-15.84809240867901
 30
0.0
 40
4.298166113999589
100
AcDbArc
 50
-110.363720857802
 51
-69.63627914219798
  0
ARC
  5
A5
330
1F
100
AcDbEntity
  8
0
  6
Continuous
 62
     2
100
AcDbCircle
 10
8.0053254799069
 20
-15.048092408679
 30
0.0
 40
4.298166113999618
100
AcDbArc
 50
-110.3637208578019
 51
-69.63627914219812
  0
ARC
  5
A6
330
1F
100
AcDbEntity
  8
0
  6
Continuous
 62
     2
100
AcDbCircle
 10
8.0053254799069
 20
-14.24809240867899
 30
0.0
 40
4.29816611399961
100
AcDbArc
 50
-110.3637208578019
 51
-69.63627914219808
  0
ARC
  5
A7
330
1F
100
AcDbEntity
  8
0
  6
Continuous
 62
     2
100
AcDbCircle
 10
8.0053254799069
 20
-13.448092408679
 30
0.0
 40
4.298166113999589
100
AcDbArc
 50
-110.363720857802
 51
-69.63627914219798
  0
ARC
  5
A8
330
1F
100
AcDbEntity
  8
0
  6
Continuous
 62
     2
100
AcDbCircle
 10
8.0053254799069
 20
-12.64809240867899
 30
0.0
 40
4.29816611399962
100
AcDbArc
 50
-110.3637208578019
 51
-69.63627914219813
  0
ARC
  5
A9
330
1F
100
AcDbEntity
  8
0
  6
Continuous
 62
     2
100
AcDbCircle
 10
8.0053254799069
 20
-11.84809240867901
 30
0.0
 40
4.298166113999591
100
AcDbArc
 50
-110.363720857802
 51
-69.63627914219799
  0
ARC
  5
AA
330
1F
100
AcDbEntity
  8
0
  6
Continuous
 62
     2
100
AcDbCircle
 10
8.0053254799069
 20
-11.048092408679
 30
0.0
 40
4.298166113999618
100
AcDbArc
 50
-110.3637208578019
 51
-69.63627914219812
  0
ARC
  5
AB
330
1F
100
AcDbEntity
  8
0
  6
Continuous
 62
     2
100
AcDbCircle
 10
8.0053254799069
 20
-10.24809240867899
 30
0.0
 40
4.298166113999608
100
AcDbArc
 50
-110.3637208578019
 51
-69.63627914219808
  0
ARC
  5
AC
330
1F
100
AcDbEntity
  8
0
  6
Continuous
 62
     2
100
AcDbCircle
 10
8.0053254799069
 20
-9.448092408679
 30
0.0
 40
4.298166113999588
100
AcDbArc
 50
-110.363720857802
 51
-69.63627914219796
  0
ARC
  5
AD
330
1F
100
AcDbEntity
  8
0
  6
Continuous
 62
     2
100
AcDbCircle
 10
8.0053254799069
 20
-8.64809240867899
 30
0.0
 40
4.298166113999618
100
AcDbArc
 50
-110.3637208578019
 51
-69.63627914219812
  0
ARC
  5
AE
330
1F
100
AcDbEntity
  8
0
  6
Continuous
 62
     2
100
AcDbCircle
 10
8.09351156810689
 20
28.874405172021
 30
0.0
 40
4.298166113999608
100
AcDbArc
 50
-110.3637208578015
 51
-69.63627914219812
  0
ARC
  5
AF
330
1F
100
AcDbEntity
  8
0
  6
Continuous
 62
     2
100
AcDbCircle
 10
8.09351156810689
 20
29.67440517202101
 30
0.0
 40
4.298166113999612
100
AcDbArc
 50
-110.3637208578015
 51
-69.63627914219813
  0
ARC
  5
B0
330
1F
100
AcDbEntity
  8
0
  6
Continuous
 62
     2
100
AcDbCircle
 10
8.09351156810689
 20
30.47440517202099
 30
0.0
 40
4.298166113999581
100
AcDbArc
 50
-110.3637208578017
 51
-69.63627914219799
  0
ARC
  5
B1
330
1F
100
AcDbEntity
  8
0
  6
Continuous
 62
     2
100
AcDbCircle
 10
8.09351156810689
 20
31.27440517202101
 30
0.0
 40
4.298166113999608
100
AcDbArc
 50
-110.3637208578015
 51
-69.63627914219812
  0
ARC
  5
B2
330
1F
100
AcDbEntity
  8
0
  6
Continuous
 62
     2
100
AcDbCircle
 10
8.09351156810689
 20
32.07440517202102
 30
0.0
 40
4.298166113999605
100
AcDbArc
 50
-110.3637208578016
 51
-69.6362791421981
  0
ARC
  5
B3
330
1F
100
AcDbEntity
  8
0
  6
Continuous
 62
     2
100
AcDbCircle
 10
8.09351156810689
 20
32.874405172021
 30
0.0
 40
4.298166113999608
100
AcDbArc
 50
-110.3637208578015
 51
-69.63627914219812
  0
ARC
  5
B4
330
1F
100
AcDbEntity
  8
0
  6
Continuous
 62
     2
100
AcDbCircle
 10
8.09351156810689
 20
33.67440517202101
 30
0.0
 40
4.298166113999612
100
AcDbArc
 50
-110.3637208578015
 51
-69.63627914219813
  0
ARC
  5
B5
330
1F
100
AcDbEntity
  8
0
  6
Continuous
 62
     2
100
AcDbCircle
 10
8.09351156810689
 20
34.47440517202099
 30
0.0
 40
4.298166113999578
100
AcDbArc
 50
-110.3637208578017
 51
-69.63627914219796
  0
ARC
  5
B6
330
1F
100
AcDbEntity
  8
0
  6
Continuous
 62
     2
100
AcDbCircle
 10
8.09351156810689
 20
35.27440517202101
 30
0.0
 40
4.298166113999612
100
AcDbArc
 50
-110.3637208578015
 51
-69.63627914219813
  0
ARC
  5
B7
330
1F
100
AcDbEntity
  8
0
  6
Continuous
 62
     2
100
AcDbCircle
 10
8.09351156810689
 20
36.07440517202102
 30
0.0
 40
4.298166113999608
100
AcDbArc
 50
-110.3637208578015
 51
-69.63627914219812
  0
ARC
  5
B8
330
1F
100
AcDbEntity
  8
0
  6
Continuous
 62
     2
100
AcDbCircle
 10
8.09351156810689
 20
36.874405172021
 30
0.0
 40
4.298166113999608
100
AcDbArc
 50
-110.3637208578015
 51
-69.63627914219812
  0
ARC
  5
B9
330
1F
100
AcDbEntity
  8
0
  6
Continuous
 62
     2
100
AcDbCircle
 10
8.09351156810689
 20
37.67440517202101
 30
0.0
 40
4.298166113999608
100
AcDbArc
 50
-110.3637208578015
 51
-69.63627914219812
  0
ARC
  5
BA
330
1F
100
AcDbEntity
  8
0
  6
Continuous
 62
     2
100
AcDbCircle
 10
8.09351156810689
 20
38.47440517202099
 30
0.0
 40
4.298166113999575
100
AcDbArc
 50
-110.3637208578017
 51
-69.63627914219796
  0
ARC
  5
BB
330
1F
100
AcDbEntity
  8
0
  6
Continuous
 62
     2
100
AcDbCircle
 10
8.09351156810689
 20
39.27440517202101
 30
0.0
 40
4.298166113999608
100
AcDbArc
 50
-110.3637208578015
 51
-69.63627914219812
  0
ARC
  5
BC
330
1F
100
AcDbEntity
  8
0
  6
Continuous
 62
     2
100
AcDbCircle
 10
8.09351156810689
 20
40.07440517202102
 30
0.0
 40
4.298166113999608
100
AcDbArc
 50
-110.3637208578015
 51
-69.63627914219812
  0
ARC
  5
BD
330
1F
100
AcDbEntity
  8
0
  6
Continuous
 62
     2
100
AcDbCircle
 10
8.09351156810689
 20
40.874405172021
 30
0.0
 40
4.298166113999608
100
AcDbArc
 50
-110.3637208578015
 51
-69.63627914219812
  0
ARC
  5
BE
330
1F
100
AcDbEntity
  8
0
  6
Continuous
 62
     2
100
AcDbCircle
 10
8.09351156810689
 20
41.67440517202101
 30
0.0
 40
4.298166113999608
100
AcDbArc
 50
-110.3637208578015
 51
-69.63627914219812
  0
ARC
  5
BF
330
1F
100
AcDbEntity
  8
0
  6
Continuous
 62
     2
100
AcDbCircle
 10
8.09351156810689
 20
42.47440517202099
 30
0.0
 40
4.298166113999575
100
AcDbArc
 50
-110.3637208578017
 51
-69.63627914219796
  0
ARC
  5
C0
330
1F
100
AcDbEntity
  8
0
  6
Continuous
 62
     2
100
AcDbCircle
 10
8.09351156810689
 20
43.27440517202101
 30
0.0
 40
4.298166113999608
100
AcDbArc
 50
-110.3637208578015
 51
-69.63627914219812
  0
ARC
  5
C1
330
1F
100
AcDbEntity
  8
0
  6
Continuous
 62
     2
100
AcDbCircle
 10
8.09351156810689
 20
44.07440517202102
 30
0.0
 40
4.298166113999608
100
AcDbArc
 50
-110.3637208578015
 51
-69.63627914219812
  0
ARC
  5
C2
330
1F
100
AcDbEntity
  8
0
  6
Continuous
 62
     2
100
AcDbCircle
 10
-17.42588317159311
 20
61.73690618462101
 30
0.0
 40
4.918554055799922
100
AcDbArc
 50
-107.7159175273037
 51
-72.28408247269611
  0
ARC
  5
C3
330
1F
100
AcDbEntity
  8
0
  6
Continuous
 62
     2
100
AcDbCircle
 10
-17.42588317159311
 20
62.53690618462102
 30
0.0
 40
4.918554055799969
100
AcDbArc
 50
-107.7159175273035
 51
-72.2840824726963
  0
ARC
  5
C4
330
1F
100
AcDbEntity
  8
0
  6
Continuous
 62
     2
100
AcDbCircle
 10
-17.42588317159311
 20
63.33690618462103
 30
0.0
 40
4.918554055799969
100
AcDbArc
 50
-107.7159175273035
 51
-72.2840824726963
  0
ARC
  5
C5
330
1F
100
AcDbEntity
  8
0
  6
Continuous
 62
     2
100
AcDbCircle
 10
-17.42588317159311
 20
64.13690618462098
 30
0.0
 40
4.918554055799915
100
AcDbArc
 50
-107.7159175273037
 51
-72.28408247269608
  0
ARC
  5
C6
330
1F
100
AcDbEntity
  8
0
  6
Continuous
 62
     2
100
AcDbCircle
 10
-17.42588317159311
 20
64.936906184621
 30
0.0
 40
4.918554055799915
100
AcDbArc
 50
-107.7159175273037
 51
-72.28408247269608
  0
ARC
  5
C7
330
1F
100
AcDbEntity
  8
0
  6
Continuous
 62
     2
100
AcDbCircle
 10
-17.42588317159311
 20
65.736906184621
 30
0.0
 40
4.918554055799962
100
AcDbArc
 50
-107.7159175273035
 51
-72.28408247269627
  0
ARC
  5
C8
330
1F
100
AcDbEntity
  8
0
  6
Continuous
 62
     2
100
AcDbCircle
 10
-17.42588317159311
 20
66.53690618462102
 30
0.0
 40
4.918554055799969
100
AcDbArc
 50
-107.7159175273035
 51
-72.2840824726963
  0
ARC
  5
C9
330
1F
100
AcDbEntity
  8
0
  6
Continuous
 62
     2
100
AcDbCircle
 10
-17.42588317159311
 20
67.33690618462103
 30
0.0
 40
4.918554055799969
100
AcDbArc
 50
-107.7159175273035
 51
-72.2840824726963
  0
ARC
  5
CA
330
1F
100
AcDbEntity
  8
0
  6
Continuous
 62
     2
100
AcDbCircle
 10
-17.42588317159311
 20
68.13690618462098
 30
0.0
 40
4.918554055799915
100
AcDbArc
 50
-107.7159175273037
 51
-72.28408247269608
  0
ARC
  5
CB
330
1F
100
AcDbEntity
  8
0
  6
Continuous
 62
     2
100
AcDbCircle
 10
-17.42588317159311
 20
68.936906184621
 30
0.0
 40
4.918554055799915
100
AcDbArc
 50
-107.7159175273037
 51
-72.28408247269608
  0
ARC
  5
CC
330
1F
100
AcDbEntity
  8
0
  6
Continuous
 62
     2
100
AcDbCircle
 10
-17.42588317159311
 20
69.736906184621
 30
0.0
 40
4.918554055799969
100
AcDbArc
 50
-107.7159175273035
 51
-72.2840824726963
  0
ARC
  5
CD
330
1F
100
AcDbEntity
  8
0
  6
Continuous
 62
     2
100
AcDbCircle
 10
-17.42588317159311
 20
70.53690618462102
 30
0.0
 40
4.918554055799969
100
AcDbArc
 50
-107.7159175273035
 51
-72.2840824726963
  0
ARC
  5
CE
330
1F
100
AcDbEntity
  8
0
  6
Continuous
 62
     2
100
AcDbCircle
 10
-17.42588317159311
 20
71.33690618462103
 30
0.0
 40
4.918554055799969
100
AcDbArc
 50
-107.7159175273035
 51
-72.2840824726963
  0
ARC
  5
CF
330
1F
100
AcDbEntity
  8
0
  6
Continuous
 62
     2
100
AcDbCircle
 10
-17.42588317159311
 20
72.13690618462098
 30
0.0
 40
4.918554055799915
100
AcDbArc
 50
-107.7159175273037
 51
-72.28408247269608
  0
ARC
  5
D0
330
1F
100
AcDbEntity
  8
0
  6
Continuous
 62
     2
100
AcDbCircle
 10
-17.42588317159311
 20
72.936906184621
 30
0.0
 40
4.918554055799915
100
AcDbArc
 50
-107.7159175273037
 51
-72.28408247269608
  0
ARC
  5
D1
330
1F
100
AcDbEntity
  8
0
  6
Continuous
 62
     2
100
AcDbCircle
 10
-17.42588317159311
 20
73.736906184621
 30
0.0
 40
4.918554055799969
100
AcDbArc
 50
-107.7159175273035
 51
-72.2840824726963
  0
ARC
  5
D2
330
1F
100
AcDbEntity
  8
0
  6
Continuous
 62
     2
100
AcDbCircle
 10
-17.42588317159311
 20
74.53690618462102
 30
0.0
 40
4.918554055799969
100
AcDbArc
 50
-107.7159175273035
 51
-72.2840824726963
  0
ARC
  5
D3
330
1F
100
AcDbEntity
  8
0
  6
Continuous
 62
     2
100
AcDbCircle
 10
-17.42588317159311
 20
75.33690618462103
 30
0.0
 40
4.918554055799969
100
AcDbArc
 50
-107.7159175273035
 51
-72.2840824726963
  0
ARC
  5
D4
330
1F
100
AcDbEntity
  8
0
  6
Continuous
 62
     2
100
AcDbCircle
 10
-17.42588317159311
 20
76.13690618462098
 30
0.0
 40
4.918554055799915
100
AcDbArc
 50
-107.7159175273037
 51
-72.28408247269608
  0
ARC
  5
D5
330
1F
100
AcDbEntity
  8
0
  6
Continuous
 62
     2
100
AcDbCircle
 10
-17.42588317159311
 20
76.936906184621
 30
0.0
 40
4.918554055799915
100
AcDbArc
 50
-107.7159175273037
 51
-72.28408247269608
  0
ARC
  5
D6
330
1F
100
AcDbEntity
  8
0
  6
Continuous
 62
     2
100
AcDbCircle
 10
-17.42588317159311
 20
77.736906184621
 30
0.0
 40
4.918554055799969
100
AcDbArc
 50
-107.7159175273035
 51
-72.2840824726963
  0
ARC
  5
D7
330
1F
100
AcDbEntity
  8
0
  6
Continuous
 62
     2
100
AcDbCircle
 10
-17.42588317159311
 20
78.53690618462102
 30
0.0
 40
4.918554055799969
100
AcDbArc
 50
-107.7159175273035
 51
-72.2840824726963
  0
ARC
  5
D8
330
1F
100
AcDbEntity
  8
0
  6
Continuous
 62
     2
100
AcDbCircle
 10
-17.42588317159311
 20
79.33690618462103
 30
0.0
 40
4.918554055799969
100
AcDbArc
 50
-107.7159175273035
 51
-72.2840824726963
  0
ARC
  5
D9
330
1F
100
AcDbEntity
  8
0
  6
Continuous
 62
     2
100
AcDbCircle
 10
-17.42588317159311
 20
80.13690618462098
 30
0.0
 40
4.918554055799915
100
AcDbArc
 50
-107.7159175273037
 51
-72.28408247269608
  0
ARC
  5
DA
330
1F
100
AcDbEntity
  8
0
  6
Continuous
 62
     2
100
AcDbCircle
 10
-17.42588317159311
 20
80.936906184621
 30
0.0
 40
4.918554055799915
100
AcDbArc
 50
-107.7159175273037
 51
-72.28408247269608
  0
ARC
  5
DB
330
1F
100
AcDbEntity
  8
0
  6
Continuous
 62
     2
100
AcDbCircle
 10
-17.42588317159311
 20
81.736906184621
 30
0.0
 40
4.918554055799969
100
AcDbArc
 50
-107.7159175273035
 51
-72.2840824726963
  0
ARC
  5
DC
330
1F
100
AcDbEntity
  8
1
  6
Continuous
 62
     7
100
AcDbCircle
 10
32.65599242286626
 20
-16.69013896167899
 30
0.0
 40
2.000000000000005
100
AcDbArc
 50
-165.5224878140701
 51
-90.0
  0
ARC
  5
DD
330
1F
100
AcDbEntity
  8
1
  6
Continuous
 62
     7
100
AcDbCircle
 10
32.65599242286626
 20
-27.19013896167899
 30
0.0
 40
2.0
100
AcDbArc
 50
90.0
 51
165.5224878140701
  0
ARC
  5
DE
330
1F
100
AcDbEntity
  8
1
  6
Continuous
 62
     7
100
AcDbCircle
 10
32.65599242286626
 20
39.309861038321
 30
0.0
 40
2.000000000000005
100
AcDbArc
 50
-165.5224878140701
 51
-90.0
  0
ARC
  5
DF
330
1F
100
AcDbEntity
  8
1
  6
Continuous
 62
     7
100
AcDbCircle
 10
32.65599242286626
 20
28.809861038321
 30
0.0
 40
2.0
100
AcDbArc
 50
90.0
 51
165.5224878140701
  0
ARC
  5
E0
330
1F
100
AcDbEntity
  8
0
  6
Continuous
 62
     2
100
AcDbCircle
 10
8.09351156810689
 20
44.87440517202102
 30
0.0
 40
4.298166113999608
100
AcDbArc
 50
-110.3637208578015
 51
-69.63627914219812
  0
ARC
  5
E1
330
1F
100
AcDbEntity
  8
0
  6
Continuous
 62
     2
100
AcDbCircle
 10
8.09351156810689
 20
45.67440517202103
 30
0.0
 40
4.298166113999608
100
AcDbArc
 50
-110.3637208578015
 51
-69.63627914219812
  0
ARC
  5
E2
330
1F
100
AcDbEntity
  8
0
  6
Continuous
 62
     2
100
AcDbCircle
 10
8.09351156810689
 20
46.47440517202103
 30
0.0
 40
4.298166113999608
100
AcDbArc
 50
-110.3637208578015
 51
-69.63627914219812
  0
ARC
  5
E3
330
1F
100
AcDbEntity
  8
0
  6
Continuous
 62
     2
100
AcDbCircle
 10
8.09351156810689
 20
47.27440517202103
 30
0.0
 40
4.298166113999595
100
AcDbArc
 50
-110.3637208578016
 51
-69.63627914219806
  0
ARC
  5
E4
330
1F
100
AcDbEntity
  8
0
  6
Continuous
 62
     2
100
AcDbCircle
 10
8.09351156810689
 20
48.07440517202104
 30
0.0
 40
4.298166113999608
100
AcDbArc
 50
-110.3637208578015
 51
-69.63627914219812
  0
ARC
  5
E5
330
1F
100
AcDbEntity
  8
0
  6
Continuous
 62
     2
100
AcDbCircle
 10
8.09351156810689
 20
48.87440517202104
 30
0.0
 40
4.298166113999608
100
AcDbArc
 50
-110.3637208578015
 51
-69.63627914219812
  0
ARC
  5
E6
330
1F
100
AcDbEntity
  8
0
  6
Continuous
 62
     2
100
AcDbCircle
 10
8.09351156810689
 20
49.67440517202105
 30
0.0
 40
4.298166113999614
100
AcDbArc
 50
-110.3637208578015
 51
-69.63627914219816
  0
ARC
  5
E7
330
1F
100
AcDbEntity
  8
0
  6
Continuous
 62
     2
100
AcDbCircle
 10
8.09351156810689
 20
50.47440517202105
 30
0.0
 40
4.298166113999608
100
AcDbArc
 50
-110.3637208578015
 51
-69.63627914219812
  0
ARC
  5
E8
330
1F
100
AcDbEntity
  8
0
  6
Continuous
 62
     2
100
AcDbCircle
 10
8.09351156810689
 20
51.27440517202106
 30
0.0
 40
4.298166113999608
100
AcDbArc
 50
-110.3637208578015
 51
-69.63627914219812
  0
ARC
  5
E9
330
1F
100
AcDbEntity
  8
0
  6
Continuous
 62
     2
100
AcDbCircle
 10
8.0053254799069
 20
-7.84809240867899
 30
0.0
 40
4.298166113999621
100
AcDbArc
 50
-110.3637208578019
 51
-69.63627914219813
  0
ARC
  5
EA
330
1F
100
AcDbEntity
  8
0
  6
Continuous
 62
     2
100
AcDbCircle
 10
8.0053254799069
 20
-7.04809240867898
 30
0.0
 40
4.298166113999616
100
AcDbArc
 50
-110.3637208578019
 51
-69.6362791421981
  0
ARC
  5
EB
330
1F
100
AcDbEntity
  8
0
  6
Continuous
 62
     2
100
AcDbCircle
 10
8.0053254799069
 20
-6.24809240867898
 30
0.0
 40
4.29816611399962
100
AcDbArc
 50
-110.3637208578019
 51
-69.63627914219813
  0
ARC
  5
EC
330
1F
100
AcDbEntity
  8
0
  6
Continuous
 62
     2
100
AcDbCircle
 10
8.0053254799069
 20
-5.44809240867897
 30
0.0
 40
4.298166113999618
100
AcDbArc
 50
-110.3637208578019
 51
-69.63627914219812
  0
ARC
  5
ED
330
1F
100
AcDbEntity
  8
0
  6
Continuous
 62
     2
100
AcDbCircle
 10
8.0053254799069
 20
-4.64809240867897
 30
0.0
 40
4.298166113999618
100
AcDbArc
 50
-110.3637208578019
 51
-69.63627914219812
  0
ARC
  5
EE
330
1F
100
AcDbEntity
  8
0
  6
Continuous
 62
     2
100
AcDbCircle
 10
8.0053254799069
 20
-3.84809240867897
 30
0.0
 40
4.298166113999618
100
AcDbArc
 50
-110.3637208578019
 51
-69.63627914219812
  0
ARC
  5
EF
330
1F
100
AcDbEntity
  8
0
  6
Continuous
 62
     2
100
AcDbCircle
 10
8.0053254799069
 20
-3.04809240867896
 30
0.0
 40
4.298166113999618
100
AcDbArc
 50
-110.3637208578019
 51
-69.63627914219812
  0
ARC
  5
F0
330
1F
100
AcDbEntity
  8
0
  6
Continuous
 62
     2
100
AcDbCircle
 10
8.0053254799069
 20
-2.24809240867896
 30
0.0
 40
4.298166113999618
100
AcDbArc
 50
-110.3637208578019
 51
-69.63627914219812
  0
ARC
  5
F1
330
1F
100
AcDbEntity
  8
0
  6
Continuous
 62
     2
100
AcDbCircle
 10
8.0053254799069
 20
-1.44809240867895
 30
0.0
 40
4.298166113999618
100
AcDbArc
 50
-110.3637208578019
 51
-69.63627914219812
  0
ARC
  5
F2
330
1F
100
AcDbEntity
  8
0
  6
Continuous
 62
     2
100
AcDbCircle
 10
8.0053254799069
 20
-0.64809240867895
 30
0.0
 40
4.298166113999619
100
AcDbArc
 50
-110.3637208578019
 51
-69.63627914219812
  0
ARC
  5
F3
330
1F
100
AcDbEntity
  8
0
  6
Continuous
 62
     2
100
AcDbCircle
 10
8.0053254799069
 20
0.15190759132106
 30
0.0
 40
4.298166113999618
100
AcDbArc
 50
-110.3637208578019
 51
-69.63627914219812
  0
ARC
  5
F4
330
1F
100
AcDbEntity
  8
0
  6
Continuous
 62
     2
100
AcDbCircle
 10
8.0053254799069
 20
0.95190759132106
 30
0.0
 40
4.298166113999618
100
AcDbArc
 50
-110.3637208578019
 51
-69.63627914219812
  0
ARC
  5
F5
330
1F
100
AcDbEntity
  8
0
  6
Continuous
 62
     2
100
AcDbCircle
 10
8.0053254799069
 20
1.75190759132106
 30
0.0
 40
4.298166113999618
100
AcDbArc
 50
-110.3637208578019
 51
-69.63627914219812
  0
ARC
  5
F6
330
1F
100
AcDbEntity
  8
0
  6
Continuous
 62
     2
100
AcDbCircle
 10
8.0053254799069
 20
2.55190759132107
 30
0.0
 40
4.298166113999618
100
AcDbArc
 50
-110.3637208578019
 51
-69.63627914219812
  0
ARC
  5
F7
330
1F
100
AcDbEntity
  8
0
  6
Continuous
 62
     2
100
AcDbCircle
 10
8.0053254799069
 20
3.35190759132107
 30
0.0
 40
4.298166113999618
100
AcDbArc
 50
-110.3637208578019
 51
-69.63627914219812
  0
ARC
  5
F8
330
1F
100
AcDbEntity
  8
0
  6
Continuous
 62
     2
100
AcDbCircle
 10
8.0053254799069
 20
4.15190759132108
 30
0.0
 40
4.298166113999618
100
AcDbArc
 50
-110.3637208578019
 51
-69.63627914219812
  0
ARC
  5
F9
330
1F
100
AcDbEntity
  8
0
  6
Continuous
 62
     2
100
AcDbCircle
 10
8.0053254799069
 20
4.95190759132108
 30
0.0
 40
4.298166113999618
100
AcDbArc
 50
-110.3637208578019
 51
-69.63627914219812
  0
ARC
  5
FA
330
1F
100
AcDbEntity
  8
0
  6
Continuous
 62
     2
100
AcDbCircle
 10
8.0053254799069
 20
5.75190759132109
 30
0.0
 40
4.298166113999618
100
AcDbArc
 50
-110.3637208578019
 51
-69.63627914219812
  0
ARC
  5
FB
330
1F
100
AcDbEntity
  8
0
  6
Continuous
 62
     2
100
AcDbCircle
 10
8.0053254799069
 20
6.55190759132109
 30
0.0
 40
4.298166113999618
100
AcDbArc
 50
-110.3637208578019
 51
-69.63627914219812
  0
ARC
  5
FC
330
1F
100
AcDbEntity
  8
0
  6
Continuous
 62
     2
100
AcDbCircle
 10
8.0053254799069
 20
7.35190759132109
 30
0.0
 40
4.298166113999618
100
AcDbArc
 50
-110.3637208578019
 51
-69.63627914219812
  0
ARC
  5
FD
330
1F
100
AcDbEntity
  8
0
  6
Continuous
 62
     2
100
AcDbCircle
 10
8.0053254799069
 20
8.1519075913211
 30
0.0
 40
4.298166113999618
100
AcDbArc
 50
-110.3637208578019
 51
-69.63627914219812
  0
ARC
  5
FE
330
1F
100
AcDbEntity
  8
0
  6
Continuous
 62
     2
100
AcDbCircle
 10
8.0053254799069
 20
8.9519075913211
 30
0.0
 40
4.298166113999618
100
AcDbArc
 50
-110.3637208578019
 51
-69.63627914219812
  0
ARC
  5
FF
330
1F
100
AcDbEntity
  8
0
  6
Continuous
 62
     2
100
AcDbCircle
 10
8.0053254799069
 20
9.75190759132111
 30
0.0
 40
4.298166113999618
100
AcDbArc
 50
-110.3637208578019
 51
-69.63627914219812
  0
ARC
  5
100
330
1F
100
AcDbEntity
  8
0
  6
Continuous
 62
     2
100
AcDbCircle
 10
8.0053254799069
 20
10.55190759132111
 30
0.0
 40
4.298166113999616
100
AcDbArc
 50
-110.3637208578019
 51
-69.6362791421981
  0
ARC
  5
101
330
1F
100
AcDbEntity
  8
0
  6
Continuous
 62
     2
100
AcDbCircle
 10
8.0053254799069
 20
11.35190759132112
 30
0.0
 40
4.298166113999622
100
AcDbArc
 50
-110.3637208578019
 51
-69.63627914219815
  0
ARC
  5
102
330
1F
100
AcDbEntity
  8
0
  6
Continuous
 62
     2
100
AcDbCircle
 10
8.0053254799069
 20
12.15190759132112
 30
0.0
 40
4.298166113999618
100
AcDbArc
 50
-110.3637208578019
 51
-69.63627914219812
  0
ARC
  5
103
330
1F
100
AcDbEntity
  8
0
  6
Continuous
 62
     2
100
AcDbCircle
 10
8.0053254799069
 20
12.95190759132112
 30
0.0
 40
4.298166113999614
100
AcDbArc
 50
-110.3637208578019
 51
-69.6362791421981
  0
ARC
  5
104
330
1F
100
AcDbEntity
  8
0
  6
Continuous
 62
     2
100
AcDbCircle
 10
8.0053254799069
 20
13.75190759132113
 30
0.0
 40
4.29816611399962
100
AcDbArc
 50
-110.3637208578019
 51
-69.63627914219813
  0
ARC
  5
105
330
1F
100
AcDbEntity
  8
0
  6
Continuous
 62
     2
100
AcDbCircle
 10
8.0053254799069
 20
14.55190759132113
 30
0.0
 40
4.29816611399962
100
AcDbArc
 50
-110.3637208578019
 51
-69.63627914219813
  0
ARC
  5
106
330
1F
100
AcDbEntity
  8
0
  6
Continuous
 62
     2
100
AcDbCircle
 10
8.0053254799069
 20
15.35190759132114
 30
0.0
 40
4.29816611399962
100
AcDbArc
 50
-110.3637208578019
 51
-69.63627914219813
  0
ARC
  5
107
330
1F
100
AcDbEntity
  8
0
  6
Continuous
 62
     2
100
AcDbCircle
 10
8.0053254799069
 20
16.15190759132114
 30
0.0
 40
4.29816611399962
100
AcDbArc
 50
-110.3637208578019
 51
-69.63627914219813
  0
ARC
  5
108
330
1F
100
AcDbEntity
  8
0
  6
Continuous
 62
     2
100
AcDbCircle
 10
8.0053254799069
 20
16.95190759132115
 30
0.0
 40
4.298166113999618
100
AcDbArc
 50
-110.3637208578019
 51
-69.63627914219812
  0
ARC
  5
109
330
1F
100
AcDbEntity
  8
0
  6
Continuous
 62
     2
100
AcDbCircle
 10
8.0053254799069
 20
17.75190759132115
 30
0.0
 40
4.298166113999618
100
AcDbArc
 50
-110.3637208578019
 51
-69.63627914219812
  0
ARC
  5
10A
330
1F
100
AcDbEntity
  8
0
  6
Continuous
 62
     2
100
AcDbCircle
 10
8.0053254799069
 20
18.55190759132115
 30
0.0
 40
4.29816611399961
100
AcDbArc
 50
-110.3637208578019
 51
-69.63627914219808
  0
ARC
  5
10B
330
1F
100
AcDbEntity
  8
0
  6
Continuous
 62
     2
100
AcDbCircle
 10
8.0053254799069
 20
19.35190759132116
 30
0.0
 40
4.29816611399962
100
AcDbArc
 50
-110.3637208578019
 51
-69.63627914219813
  0
ARC
  5
10C
330
1F
100
AcDbEntity
  8
0
  6
Continuous
 62
     2
100
AcDbCircle
 10
8.0053254799069
 20
20.15190759132116
 30
0.0
 40
4.298166113999618
100
AcDbArc
 50
-110.3637208578019
 51
-69.63627914219812
  0
ARC
  5
10D
330
1F
100
AcDbEntity
  8
0
  6
Continuous
 62
     2
100
AcDbCircle
 10
8.0053254799069
 20
20.95190759132117
 30
0.0
 40
4.298166113999618
100
AcDbArc
 50
-110.3637208578019
 51
-69.63627914219812
  0
ARC
  5
10E
330
1F
100
AcDbEntity
  8
0
  6
Continuous
 62
     2
100
AcDbCircle
 10
8.0053254799069
 20
21.75190759132117
 30
0.0
 40
4.298166113999621
100
AcDbArc
 50
-110.3637208578019
 51
-69.63627914219813
  0
ARC
  5
10F
330
1F
100
AcDbEntity
  8
0
  6
Continuous
 62
     2
100
AcDbCircle
 10
8.0053254799069
 20
22.55190759132118
 30
0.0
 40
4.298166113999618
100
AcDbArc
 50
-110.3637208578019
 51
-69.63627914219812
  0
ARC
  5
110
330
1F
100
AcDbEntity
  8
0
  6
Continuous
 62
     2
100
AcDbCircle
 10
8.0053254799069
 20
23.35190759132118
 30
0.0
 40
4.298166113999618
100
AcDbArc
 50
-110.3637208578019
 51
-69.63627914219812
  0
ARC
  5
111
330
1F
100
AcDbEntity
  8
0
  6
Continuous
 62
     2
100
AcDbCircle
 10
8.0053254799069
 20
24.15190759132118
 30
0.0
 40
4.298166113999608
100
AcDbArc
 50
-110.3637208578019
 51
-69.63627914219808
  0
ARC
  5
112
330
1F
100
AcDbEntity
  8
0
  6
Continuous
 62
     2
100
AcDbCircle
 10
8.0053254799069
 20
24.95190759132119
 30
0.0
 40
4.298166113999621
100
AcDbArc
 50
-110.3637208578019
 51
-69.63627914219813
  0
ARC
  5
113
330
1F
100
AcDbEntity
  8
0
  6
Continuous
 62
     2
100
AcDbCircle
 10
8.0053254799069
 20
25.75190759132119
 30
0.0
 40
4.298166113999618
100
AcDbArc
 50
-110.3637208578019
 51
-69.63627914219812
  0
ARC
  5
114
330
1F
100
AcDbEntity
  8
0
  6
Continuous
 62
     2
100
AcDbCircle
 10
8.0053254799069
 20
26.5519075913212
 30
0.0
 40
4.298166113999618
100
AcDbArc
 50
-110.3637208578019
 51
-69.63627914219812
  0
ARC
  5
115
330
1F
100
AcDbEntity
  8
0
  6
Continuous
 62
     2
100
AcDbCircle
 10
8.0053254799069
 20
27.3519075913212
 30
0.0
 40
4.298166113999618
100
AcDbArc
 50
-110.3637208578019
 51
-69.63627914219812
  0
ARC
  5
116
330
1F
100
AcDbEntity
  8
0
  6
Continuous
 62
     2
100
AcDbCircle
 10
8.0053254799069
 20
28.15190759132121
 30
0.0
 40
4.298166113999618
100
AcDbArc
 50
-110.3637208578019
 51
-69.63627914219812
  0
ARC
  5
117
330
1F
100
AcDbEntity
  8
0
  6
Continuous
 62
     2
100
AcDbCircle
 10
8.0053254799069
 20
-24.64809240867899
 30
0.0
 40
4.298166113999591
100
AcDbArc
 50
-110.363720857802
 51
-69.63627914219799
  0
ARC
  5
118
330
1F
100
AcDbEntity
  8
0
  6
Continuous
 62
     2
100
AcDbCircle
 10
8.0053254799069
 20
-25.44809240867897
 30
0.0
 40
4.298166113999591
100
AcDbArc
 50
-110.363720857802
 51
-69.63627914219799
  0
ARC
  5
119
330
1F
100
AcDbEntity
  8
0
  6
Continuous
 62
     2
100
AcDbCircle
 10
8.0053254799069
 20
-26.24809240867895
 30
0.0
 40
4.298166113999591
100
AcDbArc
 50
-110.363720857802
 51
-69.63627914219799
  0
ARC
  5
11A
330
1F
100
AcDbEntity
  8
0
  6
Continuous
 62
     2
100
AcDbCircle
 10
8.0053254799069
 20
-27.04809240867893
 30
0.0
 40
4.298166113999591
100
AcDbArc
 50
-110.363720857802
 51
-69.63627914219799
  0
ARC
  5
11B
330
1F
100
AcDbEntity
  8
0
  6
Continuous
 62
     2
100
AcDbCircle
 10
8.0053254799069
 20
-27.84809240867891
 30
0.0
 40
4.298166113999591
100
AcDbArc
 50
-110.363720857802
 51
-69.63627914219799
  0
ARC
  5
11C
330
1F
100
AcDbEntity
  8
0
  6
Continuous
 62
     2
100
AcDbCircle
 10
8.0053254799069
 20
-28.64809240867889
 30
0.0
 40
4.298166113999591
100
AcDbArc
 50
-110.363720857802
 51
-69.63627914219799
  0
ARC
  5
11D
330
1F
100
AcDbEntity
  8
0
  6
Continuous
 62
     2
100
AcDbCircle
 10
8.0053254799069
 20
-29.44809240867886
 30
0.0
 40
4.298166113999591
100
AcDbArc
 50
-110.363720857802
 51
-69.63627914219799
  0
ARC
  5
11E
330
1F
100
AcDbEntity
  8
0
  6
Continuous
 62
     2
100
AcDbCircle
 10
8.0053254799069
 20
-30.24809240867884
 30
0.0
 40
4.298166113999588
100
AcDbArc
 50
-110.363720857802
 51
-69.63627914219796
  0
ARC
  5
11F
330
1F
100
AcDbEntity
  8
0
  6
Continuous
 62
     2
100
AcDbCircle
 10
8.0053254799069
 20
-31.04809240867882
 30
0.0
 40
4.298166113999598
100
AcDbArc
 50
-110.363720857802
 51
-69.63627914219802
  0
ARC
  5
120
330
1F
100
AcDbEntity
  8
1
  6
Continuous
 62
     7
100
AcDbCircle
 10
32.65599242286626
 20
11.309861038321
 30
0.0
 40
2.000000000000005
100
AcDbArc
 50
-165.5224878140701
 51
-90.0
  0
ARC
  5
121
330
1F
100
AcDbEntity
  8
1
  6
Continuous
 62
     7
100
AcDbCircle
 10
32.65599242286626
 20
0.809861038321
 30
0.0
 40
2.0
100
AcDbArc
 50
90.0
 51
165.5224878140701
  0
ARC
  5
122
330
1F
100
AcDbEntity
  8
1
  6
Continuous
 62
     7
100
AcDbCircle
 10
32.65599242286626
 20
11.309861038321
 30
0.0
 40
2.000000000000005
100
AcDbArc
 50
-165.5224878140701
 51
-90.0
  0
CIRCLE
  5
123
330
1F
100
AcDbEntity
  8
1
  6
Continuous
 62
     7
100
AcDbCircle
 10
-41.18523675989307
 20
74.059861038321
 30
0.0
 40
6.149999999999899
  0
CIRCLE
  5
124
330
1F
100
AcDbEntity
  8
1
  6
Continuous
 62
     7
100
AcDbCircle
 10
-41.18523675989307
 20
74.059861038321
 30
0.0
 40
3.499999999999901
  0
CIRCLE
  5
125
330
1F
100
AcDbEntity
  8
1
  6
Continuous
 62
     7
100
AcDbCircle
 10
-41.18523675989297
 20
-61.940138961679
 30
0.0
 40
6.149999999999999
  0
CIRCLE
  5
126
330
1F
100
AcDbEntity
  8
1
  6
Continuous
 62
     7
100
AcDbCircle
 10
-41.18523675989297
 20
-61.940138961679
 30
0.0
 40
3.5
  0
CIRCLE
  5
127
330
1F
100
AcDbEntity
  8
1
  6
Continuous
 62
     7
100
AcDbCircle
 10
-31.18523675989307
 20
-27.940138961679
 30
0.0
 40
6.150000000000002
  0
CIRCLE
  5
128
330
1F
100
AcDbEntity
  8
1
  6
Continuous
 62
     7
100
AcDbCircle
 10
-31.18523675989307
 20
-27.940138961679
 30
0.0
 40
3.500000000000004
  0
CIRCLE
  5
129
330
1F
100
AcDbEntity
  8
1
  6
Continuous
 62
     7
100
AcDbCircle
 10
-31.18523675989307
 20
40.059861038321
 30
0.0
 40
6.150000000000002
  0
CIRCLE
  5
12A
330
1F
100
AcDbEntity
  8
1
  6
Continuous
 62
     7
100
AcDbCircle
 10
-31.18523675989307
 20
40.059861038321
 30
0.0
 40
3.500000000000004
  0
CIRCLE
  5
12B
330
1F
100
AcDbEntity
  8
1
  6
Continuous
 62
     7
100
AcDbCircle
 10
-45.18523675989297
 20
6.059861038321
 30
0.0
 40
6.150000000000006
  0
CIRCLE
  5
12C
330
1F
100
AcDbEntity
  8
1
  6
Continuous
 62
     7
100
AcDbCircle
 10
-45.18523675989297
 20
6.059861038321
 30
0.0
 40
3.5
  0
XLINE
  5
12D
330
1F
100
AcDbEntity
  8
1
  6
DOT_CENTER
 62
     3
 60
     1
100
AcDbXline
 10
17.31964654649701
 20
34.059861038321
 30
0.0
 11
1.0
 21
0.0
 31
0.0
  0
XLINE
  5
12E
330
1F
100
AcDbEntity
  8
1
  6
DOT_CENTER
 62
     3
 60
     1
100
AcDbXline
 10
17.31964654649701
 20
6.059861038321
 30
0.0
 11
1.0
 21
0.0
 31
0.0
  0
LWPOLYLINE
  5
12F
330
1F
100
AcDbEntity
  8
1
  6
Continuous
 62
     7
 60
     1
100
AcDbPolyline
 90
        2
 70
     0
 43
0.0
 10
-14.68523675989306
 20
48.059861038321
 10
-16.43523675989306
 20
48.059861038321
  0
LWPOLYLINE
  5
130
330
1F
100
AcDbEntity
  8
1
  6
Continuous
 62
     7
 60
     1
100
AcDbPolyline
 90
        2
 70
     0
 43
0.0
 10
5.31476324010691
 20
48.059861038321
 10
5.31476324010691
 20
44.559861038321
  0
LWPOLYLINE
  5
131
330
1F
100
AcDbEntity
  8
1
  6
Continuous
 62
     7
 60
     1
100
AcDbPolyline
 90
        6
 70
     0
 43
0.0
 10
3.06476324010691
 20
43.2608229326446
 10
3.06476324010691
 20
20.059861038321
 10
2.56476324010691
 20
20.059861038321
 10
2.56476324010691
 20
15.31582573575003
 10
2.56476324010691
 20
-7.940138961679
 10
3.06476324010691
 20
-7.940138961679
  0
LWPOLYLINE
  5
132
330
1F
100
AcDbEntity
  8
1
  6
Continuous
 62
     7
 60
     1
100
AcDbPolyline
 90
        3
 70
     0
 43
0.0
 10
5.31476324010691
 20
-35.940138961679
 10
7.06476324010691
 20
-35.940138961679
 10
7.06476324010691
 20
48.059861038321
  0
LWPOLYLINE
  5
133
330
1F
100
AcDbEntity
  8
1
  6
Continuous
 62
     7
 60
     1
100
AcDbPolyline
 90
        4
 70
     0
 43
0.0
 10
-14.68523675989306
 20
48.059861038321
 10
-16.43523675989306
 20
48.059861038321
 10
-16.43523675989306
 20
-35.940138961679
 10
-14.68523675989306
 20
-35.940138961679
  0
LWPOLYLINE
  5
134
330
1F
100
AcDbEntity
  8
1
  6
Continuous
 62
     7
 60
     1
100
AcDbPolyline
 90
        3
 70
     0
 43
0.0
 10
-14.68523675989306
 20
-32.440138961679
 10
-12.43523675989306
 20
-30.86467200070709
 10
-12.43523675989306
 20
-7.940138961679
  0
LWPOLYLINE
  5
135
330
1F
100
AcDbEntity
  8
1
  6
Continuous
 62
     7
 60
     1
100
AcDbPolyline
 90
        4
 70
     0
 43
0.0
 10
-12.43523675989306
 20
-7.940138961679
 10
-11.93523675989306
 20
-7.88130659171699
 10
-11.93523675989306
 20
20.059861038321
 10
-12.43523675989306
 20
20.059861038321
  0
LWPOLYLINE
  5
136
330
1F
100
AcDbEntity
  8
1
  6
Continuous
 62
     7
 60
     1
100
AcDbPolyline
 90
        3
 70
     0
 43
0.0
 10
-12.43523675989306
 20
43.2608229326446
 10
-14.68523675989306
 20
44.559861038321
 10
-14.68523675989306
 20
48.059861038321
  0
LWPOLYLINE
  5
137
330
1F
100
AcDbEntity
  8
1
  6
Continuous
 62
     7
 60
     1
100
AcDbPolyline
 90
        2
 70
     0
 43
0.0
 10
-12.43523675989306
 20
43.2608229326446
 10
-12.43523675989306
 20
23.559861038321
  0
LWPOLYLINE
  5
138
330
1F
100
AcDbEntity
  8
1
  6
Continuous
 62
     7
 60
     1
100
AcDbPolyline
 90
        2
 70
     0
 43
0.0
 10
3.06476324010691
 20
23.559861038321
 10
3.06476324010691
 20
43.2608229326446
  0
LWPOLYLINE
  5
139
330
1F
100
AcDbEntity
  8
1
  6
Continuous
 62
     7
 60
     1
100
AcDbPolyline
 90
        2
 70
     0
 43
0.0
 10
-12.43523675989306
 20
-31.1411008560026
 10
-12.43523675989306
 20
-11.440138961679
  0
LWPOLYLINE
  5
13A
330
1F
100
AcDbEntity
  8
1
  6
Continuous
 62
     7
 60
     1
100
AcDbPolyline
 90
        2
 70
     0
 43
0.0
 10
3.06476324010691
 20
-11.440138961679
 10
3.06476324010691
 20
-31.1411008560026
  0
ARC
  5
13B
330
1F
100
AcDbEntity
  8
1
  6
Continuous
 62
     7
100
AcDbCircle
 10
-41.18523675989297
 20
-61.940138961679
 30
0.0
 40
12.0
100
AcDbArc
 50
180.0
 51
-90.0
  0
ARC
  5
13C
330
1F
100
AcDbEntity
  8
1
  6
Continuous
 62
     7
100
AcDbCircle
 10
-41.18523675989307
 20
74.059861038321
 30
0.0
 40
12.0
100
AcDbArc
 50
90.0
 51
180.0
  0
ARC
  5
13D
330
1F
100
AcDbEntity
  8
1
  6
Continuous
 62
     7
100
AcDbCircle
 10
34.814763240107
 20
-27.690138961679
 30
0.0
 40
2.5
100
AcDbArc
 50
0.0
 51
90.0
  0
ARC
  5
13E
330
1F
100
AcDbEntity
  8
1
  6
Continuous
 62
     7
100
AcDbCircle
 10
34.814763240107
 20
-16.190138961679
 30
0.0
 40
2.5
100
AcDbArc
 50
-90.00000000000065
 51
0.0
  0
ARC
  5
13F
330
1F
100
AcDbEntity
  8
1
  6
Continuous
 62
     7
100
AcDbCircle
 10
34.814763240107
 20
28.309861038321
 30
0.0
 40
2.5
100
AcDbArc
 50
0.0
 51
90.00000000000065
  0
ARC
  5
140
330
1F
100
AcDbEntity
  8
1
  6
Continuous
 62
     7
100
AcDbCircle
 10
34.814763240107
 20
39.809861038321
 30
0.0
 40
2.5
100
AcDbArc
 50
-90.0
 51
0.0
  0
ARC
  5
141
330
1F
100
AcDbEntity
  8
1
  6
Continuous
 62
     7
100
AcDbCircle
 10
21.814763240107
 20
38.059861038321
 30
0.0
 40
3.0
100
AcDbArc
 50
90.0
 51
180.0
  0
ARC
  5
142
330
1F
100
AcDbEntity
  8
1
  6
Continuous
 62
     7
100
AcDbCircle
 10
27.814763240107
 20
38.059861038321
 30
0.0
 40
2.999999999999988
100
AcDbArc
 50
14.47751218592998
 51
90.0
  0
ARC
  5
143
330
1F
100
AcDbEntity
  8
1
  6
Continuous
 62
     7
100
AcDbCircle
 10
21.814763240107
 20
30.059861038321
 30
0.0
 40
3.0
100
AcDbArc
 50
180.0
 51
-90.0
  0
ARC
  5
144
330
1F
100
AcDbEntity
  8
1
  6
Continuous
 62
     7
100
AcDbCircle
 10
27.814763240107
 20
30.059861038321
 30
0.0
 40
3.0
100
AcDbArc
 50
-90.0
 51
-14.47751218592998
  0
ARC
  5
145
330
1F
100
AcDbEntity
  8
1
  6
Continuous
 62
     7
100
AcDbCircle
 10
21.814763240107
 20
10.059861038321
 30
0.0
 40
3.0
100
AcDbArc
 50
90.0
 51
180.0
  0
ARC
  5
146
330
1F
100
AcDbEntity
  8
1
  6
Continuous
 62
     7
100
AcDbCircle
 10
21.814763240107
 20
-25.940138961679
 30
0.0
 40
3.0
100
AcDbArc
 50
180.0
 51
-90.0
  0
ARC
  5
147
330
1F
100
AcDbEntity
  8
1
  6
Continuous
 62
     7
100
AcDbCircle
 10
27.814763240107
 20
-25.940138961679
 30
0.0
 40
3.0
100
AcDbArc
 50
-90.0
 51
-14.47751218592978
  0
ARC
  5
148
330
1F
100
AcDbEntity
  8
1
  6
Continuous
 62
     7
100
AcDbCircle
 10
21.814763240107
 20
-17.940138961679
 30
0.0
 40
3.0
100
AcDbArc
 50
90.0
 51
180.0
  0
ARC
  5
149
330
1F
100
AcDbEntity
  8
1
  6
Continuous
 62
     7
100
AcDbCircle
 10
27.814763240107
 20
-17.940138961679
 30
0.0
 40
2.999999999999991
100
AcDbArc
 50
14.47751218593018
 51
90.0
  0
ARC
  5
14A
330
1F
100
AcDbEntity
  8
1
  6
Continuous
 62
     7
100
AcDbCircle
 10
21.814763240107
 20
2.059861038321
 30
0.0
 40
3.0
100
AcDbArc
 50
180.0
 51
-90.0
  0
ARC
  5
14B
330
1F
100
AcDbEntity
  8
1
  6
Continuous
 62
     7
100
AcDbCircle
 10
34.814763240107
 20
11.809861038321
 30
0.0
 40
2.499999999999996
100
AcDbArc
 50
-90.0
 51
0.0
  0
ARC
  5
14C
330
1F
100
AcDbEntity
  8
1
  6
Continuous
 62
     7
100
AcDbCircle
 10
34.814763240107
 20
0.309861038321
 30
0.0
 40
2.5
100
AcDbArc
 50
0.00000000000011
 51
90.00000000000065
  0
ARC
  5
14D
330
1F
100
AcDbEntity
  8
1
  6
Continuous
 62
     7
100
AcDbCircle
 10
27.814763240107
 20
10.059861038321
 30
0.0
 40
2.999999999999988
100
AcDbArc
 50
14.47751218592998
 51
90.0
  0
ARC
  5
14E
330
1F
100
AcDbEntity
  8
1
  6
Continuous
 62
     7
100
AcDbCircle
 10
27.814763240107
 20
2.059861038321
 30
0.0
 40
2.999999999999996
100
AcDbArc
 50
-90.0
 51
-14.47751218592998
  0
MTEXT
  5
150
330
1F
100
AcDbEntity
  8
1
 62
     2
100
AcDbMText
 10
-10.3527948355021
 20
8.78030986091622
 30
0.0
 40
2.5
 41
0.0
 71
     5
 72
     1
  1
BBL
  7
CONVERTER_11
 73
     1
 44
1.32052821128451
  0
MTEXT
  5
151
330
1F
100
AcDbEntity
  8
1
 62
     2
100
AcDbMText
 10
-41.85808470332009
 20
17.38908972974598
 30
0.0
 40
2.5
 41
0.0
 71
     5
 72
     1
  1
TZ
  7
CONVERTER_11
 73
     1
 44
1.32052821128451
  0
DIMENSION
  5
15C
330
1F
100
AcDbEntity
  8
1
100
AcDbDimension
  2
*D1
 10
-15.93523675989307
 20
96.810749785278
 30
0.0
 11
-4.9072038005922
 21
100.560749785278
 31
0.0
 70
    32
  1
<>
 71
     5
 42
-1.0
 53
0.00013888888889
  3
ME10_DIM_10
100
AcDbAlignedDimension
 13
6.56476324010697
 23
86.059861038321
 33
0.0
 14
-15.93523675989307
 24
86.059861038321
 34
0.0
100
AcDbRotatedDimension
  0
DIMENSION
  5
167
330
1F
100
AcDbEntity
  8
1
100
AcDbDimension
  2
*D2
 10
-73.45406207055704
 20
86.059861038321
 30
0.0
 11
-77.20406207055704
 21
5.65858337909802
 31
0.0
 70
    32
  1
<>
 71
     5
 42
-1.0
 53
90.0
  3
ME10_DIM_11
100
AcDbAlignedDimension
 13
-41.18523675989297
 23
-73.940138961679
 33
0.0
 14
-41.18523675989307
 24
86.059861038321
 34
0.0
 50
90.0
100
AcDbRotatedDimension
  0
DIMENSION
  5
172
330
1F
100
AcDbEntity
  8
1
100
AcDbDimension
  2
*D3
 10
-63.5558798097293
 20
86.059861038321
 30
0.0
 11
-67.3058798097293
 21
46.32138618033702
 31
0.0
 70
    32
  1
<>
 71
     5
 42
-1.0
 53
90.0
  3
ME10_DIM_12
100
AcDbAlignedDimension
 13
-62.49288982111708
 23
6.059861038321
 33
0.0
 14
-41.18523675989307
 24
86.059861038321
 34
0.0
 50
90.0
100
AcDbRotatedDimension
  0
DIMENSION
  5
17D
330
1F
100
AcDbEntity
  8
1
100
AcDbDimension
  2
*D4
 10
58.1936351805157
 20
48.059861038321
 30
0.0
 11
54.4436351805157
 21
6.059861038321
 31
0.0
 70
    32
  1
<>
 71
     5
 42
-1.0
 53
90.0
  3
ME10_DIM_13
100
AcDbAlignedDimension
 13
33.5827124325381
 23
-35.940138961679
 33
0.0
 14
33.5827124325381
 24
48.059861038321
 34
0.0
 50
90.0
100
AcDbRotatedDimension
  0
DIMENSION
  5
188
330
1F
100
AcDbEntity
  8
1
100
AcDbDimension
  2
*D5
 10
47.5968667198196
 20
34.059861038321
 30
0.0
 11
43.8468667198196
 21
20.3289218523382
 31
0.0
 70
    32
  1
<>
 71
     5
 42
-1.0
 53
90.0
  3
ME10_DIM_14
100
AcDbAlignedDimension
 13
43.672322554329
 23
6.059861038321
 33
0.0
 14
38.67232255432904
 24
34.059861038321
 34
0.0
 50
90.0
100
AcDbRotatedDimension
  0
DIMENSION
  5
193
330
1F
100
AcDbEntity
  8
1
100
AcDbDimension
  2
*D6
 10
47.5968667198196
 20
6.059861038321
 30
0.0
 11
43.8468667198196
 21
-7.48759535698899
 31
0.0
 70
    32
  1
<>
 71
     5
 42
-1.0
 53
90.0
  3
ME10_DIM_15
100
AcDbAlignedDimension
 13
38.67232255432904
 23
-21.940138961679
 33
0.0
 14
43.672322554329
 24
6.059861038321
 34
0.0
 50
90.0
100
AcDbRotatedDimension
  0
ENDSEC
  0
SECTION
  2
OBJECTS
  0
DICTIONARY
  5
C
330
0
100
AcDbDictionary
281
     1
  3
ACAD_GROUP
350
D
  3
ACAD_LAYOUT
350
1A
  3
ACAD_MLINESTYLE
350
17
  3
ACAD_PLOTSETTINGS
350
19
  3
ACAD_PLOTSTYLENAME
350
E
  0
DICTIONARY
  5
D
102
{ACAD_REACTORS
330
C
102
}
330
C
100
AcDbDictionary
281
     1
  0
DICTIONARY
  5
1A
102
{ACAD_REACTORS
330
C
102
}
330
C
100
AcDbDictionary
281
     1
  3
Layout1
350
1E
  3
Layout2
350
26
  3
Model
350
22
  0
DICTIONARY
  5
17
102
{ACAD_REACTORS
330
C
102
}
330
C
100
AcDbDictionary
281
     1
  3
Standard
350
18
  0
DICTIONARY
  5
19
102
{ACAD_REACTORS
330
C
102
}
330
C
100
AcDbDictionary
281
     1
  0
ACDBDICTIONARYWDFLT
  5
E
102
{ACAD_REACTORS
330
C
102
}
330
C
100
AcDbDictionary
281
     1
  3
Normal
350
F
100
AcDbDictionaryWithDefault
340
F
  0
LAYOUT
  5
1E
102
{ACAD_REACTORS
330
1A
102
}
330
1A
100
AcDbPlotSettings
  1

  2

  4

  6

 40
0.0
 41
0.0
 42
0.0
 43
0.0
 44
0.0
 45
0.0
 46
0.0
 47
0.0
 48
0.0
 49
0.0
140
0.0
141
0.0
142
1.0
143
1.0
 70
   688
 72
     0
 73
     0
 74
     5
  7

 75
    16
 76
     0
 77
     2
 78
   300
147
1.0
148
0.0
149
0.0
100
AcDbLayout
  1
Layout1
 70
     1
 71
     1
 10
0.0
 20
0.0
 11
0.0
 21
0.0
 12
0.0
 22
0.0
 32
0.0
 14
0.0
 24
0.0
 34
0.0
 15
0.0
 25
0.0
 35
0.0
146
0.0
 13
0.0
 23
0.0
 33
0.0
 16
1.0
 26
0.0
 36
0.0
 17
0.0
 27
1.0
 37
0.0
 76
     0
330
1B
  0
LAYOUT
  5
26
102
{ACAD_REACTORS
330
1A
102
}
330
1A
100
AcDbPlotSettings
  1

  2

  4

  6

 40
0.0
 41
0.0
 42
0.0
 43
0.0
 44
0.0
 45
0.0
 46
0.0
 47
0.0
 48
0.0
 49
0.0
140
0.0
141
0.0
142
1.0
143
1.0
 70
   688
 72
     0
 73
     0
 74
     5
  7

 75
    16
 76
     0
 77
     2
 78
   300
147
1.0
148
0.0
149
0.0
100
AcDbLayout
  1
Layout2
 70
     1
 71
     2
 10
0.0
 20
0.0
 11
0.0
 21
0.0
 12
0.0
 22
0.0
 32
0.0
 14
0.0
 24
0.0
 34
0.0
 15
0.0
 25
0.0
 35
0.0
146
0.0
 13
0.0
 23
0.0
 33
0.0
 16
1.0
 26
0.0
 36
0.0
 17
0.0
 27
1.0
 37
0.0
 76
     0
330
23
  0
LAYOUT
  5
22
102
{ACAD_REACTORS
330
1A
102
}
330
1A
100
AcDbPlotSettings
  1

  2

  4

  6

 40
0.0
 41
0.0
 42
0.0
 43
0.0
 44
0.0
 45
0.0
 46
0.0
 47
0.0
 48
0.0
 49
0.0
140
0.0
141
0.0
142
1.0
143
1.0
 70
  1712
 72
     0
 73
     0
 74
     0
  7

 75
     0
 76
     0
 77
     2
 78
   300
147
1.0
148
0.0
149
0.0
100
AcDbLayout
  1
Model
 70
     1
 71
     0
 10
0.0
 20
0.0
 11
0.0
 21
0.0
 12
0.0
 22
0.0
 32
0.0
 14
-78.95406207055704
 24
-76.50605732902588
 34
0.0
 15
60.1936351805157
 25
102.310749785278
 35
0.0
146
0.0
 13
0.0
 23
0.0
 33
0.0
 16
1.0
 26
0.0
 36
0.0
 17
0.0
 27
1.0
 37
0.0
 76
     0
330
1F
  0
MLINESTYLE
  5
18
102
{ACAD_REACTORS
330
17
102
}
330
17
100
AcDbMlineStyle
  2
Standard
 70
     0
  3

 62
   256
 51
90.0
 52
90.0
 71
     2
 49
0.5
 62
   256
  6
BYLAYER
 49
-0.5
 62
   256
  6
BYLAYER
  0
ACDBPLACEHOLDER
  5
F
102
{ACAD_REACTORS
330
E
102
}
330
E
  0
ENDSEC
  0
EOF
