  0
SECTION
  2
HEADER
  9
$ACADVER
  1
AC1018
  9
$ACADMAINTVER
 70
     0
  9
$DWGCODEPAGE
  3
ANSI_1252
  9
$INSBASE
 10
0.0
 20
0.0
 30
0.0
  9
$EXTMIN
 10
-69.2933521152157
 20
-56.30371197810482
 30
0.0
  9
$EXTMAX
 10
76.32051185568095
 20
68.4782290576162
 30
0.0
  9
$LIMMIN
 10
0.0
 20
0.0
  9
$LIMMAX
 10
12.0
 20
9.0
  9
$ORTHOMODE
 70
     0
  9
$REGENMODE
 70
     1
  9
$FILLMODE
 70
     1
  9
$QTEXTMODE
 70
     0
  9
$MIRRTEXT
 70
     1
  9
$LTSCALE
 40
1.0
  9
$ATTMODE
 70
     1
  9
$TEXTSIZE
 40
0.2
  9
$TRACEWID
 40
0.05
  9
$TEXTSTYLE
  7
Standard
  9
$CLAYER
  8
0
  9
$CELTYPE
  6
ByLayer
  9
$CECOLOR
 62
   256
  9
$CELTSCALE
 40
1.0
  9
$DISPSILH
 70
     0
  9
$DIMSCALE
 40
1.0
  9
$DIMASZ
 40
0.18
  9
$DIMEXO
 40
0.0625
  9
$DIMDLI
 40
0.38
  9
$DIMRND
 40
0.0
  9
$DIMDLE
 40
0.0
  9
$DIMEXE
 40
0.18
  9
$DIMTP
 40
0.0
  9
$DIMTM
 40
0.0
  9
$DIMTXT
 40
0.18
  9
$DIMCEN
 40
0.09
  9
$DIMTSZ
 40
0.0
  9
$DIMTOL
 70
     0
  9
$DIMLIM
 70
     0
  9
$DIMTIH
 70
     1
  9
$DIMTOH
 70
     1
  9
$DIMSE1
 70
     0
  9
$DIMSE2
 70
     0
  9
$DIMTAD
 70
     0
  9
$DIMZIN
 70
     0
  9
$DIMBLK
  1

  9
$DIMASO
 70
     1
  9
$DIMSHO
 70
     1
  9
$DIMPOST
  1

  9
$DIMAPOST
  1

  9
$DIMALT
 70
     0
  9
$DIMALTD
 70
     2
  9
$DIMALTF
 40
25.4
  9
$DIMLFAC
 40
1.0
  9
$DIMTOFL
 70
     0
  9
$DIMTVP
 40
0.0
  9
$DIMTIX
 70
     0
  9
$DIMSOXD
 70
     0
  9
$DIMSAH
 70
     0
  9
$DIMBLK1
  1

  9
$DIMBLK2
  1

  9
$DIMSTYLE
  2
Standard
  9
$DIMCLRD
 70
     0
  9
$DIMCLRE
 70
     0
  9
$DIMCLRT
 70
     0
  9
$DIMTFAC
 40
1.0
  9
$DIMGAP
 40
0.09
  9
$DIMJUST
 70
     0
  9
$DIMSD1
 70
     0
  9
$DIMSD2
 70
     0
  9
$DIMTOLJ
 70
     1
  9
$DIMTZIN
 70
     0
  9
$DIMALTZ
 70
     0
  9
$DIMALTTZ
 70
     0
  9
$DIMUPT
 70
     0
  9
$DIMDEC
 70
     4
  9
$DIMTDEC
 70
     4
  9
$DIMALTU
 70
     2
  9
$DIMALTTD
 70
     2
  9
$DIMTXSTY
  7
Standard
  9
$DIMAUNIT
 70
     0
  9
$DIMADEC
 70
     0
  9
$DIMALTRND
 40
0.0
  9
$DIMAZIN
 70
     0
  9
$DIMDSEP
 70
    46
  9
$DIMATFIT
 70
     3
  9
$DIMFRAC
 70
     0
  9
$DIMLDRBLK
  1

  9
$DIMLUNIT
 70
     2
  9
$DIMLWD
 70
    -2
  9
$DIMLWE
 70
    -2
  9
$DIMTMOVE
 70
     0
  9
$LUNITS
 70
     2
  9
$LUPREC
 70
     4
  9
$SKETCHINC
 40
0.1
  9
$FILLETRAD
 40
0.5
  9
$AUNITS
 70
     0
  9
$AUPREC
 70
     0
  9
$MENU
  1
.
  9
$ELEVATION
 40
0.0
  9
$PELEVATION
 40
0.0
  9
$THICKNESS
 40
0.0
  9
$LIMCHECK
 70
     0
  9
$CHAMFERA
 40
0.5
  9
$CHAMFERB
 40
0.5
  9
$CHAMFERC
 40
1.0
  9
$CHAMFERD
 40
0.0
  9
$SKPOLY
 70
     0
  9
$TDCREATE
 40
2456595.42086919
  9
$TDUCREATE
 40
2456595.379202523
  9
$TDUPDATE
 40
2456595.420869201
  9
$TDUUPDATE
 40
2456595.379202535
  9
$TDINDWG
 40
0.0000000116
  9
$TDUSRTIMER
 40
0.0000000116
  9
$USRTIMER
 70
     1
  9
$ANGBASE
 50
0.0
  9
$ANGDIR
 70
     0
  9
$PDMODE
 70
     0
  9
$PDSIZE
 40
0.0
  9
$PLINEWID
 40
0.0
  9
$SPLFRAME
 70
     0
  9
$SPLINETYPE
 70
     6
  9
$SPLINESEGS
 70
     8
  9
$HANDSEED
  5
103
  9
$SURFTAB1
 70
     6
  9
$SURFTAB2
 70
     6
  9
$SURFTYPE
 70
     6
  9
$SURFU
 70
     6
  9
$SURFV
 70
     6
  9
$UCSBASE
  2

  9
$UCSNAME
  2

  9
$UCSORG
 10
0.0
 20
0.0
 30
0.0
  9
$UCSXDIR
 10
1.0
 20
0.0
 30
0.0
  9
$UCSYDIR
 10
0.0
 20
1.0
 30
0.0
  9
$UCSORTHOREF
  2

  9
$UCSORTHOVIEW
 70
     0
  9
$UCSORGTOP
 10
0.0
 20
0.0
 30
0.0
  9
$UCSORGBOTTOM
 10
0.0
 20
0.0
 30
0.0
  9
$UCSORGLEFT
 10
0.0
 20
0.0
 30
0.0
  9
$UCSORGRIGHT
 10
0.0
 20
0.0
 30
0.0
  9
$UCSORGFRONT
 10
0.0
 20
0.0
 30
0.0
  9
$UCSORGBACK
 10
0.0
 20
0.0
 30
0.0
  9
$PUCSBASE
  2

  9
$PUCSNAME
  2

  9
$PUCSORG
 10
0.0
 20
0.0
 30
0.0
  9
$PUCSXDIR
 10
1.0
 20
0.0
 30
0.0
  9
$PUCSYDIR
 10
0.0
 20
1.0
 30
0.0
  9
$PUCSORTHOREF
  2

  9
$PUCSORTHOVIEW
 70
     0
  9
$PUCSORGTOP
 10
0.0
 20
0.0
 30
0.0
  9
$PUCSORGBOTTOM
 10
0.0
 20
0.0
 30
0.0
  9
$PUCSORGLEFT
 10
0.0
 20
0.0
 30
0.0
  9
$PUCSORGRIGHT
 10
0.0
 20
0.0
 30
0.0
  9
$PUCSORGFRONT
 10
0.0
 20
0.0
 30
0.0
  9
$PUCSORGBACK
 10
0.0
 20
0.0
 30
0.0
  9
$USERI1
 70
     0
  9
$USERI2
 70
     0
  9
$USERI3
 70
     0
  9
$USERI4
 70
     0
  9
$USERI5
 70
     0
  9
$USERR1
 40
14.5
  9
$USERR2
 40
0.0
  9
$USERR3
 40
0.0
  9
$USERR4
 40
0.0
  9
$USERR5
 40
0.0
  9
$WORLDVIEW
 70
     1
  9
$SHADEDGE
 70
     3
  9
$SHADEDIF
 70
    70
  9
$TILEMODE
 70
     1
  9
$MAXACTVP
 70
    64
  9
$PINSBASE
 10
0.0
 20
0.0
 30
0.0
  9
$PLIMCHECK
 70
     0
  9
$PEXTMIN
 10
1.00000000000000E+20
 20
1.00000000000000E+20
 30
1.00000000000000E+20
  9
$PEXTMAX
 10
-1.00000000000000E+20
 20
-1.00000000000000E+20
 30
-1.00000000000000E+20
  9
$PLIMMIN
 10
0.0
 20
0.0
  9
$PLIMMAX
 10
12.0
 20
9.0
  9
$UNITMODE
 70
     0
  9
$VISRETAIN
 70
     1
  9
$PLINEGEN
 70
     0
  9
$PSLTSCALE
 70
     1
  9
$TREEDEPTH
 70
  3020
  9
$CMLSTYLE
  2
Standard
  9
$CMLJUST
 70
     0
  9
$CMLSCALE
 40
1.0
  9
$PROXYGRAPHICS
 70
     1
  9
$MEASUREMENT
 70
     1
  9
$CELWEIGHT
370
    -1
  9
$ENDCAPS
280
     0
  9
$JOINSTYLE
280
     0
  9
$LWDISPLAY
290
     0
  9
$INSUNITS
 70
     1
  9
$HYPERLINKBASE
  1

  9
$STYLESHEET
  1

  9
$XEDIT
290
     1
  9
$CEPSNTYPE
380
     0
  9
$PSTYLEMODE
290
     1
  9
$FINGERPRINTGUID
  2
{4B46E10C-5BA1-4D6B-87E5-0C5A52BECA17}
  9
$VERSIONGUID
  2
{FAEB1C32-E019-11D5-929B-00C0DF256EC4}
  9
$EXTNAMES
290
     1
  9
$PSVPSCALE
 40
0.0
  9
$OLESTARTUP
290
     0
  9
$SORTENTS
280
   127
  9
$INDEXCTL
280
     0
  9
$HIDETEXT
280
     1
  9
$XCLIPFRAME
290
     0
  9
$HALOGAP
280
     0
  9
$OBSCOLOR
 70
   257
  9
$OBSLTYPE
280
     0
  9
$INTERSECTIONDISPLAY
280
     0
  9
$INTERSECTIONCOLOR
 70
   257
  9
$DIMASSOC
280
     2
  9
$PROJECTNAME
  1

  0
ENDSEC
  0
SECTION
  2
CLASSES
  0
CLASS
  1
ACDBDICTIONARYWDFLT
  2
AcDbDictionaryWithDefault
  3
ObjectDBX Classes
 90
        0
 91
        3
280
     0
281
     0
  0
CLASS
  1

  2
exOdDbCircle
  3

 90
        0
 91
        3
280
     0
281
     1
  0
CLASS
  1

  2
exOdDbPolyline
  3

 90
        0
 91
        3
280
     0
281
     1
  0
ENDSEC
  0
SECTION
  2
TABLES
  0
TABLE
  2
VPORT
  5
8
330
0
100
AcDbSymbolTable
 70
     1
  0
VPORT
  5
29
330
8
100
AcDbSymbolTableRecord
100
AcDbViewportTableRecord
  2
*Active
 70
     0
 10
0.0
 20
0.0
 11
1.0
 21
1.0
 12
3.51357987023263
 22
6.08725853975569
 13
0.0
 23
0.0
 14
0.5
 24
0.5
 15
0.5
 25
0.5
 16
0.0
 26
0.0
 36
1.0
 17
0.0
 27
0.0
 37
0.0
 40
137.2601351392931
 41
1.60267857142857
 42
50.0
 43
0.0
 44
0.0
 50
0.0
 51
0.0
 71
     0
 72
   100
 73
     1
 74
     3
 75
     0
 76
     0
 77
     0
 78
     0
281
     0
 65
     1
110
0.0
120
0.0
130
0.0
111
1.0
121
0.0
131
0.0
112
0.0
122
1.0
132
0.0
 79
     0
146
0.0
  0
ENDTAB
  0
TABLE
  2
LTYPE
  5
5
330
0
100
AcDbSymbolTable
 70
     8
  0
LTYPE
  5
14
330
5
100
AcDbSymbolTableRecord
100
AcDbLinetypeTableRecord
  2
ByBlock
 70
     0
  3

 72
    65
 73
     0
 40
0.0
  0
LTYPE
  5
15
330
5
100
AcDbSymbolTableRecord
100
AcDbLinetypeTableRecord
  2
ByLayer
 70
     0
  3

 72
    65
 73
     0
 40
0.0
  0
LTYPE
  5
16
330
5
100
AcDbSymbolTableRecord
100
AcDbLinetypeTableRecord
  2
Continuous
 70
     0
  3
Solid line
 72
    65
 73
     0
 40
0.0
  0
LTYPE
  5
2A
330
5
100
AcDbSymbolTableRecord
100
AcDbLinetypeTableRecord
  2
DASHED
 70
     0
  3
Dashed
 72
    65
 73
     2
 40
15.0
 49
7.0
 74
     0
 49
-8.0
 74
     0
  0
LTYPE
  5
2B
330
5
100
AcDbSymbolTableRecord
100
AcDbLinetypeTableRecord
  2
DOTTED
 70
     0
  3
Dotted
 72
    65
 73
     2
 40
1.0
 49
0.0
 74
     0
 49
-1.0
 74
     0
  0
LTYPE
  5
2C
330
5
100
AcDbSymbolTableRecord
100
AcDbLinetypeTableRecord
  2
DOT_CENTER
 70
     0
  3
Dot_Center
 72
    65
 73
     4
 40
14.0
 49
12.0
 74
     0
 49
-1.0
 74
     0
 49
0.0
 74
     0
 49
-1.0
 74
     0
  0
LTYPE
  5
2D
330
5
100
AcDbSymbolTableRecord
100
AcDbLinetypeTableRecord
  2
LONG_DASHED
 70
     0
  3
Long_Dashed
 72
    65
 73
     2
 40
15.0
 49
10.0
 74
     0
 49
-5.0
 74
     0
  0
LTYPE
  5
2E
330
5
100
AcDbSymbolTableRecord
100
AcDbLinetypeTableRecord
  2
DASH_CENTER
 70
     0
  3
Dash_Center
 72
    65
 73
     4
 40
14.0
 49
11.0
 74
     0
 49
-1.0
 74
     0
 49
1.0
 74
     0
 49
-1.0
 74
     0
  0
LTYPE
  5
2F
330
5
100
AcDbSymbolTableRecord
100
AcDbLinetypeTableRecord
  2
PHANTOM
 70
     0
  3
Phantom
 72
    65
 73
     6
 40
13.0
 49
10.0
 74
     0
 49
-1.0
 74
     0
 49
0.0
 74
     0
 49
-1.0
 74
     0
 49
0.0
 74
     0
 49
-1.0
 74
     0
  0
LTYPE
  5
30
330
5
100
AcDbSymbolTableRecord
100
AcDbLinetypeTableRecord
  2
CENTER_DASH_DASH
 70
     0
  3
Center_Dash_Dash
 72
    65
 73
     6
 40
14.0
 49
9.0
 74
     0
 49
-1.0
 74
     0
 49
1.0
 74
     0
 49
-1.0
 74
     0
 49
1.0
 74
     0
 49
-1.0
 74
     0
  0
ENDTAB
  0
TABLE
  2
LAYER
  5
2
330
0
100
AcDbSymbolTable
 70
     2
  0
LAYER
  5
10
330
2
100
AcDbSymbolTableRecord
100
AcDbLayerTableRecord
  2
0
 70
     0
 62
     7
  6
Continuous
370
    -3
390
F
  0
LAYER
  5
31
330
2
100
AcDbSymbolTableRecord
100
AcDbLayerTableRecord
  2
1
 70
     0
 62
     7
  6
Continuous
370
    -3
390
F
  0
ENDTAB
  0
TABLE
  2
STYLE
  5
3
330
0
100
AcDbSymbolTable
 70
     2
  0
STYLE
  5
11
330
3
100
AcDbSymbolTableRecord
100
AcDbTextStyleTableRecord
  2
Standard
 70
     0
 40
0.0
 41
1.0
 50
0.0
 71
     0
 42
0.2
  3
txt
  4

  0
STYLE
  5
AE
330
3
100
AcDbSymbolTableRecord
100
AcDbTextStyleTableRecord
  2
CONVERTER_11
 70
     0
 40
0.0
 41
0.9
 50
0.0
 71
     0
 42
0.2
  3
txt.shx
  4

  0
ENDTAB
  0
TABLE
  2
VIEW
  5
6
330
0
100
AcDbSymbolTable
 70
     0
  0
ENDTAB
  0
TABLE
  2
UCS
  5
7
330
0
100
AcDbSymbolTable
 70
     0
  0
ENDTAB
  0
TABLE
  2
APPID
  5
9
330
0
100
AcDbSymbolTable
 70
     1
  0
APPID
  5
12
330
9
100
AcDbSymbolTableRecord
100
AcDbRegAppTableRecord
  2
ACAD
 70
     0
  0
ENDTAB
  0
TABLE
  2
DIMSTYLE
  5
A
330
0
100
AcDbSymbolTable
 70
     8
100
AcDbDimStyleTable
  0
DIMSTYLE
105
27
330
A
100
AcDbSymbolTableRecord
100
AcDbDimStyleTableRecord
  2
Standard
 70
     0
340
11
  0
DIMSTYLE
105
B2
102
{ACAD_REACTORS
330
B3
102
}
330
A
100
AcDbSymbolTableRecord
100
AcDbDimStyleTableRecord
  2
ME10_DIM_10
 70
     0
 41
3.5
 42
0.0
 44
2.0
 73
     0
 74
     0
 77
     1
 78
     8
140
3.5
147
2.0
172
     1
173
     1
176
     2
177
     2
178
     2
271
     3
340
AE
  0
DIMSTYLE
105
BF
102
{ACAD_REACTORS
330
C0
102
}
330
A
100
AcDbSymbolTableRecord
100
AcDbDimStyleTableRecord
  2
ME10_DIM_11
 70
     0
 41
3.5
 42
0.0
 44
2.0
 73
     0
 74
     0
 77
     1
 78
     8
140
3.5
147
2.0
172
     1
173
     1
176
     2
177
     2
178
     2
271
     3
340
AE
  0
DIMSTYLE
105
CA
102
{ACAD_REACTORS
330
CB
102
}
330
A
100
AcDbSymbolTableRecord
100
AcDbDimStyleTableRecord
  2
ME10_DIM_12
 70
     0
 41
3.5
 42
0.0
 44
2.0
 73
     0
 74
     0
 77
     1
 78
     8
140
3.5
147
2.0
172
     1
173
     1
176
     2
177
     2
178
     2
271
     2
340
AE
  0
DIMSTYLE
105
D5
102
{ACAD_REACTORS
330
D6
102
}
330
A
100
AcDbSymbolTableRecord
100
AcDbDimStyleTableRecord
  2
ME10_DIM_13
 70
     0
 41
3.5
 42
0.0
 44
2.0
 73
     0
 74
     0
 77
     1
 78
     8
140
3.5
147
2.0
172
     1
173
     1
176
     2
177
     2
178
     2
271
     2
340
AE
  0
DIMSTYLE
105
E0
102
{ACAD_REACTORS
330
E1
102
}
330
A
100
AcDbSymbolTableRecord
100
AcDbDimStyleTableRecord
  2
ME10_DIM_14
 70
     0
 41
3.5
 42
0.0
 44
2.0
 73
     0
 74
     0
 77
     1
 78
     8
140
3.5
147
2.0
172
     1
173
     1
176
     2
177
     2
178
     2
271
     2
340
AE
  0
DIMSTYLE
105
F2
102
{ACAD_REACTORS
330
F3
102
}
330
A
100
AcDbSymbolTableRecord
100
AcDbDimStyleTableRecord
  2
ME10_DIM_15
 70
     0
 41
3.5
 42
0.0
 44
2.0
 73
     0
 74
     0
 77
     1
 78
     8
140
3.5
147
2.0
172
     1
173
     1
176
     2
177
     2
178
     2
271
     2
340
AE
343
ED
  0
DIMSTYLE
105
FF
102
{ACAD_REACTORS
330
100
102
}
330
A
100
AcDbSymbolTableRecord
100
AcDbDimStyleTableRecord
  2
ME10_DIM_16
 70
     0
 41
1.5
 42
0.0
 44
2.0
 73
     0
 74
     0
 77
     1
 78
     8
140
3.5
147
2.0
172
     1
173
     1
176
     2
177
     2
178
     2
271
     2
340
AE
344
ED
  0
ENDTAB
  0
TABLE
  2
BLOCK_RECORD
  5
1
330
0
100
AcDbSymbolTable
 70
     9
  0
BLOCK_RECORD
  5
1F
330
1
100
AcDbSymbolTableRecord
100
AcDbBlockTableRecord
  2
*Model_Space
340
22
  0
BLOCK_RECORD
  5
1B
330
1
100
AcDbSymbolTableRecord
100
AcDbBlockTableRecord
  2
*Paper_Space
340
1E
  0
BLOCK_RECORD
  5
23
330
1
100
AcDbSymbolTableRecord
100
AcDbBlockTableRecord
  2
*Paper_Space0
340
26
  0
BLOCK_RECORD
  5
A7
330
1
100
AcDbSymbolTableRecord
100
AcDbBlockTableRecord
  2
*D1
340
0
  0
BLOCK_RECORD
  5
B4
330
1
100
AcDbSymbolTableRecord
100
AcDbBlockTableRecord
  2
*D2
340
0
  0
BLOCK_RECORD
  5
C1
330
1
100
AcDbSymbolTableRecord
100
AcDbBlockTableRecord
  2
*D3
340
0
  0
BLOCK_RECORD
  5
CC
330
1
100
AcDbSymbolTableRecord
100
AcDbBlockTableRecord
  2
*D4
340
0
  0
BLOCK_RECORD
  5
D7
330
1
100
AcDbSymbolTableRecord
100
AcDbBlockTableRecord
  2
*D5
340
0
  0
BLOCK_RECORD
  5
E2
330
1
100
AcDbSymbolTableRecord
100
AcDbBlockTableRecord
  2
*D6
340
0
  0
BLOCK_RECORD
  5
ED
330
1
100
AcDbSymbolTableRecord
100
AcDbBlockTableRecord
  2
_Dot
340
0
  0
BLOCK_RECORD
  5
F4
330
1
100
AcDbSymbolTableRecord
100
AcDbBlockTableRecord
  2
*D8
340
0
  0
ENDTAB
  0
ENDSEC
  0
SECTION
  2
BLOCKS
  0
BLOCK
  5
20
330
1F
100
AcDbEntity
  8
0
100
AcDbBlockBegin
  2
*Model_Space
 70
     0
 71
     0
 10
0.0
 20
0.0
 30
0.0
  3
*Model_Space
  1

  0
ENDBLK
  5
21
330
1F
100
AcDbEntity
  8
0
100
AcDbBlockEnd
  0
BLOCK
  5
1C
330
1B
100
AcDbEntity
 67
     1
  8
0
100
AcDbBlockBegin
  2
*Paper_Space
 70
     0
 71
     0
 10
0.0
 20
0.0
 30
0.0
  3
*Paper_Space
  1

  0
ENDBLK
  5
1D
330
1B
100
AcDbEntity
 67
     1
  8
0
100
AcDbBlockEnd
  0
BLOCK
  5
24
330
23
100
AcDbEntity
  8
0
100
AcDbBlockBegin
  2
*Paper_Space0
 70
     0
 71
     0
 10
0.0
 20
0.0
 30
0.0
  3
*Paper_Space0
  1

  0
ENDBLK
  5
25
330
23
100
AcDbEntity
  8
0
100
AcDbBlockEnd
  0
BLOCK
  5
B0
330
A7
100
AcDbEntity
  8
0
100
AcDbBlockBegin
  2
*D1
 70
     1
 71
     0
 10
0.0
 20
0.0
 30
0.0
  3
*D1
  1

  0
LINE
  5
A8
330
A7
100
AcDbEntity
  8
1
  6
Continuous
 62
     2
100
AcDbLine
 10
5.52590065827531
 20
62.9782290576162
 30
0.0
 11
-4.47409934172469
 21
62.9782290576162
 31
0.0
  0
LINE
  5
A9
330
A7
100
AcDbEntity
  8
1
  6
Continuous
 62
     2
100
AcDbLine
 10
5.52590065827531
 20
-17.29712299933806
 30
0.0
 11
5.52590065827531
 21
64.9782290576162
 31
0.0
  0
LINE
  5
AA
330
A7
100
AcDbEntity
  8
1
  6
Continuous
 62
     2
100
AcDbLine
 10
-4.47409934172469
 20
10.20287700066191
 30
0.0
 11
-4.47409934172469
 21
48.84913837315101
 31
0.0
  0
LINE
  5
AB
330
A7
100
AcDbEntity
  8
1
  6
Continuous
 62
     2
100
AcDbLine
 10
-4.47409934172469
 20
60.02357005094181
 30
0.0
 11
-4.47409934172469
 21
64.9782290576162
 31
0.0
  0
SOLID
  5
AC
330
A7
100
AcDbEntity
  8
1
 62
     2
100
AcDbTrace
 10
2.02590065827531
 20
62.51744531606032
 30
0.0
 11
2.02590065827531
 21
63.43901279917209
 31
0.0
 12
5.52590065827531
 22
62.9782290576162
 32
0.0
 13
5.52590065827531
 23
62.9782290576162
 33
0.0
  0
SOLID
  5
AD
330
A7
100
AcDbEntity
  8
1
 62
     2
100
AcDbTrace
 10
-0.97409934172469
 20
63.43901279917209
 30
0.0
 11
-0.97409934172469
 21
62.51744531606032
 31
0.0
 12
-4.47409934172469
 22
62.9782290576162
 32
0.0
 13
-4.47409934172469
 23
62.9782290576162
 33
0.0
  0
MTEXT
  5
AF
330
A7
100
AcDbEntity
  8
1
 62
     2
100
AcDbMText
 10
-2.43367655823767
 20
64.9782290576162
 30
0.0
 40
3.5
 41
0.0
 71
     7
 72
     1
  1
10
  7
CONVERTER_11
 11
0.9999999999970621
 21
2.424068405545307E-6
 31
0.0
 73
     1
 44
0.60024009603842
  0
ENDBLK
  5
B1
330
A7
100
AcDbEntity
  8
0
100
AcDbBlockEnd
  0
BLOCK
  5
BD
330
B4
100
AcDbEntity
  8
0
100
AcDbBlockBegin
  2
*D2
 70
     1
 71
     0
 10
0.0
 20
0.0
 30
0.0
  3
*D2
  1

  0
LINE
  5
B5
330
B4
100
AcDbEntity
  8
1
  6
Continuous
 62
     2
100
AcDbLine
 10
8.27590065827531
 20
53.6019710710963
 30
0.0
 11
1.27590065827531
 21
53.6019710710963
 31
0.0
  0
LINE
  5
B6
330
B4
100
AcDbEntity
  8
1
  6
Continuous
 62
     2
100
AcDbLine
 10
1.27590065827531
 20
53.6019710710963
 30
0.0
 11
-4.47409934172469
 21
53.6019710710963
 31
0.0
  0
LINE
  5
B7
330
B4
100
AcDbEntity
  8
1
  6
Continuous
 62
     2
100
AcDbLine
 10
-4.47409934172469
 20
53.6019710710963
 30
0.0
 11
-16.56306768570781
 21
53.6019710710963
 31
0.0
  0
LINE
  5
B8
330
B4
100
AcDbEntity
  8
1
  6
Continuous
 62
     2
100
AcDbLine
 10
1.27590065827531
 20
-17.9221229993381
 30
0.0
 11
1.27590065827531
 21
55.6019710710963
 31
0.0
  0
LINE
  5
B9
330
B4
100
AcDbEntity
  8
1
  6
Continuous
 62
     2
100
AcDbLine
 10
-4.47409934172469
 20
-17.29712299933803
 30
0.0
 11
-4.47409934172469
 21
55.6019710710963
 31
0.0
  0
SOLID
  5
BA
330
B4
100
AcDbEntity
  8
1
 62
     2
100
AcDbTrace
 10
4.77590065827531
 20
54.06275481265219
 30
0.0
 11
4.77590065827531
 21
53.14118732954041
 31
0.0
 12
1.27590065827531
 22
53.6019710710963
 32
0.0
 13
1.27590065827531
 23
53.6019710710963
 33
0.0
  0
SOLID
  5
BB
330
B4
100
AcDbEntity
  8
1
 62
     2
100
AcDbTrace
 10
-7.97409934172469
 20
53.14118732954041
 30
0.0
 11
-7.97409934172469
 21
54.06275481265219
 31
0.0
 12
-4.47409934172469
 22
53.6019710710963
 32
0.0
 13
-4.47409934172469
 23
53.6019710710963
 33
0.0
  0
MTEXT
  5
BC
330
B4
100
AcDbEntity
  8
1
 62
     2
100
AcDbMText
 10
-16.56306768570781
 20
55.6019710710963
 30
0.0
 40
3.5
 41
0.0
 71
     7
 72
     1
  1
5.75
  7
CONVERTER_11
 11
0.9999999999970621
 21
2.424068405545307E-6
 31
0.0
 73
     1
 44
0.60024009603842
  0
ENDBLK
  5
BE
330
B4
100
AcDbEntity
  8
0
100
AcDbBlockEnd
  0
BLOCK
  5
C8
330
C1
100
AcDbEntity
  8
0
100
AcDbBlockBegin
  2
*D3
 70
     1
 71
     0
 10
0.0
 20
0.0
 30
0.0
  3
*D3
  1

  0
LINE
  5
C2
330
C1
100
AcDbEntity
  8
1
  6
Continuous
 62
     2
100
AcDbLine
 10
74.32051185568095
 20
16.7028770006619
 30
0.0
 11
74.32051185568095
 21
-31.7971229993381
 31
0.0
  0
LINE
  5
C3
330
C1
100
AcDbEntity
  8
1
  6
Continuous
 62
     2
100
AcDbLine
 10
13.02590065827531
 20
16.7028770006619
 30
0.0
 11
76.32051185568095
 21
16.7028770006619
 31
0.0
  0
LINE
  5
C4
330
C1
100
AcDbEntity
  8
1
  6
Continuous
 62
     2
100
AcDbLine
 10
15.15090065827531
 20
-31.7971229993381
 30
0.0
 11
76.32051185568095
 21
-31.7971229993381
 31
0.0
  0
SOLID
  5
C5
330
C1
100
AcDbEntity
  8
1
 62
     2
100
AcDbTrace
 10
74.78129559723683
 20
13.2028770006619
 30
0.0
 11
73.85972811412506
 21
13.2028770006619
 31
0.0
 12
74.32051185568095
 22
16.7028770006619
 32
0.0
 13
74.32051185568095
 23
16.7028770006619
 33
0.0
  0
SOLID
  5
C6
330
C1
100
AcDbEntity
  8
1
 62
     2
100
AcDbTrace
 10
73.85972811412506
 20
-28.2971229993381
 30
0.0
 11
74.78129559723683
 21
-28.2971229993381
 31
0.0
 12
74.32051185568095
 22
-31.7971229993381
 32
0.0
 13
74.32051185568095
 23
-31.7971229993381
 33
0.0
  0
MTEXT
  5
C7
330
C1
100
AcDbEntity
  8
1
 62
     2
100
AcDbMText
 10
72.32051185568095
 20
-10.78887450818596
 30
0.0
 40
3.5
 41
0.0
 71
     7
 72
     1
  1
48.5
  7
CONVERTER_11
 11
0.0
 21
1.0
 31
0.0
 73
     1
 44
0.60024009603842
  0
ENDBLK
  5
C9
330
C1
100
AcDbEntity
  8
0
100
AcDbBlockEnd
  0
BLOCK
  5
D3
330
CC
100
AcDbEntity
  8
0
100
AcDbBlockBegin
  2
*D4
 70
     1
 71
     0
 10
0.0
 20
0.0
 30
0.0
  3
*D4
  1

  0
LINE
  5
CD
330
CC
100
AcDbEntity
  8
1
  6
Continuous
 62
     2
100
AcDbLine
 10
-53.98330910843946
 20
-17.29712299933799
 30
0.0
 11
-53.98330910843946
 21
-31.7971229993381
 31
0.0
  0
LINE
  5
CE
330
CC
100
AcDbEntity
  8
1
  6
Continuous
 62
     2
100
AcDbLine
 10
-44.47409934172471
 20
-17.29712299933799
 30
0.0
 11
-55.98330910843946
 21
-17.29712299933799
 31
0.0
  0
LINE
  5
CF
330
CC
100
AcDbEntity
  8
1
  6
Continuous
 62
     2
100
AcDbLine
 10
-12.59909934172471
 20
-31.7971229993381
 30
0.0
 11
-55.98330910843946
 21
-31.7971229993381
 31
0.0
  0
SOLID
  5
D0
330
CC
100
AcDbEntity
  8
1
 62
     2
100
AcDbTrace
 10
-53.52252536688357
 20
-20.79712299933799
 30
0.0
 11
-54.44409284999534
 21
-20.79712299933799
 31
0.0
 12
-53.98330910843946
 22
-17.29712299933799
 32
0.0
 13
-53.98330910843946
 23
-17.29712299933799
 33
0.0
  0
SOLID
  5
D1
330
CC
100
AcDbEntity
  8
1
 62
     2
100
AcDbTrace
 10
-54.44409284999534
 20
-28.2971229993381
 30
0.0
 11
-53.52252536688357
 21
-28.2971229993381
 31
0.0
 12
-53.98330910843946
 22
-31.7971229993381
 32
0.0
 13
-53.98330910843946
 23
-31.7971229993381
 33
0.0
  0
MTEXT
  5
D2
330
CC
100
AcDbEntity
  8
1
 62
     2
100
AcDbMText
 10
-55.98330910843946
 20
-27.315789340796
 30
0.0
 40
3.5
 41
0.0
 71
     7
 72
     1
  1
14.5
  7
CONVERTER_11
 11
0.0
 21
1.0
 31
0.0
 73
     1
 44
0.60024009603842
  0
ENDBLK
  5
D4
330
CC
100
AcDbEntity
  8
0
100
AcDbBlockEnd
  0
BLOCK
  5
DE
330
D7
100
AcDbEntity
  8
0
100
AcDbBlockBegin
  2
*D5
 70
     1
 71
     0
 10
0.0
 20
0.0
 30
0.0
  3
*D5
  1

  0
LINE
  5
D8
330
D7
100
AcDbEntity
  8
1
  6
Continuous
 62
     2
100
AcDbLine
 10
-63.7933521152157
 20
10.2028770006619
 30
0.0
 11
-63.7933521152157
 21
-31.7971229993381
 31
0.0
  0
LINE
  5
D9
330
D7
100
AcDbEntity
  8
1
  6
Continuous
 62
     2
100
AcDbLine
 10
-8.4740993417247
 20
10.2028770006619
 30
0.0
 11
-65.7933521152157
 21
10.2028770006619
 31
0.0
  0
LINE
  5
DA
330
D7
100
AcDbEntity
  8
1
  6
Continuous
 62
     2
100
AcDbLine
 10
-12.59909934172471
 20
-31.7971229993381
 30
0.0
 11
-65.7933521152157
 21
-31.7971229993381
 31
0.0
  0
SOLID
  5
DB
330
D7
100
AcDbEntity
  8
1
 62
     2
100
AcDbTrace
 10
-63.33256837365981
 20
6.7028770006619
 30
0.0
 11
-64.25413585677158
 21
6.7028770006619
 31
0.0
 12
-63.7933521152157
 22
10.2028770006619
 32
0.0
 13
-63.7933521152157
 23
10.2028770006619
 33
0.0
  0
SOLID
  5
DC
330
D7
100
AcDbEntity
  8
1
 62
     2
100
AcDbTrace
 10
-64.25413585677158
 20
-28.2971229993381
 30
0.0
 11
-63.33256837365981
 21
-28.2971229993381
 31
0.0
 12
-63.7933521152157
 22
-31.7971229993381
 32
0.0
 13
-63.7933521152157
 23
-31.7971229993381
 33
0.0
  0
MTEXT
  5
DD
330
D7
100
AcDbEntity
  8
1
 62
     2
100
AcDbMText
 10
-65.7933521152157
 20
-13.82800761375786
 30
0.0
 40
3.5
 41
0.0
 71
     7
 72
     1
  1
42
  7
CONVERTER_11
 11
0.0
 21
1.0
 31
0.0
 73
     1
 44
0.60024009603842
  0
ENDBLK
  5
DF
330
D7
100
AcDbEntity
  8
0
100
AcDbBlockEnd
  0
BLOCK
  5
EB
330
E2
100
AcDbEntity
  8
0
100
AcDbBlockBegin
  2
*D6
 70
     1
 71
     0
 10
0.0
 20
0.0
 30
0.0
  3
*D6
  1

  0
LINE
  5
E3
330
E2
100
AcDbEntity
  8
1
  6
Continuous
 62
     2
100
AcDbLine
 10
-2.93771288043001
 20
-54.30371197810482
 30
0.0
 11
5.5259006582753
 21
-54.30371197810482
 31
0.0
  0
LINE
  5
E4
330
E2
100
AcDbEntity
  8
1
  6
Continuous
 62
     2
100
AcDbLine
 10
5.5259006582753
 20
-54.30371197810482
 30
0.0
 11
9.0259006582753
 21
-54.30371197810482
 31
0.0
  0
LINE
  5
E5
330
E2
100
AcDbEntity
  8
1
  6
Continuous
 62
     2
100
AcDbLine
 10
5.5259006582753
 20
-17.29712299933806
 30
0.0
 11
5.5259006582753
 21
-56.30371197810482
 31
0.0
  0
LINE
  5
E6
330
E2
100
AcDbEntity
  8
1
  6
Continuous
 62
     2
100
AcDbLine
 10
9.0259006582753
 20
-20.5471229993381
 30
0.0
 11
9.0259006582753
 21
-56.30371197810482
 31
0.0
  0
SOLID
  5
E7
330
E2
100
AcDbEntity
  8
1
 62
     2
100
AcDbTrace
 10
2.0259006582753
 20
-54.76449571966071
 30
0.0
 11
2.0259006582753
 21
-53.84292823654894
 31
0.0
 12
5.5259006582753
 22
-54.30371197810482
 32
0.0
 13
5.5259006582753
 23
-54.30371197810482
 33
0.0
  0
CIRCLE
  5
E8
102
{ACAD_REACTORS
330
E9
102
}
330
E2
100
AcDbEntity
  8
1
 62
     2
100
AcDbCircle
 10
9.0259006582753
 20
-54.30371197810482
 30
0.0
 40
0.75
  0
HATCH
  5
E9
330
E2
100
AcDbEntity
  8
1
 62
     2
100
AcDbHatch
 10
0.0
 20
0.0
 30
0.0
210
0.0
220
0.0
230
1.0
  2
SOLID
 70
     1
 71
     1
 91
        1
 92
        1
 93
        1
 72
     2
 10
9.025900658275305
 20
-54.30371197810482
 40
0.75
 50
0.0
 51
360.0
 73
     1
 97
        1
330
E8
 75
     0
 76
     1
 98
        0
  0
MTEXT
  5
EA
330
E2
100
AcDbEntity
  8
1
 62
     2
100
AcDbMText
 10
-2.93771288043001
 20
-52.30371197810482
 30
0.0
 40
3.5
 41
0.0
 71
     7
 72
     1
  1
3.5
  7
CONVERTER_11
 11
0.9999999999970621
 21
2.424068405545307E-6
 31
0.0
 73
     1
 44
0.60024009603842
  0
ENDBLK
  5
EC
330
E2
100
AcDbEntity
  8
0
100
AcDbBlockEnd
  0
BLOCK
  5
EE
330
ED
100
AcDbEntity
  8
0
100
AcDbBlockBegin
  2
_Dot
 70
     0
 71
     0
 10
0.0
 20
0.0
 30
0.0
  3
_Dot
  1

  0
LWPOLYLINE
  5
F0
330
ED
100
AcDbEntity
  8
0
  6
ByBlock
 62
     0
100
AcDbPolyline
 90
        2
 70
     1
 43
0.5
 10
-0.25
 20
0.0
 42
1.0
 10
0.25
 20
0.0
 42
1.0
  0
LINE
  5
F1
330
ED
100
AcDbEntity
  8
0
  6
ByBlock
 62
     0
370
    -2
100
AcDbLine
 10
-0.5
 20
0.0
 30
0.0
 11
-1.0
 21
0.0
 31
0.0
  0
ENDBLK
  5
EF
330
ED
100
AcDbEntity
  8
0
100
AcDbBlockEnd
  0
BLOCK
  5
FD
330
F4
100
AcDbEntity
  8
0
100
AcDbBlockBegin
  2
*D8
 70
     1
 71
     0
 10
0.0
 20
0.0
 30
0.0
  3
*D8
  1

  0
LINE
  5
F5
330
F4
100
AcDbEntity
  8
1
  6
Continuous
 62
     2
100
AcDbLine
 10
9.0259006582753
 20
-54.30371197810482
 30
0.0
 11
13.0259006582753
 21
-54.30371197810482
 31
0.0
  0
LINE
  5
F6
330
F4
100
AcDbEntity
  8
1
  6
Continuous
 62
     2
100
AcDbLine
 10
13.0259006582753
 20
-54.30371197810482
 30
0.0
 11
20.0259006582753
 21
-54.30371197810482
 31
0.0
  0
LINE
  5
F7
330
F4
100
AcDbEntity
  8
1
  6
Continuous
 62
     2
100
AcDbLine
 10
9.0259006582753
 20
-20.5471229993381
 30
0.0
 11
9.0259006582753
 21
-56.30371197810482
 31
0.0
  0
LINE
  5
F8
330
F4
100
AcDbEntity
  8
1
  6
Continuous
 62
     2
100
AcDbLine
 10
13.0259006582753
 20
-20.63473264651404
 30
0.0
 11
13.0259006582753
 21
-56.30371197810482
 31
0.0
  0
CIRCLE
  5
F9
102
{ACAD_REACTORS
330
FA
102
}
330
F4
100
AcDbEntity
  8
1
 62
     2
100
AcDbCircle
 10
9.0259006582753
 20
-54.30371197810482
 30
0.0
 40
0.75
  0
HATCH
  5
FA
330
F4
100
AcDbEntity
  8
1
 62
     2
100
AcDbHatch
 10
0.0
 20
0.0
 30
0.0
210
0.0
220
0.0
230
1.0
  2
SOLID
 70
     1
 71
     1
 91
        1
 92
        1
 93
        1
 72
     2
 10
9.025900658275305
 20
-54.30371197810482
 40
0.75
 50
0.0
 51
360.0
 73
     1
 97
        1
330
F9
 75
     0
 76
     1
 98
        0
  0
SOLID
  5
FB
330
F4
100
AcDbEntity
  8
1
 62
     2
100
AcDbTrace
 10
16.5259006582753
 20
-53.84292823654894
 30
0.0
 11
16.5259006582753
 21
-54.76449571966071
 31
0.0
 12
13.0259006582753
 22
-54.30371197810482
 32
0.0
 13
13.0259006582753
 23
-54.30371197810482
 33
0.0
  0
MTEXT
  5
FC
330
F4
100
AcDbEntity
  8
1
 62
     2
100
AcDbMText
 10
15.84994403035244
 20
-51.63795570167352
 30
0.0
 40
3.5
 41
0.0
 71
     7
 72
     1
  1
4
  7
CONVERTER_11
 11
0.9999999999970621
 21
2.424068405545307E-6
 31
0.0
 73
     1
 44
0.60024009603842
  0
ENDBLK
  5
FE
330
F4
100
AcDbEntity
  8
0
100
AcDbBlockEnd
  0
ENDSEC
  0
SECTION
  2
ENTITIES
  0
POINT
  5
32
330
1F
100
AcDbEntity
  8
1
 62
     3
 60
     1
100
AcDbPoint
 10
-8.20609020574561
 20
19.70287700066195
 30
0.0
  0
POINT
  5
33
330
1F
100
AcDbEntity
  8
1
 62
     3
 60
     1
100
AcDbPoint
 10
6.79390979425439
 20
19.70287700066195
 30
0.0
  0
POINT
  5
34
330
1F
100
AcDbEntity
  8
1
 62
     3
 60
     1
100
AcDbPoint
 10
5.52590065827531
 20
26.70287700066195
 30
0.0
  0
POINT
  5
35
330
1F
100
AcDbEntity
  8
1
 62
     3
 60
     1
100
AcDbPoint
 10
5.52590065827531
 20
11.70287700066201
 30
0.0
  0
POINT
  5
36
330
1F
100
AcDbEntity
  8
1
 62
     3
 60
     1
100
AcDbPoint
 10
2.5259006582753
 20
11.70287700066201
 30
0.0
  0
POINT
  5
37
330
1F
100
AcDbEntity
  8
1
 62
     3
 60
     1
100
AcDbPoint
 10
-18.4740993417247
 20
11.70287700066201
 30
0.0
  0
POINT
  5
38
330
1F
100
AcDbEntity
  8
1
 62
     3
 60
     1
100
AcDbPoint
 10
-2.9685621308718
 20
-21.37853213341264
 30
0.0
  0
POINT
  5
39
330
1F
100
AcDbEntity
  8
1
 62
     3
 60
     1
100
AcDbPoint
 10
-4.47409934172469
 20
-20.5471229993381
 30
0.0
  0
POINT
  5
3A
330
1F
100
AcDbEntity
  8
1
 62
     3
 60
     1
100
AcDbPoint
 10
9.01559777169921
 20
-20.78220998923492
 30
0.0
  0
POINT
  5
3B
330
1F
100
AcDbEntity
  8
1
 62
     3
 60
     1
100
AcDbPoint
 10
6.46194605497637
 20
-21.81376519029632
 30
0.0
  0
LINE
  5
3C
330
1F
100
AcDbEntity
  8
1
  6
DOT_CENTER
 62
     2
100
AcDbLine
 10
6.79390979425439
 20
19.70287700066195
 30
0.0
 11
-8.20609020574561
 21
19.70287700066195
 31
0.0
  0
LINE
  5
3D
330
1F
100
AcDbEntity
  8
1
  6
Continuous
 62
     7
100
AcDbLine
 10
5.52590065827531
 20
26.70287700066195
 30
0.0
 11
5.52590065827531
 21
12.70287700066191
 31
0.0
  0
LINE
  5
3E
330
1F
100
AcDbEntity
  8
1
  6
Continuous
 62
     7
100
AcDbLine
 10
2.5259006582753
 20
26.70287700066195
 30
0.0
 11
5.52590065827531
 21
26.70287700066195
 31
0.0
  0
LINE
  5
3F
330
1F
100
AcDbEntity
  8
1
  6
Continuous
 62
     7
100
AcDbLine
 10
2.5259006582753
 20
11.70287700066201
 30
0.0
 11
2.5259006582753
 21
26.70287700066195
 31
0.0
  0
LINE
  5
40
330
1F
100
AcDbEntity
  8
1
  6
Continuous
 62
     7
100
AcDbLine
 10
5.52590065827531
 20
11.70287700066201
 30
0.0
 11
5.52590065827531
 21
12.70287700066191
 31
0.0
  0
LINE
  5
41
330
1F
100
AcDbEntity
  8
1
  6
Continuous
 62
     7
100
AcDbLine
 10
-18.4740993417247
 20
11.70287700066201
 30
0.0
 11
-18.4740993417247
 21
-11.29712299933805
 31
0.0
  0
LINE
  5
42
330
1F
100
AcDbEntity
  8
1
  6
Continuous
 62
     7
100
AcDbLine
 10
2.5259006582753
 20
11.70287700066201
 30
0.0
 11
2.5259006582753
 21
-14.29712299933805
 31
0.0
  0
LINE
  5
43
330
1F
100
AcDbEntity
  8
1
  6
Continuous
 62
     7
100
AcDbLine
 10
-18.4740993417247
 20
11.70287700066201
 30
0.0
 11
2.5259006582753
 21
11.70287700066201
 31
0.0
  0
LINE
  5
44
330
1F
100
AcDbEntity
  8
1
  6
Continuous
 62
     7
100
AcDbLine
 10
-8.4740993417247
 20
-14.29712299933805
 30
0.0
 11
-18.4740993417247
 21
-14.29712299933805
 31
0.0
  0
LINE
  5
45
330
1F
100
AcDbEntity
  8
1
  6
Continuous
 62
     7
100
AcDbLine
 10
-4.47409934172469
 20
-17.29712299933803
 30
0.0
 11
5.52590065827531
 21
-17.29712299933806
 31
0.0
  0
LINE
  5
46
330
1F
100
AcDbEntity
  8
1
  6
DOT_CENTER
 62
     2
100
AcDbLine
 10
-44.4740993417247
 20
-17.29712299933799
 30
0.0
 11
-44.4740993417247
 21
-20.24911639872415
 31
0.0
  0
LINE
  5
47
330
1F
100
AcDbEntity
  8
1
  6
Continuous
 62
     7
100
AcDbLine
 10
-18.4740993417247
 20
-17.29712299933799
 30
0.0
 11
-8.4740993417247
 21
-17.29712299933802
 31
0.0
  0
LINE
  5
48
330
1F
100
AcDbEntity
  8
1
  6
Continuous
 62
     7
100
AcDbLine
 10
-18.4740993417247
 20
-11.29712299933805
 30
0.0
 11
-18.4740993417247
 21
-14.29712299933805
 31
0.0
  0
LINE
  5
49
330
1F
100
AcDbEntity
  8
1
  6
Continuous
 62
     7
100
AcDbLine
 10
2.5259006582753
 20
-14.29712299933805
 30
0.0
 11
-4.47409934172469
 21
-14.29712299933805
 31
0.0
  0
LINE
  5
4A
330
1F
100
AcDbEntity
  8
1
  6
Continuous
 62
     7
100
AcDbLine
 10
-18.4740993417247
 20
-14.29712299933805
 30
0.0
 11
-18.4740993417247
 21
-17.29712299933799
 31
0.0
  0
LINE
  5
4B
330
1F
100
AcDbEntity
  8
1
  6
Continuous
 62
     7
100
AcDbLine
 10
-1.4740993417247
 20
-14.29712299933805
 30
0.0
 11
-1.4740993417247
 21
-17.29712299933806
 31
0.0
  0
LINE
  5
4C
330
1F
100
AcDbEntity
  8
1
  6
Continuous
 62
     7
100
AcDbLine
 10
-11.4740993417247
 20
-14.29712299933805
 30
0.0
 11
-11.4740993417247
 21
-17.29712299933806
 31
0.0
  0
LINE
  5
4D
330
1F
100
AcDbEntity
  8
1
  6
Continuous
 62
     7
100
AcDbLine
 10
5.52590065827531
 20
-17.29712299933806
 30
0.0
 11
5.52590065827531
 21
11.70287700066201
 31
0.0
  0
LINE
  5
4E
330
1F
100
AcDbEntity
  8
1
  6
Continuous
 62
     7
100
AcDbLine
 10
5.52590065827531
 20
28.70287700066417
 30
0.0
 11
5.52590065827531
 21
26.70287700066195
 31
0.0
  0
LINE
  5
4F
330
1F
100
AcDbEntity
  8
1
  6
Continuous
 62
     7
100
AcDbLine
 10
18.5259006582753
 20
28.70287700066417
 30
0.0
 11
5.52590065827531
 21
28.70287700066417
 31
0.0
  0
LINE
  5
50
330
1F
100
AcDbEntity
  8
1
  6
Continuous
 62
     7
100
AcDbLine
 10
18.5259006582753
 20
28.70287700066417
 30
0.0
 11
18.5259006582753
 21
42.70287700066207
 31
0.0
  0
LINE
  5
51
330
1F
100
AcDbEntity
  8
1
  6
DOT_CENTER
 62
     2
100
AcDbLine
 10
18.5259006582753
 20
42.70287700066207
 30
0.0
 11
-44.4740993417247
 21
42.70287700066207
 31
0.0
  0
LINE
  5
52
330
1F
100
AcDbEntity
  8
1
  6
DOT_CENTER
 62
     2
100
AcDbLine
 10
-44.4740993417247
 20
42.70287700066207
 30
0.0
 11
-44.4740993417247
 21
-17.29712299933799
 31
0.0
  0
LINE
  5
53
330
1F
100
AcDbEntity
  8
1
  6
Continuous
 62
     7
100
AcDbLine
 10
-44.4740993417247
 20
-17.29712299933799
 30
0.0
 11
-18.4740993417247
 21
-17.29712299933799
 31
0.0
  0
LINE
  5
54
330
1F
100
AcDbEntity
  8
1
  6
DOT_CENTER
 62
     2
100
AcDbLine
 10
-44.4740993417247
 20
42.70287700066207
 30
0.0
 11
-44.4740993417247
 21
44.63813777163706
 31
0.0
  0
LINE
  5
55
330
1F
100
AcDbEntity
  8
1
  6
DOT_CENTER
 62
     2
100
AcDbLine
 10
-44.4740993417247
 20
42.70287700066207
 30
0.0
 11
-47.00482496530771
 21
42.70287700066207
 31
0.0
  0
LINE
  5
56
330
1F
100
AcDbEntity
  8
1
  6
DOT_CENTER
 62
     2
100
AcDbLine
 10
18.5259006582753
 20
42.70287700066207
 30
0.0
 11
21.3471403731063
 21
42.70287700066207
 31
0.0
  0
LINE
  5
57
330
1F
100
AcDbEntity
  8
1
  6
Continuous
 62
     7
100
AcDbLine
 10
7.8353017350338
 20
24.70287700066417
 30
0.0
 11
6.52590065827531
 21
26.97082619309527
 31
0.0
  0
LINE
  5
58
330
1F
100
AcDbEntity
  8
1
  6
Continuous
 62
     7
100
AcDbLine
 10
6.52590065827531
 20
27.70287700066417
 30
0.0
 11
17.52590065827542
 21
27.70287700066417
 31
0.0
  0
LINE
  5
59
330
1F
100
AcDbEntity
  8
1
  6
Continuous
 62
     7
100
AcDbLine
 10
6.52590065827531
 20
26.97082619309527
 30
0.0
 11
6.52590065827531
 21
27.70287700066417
 31
0.0
  0
LINE
  5
5A
330
1F
100
AcDbEntity
  8
1
  6
Continuous
 62
     7
100
AcDbLine
 10
17.52590065827542
 20
27.70287700066417
 30
0.0
 11
17.52590065827542
 21
26.97082619309527
 31
0.0
  0
LINE
  5
5B
330
1F
100
AcDbEntity
  8
1
  6
Continuous
 62
     7
100
AcDbLine
 10
17.52590065827542
 20
26.97082619309527
 30
0.0
 11
16.21649958151693
 21
24.70287700066417
 31
0.0
  0
LINE
  5
5C
330
1F
100
AcDbEntity
  8
1
  6
Continuous
 62
     7
100
AcDbLine
 10
18.52590065827542
 20
26.70287700066417
 30
0.0
 11
18.5259006582753
 21
28.70287700066417
 31
0.0
  0
LINE
  5
5D
330
1F
100
AcDbEntity
  8
1
  6
Continuous
 62
     7
100
AcDbLine
 10
16.79384985070652
 20
23.70287700066417
 30
0.0
 11
18.52590065827542
 21
26.70287700066417
 31
0.0
  0
LINE
  5
5E
330
1F
100
AcDbEntity
  8
1
  6
Continuous
 62
     7
100
AcDbLine
 10
16.21649958151693
 20
24.70287700066417
 30
0.0
 11
7.8353017350338
 21
24.70287700066417
 31
0.0
  0
LINE
  5
5F
330
1F
100
AcDbEntity
  8
1
  6
Continuous
 62
     7
100
AcDbLine
 10
5.52590065827531
 20
26.70287700066417
 30
0.0
 11
7.2579514658442
 21
23.70287700066417
 31
0.0
  0
LINE
  5
60
330
1F
100
AcDbEntity
  8
1
  6
Continuous
 62
     7
100
AcDbLine
 10
7.2579514658442
 20
23.70287700066417
 30
0.0
 11
9.0259006582753
 21
23.70287700066417
 31
0.0
  0
LINE
  5
61
330
1F
100
AcDbEntity
  8
1
  6
DASHED
 62
     2
100
AcDbLine
 10
13.0259006582753
 20
14.70287700066189
 30
0.0
 11
52.52590065827531
 21
14.7028770006447
 31
0.0
  0
LINE
  5
62
330
1F
100
AcDbEntity
  8
1
  6
DASHED
 62
     2
100
AcDbLine
 10
52.52590065827531
 20
2.7028770006447
 30
0.0
 11
13.0259006582753
 21
2.7028770006619
 31
0.0
  0
LINE
  5
63
330
1F
100
AcDbEntity
  8
1
  6
DASHED
 62
     2
100
AcDbLine
 10
52.52590065827531
 20
14.7028770006447
 30
0.0
 11
57.52590065827531
 21
13.36313103848909
 31
0.0
  0
LINE
  5
64
330
1F
100
AcDbEntity
  8
1
  6
DASHED
 62
     2
100
AcDbLine
 10
57.52590065827531
 20
13.36313103848909
 30
0.0
 11
57.52590065827531
 21
4.0426229628003
 31
0.0
  0
LINE
  5
65
330
1F
100
AcDbEntity
  8
1
  6
DASHED
 62
     2
100
AcDbLine
 10
57.52590065827531
 20
4.0426229628003
 30
0.0
 11
52.52590065827531
 21
2.7028770006447
 31
0.0
  0
LINE
  5
66
330
1F
100
AcDbEntity
  8
1
  6
DASHED
 62
     2
100
AcDbLine
 10
52.52590065827531
 20
14.7028770006447
 30
0.0
 11
52.52590065827531
 21
2.7028770006447
 31
0.0
  0
LINE
  5
67
330
1F
100
AcDbEntity
  8
1
  6
DOT_CENTER
 62
     2
100
AcDbLine
 10
64.5259006582753
 20
-17.29712299933811
 30
0.0
 11
64.5259006582753
 21
-22.33233427887989
 31
0.0
  0
LINE
  5
68
330
1F
100
AcDbEntity
  8
1
  6
DOT_CENTER
 62
     2
100
AcDbLine
 10
64.5259006582753
 20
23.70287700066417
 30
0.0
 11
64.5259006582753
 21
26.98177705028018
 31
0.0
  0
LINE
  5
69
330
1F
100
AcDbEntity
  8
1
  6
Continuous
 62
     7
100
AcDbLine
 10
-8.4740993417247
 20
10.2028770006619
 30
0.0
 11
-8.4740993417247
 21
-17.29712299933802
 31
0.0
  0
LINE
  5
6A
330
1F
100
AcDbEntity
  8
1
  6
Continuous
 62
     7
100
AcDbLine
 10
-4.47409934172469
 20
-17.29712299933803
 30
0.0
 11
-4.47409934172469
 21
-20.5471229993381
 31
0.0
  0
LINE
  5
6B
330
1F
100
AcDbEntity
  8
1
  6
Continuous
 62
     7
100
AcDbLine
 10
-8.4740993417247
 20
-17.29712299933802
 30
0.0
 11
-8.4740993417247
 21
-20.5471229993381
 31
0.0
  0
LINE
  5
6C
330
1F
100
AcDbEntity
  8
1
  6
Continuous
 62
     7
100
AcDbLine
 10
-4.47409934172469
 20
10.2028770006619
 30
0.0
 11
-4.47409934172469
 21
-17.29712299933803
 31
0.0
  0
LINE
  5
6D
330
1F
100
AcDbEntity
  8
1
  6
Continuous
 62
     7
100
AcDbLine
 10
-4.47409934172469
 20
10.2028770006619
 30
0.0
 11
-8.4740993417247
 21
10.2028770006619
 31
0.0
  0
LINE
  5
6E
330
1F
100
AcDbEntity
  8
1
  6
DASHED
 62
     2
100
AcDbLine
 10
9.0259006582753
 20
-20.5471229993381
 30
0.0
 11
13.0259006582753
 21
-20.5471229993381
 31
0.0
  0
LINE
  5
6F
330
1F
100
AcDbEntity
  8
1
  6
Continuous
 62
     7
100
AcDbLine
 10
9.0259006582753
 20
16.7028770006619
 30
0.0
 11
13.0259006582753
 21
16.7028770006619
 31
0.0
  0
LINE
  5
70
330
1F
100
AcDbEntity
  8
1
  6
Continuous
 62
     7
100
AcDbLine
 10
9.0259006582753
 20
-20.5471229993381
 30
0.0
 11
9.0259006582753
 21
-17.29712299933803
 31
0.0
  0
LINE
  5
71
330
1F
100
AcDbEntity
  8
1
  6
Continuous
 62
     7
100
AcDbLine
 10
13.0259006582753
 20
16.7028770006619
 30
0.0
 11
13.0259006582753
 21
12.2028770006619
 31
0.0
  0
LINE
  5
72
330
1F
100
AcDbEntity
  8
1
  6
Continuous
 62
     7
100
AcDbLine
 10
9.0259006582753
 20
16.7028770006619
 30
0.0
 11
9.0259006582753
 21
23.70287700066417
 31
0.0
  0
LINE
  5
73
330
1F
100
AcDbEntity
  8
1
  6
Continuous
 62
     7
100
AcDbLine
 10
9.0259006582753
 20
23.70287700066417
 30
0.0
 11
64.5259006582753
 21
23.70287700066417
 31
0.0
  0
LINE
  5
74
330
1F
100
AcDbEntity
  8
1
  6
DOT_CENTER
 62
     2
100
AcDbLine
 10
64.5259006582753
 20
23.70287700066417
 30
0.0
 11
64.5259006582753
 21
-17.29712299933811
 31
0.0
  0
LINE
  5
75
330
1F
100
AcDbEntity
  8
1
  6
Continuous
 62
     7
100
AcDbLine
 10
64.5259006582753
 20
-17.29712299933811
 30
0.0
 11
13.0259006582753
 21
-17.29712299933811
 31
0.0
  0
LINE
  5
76
330
1F
100
AcDbEntity
  8
1
  6
Continuous
 62
     7
100
AcDbLine
 10
13.0259006582753
 20
-17.29712299933811
 30
0.0
 11
13.0259006582753
 21
-20.63473264651404
 31
0.0
  0
LINE
  5
77
330
1F
100
AcDbEntity
  8
1
  6
DASHED
 62
     2
100
AcDbLine
 10
13.0259006582753
 20
-17.29712299933811
 30
0.0
 11
9.0259006582753
 21
-17.29712299933803
 31
0.0
  0
LINE
  5
78
330
1F
100
AcDbEntity
  8
1
  6
Continuous
 62
     7
100
AcDbLine
 10
9.0259006582753
 20
-17.29712299933803
 30
0.0
 11
9.0259006582753
 21
-11.4471229993381
 31
0.0
  0
LINE
  5
79
330
1F
100
AcDbEntity
  8
1
  6
Continuous
 62
     7
100
AcDbLine
 10
9.0259006582753
 20
-20.5471229993381
 30
0.0
 11
9.01559777169921
 21
-20.78220998923492
 31
0.0
  0
LINE
  5
7A
330
1F
100
AcDbEntity
  8
1
  6
Continuous
 62
     7
100
AcDbLine
 10
13.0259006582753
 20
-20.63473264651404
 30
0.0
 11
12.51511223169846
 21
-32.28969097214073
 31
0.0
  0
LINE
  5
7B
330
1F
100
AcDbEntity
  8
1
  6
Continuous
 62
     7
100
AcDbLine
 10
8.89559077609698
 20
-23.5204798085046
 30
0.0
 11
8.51894811670357
 21
-32.11455569292202
 31
0.0
  0
LINE
  5
7C
330
1F
100
AcDbEntity
  8
1
  6
Continuous
 62
     7
100
AcDbLine
 10
8.89559077609698
 20
-23.5204798085046
 30
0.0
 11
6.18636762309372
 21
-26.46328627635651
 31
0.0
  0
LINE
  5
7D
330
1F
100
AcDbEntity
  8
1
  6
Continuous
 62
     7
100
AcDbLine
 10
-8.4740993417247
 20
-20.5471229993381
 30
0.0
 11
-9.85988614375515
 21
-30.1981382277645
 31
0.0
  0
LINE
  5
7E
102
{ACAD_REACTORS
330
101
330
101
102
}
330
1F
100
AcDbEntity
  8
1
  6
Continuous
 62
     7
100
AcDbLine
 10
-4.67782976062219
 20
-22.25167413094566
 30
0.0
 11
-4.51470847878053
 21
-21.11565091811983
 31
0.0
  0
LINE
  5
7F
330
1F
100
AcDbEntity
  8
1
  6
DOT_CENTER
 62
     2
100
AcDbLine
 10
15.15090065827531
 20
-31.7971229993381
 30
0.0
 11
-12.5990993417247
 21
-31.7971229993381
 31
0.0
  0
LINE
  5
80
330
1F
100
AcDbEntity
  8
1
  6
DOT_CENTER
 62
     2
100
AcDbLine
 10
1.2759006582753
 20
-17.9221229993381
 30
0.0
 11
1.2759006582753
 21
-45.6721229993381
 31
0.0
  0
LINE
  5
81
330
1F
100
AcDbEntity
  8
1
  6
DOT_CENTER
 62
     2
100
AcDbLine
 10
59.52590065827531
 20
8.7028770006619
 30
0.0
 11
7.52590065827531
 21
8.7028770006619
 31
0.0
  0
LINE
  5
82
330
1F
100
AcDbEntity
  8
1
  6
DASHED
 62
     2
100
AcDbLine
 10
13.0259006582753
 20
5.2028770006619
 30
0.0
 11
12.67590065827531
 21
5.2028770006619
 31
0.0
  0
LINE
  5
83
330
1F
100
AcDbEntity
  8
1
  6
Continuous
 62
     7
100
AcDbLine
 10
13.0259006582753
 20
5.2028770006619
 30
0.0
 11
13.0259006582753
 21
-1.7971229993381
 31
0.0
  0
LINE
  5
84
330
1F
100
AcDbEntity
  8
1
  6
DASHED
 62
     2
100
AcDbLine
 10
12.67590065827531
 20
5.2028770006619
 30
0.0
 11
10.02590065827531
 21
2.5528770006619
 31
0.0
  0
LINE
  5
85
330
1F
100
AcDbEntity
  8
1
  6
DASHED
 62
     2
100
AcDbLine
 10
13.0259006582753
 20
12.2028770006619
 30
0.0
 11
12.67590065827531
 21
12.2028770006619
 31
0.0
  0
LINE
  5
86
330
1F
100
AcDbEntity
  8
1
  6
Continuous
 62
     7
100
AcDbLine
 10
13.0259006582753
 20
12.2028770006619
 30
0.0
 11
13.0259006582753
 21
5.2028770006619
 31
0.0
  0
LINE
  5
87
330
1F
100
AcDbEntity
  8
1
  6
DASHED
 62
     2
100
AcDbLine
 10
12.67590065827531
 20
12.2028770006619
 30
0.0
 11
10.02590065827531
 21
14.8528770006619
 31
0.0
  0
LINE
  5
88
330
1F
100
AcDbEntity
  8
1
  6
DASHED
 62
     2
100
AcDbLine
 10
12.67590065827531
 20
5.2028770006619
 30
0.0
 11
12.67590065827531
 21
12.2028770006619
 31
0.0
  0
LINE
  5
89
330
1F
100
AcDbEntity
  8
1
  6
DASHED
 62
     2
100
AcDbLine
 10
10.02590065827531
 20
2.5528770006619
 30
0.0
 11
10.02590065827531
 21
14.8528770006619
 31
0.0
  0
LINE
  5
8A
330
1F
100
AcDbEntity
  8
1
  6
DASHED
 62
     2
100
AcDbLine
 10
10.02590065827531
 20
2.5528770006619
 30
0.0
 11
9.0259006582753
 21
2.5528770006619
 31
0.0
  0
LINE
  5
8B
330
1F
100
AcDbEntity
  8
1
  6
Continuous
 62
     7
100
AcDbLine
 10
9.0259006582753
 20
2.5528770006619
 30
0.0
 11
9.0259006582753
 21
14.8528770006619
 31
0.0
  0
LINE
  5
8C
330
1F
100
AcDbEntity
  8
1
  6
DASHED
 62
     2
100
AcDbLine
 10
10.02590065827531
 20
14.8528770006619
 30
0.0
 11
9.0259006582753
 21
14.8528770006619
 31
0.0
  0
LINE
  5
8D
330
1F
100
AcDbEntity
  8
1
  6
Continuous
 62
     7
100
AcDbLine
 10
9.0259006582753
 20
14.8528770006619
 30
0.0
 11
9.0259006582753
 21
16.7028770006619
 31
0.0
  0
LINE
  5
8E
330
1F
100
AcDbEntity
  8
1
  6
DOT_CENTER
 62
     2
100
AcDbLine
 10
44.5259006582753
 20
-5.2971229993381
 30
0.0
 11
7.52590065827531
 21
-5.2971229993381
 31
0.0
  0
LINE
  5
8F
330
1F
100
AcDbEntity
  8
1
  6
DASHED
 62
     2
100
AcDbLine
 10
13.0259006582753
 20
-8.7971229993381
 30
0.0
 11
12.67590065827531
 21
-8.7971229993381
 31
0.0
  0
LINE
  5
90
330
1F
100
AcDbEntity
  8
1
  6
Continuous
 62
     7
100
AcDbLine
 10
13.0259006582753
 20
-8.7971229993381
 30
0.0
 11
13.0259006582753
 21
-17.29712299933811
 31
0.0
  0
LINE
  5
91
330
1F
100
AcDbEntity
  8
1
  6
DASHED
 62
     2
100
AcDbLine
 10
12.67590065827531
 20
-8.7971229993381
 30
0.0
 11
10.02590065827531
 21
-11.4471229993381
 31
0.0
  0
LINE
  5
92
330
1F
100
AcDbEntity
  8
1
  6
DASHED
 62
     2
100
AcDbLine
 10
13.0259006582753
 20
-1.7971229993381
 30
0.0
 11
12.67590065827531
 21
-1.7971229993381
 31
0.0
  0
LINE
  5
93
330
1F
100
AcDbEntity
  8
1
  6
Continuous
 62
     7
100
AcDbLine
 10
13.0259006582753
 20
-1.7971229993381
 30
0.0
 11
13.0259006582753
 21
-8.7971229993381
 31
0.0
  0
LINE
  5
94
330
1F
100
AcDbEntity
  8
1
  6
DASHED
 62
     2
100
AcDbLine
 10
12.67590065827531
 20
-1.7971229993381
 30
0.0
 11
10.02590065827531
 21
0.8528770006619
 31
0.0
  0
LINE
  5
95
330
1F
100
AcDbEntity
  8
1
  6
DASHED
 62
     2
100
AcDbLine
 10
12.67590065827531
 20
-8.7971229993381
 30
0.0
 11
12.67590065827531
 21
-1.7971229993381
 31
0.0
  0
LINE
  5
96
330
1F
100
AcDbEntity
  8
1
  6
DASHED
 62
     2
100
AcDbLine
 10
10.02590065827531
 20
-11.4471229993381
 30
0.0
 11
10.02590065827531
 21
0.8528770006619
 31
0.0
  0
LINE
  5
97
330
1F
100
AcDbEntity
  8
1
  6
DASHED
 62
     2
100
AcDbLine
 10
10.02590065827531
 20
-11.4471229993381
 30
0.0
 11
9.0259006582753
 21
-11.4471229993381
 31
0.0
  0
LINE
  5
98
330
1F
100
AcDbEntity
  8
1
  6
Continuous
 62
     7
100
AcDbLine
 10
9.0259006582753
 20
-11.4471229993381
 30
0.0
 11
9.0259006582753
 21
0.8528770006619
 31
0.0
  0
LINE
  5
99
330
1F
100
AcDbEntity
  8
1
  6
DASHED
 62
     2
100
AcDbLine
 10
10.02590065827531
 20
0.8528770006619
 30
0.0
 11
9.0259006582753
 21
0.8528770006619
 31
0.0
  0
LINE
  5
9A
330
1F
100
AcDbEntity
  8
1
  6
Continuous
 62
     7
100
AcDbLine
 10
9.0259006582753
 20
0.8528770006619
 30
0.0
 11
9.0259006582753
 21
2.5528770006619
 31
0.0
  0
LINE
  5
9B
330
1F
100
AcDbEntity
  8
1
  6
DOT_CENTER
 62
     2
100
AcDbLine
 10
44.52590065827531
 20
4.7028770006619
 30
0.0
 11
7.52590065827531
 21
4.7028770006619
 31
0.0
  0
LINE
  5
9C
102
{ACAD_REACTORS
330
102
330
102
102
}
330
1F
100
AcDbEntity
  8
1
  6
Continuous
 62
     7
100
AcDbLine
 10
9.01559777169921
 20
-20.78220998923492
 30
0.0
 11
8.89559077609698
 21
-23.5204798085046
 31
0.0
  0
ARC
  5
9D
330
1F
100
AcDbEntity
  8
1
  6
Continuous
 62
     7
100
AcDbCircle
 10
1.2759006582753
 20
-31.7971229993381
 30
0.0
 40
11.25
100
AcDbArc
 50
171.8287664400503
 51
-2.50943029423389
  0
ARC
  5
9E
330
1F
100
AcDbEntity
  8
1
  6
Continuous
 62
     7
100
AcDbCircle
 10
1.2759006582753
 20
-31.7971229993381
 30
0.0
 40
7.250000000000003
100
AcDbArc
 50
-2.50943029423388
 51
47.36653511224972
  0
ARC
  5
9F
330
1F
100
AcDbEntity
  8
1
  6
Continuous
 62
     7
100
AcDbCircle
 10
1.2759006582753
 20
-31.7971229993381
 30
0.0
 40
7.250000000000001
100
AcDbArc
 50
47.36653511224972
 51
-2.50943029423388
  0
ARC
  5
A0
330
1F
100
AcDbEntity
  8
1
  6
Continuous
 62
     7
100
AcDbCircle
 10
1.2759006582753
 20
-31.7971229993381
 30
0.0
 40
11.24999999999999
100
AcDbArc
 50
121.9528010335667
 51
171.8287664400503
  0
ARC
  5
A1
102
{ACAD_REACTORS
330
101
330
101
102
}
330
1F
100
AcDbEntity
  8
1
  6
Continuous
 62
     7
100
AcDbCircle
 10
1.2759006582753
 20
-31.7971229993381
 30
0.0
 40
11.24999999999999
100
AcDbArc
 50
112.1656463371187
 51
121.9528010335667
  0
ARC
  5
A2
102
{ACAD_REACTORS
330
101
330
101
102
}
330
1F
100
AcDbEntity
  8
1
  6
Continuous
 62
     3
100
AcDbCircle
 10
-1.83286521701518
 20
-17.54314525333696
 30
0.0
 40
4.000000000000013
100
AcDbArc
 50
-131.3234073777927
 51
-106.4945552825762
  0
ARC
  5
A3
330
1F
100
AcDbEntity
  8
1
  6
Continuous
 62
     7
100
AcDbCircle
 10
1.2759006582753
 20
-31.7971229993381
 30
0.0
 40
11.24999999999999
100
AcDbArc
 50
62.54951973248698
 51
112.1656463371187
  0
ARC
  5
A4
102
{ACAD_REACTORS
330
102
330
102
102
}
330
1F
100
AcDbEntity
  8
1
  6
Continuous
 62
     3
100
AcDbCircle
 10
6.33216067836642
 20
-17.81587127524328
 30
0.0
 40
3.99999999999999
100
AcDbArc
 50
-88.14063507627088
 51
-47.86658138496838
  0
ARC
  5
A5
102
{ACAD_REACTORS
330
102
330
102
102
}
330
1F
100
AcDbEntity
  8
1
  6
Continuous
 62
     7
100
AcDbCircle
 10
1.2759006582753
 20
-31.7971229993381
 30
0.0
 40
11.25
100
AcDbArc
 50
47.36653511224973
 51
62.54951973248698
  0
ARC
  5
A6
102
{ACAD_REACTORS
330
101
330
101
102
}
330
1F
100
AcDbEntity
  8
1
  6
Continuous
 62
     7
100
AcDbCircle
 10
-8.4740993417247
 20
-20.5471229993381
 30
0.0
 40
4.0
100
AcDbArc
 50
-8.1712335599498
 51
0.0
  0
DIMENSION
  5
B3
330
1F
100
AcDbEntity
  8
1
100
AcDbDimension
  2
*D1
 10
5.52590065827531
 20
62.9782290576162
 30
0.0
 11
-0.33367655823767
 21
66.7282290576162
 31
0.0
 70
    32
  1
<>
 71
     5
 42
-1.0
 53
0.00013888888889
  3
ME10_DIM_10
100
AcDbAlignedDimension
 13
-4.47409934172469
 23
10.2028770006619
 33
0.0
 14
5.52590065827531
 24
-17.29712299933806
 34
0.0
100
AcDbRotatedDimension
  0
DIMENSION
  5
C0
330
1F
100
AcDbEntity
  8
1
100
AcDbDimension
  2
*D2
 10
1.27590065827531
 20
53.6019710710963
 30
0.0
 11
-11.79431768570781
 21
57.3519710710963
 31
0.0
 70
    32
  1
<>
 71
     5
 42
-1.0
 53
0.00013888888889
  3
ME10_DIM_11
100
AcDbAlignedDimension
 13
-4.47409934172469
 23
-17.29712299933803
 33
0.0
 14
1.2759006582753
 24
-17.9221229993381
 34
0.0
100
AcDbRotatedDimension
  0
DIMENSION
  5
CB
330
1F
100
AcDbEntity
  8
1
100
AcDbDimension
  2
*D3
 10
74.32051185568095
 20
16.7028770006619
 30
0.0
 11
70.57051185568095
 21
-6.02012450818596
 31
0.0
 70
    32
  1
<>
 71
     5
 42
-1.0
 53
90.0
  3
ME10_DIM_12
100
AcDbAlignedDimension
 13
15.15090065827531
 23
-31.7971229993381
 33
0.0
 14
13.0259006582753
 24
16.7028770006619
 34
0.0
 50
90.0
100
AcDbRotatedDimension
  0
DIMENSION
  5
D6
330
1F
100
AcDbEntity
  8
1
100
AcDbDimension
  2
*D4
 10
-53.98330910843946
 20
-17.29712299933799
 30
0.0
 11
-57.73330910843946
 21
-23.072039340796
 31
0.0
 70
    32
  1
<>
 71
     5
 42
-1.0
 53
90.0
  3
ME10_DIM_13
100
AcDbAlignedDimension
 13
-12.5990993417247
 23
-31.7971229993381
 33
0.0
 14
-44.4740993417247
 24
-17.29712299933799
 34
0.0
 50
90.0
100
AcDbRotatedDimension
  0
DIMENSION
  5
E1
330
1F
100
AcDbEntity
  8
1
100
AcDbDimension
  2
*D5
 10
-63.7933521152157
 20
10.2028770006619
 30
0.0
 11
-67.5433521152157
 21
-11.20300761375786
 31
0.0
 70
    32
  1
<>
 71
     5
 42
-1.0
 53
90.0
  3
ME10_DIM_14
100
AcDbAlignedDimension
 13
-12.5990993417247
 23
-31.7971229993381
 33
0.0
 14
-8.4740993417247
 24
10.2028770006619
 34
0.0
 50
90.0
100
AcDbRotatedDimension
  0
DIMENSION
  5
F3
330
1F
100
AcDbEntity
  8
1
100
AcDbDimension
  2
*D6
 10
5.5259006582753
 20
-54.30371197810482
 30
0.0
 11
0.25603711956999
 21
-50.55371197810482
 31
0.0
 70
    32
  1
<>
 71
     5
 42
-1.0
 53
0.00013888888889
  3
ME10_DIM_15
100
AcDbAlignedDimension
 13
9.0259006582753
 23
-20.5471229993381
 33
0.0
 14
5.52590065827531
 24
-17.29712299933806
 34
0.0
100
AcDbRotatedDimension
  0
DIMENSION
  5
100
330
1F
100
AcDbEntity
  8
1
100
AcDbDimension
  2
*D8
 10
9.0259006582753
 20
-54.30371197810482
 30
0.0
 11
16.89994403035244
 21
-49.88795570167352
 31
0.0
 70
    32
  1
<>
 71
     5
 42
-1.0
 53
0.00013888888889
  3
ME10_DIM_16
100
AcDbAlignedDimension
 13
13.0259006582753
 23
-20.63473264651404
 33
0.0
 14
9.0259006582753
 24
-20.5471229993381
 34
0.0
100
AcDbRotatedDimension
  0
HATCH
  5
101
330
1F
100
AcDbEntity
  8
1
  6
Continuous
 62
     3
100
AcDbHatch
 10
0.0
 20
0.0
 30
0.0
210
0.0
220
0.0
230
1.0
  2
SOLID
 70
     1
 71
     1
 91
        1
 92
        1
 93
        4
 72
     1
 10
-4.677829760622191
 20
-22.25167413094566
 11
-4.514708478780533
 21
-21.11565091811983
 72
     2
 10
-8.474099341724695
 20
-20.5471229993381
 40
4.0
 50
351.8287664400502
 51
360.0
 73
     1
 72
     2
 10
-1.832865217015184
 20
-17.54314525333696
 40
4.000000000000013
 50
228.6765926222073
 51
253.5054447174238
 73
     1
 72
     2
 10
1.275900658275305
 20
-31.7971229993381
 40
11.24999999999999
 50
112.1656463371187
 51
121.9528010335667
 73
     1
 97
        4
330
A2
330
A6
330
7E
330
A1
 75
     0
 76
     1
 98
        1
 10
0.0
 20
0.0
  0
HATCH
  5
102
330
1F
100
AcDbEntity
  8
1
  6
Continuous
 62
     3
100
AcDbHatch
 10
0.0
 20
0.0
 30
0.0
210
0.0
220
0.0
230
1.0
  2
SOLID
 70
     1
 71
     1
 91
        1
 92
        1
 93
        3
 72
     2
 10
1.275900658275305
 20
-31.7971229993381
 40
11.25
 50
47.36653511224973
 51
62.54951973248698
 73
     1
 72
     2
 10
6.33216067836642
 20
-17.81587127524328
 40
3.99999999999999
 50
271.8593649237291
 51
312.1334186150316
 73
     1
 72
     1
 10
9.015597771699207
 20
-20.78220998923492
 11
8.895590776096984
 21
-23.5204798085046
 97
        3
330
A4
330
A5
330
9C
 75
     0
 76
     1
 98
        1
 10
0.0
 20
0.0
  0
ENDSEC
  0
SECTION
  2
OBJECTS
  0
DICTIONARY
  5
C
330
0
100
AcDbDictionary
281
     1
  3
ACAD_GROUP
350
D
  3
ACAD_LAYOUT
350
1A
  3
ACAD_MLINESTYLE
350
17
  3
ACAD_PLOTSETTINGS
350
19
  3
ACAD_PLOTSTYLENAME
350
E
  0
DICTIONARY
  5
D
102
{ACAD_REACTORS
330
C
102
}
330
C
100
AcDbDictionary
281
     1
  0
DICTIONARY
  5
1A
102
{ACAD_REACTORS
330
C
102
}
330
C
100
AcDbDictionary
281
     1
  3
Layout1
350
1E
  3
Layout2
350
26
  3
Model
350
22
  0
DICTIONARY
  5
17
102
{ACAD_REACTORS
330
C
102
}
330
C
100
AcDbDictionary
281
     1
  3
Standard
350
18
  0
DICTIONARY
  5
19
102
{ACAD_REACTORS
330
C
102
}
330
C
100
AcDbDictionary
281
     1
  0
ACDBDICTIONARYWDFLT
  5
E
102
{ACAD_REACTORS
330
C
102
}
330
C
100
AcDbDictionary
281
     1
  3
Normal
350
F
100
AcDbDictionaryWithDefault
340
F
  0
LAYOUT
  5
1E
102
{ACAD_REACTORS
330
1A
102
}
330
1A
100
AcDbPlotSettings
  1

  2

  4

  6

 40
0.0
 41
0.0
 42
0.0
 43
0.0
 44
0.0
 45
0.0
 46
0.0
 47
0.0
 48
0.0
 49
0.0
140
0.0
141
0.0
142
1.0
143
1.0
 70
   688
 72
     0
 73
     0
 74
     5
  7

 75
    16
 76
     0
 77
     2
 78
   300
147
1.0
148
0.0
149
0.0
100
AcDbLayout
  1
Layout1
 70
     1
 71
     1
 10
0.0
 20
0.0
 11
0.0
 21
0.0
 12
0.0
 22
0.0
 32
0.0
 14
0.0
 24
0.0
 34
0.0
 15
0.0
 25
0.0
 35
0.0
146
0.0
 13
0.0
 23
0.0
 33
0.0
 16
1.0
 26
0.0
 36
0.0
 17
0.0
 27
1.0
 37
0.0
 76
     0
330
1B
  0
LAYOUT
  5
26
102
{ACAD_REACTORS
330
1A
102
}
330
1A
100
AcDbPlotSettings
  1

  2

  4

  6

 40
0.0
 41
0.0
 42
0.0
 43
0.0
 44
0.0
 45
0.0
 46
0.0
 47
0.0
 48
0.0
 49
0.0
140
0.0
141
0.0
142
1.0
143
1.0
 70
   688
 72
     0
 73
     0
 74
     5
  7

 75
    16
 76
     0
 77
     2
 78
   300
147
1.0
148
0.0
149
0.0
100
AcDbLayout
  1
Layout2
 70
     1
 71
     2
 10
0.0
 20
0.0
 11
0.0
 21
0.0
 12
0.0
 22
0.0
 32
0.0
 14
0.0
 24
0.0
 34
0.0
 15
0.0
 25
0.0
 35
0.0
146
0.0
 13
0.0
 23
0.0
 33
0.0
 16
1.0
 26
0.0
 36
0.0
 17
0.0
 27
1.0
 37
0.0
 76
     0
330
23
  0
LAYOUT
  5
22
102
{ACAD_REACTORS
330
1A
102
}
330
1A
100
AcDbPlotSettings
  1

  2

  4

  6

 40
0.0
 41
0.0
 42
0.0
 43
0.0
 44
0.0
 45
0.0
 46
0.0
 47
0.0
 48
0.0
 49
0.0
140
0.0
141
0.0
142
1.0
143
1.0
 70
  1712
 72
     0
 73
     0
 74
     0
  7

 75
     0
 76
     0
 77
     2
 78
   300
147
1.0
148
0.0
149
0.0
100
AcDbLayout
  1
Model
 70
     1
 71
     0
 10
0.0
 20
0.0
 11
0.0
 21
0.0
 12
0.0
 22
0.0
 32
0.0
 14
-69.2933521152157
 24
-56.30371197810482
 34
0.0
 15
76.32051185568095
 25
68.4782290576162
 35
0.0
146
0.0
 13
0.0
 23
0.0
 33
0.0
 16
1.0
 26
0.0
 36
0.0
 17
0.0
 27
1.0
 37
0.0
 76
     0
330
1F
  0
MLINESTYLE
  5
18
102
{ACAD_REACTORS
330
17
102
}
330
17
100
AcDbMlineStyle
  2
Standard
 70
     0
  3

 62
   256
 51
90.0
 52
90.0
 71
     2
 49
0.5
 62
   256
  6
BYLAYER
 49
-0.5
 62
   256
  6
BYLAYER
  0
ACDBPLACEHOLDER
  5
F
102
{ACAD_REACTORS
330
E
102
}
330
E
  0
ENDSEC
  0
EOF
