  0
SECTION
  2
HEADER
  9
$ACADVER
  1
AC1018
  9
$ACADMAINTVER
 70
     0
  9
$DWGCODEPAGE
  3
ANSI_1252
  9
$INSBASE
 10
0.0
 20
0.0
 30
0.0
  9
$EXTMIN
 10
110.545631102484
 20
178.998636016766
 30
0.0
  9
$EXTMAX
 10
258.615217746973
 20
345.531887593047
 30
0.0
  9
$LIMMIN
 10
0.0
 20
0.0
  9
$LIMMAX
 10
12.0
 20
9.0
  9
$ORTHOMODE
 70
     0
  9
$REGENMODE
 70
     1
  9
$FILLMODE
 70
     1
  9
$QTEXTMODE
 70
     0
  9
$MIRRTEXT
 70
     1
  9
$LTSCALE
 40
1.0
  9
$ATTMODE
 70
     1
  9
$TEXTSIZE
 40
0.2
  9
$TRACEWID
 40
0.05
  9
$TEXTSTYLE
  7
Standard
  9
$CLAYER
  8
0
  9
$CELTYPE
  6
ByLayer
  9
$CECOLOR
 62
   256
  9
$CELTSCALE
 40
1.0
  9
$DISPSILH
 70
     0
  9
$DIMSCALE
 40
1.0
  9
$DIMASZ
 40
0.18
  9
$DIMEXO
 40
0.0625
  9
$DIMDLI
 40
0.38
  9
$DIMRND
 40
0.0
  9
$DIMDLE
 40
0.0
  9
$DIMEXE
 40
0.18
  9
$DIMTP
 40
0.0
  9
$DIMTM
 40
0.0
  9
$DIMTXT
 40
0.18
  9
$DIMCEN
 40
0.09
  9
$DIMTSZ
 40
0.0
  9
$DIMTOL
 70
     0
  9
$DIMLIM
 70
     0
  9
$DIMTIH
 70
     1
  9
$DIMTOH
 70
     1
  9
$DIMSE1
 70
     0
  9
$DIMSE2
 70
     0
  9
$DIMTAD
 70
     0
  9
$DIMZIN
 70
     0
  9
$DIMBLK
  1

  9
$DIMASO
 70
     1
  9
$DIMSHO
 70
     1
  9
$DIMPOST
  1

  9
$DIMAPOST
  1

  9
$DIMALT
 70
     0
  9
$DIMALTD
 70
     2
  9
$DIMALTF
 40
25.4
  9
$DIMLFAC
 40
1.0
  9
$DIMTOFL
 70
     0
  9
$DIMTVP
 40
0.0
  9
$DIMTIX
 70
     0
  9
$DIMSOXD
 70
     0
  9
$DIMSAH
 70
     0
  9
$DIMBLK1
  1

  9
$DIMBLK2
  1

  9
$DIMSTYLE
  2
Standard
  9
$DIMCLRD
 70
     0
  9
$DIMCLRE
 70
     0
  9
$DIMCLRT
 70
     0
  9
$DIMTFAC
 40
1.0
  9
$DIMGAP
 40
0.09
  9
$DIMJUST
 70
     0
  9
$DIMSD1
 70
     0
  9
$DIMSD2
 70
     0
  9
$DIMTOLJ
 70
     1
  9
$DIMTZIN
 70
     0
  9
$DIMALTZ
 70
     0
  9
$DIMALTTZ
 70
     0
  9
$DIMUPT
 70
     0
  9
$DIMDEC
 70
     4
  9
$DIMTDEC
 70
     4
  9
$DIMALTU
 70
     2
  9
$DIMALTTD
 70
     2
  9
$DIMTXSTY
  7
Standard
  9
$DIMAUNIT
 70
     0
  9
$DIMADEC
 70
     0
  9
$DIMALTRND
 40
0.0
  9
$DIMAZIN
 70
     0
  9
$DIMDSEP
 70
    46
  9
$DIMATFIT
 70
     3
  9
$DIMFRAC
 70
     0
  9
$DIMLDRBLK
  1

  9
$DIMLUNIT
 70
     2
  9
$DIMLWD
 70
    -2
  9
$DIMLWE
 70
    -2
  9
$DIMTMOVE
 70
     0
  9
$LUNITS
 70
     2
  9
$LUPREC
 70
     4
  9
$SKETCHINC
 40
0.1
  9
$FILLETRAD
 40
0.5
  9
$AUNITS
 70
     0
  9
$AUPREC
 70
     0
  9
$MENU
  1
.
  9
$ELEVATION
 40
0.0
  9
$PELEVATION
 40
0.0
  9
$THICKNESS
 40
0.0
  9
$LIMCHECK
 70
     0
  9
$CHAMFERA
 40
0.5
  9
$CHAMFERB
 40
0.5
  9
$CHAMFERC
 40
1.0
  9
$CHAMFERD
 40
0.0
  9
$SKPOLY
 70
     0
  9
$TDCREATE
 40
2454642.445542454
  9
$TDUCREATE
 40
2454642.36220912
  9
$TDUPDATE
 40
2454642.445542465
  9
$TDUUPDATE
 40
2454642.362209132
  9
$TDINDWG
 40
0.0000000116
  9
$TDUSRTIMER
 40
0.0000000116
  9
$USRTIMER
 70
     1
  9
$ANGBASE
 50
0.0
  9
$ANGDIR
 70
     0
  9
$PDMODE
 70
     0
  9
$PDSIZE
 40
0.0
  9
$PLINEWID
 40
0.0
  9
$SPLFRAME
 70
     0
  9
$SPLINETYPE
 70
     6
  9
$SPLINESEGS
 70
     8
  9
$HANDSEED
  5
102
  9
$SURFTAB1
 70
     6
  9
$SURFTAB2
 70
     6
  9
$SURFTYPE
 70
     6
  9
$SURFU
 70
     6
  9
$SURFV
 70
     6
  9
$UCSBASE
  2

  9
$UCSNAME
  2

  9
$UCSORG
 10
0.0
 20
0.0
 30
0.0
  9
$UCSXDIR
 10
1.0
 20
0.0
 30
0.0
  9
$UCSYDIR
 10
0.0
 20
1.0
 30
0.0
  9
$UCSORTHOREF
  2

  9
$UCSORTHOVIEW
 70
     0
  9
$UCSORGTOP
 10
0.0
 20
0.0
 30
0.0
  9
$UCSORGBOTTOM
 10
0.0
 20
0.0
 30
0.0
  9
$UCSORGLEFT
 10
0.0
 20
0.0
 30
0.0
  9
$UCSORGRIGHT
 10
0.0
 20
0.0
 30
0.0
  9
$UCSORGFRONT
 10
0.0
 20
0.0
 30
0.0
  9
$UCSORGBACK
 10
0.0
 20
0.0
 30
0.0
  9
$PUCSBASE
  2

  9
$PUCSNAME
  2

  9
$PUCSORG
 10
0.0
 20
0.0
 30
0.0
  9
$PUCSXDIR
 10
1.0
 20
0.0
 30
0.0
  9
$PUCSYDIR
 10
0.0
 20
1.0
 30
0.0
  9
$PUCSORTHOREF
  2

  9
$PUCSORTHOVIEW
 70
     0
  9
$PUCSORGTOP
 10
0.0
 20
0.0
 30
0.0
  9
$PUCSORGBOTTOM
 10
0.0
 20
0.0
 30
0.0
  9
$PUCSORGLEFT
 10
0.0
 20
0.0
 30
0.0
  9
$PUCSORGRIGHT
 10
0.0
 20
0.0
 30
0.0
  9
$PUCSORGFRONT
 10
0.0
 20
0.0
 30
0.0
  9
$PUCSORGBACK
 10
0.0
 20
0.0
 30
0.0
  9
$USERI1
 70
     0
  9
$USERI2
 70
     0
  9
$USERI3
 70
     0
  9
$USERI4
 70
     0
  9
$USERI5
 70
     0
  9
$USERR1
 40
14.5
  9
$USERR2
 40
0.0
  9
$USERR3
 40
0.0
  9
$USERR4
 40
0.0
  9
$USERR5
 40
0.0
  9
$WORLDVIEW
 70
     1
  9
$SHADEDGE
 70
     3
  9
$SHADEDIF
 70
    70
  9
$TILEMODE
 70
     1
  9
$MAXACTVP
 70
    64
  9
$PINSBASE
 10
0.0
 20
0.0
 30
0.0
  9
$PLIMCHECK
 70
     0
  9
$PEXTMIN
 10
1.00000000000000E+20
 20
1.00000000000000E+20
 30
1.00000000000000E+20
  9
$PEXTMAX
 10
-1.00000000000000E+20
 20
-1.00000000000000E+20
 30
-1.00000000000000E+20
  9
$PLIMMIN
 10
0.0
 20
0.0
  9
$PLIMMAX
 10
12.0
 20
9.0
  9
$UNITMODE
 70
     0
  9
$VISRETAIN
 70
     1
  9
$PLINEGEN
 70
     0
  9
$PSLTSCALE
 70
     1
  9
$TREEDEPTH
 70
  3020
  9
$CMLSTYLE
  2
Standard
  9
$CMLJUST
 70
     0
  9
$CMLSCALE
 40
1.0
  9
$PROXYGRAPHICS
 70
     1
  9
$MEASUREMENT
 70
     1
  9
$CELWEIGHT
370
    -1
  9
$ENDCAPS
280
     0
  9
$JOINSTYLE
280
     0
  9
$LWDISPLAY
290
     0
  9
$INSUNITS
 70
     1
  9
$HYPERLINKBASE
  1

  9
$STYLESHEET
  1

  9
$XEDIT
290
     1
  9
$CEPSNTYPE
380
     0
  9
$PSTYLEMODE
290
     1
  9
$FINGERPRINTGUID
  2
{9B2D50D5-76C6-47FF-8A46-6FFD99F0C86F}
  9
$VERSIONGUID
  2
{FAEB1C32-E019-11D5-929B-00C0DF256EC4}
  9
$EXTNAMES
290
     1
  9
$PSVPSCALE
 40
0.0
  9
$OLESTARTUP
290
     0
  9
$SORTENTS
280
   127
  9
$INDEXCTL
280
     0
  9
$HIDETEXT
280
     1
  9
$XCLIPFRAME
290
     0
  9
$HALOGAP
280
     0
  9
$OBSCOLOR
 70
   257
  9
$OBSLTYPE
280
     0
  9
$INTERSECTIONDISPLAY
280
     0
  9
$INTERSECTIONCOLOR
 70
   257
  9
$DIMASSOC
280
     2
  9
$PROJECTNAME
  1

  0
ENDSEC
  0
SECTION
  2
CLASSES
  0
CLASS
  1
ACDBDICTIONARYWDFLT
  2
AcDbDictionaryWithDefault
  3
ObjectDBX Classes
 90
        0
 91
        3
280
     0
281
     0
  0
CLASS
  1

  2
exOdDbCircle
  3

 90
        0
 91
        3
280
     0
281
     1
  0
ENDSEC
  0
SECTION
  2
TABLES
  0
TABLE
  2
VPORT
  5
8
330
0
100
AcDbSymbolTable
 70
     1
  0
VPORT
  5
29
330
8
100
AcDbSymbolTableRecord
100
AcDbViewportTableRecord
  2
*Active
 70
     0
 10
0.0
 20
0.0
 11
1.0
 21
1.0
 12
184.5804244247285
 22
262.2652618049065
 13
0.0
 23
0.0
 14
0.5
 24
0.5
 15
0.5
 25
0.5
 16
0.0
 26
0.0
 36
1.0
 17
0.0
 27
0.0
 37
0.0
 40
183.1865767339091
 41
1.60267857142857
 42
50.0
 43
0.0
 44
0.0
 50
0.0
 51
0.0
 71
     0
 72
   100
 73
     1
 74
     3
 75
     0
 76
     0
 77
     0
 78
     0
281
     0
 65
     1
110
0.0
120
0.0
130
0.0
111
1.0
121
0.0
131
0.0
112
0.0
122
1.0
132
0.0
 79
     0
146
0.0
  0
ENDTAB
  0
TABLE
  2
LTYPE
  5
5
330
0
100
AcDbSymbolTable
 70
     8
  0
LTYPE
  5
14
330
5
100
AcDbSymbolTableRecord
100
AcDbLinetypeTableRecord
  2
ByBlock
 70
     0
  3

 72
    65
 73
     0
 40
0.0
  0
LTYPE
  5
15
330
5
100
AcDbSymbolTableRecord
100
AcDbLinetypeTableRecord
  2
ByLayer
 70
     0
  3

 72
    65
 73
     0
 40
0.0
  0
LTYPE
  5
16
330
5
100
AcDbSymbolTableRecord
100
AcDbLinetypeTableRecord
  2
Continuous
 70
     0
  3
Solid line
 72
    65
 73
     0
 40
0.0
  0
LTYPE
  5
2A
330
5
100
AcDbSymbolTableRecord
100
AcDbLinetypeTableRecord
  2
DASHED
 70
     0
  3
Dashed
 72
    65
 73
     2
 40
15.0
 49
7.0
 74
     0
 49
-8.0
 74
     0
  0
LTYPE
  5
2B
330
5
100
AcDbSymbolTableRecord
100
AcDbLinetypeTableRecord
  2
DOTTED
 70
     0
  3
Dotted
 72
    65
 73
     2
 40
1.0
 49
0.0
 74
     0
 49
-1.0
 74
     0
  0
LTYPE
  5
2C
330
5
100
AcDbSymbolTableRecord
100
AcDbLinetypeTableRecord
  2
DOT_CENTER
 70
     0
  3
Dot_Center
 72
    65
 73
     4
 40
14.0
 49
12.0
 74
     0
 49
-1.0
 74
     0
 49
0.0
 74
     0
 49
-1.0
 74
     0
  0
LTYPE
  5
2D
330
5
100
AcDbSymbolTableRecord
100
AcDbLinetypeTableRecord
  2
LONG_DASHED
 70
     0
  3
Long_Dashed
 72
    65
 73
     2
 40
15.0
 49
10.0
 74
     0
 49
-5.0
 74
     0
  0
LTYPE
  5
2E
330
5
100
AcDbSymbolTableRecord
100
AcDbLinetypeTableRecord
  2
DASH_CENTER
 70
     0
  3
Dash_Center
 72
    65
 73
     4
 40
14.0
 49
11.0
 74
     0
 49
-1.0
 74
     0
 49
1.0
 74
     0
 49
-1.0
 74
     0
  0
LTYPE
  5
2F
330
5
100
AcDbSymbolTableRecord
100
AcDbLinetypeTableRecord
  2
PHANTOM
 70
     0
  3
Phantom
 72
    65
 73
     6
 40
13.0
 49
10.0
 74
     0
 49
-1.0
 74
     0
 49
0.0
 74
     0
 49
-1.0
 74
     0
 49
0.0
 74
     0
 49
-1.0
 74
     0
  0
LTYPE
  5
30
330
5
100
AcDbSymbolTableRecord
100
AcDbLinetypeTableRecord
  2
CENTER_DASH_DASH
 70
     0
  3
Center_Dash_Dash
 72
    65
 73
     6
 40
14.0
 49
9.0
 74
     0
 49
-1.0
 74
     0
 49
1.0
 74
     0
 49
-1.0
 74
     0
 49
1.0
 74
     0
 49
-1.0
 74
     0
  0
ENDTAB
  0
TABLE
  2
LAYER
  5
2
330
0
100
AcDbSymbolTable
 70
     2
  0
LAYER
  5
10
330
2
100
AcDbSymbolTableRecord
100
AcDbLayerTableRecord
  2
0
 70
     0
 62
     7
  6
Continuous
370
    -3
390
F
  0
LAYER
  5
31
330
2
100
AcDbSymbolTableRecord
100
AcDbLayerTableRecord
  2
1
 70
     0
 62
     7
  6
Continuous
370
    -3
390
F
  0
ENDTAB
  0
TABLE
  2
STYLE
  5
3
330
0
100
AcDbSymbolTable
 70
     2
  0
STYLE
  5
11
330
3
100
AcDbSymbolTableRecord
100
AcDbTextStyleTableRecord
  2
Standard
 70
     0
 40
0.0
 41
1.0
 50
0.0
 71
     0
 42
0.2
  3
txt
  4

  0
STYLE
  5
62
330
3
100
AcDbSymbolTableRecord
100
AcDbTextStyleTableRecord
  2
CONVERTER_11
 70
     0
 40
0.0
 41
0.9
 50
0.0
 71
     0
 42
0.2
  3
txt.shx
  4

  0
ENDTAB
  0
TABLE
  2
VIEW
  5
6
330
0
100
AcDbSymbolTable
 70
     0
  0
ENDTAB
  0
TABLE
  2
UCS
  5
7
330
0
100
AcDbSymbolTable
 70
     0
  0
ENDTAB
  0
TABLE
  2
APPID
  5
9
330
0
100
AcDbSymbolTable
 70
     1
  0
APPID
  5
12
330
9
100
AcDbSymbolTableRecord
100
AcDbRegAppTableRecord
  2
ACAD
 70
     0
  0
ENDTAB
  0
TABLE
  2
DIMSTYLE
  5
A
330
0
100
AcDbSymbolTable
 70
    12
100
AcDbDimStyleTable
  0
DIMSTYLE
105
27
330
A
100
AcDbSymbolTableRecord
100
AcDbDimStyleTableRecord
  2
Standard
 70
     0
340
11
  0
DIMSTYLE
105
6E
102
{ACAD_REACTORS
330
6F
102
}
330
A
100
AcDbSymbolTableRecord
100
AcDbDimStyleTableRecord
  2
ME10_DIM_10
 70
     0
 41
3.5
 42
0.0
 44
2.0
 73
     0
 74
     0
 77
     1
 78
     8
140
3.5
147
2.0
172
     1
173
     1
176
     2
177
     2
178
     2
271
     3
340
62
  0
DIMSTYLE
105
79
102
{ACAD_REACTORS
330
7A
102
}
330
A
100
AcDbSymbolTableRecord
100
AcDbDimStyleTableRecord
  2
ME10_DIM_11
 70
     0
 41
3.5
 42
0.0
 44
2.0
 73
     0
 74
     0
 77
     1
 78
     8
140
3.5
147
2.0
172
     1
173
     1
176
     2
177
     2
178
     2
271
     3
340
62
  0
DIMSTYLE
105
84
102
{ACAD_REACTORS
330
85
102
}
330
A
100
AcDbSymbolTableRecord
100
AcDbDimStyleTableRecord
  2
ME10_DIM_12
 70
     0
 41
3.5
 42
0.0
 44
2.0
 73
     0
 74
     0
 77
     1
 78
     8
140
3.5
147
2.0
172
     1
173
     1
176
     2
177
     2
178
     2
271
     3
340
62
  0
DIMSTYLE
105
8F
102
{ACAD_REACTORS
330
90
102
}
330
A
100
AcDbSymbolTableRecord
100
AcDbDimStyleTableRecord
  2
ME10_DIM_13
 70
     0
 41
3.5
 42
0.0
 44
2.0
 73
     0
 74
     0
 77
     1
 78
     8
140
3.5
147
2.0
172
     1
173
     1
176
     2
177
     2
178
     2
271
     3
340
62
  0
DIMSTYLE
105
9A
102
{ACAD_REACTORS
330
9B
102
}
330
A
100
AcDbSymbolTableRecord
100
AcDbDimStyleTableRecord
  2
ME10_DIM_14
 70
     0
 41
3.5
 42
0.0
 44
2.0
 73
     0
 74
     0
 77
     1
 78
     8
140
3.5
147
2.0
172
     1
173
     1
176
     2
177
     2
178
     2
271
     3
340
62
  0
DIMSTYLE
105
A5
102
{ACAD_REACTORS
330
A6
102
}
330
A
100
AcDbSymbolTableRecord
100
AcDbDimStyleTableRecord
  2
ME10_DIM_15
 70
     0
 41
3.5
 42
0.0
 44
2.0
 73
     0
 74
     0
 77
     1
 78
     8
140
3.5
147
2.0
172
     1
173
     1
176
     2
177
     2
178
     2
271
     3
340
62
  0
DIMSTYLE
105
B0
102
{ACAD_REACTORS
330
B1
102
}
330
A
100
AcDbSymbolTableRecord
100
AcDbDimStyleTableRecord
  2
ME10_DIM_16
 70
     0
 41
3.5
 42
0.0
 44
2.0
 73
     0
 74
     0
 77
     1
 78
     8
140
3.5
147
2.0
172
     1
173
     1
176
     2
177
     2
178
     2
271
     2
340
62
  0
DIMSTYLE
105
BB
102
{ACAD_REACTORS
330
BC
102
}
330
A
100
AcDbSymbolTableRecord
100
AcDbDimStyleTableRecord
  2
ME10_DIM_17
 70
     0
 41
3.5
 42
0.0
 44
2.0
 73
     0
 74
     0
 77
     1
 78
     8
140
3.5
147
2.0
172
     1
173
     1
176
     2
177
     2
178
     2
271
     2
340
62
  0
DIMSTYLE
105
C6
102
{ACAD_REACTORS
330
C7
102
}
330
A
100
AcDbSymbolTableRecord
100
AcDbDimStyleTableRecord
  2
ME10_DIM_18
 70
     0
 41
3.5
 42
0.0
 44
2.0
 73
     0
 74
     0
 77
     1
 78
     8
140
3.5
147
2.0
172
     1
173
     1
176
     2
177
     2
178
     2
271
     2
340
62
  0
DIMSTYLE
105
D1
102
{ACAD_REACTORS
330
D2
102
}
330
A
100
AcDbSymbolTableRecord
100
AcDbDimStyleTableRecord
  2
ME10_DIM_19
 70
     0
 41
3.5
 42
0.0
 44
2.0
 73
     0
 74
     0
 77
     1
 78
     8
140
3.5
147
2.0
172
     1
173
     1
176
     2
177
     2
178
     2
271
     2
340
62
  0
DIMSTYLE
105
DC
102
{ACAD_REACTORS
330
DD
102
}
330
A
100
AcDbSymbolTableRecord
100
AcDbDimStyleTableRecord
  2
ME10_DIM_20
 70
     0
 41
3.5
 42
0.0
 44
2.0
 73
     0
 74
     0
 77
     1
 78
     8
140
3.5
147
2.0
172
     1
173
     1
176
     2
177
     2
178
     2
271
     2
340
62
  0
ENDTAB
  0
TABLE
  2
BLOCK_RECORD
  5
1
330
0
100
AcDbSymbolTable
 70
    16
  0
BLOCK_RECORD
  5
1F
330
1
100
AcDbSymbolTableRecord
100
AcDbBlockTableRecord
  2
*Model_Space
340
22
  0
BLOCK_RECORD
  5
1B
330
1
100
AcDbSymbolTableRecord
100
AcDbBlockTableRecord
  2
*Paper_Space
340
1E
  0
BLOCK_RECORD
  5
23
330
1
100
AcDbSymbolTableRecord
100
AcDbBlockTableRecord
  2
*Paper_Space0
340
26
  0
BLOCK_RECORD
  5
65
330
1
100
AcDbSymbolTableRecord
100
AcDbBlockTableRecord
  2
*D1
340
0
  0
BLOCK_RECORD
  5
70
330
1
100
AcDbSymbolTableRecord
100
AcDbBlockTableRecord
  2
*D2
340
0
  0
BLOCK_RECORD
  5
7B
330
1
100
AcDbSymbolTableRecord
100
AcDbBlockTableRecord
  2
*D3
340
0
  0
BLOCK_RECORD
  5
86
330
1
100
AcDbSymbolTableRecord
100
AcDbBlockTableRecord
  2
*D4
340
0
  0
BLOCK_RECORD
  5
91
330
1
100
AcDbSymbolTableRecord
100
AcDbBlockTableRecord
  2
*D5
340
0
  0
BLOCK_RECORD
  5
9C
330
1
100
AcDbSymbolTableRecord
100
AcDbBlockTableRecord
  2
*D6
340
0
  0
BLOCK_RECORD
  5
A7
330
1
100
AcDbSymbolTableRecord
100
AcDbBlockTableRecord
  2
*D7
340
0
  0
BLOCK_RECORD
  5
B2
330
1
100
AcDbSymbolTableRecord
100
AcDbBlockTableRecord
  2
*D8
340
0
  0
BLOCK_RECORD
  5
BD
330
1
100
AcDbSymbolTableRecord
100
AcDbBlockTableRecord
  2
*D9
340
0
  0
BLOCK_RECORD
  5
C8
330
1
100
AcDbSymbolTableRecord
100
AcDbBlockTableRecord
  2
*D10
340
0
  0
BLOCK_RECORD
  5
D3
330
1
100
AcDbSymbolTableRecord
100
AcDbBlockTableRecord
  2
*D11
340
0
  0
BLOCK_RECORD
  5
DE
330
1
100
AcDbSymbolTableRecord
100
AcDbBlockTableRecord
  2
*D12
340
0
102
{BLKREFS
331
E6
102
}
  0
BLOCK_RECORD
  5
E7
330
1
100
AcDbSymbolTableRecord
100
AcDbBlockTableRecord
  2
*D13
340
0
102
{BLKREFS
331
EF
102
}
  0
BLOCK_RECORD
  5
F0
330
1
100
AcDbSymbolTableRecord
100
AcDbBlockTableRecord
  2
*D14
340
0
102
{BLKREFS
331
F8
102
}
  0
BLOCK_RECORD
  5
F9
330
1
100
AcDbSymbolTableRecord
100
AcDbBlockTableRecord
  2
*D15
340
0
102
{BLKREFS
331
101
102
}
  0
ENDTAB
  0
ENDSEC
  0
SECTION
  2
BLOCKS
  0
BLOCK
  5
20
330
1F
100
AcDbEntity
  8
0
100
AcDbBlockBegin
  2
*Model_Space
 70
     0
 71
     0
 10
0.0
 20
0.0
 30
0.0
  3
*Model_Space
  1

  0
ENDBLK
  5
21
330
1F
100
AcDbEntity
  8
0
100
AcDbBlockEnd
  0
BLOCK
  5
1C
330
1B
100
AcDbEntity
 67
     1
  8
0
100
AcDbBlockBegin
  2
*Paper_Space
 70
     0
 71
     0
 10
0.0
 20
0.0
 30
0.0
  3
*Paper_Space
  1

  0
ENDBLK
  5
1D
330
1B
100
AcDbEntity
 67
     1
  8
0
100
AcDbBlockEnd
  0
BLOCK
  5
24
330
23
100
AcDbEntity
  8
0
100
AcDbBlockBegin
  2
*Paper_Space0
 70
     0
 71
     0
 10
0.0
 20
0.0
 30
0.0
  3
*Paper_Space0
  1

  0
ENDBLK
  5
25
330
23
100
AcDbEntity
  8
0
100
AcDbBlockEnd
  0
BLOCK
  5
6C
330
65
100
AcDbEntity
  8
0
100
AcDbBlockBegin
  2
*D1
 70
     1
 71
     0
 10
0.0
 20
0.0
 30
0.0
  3
*D1
  1

  0
LINE
  5
66
330
65
100
AcDbEntity
  8
1
  6
Continuous
 62
     2
100
AcDbLine
 10
244.282974955956
 20
303.040116759715
 30
0.0
 11
244.282974955956
 21
273.040116759715
 31
0.0
  0
LINE
  5
67
330
65
100
AcDbEntity
  8
1
  6
Continuous
 62
     2
100
AcDbLine
 10
203.238061040153
 20
303.040116759715
 30
0.0
 11
246.282974955956
 21
303.040116759715
 31
0.0
  0
LINE
  5
68
330
65
100
AcDbEntity
  8
1
  6
Continuous
 62
     2
100
AcDbLine
 10
235.76135270682
 20
273.040116759715
 30
0.0
 11
246.282974955956
 21
273.040116759715
 31
0.0
  0
SOLID
  5
69
330
65
100
AcDbEntity
  8
1
 62
     2
100
AcDbTrace
 10
244.7437586975119
 20
299.540116759715
 30
0.0
 11
243.8221912144001
 21
299.540116759715
 31
0.0
 12
244.282974955956
 22
303.040116759715
 32
0.0
 13
244.282974955956
 23
303.040116759715
 33
0.0
  0
SOLID
  5
6A
330
65
100
AcDbEntity
  8
1
 62
     2
100
AcDbTrace
 10
243.8221912144001
 20
276.540116759715
 30
0.0
 11
244.7437586975119
 21
276.540116759715
 31
0.0
 12
244.282974955956
 22
273.040116759715
 32
0.0
 13
244.282974955956
 23
273.040116759715
 33
0.0
  0
MTEXT
  5
6B
330
65
100
AcDbEntity
  8
1
 62
     2
100
AcDbMText
 10
242.282974955956
 20
285.457531508893
 30
0.0
 40
3.5
 41
0.0
 71
     7
 72
     1
  1
30
  7
CONVERTER_11
 11
0.0
 21
1.0
 31
0.0
 73
     1
 44
0.60024009603842
  0
ENDBLK
  5
6D
330
65
100
AcDbEntity
  8
0
100
AcDbBlockEnd
  0
BLOCK
  5
77
330
70
100
AcDbEntity
  8
0
100
AcDbBlockBegin
  2
*D2
 70
     1
 71
     0
 10
0.0
 20
0.0
 30
0.0
  3
*D2
  1

  0
LINE
  5
71
330
70
100
AcDbEntity
  8
1
  6
Continuous
 62
     2
100
AcDbLine
 10
244.282974955956
 20
273.040116759715
 30
0.0
 11
244.282974955956
 21
243.040116759715
 31
0.0
  0
LINE
  5
72
330
70
100
AcDbEntity
  8
1
  6
Continuous
 62
     2
100
AcDbLine
 10
235.76135270682
 20
273.040116759715
 30
0.0
 11
246.282974955956
 21
273.040116759715
 31
0.0
  0
LINE
  5
73
330
70
100
AcDbEntity
  8
1
  6
Continuous
 62
     2
100
AcDbLine
 10
203.238061040153
 20
243.040116759715
 30
0.0
 11
246.282974955956
 21
243.040116759715
 31
0.0
  0
SOLID
  5
74
330
70
100
AcDbEntity
  8
1
 62
     2
100
AcDbTrace
 10
244.7437586975119
 20
269.540116759715
 30
0.0
 11
243.8221912144001
 21
269.540116759715
 31
0.0
 12
244.282974955956
 22
273.040116759715
 32
0.0
 13
244.282974955956
 23
273.040116759715
 33
0.0
  0
SOLID
  5
75
330
70
100
AcDbEntity
  8
1
 62
     2
100
AcDbTrace
 10
243.8221912144001
 20
246.540116759715
 30
0.0
 11
244.7437586975119
 21
246.540116759715
 31
0.0
 12
244.282974955956
 22
243.040116759715
 32
0.0
 13
244.282974955956
 23
243.040116759715
 33
0.0
  0
MTEXT
  5
76
330
70
100
AcDbEntity
  8
1
 62
     2
100
AcDbMText
 10
242.282974955956
 20
255.955255479136
 30
0.0
 40
3.5
 41
0.0
 71
     7
 72
     1
  1
30
  7
CONVERTER_11
 11
0.0
 21
1.0
 31
0.0
 73
     1
 44
0.60024009603842
  0
ENDBLK
  5
78
330
70
100
AcDbEntity
  8
0
100
AcDbBlockEnd
  0
BLOCK
  5
82
330
7B
100
AcDbEntity
  8
0
100
AcDbBlockBegin
  2
*D3
 70
     1
 71
     0
 10
0.0
 20
0.0
 30
0.0
  3
*D3
  1

  0
LINE
  5
7C
330
7B
100
AcDbEntity
  8
1
  6
Continuous
 62
     2
100
AcDbLine
 10
161.838061040153
 20
180.998636016766
 30
0.0
 11
199.338061040153
 21
180.998636016766
 31
0.0
  0
LINE
  5
7D
330
7B
100
AcDbEntity
  8
1
  6
Continuous
 62
     2
100
AcDbLine
 10
161.838061040153
 20
233.540116759715
 30
0.0
 11
161.838061040153
 21
178.998636016766
 31
0.0
  0
LINE
  5
7E
330
7B
100
AcDbEntity
  8
1
  6
Continuous
 62
     2
100
AcDbLine
 10
199.338061040153
 20
239.140116759715
 30
0.0
 11
199.338061040153
 21
178.998636016766
 31
0.0
  0
SOLID
  5
7F
330
7B
100
AcDbEntity
  8
1
 62
     2
100
AcDbTrace
 10
165.338061040153
 20
181.4594197583219
 30
0.0
 11
165.338061040153
 21
180.5378522752101
 31
0.0
 12
161.838061040153
 22
180.998636016766
 32
0.0
 13
161.838061040153
 23
180.998636016766
 33
0.0
  0
SOLID
  5
80
330
7B
100
AcDbEntity
  8
1
 62
     2
100
AcDbTrace
 10
195.838061040153
 20
180.5378522752101
 30
0.0
 11
195.838061040153
 21
181.4594197583219
 31
0.0
 12
199.338061040153
 22
180.998636016766
 32
0.0
 13
199.338061040153
 23
180.998636016766
 33
0.0
  0
MTEXT
  5
81
330
7B
100
AcDbEntity
  8
1
 62
     2
100
AcDbMText
 10
175.490173463868
 20
182.998636016766
 30
0.0
 40
3.5
 41
0.0
 71
     7
 72
     1
  1
37.5
  7
CONVERTER_11
 11
0.9999999999970621
 21
2.424068405545307E-6
 31
0.0
 73
     1
 44
0.60024009603842
  0
ENDBLK
  5
83
330
7B
100
AcDbEntity
  8
0
100
AcDbBlockEnd
  0
BLOCK
  5
8D
330
86
100
AcDbEntity
  8
0
100
AcDbBlockBegin
  2
*D4
 70
     1
 71
     0
 10
0.0
 20
0.0
 30
0.0
  3
*D4
  1

  0
LINE
  5
87
330
86
100
AcDbEntity
  8
1
  6
Continuous
 62
     2
100
AcDbLine
 10
199.338061040153
 20
180.998636016766
 30
0.0
 11
214.338061040153
 21
180.998636016766
 31
0.0
  0
LINE
  5
88
330
86
100
AcDbEntity
  8
1
  6
Continuous
 62
     2
100
AcDbLine
 10
199.338061040153
 20
239.140116759715
 30
0.0
 11
199.338061040153
 21
178.998636016766
 31
0.0
  0
LINE
  5
89
330
86
100
AcDbEntity
  8
1
  6
Continuous
 62
     2
100
AcDbLine
 10
214.338061040153
 20
234.790116759715
 30
0.0
 11
214.338061040153
 21
178.998636016766
 31
0.0
  0
SOLID
  5
8A
330
86
100
AcDbEntity
  8
1
 62
     2
100
AcDbTrace
 10
202.838061040153
 20
181.4594197583219
 30
0.0
 11
202.838061040153
 21
180.5378522752101
 31
0.0
 12
199.338061040153
 22
180.998636016766
 32
0.0
 13
199.338061040153
 23
180.998636016766
 33
0.0
  0
SOLID
  5
8B
330
86
100
AcDbEntity
  8
1
 62
     2
100
AcDbTrace
 10
210.838061040153
 20
180.5378522752101
 30
0.0
 11
210.838061040153
 21
181.4594197583219
 31
0.0
 12
214.338061040153
 22
180.998636016766
 32
0.0
 13
214.338061040153
 23
180.998636016766
 33
0.0
  0
MTEXT
  5
8C
330
86
100
AcDbEntity
  8
1
 62
     2
100
AcDbMText
 10
203.794629275903
 20
182.998636016766
 30
0.0
 40
3.5
 41
0.0
 71
     7
 72
     1
  1
15
  7
CONVERTER_11
 11
0.9999999999970621
 21
2.424068405545307E-6
 31
0.0
 73
     1
 44
0.60024009603842
  0
ENDBLK
  5
8E
330
86
100
AcDbEntity
  8
0
100
AcDbBlockEnd
  0
BLOCK
  5
98
330
91
100
AcDbEntity
  8
0
100
AcDbBlockBegin
  2
*D5
 70
     1
 71
     0
 10
0.0
 20
0.0
 30
0.0
  3
*D5
  1

  0
LINE
  5
92
330
91
100
AcDbEntity
  8
1
  6
Continuous
 62
     2
100
AcDbLine
 10
116.045631102484
 20
308.040116759715
 30
0.0
 11
116.045631102484
 21
273.040116759715
 31
0.0
  0
LINE
  5
93
330
91
100
AcDbEntity
  8
1
  6
Continuous
 62
     2
100
AcDbLine
 10
157.338061040153
 20
308.040116759715
 30
0.0
 11
114.045631102484
 21
308.040116759715
 31
0.0
  0
LINE
  5
94
330
91
100
AcDbEntity
  8
1
  6
Continuous
 62
     2
100
AcDbLine
 10
131.432118657341
 20
273.040116759715
 30
0.0
 11
114.045631102484
 21
273.040116759715
 31
0.0
  0
SOLID
  5
95
330
91
100
AcDbEntity
  8
1
 62
     2
100
AcDbTrace
 10
116.5064148440399
 20
304.540116759715
 30
0.0
 11
115.5848473609281
 21
304.540116759715
 31
0.0
 12
116.045631102484
 22
308.040116759715
 32
0.0
 13
116.045631102484
 23
308.040116759715
 33
0.0
  0
SOLID
  5
96
330
91
100
AcDbEntity
  8
1
 62
     2
100
AcDbTrace
 10
115.5848473609281
 20
276.540116759715
 30
0.0
 11
116.5064148440399
 21
276.540116759715
 31
0.0
 12
116.045631102484
 22
273.040116759715
 32
0.0
 13
116.045631102484
 23
273.040116759715
 33
0.0
  0
MTEXT
  5
97
330
91
100
AcDbEntity
  8
1
 62
     2
100
AcDbMText
 10
114.045631102484
 20
286.958863984529
 30
0.0
 40
3.5
 41
0.0
 71
     7
 72
     1
  1
35
  7
CONVERTER_11
 11
0.0
 21
1.0
 31
0.0
 73
     1
 44
0.60024009603842
  0
ENDBLK
  5
99
330
91
100
AcDbEntity
  8
0
100
AcDbBlockEnd
  0
BLOCK
  5
A3
330
9C
100
AcDbEntity
  8
0
100
AcDbBlockBegin
  2
*D6
 70
     1
 71
     0
 10
0.0
 20
0.0
 30
0.0
  3
*D6
  1

  0
LINE
  5
9D
330
9C
100
AcDbEntity
  8
1
  6
Continuous
 62
     2
100
AcDbLine
 10
116.045631102484
 20
273.040116759715
 30
0.0
 11
116.045631102484
 21
238.040116759715
 31
0.0
  0
LINE
  5
9E
330
9C
100
AcDbEntity
  8
1
  6
Continuous
 62
     2
100
AcDbLine
 10
131.432118657341
 20
273.040116759715
 30
0.0
 11
114.045631102484
 21
273.040116759715
 31
0.0
  0
LINE
  5
9F
330
9C
100
AcDbEntity
  8
1
  6
Continuous
 62
     2
100
AcDbLine
 10
157.338061040153
 20
238.040116759715
 30
0.0
 11
114.045631102484
 21
238.040116759715
 31
0.0
  0
SOLID
  5
A0
330
9C
100
AcDbEntity
  8
1
 62
     2
100
AcDbTrace
 10
116.5064148440399
 20
269.540116759715
 30
0.0
 11
115.5848473609281
 21
269.540116759715
 31
0.0
 12
116.045631102484
 22
273.040116759715
 32
0.0
 13
116.045631102484
 23
273.040116759715
 33
0.0
  0
SOLID
  5
A1
330
9C
100
AcDbEntity
  8
1
 62
     2
100
AcDbTrace
 10
115.5848473609281
 20
241.540116759715
 30
0.0
 11
116.5064148440399
 21
241.540116759715
 31
0.0
 12
116.045631102484
 22
238.040116759715
 32
0.0
 13
116.045631102484
 23
238.040116759715
 33
0.0
  0
MTEXT
  5
A2
330
9C
100
AcDbEntity
  8
1
 62
     2
100
AcDbMText
 10
114.045631102484
 20
253.621623825968
 30
0.0
 40
3.5
 41
0.0
 71
     7
 72
     1
  1
35
  7
CONVERTER_11
 11
0.0
 21
1.0
 31
0.0
 73
     1
 44
0.60024009603842
  0
ENDBLK
  5
A4
330
9C
100
AcDbEntity
  8
0
100
AcDbBlockEnd
  0
BLOCK
  5
AE
330
A7
100
AcDbEntity
  8
0
100
AcDbBlockBegin
  2
*D7
 70
     1
 71
     0
 10
0.0
 20
0.0
 30
0.0
  3
*D7
  1

  0
LINE
  5
A8
330
A7
100
AcDbEntity
  8
1
  6
Continuous
 62
     2
100
AcDbLine
 10
161.838061040153
 20
194.283906793244
 30
0.0
 11
177.838061040153
 21
194.283906793244
 31
0.0
  0
LINE
  5
A9
330
A7
100
AcDbEntity
  8
1
  6
Continuous
 62
     2
100
AcDbLine
 10
161.838061040153
 20
251.040116759715
 30
0.0
 11
161.838061040153
 21
192.283906793244
 31
0.0
  0
LINE
  5
AA
330
A7
100
AcDbEntity
  8
1
  6
Continuous
 62
     2
100
AcDbLine
 10
177.838061040153
 20
208.040116759715
 30
0.0
 11
177.838061040153
 21
192.283906793244
 31
0.0
  0
SOLID
  5
AB
330
A7
100
AcDbEntity
  8
1
 62
     2
100
AcDbTrace
 10
165.338061040153
 20
194.7446905347999
 30
0.0
 11
165.338061040153
 21
193.8231230516881
 31
0.0
 12
161.838061040153
 22
194.283906793244
 32
0.0
 13
161.838061040153
 23
194.283906793244
 33
0.0
  0
SOLID
  5
AC
330
A7
100
AcDbEntity
  8
1
 62
     2
100
AcDbTrace
 10
174.338061040153
 20
193.8231230516881
 30
0.0
 11
174.338061040153
 21
194.7446905347999
 31
0.0
 12
177.838061040153
 22
194.283906793244
 32
0.0
 13
177.838061040153
 23
194.283906793244
 33
0.0
  0
MTEXT
  5
AD
330
A7
100
AcDbEntity
  8
1
 62
     2
100
AcDbMText
 10
167.556867918584
 20
196.283906793244
 30
0.0
 40
3.5
 41
0.0
 71
     7
 72
     1
  1
16
  7
CONVERTER_11
 11
0.9999999999970621
 21
2.424068405545307E-6
 31
0.0
 73
     1
 44
0.60024009603842
  0
ENDBLK
  5
AF
330
A7
100
AcDbEntity
  8
0
100
AcDbBlockEnd
  0
BLOCK
  5
B9
330
B2
100
AcDbEntity
  8
0
100
AcDbBlockBegin
  2
*D8
 70
     1
 71
     0
 10
0.0
 20
0.0
 30
0.0
  3
*D8
  1

  0
LINE
  5
B3
330
B2
100
AcDbEntity
  8
1
  6
Continuous
 62
     2
100
AcDbLine
 10
256.615217746973
 20
309.040116759715
 30
0.0
 11
256.615217746973
 21
273.040116759715
 31
0.0
  0
LINE
  5
B4
330
B2
100
AcDbEntity
  8
1
  6
Continuous
 62
     2
100
AcDbLine
 10
216.588061040153
 20
309.040116759715
 30
0.0
 11
258.615217746973
 21
309.040116759715
 31
0.0
  0
LINE
  5
B5
330
B2
100
AcDbEntity
  8
1
  6
Continuous
 62
     2
100
AcDbLine
 10
235.76135270682
 20
273.040116759715
 30
0.0
 11
258.615217746973
 21
273.040116759715
 31
0.0
  0
SOLID
  5
B6
330
B2
100
AcDbEntity
  8
1
 62
     2
100
AcDbTrace
 10
257.0760014885289
 20
305.540116759715
 30
0.0
 11
256.1544340054172
 21
305.540116759715
 31
0.0
 12
256.615217746973
 22
309.040116759715
 32
0.0
 13
256.615217746973
 23
309.040116759715
 33
0.0
  0
SOLID
  5
B7
330
B2
100
AcDbEntity
  8
1
 62
     2
100
AcDbTrace
 10
256.1544340054172
 20
276.540116759715
 30
0.0
 11
257.0760014885289
 21
276.540116759715
 31
0.0
 12
256.615217746973
 22
273.040116759715
 32
0.0
 13
256.615217746973
 23
273.040116759715
 33
0.0
  0
MTEXT
  5
B8
330
B2
100
AcDbEntity
  8
1
 62
     2
100
AcDbMText
 10
254.615217746973
 20
289.958863984529
 30
0.0
 40
3.5
 41
0.0
 71
     7
 72
     1
  1
36
  7
CONVERTER_11
 11
0.0
 21
1.0
 31
0.0
 73
     1
 44
0.60024009603842
  0
ENDBLK
  5
BA
330
B2
100
AcDbEntity
  8
0
100
AcDbBlockEnd
  0
BLOCK
  5
C4
330
BD
100
AcDbEntity
  8
0
100
AcDbBlockBegin
  2
*D9
 70
     1
 71
     0
 10
0.0
 20
0.0
 30
0.0
  3
*D9
  1

  0
LINE
  5
BE
330
BD
100
AcDbEntity
  8
1
  6
Continuous
 62
     2
100
AcDbLine
 10
256.615217746973
 20
273.040116759715
 30
0.0
 11
256.615217746973
 21
237.040116759715
 31
0.0
  0
LINE
  5
BF
330
BD
100
AcDbEntity
  8
1
  6
Continuous
 62
     2
100
AcDbLine
 10
235.76135270682
 20
273.040116759715
 30
0.0
 11
258.615217746973
 21
273.040116759715
 31
0.0
  0
LINE
  5
C0
330
BD
100
AcDbEntity
  8
1
  6
Continuous
 62
     2
100
AcDbLine
 10
216.588061040153
 20
237.040116759715
 30
0.0
 11
258.615217746973
 21
237.040116759715
 31
0.0
  0
SOLID
  5
C1
330
BD
100
AcDbEntity
  8
1
 62
     2
100
AcDbTrace
 10
257.0760014885289
 20
269.540116759715
 30
0.0
 11
256.1544340054172
 21
269.540116759715
 31
0.0
 12
256.615217746973
 22
273.040116759715
 32
0.0
 13
256.615217746973
 23
273.040116759715
 33
0.0
  0
SOLID
  5
C2
330
BD
100
AcDbEntity
  8
1
 62
     2
100
AcDbTrace
 10
256.1544340054172
 20
240.540116759715
 30
0.0
 11
257.0760014885289
 21
240.540116759715
 31
0.0
 12
256.615217746973
 22
237.040116759715
 32
0.0
 13
256.615217746973
 23
237.040116759715
 33
0.0
  0
MTEXT
  5
C3
330
BD
100
AcDbEntity
  8
1
 62
     2
100
AcDbMText
 10
254.615217746973
 20
252.415116759715
 30
0.0
 40
3.5
 41
0.0
 71
     7
 72
     1
  1
36
  7
CONVERTER_11
 11
0.0
 21
1.0
 31
0.0
 73
     1
 44
0.60024009603842
  0
ENDBLK
  5
C5
330
BD
100
AcDbEntity
  8
0
100
AcDbBlockEnd
  0
BLOCK
  5
CF
330
C8
100
AcDbEntity
  8
0
100
AcDbBlockBegin
  2
*D10
 70
     1
 71
     0
 10
0.0
 20
0.0
 30
0.0
  3
*D10
  1

  0
LINE
  5
C9
330
C8
100
AcDbEntity
  8
1
  6
Continuous
 62
     2
100
AcDbLine
 10
126.936601225554
 20
288.040116759715
 30
0.0
 11
126.936601225554
 21
273.040116759715
 31
0.0
  0
LINE
  5
CA
330
C8
100
AcDbEntity
  8
1
  6
Continuous
 62
     2
100
AcDbLine
 10
154.838061040153
 20
288.040116759715
 30
0.0
 11
124.936601225554
 21
288.040116759715
 31
0.0
  0
LINE
  5
CB
330
C8
100
AcDbEntity
  8
1
  6
Continuous
 62
     2
100
AcDbLine
 10
131.432118657341
 20
273.040116759715
 30
0.0
 11
124.936601225554
 21
273.040116759715
 31
0.0
  0
SOLID
  5
CC
330
C8
100
AcDbEntity
  8
1
 62
     2
100
AcDbTrace
 10
127.3973849671099
 20
284.540116759715
 30
0.0
 11
126.4758174839981
 21
284.540116759715
 31
0.0
 12
126.936601225554
 22
288.040116759715
 32
0.0
 13
126.936601225554
 23
288.040116759715
 33
0.0
  0
SOLID
  5
CD
330
C8
100
AcDbEntity
  8
1
 62
     2
100
AcDbTrace
 10
126.4758174839981
 20
276.540116759715
 30
0.0
 11
127.3973849671099
 21
276.540116759715
 31
0.0
 12
126.936601225554
 22
273.040116759715
 32
0.0
 13
126.936601225554
 23
273.040116759715
 33
0.0
  0
MTEXT
  5
CE
330
C8
100
AcDbEntity
  8
1
 62
     2
100
AcDbMText
 10
124.936601225554
 20
278.345489485042
 30
0.0
 40
3.5
 41
0.0
 71
     7
 72
     1
  1
15
  7
CONVERTER_11
 11
0.0
 21
1.0
 31
0.0
 73
     1
 44
0.60024009603842
  0
ENDBLK
  5
D0
330
C8
100
AcDbEntity
  8
0
100
AcDbBlockEnd
  0
BLOCK
  5
DA
330
D3
100
AcDbEntity
  8
0
100
AcDbBlockBegin
  2
*D11
 70
     1
 71
     0
 10
0.0
 20
0.0
 30
0.0
  3
*D11
  1

  0
LINE
  5
D4
330
D3
100
AcDbEntity
  8
1
  6
Continuous
 62
     2
100
AcDbLine
 10
126.936601225554
 20
273.040116759715
 30
0.0
 11
126.936601225554
 21
258.040116759715
 31
0.0
  0
LINE
  5
D5
330
D3
100
AcDbEntity
  8
1
  6
Continuous
 62
     2
100
AcDbLine
 10
131.432118657341
 20
273.040116759715
 30
0.0
 11
124.936601225554
 21
273.040116759715
 31
0.0
  0
LINE
  5
D6
330
D3
100
AcDbEntity
  8
1
  6
Continuous
 62
     2
100
AcDbLine
 10
154.838061040153
 20
258.040116759715
 30
0.0
 11
124.936601225554
 21
258.040116759715
 31
0.0
  0
SOLID
  5
D7
330
D3
100
AcDbEntity
  8
1
 62
     2
100
AcDbTrace
 10
127.3973849671099
 20
269.540116759715
 30
0.0
 11
126.4758174839981
 21
269.540116759715
 31
0.0
 12
126.936601225554
 22
273.040116759715
 32
0.0
 13
126.936601225554
 23
273.040116759715
 33
0.0
  0
SOLID
  5
D8
330
D3
100
AcDbEntity
  8
1
 62
     2
100
AcDbTrace
 10
126.4758174839981
 20
261.540116759715
 30
0.0
 11
127.3973849671099
 21
261.540116759715
 31
0.0
 12
126.936601225554
 22
258.040116759715
 32
0.0
 13
126.936601225554
 23
258.040116759715
 33
0.0
  0
MTEXT
  5
D9
330
D3
100
AcDbEntity
  8
1
 62
     2
100
AcDbMText
 10
124.936601225554
 20
263.440116759715
 30
0.0
 40
3.5
 41
0.0
 71
     7
 72
     1
  1
15
  7
CONVERTER_11
 11
0.0
 21
1.0
 31
0.0
 73
     1
 44
0.60024009603842
  0
ENDBLK
  5
DB
330
D3
100
AcDbEntity
  8
0
100
AcDbBlockEnd
  0
BLOCK
  5
E4
330
DE
100
AcDbEntity
  8
0
100
AcDbBlockBegin
  2
*D12
 70
     1
 71
     0
 10
0.0
 20
0.0
 30
0.0
  3
*D12
  1

  0
LINE
  5
DF
330
DE
100
AcDbEntity
  8
1
  6
Continuous
 62
     2
100
AcDbLine
 10
197.2834903460298
 20
271.4467745921784
 30
0.0
 11
193.1348379828964
 21
268.2294490615757
 31
0.0
  0
LINE
  5
E0
330
DE
100
AcDbEntity
  8
1
  6
Continuous
 62
     2
100
AcDbLine
 10
212.2003805714482
 20
283.0149870039767
 30
0.0
 11
201.3926317342762
 21
274.6334589272515
 31
0.0
  0
SOLID
  5
E1
330
DE
100
AcDbEntity
  8
1
 62
     2
100
AcDbTrace
 10
203.8760206819281
 20
277.1424629111389
 30
0.0
 11
204.4407792708022
 21
276.4142223175011
 31
0.0
 12
201.3926317342762
 22
274.6334589272515
 32
0.0
 13
201.3926317342762
 23
274.6334589272515
 33
0.0
  0
SOLID
  5
E2
330
DE
100
AcDbEntity
  8
1
 62
     2
100
AcDbTrace
 10
194.8001013983779
 20
268.9377706082911
 30
0.0
 11
194.2353428095038
 21
269.6660112019289
 31
0.0
 12
197.2834903460298
 22
271.4467745921784
 32
0.0
 13
197.2834903460298
 23
271.4467745921784
 33
0.0
  0
MTEXT
  5
E3
330
DE
100
AcDbEntity
  8
1
 62
     2
100
AcDbMText
 10
203.6592757499411
 20
278.9222086471601
 30
0.0
 40
3.5
 41
0.0
 71
     7
 72
     1
  1
\C2;ø\C2;5.2
  7
CONVERTER_11
 11
0.7902194977396898
 21
0.6128239105909888
 31
0.0
 73
     1
 44
0.60024009603842
  0
ENDBLK
  5
E5
330
DE
100
AcDbEntity
  8
0
100
AcDbBlockEnd
  0
BLOCK
  5
ED
330
E7
100
AcDbEntity
  8
0
100
AcDbBlockBegin
  2
*D13
 70
     1
 71
     0
 10
0.0
 20
0.0
 30
0.0
  3
*D13
  1

  0
LINE
  5
E8
330
E7
100
AcDbEntity
  8
1
  6
Continuous
 62
     2
100
AcDbLine
 10
165.4576569276412
 20
290.8788709955161
 30
0.0
 11
169.5887174514048
 21
294.1187535472456
 31
0.0
  0
LINE
  5
E9
330
E7
100
AcDbEntity
  8
1
  6
Continuous
 62
     2
100
AcDbLine
 10
146.2393813825304
 20
275.8064809264867
 30
0.0
 11
158.2184651526648
 21
285.2013625239139
 31
0.0
  0
SOLID
  5
EA
330
E7
100
AcDbEntity
  8
1
 62
     2
100
AcDbTrace
 10
155.7487838900391
 20
282.6788645323354
 30
0.0
 11
155.1800657169391
 21
283.4040171131862
 31
0.0
 12
158.2184651526648
 22
285.2013625239139
 32
0.0
 13
158.2184651526648
 23
285.2013625239139
 33
0.0
  0
SOLID
  5
EB
330
E7
100
AcDbEntity
  8
1
 62
     2
100
AcDbTrace
 10
167.9273381902669
 20
293.4013689870946
 30
0.0
 11
168.4960563633669
 21
292.6762164062437
 31
0.0
 12
165.4576569276412
 22
290.8788709955161
 32
0.0
 13
165.4576569276412
 23
290.8788709955161
 33
0.0
  0
MTEXT
  5
EC
330
E7
100
AcDbEntity
  8
1
 62
     2
100
AcDbMText
 10
145.7762717082122
 20
277.9849963451957
 30
0.0
 40
3.5
 41
0.0
 71
     7
 72
     1
  1
\C2;ø\C2;9.2
  7
CONVERTER_11
 11
0.7868686711930782
 21
0.6171204860437216
 31
0.0
 73
     1
 44
0.60024009603842
  0
ENDBLK
  5
EE
330
E7
100
AcDbEntity
  8
0
100
AcDbBlockEnd
  0
BLOCK
  5
F6
330
F0
100
AcDbEntity
  8
0
100
AcDbBlockBegin
  2
*D14
 70
     1
 71
     0
 10
0.0
 20
0.0
 30
0.0
  3
*D14
  1

  0
LINE
  5
F1
330
F0
100
AcDbEntity
  8
1
  6
Continuous
 62
     2
100
AcDbLine
 10
164.0890315219555
 20
310.0233292773373
 30
0.0
 11
168.0282298651098
 21
313.4939511831764
 31
0.0
  0
LINE
  5
F2
330
F0
100
AcDbEntity
  8
1
  6
Continuous
 62
     2
100
AcDbLine
 10
149.0251279272203
 20
296.7513106458835
 30
0.0
 11
159.5870905583505
 21
306.0569042420926
 31
0.0
  0
SOLID
  5
F3
330
F0
100
AcDbEntity
  8
1
 62
     2
100
AcDbTrace
 10
157.2655690243045
 20
303.3974194379543
 30
0.0
 11
156.6563476348575
 21
304.0888931717788
 31
0.0
 12
159.5870905583505
 22
306.0569042420926
 32
0.0
 13
159.5870905583505
 23
306.0569042420926
 33
0.0
  0
SOLID
  5
F4
330
F0
100
AcDbEntity
  8
1
 62
     2
100
AcDbTrace
 10
166.4105530560015
 20
312.6828140814757
 30
0.0
 11
167.0197744454485
 21
311.9913403476511
 31
0.0
 12
164.0890315219555
 22
310.0233292773373
 32
0.0
 13
164.0890315219555
 23
310.0233292773373
 33
0.0
  0
MTEXT
  5
F5
330
F0
100
AcDbEntity
  8
1
 62
     2
100
AcDbMText
 10
148.7009164957379
 20
299.1311818498977
 30
0.0
 40
3.5
 41
0.0
 71
     7
 72
     1
  1
\C2;M\C2;6
  7
CONVERTER_11
 11
0.7503234939341572
 21
0.6610708392074474
 31
0.0
 73
     1
 44
0.60024009603842
  0
ENDBLK
  5
F7
330
F0
100
AcDbEntity
  8
0
100
AcDbBlockEnd
  0
BLOCK
  5
FF
330
F9
100
AcDbEntity
  8
0
100
AcDbBlockBegin
  2
*D15
 70
     1
 71
     0
 10
0.0
 20
0.0
 30
0.0
  3
*D15
  1

  0
LINE
  5
FA
330
F9
100
AcDbEntity
  8
1
  6
Continuous
 62
     2
100
AcDbLine
 10
215.7218905054546
 20
308.4613110833753
 30
0.0
 11
220.5652936340102
 21
306.4354912161862
 31
0.0
  0
LINE
  5
FB
330
F9
100
AcDbEntity
  8
1
  6
Continuous
 62
     2
100
AcDbLine
 10
206.8682465086293
 20
312.1644692615664
 30
0.0
 11
212.9542315748514
 21
309.6189224360547
 31
0.0
  0
SOLID
  5
FC
330
F9
100
AcDbEntity
  8
1
 62
     2
100
AcDbTrace
 10
209.5474933256959
 20
310.5443716017161
 30
0.0
 11
209.9030989859327
 21
311.3945664266453
 31
0.0
 12
212.9542315748514
 22
309.6189224360547
 32
0.0
 13
212.9542315748514
 23
309.6189224360547
 33
0.0
  0
SOLID
  5
FD
330
F9
100
AcDbEntity
  8
1
 62
     2
100
AcDbTrace
 10
219.1286287546101
 20
307.5358619177139
 30
0.0
 11
218.7730230943733
 21
306.6856670927846
 31
0.0
 12
215.7218905054546
 22
308.4613110833753
 32
0.0
 13
215.7218905054546
 23
308.4613110833753
 33
0.0
  0
MTEXT
  5
FE
330
F9
100
AcDbEntity
  8
1
 62
     2
100
AcDbMText
 10
206.2192558260394
 20
314.6038157096773
 30
0.0
 40
3.5
 41
0.0
 71
     7
 72
     1
  1
\C2;{\Fgdt;n}\C2;3
  7
CONVERTER_11
 11
0.922552976867733
 21
-0.3858704508931518
 31
0.0
 73
     1
 44
0.60024009603842
  0
ENDBLK
  5
100
330
F9
100
AcDbEntity
  8
0
100
AcDbBlockEnd
  0
ENDSEC
  0
SECTION
  2
ENTITIES
  0
LINE
  5
32
330
1F
100
AcDbEntity
  8
1
  6
DOT_CENTER
 62
     2
100
AcDbLine
 10
199.338061040153
 20
239.140116759715
 30
0.0
 11
199.338061040153
 21
246.940116759715
 31
0.0
  0
LINE
  5
33
330
1F
100
AcDbEntity
  8
1
  6
DOT_CENTER
 62
     2
100
AcDbLine
 10
195.438061040153
 20
243.040116759715
 30
0.0
 11
203.238061040153
 21
243.040116759715
 31
0.0
  0
LINE
  5
34
330
1F
100
AcDbEntity
  8
1
  6
DOT_CENTER
 62
     2
100
AcDbLine
 10
199.338061040153
 20
269.140116759715
 30
0.0
 11
199.338061040153
 21
276.940116759715
 31
0.0
  0
LINE
  5
35
330
1F
100
AcDbEntity
  8
1
  6
DOT_CENTER
 62
     2
100
AcDbLine
 10
203.238061040153
 20
273.040116759715
 30
0.0
 11
235.76135270682
 21
273.040116759715
 31
0.0
  0
LINE
  5
36
330
1F
100
AcDbEntity
  8
1
  6
DOT_CENTER
 62
     2
100
AcDbLine
 10
195.438061040153
 20
273.040116759715
 30
0.0
 11
201.938061040153
 21
273.040116759715
 31
0.0
  0
LINE
  5
37
330
1F
100
AcDbEntity
  8
1
  6
DOT_CENTER
 62
     2
100
AcDbLine
 10
201.938061040153
 20
273.040116759715
 30
0.0
 11
203.238061040153
 21
273.040116759715
 31
0.0
  0
LINE
  5
38
330
1F
100
AcDbEntity
  8
1
  6
DOT_CENTER
 62
     2
100
AcDbLine
 10
199.338061040153
 20
299.140116759715
 30
0.0
 11
199.338061040153
 21
306.940116759715
 31
0.0
  0
LINE
  5
39
330
1F
100
AcDbEntity
  8
1
  6
DOT_CENTER
 62
     2
100
AcDbLine
 10
195.438061040153
 20
303.040116759715
 30
0.0
 11
203.238061040153
 21
303.040116759715
 31
0.0
  0
LINE
  5
3A
330
1F
100
AcDbEntity
  8
1
  6
DOT_CENTER
 62
     2
100
AcDbLine
 10
161.838061040153
 20
233.540116759715
 30
0.0
 11
161.838061040153
 21
242.540116759715
 31
0.0
  0
LINE
  5
3B
330
1F
100
AcDbEntity
  8
1
  6
DOT_CENTER
 62
     2
100
AcDbLine
 10
157.338061040153
 20
238.040116759715
 30
0.0
 11
166.338061040153
 21
238.040116759715
 31
0.0
  0
LINE
  5
3C
330
1F
100
AcDbEntity
  8
1
  6
DOT_CENTER
 62
     2
100
AcDbLine
 10
161.838061040153
 20
303.540116759715
 30
0.0
 11
161.838061040153
 21
312.540116759715
 31
0.0
  0
LINE
  5
3D
330
1F
100
AcDbEntity
  8
1
  6
DOT_CENTER
 62
     2
100
AcDbLine
 10
157.338061040153
 20
308.040116759715
 30
0.0
 11
166.338061040153
 21
308.040116759715
 31
0.0
  0
LINE
  5
3E
330
1F
100
AcDbEntity
  8
1
  6
DOT_CENTER
 62
     2
100
AcDbLine
 10
166.438061040153
 20
258.040116759715
 30
0.0
 11
167.838061040153
 21
258.040116759715
 31
0.0
  0
LINE
  5
3F
330
1F
100
AcDbEntity
  8
1
  6
DOT_CENTER
 62
     2
100
AcDbLine
 10
166.438061040153
 20
288.040116759715
 30
0.0
 11
167.838061040153
 21
288.040116759715
 31
0.0
  0
LINE
  5
40
330
1F
100
AcDbEntity
  8
1
  6
Continuous
 62
     7
100
AcDbLine
 10
177.838061040153
 20
241.540116759715
 30
0.0
 11
177.838061040153
 21
338.040116759715
 31
0.0
  0
LINE
  5
41
330
1F
100
AcDbEntity
  8
1
  6
DOT_CENTER
 62
     2
100
AcDbLine
 10
161.838061040153
 20
251.040116759715
 30
0.0
 11
161.838061040153
 21
264.040116759715
 31
0.0
  0
LINE
  5
42
330
1F
100
AcDbEntity
  8
1
  6
DOT_CENTER
 62
     2
100
AcDbLine
 10
154.838061040153
 20
258.040116759715
 30
0.0
 11
166.438061040153
 21
258.040116759715
 31
0.0
  0
LINE
  5
43
330
1F
100
AcDbEntity
  8
1
  6
DOT_CENTER
 62
     2
100
AcDbLine
 10
161.838061040153
 20
281.040116759715
 30
0.0
 11
161.838061040153
 21
294.040116759715
 31
0.0
  0
LINE
  5
44
330
1F
100
AcDbEntity
  8
1
  6
DOT_CENTER
 62
     2
100
AcDbLine
 10
154.838061040153
 20
288.040116759715
 30
0.0
 11
166.438061040153
 21
288.040116759715
 31
0.0
  0
LINE
  5
45
330
1F
100
AcDbEntity
  8
1
  6
Continuous
 62
     7
100
AcDbLine
 10
232.838061040153
 20
208.040116759715
 30
0.0
 11
232.838061040153
 21
338.040116759715
 31
0.0
  0
LINE
  5
46
330
1F
100
AcDbEntity
  8
1
  6
Continuous
 62
     7
100
AcDbLine
 10
177.838061040153
 20
208.040116759715
 30
0.0
 11
177.838061040153
 21
241.540116759715
 31
0.0
  0
LINE
  5
47
330
1F
100
AcDbEntity
  8
1
  6
Continuous
 62
     7
100
AcDbLine
 10
132.838061040153
 20
208.040116759715
 30
0.0
 11
132.838061040153
 21
338.040116759715
 31
0.0
  0
LINE
  5
48
330
1F
100
AcDbEntity
  8
1
  6
DOT_CENTER
 62
     2
100
AcDbLine
 10
232.838061040153
 20
338.040116759715
 30
0.0
 11
235.488389052438
 21
338.040116759715
 31
0.0
  0
LINE
  5
49
330
1F
100
AcDbEntity
  8
1
  6
DOT_CENTER
 62
     2
100
AcDbLine
 10
177.838061040153
 20
338.040116759715
 30
0.0
 11
232.838061040153
 21
338.040116759715
 31
0.0
  0
LINE
  5
4A
330
1F
100
AcDbEntity
  8
1
  6
DOT_CENTER
 62
     2
100
AcDbLine
 10
132.838061040153
 20
338.040116759715
 30
0.0
 11
177.838061040153
 21
338.040116759715
 31
0.0
  0
LINE
  5
4B
330
1F
100
AcDbEntity
  8
1
  6
DOT_CENTER
 62
     2
100
AcDbLine
 10
128.317608407592
 20
338.040116759715
 30
0.0
 11
132.838061040153
 21
338.040116759715
 31
0.0
  0
LINE
  5
4C
330
1F
100
AcDbEntity
  8
1
  6
DOT_CENTER
 62
     2
100
AcDbLine
 10
232.838061040153
 20
208.040116759715
 30
0.0
 11
235.743385310642
 21
208.040116759715
 31
0.0
  0
LINE
  5
4D
330
1F
100
AcDbEntity
  8
1
  6
DOT_CENTER
 62
     2
100
AcDbLine
 10
177.838061040153
 20
208.040116759715
 30
0.0
 11
232.838061040153
 21
208.040116759715
 31
0.0
  0
LINE
  5
4E
330
1F
100
AcDbEntity
  8
1
  6
DOT_CENTER
 62
     2
100
AcDbLine
 10
132.838061040153
 20
208.040116759715
 30
0.0
 11
177.838061040153
 21
208.040116759715
 31
0.0
  0
LINE
  5
4F
330
1F
100
AcDbEntity
  8
1
  6
DOT_CENTER
 62
     2
100
AcDbLine
 10
129.210095311307
 20
208.040116759715
 30
0.0
 11
132.838061040153
 21
208.040116759715
 31
0.0
  0
LINE
  5
50
330
1F
100
AcDbEntity
  8
1
  6
DOT_CENTER
 62
     2
100
AcDbLine
 10
131.432118657341
 20
273.040116759715
 30
0.0
 11
195.438061040153
 21
273.040116759715
 31
0.0
  0
LINE
  5
51
330
1F
100
AcDbEntity
  8
1
  6
DOT_CENTER
 62
     2
100
AcDbLine
 10
212.088061040153
 20
309.040116759715
 30
0.0
 11
216.588061040153
 21
309.040116759715
 31
0.0
  0
LINE
  5
52
330
1F
100
AcDbEntity
  8
1
  6
DOT_CENTER
 62
     2
100
AcDbLine
 10
214.338061040153
 20
311.290116759715
 30
0.0
 11
214.338061040153
 21
306.790116759715
 31
0.0
  0
LINE
  5
53
330
1F
100
AcDbEntity
  8
1
  6
DOT_CENTER
 62
     2
100
AcDbLine
 10
212.088061040153
 20
237.040116759715
 30
0.0
 11
216.588061040153
 21
237.040116759715
 31
0.0
  0
LINE
  5
54
330
1F
100
AcDbEntity
  8
1
  6
DOT_CENTER
 62
     2
100
AcDbLine
 10
214.338061040153
 20
239.290116759715
 30
0.0
 11
214.338061040153
 21
234.790116759715
 31
0.0
  0
LINE
  5
55
330
1F
100
AcDbEntity
  8
1
  6
Continuous
 62
     7
100
AcDbLine
 10
182.838061040153
 20
241.540116759715
 30
0.0
 11
182.838061040153
 21
338.040116759715
 31
0.0
  0
LINE
  5
56
330
1F
100
AcDbEntity
  8
1
  6
Continuous
 62
     7
100
AcDbLine
 10
182.838061040153
 20
208.040116759715
 30
0.0
 11
182.838061040153
 21
241.540116759715
 31
0.0
  0
ARC
  5
57
330
1F
100
AcDbEntity
  8
1
  6
Continuous
 62
     2
100
AcDbCircle
 10
161.838061040153
 20
238.040116759715
 30
0.0
 40
2.999999999999972
100
AcDbArc
 50
14.99999999999854
 51
-74.99999999999937
  0
ARC
  5
58
330
1F
100
AcDbEntity
  8
1
  6
Continuous
 62
     2
100
AcDbCircle
 10
161.838061040153
 20
308.040116759715
 30
0.0
 40
2.99999999999998
100
AcDbArc
 50
14.99999999999907
 51
-74.99999999999923
  0
CIRCLE
  5
59
330
1F
100
AcDbEntity
  8
1
  6
Continuous
 62
     7
100
AcDbCircle
 10
199.338061040153
 20
243.040116759715
 30
0.0
 40
2.599999999999994
  0
CIRCLE
  5
5A
330
1F
100
AcDbEntity
  8
1
  6
Continuous
 62
     7
100
AcDbCircle
 10
199.338061040153
 20
273.040116759715
 30
0.0
 40
2.599999999999994
  0
CIRCLE
  5
5B
330
1F
100
AcDbEntity
  8
1
  6
Continuous
 62
     7
100
AcDbCircle
 10
199.338061040153
 20
303.040116759715
 30
0.0
 40
2.599999999999994
  0
CIRCLE
  5
5C
330
1F
100
AcDbEntity
  8
1
  6
Continuous
 62
     7
100
AcDbCircle
 10
161.838061040153
 20
238.040116759715
 30
0.0
 40
2.400000000000006
  0
CIRCLE
  5
5D
330
1F
100
AcDbEntity
  8
1
  6
Continuous
 62
     7
100
AcDbCircle
 10
161.838061040153
 20
308.040116759715
 30
0.0
 40
2.400000000000006
  0
CIRCLE
  5
5E
330
1F
100
AcDbEntity
  8
1
  6
Continuous
 62
     7
100
AcDbCircle
 10
161.838061040153
 20
258.040116759715
 30
0.0
 40
4.599999999999994
  0
CIRCLE
  5
5F
330
1F
100
AcDbEntity
  8
1
  6
Continuous
 62
     7
100
AcDbCircle
 10
161.838061040153
 20
288.040116759715
 30
0.0
 40
4.599999999999994
  0
CIRCLE
  5
60
330
1F
100
AcDbEntity
  8
1
  6
Continuous
 62
     7
100
AcDbCircle
 10
214.338061040153
 20
309.040116759715
 30
0.0
 40
1.5
  0
CIRCLE
  5
61
330
1F
100
AcDbEntity
  8
1
  6
Continuous
 62
     7
100
AcDbCircle
 10
214.338061040153
 20
237.040116759715
 30
0.0
 40
1.5
  0
MTEXT
  5
63
330
1F
100
AcDbEntity
  8
1
 62
     2
100
AcDbMText
 10
208.820651870647
 20
344.281887593047
 30
0.0
 40
2.5
 41
0.0
 71
     5
 72
     1
  1
Lochbild Flügel
  7
CONVERTER_11
 73
     1
 44
1.32052821128451
  0
MTEXT
  5
64
330
1F
100
AcDbEntity
  8
1
 62
     2
100
AcDbMText
 10
150.139524581821
 20
344.281887593047
 30
0.0
 40
2.5
 41
0.0
 71
     5
 72
     1
  1
Lochbild Rahmen
  7
CONVERTER_11
 73
     1
 44
1.32052821128451
  0
DIMENSION
  5
6F
330
1F
100
AcDbEntity
  8
1
100
AcDbDimension
  2
*D1
 10
244.282974955956
 20
303.040116759715
 30
0.0
 11
240.532974955956
 21
288.082531508893
 31
0.0
 70
    32
  1
<>
 71
     5
 42
-1.0
 53
90.0
  3
ME10_DIM_10
100
AcDbAlignedDimension
 13
235.76135270682
 23
273.040116759715
 33
0.0
 14
203.238061040153
 24
303.040116759715
 34
0.0
 50
90.0
100
AcDbRotatedDimension
  0
DIMENSION
  5
7A
330
1F
100
AcDbEntity
  8
1
100
AcDbDimension
  2
*D2
 10
244.282974955956
 20
273.040116759715
 30
0.0
 11
240.532974955956
 21
258.580255479136
 31
0.0
 70
    32
  1
<>
 71
     5
 42
-1.0
 53
90.0
  3
ME10_DIM_11
100
AcDbAlignedDimension
 13
203.238061040153
 23
243.040116759715
 33
0.0
 14
235.76135270682
 24
273.040116759715
 34
0.0
 50
90.0
100
AcDbRotatedDimension
  0
DIMENSION
  5
85
330
1F
100
AcDbEntity
  8
1
100
AcDbDimension
  2
*D3
 10
161.838061040153
 20
180.998636016766
 30
0.0
 11
180.258923463868
 21
184.748636016766
 31
0.0
 70
    32
  1
<>
 71
     5
 42
-1.0
 53
0.00013888888889
  3
ME10_DIM_12
100
AcDbAlignedDimension
 13
199.338061040153
 23
239.140116759715
 33
0.0
 14
161.838061040153
 24
233.540116759715
 34
0.0
100
AcDbRotatedDimension
  0
DIMENSION
  5
90
330
1F
100
AcDbEntity
  8
1
100
AcDbDimension
  2
*D4
 10
199.338061040153
 20
180.998636016766
 30
0.0
 11
205.894629275903
 21
184.748636016766
 31
0.0
 70
    32
  1
<>
 71
     5
 42
-1.0
 53
0.00013888888889
  3
ME10_DIM_13
100
AcDbAlignedDimension
 13
214.338061040153
 23
234.790116759715
 33
0.0
 14
199.338061040153
 24
239.140116759715
 34
0.0
100
AcDbRotatedDimension
  0
DIMENSION
  5
9B
330
1F
100
AcDbEntity
  8
1
100
AcDbDimension
  2
*D5
 10
116.045631102484
 20
308.040116759715
 30
0.0
 11
112.295631102484
 21
289.583863984529
 31
0.0
 70
    32
  1
<>
 71
     5
 42
-1.0
 53
90.0
  3
ME10_DIM_14
100
AcDbAlignedDimension
 13
131.432118657341
 23
273.040116759715
 33
0.0
 14
157.338061040153
 24
308.040116759715
 34
0.0
 50
90.0
100
AcDbRotatedDimension
  0
DIMENSION
  5
A6
330
1F
100
AcDbEntity
  8
1
100
AcDbDimension
  2
*D6
 10
116.045631102484
 20
273.040116759715
 30
0.0
 11
112.295631102484
 21
256.246623825968
 31
0.0
 70
    32
  1
<>
 71
     5
 42
-1.0
 53
90.0
  3
ME10_DIM_15
100
AcDbAlignedDimension
 13
157.338061040153
 23
238.040116759715
 33
0.0
 14
131.432118657341
 24
273.040116759715
 34
0.0
 50
90.0
100
AcDbRotatedDimension
  0
DIMENSION
  5
B1
330
1F
100
AcDbEntity
  8
1
100
AcDbDimension
  2
*D7
 10
161.838061040153
 20
194.283906793244
 30
0.0
 11
169.656867918584
 21
198.033906793244
 31
0.0
 70
    32
  1
<>
 71
     5
 42
-1.0
 53
0.00013888888889
  3
ME10_DIM_16
100
AcDbAlignedDimension
 13
177.838061040153
 23
208.040116759715
 33
0.0
 14
161.838061040153
 24
251.040116759715
 34
0.0
100
AcDbRotatedDimension
  0
DIMENSION
  5
BC
330
1F
100
AcDbEntity
  8
1
100
AcDbDimension
  2
*D8
 10
256.615217746973
 20
309.040116759715
 30
0.0
 11
252.865217746973
 21
292.583863984529
 31
0.0
 70
    32
  1
<>
 71
     5
 42
-1.0
 53
90.0
  3
ME10_DIM_17
100
AcDbAlignedDimension
 13
235.76135270682
 23
273.040116759715
 33
0.0
 14
216.588061040153
 24
309.040116759715
 34
0.0
 50
90.0
100
AcDbRotatedDimension
  0
DIMENSION
  5
C7
330
1F
100
AcDbEntity
  8
1
100
AcDbDimension
  2
*D9
 10
256.615217746973
 20
273.040116759715
 30
0.0
 11
252.865217746973
 21
255.040116759715
 31
0.0
 70
    32
  1
<>
 71
     5
 42
-1.0
 53
90.0
  3
ME10_DIM_18
100
AcDbAlignedDimension
 13
216.588061040153
 23
237.040116759715
 33
0.0
 14
235.76135270682
 24
273.040116759715
 34
0.0
 50
90.0
100
AcDbRotatedDimension
  0
DIMENSION
  5
D2
330
1F
100
AcDbEntity
  8
1
100
AcDbDimension
  2
*D10
 10
126.936601225554
 20
288.040116759715
 30
0.0
 11
123.186601225554
 21
280.445489485042
 31
0.0
 70
    32
  1
<>
 71
     5
 42
-1.0
 53
90.0
  3
ME10_DIM_19
100
AcDbAlignedDimension
 13
131.432118657341
 23
273.040116759715
 33
0.0
 14
154.838061040153
 24
288.040116759715
 34
0.0
 50
90.0
100
AcDbRotatedDimension
  0
DIMENSION
  5
DD
330
1F
100
AcDbEntity
  8
1
100
AcDbDimension
  2
*D11
 10
126.936601225554
 20
273.040116759715
 30
0.0
 11
123.186601225554
 21
265.540116759715
 31
0.0
 70
    32
  1
<>
 71
     5
 42
-1.0
 53
90.0
  3
ME10_DIM_20
100
AcDbAlignedDimension
 13
154.838061040153
 23
258.040116759715
 33
0.0
 14
131.432118657341
 24
273.040116759715
 34
0.0
 50
90.0
100
AcDbRotatedDimension
  0
INSERT
  5
E6
330
1F
100
AcDbEntity
  8
1
100
AcDbBlockReference
  2
*D12
 10
0.0
 20
0.0
 30
0.0
  0
INSERT
  5
EF
330
1F
100
AcDbEntity
  8
1
100
AcDbBlockReference
  2
*D13
 10
0.0
 20
0.0
 30
0.0
  0
INSERT
  5
F8
330
1F
100
AcDbEntity
  8
1
100
AcDbBlockReference
  2
*D14
 10
0.0
 20
0.0
 30
0.0
  0
INSERT
  5
101
330
1F
100
AcDbEntity
  8
1
100
AcDbBlockReference
  2
*D15
 10
0.0
 20
0.0
 30
0.0
  0
ENDSEC
  0
SECTION
  2
OBJECTS
  0
DICTIONARY
  5
C
330
0
100
AcDbDictionary
281
     1
  3
ACAD_GROUP
350
D
  3
ACAD_LAYOUT
350
1A
  3
ACAD_MLINESTYLE
350
17
  3
ACAD_PLOTSETTINGS
350
19
  3
ACAD_PLOTSTYLENAME
350
E
  0
DICTIONARY
  5
D
102
{ACAD_REACTORS
330
C
102
}
330
C
100
AcDbDictionary
281
     1
  0
DICTIONARY
  5
1A
102
{ACAD_REACTORS
330
C
102
}
330
C
100
AcDbDictionary
281
     1
  3
Layout1
350
1E
  3
Layout2
350
26
  3
Model
350
22
  0
DICTIONARY
  5
17
102
{ACAD_REACTORS
330
C
102
}
330
C
100
AcDbDictionary
281
     1
  3
Standard
350
18
  0
DICTIONARY
  5
19
102
{ACAD_REACTORS
330
C
102
}
330
C
100
AcDbDictionary
281
     1
  0
ACDBDICTIONARYWDFLT
  5
E
102
{ACAD_REACTORS
330
C
102
}
330
C
100
AcDbDictionary
281
     1
  3
Normal
350
F
100
AcDbDictionaryWithDefault
340
F
  0
LAYOUT
  5
1E
102
{ACAD_REACTORS
330
1A
102
}
330
1A
100
AcDbPlotSettings
  1

  2

  4

  6

 40
0.0
 41
0.0
 42
0.0
 43
0.0
 44
0.0
 45
0.0
 46
0.0
 47
0.0
 48
0.0
 49
0.0
140
0.0
141
0.0
142
1.0
143
1.0
 70
   688
 72
     0
 73
     0
 74
     5
  7

 75
    16
 76
     0
 77
     2
 78
   300
147
1.0
148
0.0
149
0.0
100
AcDbLayout
  1
Layout1
 70
     1
 71
     1
 10
0.0
 20
0.0
 11
0.0
 21
0.0
 12
0.0
 22
0.0
 32
0.0
 14
0.0
 24
0.0
 34
0.0
 15
0.0
 25
0.0
 35
0.0
146
0.0
 13
0.0
 23
0.0
 33
0.0
 16
1.0
 26
0.0
 36
0.0
 17
0.0
 27
1.0
 37
0.0
 76
     0
330
1B
  0
LAYOUT
  5
26
102
{ACAD_REACTORS
330
1A
102
}
330
1A
100
AcDbPlotSettings
  1

  2

  4

  6

 40
0.0
 41
0.0
 42
0.0
 43
0.0
 44
0.0
 45
0.0
 46
0.0
 47
0.0
 48
0.0
 49
0.0
140
0.0
141
0.0
142
1.0
143
1.0
 70
   688
 72
     0
 73
     0
 74
     5
  7

 75
    16
 76
     0
 77
     2
 78
   300
147
1.0
148
0.0
149
0.0
100
AcDbLayout
  1
Layout2
 70
     1
 71
     2
 10
0.0
 20
0.0
 11
0.0
 21
0.0
 12
0.0
 22
0.0
 32
0.0
 14
0.0
 24
0.0
 34
0.0
 15
0.0
 25
0.0
 35
0.0
146
0.0
 13
0.0
 23
0.0
 33
0.0
 16
1.0
 26
0.0
 36
0.0
 17
0.0
 27
1.0
 37
0.0
 76
     0
330
23
  0
LAYOUT
  5
22
102
{ACAD_REACTORS
330
1A
102
}
330
1A
100
AcDbPlotSettings
  1

  2

  4

  6

 40
0.0
 41
0.0
 42
0.0
 43
0.0
 44
0.0
 45
0.0
 46
0.0
 47
0.0
 48
0.0
 49
0.0
140
0.0
141
0.0
142
1.0
143
1.0
 70
  1712
 72
     0
 73
     0
 74
     0
  7

 75
     0
 76
     0
 77
     2
 78
   300
147
1.0
148
0.0
149
0.0
100
AcDbLayout
  1
Model
 70
     1
 71
     0
 10
0.0
 20
0.0
 11
0.0
 21
0.0
 12
0.0
 22
0.0
 32
0.0
 14
110.545631102484
 24
178.998636016766
 34
0.0
 15
258.615217746973
 25
345.531887593047
 35
0.0
146
0.0
 13
0.0
 23
0.0
 33
0.0
 16
1.0
 26
0.0
 36
0.0
 17
0.0
 27
1.0
 37
0.0
 76
     0
330
1F
  0
MLINESTYLE
  5
18
102
{ACAD_REACTORS
330
17
102
}
330
17
100
AcDbMlineStyle
  2
Standard
 70
     0
  3

 62
   256
 51
90.0
 52
90.0
 71
     2
 49
0.5
 62
   256
  6
BYLAYER
 49
-0.5
 62
   256
  6
BYLAYER
  0
ACDBPLACEHOLDER
  5
F
102
{ACAD_REACTORS
330
E
102
}
330
E
  0
ENDSEC
  0
EOF
