  0
SECTION
  2
HEADER
  9
$ACADVER
  1
AC1018
  9
$ACADMAINTVER
 70
     0
  9
$DWGCODEPAGE
  3
ANSI_1252
  9
$INSBASE
 10
0.0
 20
0.0
 30
0.0
  9
$EXTMIN
 10
-3.08527753870018
 20
134.9129130565
 30
0.0
  9
$EXTMAX
 10
143.559500616515
 20
252.370550839035
 30
0.0
  9
$LIMMIN
 10
0.0
 20
0.0
  9
$LIMMAX
 10
12.0
 20
9.0
  9
$ORTHOMODE
 70
     0
  9
$REGENMODE
 70
     1
  9
$FILLMODE
 70
     1
  9
$QTEXTMODE
 70
     0
  9
$MIRRTEXT
 70
     1
  9
$LTSCALE
 40
1.0
  9
$ATTMODE
 70
     1
  9
$TEXTSIZE
 40
0.2
  9
$TRACEWID
 40
0.05
  9
$TEXTSTYLE
  7
Standard
  9
$CLAYER
  8
0
  9
$CELTYPE
  6
ByLayer
  9
$CECOLOR
 62
   256
  9
$CELTSCALE
 40
1.0
  9
$DISPSILH
 70
     0
  9
$DIMSCALE
 40
1.0
  9
$DIMASZ
 40
0.18
  9
$DIMEXO
 40
0.0625
  9
$DIMDLI
 40
0.38
  9
$DIMRND
 40
0.0
  9
$DIMDLE
 40
0.0
  9
$DIMEXE
 40
0.18
  9
$DIMTP
 40
0.0
  9
$DIMTM
 40
0.0
  9
$DIMTXT
 40
0.18
  9
$DIMCEN
 40
0.09
  9
$DIMTSZ
 40
0.0
  9
$DIMTOL
 70
     0
  9
$DIMLIM
 70
     0
  9
$DIMTIH
 70
     1
  9
$DIMTOH
 70
     1
  9
$DIMSE1
 70
     0
  9
$DIMSE2
 70
     0
  9
$DIMTAD
 70
     0
  9
$DIMZIN
 70
     0
  9
$DIMBLK
  1

  9
$DIMASO
 70
     1
  9
$DIMSHO
 70
     1
  9
$DIMPOST
  1

  9
$DIMAPOST
  1

  9
$DIMALT
 70
     0
  9
$DIMALTD
 70
     2
  9
$DIMALTF
 40
25.4
  9
$DIMLFAC
 40
1.0
  9
$DIMTOFL
 70
     0
  9
$DIMTVP
 40
0.0
  9
$DIMTIX
 70
     0
  9
$DIMSOXD
 70
     0
  9
$DIMSAH
 70
     0
  9
$DIMBLK1
  1

  9
$DIMBLK2
  1

  9
$DIMSTYLE
  2
Standard
  9
$DIMCLRD
 70
     0
  9
$DIMCLRE
 70
     0
  9
$DIMCLRT
 70
     0
  9
$DIMTFAC
 40
1.0
  9
$DIMGAP
 40
0.09
  9
$DIMJUST
 70
     0
  9
$DIMSD1
 70
     0
  9
$DIMSD2
 70
     0
  9
$DIMTOLJ
 70
     1
  9
$DIMTZIN
 70
     0
  9
$DIMALTZ
 70
     0
  9
$DIMALTTZ
 70
     0
  9
$DIMUPT
 70
     0
  9
$DIMDEC
 70
     4
  9
$DIMTDEC
 70
     4
  9
$DIMALTU
 70
     2
  9
$DIMALTTD
 70
     2
  9
$DIMTXSTY
  7
Standard
  9
$DIMAUNIT
 70
     0
  9
$DIMADEC
 70
     0
  9
$DIMALTRND
 40
0.0
  9
$DIMAZIN
 70
     0
  9
$DIMDSEP
 70
    46
  9
$DIMATFIT
 70
     3
  9
$DIMFRAC
 70
     0
  9
$DIMLDRBLK
  1

  9
$DIMLUNIT
 70
     2
  9
$DIMLWD
 70
    -2
  9
$DIMLWE
 70
    -2
  9
$DIMTMOVE
 70
     0
  9
$LUNITS
 70
     2
  9
$LUPREC
 70
     4
  9
$SKETCHINC
 40
0.1
  9
$FILLETRAD
 40
0.5
  9
$AUNITS
 70
     0
  9
$AUPREC
 70
     0
  9
$MENU
  1
.
  9
$ELEVATION
 40
0.0
  9
$PELEVATION
 40
0.0
  9
$THICKNESS
 40
0.0
  9
$LIMCHECK
 70
     0
  9
$CHAMFERA
 40
0.5
  9
$CHAMFERB
 40
0.5
  9
$CHAMFERC
 40
1.0
  9
$CHAMFERD
 40
0.0
  9
$SKPOLY
 70
     0
  9
$TDCREATE
 40
2455810.504881239
  9
$TDUCREATE
 40
2455810.421547905
  9
$TDUPDATE
 40
2455810.50488125
  9
$TDUUPDATE
 40
2455810.421547917
  9
$TDINDWG
 40
0.0000000116
  9
$TDUSRTIMER
 40
0.0000000116
  9
$USRTIMER
 70
     1
  9
$ANGBASE
 50
0.0
  9
$ANGDIR
 70
     0
  9
$PDMODE
 70
     0
  9
$PDSIZE
 40
0.0
  9
$PLINEWID
 40
0.0
  9
$SPLFRAME
 70
     0
  9
$SPLINETYPE
 70
     6
  9
$SPLINESEGS
 70
     8
  9
$HANDSEED
  5
AD
  9
$SURFTAB1
 70
     6
  9
$SURFTAB2
 70
     6
  9
$SURFTYPE
 70
     6
  9
$SURFU
 70
     6
  9
$SURFV
 70
     6
  9
$UCSBASE
  2

  9
$UCSNAME
  2

  9
$UCSORG
 10
0.0
 20
0.0
 30
0.0
  9
$UCSXDIR
 10
1.0
 20
0.0
 30
0.0
  9
$UCSYDIR
 10
0.0
 20
1.0
 30
0.0
  9
$UCSORTHOREF
  2

  9
$UCSORTHOVIEW
 70
     0
  9
$UCSORGTOP
 10
0.0
 20
0.0
 30
0.0
  9
$UCSORGBOTTOM
 10
0.0
 20
0.0
 30
0.0
  9
$UCSORGLEFT
 10
0.0
 20
0.0
 30
0.0
  9
$UCSORGRIGHT
 10
0.0
 20
0.0
 30
0.0
  9
$UCSORGFRONT
 10
0.0
 20
0.0
 30
0.0
  9
$UCSORGBACK
 10
0.0
 20
0.0
 30
0.0
  9
$PUCSBASE
  2

  9
$PUCSNAME
  2

  9
$PUCSORG
 10
0.0
 20
0.0
 30
0.0
  9
$PUCSXDIR
 10
1.0
 20
0.0
 30
0.0
  9
$PUCSYDIR
 10
0.0
 20
1.0
 30
0.0
  9
$PUCSORTHOREF
  2

  9
$PUCSORTHOVIEW
 70
     0
  9
$PUCSORGTOP
 10
0.0
 20
0.0
 30
0.0
  9
$PUCSORGBOTTOM
 10
0.0
 20
0.0
 30
0.0
  9
$PUCSORGLEFT
 10
0.0
 20
0.0
 30
0.0
  9
$PUCSORGRIGHT
 10
0.0
 20
0.0
 30
0.0
  9
$PUCSORGFRONT
 10
0.0
 20
0.0
 30
0.0
  9
$PUCSORGBACK
 10
0.0
 20
0.0
 30
0.0
  9
$USERI1
 70
     0
  9
$USERI2
 70
     0
  9
$USERI3
 70
     0
  9
$USERI4
 70
     0
  9
$USERI5
 70
     0
  9
$USERR1
 40
14.5
  9
$USERR2
 40
0.0
  9
$USERR3
 40
0.0
  9
$USERR4
 40
0.0
  9
$USERR5
 40
0.0
  9
$WORLDVIEW
 70
     1
  9
$SHADEDGE
 70
     3
  9
$SHADEDIF
 70
    70
  9
$TILEMODE
 70
     1
  9
$MAXACTVP
 70
    64
  9
$PINSBASE
 10
0.0
 20
0.0
 30
0.0
  9
$PLIMCHECK
 70
     0
  9
$PEXTMIN
 10
1.00000000000000E+20
 20
1.00000000000000E+20
 30
1.00000000000000E+20
  9
$PEXTMAX
 10
-1.00000000000000E+20
 20
-1.00000000000000E+20
 30
-1.00000000000000E+20
  9
$PLIMMIN
 10
0.0
 20
0.0
  9
$PLIMMAX
 10
12.0
 20
9.0
  9
$UNITMODE
 70
     0
  9
$VISRETAIN
 70
     1
  9
$PLINEGEN
 70
     0
  9
$PSLTSCALE
 70
     1
  9
$TREEDEPTH
 70
  3020
  9
$CMLSTYLE
  2
Standard
  9
$CMLJUST
 70
     0
  9
$CMLSCALE
 40
1.0
  9
$PROXYGRAPHICS
 70
     1
  9
$MEASUREMENT
 70
     1
  9
$CELWEIGHT
370
    -1
  9
$ENDCAPS
280
     0
  9
$JOINSTYLE
280
     0
  9
$LWDISPLAY
290
     0
  9
$INSUNITS
 70
     1
  9
$HYPERLINKBASE
  1

  9
$STYLESHEET
  1

  9
$XEDIT
290
     1
  9
$CEPSNTYPE
380
     0
  9
$PSTYLEMODE
290
     1
  9
$FINGERPRINTGUID
  2
{7AD785B7-9F23-4792-A00A-27028BCBA995}
  9
$VERSIONGUID
  2
{FAEB1C32-E019-11D5-929B-00C0DF256EC4}
  9
$EXTNAMES
290
     1
  9
$PSVPSCALE
 40
0.0
  9
$OLESTARTUP
290
     0
  9
$SORTENTS
280
   127
  9
$INDEXCTL
280
     0
  9
$HIDETEXT
280
     1
  9
$XCLIPFRAME
290
     0
  9
$HALOGAP
280
     0
  9
$OBSCOLOR
 70
   257
  9
$OBSLTYPE
280
     0
  9
$INTERSECTIONDISPLAY
280
     0
  9
$INTERSECTIONCOLOR
 70
   257
  9
$DIMASSOC
280
     2
  9
$PROJECTNAME
  1

  0
ENDSEC
  0
SECTION
  2
CLASSES
  0
CLASS
  1
ACDBDICTIONARYWDFLT
  2
AcDbDictionaryWithDefault
  3
ObjectDBX Classes
 90
        0
 91
        3
280
     0
281
     0
  0
CLASS
  1

  2
exOdDbSpline
  3

 90
        0
 91
        3
280
     0
281
     1
  0
ENDSEC
  0
SECTION
  2
TABLES
  0
TABLE
  2
VPORT
  5
8
330
0
100
AcDbSymbolTable
 70
     1
  0
VPORT
  5
29
330
8
100
AcDbSymbolTableRecord
100
AcDbViewportTableRecord
  2
*Active
 70
     0
 10
0.0
 20
0.0
 11
1.0
 21
1.0
 12
70.23711153890741
 22
193.6417319477675
 13
0.0
 23
0.0
 14
0.5
 24
0.5
 15
0.5
 25
0.5
 16
0.0
 26
0.0
 36
1.0
 17
0.0
 27
0.0
 37
0.0
 40
129.2034015607885
 41
1.60267857142857
 42
50.0
 43
0.0
 44
0.0
 50
0.0
 51
0.0
 71
     0
 72
   100
 73
     1
 74
     3
 75
     0
 76
     0
 77
     0
 78
     0
281
     0
 65
     1
110
0.0
120
0.0
130
0.0
111
1.0
121
0.0
131
0.0
112
0.0
122
1.0
132
0.0
 79
     0
146
0.0
  0
ENDTAB
  0
TABLE
  2
LTYPE
  5
5
330
0
100
AcDbSymbolTable
 70
     8
  0
LTYPE
  5
14
330
5
100
AcDbSymbolTableRecord
100
AcDbLinetypeTableRecord
  2
ByBlock
 70
     0
  3

 72
    65
 73
     0
 40
0.0
  0
LTYPE
  5
15
330
5
100
AcDbSymbolTableRecord
100
AcDbLinetypeTableRecord
  2
ByLayer
 70
     0
  3

 72
    65
 73
     0
 40
0.0
  0
LTYPE
  5
16
330
5
100
AcDbSymbolTableRecord
100
AcDbLinetypeTableRecord
  2
Continuous
 70
     0
  3
Solid line
 72
    65
 73
     0
 40
0.0
  0
LTYPE
  5
2A
330
5
100
AcDbSymbolTableRecord
100
AcDbLinetypeTableRecord
  2
DASHED
 70
     0
  3
Dashed
 72
    65
 73
     2
 40
15.0
 49
7.0
 74
     0
 49
-8.0
 74
     0
  0
LTYPE
  5
2B
330
5
100
AcDbSymbolTableRecord
100
AcDbLinetypeTableRecord
  2
DOTTED
 70
     0
  3
Dotted
 72
    65
 73
     2
 40
1.0
 49
0.0
 74
     0
 49
-1.0
 74
     0
  0
LTYPE
  5
2C
330
5
100
AcDbSymbolTableRecord
100
AcDbLinetypeTableRecord
  2
DOT_CENTER
 70
     0
  3
Dot_Center
 72
    65
 73
     4
 40
14.0
 49
12.0
 74
     0
 49
-1.0
 74
     0
 49
0.0
 74
     0
 49
-1.0
 74
     0
  0
LTYPE
  5
2D
330
5
100
AcDbSymbolTableRecord
100
AcDbLinetypeTableRecord
  2
LONG_DASHED
 70
     0
  3
Long_Dashed
 72
    65
 73
     2
 40
15.0
 49
10.0
 74
     0
 49
-5.0
 74
     0
  0
LTYPE
  5
2E
330
5
100
AcDbSymbolTableRecord
100
AcDbLinetypeTableRecord
  2
DASH_CENTER
 70
     0
  3
Dash_Center
 72
    65
 73
     4
 40
14.0
 49
11.0
 74
     0
 49
-1.0
 74
     0
 49
1.0
 74
     0
 49
-1.0
 74
     0
  0
LTYPE
  5
2F
330
5
100
AcDbSymbolTableRecord
100
AcDbLinetypeTableRecord
  2
PHANTOM
 70
     0
  3
Phantom
 72
    65
 73
     6
 40
13.0
 49
10.0
 74
     0
 49
-1.0
 74
     0
 49
0.0
 74
     0
 49
-1.0
 74
     0
 49
0.0
 74
     0
 49
-1.0
 74
     0
  0
LTYPE
  5
30
330
5
100
AcDbSymbolTableRecord
100
AcDbLinetypeTableRecord
  2
CENTER_DASH_DASH
 70
     0
  3
Center_Dash_Dash
 72
    65
 73
     6
 40
14.0
 49
9.0
 74
     0
 49
-1.0
 74
     0
 49
1.0
 74
     0
 49
-1.0
 74
     0
 49
1.0
 74
     0
 49
-1.0
 74
     0
  0
ENDTAB
  0
TABLE
  2
LAYER
  5
2
330
0
100
AcDbSymbolTable
 70
     6
  0
LAYER
  5
10
330
2
100
AcDbSymbolTableRecord
100
AcDbLayerTableRecord
  2
0
 70
     0
 62
     7
  6
Continuous
370
    -3
390
F
  0
LAYER
  5
31
330
2
100
AcDbSymbolTableRecord
100
AcDbLayerTableRecord
  2
1
 70
     0
 62
     7
  6
Continuous
370
    -3
390
F
  0
LAYER
  5
32
330
2
100
AcDbSymbolTableRecord
100
AcDbLayerTableRecord
  2
A_ACHSEN
 70
     0
 62
     7
  6
Continuous
370
    -3
390
F
  0
LAYER
  5
33
330
2
100
AcDbSymbolTableRecord
100
AcDbLayerTableRecord
  2
B-ACHSEN
 70
     0
 62
     7
  6
Continuous
370
    -3
390
F
  0
LAYER
  5
34
330
2
100
AcDbSymbolTableRecord
100
AcDbLayerTableRecord
  2
DEFAULT_1
 70
     0
 62
     7
  6
Continuous
370
    -3
390
F
  0
LAYER
  5
35
330
2
100
AcDbSymbolTableRecord
100
AcDbLayerTableRecord
  2
DEFAULT_2
 70
     0
 62
     7
  6
Continuous
370
    -3
390
F
  0
ENDTAB
  0
TABLE
  2
STYLE
  5
3
330
0
100
AcDbSymbolTable
 70
     2
  0
STYLE
  5
11
330
3
100
AcDbSymbolTableRecord
100
AcDbTextStyleTableRecord
  2
Standard
 70
     0
 40
0.0
 41
1.0
 50
0.0
 71
     0
 42
0.2
  3
txt
  4

  0
STYLE
  5
78
330
3
100
AcDbSymbolTableRecord
100
AcDbTextStyleTableRecord
  2
CONVERTER_11
 70
     0
 40
0.0
 41
0.9
 50
0.0
 71
     0
 42
0.2
  3
txt.shx
  4

  0
ENDTAB
  0
TABLE
  2
VIEW
  5
6
330
0
100
AcDbSymbolTable
 70
     0
  0
ENDTAB
  0
TABLE
  2
UCS
  5
7
330
0
100
AcDbSymbolTable
 70
     0
  0
ENDTAB
  0
TABLE
  2
APPID
  5
9
330
0
100
AcDbSymbolTable
 70
     1
  0
APPID
  5
12
330
9
100
AcDbSymbolTableRecord
100
AcDbRegAppTableRecord
  2
ACAD
 70
     0
  0
ENDTAB
  0
TABLE
  2
DIMSTYLE
  5
A
330
0
100
AcDbSymbolTable
 70
     6
100
AcDbDimStyleTable
  0
DIMSTYLE
105
27
330
A
100
AcDbSymbolTableRecord
100
AcDbDimStyleTableRecord
  2
Standard
 70
     0
340
11
  0
DIMSTYLE
105
7C
102
{ACAD_REACTORS
330
7D
102
}
330
A
100
AcDbSymbolTableRecord
100
AcDbDimStyleTableRecord
  2
ME10_DIM_10
 70
     0
 41
3.5
 42
0.0
 44
2.0
 73
     0
 74
     0
 77
     1
 78
     8
140
3.5
147
2.0
172
     1
173
     1
176
     2
177
     2
178
     2
271
     3
340
78
  0
DIMSTYLE
105
88
102
{ACAD_REACTORS
330
89
102
}
330
A
100
AcDbSymbolTableRecord
100
AcDbDimStyleTableRecord
  2
ME10_DIM_11
 70
     0
 41
3.5
 42
0.0
 44
2.0
 73
     0
 74
     0
 77
     1
 78
     8
140
3.5
147
2.0
172
     1
173
     1
176
     2
177
     2
178
     2
271
     3
340
78
  0
DIMSTYLE
105
95
102
{ACAD_REACTORS
330
96
102
}
330
A
100
AcDbSymbolTableRecord
100
AcDbDimStyleTableRecord
  2
ME10_DIM_12
 70
     0
  3
ø<>
 41
3.5
 42
0.0
 44
2.0
 73
     0
 74
     0
 77
     1
 78
     8
140
3.5
147
2.0
172
     1
173
     1
176
     2
177
     2
178
     2
271
     3
340
78
  0
DIMSTYLE
105
A0
102
{ACAD_REACTORS
330
A1
102
}
330
A
100
AcDbSymbolTableRecord
100
AcDbDimStyleTableRecord
  2
ME10_DIM_13
 70
     0
 41
3.5
 42
0.0
 44
2.0
 73
     0
 74
     0
 77
     1
 78
     8
140
3.5
147
2.0
172
     1
173
     1
176
     2
177
     2
178
     2
271
     3
340
78
  0
DIMSTYLE
105
AB
102
{ACAD_REACTORS
330
AC
102
}
330
A
100
AcDbSymbolTableRecord
100
AcDbDimStyleTableRecord
  2
ME10_DIM_14
 70
     0
  3
ø<>
 41
3.5
 42
0.0
 44
2.0
 73
     0
 74
     0
 77
     1
 78
     8
140
3.5
147
2.0
172
     1
173
     1
176
     2
177
     2
178
     2
271
     3
340
78
  0
ENDTAB
  0
TABLE
  2
BLOCK_RECORD
  5
1
330
0
100
AcDbSymbolTable
 70
     6
  0
BLOCK_RECORD
  5
1F
330
1
100
AcDbSymbolTableRecord
100
AcDbBlockTableRecord
  2
*Model_Space
340
22
  0
BLOCK_RECORD
  5
1B
330
1
100
AcDbSymbolTableRecord
100
AcDbBlockTableRecord
  2
*Paper_Space
340
1E
  0
BLOCK_RECORD
  5
23
330
1
100
AcDbSymbolTableRecord
100
AcDbBlockTableRecord
  2
*Paper_Space0
340
26
  0
BLOCK_RECORD
  5
72
330
1
100
AcDbSymbolTableRecord
100
AcDbBlockTableRecord
  2
*D1
340
0
  0
BLOCK_RECORD
  5
7E
330
1
100
AcDbSymbolTableRecord
100
AcDbBlockTableRecord
  2
*D2
340
0
  0
BLOCK_RECORD
  5
8A
330
1
100
AcDbSymbolTableRecord
100
AcDbBlockTableRecord
  2
*D3
340
0
  0
BLOCK_RECORD
  5
97
330
1
100
AcDbSymbolTableRecord
100
AcDbBlockTableRecord
  2
*D4
340
0
  0
BLOCK_RECORD
  5
A2
330
1
100
AcDbSymbolTableRecord
100
AcDbBlockTableRecord
  2
*D5
340
0
  0
ENDTAB
  0
ENDSEC
  0
SECTION
  2
BLOCKS
  0
BLOCK
  5
20
330
1F
100
AcDbEntity
  8
0
100
AcDbBlockBegin
  2
*Model_Space
 70
     0
 71
     0
 10
0.0
 20
0.0
 30
0.0
  3
*Model_Space
  1

  0
ENDBLK
  5
21
330
1F
100
AcDbEntity
  8
0
100
AcDbBlockEnd
  0
BLOCK
  5
1C
330
1B
100
AcDbEntity
 67
     1
  8
0
100
AcDbBlockBegin
  2
*Paper_Space
 70
     0
 71
     0
 10
0.0
 20
0.0
 30
0.0
  3
*Paper_Space
  1

  0
ENDBLK
  5
1D
330
1B
100
AcDbEntity
 67
     1
  8
0
100
AcDbBlockEnd
  0
BLOCK
  5
24
330
23
100
AcDbEntity
  8
0
100
AcDbBlockBegin
  2
*Paper_Space0
 70
     0
 71
     0
 10
0.0
 20
0.0
 30
0.0
  3
*Paper_Space0
  1

  0
ENDBLK
  5
25
330
23
100
AcDbEntity
  8
0
100
AcDbBlockEnd
  0
BLOCK
  5
7A
330
72
100
AcDbEntity
  8
0
100
AcDbBlockBegin
  2
*D1
 70
     1
 71
     0
 10
0.0
 20
0.0
 30
0.0
  3
*D1
  1

  0
LINE
  5
73
330
72
100
AcDbEntity
  8
1
  6
Continuous
 62
     2
100
AcDbLine
 10
96.3852960444
 20
216.832015677464
 30
0.0
 11
121.3852960444
 21
216.832015677464
 31
0.0
  0
LINE
  5
74
330
72
100
AcDbEntity
  8
1
  6
Continuous
 62
     2
100
AcDbLine
 10
121.3852960444
 20
204.9628299224
 30
0.0
 11
121.3852960444
 21
218.832015677464
 31
0.0
  0
LINE
  5
75
330
72
100
AcDbEntity
  8
1
  6
Continuous
 62
     2
100
AcDbLine
 10
96.3852960444
 20
231.9129130565
 30
0.0
 11
96.3852960444
 21
214.832015677464
 31
0.0
  0
SOLID
  5
76
330
72
100
AcDbEntity
  8
1
 62
     2
100
AcDbTrace
 10
99.8852960444
 20
217.2927994190199
 30
0.0
 11
99.8852960444
 21
216.3712319359081
 31
0.0
 12
96.3852960444
 22
216.832015677464
 32
0.0
 13
96.3852960444
 23
216.832015677464
 33
0.0
  0
SOLID
  5
77
330
72
100
AcDbEntity
  8
1
 62
     2
100
AcDbTrace
 10
117.8852960444
 20
216.3712319359081
 30
0.0
 11
117.8852960444
 21
217.2927994190199
 31
0.0
 12
121.3852960444
 22
216.832015677464
 32
0.0
 13
121.3852960444
 23
216.832015677464
 33
0.0
  0
MTEXT
  5
79
330
72
100
AcDbEntity
  8
1
 62
     2
100
AcDbMText
 10
105.770109197357
 20
218.832015677464
 30
0.0
 40
3.5
 41
0.0
 71
     7
 72
     1
  1
25
  7
CONVERTER_11
 11
0.9999999999970621
 21
2.424068405545307E-6
 31
0.0
 73
     1
 44
0.60024009603842
  0
ENDBLK
  5
7B
330
72
100
AcDbEntity
  8
0
100
AcDbBlockEnd
  0
BLOCK
  5
86
330
7E
100
AcDbEntity
  8
0
100
AcDbBlockBegin
  2
*D2
 70
     1
 71
     0
 10
0.0
 20
0.0
 30
0.0
  3
*D2
  1

  0
LINE
  5
7F
330
7E
100
AcDbEntity
  8
1
  6
Continuous
 62
     2
100
AcDbLine
 10
141.559500616515
 20
201.9129130565
 30
0.0
 11
141.559500616515
 21
171.9129130565
 31
0.0
  0
LINE
  5
80
330
7E
100
AcDbEntity
  8
1
  6
Continuous
 62
     2
100
AcDbLine
 10
123.3852960444
 20
171.9129130565
 30
0.0
 11
143.559500616515
 21
171.9129130565
 31
0.0
  0
LINE
  5
81
330
7E
100
AcDbEntity
  8
1
  6
Continuous
 62
     2
100
AcDbLine
 10
123.3852960444
 20
201.9129130565
 30
0.0
 11
129.012673276206
 21
201.9129130565
 31
0.0
  0
LINE
  5
82
330
7E
100
AcDbEntity
  8
1
  6
Continuous
 62
     2
100
AcDbLine
 10
133.548537373553
 20
201.9129130565
 30
0.0
 11
143.559500616515
 21
201.9129130565
 31
0.0
  0
SOLID
  5
83
330
7E
100
AcDbEntity
  8
1
 62
     2
100
AcDbTrace
 10
142.0202843580709
 20
198.4129130565
 30
0.0
 11
141.0987168749591
 21
198.4129130565
 31
0.0
 12
141.559500616515
 22
201.9129130565
 32
0.0
 13
141.559500616515
 23
201.9129130565
 33
0.0
  0
SOLID
  5
84
330
7E
100
AcDbEntity
  8
1
 62
     2
100
AcDbTrace
 10
141.0987168749591
 20
175.4129130565
 30
0.0
 11
142.0202843580709
 21
175.4129130565
 31
0.0
 12
141.559500616515
 22
171.9129130565
 32
0.0
 13
141.559500616515
 23
171.9129130565
 33
0.0
  0
MTEXT
  5
85
330
7E
100
AcDbEntity
  8
1
 62
     2
100
AcDbMText
 10
139.559500616515
 20
183.044607170612
 30
0.0
 40
3.5
 41
0.0
 71
     7
 72
     1
  1
30
  7
CONVERTER_11
 11
0.0
 21
1.0
 31
0.0
 73
     1
 44
0.60024009603842
  0
ENDBLK
  5
87
330
7E
100
AcDbEntity
  8
0
100
AcDbBlockEnd
  0
BLOCK
  5
93
330
8A
100
AcDbEntity
  8
0
100
AcDbBlockBegin
  2
*D3
 70
     1
 71
     0
 10
0.0
 20
0.0
 30
0.0
  3
*D3
  1

  0
LINE
  5
8B
330
8A
100
AcDbEntity
  8
1
  6
Continuous
 62
     2
100
AcDbLine
 10
131.113268149898
 20
197.4129130565
 30
0.0
 11
131.113268149898
 21
190.4129130565
 31
0.0
  0
LINE
  5
8C
330
8A
100
AcDbEntity
  8
1
  6
Continuous
 62
     2
100
AcDbLine
 10
131.113268149898
 20
206.4129130565
 30
0.0
 11
131.113268149898
 21
197.4129130565
 31
0.0
  0
LINE
  5
8D
330
8A
100
AcDbEntity
  8
1
  6
Continuous
 62
     2
100
AcDbLine
 10
131.113268149898
 20
214.010882356462
 30
0.0
 11
131.113268149898
 21
206.4129130565
 31
0.0
  0
LINE
  5
8E
330
8A
100
AcDbEntity
  8
1
  6
Continuous
 62
     2
100
AcDbLine
 10
117.884686379
 20
206.4129130565
 30
0.0
 11
133.113268149898
 21
206.4129130565
 31
0.0
  0
LINE
  5
8F
330
8A
100
AcDbEntity
  8
1
  6
Continuous
 62
     2
100
AcDbLine
 10
117.884686379
 20
197.4129130565
 30
0.0
 11
133.113268149898
 21
197.4129130565
 31
0.0
  0
SOLID
  5
90
330
8A
100
AcDbEntity
  8
1
 62
     2
100
AcDbTrace
 10
130.6524844083421
 20
209.9129130565
 30
0.0
 11
131.5740518914539
 21
209.9129130565
 31
0.0
 12
131.113268149898
 22
206.4129130565
 32
0.0
 13
131.113268149898
 23
206.4129130565
 33
0.0
  0
SOLID
  5
91
330
8A
100
AcDbEntity
  8
1
 62
     2
100
AcDbTrace
 10
131.5740518914539
 20
193.9129130565
 30
0.0
 11
130.6524844083421
 21
193.9129130565
 31
0.0
 12
131.113268149898
 22
197.4129130565
 32
0.0
 13
131.113268149898
 23
197.4129130565
 33
0.0
  0
MTEXT
  5
92
330
8A
100
AcDbEntity
  8
1
 62
     2
100
AcDbMText
 10
129.113268149898
 20
209.040882356462
 30
0.0
 40
3.5
 41
0.0
 71
     7
 72
     1
  1
\C2;ø\C2;9
  7
CONVERTER_11
 11
0.0
 21
1.0
 31
0.0
 73
     1
 44
0.60024009603842
  0
ENDBLK
  5
94
330
8A
100
AcDbEntity
  8
0
100
AcDbBlockEnd
  0
BLOCK
  5
9E
330
97
100
AcDbEntity
  8
0
100
AcDbBlockBegin
  2
*D4
 70
     1
 71
     0
 10
0.0
 20
0.0
 30
0.0
  3
*D4
  1

  0
LINE
  5
98
330
97
100
AcDbEntity
  8
1
  6
Continuous
 62
     2
100
AcDbLine
 10
2.41472246129982
 20
236.9129130565
 30
0.0
 11
2.41472246129982
 21
136.9129130565
 31
0.0
  0
LINE
  5
99
330
97
100
AcDbEntity
  8
1
  6
Continuous
 62
     2
100
AcDbLine
 10
16.38529604439998
 20
236.9129130565
 30
0.0
 11
0.41472246129982
 21
236.9129130565
 31
0.0
  0
LINE
  5
9A
330
97
100
AcDbEntity
  8
1
  6
Continuous
 62
     2
100
AcDbLine
 10
16.38529604439998
 20
136.9129130565
 30
0.0
 11
0.41472246129982
 21
136.9129130565
 31
0.0
  0
SOLID
  5
9B
330
97
100
AcDbEntity
  8
1
 62
     2
100
AcDbTrace
 10
2.8755062028557
 20
233.4129130565
 30
0.0
 11
1.95393871974393
 21
233.4129130565
 31
0.0
 12
2.41472246129982
 22
236.9129130565
 32
0.0
 13
2.41472246129982
 23
236.9129130565
 33
0.0
  0
SOLID
  5
9C
330
97
100
AcDbEntity
  8
1
 62
     2
100
AcDbTrace
 10
1.95393871974393
 20
140.4129130565
 30
0.0
 11
2.87550620285571
 21
140.4129130565
 31
0.0
 12
2.41472246129982
 22
136.9129130565
 32
0.0
 13
2.41472246129982
 23
136.9129130565
 33
0.0
  0
MTEXT
  5
9D
330
97
100
AcDbEntity
  8
1
 62
     2
100
AcDbMText
 10
0.41472246129982
 20
183.566427375496
 30
0.0
 40
3.5
 41
0.0
 71
     7
 72
     1
  1
100
  7
CONVERTER_11
 11
0.0
 21
1.0
 31
0.0
 73
     1
 44
0.60024009603842
  0
ENDBLK
  5
9F
330
97
100
AcDbEntity
  8
0
100
AcDbBlockEnd
  0
BLOCK
  5
A9
330
A2
100
AcDbEntity
  8
0
100
AcDbBlockBegin
  2
*D5
 70
     1
 71
     0
 10
0.0
 20
0.0
 30
0.0
  3
*D5
  1

  0
LINE
  5
A3
330
A2
100
AcDbEntity
  8
1
  6
Continuous
 62
     2
100
AcDbLine
 10
90.38529604439998
 20
246.870550839035
 30
0.0
 11
70.38529604440001
 21
246.870550839035
 31
0.0
  0
LINE
  5
A4
330
A2
100
AcDbEntity
  8
1
  6
Continuous
 62
     2
100
AcDbLine
 10
90.38529604439998
 20
236.9129130565
 30
0.0
 11
90.38529604439998
 21
248.870550839035
 31
0.0
  0
LINE
  5
A5
330
A2
100
AcDbEntity
  8
1
  6
Continuous
 62
     2
100
AcDbLine
 10
70.38529604440001
 20
236.9129130565
 30
0.0
 11
70.38529604440001
 21
248.870550839035
 31
0.0
  0
SOLID
  5
A6
330
A2
100
AcDbEntity
  8
1
 62
     2
100
AcDbTrace
 10
86.88529604439998
 20
246.4097670974791
 30
0.0
 11
86.88529604439998
 21
247.3313345805909
 31
0.0
 12
90.38529604439998
 22
246.870550839035
 32
0.0
 13
90.38529604439998
 23
246.870550839035
 33
0.0
  0
SOLID
  5
A7
330
A2
100
AcDbEntity
  8
1
 62
     2
100
AcDbTrace
 10
73.88529604440001
 20
247.3313345805909
 30
0.0
 11
73.88529604440001
 21
246.4097670974791
 31
0.0
 12
70.38529604440001
 22
246.870550839035
 32
0.0
 13
70.38529604440001
 23
246.870550839035
 33
0.0
  0
MTEXT
  5
A8
330
A2
100
AcDbEntity
  8
1
 62
     2
100
AcDbMText
 10
76.31774521722913
 20
248.8705438819587
 30
0.0
 40
3.5
 41
0.0
 71
     7
 72
     1
  1
\C2;ø\C2;20
  7
CONVERTER_11
 11
0.9999999999970621
 21
2.424068405545307E-6
 31
0.0
 73
     1
 44
0.60024009603842
  0
ENDBLK
  5
AA
330
A2
100
AcDbEntity
  8
0
100
AcDbBlockEnd
  0
ENDSEC
  0
SECTION
  2
ENTITIES
  0
LINE
  5
36
330
1F
100
AcDbEntity
  8
A_ACHSEN
  6
Continuous
 62
     7
100
AcDbLine
 10
121.3852960444
 20
174.9629130565
 30
0.0
 11
121.3852960444
 21
168.8629130565
 31
0.0
  0
LINE
  5
37
330
1F
100
AcDbEntity
  8
A_ACHSEN
  6
Continuous
 62
     7
100
AcDbLine
 10
121.3852960444
 20
204.9628299224
 30
0.0
 11
121.3852960444
 21
198.8629961905
 31
0.0
  0
LINE
  5
38
330
1F
100
AcDbEntity
  8
A_ACHSEN
  6
Continuous
 62
     7
100
AcDbLine
 10
117.884686379
 20
197.4129130565
 30
0.0
 11
117.884686379
 21
206.4129130565
 31
0.0
  0
LINE
  5
39
330
1F
100
AcDbEntity
  8
A_ACHSEN
  6
Continuous
 62
     7
100
AcDbLine
 10
117.884686379
 20
167.4129130565
 30
0.0
 11
117.884686379
 21
176.4129130565
 31
0.0
  0
LINE
  5
3A
330
1F
100
AcDbEntity
  8
0
  6
Continuous
 62
     7
100
AcDbLine
 10
96.3852960444
 20
231.9129130565
 30
0.0
 11
96.3852960444
 21
141.9129130565
 31
0.0
  0
LINE
  5
3B
330
1F
100
AcDbEntity
  8
0
  6
Continuous
 62
     7
100
AcDbLine
 10
92.3852960444
 20
231.9129130565
 30
0.0
 11
92.3852960444
 21
141.9129130565
 31
0.0
  0
LINE
  5
3C
330
1F
100
AcDbEntity
  8
0
  6
Continuous
 62
     7
100
AcDbLine
 10
90.3852960444
 20
164.4129130565
 30
0.0
 11
90.3852960444
 21
209.4129130565
 31
0.0
  0
LINE
  5
3D
330
1F
100
AcDbEntity
  8
0
  6
Continuous
 62
     7
100
AcDbLine
 10
90.3852960444
 20
163.6129130565
 30
0.0
 11
90.3852960444
 21
136.9129130565
 31
0.0
  0
LINE
  5
3E
330
1F
100
AcDbEntity
  8
0
  6
Continuous
 62
     7
100
AcDbLine
 10
90.38529604439998
 20
236.9129130565
 30
0.0
 11
90.3852960444
 21
210.2129130565
 31
0.0
  0
LINE
  5
3F
330
1F
100
AcDbEntity
  8
B-ACHSEN
  6
Continuous
 62
     7
100
AcDbLine
 10
88.8852960444
 20
163.6129130565
 30
0.0
 11
88.8852960444
 21
164.4129130565
 31
0.0
  0
LINE
  5
40
330
1F
100
AcDbEntity
  8
B-ACHSEN
  6
Continuous
 62
     7
100
AcDbLine
 10
88.8852960444
 20
210.2129130565
 30
0.0
 11
88.8852960444
 21
209.4129130565
 31
0.0
  0
LINE
  5
41
330
1F
100
AcDbEntity
  8
DEFAULT_1
  6
DOT_CENTER
 62
     2
100
AcDbLine
 10
80.3852960444
 20
134.9129130565
 30
0.0
 11
80.3852960444
 21
238.9129130565
 31
0.0
  0
LINE
  5
42
330
1F
100
AcDbEntity
  8
B-ACHSEN
  6
Continuous
 62
     7
100
AcDbLine
 10
71.8852960444
 20
163.6129130565
 30
0.0
 11
71.8852960444
 21
164.4129130565
 31
0.0
  0
LINE
  5
43
330
1F
100
AcDbEntity
  8
B-ACHSEN
  6
Continuous
 62
     7
100
AcDbLine
 10
71.8852960444
 20
210.2129130565
 30
0.0
 11
71.8852960444
 21
209.4129130565
 31
0.0
  0
LINE
  5
44
330
1F
100
AcDbEntity
  8
DEFAULT_2
  6
DASHED
 62
     2
100
AcDbLine
 10
70.38529604440001
 20
236.9129130565
 30
0.0
 11
70.3852960444
 21
210.2129130565
 31
0.0
  0
LINE
  5
45
330
1F
100
AcDbEntity
  8
0
  6
Continuous
 62
     7
100
AcDbLine
 10
70.3852960444
 20
164.4129130565
 30
0.0
 11
70.3852960444
 21
209.4129130565
 31
0.0
  0
LINE
  5
46
330
1F
100
AcDbEntity
  8
0
  6
Continuous
 62
     7
100
AcDbLine
 10
66.95365176809999
 20
210.2129130565
 30
0.0
 11
66.95365176809999
 21
163.6129130565
 31
0.0
  0
LINE
  5
47
330
1F
100
AcDbEntity
  8
A_ACHSEN
  6
Continuous
 62
     7
100
AcDbLine
 10
66.45365176809999
 20
235.9129130565
 30
0.0
 11
66.45365176809999
 21
236.9129130565
 31
0.0
  0
LINE
  5
48
330
1F
100
AcDbEntity
  8
A_ACHSEN
  6
Continuous
 62
     7
100
AcDbLine
 10
66.45365176809999
 20
137.9129130565
 30
0.0
 11
66.45365176809999
 21
136.9129130565
 31
0.0
  0
LINE
  5
49
330
1F
100
AcDbEntity
  8
0
  6
Continuous
 62
     7
100
AcDbLine
 10
66.1352960444
 20
236.4741625561
 30
0.0
 11
66.1352960444
 21
137.3516635569
 31
0.0
  0
LINE
  5
4A
330
1F
100
AcDbEntity
  8
A_ACHSEN
  6
Continuous
 62
     7
100
AcDbLine
 10
121.3852960444
 20
204.9629130565
 30
0.0
 11
117.884686379
 21
206.4129130565
 31
0.0
  0
LINE
  5
4B
330
1F
100
AcDbEntity
  8
A_ACHSEN
  6
Continuous
 62
     7
100
AcDbLine
 10
121.3852960444
 20
168.8629130565
 30
0.0
 11
117.884686379
 21
167.4129130565
 31
0.0
  0
LINE
  5
4C
330
1F
100
AcDbEntity
  8
0
  6
Continuous
 62
     7
100
AcDbLine
 10
12.38529604439998
 20
232.9129130565
 30
0.0
 11
12.38529604439998
 21
140.9129130565
 31
0.0
  0
LINE
  5
4D
330
1F
100
AcDbEntity
  8
A_ACHSEN
  6
Continuous
 62
     7
100
AcDbLine
 10
121.3852960444
 20
174.9629130565
 30
0.0
 11
117.884686379
 21
176.4129130565
 31
0.0
  0
LINE
  5
4E
330
1F
100
AcDbEntity
  8
0
  6
Continuous
 62
     7
100
AcDbLine
 10
66.45365176809999
 20
136.9129130565
 30
0.0
 11
90.3846592883
 21
136.9129130565
 31
0.0
  0
LINE
  5
4F
330
1F
100
AcDbEntity
  8
0
  6
Continuous
 62
     7
100
AcDbLine
 10
16.38529604439998
 20
136.9129130565
 30
0.0
 11
65.8852960444
 21
136.9129130565
 31
0.0
  0
LINE
  5
50
330
1F
100
AcDbEntity
  8
0
  6
Continuous
 62
     7
100
AcDbLine
 10
66.45365176809999
 20
137.9129130565
 30
0.0
 11
66.1352960444
 21
137.9129130565
 31
0.0
  0
LINE
  5
51
330
1F
100
AcDbEntity
  8
A_ACHSEN
  6
Continuous
 62
     7
100
AcDbLine
 10
121.3852960444
 20
198.8629130565
 30
0.0
 11
117.884686379
 21
197.4129130565
 31
0.0
  0
LINE
  5
52
330
1F
100
AcDbEntity
  8
0
  6
Continuous
 62
     7
100
AcDbLine
 10
96.3852960444
 20
141.9129130565
 30
0.0
 11
92.3852960444
 21
141.9129130565
 31
0.0
  0
LINE
  5
53
330
1F
100
AcDbEntity
  8
DEFAULT_1
  6
DOT_CENTER
 62
     2
100
AcDbLine
 10
100.6352960444
 20
151.9129130565
 30
0.0
 11
90.3852960444
 21
151.9129130565
 31
0.0
  0
LINE
  5
54
330
1F
100
AcDbEntity
  8
0
  6
Continuous
 62
     7
100
AcDbLine
 10
88.8852960444
 20
163.6129130565
 30
0.0
 11
90.3853576984
 21
163.6129130565
 31
0.0
  0
LINE
  5
55
330
1F
100
AcDbEntity
  8
0
  6
Continuous
 62
     7
100
AcDbLine
 10
70.3854708305
 20
164.4129130565
 30
0.0
 11
90.3851212583
 21
164.4129130565
 31
0.0
  0
LINE
  5
56
330
1F
100
AcDbEntity
  8
0
  6
Continuous
 62
     7
100
AcDbLine
 10
90.3852960444
 20
165.4129130565
 30
0.0
 11
92.3852960444
 21
165.4129130565
 31
0.0
  0
LINE
  5
57
330
1F
100
AcDbEntity
  8
A_ACHSEN
  6
Continuous
 62
     7
100
AcDbLine
 10
96.3852960444
 20
167.4129130565
 30
0.0
 11
117.884686379
 21
167.4129130565
 31
0.0
  0
LINE
  5
58
330
1F
100
AcDbEntity
  8
DEFAULT_1
  6
DOT_CENTER
 62
     2
100
AcDbLine
 10
91.8852960444
 20
171.9129130565
 30
0.0
 11
123.3852960444
 21
171.9129130565
 31
0.0
  0
LINE
  5
59
330
1F
100
AcDbEntity
  8
A_ACHSEN
  6
Continuous
 62
     7
100
AcDbLine
 10
96.3852960444
 20
176.4129130565
 30
0.0
 11
117.884686379
 21
176.4129130565
 31
0.0
  0
LINE
  5
5A
330
1F
100
AcDbEntity
  8
DEFAULT_1
  6
DOT_CENTER
 62
     2
100
AcDbLine
 10
102.0042340888
 20
186.9129130565
 30
0.0
 11
92.3852960444
 21
186.9129130565
 31
0.0
  0
LINE
  5
5B
330
1F
100
AcDbEntity
  8
DEFAULT_1
  6
DOT_CENTER
 62
     2
100
AcDbLine
 10
65.9070052888
 20
186.9129130565
 30
0.0
 11
92.3852960444
 21
186.9129130565
 31
0.0
  0
LINE
  5
5C
330
1F
100
AcDbEntity
  8
DEFAULT_1
  6
DOT_CENTER
 62
     2
100
AcDbLine
 10
10.38529604439998
 20
186.9129130565
 30
0.0
 11
65.9070052888
 21
186.9129130565
 31
0.0
  0
LINE
  5
5D
330
1F
100
AcDbEntity
  8
A_ACHSEN
  6
Continuous
 62
     7
100
AcDbLine
 10
96.3852960444
 20
197.4129130565
 30
0.0
 11
117.884686379
 21
197.4129130565
 31
0.0
  0
LINE
  5
5E
330
1F
100
AcDbEntity
  8
DEFAULT_1
  6
DOT_CENTER
 62
     2
100
AcDbLine
 10
91.8852960444
 20
201.9129130565
 30
0.0
 11
123.3852960444
 21
201.9129130565
 31
0.0
  0
LINE
  5
5F
330
1F
100
AcDbEntity
  8
A_ACHSEN
  6
Continuous
 62
     7
100
AcDbLine
 10
96.3852960444
 20
206.4129130565
 30
0.0
 11
117.884686379
 21
206.4129130565
 31
0.0
  0
LINE
  5
60
330
1F
100
AcDbEntity
  8
0
  6
Continuous
 62
     7
100
AcDbLine
 10
90.3852960444
 20
208.4129130565
 30
0.0
 11
92.3852960444
 21
208.4129130565
 31
0.0
  0
LINE
  5
61
330
1F
100
AcDbEntity
  8
0
  6
Continuous
 62
     7
100
AcDbLine
 10
70.3854708305
 20
209.4129130565
 30
0.0
 11
90.3851212583
 21
209.4129130565
 31
0.0
  0
LINE
  5
62
330
1F
100
AcDbEntity
  8
0
  6
Continuous
 62
     7
100
AcDbLine
 10
88.8852960444
 20
210.2129130565
 30
0.0
 11
90.3853576984
 21
210.2129130565
 31
0.0
  0
LINE
  5
63
330
1F
100
AcDbEntity
  8
DEFAULT_1
  6
DOT_CENTER
 62
     2
100
AcDbLine
 10
100.6352960444
 20
221.9129130565
 30
0.0
 11
90.3852960444
 21
221.9129130565
 31
0.0
  0
LINE
  5
64
330
1F
100
AcDbEntity
  8
0
  6
Continuous
 62
     7
100
AcDbLine
 10
96.3852960444
 20
231.9129130565
 30
0.0
 11
92.3852960444
 21
231.9129130565
 31
0.0
  0
LINE
  5
65
330
1F
100
AcDbEntity
  8
0
  6
Continuous
 62
     7
100
AcDbLine
 10
66.45365176809999
 20
235.9129130565
 30
0.0
 11
66.1352960444
 21
235.9129130565
 31
0.0
  0
LINE
  5
66
330
1F
100
AcDbEntity
  8
0
  6
Continuous
 62
     7
100
AcDbLine
 10
65.8852960444
 20
236.9129130565
 30
0.0
 11
16.38529604439998
 21
236.9129130565
 31
0.0
  0
LINE
  5
67
330
1F
100
AcDbEntity
  8
0
  6
Continuous
 62
     7
100
AcDbLine
 10
66.45365176809999
 20
236.9129130565
 30
0.0
 11
90.3846592883
 21
236.9129130565
 31
0.0
  0
LINE
  5
68
330
1F
100
AcDbEntity
  8
0
  6
Continuous
 62
     7
100
AcDbLine
 10
66.95365176809999
 20
163.6129130565
 30
0.0
 11
71.8852960444
 21
163.6129130565
 31
0.0
  0
LINE
  5
69
330
1F
100
AcDbEntity
  8
0
  6
Continuous
 62
     7
100
AcDbLine
 10
71.8852960444
 20
163.6129130565
 30
0.0
 11
88.8852960444
 21
163.6129130565
 31
0.0
  0
LINE
  5
6A
330
1F
100
AcDbEntity
  8
DEFAULT_2
  6
DASHED
 62
     2
100
AcDbLine
 10
70.3852960444
 20
163.6129130565
 30
0.0
 11
70.3852960444
 21
136.9129130565
 31
0.0
  0
LINE
  5
6B
330
1F
100
AcDbEntity
  8
0
  6
Continuous
 62
     7
100
AcDbLine
 10
66.95365176809999
 20
210.2129130565
 30
0.0
 11
71.8852960444
 21
210.2129130565
 31
0.0
  0
LINE
  5
6C
330
1F
100
AcDbEntity
  8
0
  6
Continuous
 62
     7
100
AcDbLine
 10
71.8852960444
 20
210.2129130565
 30
0.0
 11
88.8852960444
 21
210.2129130565
 31
0.0
  0
ARC
  5
6D
330
1F
100
AcDbEntity
  8
0
  6
Continuous
 62
     7
100
AcDbCircle
 10
16.38529604439998
 20
232.9129130565
 30
0.0
 40
4.0
100
AcDbArc
 50
90.0
 51
180.0
  0
ARC
  5
6E
330
1F
100
AcDbEntity
  8
0
  6
Continuous
 62
     7
100
AcDbCircle
 10
16.38529604439998
 20
140.9129130565
 30
0.0
 40
3.999999999999998
100
AcDbArc
 50
180.0
 51
-90.0
  0
SPLINE
  5
6F
330
1F
100
AcDbEntity
  8
0
  6
Continuous
 62
     7
100
AcDbSpline
210
0.0
220
0.0
230
1.0
 70
     8
 71
     3
 72
    11
 73
     7
 74
     5
 42
0.0000000001
 43
0.0000000001
 44
0.00000001
 40
0.0
 40
0.0
 40
0.0
 40
0.0
 40
0.1781023490195493
 40
0.355696989961315
 40
0.4422166624239202
 40
0.5266644249078531
 40
0.5266644249078531
 40
0.5266644249078531
 40
0.5266644249078531
 10
66.1352960444
 20
137.3516635569
 30
0.0
 10
66.11987770258337
 20
137.2940854867903
 30
0.0
 10
66.08908497129957
 20
137.1790934816957
 30
0.0
 10
66.03126102890295
 20
137.0453130102384
 30
0.0
 10
65.96837832817116
 20
136.9414193168618
 30
0.0
 10
65.91276548645793
 20
136.9223380630328
 30
0.0
 10
65.8852960444
 20
136.9129130565
 30
0.0
 11
66.1352960444
 21
137.3516635569
 31
0.0
 11
66.08510030357282
 21
137.1807810407402
 31
0.0
 11
66.01342344406228
 21
137.0182932433463
 31
0.0
 11
65.96166122608781
 21
136.9489655684004
 31
0.0
 11
65.8852960444
 21
136.9129130565
 31
0.0
  0
SPLINE
  5
70
330
1F
100
AcDbEntity
  8
0
  6
Continuous
 62
     7
100
AcDbSpline
210
0.0
220
0.0
230
1.0
 70
     8
 71
     3
 72
    11
 73
     7
 74
     5
 42
0.0000000001
 43
0.0000000001
 44
0.00000001
 40
0.0
 40
0.0
 40
0.0
 40
0.0
 40
0.0930976383746814
 40
0.1880343733042085
 40
0.3570844864244649
 40
0.5263018889793114
 40
0.5263018889793114
 40
0.5263018889793114
 40
0.5263018889793114
 10
65.8852960444
 20
236.9129130565
 30
0.0
 10
65.91525776419442
 20
236.9015547764903
 30
0.0
 10
65.97577308233801
 20
236.8786138394189
 30
0.0
 10
66.03594497835783
 20
236.769587416255
 30
0.0
 10
66.09178755045707
 20
236.638364029001
 30
0.0
 10
66.12078843231218
 20
236.5289144230853
 30
0.0
 10
66.1352960444
 20
236.4741625561
 30
0.0
 11
65.8852960444
 21
236.9129130565
 31
0.0
 11
65.96811403601255
 21
236.8703883514898
 31
0.0
 11
66.02210410173026
 21
236.7922982980715
 31
0.0
 11
66.08811864922083
 21
236.6366704719426
 31
0.0
 11
66.1352960444
 21
236.4741625561
 31
0.0
  0
XLINE
  5
71
330
1F
100
AcDbEntity
  8
1
  6
DOT_CENTER
 62
     3
 60
     1
100
AcDbXline
 10
65.9070052888
 20
186.9129130565
 30
0.0
 11
-1.0
 21
0.0
 31
0.0
  0
DIMENSION
  5
7D
330
1F
100
AcDbEntity
  8
1
100
AcDbDimension
  2
*D1
 10
96.3852960444
 20
216.832015677464
 30
0.0
 11
108.395109197357
 21
220.582015677464
 31
0.0
 70
    32
  1
<>
 71
     5
 42
-1.0
 53
0.00013888888889
  3
ME10_DIM_10
100
AcDbAlignedDimension
 13
121.3852960444
 23
204.9628299224
 33
0.0
 14
96.3852960444
 24
231.9129130565
 34
0.0
100
AcDbRotatedDimension
  0
DIMENSION
  5
89
330
1F
100
AcDbEntity
  8
1
100
AcDbDimension
  2
*D2
 10
141.559500616515
 20
201.9129130565
 30
0.0
 11
137.809500616515
 21
185.669607170612
 31
0.0
 70
    32
  1
<>
 71
     5
 42
-1.0
 53
90.0
  3
ME10_DIM_11
100
AcDbAlignedDimension
 13
123.3852960444
 23
171.9129130565
 33
0.0
 14
123.3852960444
 24
201.9129130565
 34
0.0
 50
90.0
100
AcDbRotatedDimension
  0
DIMENSION
  5
96
330
1F
100
AcDbEntity
  8
1
100
AcDbDimension
  2
*D3
 10
131.113268149898
 20
206.4129130565
 30
0.0
 11
127.363268149898
 21
210.860882356462
 31
0.0
 70
    32
  1
<>
 71
     5
 42
-1.0
 53
90.0
  3
ME10_DIM_12
100
AcDbAlignedDimension
 13
117.884686379
 23
197.4129130565
 33
0.0
 14
117.884686379
 24
206.4129130565
 34
0.0
 50
90.0
100
AcDbRotatedDimension
  0
DIMENSION
  5
A1
330
1F
100
AcDbEntity
  8
1
100
AcDbDimension
  2
*D4
 10
2.41472246129982
 20
236.9129130565
 30
0.0
 11
-1.33527753870018
 21
187.241427375496
 31
0.0
 70
    32
  1
<>
 71
     5
 42
-1.0
 53
90.0
  3
ME10_DIM_13
100
AcDbAlignedDimension
 13
16.38529604439998
 23
136.9129130565
 33
0.0
 14
16.38529604439998
 24
236.9129130565
 34
0.0
 50
90.0
100
AcDbRotatedDimension
  0
DIMENSION
  5
AC
330
1F
100
AcDbEntity
  8
1
100
AcDbDimension
  2
*D5
 10
90.38529604439998
 20
246.870550839035
 30
0.0
 11
79.7127452172207
 21
250.620550839035
 31
0.0
 70
    32
  1
<>
 71
     5
 42
-1.0
 53
0.00013888888889
  3
ME10_DIM_14
100
AcDbAlignedDimension
 13
70.38529604440001
 23
236.9129130565
 33
0.0
 14
90.38529604439998
 24
236.9129130565
 34
0.0
100
AcDbRotatedDimension
  0
ENDSEC
  0
SECTION
  2
OBJECTS
  0
DICTIONARY
  5
C
330
0
100
AcDbDictionary
281
     1
  3
ACAD_GROUP
350
D
  3
ACAD_LAYOUT
350
1A
  3
ACAD_MLINESTYLE
350
17
  3
ACAD_PLOTSETTINGS
350
19
  3
ACAD_PLOTSTYLENAME
350
E
  0
DICTIONARY
  5
D
102
{ACAD_REACTORS
330
C
102
}
330
C
100
AcDbDictionary
281
     1
  0
DICTIONARY
  5
1A
102
{ACAD_REACTORS
330
C
102
}
330
C
100
AcDbDictionary
281
     1
  3
Layout1
350
1E
  3
Layout2
350
26
  3
Model
350
22
  0
DICTIONARY
  5
17
102
{ACAD_REACTORS
330
C
102
}
330
C
100
AcDbDictionary
281
     1
  3
Standard
350
18
  0
DICTIONARY
  5
19
102
{ACAD_REACTORS
330
C
102
}
330
C
100
AcDbDictionary
281
     1
  0
ACDBDICTIONARYWDFLT
  5
E
102
{ACAD_REACTORS
330
C
102
}
330
C
100
AcDbDictionary
281
     1
  3
Normal
350
F
100
AcDbDictionaryWithDefault
340
F
  0
LAYOUT
  5
1E
102
{ACAD_REACTORS
330
1A
102
}
330
1A
100
AcDbPlotSettings
  1

  2

  4

  6

 40
0.0
 41
0.0
 42
0.0
 43
0.0
 44
0.0
 45
0.0
 46
0.0
 47
0.0
 48
0.0
 49
0.0
140
0.0
141
0.0
142
1.0
143
1.0
 70
   688
 72
     0
 73
     0
 74
     5
  7

 75
    16
 76
     0
 77
     2
 78
   300
147
1.0
148
0.0
149
0.0
100
AcDbLayout
  1
Layout1
 70
     1
 71
     1
 10
0.0
 20
0.0
 11
0.0
 21
0.0
 12
0.0
 22
0.0
 32
0.0
 14
0.0
 24
0.0
 34
0.0
 15
0.0
 25
0.0
 35
0.0
146
0.0
 13
0.0
 23
0.0
 33
0.0
 16
1.0
 26
0.0
 36
0.0
 17
0.0
 27
1.0
 37
0.0
 76
     0
330
1B
  0
LAYOUT
  5
26
102
{ACAD_REACTORS
330
1A
102
}
330
1A
100
AcDbPlotSettings
  1

  2

  4

  6

 40
0.0
 41
0.0
 42
0.0
 43
0.0
 44
0.0
 45
0.0
 46
0.0
 47
0.0
 48
0.0
 49
0.0
140
0.0
141
0.0
142
1.0
143
1.0
 70
   688
 72
     0
 73
     0
 74
     5
  7

 75
    16
 76
     0
 77
     2
 78
   300
147
1.0
148
0.0
149
0.0
100
AcDbLayout
  1
Layout2
 70
     1
 71
     2
 10
0.0
 20
0.0
 11
0.0
 21
0.0
 12
0.0
 22
0.0
 32
0.0
 14
0.0
 24
0.0
 34
0.0
 15
0.0
 25
0.0
 35
0.0
146
0.0
 13
0.0
 23
0.0
 33
0.0
 16
1.0
 26
0.0
 36
0.0
 17
0.0
 27
1.0
 37
0.0
 76
     0
330
23
  0
LAYOUT
  5
22
102
{ACAD_REACTORS
330
1A
102
}
330
1A
100
AcDbPlotSettings
  1

  2

  4

  6

 40
0.0
 41
0.0
 42
0.0
 43
0.0
 44
0.0
 45
0.0
 46
0.0
 47
0.0
 48
0.0
 49
0.0
140
0.0
141
0.0
142
1.0
143
1.0
 70
  1712
 72
     0
 73
     0
 74
     0
  7

 75
     0
 76
     0
 77
     2
 78
   300
147
1.0
148
0.0
149
0.0
100
AcDbLayout
  1
Model
 70
     1
 71
     0
 10
0.0
 20
0.0
 11
0.0
 21
0.0
 12
0.0
 22
0.0
 32
0.0
 14
-3.08527753870018
 24
134.9129130565
 34
0.0
 15
143.559500616515
 25
252.370550839035
 35
0.0
146
0.0
 13
0.0
 23
0.0
 33
0.0
 16
1.0
 26
0.0
 36
0.0
 17
0.0
 27
1.0
 37
0.0
 76
     0
330
1F
  0
MLINESTYLE
  5
18
102
{ACAD_REACTORS
330
17
102
}
330
17
100
AcDbMlineStyle
  2
Standard
 70
     0
  3

 62
   256
 51
90.0
 52
90.0
 71
     2
 49
0.5
 62
   256
  6
BYLAYER
 49
-0.5
 62
   256
  6
BYLAYER
  0
ACDBPLACEHOLDER
  5
F
102
{ACAD_REACTORS
330
E
102
}
330
E
  0
ENDSEC
  0
EOF
