  0
SECTION
  2
HEADER
  9
$ACADVER
  1
AC1018
  9
$ACADMAINTVER
 70
     0
  9
$DWGCODEPAGE
  3
ANSI_1252
  9
$INSBASE
 10
0.0
 20
0.0
 30
0.0
  9
$EXTMIN
 10
-271.1203618519853
 20
-142.9963934281756
 30
0.0
  9
$EXTMAX
 10
146.6030929563084
 20
72.86610504955101
 30
0.0
  9
$LIMMIN
 10
0.0
 20
0.0
  9
$LIMMAX
 10
12.0
 20
9.0
  9
$ORTHOMODE
 70
     0
  9
$REGENMODE
 70
     1
  9
$FILLMODE
 70
     1
  9
$QTEXTMODE
 70
     0
  9
$MIRRTEXT
 70
     1
  9
$LTSCALE
 40
1.0
  9
$ATTMODE
 70
     1
  9
$TEXTSIZE
 40
0.2
  9
$TRACEWID
 40
0.05
  9
$TEXTSTYLE
  7
Standard
  9
$CLAYER
  8
0
  9
$CELTYPE
  6
ByLayer
  9
$CECOLOR
 62
   256
  9
$CELTSCALE
 40
1.0
  9
$DISPSILH
 70
     0
  9
$DIMSCALE
 40
1.0
  9
$DIMASZ
 40
0.18
  9
$DIMEXO
 40
0.0625
  9
$DIMDLI
 40
0.38
  9
$DIMRND
 40
0.0
  9
$DIMDLE
 40
0.0
  9
$DIMEXE
 40
0.18
  9
$DIMTP
 40
0.0
  9
$DIMTM
 40
0.0
  9
$DIMTXT
 40
0.18
  9
$DIMCEN
 40
0.09
  9
$DIMTSZ
 40
0.0
  9
$DIMTOL
 70
     0
  9
$DIMLIM
 70
     0
  9
$DIMTIH
 70
     1
  9
$DIMTOH
 70
     1
  9
$DIMSE1
 70
     0
  9
$DIMSE2
 70
     0
  9
$DIMTAD
 70
     0
  9
$DIMZIN
 70
     0
  9
$DIMBLK
  1

  9
$DIMASO
 70
     1
  9
$DIMSHO
 70
     1
  9
$DIMPOST
  1

  9
$DIMAPOST
  1

  9
$DIMALT
 70
     0
  9
$DIMALTD
 70
     2
  9
$DIMALTF
 40
25.4
  9
$DIMLFAC
 40
1.0
  9
$DIMTOFL
 70
     0
  9
$DIMTVP
 40
0.0
  9
$DIMTIX
 70
     0
  9
$DIMSOXD
 70
     0
  9
$DIMSAH
 70
     0
  9
$DIMBLK1
  1

  9
$DIMBLK2
  1

  9
$DIMSTYLE
  2
Standard
  9
$DIMCLRD
 70
     0
  9
$DIMCLRE
 70
     0
  9
$DIMCLRT
 70
     0
  9
$DIMTFAC
 40
1.0
  9
$DIMGAP
 40
0.09
  9
$DIMJUST
 70
     0
  9
$DIMSD1
 70
     0
  9
$DIMSD2
 70
     0
  9
$DIMTOLJ
 70
     1
  9
$DIMTZIN
 70
     0
  9
$DIMALTZ
 70
     0
  9
$DIMALTTZ
 70
     0
  9
$DIMUPT
 70
     0
  9
$DIMDEC
 70
     4
  9
$DIMTDEC
 70
     4
  9
$DIMALTU
 70
     2
  9
$DIMALTTD
 70
     2
  9
$DIMTXSTY
  7
Standard
  9
$DIMAUNIT
 70
     0
  9
$DIMADEC
 70
     0
  9
$DIMALTRND
 40
0.0
  9
$DIMAZIN
 70
     0
  9
$DIMDSEP
 70
    46
  9
$DIMATFIT
 70
     3
  9
$DIMFRAC
 70
     0
  9
$DIMLDRBLK
  1

  9
$DIMLUNIT
 70
     2
  9
$DIMLWD
 70
    -2
  9
$DIMLWE
 70
    -2
  9
$DIMTMOVE
 70
     0
  9
$LUNITS
 70
     2
  9
$LUPREC
 70
     4
  9
$SKETCHINC
 40
0.1
  9
$FILLETRAD
 40
0.5
  9
$AUNITS
 70
     0
  9
$AUPREC
 70
     0
  9
$MENU
  1
.
  9
$ELEVATION
 40
0.0
  9
$PELEVATION
 40
0.0
  9
$THICKNESS
 40
0.0
  9
$LIMCHECK
 70
     0
  9
$CHAMFERA
 40
0.5
  9
$CHAMFERB
 40
0.5
  9
$CHAMFERC
 40
1.0
  9
$CHAMFERD
 40
0.0
  9
$SKPOLY
 70
     0
  9
$TDCREATE
 40
2454721.357572292
  9
$TDUCREATE
 40
2454721.274238958
  9
$TDUPDATE
 40
2454721.357572303
  9
$TDUUPDATE
 40
2454721.27423897
  9
$TDINDWG
 40
0.0000000116
  9
$TDUSRTIMER
 40
0.0000000116
  9
$USRTIMER
 70
     1
  9
$ANGBASE
 50
0.0
  9
$ANGDIR
 70
     0
  9
$PDMODE
 70
     0
  9
$PDSIZE
 40
0.0
  9
$PLINEWID
 40
0.0
  9
$SPLFRAME
 70
     0
  9
$SPLINETYPE
 70
     6
  9
$SPLINESEGS
 70
     8
  9
$HANDSEED
  5
25E
  9
$SURFTAB1
 70
     6
  9
$SURFTAB2
 70
     6
  9
$SURFTYPE
 70
     6
  9
$SURFU
 70
     6
  9
$SURFV
 70
     6
  9
$UCSBASE
  2

  9
$UCSNAME
  2

  9
$UCSORG
 10
0.0
 20
0.0
 30
0.0
  9
$UCSXDIR
 10
1.0
 20
0.0
 30
0.0
  9
$UCSYDIR
 10
0.0
 20
1.0
 30
0.0
  9
$UCSORTHOREF
  2

  9
$UCSORTHOVIEW
 70
     0
  9
$UCSORGTOP
 10
0.0
 20
0.0
 30
0.0
  9
$UCSORGBOTTOM
 10
0.0
 20
0.0
 30
0.0
  9
$UCSORGLEFT
 10
0.0
 20
0.0
 30
0.0
  9
$UCSORGRIGHT
 10
0.0
 20
0.0
 30
0.0
  9
$UCSORGFRONT
 10
0.0
 20
0.0
 30
0.0
  9
$UCSORGBACK
 10
0.0
 20
0.0
 30
0.0
  9
$PUCSBASE
  2

  9
$PUCSNAME
  2

  9
$PUCSORG
 10
0.0
 20
0.0
 30
0.0
  9
$PUCSXDIR
 10
1.0
 20
0.0
 30
0.0
  9
$PUCSYDIR
 10
0.0
 20
1.0
 30
0.0
  9
$PUCSORTHOREF
  2

  9
$PUCSORTHOVIEW
 70
     0
  9
$PUCSORGTOP
 10
0.0
 20
0.0
 30
0.0
  9
$PUCSORGBOTTOM
 10
0.0
 20
0.0
 30
0.0
  9
$PUCSORGLEFT
 10
0.0
 20
0.0
 30
0.0
  9
$PUCSORGRIGHT
 10
0.0
 20
0.0
 30
0.0
  9
$PUCSORGFRONT
 10
0.0
 20
0.0
 30
0.0
  9
$PUCSORGBACK
 10
0.0
 20
0.0
 30
0.0
  9
$USERI1
 70
     0
  9
$USERI2
 70
     0
  9
$USERI3
 70
     0
  9
$USERI4
 70
     0
  9
$USERI5
 70
     0
  9
$USERR1
 40
14.5
  9
$USERR2
 40
0.0
  9
$USERR3
 40
0.0
  9
$USERR4
 40
0.0
  9
$USERR5
 40
0.0
  9
$WORLDVIEW
 70
     1
  9
$SHADEDGE
 70
     3
  9
$SHADEDIF
 70
    70
  9
$TILEMODE
 70
     1
  9
$MAXACTVP
 70
    64
  9
$PINSBASE
 10
0.0
 20
0.0
 30
0.0
  9
$PLIMCHECK
 70
     0
  9
$PEXTMIN
 10
1.00000000000000E+20
 20
1.00000000000000E+20
 30
1.00000000000000E+20
  9
$PEXTMAX
 10
-1.00000000000000E+20
 20
-1.00000000000000E+20
 30
-1.00000000000000E+20
  9
$PLIMMIN
 10
0.0
 20
0.0
  9
$PLIMMAX
 10
12.0
 20
9.0
  9
$UNITMODE
 70
     0
  9
$VISRETAIN
 70
     1
  9
$PLINEGEN
 70
     0
  9
$PSLTSCALE
 70
     1
  9
$TREEDEPTH
 70
  3020
  9
$CMLSTYLE
  2
Standard
  9
$CMLJUST
 70
     0
  9
$CMLSCALE
 40
1.0
  9
$PROXYGRAPHICS
 70
     1
  9
$MEASUREMENT
 70
     1
  9
$CELWEIGHT
370
    -1
  9
$ENDCAPS
280
     0
  9
$JOINSTYLE
280
     0
  9
$LWDISPLAY
290
     0
  9
$INSUNITS
 70
     1
  9
$HYPERLINKBASE
  1

  9
$STYLESHEET
  1

  9
$XEDIT
290
     1
  9
$CEPSNTYPE
380
     0
  9
$PSTYLEMODE
290
     1
  9
$FINGERPRINTGUID
  2
{59D18E7E-EFB7-4151-A3D6-1288D20CA426}
  9
$VERSIONGUID
  2
{FAEB1C32-E019-11D5-929B-00C0DF256EC4}
  9
$EXTNAMES
290
     1
  9
$PSVPSCALE
 40
0.0
  9
$OLESTARTUP
290
     0
  9
$SORTENTS
280
   127
  9
$INDEXCTL
280
     0
  9
$HIDETEXT
280
     1
  9
$XCLIPFRAME
290
     0
  9
$HALOGAP
280
     0
  9
$OBSCOLOR
 70
   257
  9
$OBSLTYPE
280
     0
  9
$INTERSECTIONDISPLAY
280
     0
  9
$INTERSECTIONCOLOR
 70
   257
  9
$DIMASSOC
280
     2
  9
$PROJECTNAME
  1

  0
ENDSEC
  0
SECTION
  2
CLASSES
  0
CLASS
  1
ACDBDICTIONARYWDFLT
  2
AcDbDictionaryWithDefault
  3
ObjectDBX Classes
 90
        0
 91
        3
280
     0
281
     0
  0
CLASS
  1

  2
exOdDbCircle
  3

 90
        0
 91
        3
280
     0
281
     1
  0
CLASS
  1

  2
exOdDbPolyline
  3

 90
        0
 91
        3
280
     0
281
     1
  0
ENDSEC
  0
SECTION
  2
TABLES
  0
TABLE
  2
VPORT
  5
8
330
0
100
AcDbSymbolTable
 70
     1
  0
VPORT
  5
29
330
8
100
AcDbSymbolTableRecord
100
AcDbViewportTableRecord
  2
*Active
 70
     0
 10
0.0
 20
0.0
 11
1.0
 21
1.0
 12
-62.25863444783846
 22
-35.06514418931229
 13
0.0
 23
0.0
 14
0.5
 24
0.5
 15
0.5
 25
0.5
 16
0.0
 26
0.0
 36
1.0
 17
0.0
 27
0.0
 37
0.0
 40
286.7049004589516
 41
1.60267857142857
 42
50.0
 43
0.0
 44
0.0
 50
0.0
 51
0.0
 71
     0
 72
   100
 73
     1
 74
     3
 75
     0
 76
     0
 77
     0
 78
     0
281
     0
 65
     1
110
0.0
120
0.0
130
0.0
111
1.0
121
0.0
131
0.0
112
0.0
122
1.0
132
0.0
 79
     0
146
0.0
  0
ENDTAB
  0
TABLE
  2
LTYPE
  5
5
330
0
100
AcDbSymbolTable
 70
     8
  0
LTYPE
  5
14
330
5
100
AcDbSymbolTableRecord
100
AcDbLinetypeTableRecord
  2
ByBlock
 70
     0
  3

 72
    65
 73
     0
 40
0.0
  0
LTYPE
  5
15
330
5
100
AcDbSymbolTableRecord
100
AcDbLinetypeTableRecord
  2
ByLayer
 70
     0
  3

 72
    65
 73
     0
 40
0.0
  0
LTYPE
  5
16
330
5
100
AcDbSymbolTableRecord
100
AcDbLinetypeTableRecord
  2
Continuous
 70
     0
  3
Solid line
 72
    65
 73
     0
 40
0.0
  0
LTYPE
  5
2A
330
5
100
AcDbSymbolTableRecord
100
AcDbLinetypeTableRecord
  2
DASHED
 70
     0
  3
Dashed
 72
    65
 73
     2
 40
15.0
 49
7.0
 74
     0
 49
-8.0
 74
     0
  0
LTYPE
  5
2B
330
5
100
AcDbSymbolTableRecord
100
AcDbLinetypeTableRecord
  2
DOTTED
 70
     0
  3
Dotted
 72
    65
 73
     2
 40
1.0
 49
0.0
 74
     0
 49
-1.0
 74
     0
  0
LTYPE
  5
2C
330
5
100
AcDbSymbolTableRecord
100
AcDbLinetypeTableRecord
  2
DOT_CENTER
 70
     0
  3
Dot_Center
 72
    65
 73
     4
 40
14.0
 49
12.0
 74
     0
 49
-1.0
 74
     0
 49
0.0
 74
     0
 49
-1.0
 74
     0
  0
LTYPE
  5
2D
330
5
100
AcDbSymbolTableRecord
100
AcDbLinetypeTableRecord
  2
LONG_DASHED
 70
     0
  3
Long_Dashed
 72
    65
 73
     2
 40
15.0
 49
10.0
 74
     0
 49
-5.0
 74
     0
  0
LTYPE
  5
2E
330
5
100
AcDbSymbolTableRecord
100
AcDbLinetypeTableRecord
  2
DASH_CENTER
 70
     0
  3
Dash_Center
 72
    65
 73
     4
 40
14.0
 49
11.0
 74
     0
 49
-1.0
 74
     0
 49
1.0
 74
     0
 49
-1.0
 74
     0
  0
LTYPE
  5
2F
330
5
100
AcDbSymbolTableRecord
100
AcDbLinetypeTableRecord
  2
PHANTOM
 70
     0
  3
Phantom
 72
    65
 73
     6
 40
13.0
 49
10.0
 74
     0
 49
-1.0
 74
     0
 49
0.0
 74
     0
 49
-1.0
 74
     0
 49
0.0
 74
     0
 49
-1.0
 74
     0
  0
LTYPE
  5
30
330
5
100
AcDbSymbolTableRecord
100
AcDbLinetypeTableRecord
  2
CENTER_DASH_DASH
 70
     0
  3
Center_Dash_Dash
 72
    65
 73
     6
 40
14.0
 49
9.0
 74
     0
 49
-1.0
 74
     0
 49
1.0
 74
     0
 49
-1.0
 74
     0
 49
1.0
 74
     0
 49
-1.0
 74
     0
  0
ENDTAB
  0
TABLE
  2
LAYER
  5
2
330
0
100
AcDbSymbolTable
 70
     2
  0
LAYER
  5
10
330
2
100
AcDbSymbolTableRecord
100
AcDbLayerTableRecord
  2
0
 70
     0
 62
     7
  6
Continuous
370
    -3
390
F
  0
LAYER
  5
31
330
2
100
AcDbSymbolTableRecord
100
AcDbLayerTableRecord
  2
1
 70
     0
 62
     7
  6
Continuous
370
    -3
390
F
  0
ENDTAB
  0
TABLE
  2
STYLE
  5
3
330
0
100
AcDbSymbolTable
 70
     4
  0
STYLE
  5
11
330
3
100
AcDbSymbolTableRecord
100
AcDbTextStyleTableRecord
  2
Standard
 70
     0
 40
0.0
 41
1.0
 50
0.0
 71
     0
 42
0.2
  3
txt
  4

  0
STYLE
  5
14F
330
3
100
AcDbSymbolTableRecord
100
AcDbTextStyleTableRecord
  2
CONVERTER_11
 70
     0
 40
0.0
 41
0.891
 50
0.0
 71
     0
 42
0.2
  3
txt.shx
  4

  0
STYLE
  5
151
330
3
100
AcDbSymbolTableRecord
100
AcDbTextStyleTableRecord
  2
CONVERTER_12
 70
     0
 40
0.0
 41
0.88209
 50
0.0
 71
     0
 42
0.2
  3
txt.shx
  4

  0
STYLE
  5
15F
330
3
100
AcDbSymbolTableRecord
100
AcDbTextStyleTableRecord
  2
CONVERTER_13
 70
     0
 40
0.0
 41
0.9
 50
0.0
 71
     0
 42
0.2
  3
txt.shx
  4

  0
ENDTAB
  0
TABLE
  2
VIEW
  5
6
330
0
100
AcDbSymbolTable
 70
     0
  0
ENDTAB
  0
TABLE
  2
UCS
  5
7
330
0
100
AcDbSymbolTable
 70
     0
  0
ENDTAB
  0
TABLE
  2
APPID
  5
9
330
0
100
AcDbSymbolTable
 70
     1
  0
APPID
  5
12
330
9
100
AcDbSymbolTableRecord
100
AcDbRegAppTableRecord
  2
ACAD
 70
     0
  0
ENDTAB
  0
TABLE
  2
DIMSTYLE
  5
A
330
0
100
AcDbSymbolTable
 70
    21
100
AcDbDimStyleTable
  0
DIMSTYLE
105
27
330
A
100
AcDbSymbolTableRecord
100
AcDbDimStyleTableRecord
  2
Standard
 70
     0
340
11
  0
DIMSTYLE
105
16D
102
{ACAD_REACTORS
330
16E
102
}
330
A
100
AcDbSymbolTableRecord
100
AcDbDimStyleTableRecord
  2
ME10_DIM_10
 70
     0
 41
3.5
 42
0.0
 44
2.0
 73
     0
 74
     0
 77
     1
 78
     8
140
3.5
147
2.0
172
     1
173
     1
176
     2
177
     2
178
     2
271
     3
340
15F
  0
DIMSTYLE
105
17A
102
{ACAD_REACTORS
330
17B
102
}
330
A
100
AcDbSymbolTableRecord
100
AcDbDimStyleTableRecord
  2
ME10_DIM_11
 70
     0
 41
3.5
 42
0.0
 44
2.0
 73
     0
 74
     0
 77
     1
 78
     1
140
3.5
172
     1
173
     1
176
     2
177
     2
178
     2
271
     1
340
14F
  0
DIMSTYLE
105
185
102
{ACAD_REACTORS
330
186
102
}
330
A
100
AcDbSymbolTableRecord
100
AcDbDimStyleTableRecord
  2
ME10_DIM_12
 70
     0
 41
3.5
 42
0.0
 44
0.0
 73
     0
 74
     0
 77
     1
 78
     1
140
3.5
172
     1
173
     1
176
     2
177
     2
178
     2
271
     0
340
14F
  0
DIMSTYLE
105
190
102
{ACAD_REACTORS
330
191
102
}
330
A
100
AcDbSymbolTableRecord
100
AcDbDimStyleTableRecord
  2
ME10_DIM_13
 70
     0
 41
3.5
 42
0.0
 44
0.0
 73
     0
 74
     0
 77
     1
 78
     1
140
3.5
172
     1
173
     1
176
     2
177
     2
178
     2
271
     0
340
14F
  0
DIMSTYLE
105
19B
102
{ACAD_REACTORS
330
19C
102
}
330
A
100
AcDbSymbolTableRecord
100
AcDbDimStyleTableRecord
  2
ME10_DIM_14
 70
     0
 41
3.5
 42
0.0
 44
0.0
 73
     0
 74
     0
 77
     1
 78
     1
140
3.5
172
     1
173
     1
176
     2
177
     2
178
     2
271
     0
340
14F
  0
DIMSTYLE
105
1A7
102
{ACAD_REACTORS
330
1A8
102
}
330
A
100
AcDbSymbolTableRecord
100
AcDbDimStyleTableRecord
  2
ME10_DIM_15
 70
     0
 41
3.5
 42
0.0
 44
0.0
 73
     0
 74
     0
 77
     1
 78
     1
140
3.5
172
     1
173
     1
176
     2
177
     2
178
     2
271
     0
340
14F
  0
DIMSTYLE
105
1B3
102
{ACAD_REACTORS
330
1B4
102
}
330
A
100
AcDbSymbolTableRecord
100
AcDbDimStyleTableRecord
  2
ME10_DIM_16
 70
     0
 41
3.5
 42
0.0
 44
0.0
 73
     0
 74
     0
 77
     1
 78
     1
140
3.5
172
     1
173
     1
176
     2
177
     2
178
     2
271
     0
340
14F
  0
DIMSTYLE
105
1BE
102
{ACAD_REACTORS
330
1BF
102
}
330
A
100
AcDbSymbolTableRecord
100
AcDbDimStyleTableRecord
  2
ME10_DIM_17
 70
     0
 41
3.5
 42
0.0
 44
0.0
 73
     0
 74
     0
 77
     1
 78
     1
140
3.5
172
     1
173
     1
176
     2
177
     2
178
     2
271
     0
340
151
  0
DIMSTYLE
105
1CB
102
{ACAD_REACTORS
330
1CC
102
}
330
A
100
AcDbSymbolTableRecord
100
AcDbDimStyleTableRecord
  2
ME10_DIM_18
 70
     0
 41
3.5
 42
0.0
 44
0.0
 73
     0
 74
     0
 77
     1
 78
     1
140
3.5
172
     1
173
     1
176
     2
177
     2
178
     2
271
     0
340
151
  0
DIMSTYLE
105
1D6
102
{ACAD_REACTORS
330
1D7
102
}
330
A
100
AcDbSymbolTableRecord
100
AcDbDimStyleTableRecord
  2
ME10_DIM_19
 70
     0
 41
3.5
 42
0.0
 44
0.0
 73
     0
 74
     0
 77
     1
 78
     1
140
3.5
172
     1
173
     1
176
     2
177
     2
178
     2
271
     0
340
151
  0
DIMSTYLE
105
1E1
102
{ACAD_REACTORS
330
1E2
102
}
330
A
100
AcDbSymbolTableRecord
100
AcDbDimStyleTableRecord
  2
ME10_DIM_20
 70
     0
 41
3.5
 42
0.0
 44
0.0
 73
     0
 74
     0
 77
     1
 78
     1
140
3.5
172
     1
173
     1
176
     2
177
     2
178
     2
271
     0
340
151
  0
DIMSTYLE
105
1EE
102
{ACAD_REACTORS
330
1EF
102
}
330
A
100
AcDbSymbolTableRecord
100
AcDbDimStyleTableRecord
  2
ME10_DIM_21
 70
     0
 41
3.5
 42
0.0
 44
0.0
 73
     0
 74
     0
 77
     1
 78
     1
140
3.5
172
     1
173
     1
176
     2
177
     2
178
     2
271
     0
340
151
  0
DIMSTYLE
105
1F9
102
{ACAD_REACTORS
330
1FA
102
}
330
A
100
AcDbSymbolTableRecord
100
AcDbDimStyleTableRecord
  2
ME10_DIM_22
 70
     0
 41
3.5
 42
0.0
 44
2.0
 73
     0
 74
     0
 77
     1
 78
     8
140
3.5
147
2.0
172
     1
173
     1
176
     2
177
     2
178
     2
271
     2
340
15F
  0
DIMSTYLE
105
206
102
{ACAD_REACTORS
330
207
102
}
330
A
100
AcDbSymbolTableRecord
100
AcDbDimStyleTableRecord
  2
ME10_DIM_23
 70
     0
 41
3.5
 42
0.0
 44
2.0
 73
     0
 74
     0
 77
     1
 78
     8
140
3.5
147
2.0
172
     1
173
     1
176
     2
177
     2
178
     2
271
     2
340
15F
  0
DIMSTYLE
105
211
102
{ACAD_REACTORS
330
212
102
}
330
A
100
AcDbSymbolTableRecord
100
AcDbDimStyleTableRecord
  2
ME10_DIM_24
 70
     0
 41
3.5
 42
0.0
 44
2.0
 73
     0
 74
     0
 77
     1
 78
     8
140
3.5
147
2.0
172
     1
173
     1
176
     2
177
     2
178
     2
271
     2
340
15F
  0
DIMSTYLE
105
21C
102
{ACAD_REACTORS
330
21D
102
}
330
A
100
AcDbSymbolTableRecord
100
AcDbDimStyleTableRecord
  2
ME10_DIM_25
 70
     0
 41
3.5
 42
0.0
 44
2.0
 73
     0
 74
     0
 77
     1
 78
     8
140
3.5
147
2.0
172
     1
173
     1
176
     2
177
     2
178
     2
271
     2
340
15F
  0
DIMSTYLE
105
229
102
{ACAD_REACTORS
330
22A
102
}
330
A
100
AcDbSymbolTableRecord
100
AcDbDimStyleTableRecord
  2
ME10_DIM_26
 70
     0
 41
3.5
 42
0.0
 44
2.0
 73
     0
 74
     0
 77
     1
 78
     8
140
3.5
147
2.0
172
     1
173
     1
176
     2
177
     2
178
     2
271
     2
340
15F
  0
DIMSTYLE
105
234
102
{ACAD_REACTORS
330
235
102
}
330
A
100
AcDbSymbolTableRecord
100
AcDbDimStyleTableRecord
  2
ME10_DIM_27
 70
     0
 41
3.5
 42
0.0
 44
2.0
 73
     0
 74
     0
 77
     1
 78
     8
140
3.5
147
2.0
172
     1
173
     1
176
     2
177
     2
178
     2
271
     2
340
15F
  0
DIMSTYLE
105
23F
102
{ACAD_REACTORS
330
240
102
}
330
A
100
AcDbSymbolTableRecord
100
AcDbDimStyleTableRecord
  2
ME10_DIM_28
 70
     0
 41
3.5
 42
0.0
 44
2.0
 73
     0
 74
     0
 77
     1
 78
     8
140
3.5
147
2.0
172
     1
173
     1
176
     2
177
     2
178
     2
271
     2
340
15F
  0
DIMSTYLE
105
24A
102
{ACAD_REACTORS
330
24B
102
}
330
A
100
AcDbSymbolTableRecord
100
AcDbDimStyleTableRecord
  2
ME10_DIM_29
 70
     0
 41
3.5
 42
0.0
 44
2.0
 73
     0
 74
     0
 77
     1
 78
     8
140
3.5
147
2.0
172
     1
173
     1
176
     2
177
     2
178
     2
271
     2
340
15F
  0
ENDTAB
  0
TABLE
  2
BLOCK_RECORD
  5
1
330
0
100
AcDbSymbolTable
 70
    24
  0
BLOCK_RECORD
  5
1F
330
1
100
AcDbSymbolTableRecord
100
AcDbBlockTableRecord
  2
*Model_Space
340
22
  0
BLOCK_RECORD
  5
1B
330
1
100
AcDbSymbolTableRecord
100
AcDbBlockTableRecord
  2
*Paper_Space
340
1E
  0
BLOCK_RECORD
  5
23
330
1
100
AcDbSymbolTableRecord
100
AcDbBlockTableRecord
  2
*Paper_Space0
340
26
  0
BLOCK_RECORD
  5
32
330
1
100
AcDbSymbolTableRecord
100
AcDbBlockTableRecord
  2
TOP__1
340
0
102
{BLKREFS
331
35
102
}
  0
BLOCK_RECORD
  5
163
330
1
100
AcDbSymbolTableRecord
100
AcDbBlockTableRecord
  2
*D2
340
0
  0
BLOCK_RECORD
  5
16F
330
1
100
AcDbSymbolTableRecord
100
AcDbBlockTableRecord
  2
*D3
340
0
  0
BLOCK_RECORD
  5
17C
330
1
100
AcDbSymbolTableRecord
100
AcDbBlockTableRecord
  2
*D4
340
0
  0
BLOCK_RECORD
  5
187
330
1
100
AcDbSymbolTableRecord
100
AcDbBlockTableRecord
  2
*D5
340
0
  0
BLOCK_RECORD
  5
192
330
1
100
AcDbSymbolTableRecord
100
AcDbBlockTableRecord
  2
*D6
340
0
  0
BLOCK_RECORD
  5
19D
330
1
100
AcDbSymbolTableRecord
100
AcDbBlockTableRecord
  2
*D7
340
0
  0
BLOCK_RECORD
  5
1A9
330
1
100
AcDbSymbolTableRecord
100
AcDbBlockTableRecord
  2
*D8
340
0
  0
BLOCK_RECORD
  5
1B5
330
1
100
AcDbSymbolTableRecord
100
AcDbBlockTableRecord
  2
*D9
340
0
  0
BLOCK_RECORD
  5
1C0
330
1
100
AcDbSymbolTableRecord
100
AcDbBlockTableRecord
  2
*D10
340
0
  0
BLOCK_RECORD
  5
1CD
330
1
100
AcDbSymbolTableRecord
100
AcDbBlockTableRecord
  2
*D11
340
0
  0
BLOCK_RECORD
  5
1D8
330
1
100
AcDbSymbolTableRecord
100
AcDbBlockTableRecord
  2
*D12
340
0
  0
BLOCK_RECORD
  5
1E3
330
1
100
AcDbSymbolTableRecord
100
AcDbBlockTableRecord
  2
*D13
340
0
  0
BLOCK_RECORD
  5
1F0
330
1
100
AcDbSymbolTableRecord
100
AcDbBlockTableRecord
  2
*D14
340
0
  0
BLOCK_RECORD
  5
1FB
330
1
100
AcDbSymbolTableRecord
100
AcDbBlockTableRecord
  2
*D15
340
0
  0
BLOCK_RECORD
  5
208
330
1
100
AcDbSymbolTableRecord
100
AcDbBlockTableRecord
  2
*D16
340
0
  0
BLOCK_RECORD
  5
213
330
1
100
AcDbSymbolTableRecord
100
AcDbBlockTableRecord
  2
*D17
340
0
  0
BLOCK_RECORD
  5
21E
330
1
100
AcDbSymbolTableRecord
100
AcDbBlockTableRecord
  2
*D18
340
0
  0
BLOCK_RECORD
  5
22B
330
1
100
AcDbSymbolTableRecord
100
AcDbBlockTableRecord
  2
*D19
340
0
  0
BLOCK_RECORD
  5
236
330
1
100
AcDbSymbolTableRecord
100
AcDbBlockTableRecord
  2
*D20
340
0
  0
BLOCK_RECORD
  5
241
330
1
100
AcDbSymbolTableRecord
100
AcDbBlockTableRecord
  2
*D21
340
0
  0
BLOCK_RECORD
  5
24C
330
1
100
AcDbSymbolTableRecord
100
AcDbBlockTableRecord
  2
*D22
340
0
102
{BLKREFS
331
253
102
}
  0
BLOCK_RECORD
  5
254
330
1
100
AcDbSymbolTableRecord
100
AcDbBlockTableRecord
  2
*D23
340
0
102
{BLKREFS
331
25B
102
}
  0
ENDTAB
  0
ENDSEC
  0
SECTION
  2
BLOCKS
  0
BLOCK
  5
20
330
1F
100
AcDbEntity
  8
0
100
AcDbBlockBegin
  2
*Model_Space
 70
     0
 71
     0
 10
0.0
 20
0.0
 30
0.0
  3
*Model_Space
  1

  0
ENDBLK
  5
21
330
1F
100
AcDbEntity
  8
0
100
AcDbBlockEnd
  0
BLOCK
  5
1C
330
1B
100
AcDbEntity
 67
     1
  8
0
100
AcDbBlockBegin
  2
*Paper_Space
 70
     0
 71
     0
 10
0.0
 20
0.0
 30
0.0
  3
*Paper_Space
  1

  0
ENDBLK
  5
1D
330
1B
100
AcDbEntity
 67
     1
  8
0
100
AcDbBlockEnd
  0
BLOCK
  5
24
330
23
100
AcDbEntity
  8
0
100
AcDbBlockBegin
  2
*Paper_Space0
 70
     0
 71
     0
 10
0.0
 20
0.0
 30
0.0
  3
*Paper_Space0
  1

  0
ENDBLK
  5
25
330
23
100
AcDbEntity
  8
0
100
AcDbBlockEnd
  0
BLOCK
  5
33
330
32
100
AcDbEntity
  8
0
100
AcDbBlockBegin
  2
TOP__1
 70
     0
 71
     0
 10
-98.034157700977
 20
-1.13389495044899
 30
0.0
  3
TOP__1
  1

  0
ENDBLK
  5
34
330
32
100
AcDbEntity
  8
0
100
AcDbBlockEnd
  0
BLOCK
  5
16B
330
163
100
AcDbEntity
  8
0
100
AcDbBlockBegin
  2
*D2
 70
     1
 71
     0
 10
0.0
 20
0.0
 30
0.0
  3
*D2
  1

  0
LINE
  5
164
330
163
100
AcDbEntity
  8
1
  6
Continuous
 62
     2
100
AcDbLine
 10
-98.034157700977
 20
46.3661050495509
 30
0.0
 11
-98.034157700977
 21
-1.13389495044899
 31
0.0
  0
LINE
  5
165
330
163
100
AcDbEntity
  8
1
  6
Continuous
 62
     2
100
AcDbLine
 10
-75.02482546248504
 20
46.3661050495509
 30
0.0
 11
-100.034157700977
 21
46.3661050495509
 31
0.0
  0
LINE
  5
166
330
163
100
AcDbEntity
  8
1
  6
Continuous
 62
     2
100
AcDbLine
 10
-83.56529784946204
 20
-1.13389495044899
 30
0.0
 11
-84.8338794739525
 21
-1.13389495044899
 31
0.0
  0
LINE
  5
167
330
163
100
AcDbEntity
  8
1
  6
Continuous
 62
     2
100
AcDbLine
 10
-93.5984736750966
 20
-1.13389495044899
 30
0.0
 11
-100.034157700977
 21
-1.13389495044899
 31
0.0
  0
SOLID
  5
168
330
163
100
AcDbEntity
  8
1
 62
     2
100
AcDbTrace
 10
-97.57337395942112
 20
42.8661050495509
 30
0.0
 11
-98.49494144253289
 21
42.8661050495509
 31
0.0
 12
-98.034157700977
 22
46.3661050495509
 32
0.0
 13
-98.034157700977
 23
46.3661050495509
 33
0.0
  0
SOLID
  5
169
330
163
100
AcDbEntity
  8
1
 62
     2
100
AcDbTrace
 10
-98.49494144253289
 20
2.36610504955101
 30
0.0
 11
-97.57337395942112
 21
2.36610504955101
 31
0.0
 12
-98.034157700977
 22
-1.13389495044899
 32
0.0
 13
-98.034157700977
 23
-1.13389495044899
 33
0.0
  0
MTEXT
  5
16A
330
163
100
AcDbEntity
  8
1
 62
     2
100
AcDbMText
 10
-100.034157700977
 20
16.2028544160609
 30
0.0
 40
3.5
 41
0.0
 71
     7
 72
     1
  1
47.5
  7
CONVERTER_13
 11
0.0
 21
1.0
 31
0.0
 73
     1
 44
0.60024009603842
  0
ENDBLK
  5
16C
330
163
100
AcDbEntity
  8
0
100
AcDbBlockEnd
  0
BLOCK
  5
178
330
16F
100
AcDbEntity
  8
0
100
AcDbBlockBegin
  2
*D3
 70
     1
 71
     0
 10
0.0
 20
0.0
 30
0.0
  3
*D3
  1

  0
LINE
  5
170
330
16F
100
AcDbEntity
  8
1
  6
Continuous
 62
     2
100
AcDbLine
 10
-28.74378842544801
 20
-129.9963934281756
 30
0.0
 11
-28.74378842544801
 21
-140.625460879993
 31
0.0
  0
LINE
  5
171
330
16F
100
AcDbEntity
  8
1
  6
Continuous
 62
     2
100
AcDbLine
 10
-28.74378842544801
 20
-129.9963934281756
 30
0.0
 11
-28.74378842544801
 21
-126.4963934281757
 31
0.0
  0
LINE
  5
172
330
16F
100
AcDbEntity
  8
1
  6
Continuous
 62
     2
100
AcDbLine
 10
-28.74378842544801
 20
-119.4963934281757
 30
0.0
 11
-28.74378842544801
 21
-126.4963934281757
 31
0.0
  0
LINE
  5
173
330
16F
100
AcDbEntity
  8
1
  6
Continuous
 62
     2
100
AcDbLine
 10
-43.02482546248501
 20
-126.4963934281757
 30
0.0
 11
-26.74378842544801
 21
-126.4963934281757
 31
0.0
  0
LINE
  5
174
330
16F
100
AcDbEntity
  8
1
  6
Continuous
 62
     2
100
AcDbLine
 10
-49.52482546248504
 20
-129.9963934281756
 30
0.0
 11
-26.74378842544801
 21
-129.9963934281756
 31
0.0
  0
SOLID
  5
175
330
16F
100
AcDbEntity
  8
1
 62
     2
100
AcDbTrace
 10
-29.2045721670039
 20
-122.9963934281757
 30
0.0
 11
-28.28300468389212
 21
-122.9963934281757
 31
0.0
 12
-28.74378842544801
 22
-126.4963934281757
 32
0.0
 13
-28.74378842544801
 23
-126.4963934281757
 33
0.0
  0
SOLID
  5
176
330
16F
100
AcDbEntity
  8
1
 62
     2
100
AcDbTrace
 10
-28.28300468389213
 20
-133.4963934281756
 30
0.0
 11
-29.2045721670039
 21
-133.4963934281756
 31
0.0
 12
-28.74378842544801
 22
-129.9963934281756
 32
0.0
 13
-28.74378842544801
 23
-129.9963934281756
 33
0.0
  0
MTEXT
  5
177
330
16F
100
AcDbEntity
  8
1
 62
     2
100
AcDbMText
 10
-31.6557801984629
 20
-140.625460879993
 30
0.0
 40
3.5
 41
0.0
 71
     7
 72
     1
  1
3.5
  7
CONVERTER_11
 11
0.0
 21
1.0
 31
0.0
 73
     1
 44
0.60024009603842
  0
ENDBLK
  5
179
330
16F
100
AcDbEntity
  8
0
100
AcDbBlockEnd
  0
BLOCK
  5
183
330
17C
100
AcDbEntity
  8
0
100
AcDbBlockBegin
  2
*D4
 70
     1
 71
     0
 10
0.0
 20
0.0
 30
0.0
  3
*D4
  1

  0
LINE
  5
17D
330
17C
100
AcDbEntity
  8
1
  6
Continuous
 62
     2
100
AcDbLine
 10
-14.87408830388904
 20
-48.633894950449
 30
0.0
 11
-14.87408830388904
 21
46.36610504955101
 31
0.0
  0
LINE
  5
17E
330
17C
100
AcDbEntity
  8
1
  6
Continuous
 62
     2
100
AcDbLine
 10
-55.02482546248504
 20
46.36610504955101
 30
0.0
 11
-12.87408830388904
 21
46.36610504955101
 31
0.0
  0
LINE
  5
17F
330
17C
100
AcDbEntity
  8
1
  6
Continuous
 62
     2
100
AcDbLine
 10
-55.02482546248504
 20
-48.633894950449
 30
0.0
 11
-12.87408830388904
 21
-48.633894950449
 31
0.0
  0
SOLID
  5
180
330
17C
100
AcDbEntity
  8
1
 62
     2
100
AcDbTrace
 10
-15.33487204544492
 20
-45.133894950449
 30
0.0
 11
-14.41330456233315
 21
-45.133894950449
 31
0.0
 12
-14.87408830388904
 22
-48.633894950449
 32
0.0
 13
-14.87408830388904
 23
-48.633894950449
 33
0.0
  0
SOLID
  5
181
330
17C
100
AcDbEntity
  8
1
 62
     2
100
AcDbTrace
 10
-14.41330456233315
 20
42.86610504955101
 30
0.0
 11
-15.33487204544492
 21
42.86610504955101
 31
0.0
 12
-14.87408830388904
 22
46.36610504955101
 32
0.0
 13
-14.87408830388904
 23
46.36610504955101
 33
0.0
  0
MTEXT
  5
182
330
17C
100
AcDbEntity
  8
1
 62
     2
100
AcDbMText
 10
-16.87408830388904
 20
-3.52602897824
 30
0.0
 40
3.5
 41
0.0
 71
     7
 72
     1
  1
95
  7
CONVERTER_11
 11
0.0
 21
1.0
 31
0.0
 73
     1
 44
0.60024009603842
  0
ENDBLK
  5
184
330
17C
100
AcDbEntity
  8
0
100
AcDbBlockEnd
  0
BLOCK
  5
18E
330
187
100
AcDbEntity
  8
0
100
AcDbBlockBegin
  2
*D5
 70
     1
 71
     0
 10
0.0
 20
0.0
 30
0.0
  3
*D5
  1

  0
LINE
  5
188
330
187
100
AcDbEntity
  8
1
  6
Continuous
 62
     2
100
AcDbLine
 10
-23.67537503627904
 20
-38.633894950449
 30
0.0
 11
-23.67537503627904
 21
36.366105049551
 31
0.0
  0
LINE
  5
189
330
187
100
AcDbEntity
  8
1
  6
Continuous
 62
     2
100
AcDbLine
 10
-49.95630055188704
 20
36.366105049551
 30
0.0
 11
-21.67537503627904
 21
36.366105049551
 31
0.0
  0
LINE
  5
18A
330
187
100
AcDbEntity
  8
1
  6
Continuous
 62
     2
100
AcDbLine
 10
-49.95316613258294
 20
-38.633894950449
 30
0.0
 11
-21.67537503627904
 21
-38.633894950449
 31
0.0
  0
SOLID
  5
18B
330
187
100
AcDbEntity
  8
1
 62
     2
100
AcDbTrace
 10
-24.13615877783493
 20
-35.133894950449
 30
0.0
 11
-23.21459129472315
 21
-35.133894950449
 31
0.0
 12
-23.67537503627904
 22
-38.633894950449
 32
0.0
 13
-23.67537503627904
 23
-38.633894950449
 33
0.0
  0
SOLID
  5
18C
330
187
100
AcDbEntity
  8
1
 62
     2
100
AcDbTrace
 10
-23.21459129472316
 20
32.866105049551
 30
0.0
 11
-24.13615877783493
 21
32.866105049551
 31
0.0
 12
-23.67537503627904
 22
36.366105049551
 32
0.0
 13
-23.67537503627904
 23
36.366105049551
 33
0.0
  0
MTEXT
  5
18D
330
187
100
AcDbEntity
  8
1
 62
     2
100
AcDbMText
 10
-25.67537503627904
 20
-3.64337946800499
 30
0.0
 40
3.5
 41
0.0
 71
     7
 72
     1
  1
75
  7
CONVERTER_11
 11
0.0
 21
1.0
 31
0.0
 73
     1
 44
0.60024009603842
  0
ENDBLK
  5
18F
330
187
100
AcDbEntity
  8
0
100
AcDbBlockEnd
  0
BLOCK
  5
199
330
192
100
AcDbEntity
  8
0
100
AcDbBlockBegin
  2
*D6
 70
     1
 71
     0
 10
0.0
 20
0.0
 30
0.0
  3
*D6
  1

  0
LINE
  5
193
330
192
100
AcDbEntity
  8
1
  6
Continuous
 62
     2
100
AcDbLine
 10
-85.65061037332103
 20
-21.13389495044899
 30
0.0
 11
-85.65061037332103
 21
18.86610504955101
 31
0.0
  0
LINE
  5
194
330
192
100
AcDbEntity
  8
1
  6
Continuous
 62
     2
100
AcDbLine
 10
-67.39517765299402
 20
18.86610504955101
 30
0.0
 11
-87.65061037332103
 21
18.86610504955101
 31
0.0
  0
LINE
  5
195
330
192
100
AcDbEntity
  8
1
  6
Continuous
 62
     2
100
AcDbLine
 10
-67.46662050094304
 20
-21.13389495044899
 30
0.0
 11
-87.65061037332103
 21
-21.13389495044899
 31
0.0
  0
SOLID
  5
196
330
192
100
AcDbEntity
  8
1
 62
     2
100
AcDbTrace
 10
-86.11139411487692
 20
-17.63389495044899
 30
0.0
 11
-85.18982663176514
 21
-17.63389495044899
 31
0.0
 12
-85.65061037332103
 22
-21.13389495044899
 32
0.0
 13
-85.65061037332103
 23
-21.13389495044899
 33
0.0
  0
SOLID
  5
197
330
192
100
AcDbEntity
  8
1
 62
     2
100
AcDbTrace
 10
-85.18982663176514
 20
15.36610504955101
 30
0.0
 11
-86.11139411487692
 21
15.36610504955101
 31
0.0
 12
-85.65061037332103
 22
18.86610504955101
 32
0.0
 13
-85.65061037332103
 23
18.86610504955101
 33
0.0
  0
MTEXT
  5
198
330
192
100
AcDbEntity
  8
1
 62
     2
100
AcDbMText
 10
-87.65061037332103
 20
-2.78741368731099
 30
0.0
 40
3.5
 41
0.0
 71
     7
 72
     1
  1
40
  7
CONVERTER_11
 11
0.0
 21
1.0
 31
0.0
 73
     1
 44
0.60024009603842
  0
ENDBLK
  5
19A
330
192
100
AcDbEntity
  8
0
100
AcDbBlockEnd
  0
BLOCK
  5
1A5
330
19D
100
AcDbEntity
  8
0
100
AcDbBlockBegin
  2
*D7
 70
     1
 71
     0
 10
0.0
 20
0.0
 30
0.0
  3
*D7
  1

  0
LINE
  5
19E
330
19D
100
AcDbEntity
  8
1
  6
Continuous
 62
     2
100
AcDbLine
 10
-65.02482546248504
 20
64.61979688882101
 30
0.0
 11
-43.02482546248501
 21
64.61979688882101
 31
0.0
  0
LINE
  5
19F
330
19D
100
AcDbEntity
  8
1
  6
Continuous
 62
     2
100
AcDbLine
 10
-65.02482546248504
 20
64.61979688882101
 30
0.0
 11
-43.02482546248501
 21
64.61979688882101
 31
0.0
  0
LINE
  5
1A0
330
19D
100
AcDbEntity
  8
1
  6
Continuous
 62
     2
100
AcDbLine
 10
-43.02482546248501
 20
34.36610504955102
 30
0.0
 11
-43.02482546248501
 21
66.61979688882101
 31
0.0
  0
LINE
  5
1A1
330
19D
100
AcDbEntity
  8
1
  6
Continuous
 62
     2
100
AcDbLine
 10
-65.02482546248504
 20
21.471092414411
 30
0.0
 11
-65.02482546248504
 21
66.61979688882101
 31
0.0
  0
SOLID
  5
1A2
330
19D
100
AcDbEntity
  8
1
 62
     2
100
AcDbTrace
 10
-46.52482546248501
 20
64.15901314726513
 30
0.0
 11
-46.52482546248501
 21
65.0805806303769
 31
0.0
 12
-43.02482546248501
 22
64.61979688882101
 32
0.0
 13
-43.02482546248501
 23
64.61979688882101
 33
0.0
  0
SOLID
  5
1A3
330
19D
100
AcDbEntity
  8
1
 62
     2
100
AcDbTrace
 10
-61.52482546248504
 20
65.0805806303769
 30
0.0
 11
-61.52482546248504
 21
64.15901314726513
 31
0.0
 12
-65.02482546248504
 22
64.61979688882101
 32
0.0
 13
-65.02482546248504
 23
64.61979688882101
 33
0.0
  0
MTEXT
  5
1A4
330
19D
100
AcDbEntity
  8
1
 62
     2
100
AcDbMText
 10
-55.62357546248504
 20
66.61979688882101
 30
0.0
 40
3.5
 41
0.0
 71
     7
 72
     1
  1
22
  7
CONVERTER_11
 11
0.9999999999970621
 21
2.424068405545307E-6
 31
0.0
 73
     1
 44
0.60024009603842
  0
ENDBLK
  5
1A6
330
19D
100
AcDbEntity
  8
0
100
AcDbBlockEnd
  0
BLOCK
  5
1B1
330
1A9
100
AcDbEntity
  8
0
100
AcDbBlockBegin
  2
*D8
 70
     1
 71
     0
 10
0.0
 20
0.0
 30
0.0
  3
*D8
  1

  0
LINE
  5
1AA
330
1A9
100
AcDbEntity
  8
1
  6
Continuous
 62
     2
100
AcDbLine
 10
-53.02482546248504
 20
53.80194669564199
 30
0.0
 11
-43.02482546248501
 21
53.80194669564199
 31
0.0
  0
LINE
  5
1AB
330
1A9
100
AcDbEntity
  8
1
  6
Continuous
 62
     2
100
AcDbLine
 10
-53.02482546248504
 20
53.80194669564199
 30
0.0
 11
-43.02482546248501
 21
53.80194669564199
 31
0.0
  0
LINE
  5
1AC
330
1A9
100
AcDbEntity
  8
1
  6
Continuous
 62
     2
100
AcDbLine
 10
-43.02482546248501
 20
34.36610504955101
 30
0.0
 11
-43.02482546248501
 21
55.80194669564199
 31
0.0
  0
LINE
  5
1AD
330
1A9
100
AcDbEntity
  8
1
  6
Continuous
 62
     2
100
AcDbLine
 10
-53.02482546248504
 20
37.86610504955101
 30
0.0
 11
-53.02482546248504
 21
55.80194669564199
 31
0.0
  0
SOLID
  5
1AE
330
1A9
100
AcDbEntity
  8
1
 62
     2
100
AcDbTrace
 10
-46.52482546248501
 20
53.3411629540861
 30
0.0
 11
-46.52482546248501
 21
54.26273043719787
 31
0.0
 12
-43.02482546248501
 22
53.80194669564199
 32
0.0
 13
-43.02482546248501
 23
53.80194669564199
 33
0.0
  0
SOLID
  5
1AF
330
1A9
100
AcDbEntity
  8
1
 62
     2
100
AcDbTrace
 10
-49.52482546248504
 20
54.26273043719787
 30
0.0
 11
-49.52482546248504
 21
53.3411629540861
 31
0.0
 12
-53.02482546248504
 22
53.80194669564199
 32
0.0
 13
-53.02482546248504
 23
53.80194669564199
 33
0.0
  0
MTEXT
  5
1B0
330
1A9
100
AcDbEntity
  8
1
 62
     2
100
AcDbMText
 10
-49.44145509211403
 20
55.80194669564199
 30
0.0
 40
3.5
 41
0.0
 71
     7
 72
     1
  1
10
  7
CONVERTER_11
 11
0.9999999999970621
 21
2.424068405545307E-6
 31
0.0
 73
     1
 44
0.60024009603842
  0
ENDBLK
  5
1B2
330
1A9
100
AcDbEntity
  8
0
100
AcDbBlockEnd
  0
BLOCK
  5
1BC
330
1B5
100
AcDbEntity
  8
0
100
AcDbBlockBegin
  2
*D9
 70
     1
 71
     0
 10
0.0
 20
0.0
 30
0.0
  3
*D9
  1

  0
LINE
  5
1B6
330
1B5
100
AcDbEntity
  8
1
  6
Continuous
 62
     2
100
AcDbLine
 10
85.43796273304858
 20
-44.25296503526283
 30
0.0
 11
85.43796273304858
 21
-81.05296503525543
 31
0.0
  0
LINE
  5
1B7
330
1B5
100
AcDbEntity
  8
1
  6
Continuous
 62
     2
100
AcDbLine
 10
49.31935647545834
 20
-44.25296503526283
 30
0.0
 11
85.43796273304858
 21
-44.25296503526283
 31
0.0
  0
LINE
  5
1B8
330
1B5
100
AcDbEntity
  8
1
  6
Continuous
 62
     2
100
AcDbLine
 10
54.51124080142387
 20
-81.05296503525543
 30
0.0
 11
85.43796273304858
 21
-81.05296503525543
 31
0.0
  0
SOLID
  5
1B9
330
1B5
100
AcDbEntity
  8
1
 62
     2
100
AcDbTrace
 10
85.89874647460447
 20
-47.75296503526283
 30
0.0
 11
84.97717899149269
 21
-47.75296503526283
 31
0.0
 12
85.43796273304858
 22
-44.25296503526283
 32
0.0
 13
85.43796273304858
 23
-44.25296503526283
 33
0.0
  0
SOLID
  5
1BA
330
1B5
100
AcDbEntity
  8
1
 62
     2
100
AcDbTrace
 10
84.97717899149269
 20
-77.55296503525543
 30
0.0
 11
85.89874647460447
 21
-77.55296503525543
 31
0.0
 12
85.43796273304858
 22
-81.05296503525543
 32
0.0
 13
85.43796273304858
 23
-81.05296503525543
 33
0.0
  0
MTEXT
  5
1BB
330
1B5
100
AcDbEntity
  8
1
 62
     2
100
AcDbMText
 10
85.34796273304858
 20
-63.68207003525913
 30
0.0
 40
3.5
 41
0.0
 71
     7
 72
     1
  1
C
  7
CONVERTER_12
 11
0.0
 21
1.0
 31
0.0
 73
     1
 44
0.60024009603842
  0
ENDBLK
  5
1BD
330
1B5
100
AcDbEntity
  8
0
100
AcDbBlockEnd
  0
BLOCK
  5
1C9
330
1C0
100
AcDbEntity
  8
0
100
AcDbBlockBegin
  2
*D10
 70
     1
 71
     0
 10
0.0
 20
0.0
 30
0.0
  3
*D10
  1

  0
LINE
  5
1C1
330
1C0
100
AcDbEntity
  8
1
  6
Continuous
 62
     2
100
AcDbLine
 10
100.1485180722418
 20
-31.65296503526253
 30
0.0
 11
100.1485180722418
 21
-38.65296503526253
 31
0.0
  0
LINE
  5
1C2
330
1C0
100
AcDbEntity
  8
1
  6
Continuous
 62
     2
100
AcDbLine
 10
100.1485180722418
 20
-38.65296503526253
 30
0.0
 11
100.1485180722418
 21
-44.25296503526283
 31
0.0
  0
LINE
  5
1C3
330
1C0
100
AcDbEntity
  8
1
  6
Continuous
 62
     2
100
AcDbLine
 10
100.1485180722418
 20
-44.25296503526283
 30
0.0
 11
100.1485180722418
 21
-51.25296503526283
 31
0.0
  0
LINE
  5
1C4
330
1C0
100
AcDbEntity
  8
1
  6
Continuous
 62
     2
100
AcDbLine
 10
49.31935647545835
 20
-44.25296503526283
 30
0.0
 11
100.1485180722418
 21
-44.25296503526283
 31
0.0
  0
LINE
  5
1C5
330
1C0
100
AcDbEntity
  8
1
  6
Continuous
 62
     2
100
AcDbLine
 10
75.31046758656959
 20
-38.65296503526253
 30
0.0
 11
100.1485180722418
 21
-38.65296503526253
 31
0.0
  0
SOLID
  5
1C6
330
1C0
100
AcDbEntity
  8
1
 62
     2
100
AcDbTrace
 10
99.68773433068596
 20
-35.15296503526253
 30
0.0
 11
100.6093018137977
 21
-35.15296503526253
 31
0.0
 12
100.1485180722418
 22
-38.65296503526253
 32
0.0
 13
100.1485180722418
 23
-38.65296503526253
 33
0.0
  0
SOLID
  5
1C7
330
1C0
100
AcDbEntity
  8
1
 62
     2
100
AcDbTrace
 10
100.6093018137977
 20
-47.75296503526283
 30
0.0
 11
99.68773433068596
 21
-47.75296503526283
 31
0.0
 12
100.1485180722418
 22
-44.25296503526283
 32
0.0
 13
100.1485180722418
 23
-44.25296503526283
 33
0.0
  0
MTEXT
  5
1C8
330
1C0
100
AcDbEntity
  8
1
 62
     2
100
AcDbMText
 10
106.277217330419
 20
-49.5868949216822
 30
0.0
 40
3.5
 41
0.0
 71
     7
 72
     1
  1
Mass X
  7
CONVERTER_12
 11
0.0
 21
1.0
 31
0.0
 73
     1
 44
0.60024009603842
  0
ENDBLK
  5
1CA
330
1C0
100
AcDbEntity
  8
0
100
AcDbBlockEnd
  0
BLOCK
  5
1D4
330
1CD
100
AcDbEntity
  8
0
100
AcDbBlockBegin
  2
*D11
 70
     1
 71
     0
 10
0.0
 20
0.0
 30
0.0
  3
*D11
  1

  0
LINE
  5
1CE
330
1CD
100
AcDbEntity
  8
1
  6
Continuous
 62
     2
100
AcDbLine
 10
14.44940527811525
 20
-81.05296503525543
 30
0.0
 11
14.44940527811525
 21
-71.05296503526081
 31
0.0
  0
LINE
  5
1CF
330
1CD
100
AcDbEntity
  8
1
  6
Continuous
 62
     2
100
AcDbLine
 10
28.61935647545823
 20
-71.05296503526081
 30
0.0
 11
12.44940527811525
 21
-71.05296503526081
 31
0.0
  0
LINE
  5
1D0
330
1CD
100
AcDbEntity
  8
1
  6
Continuous
 62
     2
100
AcDbLine
 10
32.41064119093284
 20
-81.05296503525543
 30
0.0
 11
12.44940527811525
 21
-81.05296503525543
 31
0.0
  0
SOLID
  5
1D1
330
1CD
100
AcDbEntity
  8
1
 62
     2
100
AcDbTrace
 10
13.98862153655936
 20
-77.55296503525543
 30
0.0
 11
14.91018901967114
 21
-77.55296503525543
 31
0.0
 12
14.44940527811525
 22
-81.05296503525543
 32
0.0
 13
14.44940527811525
 23
-81.05296503525543
 33
0.0
  0
SOLID
  5
1D2
330
1CD
100
AcDbEntity
  8
1
 62
     2
100
AcDbTrace
 10
14.91018901967113
 20
-74.55296503526081
 30
0.0
 11
13.98862153655936
 21
-74.55296503526081
 31
0.0
 12
14.44940527811525
 22
-71.05296503526081
 32
0.0
 13
14.44940527811525
 23
-71.05296503526081
 33
0.0
  0
MTEXT
  5
1D3
330
1CD
100
AcDbEntity
  8
1
 62
     2
100
AcDbMText
 10
12.44940527811525
 20
-77.16782878525824
 30
0.0
 40
3.5
 41
0.0
 71
     7
 72
     1
  1
B
  7
CONVERTER_12
 11
0.0
 21
1.0
 31
0.0
 73
     1
 44
0.60024009603842
  0
ENDBLK
  5
1D5
330
1CD
100
AcDbEntity
  8
0
100
AcDbBlockEnd
  0
BLOCK
  5
1DF
330
1D8
100
AcDbEntity
  8
0
100
AcDbBlockBegin
  2
*D12
 70
     1
 71
     0
 10
0.0
 20
0.0
 30
0.0
  3
*D12
  1

  0
LINE
  5
1D9
330
1D8
100
AcDbEntity
  8
1
  6
Continuous
 62
     2
100
AcDbLine
 10
14.44940527811525
 20
-71.05296503526081
 30
0.0
 11
14.44940527811525
 21
-38.65296503526241
 31
0.0
  0
LINE
  5
1DA
330
1D8
100
AcDbEntity
  8
1
  6
Continuous
 62
     2
100
AcDbLine
 10
28.61935647545823
 20
-71.05296503526081
 30
0.0
 11
12.44940527811525
 21
-71.05296503526081
 31
0.0
  0
LINE
  5
1DB
330
1D8
100
AcDbEntity
  8
1
  6
Continuous
 62
     2
100
AcDbLine
 10
44.87556272545832
 20
-38.65296503526241
 30
0.0
 11
12.44940527811525
 21
-38.65296503526241
 31
0.0
  0
SOLID
  5
1DC
330
1D8
100
AcDbEntity
  8
1
 62
     2
100
AcDbTrace
 10
13.98862153655936
 20
-67.55296503526081
 30
0.0
 11
14.91018901967114
 21
-67.55296503526081
 31
0.0
 12
14.44940527811525
 22
-71.05296503526081
 32
0.0
 13
14.44940527811525
 23
-71.05296503526081
 33
0.0
  0
SOLID
  5
1DD
330
1D8
100
AcDbEntity
  8
1
 62
     2
100
AcDbTrace
 10
14.91018901967113
 20
-42.15296503526241
 30
0.0
 11
13.98862153655936
 21
-42.15296503526241
 31
0.0
 12
14.44940527811525
 22
-38.65296503526241
 32
0.0
 13
14.44940527811525
 23
-38.65296503526241
 33
0.0
  0
MTEXT
  5
1DE
330
1D8
100
AcDbEntity
  8
1
 62
     2
100
AcDbMText
 10
12.44940527811525
 20
-53.22742296506831
 30
0.0
 40
3.5
 41
0.0
 71
     7
 72
     1
  1
A
  7
CONVERTER_12
 11
0.0
 21
1.0
 31
0.0
 73
     1
 44
0.60024009603842
  0
ENDBLK
  5
1E0
330
1D8
100
AcDbEntity
  8
0
100
AcDbBlockEnd
  0
BLOCK
  5
1EC
330
1E3
100
AcDbEntity
  8
0
100
AcDbBlockBegin
  2
*D13
 70
     1
 71
     0
 10
0.0
 20
0.0
 30
0.0
  3
*D13
  1

  0
LINE
  5
1E4
330
1E3
100
AcDbEntity
  8
1
  6
Continuous
 62
     2
100
AcDbLine
 10
121.8898585128327
 20
-75.088395210268
 30
0.0
 11
115.8276806863417
 21
-71.58839521026798
 31
0.0
  0
LINE
  5
1E5
330
1E3
100
AcDbEntity
  8
1
  6
Continuous
 62
     2
100
AcDbLine
 10
113.4028095557458
 20
-70.18839521026828
 30
0.0
 11
115.8276806863417
 21
-71.58839521026798
 31
0.0
  0
LINE
  5
1E6
330
1E3
100
AcDbEntity
  8
1
  6
Continuous
 62
     2
100
AcDbLine
 10
113.4028095557458
 20
-70.18839521026828
 30
0.0
 11
95.5455234429908
 21
-59.87848626607294
 31
0.0
  0
LINE
  5
1E7
330
1E3
100
AcDbEntity
  8
1
  6
Continuous
 62
     2
100
AcDbLine
 10
121.491555056444
 20
-61.77827703356371
 30
0.0
 11
115.8276806863417
 21
-71.58839521026798
 31
0.0
  0
LINE
  5
1E8
330
1E3
100
AcDbEntity
  8
1
  6
Continuous
 62
     2
100
AcDbLine
 10
119.0666839258481
 20
-60.37827703356402
 30
0.0
 11
113.4028095557458
 21
-70.18839521026828
 31
0.0
  0
SOLID
  5
1E9
330
1E3
100
AcDbEntity
  8
1
 62
     2
100
AcDbTrace
 10
112.5661999023182
 20
-70.2374456361062
 30
0.0
 11
113.0269836438741
 21
-69.43934478442974
 31
0.0
 12
115.8276806863417
 22
-71.58839521026798
 32
0.0
 13
115.8276806863417
 23
-71.58839521026798
 33
0.0
  0
SOLID
  5
1EA
330
1E3
100
AcDbEntity
  8
1
 62
     2
100
AcDbTrace
 10
116.6642903397693
 20
-71.53934478443006
 30
0.0
 11
116.2035065982134
 21
-72.33744563610652
 31
0.0
 12
113.4028095557458
 22
-70.18839521026828
 32
0.0
 13
113.4028095557458
 23
-70.18839521026828
 33
0.0
  0
MTEXT
  5
1EB
330
1E3
100
AcDbEntity
  8
1
 62
     2
100
AcDbMText
 10
96.51383188643294
 20
-58.38323934463335
 30
0.0
 40
3.5
 41
0.0
 71
     7
 72
     1
  1
Mass X
  7
CONVERTER_12
 11
0.8660254037844347
 21
-0.5000000000000068
 31
0.0
 73
     1
 44
0.60024009603842
  0
ENDBLK
  5
1ED
330
1E3
100
AcDbEntity
  8
0
100
AcDbBlockEnd
  0
BLOCK
  5
1F7
330
1F0
100
AcDbEntity
  8
0
100
AcDbBlockBegin
  2
*D14
 70
     1
 71
     0
 10
0.0
 20
0.0
 30
0.0
  3
*D14
  1

  0
LINE
  5
1F1
330
1F0
100
AcDbEntity
  8
1
  6
Continuous
 62
     2
100
AcDbLine
 10
-219.4144589756004
 20
-70.64797805119878
 30
0.0
 11
-183.9144589756004
 21
-70.64797805119878
 31
0.0
  0
LINE
  5
1F2
330
1F0
100
AcDbEntity
  8
1
  6
Continuous
 62
     2
100
AcDbLine
 10
-219.4144589756004
 20
-62.63389495044909
 30
0.0
 11
-219.4144589756004
 21
-72.64797805119878
 31
0.0
  0
LINE
  5
1F3
330
1F0
100
AcDbEntity
  8
1
  6
Continuous
 62
     2
100
AcDbLine
 10
-183.9144589756004
 20
-36.63389495044899
 30
0.0
 11
-183.9144589756004
 21
-72.64797805119878
 31
0.0
  0
SOLID
  5
1F4
330
1F0
100
AcDbEntity
  8
1
 62
     2
100
AcDbTrace
 10
-215.9144589756004
 20
-70.18719430964289
 30
0.0
 11
-215.9144589756004
 21
-71.10876179275466
 31
0.0
 12
-219.4144589756004
 22
-70.64797805119878
 32
0.0
 13
-219.4144589756004
 23
-70.64797805119878
 33
0.0
  0
SOLID
  5
1F5
330
1F0
100
AcDbEntity
  8
1
 62
     2
100
AcDbTrace
 10
-187.4144589756004
 20
-71.10876179275466
 30
0.0
 11
-187.4144589756004
 21
-70.18719430964289
 31
0.0
 12
-183.9144589756004
 22
-70.64797805119878
 32
0.0
 13
-183.9144589756004
 23
-70.64797805119878
 33
0.0
  0
MTEXT
  5
1F6
330
1F0
100
AcDbEntity
  8
1
 62
     2
100
AcDbMText
 10
-207.2801338081583
 20
-68.64797805119878
 30
0.0
 40
3.5
 41
0.0
 71
     7
 72
     1
  1
35.5
  7
CONVERTER_13
 11
0.9999999999970621
 21
2.424068405545307E-6
 31
0.0
 73
     1
 44
0.60024009603842
  0
ENDBLK
  5
1F8
330
1F0
100
AcDbEntity
  8
0
100
AcDbBlockEnd
  0
BLOCK
  5
204
330
1FB
100
AcDbEntity
  8
0
100
AcDbBlockBegin
  2
*D15
 70
     1
 71
     0
 10
0.0
 20
0.0
 30
0.0
  3
*D15
  1

  0
LINE
  5
1FC
330
1FB
100
AcDbEntity
  8
1
  6
Continuous
 62
     2
100
AcDbLine
 10
-229.4108378975703
 20
-136.9963934281756
 30
0.0
 11
-229.4108378975703
 21
-129.9963934281756
 31
0.0
  0
LINE
  5
1FD
330
1FB
100
AcDbEntity
  8
1
  6
Continuous
 62
     2
100
AcDbLine
 10
-229.4108378975703
 20
-129.9963934281756
 30
0.0
 11
-229.4108378975703
 21
-126.4963934281756
 31
0.0
  0
LINE
  5
1FE
330
1FB
100
AcDbEntity
  8
1
  6
Continuous
 62
     2
100
AcDbLine
 10
-229.4108378975703
 20
-126.4963934281756
 30
0.0
 11
-229.4108378975703
 21
-116.7081536269639
 31
0.0
  0
LINE
  5
1FF
330
1FB
100
AcDbEntity
  8
1
  6
Continuous
 62
     2
100
AcDbLine
 10
-219.4144589756003
 20
-129.9963934281756
 30
0.0
 11
-231.4108378975703
 21
-129.9963934281756
 31
0.0
  0
LINE
  5
200
330
1FB
100
AcDbEntity
  8
1
  6
Continuous
 62
     2
100
AcDbLine
 10
-219.4144589756003
 20
-126.4963934281756
 30
0.0
 11
-231.4108378975703
 21
-126.4963934281756
 31
0.0
  0
SOLID
  5
201
330
1FB
100
AcDbEntity
  8
1
 62
     2
100
AcDbTrace
 10
-228.9500541560144
 20
-133.4963934281756
 30
0.0
 11
-229.8716216391262
 21
-133.4963934281756
 31
0.0
 12
-229.4108378975703
 22
-129.9963934281756
 32
0.0
 13
-229.4108378975703
 23
-129.9963934281756
 33
0.0
  0
SOLID
  5
202
330
1FB
100
AcDbEntity
  8
1
 62
     2
100
AcDbTrace
 10
-229.8716216391262
 20
-122.9963934281756
 30
0.0
 11
-228.9500541560144
 21
-122.9963934281756
 31
0.0
 12
-229.4108378975703
 22
-126.4963934281756
 32
0.0
 13
-229.4108378975703
 23
-126.4963934281756
 33
0.0
  0
MTEXT
  5
203
330
1FB
100
AcDbEntity
  8
1
 62
     2
100
AcDbMText
 10
-231.4108378975703
 20
-123.0956536269639
 30
0.0
 40
3.5
 41
0.0
 71
     7
 72
     1
  1
3.5
  7
CONVERTER_13
 11
0.0
 21
1.0
 31
0.0
 73
     1
 44
0.60024009603842
  0
ENDBLK
  5
205
330
1FB
100
AcDbEntity
  8
0
100
AcDbBlockEnd
  0
BLOCK
  5
20F
330
208
100
AcDbEntity
  8
0
100
AcDbBlockBegin
  2
*D16
 70
     1
 71
     0
 10
0.0
 20
0.0
 30
0.0
  3
*D16
  1

  0
LINE
  5
209
330
208
100
AcDbEntity
  8
1
  6
Continuous
 62
     2
100
AcDbLine
 10
-156.8809334575827
 20
-21.13389495044899
 30
0.0
 11
-156.8809334575827
 21
18.86610504955102
 31
0.0
  0
LINE
  5
20A
330
208
100
AcDbEntity
  8
1
  6
Continuous
 62
     2
100
AcDbLine
 10
-202.7644589756003
 20
-21.13389495044899
 30
0.0
 11
-154.8809334575827
 21
-21.13389495044899
 31
0.0
  0
LINE
  5
20B
330
208
100
AcDbEntity
  8
1
  6
Continuous
 62
     2
100
AcDbLine
 10
-202.7644589756003
 20
18.86610504955102
 30
0.0
 11
-154.8809334575827
 21
18.86610504955102
 31
0.0
  0
SOLID
  5
20C
330
208
100
AcDbEntity
  8
1
 62
     2
100
AcDbTrace
 10
-156.4201497160268
 20
15.36610504955102
 30
0.0
 11
-157.3417171991386
 21
15.36610504955102
 31
0.0
 12
-156.8809334575827
 22
18.86610504955102
 32
0.0
 13
-156.8809334575827
 23
18.86610504955102
 33
0.0
  0
SOLID
  5
20D
330
208
100
AcDbEntity
  8
1
 62
     2
100
AcDbTrace
 10
-157.3417171991386
 20
-17.63389495044899
 30
0.0
 11
-156.4201497160268
 21
-17.63389495044899
 31
0.0
 12
-156.8809334575827
 22
-21.13389495044899
 32
0.0
 13
-156.8809334575827
 23
-21.13389495044899
 33
0.0
  0
MTEXT
  5
20E
330
208
100
AcDbEntity
  8
1
 62
     2
100
AcDbMText
 10
-158.8809334575827
 20
-8.73864791263008
 30
0.0
 40
3.5
 41
0.0
 71
     7
 72
     1
  1
40
  7
CONVERTER_13
 11
0.0
 21
1.0
 31
0.0
 73
     1
 44
0.60024009603842
  0
ENDBLK
  5
210
330
208
100
AcDbEntity
  8
0
100
AcDbBlockEnd
  0
BLOCK
  5
21A
330
213
100
AcDbEntity
  8
0
100
AcDbBlockBegin
  2
*D17
 70
     1
 71
     0
 10
0.0
 20
0.0
 30
0.0
  3
*D17
  1

  0
LINE
  5
214
330
213
100
AcDbEntity
  8
1
  6
Continuous
 62
     2
100
AcDbLine
 10
-147.9758860428584
 20
-38.63389495044899
 30
0.0
 11
-147.9758860428584
 21
36.36610504955101
 31
0.0
  0
LINE
  5
215
330
213
100
AcDbEntity
  8
1
  6
Continuous
 62
     2
100
AcDbLine
 10
-190.7644589756003
 20
-38.63389495044899
 30
0.0
 11
-145.9758860428584
 21
-38.63389495044899
 31
0.0
  0
LINE
  5
216
330
213
100
AcDbEntity
  8
1
  6
Continuous
 62
     2
100
AcDbLine
 10
-190.7644589756003
 20
36.36610504955101
 30
0.0
 11
-145.9758860428584
 21
36.36610504955101
 31
0.0
  0
SOLID
  5
217
330
213
100
AcDbEntity
  8
1
 62
     2
100
AcDbTrace
 10
-148.4366697844143
 20
-35.13389495044899
 30
0.0
 11
-147.5151023013025
 21
-35.13389495044899
 31
0.0
 12
-147.9758860428584
 22
-38.63389495044899
 32
0.0
 13
-147.9758860428584
 23
-38.63389495044899
 33
0.0
  0
SOLID
  5
218
330
213
100
AcDbEntity
  8
1
 62
     2
100
AcDbTrace
 10
-147.5151023013025
 20
32.86610504955101
 30
0.0
 11
-148.4366697844143
 21
32.86610504955101
 31
0.0
 12
-147.9758860428584
 22
36.36610504955101
 32
0.0
 13
-147.9758860428584
 23
36.36610504955101
 33
0.0
  0
MTEXT
  5
219
330
213
100
AcDbEntity
  8
1
 62
     2
100
AcDbMText
 10
-149.9758860428584
 20
2.03024663540862
 30
0.0
 40
3.5
 41
0.0
 71
     7
 72
     1
  1
75
  7
CONVERTER_13
 11
0.0
 21
1.0
 31
0.0
 73
     1
 44
0.60024009603842
  0
ENDBLK
  5
21B
330
213
100
AcDbEntity
  8
0
100
AcDbBlockEnd
  0
BLOCK
  5
227
330
21E
100
AcDbEntity
  8
0
100
AcDbBlockBegin
  2
*D18
 70
     1
 71
     0
 10
0.0
 20
0.0
 30
0.0
  3
*D18
  1

  0
LINE
  5
21F
330
21E
100
AcDbEntity
  8
1
  6
Continuous
 62
     2
100
AcDbLine
 10
-139.4850268799818
 20
-1.13389495044898
 30
0.0
 11
-139.4850268799818
 21
46.36610504955102
 31
0.0
  0
LINE
  5
220
330
21E
100
AcDbEntity
  8
1
  6
Continuous
 62
     2
100
AcDbLine
 10
-165.9144589756003
 20
-1.13389495044898
 30
0.0
 11
-158.7254625014953
 21
-1.13389495044898
 31
0.0
  0
LINE
  5
221
330
21E
100
AcDbEntity
  8
1
  6
Continuous
 62
     2
100
AcDbLine
 10
-155.0598919044055
 20
-1.13389495044898
 30
0.0
 11
-150.6396450079148
 21
-1.13389495044898
 31
0.0
  0
LINE
  5
222
330
21E
100
AcDbEntity
  8
1
  6
Continuous
 62
     2
100
AcDbLine
 10
-146.435019911253
 20
-1.13389495044898
 30
0.0
 11
-137.4850268799818
 21
-1.13389495044898
 31
0.0
  0
LINE
  5
223
330
21E
100
AcDbEntity
  8
1
  6
Continuous
 62
     2
100
AcDbLine
 10
-195.9144589756003
 20
46.36610504955102
 30
0.0
 11
-137.4850268799818
 21
46.36610504955102
 31
0.0
  0
SOLID
  5
224
330
21E
100
AcDbEntity
  8
1
 62
     2
100
AcDbTrace
 10
-139.0242431384259
 20
42.86610504955102
 30
0.0
 11
-139.9458106215377
 21
42.86610504955102
 31
0.0
 12
-139.4850268799818
 22
46.36610504955102
 32
0.0
 13
-139.4850268799818
 23
46.36610504955102
 33
0.0
  0
SOLID
  5
225
330
21E
100
AcDbEntity
  8
1
 62
     2
100
AcDbTrace
 10
-139.9458106215377
 20
2.36610504955102
 30
0.0
 11
-139.0242431384259
 21
2.36610504955102
 31
0.0
 12
-139.4850268799818
 22
-1.13389495044898
 32
0.0
 13
-139.4850268799818
 23
-1.13389495044898
 33
0.0
  0
MTEXT
  5
226
330
21E
100
AcDbEntity
  8
1
 62
     2
100
AcDbMText
 10
-141.4850268799818
 20
14.17599132415223
 30
0.0
 40
3.5
 41
0.0
 71
     7
 72
     1
  1
47.5
  7
CONVERTER_13
 11
0.0
 21
1.0
 31
0.0
 73
     1
 44
0.60024009603842
  0
ENDBLK
  5
228
330
21E
100
AcDbEntity
  8
0
100
AcDbBlockEnd
  0
BLOCK
  5
232
330
22B
100
AcDbEntity
  8
0
100
AcDbBlockBegin
  2
*D19
 70
     1
 71
     0
 10
0.0
 20
0.0
 30
0.0
  3
*D19
  1

  0
LINE
  5
22C
330
22B
100
AcDbEntity
  8
1
  6
Continuous
 62
     2
100
AcDbLine
 10
-130.1657912134098
 20
-48.633894950449
 30
0.0
 11
-130.1657912134098
 21
46.36610504955101
 31
0.0
  0
LINE
  5
22D
330
22B
100
AcDbEntity
  8
1
  6
Continuous
 62
     2
100
AcDbLine
 10
-195.9144589756003
 20
-48.633894950449
 30
0.0
 11
-128.1657912134098
 21
-48.633894950449
 31
0.0
  0
LINE
  5
22E
330
22B
100
AcDbEntity
  8
1
  6
Continuous
 62
     2
100
AcDbLine
 10
-195.9144589756003
 20
46.36610504955101
 30
0.0
 11
-128.1657912134098
 21
46.36610504955101
 31
0.0
  0
SOLID
  5
22F
330
22B
100
AcDbEntity
  8
1
 62
     2
100
AcDbTrace
 10
-129.7050074718539
 20
42.86610504955101
 30
0.0
 11
-130.6265749549657
 21
42.86610504955101
 31
0.0
 12
-130.1657912134098
 22
46.36610504955101
 32
0.0
 13
-130.1657912134098
 23
46.36610504955101
 33
0.0
  0
SOLID
  5
230
330
22B
100
AcDbEntity
  8
1
 62
     2
100
AcDbTrace
 10
-130.6265749549657
 20
-45.133894950449
 30
0.0
 11
-129.7050074718539
 21
-45.133894950449
 31
0.0
 12
-130.1657912134098
 22
-48.633894950449
 32
0.0
 13
-130.1657912134098
 23
-48.633894950449
 33
0.0
  0
MTEXT
  5
231
330
22B
100
AcDbEntity
  8
1
 62
     2
100
AcDbMText
 10
-132.1657912134098
 20
-4.38967126822988
 30
0.0
 40
3.5
 41
0.0
 71
     7
 72
     1
  1
95
  7
CONVERTER_13
 11
0.0
 21
1.0
 31
0.0
 73
     1
 44
0.60024009603842
  0
ENDBLK
  5
233
330
22B
100
AcDbEntity
  8
0
100
AcDbBlockEnd
  0
BLOCK
  5
23D
330
236
100
AcDbEntity
  8
0
100
AcDbBlockBegin
  2
*D20
 70
     1
 71
     0
 10
0.0
 20
0.0
 30
0.0
  3
*D20
  1

  0
LINE
  5
237
330
236
100
AcDbEntity
  8
1
  6
Continuous
 62
     2
100
AcDbLine
 10
-193.9144589756003
 20
65.94527776128652
 30
0.0
 11
-183.9144589756003
 21
65.94527776128652
 31
0.0
  0
LINE
  5
238
330
236
100
AcDbEntity
  8
1
  6
Continuous
 62
     2
100
AcDbLine
 10
-193.9144589756003
 20
39.51610504955101
 30
0.0
 11
-193.9144589756003
 21
67.94527776128652
 31
0.0
  0
LINE
  5
239
330
236
100
AcDbEntity
  8
1
  6
Continuous
 62
     2
100
AcDbLine
 10
-183.9144589756003
 20
34.36610504955101
 30
0.0
 11
-183.9144589756003
 21
67.94527776128652
 31
0.0
  0
SOLID
  5
23A
330
236
100
AcDbEntity
  8
1
 62
     2
100
AcDbTrace
 10
-187.4144589756003
 20
65.48449401973063
 30
0.0
 11
-187.4144589756003
 21
66.4060615028424
 31
0.0
 12
-183.9144589756003
 22
65.94527776128652
 32
0.0
 13
-183.9144589756003
 23
65.94527776128652
 33
0.0
  0
SOLID
  5
23B
330
236
100
AcDbEntity
  8
1
 62
     2
100
AcDbTrace
 10
-190.4144589756003
 20
66.4060615028424
 30
0.0
 11
-190.4144589756003
 21
65.48449401973063
 31
0.0
 12
-193.9144589756003
 22
65.94527776128652
 32
0.0
 13
-193.9144589756003
 23
65.94527776128652
 33
0.0
  0
MTEXT
  5
23C
330
236
100
AcDbEntity
  8
1
 62
     2
100
AcDbMText
 10
-190.8485452262341
 20
67.94527776128652
 30
0.0
 40
3.5
 41
0.0
 71
     7
 72
     1
  1
10
  7
CONVERTER_13
 11
0.9999999999970621
 21
2.424068405545307E-6
 31
0.0
 73
     1
 44
0.60024009603842
  0
ENDBLK
  5
23E
330
236
100
AcDbEntity
  8
0
100
AcDbBlockEnd
  0
BLOCK
  5
248
330
241
100
AcDbEntity
  8
0
100
AcDbBlockBegin
  2
*D21
 70
     1
 71
     0
 10
0.0
 20
0.0
 30
0.0
  3
*D21
  1

  0
LINE
  5
242
330
241
100
AcDbEntity
  8
1
  6
Continuous
 62
     2
100
AcDbLine
 10
-205.9144589756003
 20
10.02521483367622
 30
0.0
 11
-183.9144589756003
 21
10.02521483367622
 31
0.0
  0
LINE
  5
243
330
241
100
AcDbEntity
  8
1
  6
Continuous
 62
     2
100
AcDbLine
 10
-205.9144589756003
 20
15.71610504955101
 30
0.0
 11
-205.9144589756003
 21
8.02521483367622
 31
0.0
  0
LINE
  5
244
330
241
100
AcDbEntity
  8
1
  6
Continuous
 62
     2
100
AcDbLine
 10
-183.9144589756003
 20
34.36610504955101
 30
0.0
 11
-183.9144589756003
 21
8.02521483367622
 31
0.0
  0
SOLID
  5
245
330
241
100
AcDbEntity
  8
1
 62
     2
100
AcDbTrace
 10
-202.4144589756003
 20
10.48599857523211
 30
0.0
 11
-202.4144589756003
 21
9.56443109212033
 31
0.0
 12
-205.9144589756003
 22
10.02521483367622
 32
0.0
 13
-205.9144589756003
 23
10.02521483367622
 33
0.0
  0
SOLID
  5
246
330
241
100
AcDbEntity
  8
1
 62
     2
100
AcDbTrace
 10
-187.4144589756003
 20
9.56443109212034
 30
0.0
 11
-187.4144589756003
 21
10.48599857523211
 31
0.0
 12
-183.9144589756003
 22
10.02521483367622
 32
0.0
 13
-183.9144589756003
 23
10.02521483367622
 33
0.0
  0
MTEXT
  5
247
330
241
100
AcDbEntity
  8
1
 62
     2
100
AcDbMText
 10
-197.1743816295132
 20
12.02521483367622
 30
0.0
 40
3.5
 41
0.0
 71
     7
 72
     1
  1
22
  7
CONVERTER_13
 11
0.9999999999970621
 21
2.424068405545307E-6
 31
0.0
 73
     1
 44
0.60024009603842
  0
ENDBLK
  5
249
330
241
100
AcDbEntity
  8
0
100
AcDbBlockEnd
  0
BLOCK
  5
251
330
24C
100
AcDbEntity
  8
0
100
AcDbBlockBegin
  2
*D22
 70
     1
 71
     0
 10
0.0
 20
0.0
 30
0.0
  3
*D22
  1

  0
LINE
  5
24D
330
24C
100
AcDbEntity
  8
1
  6
Continuous
 62
     2
100
AcDbLine
 10
-43.21158091613671
 20
32.25725387221001
 30
0.0
 11
-66.83807000883334
 21
36.47495622689188
 31
0.0
  0
SOLID
  5
24E
330
24C
100
AcDbEntity
  8
1
 62
     2
100
AcDbTrace
 10
-46.73808760347827
 20
32.41872288043603
 30
0.0
 11
-46.57613354749832
 21
33.3259480507662
 31
0.0
 12
-43.21158091613671
 22
32.25725387221001
 32
0.0
 13
-43.21158091613671
 23
32.25725387221001
 33
0.0
  0
SOLID
  5
24F
330
24C
100
AcDbEntity
  8
1
 62
     2
100
AcDbTrace
 10
-63.31156332149178
 20
36.31348721866586
 30
0.0
 11
-63.47351737747173
 21
35.40626204833569
 31
0.0
 12
-66.83807000883334
 22
36.47495622689188
 32
0.0
 13
-66.83807000883334
 23
36.47495622689188
 33
0.0
  0
MTEXT
  5
250
330
24C
100
AcDbEntity
  8
1
 62
     2
100
AcDbMText
 10
-63.11736944705464
 20
37.05332878318261
 30
0.0
 40
3.5
 41
0.0
 71
     7
 72
     1
  1
\C2;ø\C2;24
  7
CONVERTER_11
 11
0.9844370455290247
 21
-0.1757375981117446
 31
0.0
 73
     1
 44
0.60024009603842
  0
ENDBLK
  5
252
330
24C
100
AcDbEntity
  8
0
100
AcDbBlockEnd
  0
BLOCK
  5
259
330
254
100
AcDbEntity
  8
0
100
AcDbBlockBegin
  2
*D23
 70
     1
 71
     0
 10
0.0
 20
0.0
 30
0.0
  3
*D23
  1

  0
LINE
  5
255
330
254
100
AcDbEntity
  8
1
  6
Continuous
 62
     2
100
AcDbLine
 10
-185.7665559045289
 20
40.77079577277401
 30
0.0
 11
-206.0623620466718
 21
27.96141432632803
 31
0.0
  0
SOLID
  5
256
330
254
100
AcDbEntity
  8
1
 62
     2
100
AcDbTrace
 10
-203.3484884305222
 20
30.21911484943764
 30
0.0
 11
-202.8566255380297
 21
29.43978339176518
 31
0.0
 12
-206.0623620466718
 22
27.96141432632803
 32
0.0
 13
-206.0623620466718
 23
27.96141432632803
 33
0.0
  0
SOLID
  5
257
330
254
100
AcDbEntity
  8
1
 62
     2
100
AcDbTrace
 10
-188.4804295206785
 20
38.5130952496644
 30
0.0
 11
-188.9722924131709
 21
39.29242670733686
 31
0.0
 12
-185.7665559045289
 22
40.77079577277401
 32
0.0
 13
-185.7665559045289
 23
40.77079577277401
 33
0.0
  0
MTEXT
  5
258
330
254
100
AcDbEntity
  8
1
 62
     2
100
AcDbMText
 10
-203.6794122829666
 20
31.83039651610013
 30
0.0
 40
3.5
 41
0.0
 71
     7
 72
     1
  1
\C2;ø\C2;24
  7
CONVERTER_13
 11
0.8456585892559544
 21
0.5337242269352492
 31
0.0
 73
     1
 44
0.60024009603842
  0
ENDBLK
  5
25A
330
254
100
AcDbEntity
  8
0
100
AcDbBlockEnd
  0
ENDSEC
  0
SECTION
  2
ENTITIES
  0
INSERT
  5
35
330
1F
100
AcDbEntity
  8
0
100
AcDbBlockReference
  2
TOP__1
 10
-98.034157700977
 20
-1.13389495044899
 30
0.0
  0
POINT
  5
36
330
1F
100
AcDbEntity
  8
1
 62
     3
 60
     1
100
AcDbPoint
 10
43.21935647545837
 20
-81.05296503525805
 30
0.0
  0
LINE
  5
37
330
1F
100
AcDbEntity
  8
1
  6
DOT_CENTER
 62
     2
100
AcDbLine
 10
48.51935647545827
 20
-81.05296503525805
 30
0.0
 11
54.51124080142387
 21
-81.05296503525543
 31
0.0
  0
LINE
  5
38
330
1F
100
AcDbEntity
  8
1
  6
Continuous
 62
     2
100
AcDbLine
 10
-79.81926913360343
 20
17.67516269400761
 30
0.0
 11
-77.15313114607204
 21
-1.13389495044899
 31
0.0
  0
LINE
  5
39
330
1F
100
AcDbEntity
  8
1
  6
Continuous
 62
     2
100
AcDbLine
 10
-83.75487711418242
 20
45.4400712317063
 30
0.0
 11
-80.10296402151954
 21
19.6765720453636
 31
0.0
  0
LINE
  5
3A
330
1F
100
AcDbEntity
  8
1
  6
DOT_CENTER
 62
     7
100
AcDbLine
 10
-77.15313114607204
 20
-1.13389495044899
 30
0.0
 11
-32.47144609618204
 21
-1.13389495044899
 31
0.0
  0
LINE
  5
3B
330
1F
100
AcDbEntity
  8
1
  6
Continuous
 62
     2
100
AcDbLine
 10
-84.61621134953893
 20
51.51660791500299
 30
0.0
 11
-84.02124505013524
 21
47.31924248443281
 31
0.0
  0
LINE
  5
3C
330
1F
100
AcDbEntity
  8
1
  6
DOT_CENTER
 62
     2
100
AcDbLine
 10
-78.86452822257002
 20
72.86610504955101
 30
0.0
 11
-31.37059051049602
 21
72.86610504955101
 31
0.0
  0
LINE
  5
3D
330
1F
100
AcDbEntity
  8
1
  6
DOT_CENTER
 62
     2
100
AcDbLine
 10
-79.19849849857803
 20
-82.460144017114
 30
0.0
 11
-30.86377810994691
 21
-82.460144017114
 31
0.0
  0
LINE
  5
3E
330
1F
100
AcDbEntity
  8
1
  6
Continuous
 62
     7
100
AcDbLine
 10
-52.02482546248504
 20
-126.4963934281756
 30
0.0
 11
-43.02482546248501
 21
-126.4963934281756
 31
0.0
  0
LINE
  5
3F
330
1F
100
AcDbEntity
  8
1
  6
Continuous
 62
     7
100
AcDbLine
 10
-75.02482546248504
 20
-126.4963934281756
 30
0.0
 11
-52.02482546248504
 21
-126.4963934281756
 31
0.0
  0
LINE
  5
40
330
1F
100
AcDbEntity
  8
1
  6
Continuous
 62
     7
100
AcDbLine
 10
-43.02482546248501
 20
-129.9963934281756
 30
0.0
 11
-49.52482546248504
 21
-129.9963934281756
 31
0.0
  0
LINE
  5
41
330
1F
100
AcDbEntity
  8
1
  6
Continuous
 62
     7
100
AcDbLine
 10
-43.02482546248501
 20
-126.4963934281756
 30
0.0
 11
-43.02482546248501
 21
-129.9963934281756
 31
0.0
  0
LINE
  5
42
330
1F
100
AcDbEntity
  8
1
  6
Continuous
 62
     7
100
AcDbLine
 10
-75.02482546248504
 20
-126.4963934281756
 30
0.0
 11
-75.02482546248504
 21
-129.9963934281756
 31
0.0
  0
LINE
  5
43
330
1F
100
AcDbEntity
  8
1
  6
DOT_CENTER
 62
     2
100
AcDbLine
 10
-75.02482546248504
 20
-101.4963934281757
 30
0.0
 11
-34.52482546248501
 21
-101.4963934281757
 31
0.0
  0
LINE
  5
44
330
1F
100
AcDbEntity
  8
1
  6
Continuous
 62
     7
100
AcDbLine
 10
-75.02482546248504
 20
-129.9963934281756
 30
0.0
 11
-43.02482546248501
 21
-129.9963934281756
 31
0.0
  0
LINE
  5
45
330
1F
100
AcDbEntity
  8
1
  6
DOT_CENTER
 62
     2
100
AcDbLine
 10
-34.52482546248501
 20
-101.4963934281757
 30
0.0
 11
-30.527962587079
 21
-101.4963934281757
 31
0.0
  0
LINE
  5
46
330
1F
100
AcDbEntity
  8
1
  6
Continuous
 62
     7
100
AcDbLine
 10
-34.52482546248501
 20
-101.4963934281757
 30
0.0
 11
-34.52482546248501
 21
-129.9963934281756
 31
0.0
  0
LINE
  5
47
330
1F
100
AcDbEntity
  8
1
  6
Continuous
 62
     7
100
AcDbLine
 10
-49.52482546248504
 20
-129.9963934281756
 30
0.0
 11
-34.52482546248501
 21
-129.9963934281756
 31
0.0
  0
LINE
  5
48
330
1F
100
AcDbEntity
  8
1
  6
Continuous
 62
     7
100
AcDbLine
 10
-55.02482546248504
 20
-48.63389495044901
 30
0.0
 11
-75.02482546248504
 21
-48.63389495044901
 31
0.0
  0
LINE
  5
49
330
1F
100
AcDbEntity
  8
1
  6
Continuous
 62
     7
100
AcDbLine
 10
-75.02482546248504
 20
46.3661050495509
 30
0.0
 11
-75.02482546248504
 21
-82.460144017114
 31
0.0
  0
LINE
  5
4A
330
1F
100
AcDbEntity
  8
1
  6
Continuous
 62
     7
100
AcDbLine
 10
-55.02482546248504
 20
46.36610504955101
 30
0.0
 11
-75.02482546248504
 21
46.3661050495509
 31
0.0
  0
LINE
  5
4B
330
1F
100
AcDbEntity
  8
1
  6
Continuous
 62
     7
100
AcDbLine
 10
-35.02482546248501
 20
72.86610504955101
 30
0.0
 11
-35.02482546248501
 21
-82.4601440171141
 31
0.0
  0
LINE
  5
4C
330
1F
100
AcDbEntity
  8
1
  6
Continuous
 62
     7
100
AcDbLine
 10
-75.02482546248504
 20
72.86610504955101
 30
0.0
 11
-75.02482546248504
 21
46.3661050495509
 31
0.0
  0
LINE
  5
4D
330
1F
100
AcDbEntity
  8
1
  6
DOT_CENTER
 62
     2
100
AcDbLine
 10
-53.02482546248504
 20
-35.51313809990211
 30
0.0
 11
-53.02482546248504
 21
-42.31063014841109
 31
0.0
  0
LINE
  5
4E
330
1F
100
AcDbEntity
  8
1
  6
DOT_CENTER
 62
     2
100
AcDbLine
 10
-65.02482546248504
 20
-17.57251172079199
 30
0.0
 11
-65.02482546248504
 21
-24.00747086004611
 31
0.0
  0
LINE
  5
4F
330
1F
100
AcDbEntity
  8
1
  6
DOT_CENTER
 62
     2
100
AcDbLine
 10
-56.02482546248504
 20
-38.63389495044899
 30
0.0
 11
-49.95316613258294
 21
-38.63389495044899
 31
0.0
  0
LINE
  5
50
330
1F
100
AcDbEntity
  8
1
  6
DOT_CENTER
 62
     2
100
AcDbLine
 10
-67.46662050094304
 20
-21.13389495044899
 30
0.0
 11
-63.02482546248504
 21
-21.13389495044899
 31
0.0
  0
LINE
  5
51
330
1F
100
AcDbEntity
  8
1
  6
DOT_CENTER
 62
     2
100
AcDbLine
 10
-67.39517765299402
 20
18.86610504955101
 30
0.0
 11
-62.02482546248504
 21
18.86610504955101
 31
0.0
  0
LINE
  5
52
330
1F
100
AcDbEntity
  8
1
  6
DOT_CENTER
 62
     2
100
AcDbLine
 10
-65.02482546248504
 20
21.471092414411
 30
0.0
 11
-65.02482546248504
 21
15.861643066753
 31
0.0
  0
LINE
  5
53
330
1F
100
AcDbEntity
  8
1
  6
DOT_CENTER
 62
     2
100
AcDbLine
 10
-53.02482546248504
 20
35.86610504955101
 30
0.0
 11
-53.02482546248504
 21
37.28772371773411
 31
0.0
  0
LINE
  5
54
330
1F
100
AcDbEntity
  8
1
  6
DOT_CENTER
 62
     2
100
AcDbLine
 10
-53.02482546248504
 20
37.86610504955101
 30
0.0
 11
-53.02482546248504
 21
32.798360746914
 31
0.0
  0
LINE
  5
55
330
1F
100
AcDbEntity
  8
1
  6
DOT_CENTER
 62
     2
100
AcDbLine
 10
-80.06892657866402
 20
-101.4963934281757
 30
0.0
 11
-75.02482546248504
 21
-101.4963934281757
 31
0.0
  0
LINE
  5
56
330
1F
100
AcDbEntity
  8
1
  6
Continuous
 62
     7
100
AcDbLine
 10
-75.02482546248504
 20
-101.4963934281757
 30
0.0
 11
-75.02482546248504
 21
-126.4963934281756
 31
0.0
  0
LINE
  5
57
330
1F
100
AcDbEntity
  8
1
  6
Continuous
 62
     7
100
AcDbLine
 10
-43.02482546248501
 20
34.36610504955101
 30
0.0
 11
-43.02482546248501
 21
-36.63389495044899
 31
0.0
  0
LINE
  5
58
330
1F
100
AcDbEntity
  8
1
  6
Continuous
 62
     2
100
AcDbLine
 10
-84.61621134953893
 20
51.51660791500299
 30
0.0
 11
-115.926211975827
 21
51.51660791500299
 31
0.0
  0
LINE
  5
59
330
1F
100
AcDbEntity
  8
1
  6
DOT_CENTER
 62
     7
100
AcDbLine
 10
-83.56529784946204
 20
-1.13389495044899
 30
0.0
 11
-77.15313114607204
 21
-1.13389495044899
 31
0.0
  0
LINE
  5
5A
330
1F
100
AcDbEntity
  8
1
  6
DOT_CENTER
 62
     2
100
AcDbLine
 10
-54.82372991809203
 20
36.36610504955101
 30
0.0
 11
-49.95630055188704
 21
36.36610504955101
 31
0.0
  0
LINE
  5
5C
330
1F
100
AcDbEntity
  8
1
  6
DOT_CENTER
 62
     2
100
AcDbLine
 10
28.61935647545835
 20
-28.06379649197982
 30
0.0
 11
25.26069751857204
 21
-28.06379649197982
 31
0.0
  0
LINE
  5
5D
330
1F
100
AcDbEntity
  8
1
  6
DOT_CENTER
 62
     2
100
AcDbLine
 10
53.01935647545844
 20
-28.06379649197982
 30
0.0
 11
55.75530624104414
 21
-28.06379649197982
 31
0.0
  0
LINE
  5
5E
330
1F
100
AcDbEntity
  8
1
  6
DOT_CENTER
 62
     2
100
AcDbLine
 10
28.61935647545835
 20
-28.06379649197982
 30
0.0
 11
28.61935647545835
 21
-25.53018940246741
 31
0.0
  0
LINE
  5
5F
330
1F
100
AcDbEntity
  8
1
  6
DOT_CENTER
 62
     2
100
AcDbLine
 10
28.61935647545835
 20
-28.06379649197982
 30
0.0
 11
53.01935647545844
 21
-28.06379649197982
 31
0.0
  0
LINE
  5
60
330
1F
100
AcDbEntity
  8
1
  6
DOT_CENTER
 62
     2
100
AcDbLine
 10
28.61935647545835
 20
-71.05296503526081
 30
0.0
 11
28.61935647545835
 21
-74.64135700794714
 31
0.0
  0
LINE
  5
61
330
1F
100
AcDbEntity
  8
1
  6
DOT_CENTER
 62
     2
100
AcDbLine
 10
28.61935647545835
 20
-71.05296503526081
 30
0.0
 11
28.61935647545835
 21
-28.06379649197982
 31
0.0
  0
LINE
  5
62
330
1F
100
AcDbEntity
  8
1
  6
Continuous
 62
     2
100
AcDbLine
 10
100.2667701539072
 20
-94.98949585847163
 30
0.0
 11
92.03420251279755
 21
-50.42037432064312
 31
0.0
  0
LINE
  5
63
330
1F
100
AcDbEntity
  8
1
  6
Continuous
 62
     2
100
AcDbLine
 10
63.03509191269194
 20
-94.98949585847163
 30
0.0
 11
100.2667701539072
 21
-94.98949585847163
 31
0.0
  0
LINE
  5
64
330
1F
100
AcDbEntity
  8
1
  6
DOT_CENTER
 62
     2
100
AcDbLine
 10
75.31046758656959
 20
-38.65296503526253
 30
0.0
 11
75.31046758656947
 21
-36.224842525192
 31
0.0
  0
LINE
  5
65
330
1F
100
AcDbEntity
  8
1
  6
DOT_CENTER
 62
     2
100
AcDbLine
 10
75.31046758656947
 20
-70.65296503526261
 30
0.0
 11
75.31046758656959
 21
-72.75446658915851
 31
0.0
  0
LINE
  5
66
330
1F
100
AcDbEntity
  8
1
  6
DOT_CENTER
 62
     2
100
AcDbLine
 10
75.31046758656959
 20
-38.65296503526253
 30
0.0
 11
75.31046758656947
 21
-70.65296503526261
 31
0.0
  0
LINE
  5
67
330
1F
100
AcDbEntity
  8
1
  6
Continuous
 62
     7
100
AcDbLine
 10
49.31935647545799
 20
-70.65296503526241
 30
0.0
 11
75.31046758656947
 21
-70.65296503526261
 31
0.0
  0
LINE
  5
68
330
1F
100
AcDbEntity
  8
1
  6
Continuous
 62
     7
100
AcDbLine
 10
45.81935647545834
 20
-44.25296503526121
 30
0.0
 11
49.31935647545834
 21
-44.25296503526283
 31
0.0
  0
LINE
  5
69
330
1F
100
AcDbEntity
  8
1
  6
Continuous
 62
     7
100
AcDbLine
 10
45.81935647545834
 20
-44.25296503526121
 30
0.0
 11
45.81935647545834
 21
-38.65296503526241
 31
0.0
  0
LINE
  5
6A
330
1F
100
AcDbEntity
  8
1
  6
DASHED
 62
     2
100
AcDbLine
 10
45.81935647545834
 20
-70.65296503526122
 30
0.0
 11
49.31935647545799
 21
-70.65296503526241
 31
0.0
  0
LINE
  5
6B
330
1F
100
AcDbEntity
  8
1
  6
Continuous
 62
     7
100
AcDbLine
 10
49.31935647545799
 20
-70.65296503526241
 30
0.0
 11
49.31935647545799
 21
-72.15719038737282
 31
0.0
  0
LINE
  5
6C
330
1F
100
AcDbEntity
  8
1
  6
Continuous
 62
     7
100
AcDbLine
 10
45.81935647545834
 20
-70.65296503526122
 30
0.0
 11
45.81935647545834
 21
-71.76348699052102
 31
0.0
  0
LINE
  5
6D
330
1F
100
AcDbEntity
  8
1
  6
Continuous
 62
     7
100
AcDbLine
 10
28.61935647545835
 20
-71.05296503526081
 30
0.0
 11
43.41935647545847
 21
-71.05296503526081
 31
0.0
  0
LINE
  5
6E
330
1F
100
AcDbEntity
  8
1
  6
DOT_CENTER
 62
     2
100
AcDbLine
 10
43.21935647545837
 20
-71.15010685578642
 30
0.0
 11
43.21935647545837
 21
-91.50006941221412
 31
0.0
  0
LINE
  5
6F
330
1F
100
AcDbEntity
  8
1
  6
Continuous
 62
     7
100
AcDbLine
 10
49.36273358615215
 20
-72.33835361438972
 30
0.0
 11
51.06506004018644
 21
-77.06737404088864
 31
0.0
  0
LINE
  5
70
330
1F
100
AcDbEntity
  8
1
  6
DOT_CENTER
 62
     2
100
AcDbLine
 10
32.41064119093295
 20
-81.05296503525543
 30
0.0
 11
34.41935647545847
 21
-81.05296503526012
 31
0.0
  0
LINE
  5
71
330
1F
100
AcDbEntity
  8
1
  6
Continuous
 62
     7
100
AcDbLine
 10
49.31935647545799
 20
-70.65296503526241
 30
0.0
 11
49.31935647545629
 21
-64.25296503526243
 31
0.0
  0
LINE
  5
72
330
1F
100
AcDbEntity
  8
1
  6
Continuous
 62
     7
100
AcDbLine
 10
49.3193564754568
 20
-53.05296503526242
 30
0.0
 11
49.31935647545834
 21
-44.25296503526283
 31
0.0
  0
LINE
  5
73
330
1F
100
AcDbEntity
  8
1
  6
Continuous
 62
     7
100
AcDbLine
 10
49.31935647545629
 20
-64.25296503526243
 30
0.0
 11
49.31935647545895
 21
-59.45296503526301
 31
0.0
  0
LINE
  5
74
330
1F
100
AcDbEntity
  8
1
  6
Continuous
 62
     7
100
AcDbLine
 10
45.81935647544827
 20
-66.05296503526121
 30
0.0
 11
45.81935647545834
 21
-70.65296503526122
 31
0.0
  0
LINE
  5
75
330
1F
100
AcDbEntity
  8
1
  6
Continuous
 62
     7
100
AcDbLine
 10
49.31935647545895
 20
-59.45296503526301
 30
0.0
 11
49.3193564754568
 21
-53.05296503526242
 31
0.0
  0
LINE
  5
76
330
1F
100
AcDbEntity
  8
1
  6
Continuous
 62
     7
100
AcDbLine
 10
45.81935647545834
 20
-44.25296503526121
 30
0.0
 11
45.81935647544827
 21
-66.05296503526121
 31
0.0
  0
LINE
  5
77
330
1F
100
AcDbEntity
  8
1
  6
Continuous
 62
     7
100
AcDbLine
 10
45.81935647545834
 20
-38.65296503526241
 30
0.0
 11
75.31046758656959
 21
-38.65296503526253
 31
0.0
  0
LINE
  5
78
330
1F
100
AcDbEntity
  8
1
  6
Continuous
 62
     2
100
AcDbLine
 10
54.47153287450647
 20
-99.09579472522853
 30
0.0
 11
71.28314417673505
 21
-56.85203755764212
 31
0.0
  0
LINE
  5
79
330
1F
100
AcDbEntity
  8
1
  6
DOT_CENTER
 62
     2
100
AcDbLine
 10
131.8367096298742
 20
-25.00549925578631
 30
0.0
 11
130.7853017412631
 21
-24.3984686282686
 31
0.0
  0
LINE
  5
7A
330
1F
100
AcDbEntity
  8
1
  6
DOT_CENTER
 62
     2
100
AcDbLine
 10
145.6931160904254
 20
-33.00549925578631
 30
0.0
 11
146.6030929563084
 21
-33.53087464426022
 31
0.0
  0
LINE
  5
7B
330
1F
100
AcDbEntity
  8
1
  6
DOT_CENTER
 62
     2
100
AcDbLine
 10
131.8367096298742
 20
-25.00549925578631
 30
0.0
 11
145.6931160904254
 21
-33.00549925578631
 31
0.0
  0
LINE
  5
7C
330
1F
100
AcDbEntity
  8
1
  6
Continuous
 62
     7
100
AcDbLine
 10
132.9230903863987
 20
-40.37827703356371
 30
0.0
 11
145.6931160904254
 21
-33.00549925578631
 31
0.0
  0
LINE
  5
7D
330
1F
100
AcDbEntity
  8
1
  6
Continuous
 62
     7
100
AcDbLine
 10
121.491555056444
 20
-33.77827703356371
 30
0.0
 11
119.0666839258482
 21
-32.37827703356402
 31
0.0
  0
LINE
  5
7E
330
1F
100
AcDbEntity
  8
1
  6
Continuous
 62
     7
100
AcDbLine
 10
130.9312319576903
 20
-39.22827703356623
 30
0.0
 11
132.9230903863987
 21
-40.37827703356371
 31
0.0
  0
LINE
  5
7F
330
1F
100
AcDbEntity
  8
1
  6
Continuous
 62
     7
100
AcDbLine
 10
121.491555056444
 20
-33.77827703356371
 30
0.0
 11
130.9312319576903
 21
-39.22827703356623
 31
0.0
  0
LINE
  5
80
330
1F
100
AcDbEntity
  8
1
  6
Continuous
 62
     7
100
AcDbLine
 10
119.0666839258482
 20
-32.37827703356402
 30
0.0
 11
131.8367096298742
 21
-25.00549925578631
 31
0.0
  0
LINE
  5
81
330
1F
100
AcDbEntity
  8
1
  6
Continuous
 62
     7
100
AcDbLine
 10
132.9230903863989
 20
-96.37827703356373
 30
0.0
 11
145.6931160904254
 21
-89.00549925578633
 31
0.0
  0
LINE
  5
82
330
1F
100
AcDbEntity
  8
1
  6
Continuous
 62
     7
100
AcDbLine
 10
121.491555056444
 20
-89.77827703356374
 30
0.0
 11
119.0666839258483
 21
-88.37827703356402
 31
0.0
  0
LINE
  5
83
330
1F
100
AcDbEntity
  8
1
  6
Continuous
 62
     7
100
AcDbLine
 10
130.9312319576903
 20
-95.22827703356623
 30
0.0
 11
132.9230903863989
 21
-96.37827703356373
 31
0.0
  0
LINE
  5
84
330
1F
100
AcDbEntity
  8
1
  6
Continuous
 62
     7
100
AcDbLine
 10
121.491555056444
 20
-89.77827703356374
 30
0.0
 11
130.9312319576903
 21
-95.22827703356623
 31
0.0
  0
LINE
  5
85
330
1F
100
AcDbEntity
  8
1
  6
DOT_CENTER
 62
     2
100
AcDbLine
 10
116.1466408531662
 20
-58.6923893795057
 30
0.0
 11
136.387192001537
 21
-70.37827703356402
 31
0.0
  0
LINE
  5
86
330
1F
100
AcDbEntity
  8
1
  6
Continuous
 62
     7
100
AcDbLine
 10
125.6484769946094
 20
-44.17827703356372
 30
0.0
 11
132.9230903863987
 21
-48.37827703356372
 31
0.0
  0
LINE
  5
87
330
1F
100
AcDbEntity
  8
1
  6
Continuous
 62
     7
100
AcDbLine
 10
121.491555056444
 20
-76.97827703356373
 30
0.0
 11
121.491555056444
 21
-61.77827703356371
 31
0.0
  0
LINE
  5
88
330
1F
100
AcDbEntity
  8
1
  6
Continuous
 62
     7
100
AcDbLine
 10
132.9230903863989
 20
-88.37827703356373
 30
0.0
 11
125.6484769946094
 21
-84.17827703356372
 31
0.0
  0
LINE
  5
89
330
1F
100
AcDbEntity
  8
1
  6
Continuous
 62
     7
100
AcDbLine
 10
119.0666839258482
 20
-32.37827703356402
 30
0.0
 11
119.0666839258482
 21
-60.37827703356402
 31
0.0
  0
LINE
  5
8A
330
1F
100
AcDbEntity
  8
1
  6
Continuous
 62
     7
100
AcDbLine
 10
145.6931160904254
 20
-33.00549925578631
 30
0.0
 11
145.6931160904254
 21
-89.00549925578633
 31
0.0
  0
LINE
  5
8B
330
1F
100
AcDbEntity
  8
1
  6
Continuous
 62
     7
100
AcDbLine
 10
134.0489234113186
 20
-87.72827703356373
 30
0.0
 11
126.7743100195291
 21
-83.52827703356374
 31
0.0
  0
LINE
  5
8C
330
1F
100
AcDbEntity
  8
1
  6
Continuous
 62
     7
100
AcDbLine
 10
122.6173880813639
 20
-76.32827703356384
 30
0.0
 11
122.6173880813639
 21
-45.92827703356372
 31
0.0
  0
LINE
  5
8D
330
1F
100
AcDbEntity
  8
1
  6
Continuous
 62
     7
100
AcDbLine
 10
132.9230903863987
 20
-40.37827703356371
 30
0.0
 11
132.9230903863987
 21
-48.37827703356372
 31
0.0
  0
LINE
  5
8E
330
1F
100
AcDbEntity
  8
1
  6
Continuous
 62
     7
100
AcDbLine
 10
132.9230903863989
 20
-96.37827703356373
 30
0.0
 11
132.9230903863989
 21
-88.37827703356373
 31
0.0
  0
LINE
  5
8F
330
1F
100
AcDbEntity
  8
1
  6
Continuous
 62
     7
100
AcDbLine
 10
132.9230903863989
 20
-88.37827703356373
 30
0.0
 11
134.0489234113186
 21
-87.72827703356373
 31
0.0
  0
LINE
  5
90
330
1F
100
AcDbEntity
  8
1
  6
Continuous
 62
     7
100
AcDbLine
 10
134.0489234113186
 20
-87.72827703356373
 30
0.0
 11
134.0489234113186
 21
-47.72827703356371
 31
0.0
  0
LINE
  5
91
330
1F
100
AcDbEntity
  8
1
  6
Continuous
 62
     7
100
AcDbLine
 10
132.9230903863987
 20
-48.37827703356372
 30
0.0
 11
134.0489234113186
 21
-47.72827703356371
 31
0.0
  0
LINE
  5
92
330
1F
100
AcDbEntity
  8
1
  6
Continuous
 62
     7
100
AcDbLine
 10
119.0666839258482
 20
-60.37827703356402
 30
0.0
 11
119.0666839258483
 21
-88.37827703356402
 31
0.0
  0
LINE
  5
93
330
1F
100
AcDbEntity
  8
1
  6
Continuous
 62
     7
100
AcDbLine
 10
121.491555056444
 20
-61.77827703356371
 30
0.0
 11
121.491555056444
 21
-46.57827703356372
 31
0.0
  0
LINE
  5
94
330
1F
100
AcDbEntity
  8
1
  6
Continuous
 62
     2
100
AcDbLine
 10
59.26597154012148
 20
-29.66781182545091
 30
0.0
 11
100.0054094313151
 21
-29.66781182545091
 31
0.0
  0
LINE
  5
95
330
1F
100
AcDbEntity
  8
1
  6
Continuous
 62
     2
100
AcDbLine
 10
59.26597154012148
 20
-29.66781182545091
 30
0.0
 11
52.51553609302874
 21
-37.64183350891432
 31
0.0
  0
LINE
  5
96
330
1F
100
AcDbEntity
  8
1
  6
Continuous
 62
     7
100
AcDbLine
 10
53.01935647545844
 20
-35.45296503526242
 30
0.0
 11
53.01935647545844
 21
-28.06379649197982
 31
0.0
  0
LINE
  5
97
330
1F
100
AcDbEntity
  8
1
  6
Continuous
 62
     7
100
AcDbLine
 10
43.41935647545847
 20
-71.05296503526081
 30
0.0
 11
43.41935647545847
 21
-37.19675878526252
 31
0.0
  0
LINE
  5
98
330
1F
100
AcDbEntity
  8
1
  6
Continuous
 62
     7
100
AcDbLine
 10
43.41935647545847
 20
-35.45296503526242
 30
0.0
 11
43.41935647545847
 21
-37.19675878526252
 31
0.0
  0
LINE
  5
99
330
1F
100
AcDbEntity
  8
1
  6
Continuous
 62
     7
100
AcDbLine
 10
44.21935647545837
 20
-36.86538793536411
 30
0.0
 11
44.21935647545837
 21
-36.25296503526241
 31
0.0
  0
LINE
  5
9A
330
1F
100
AcDbEntity
  8
1
  6
Continuous
 62
     7
100
AcDbLine
 10
45.20693357535697
 20
-37.85296503526243
 30
0.0
 11
44.21935647545837
 21
-36.86538793536411
 31
0.0
  0
LINE
  5
9B
330
1F
100
AcDbEntity
  8
1
  6
Continuous
 62
     7
100
AcDbLine
 10
51.23177937555994
 20
-37.85296503526243
 30
0.0
 11
45.20693357535697
 21
-37.85296503526243
 31
0.0
  0
LINE
  5
9C
330
1F
100
AcDbEntity
  8
1
  6
Continuous
 62
     7
100
AcDbLine
 10
52.21935647545837
 20
-36.86538793536411
 30
0.0
 11
51.23177937555994
 21
-37.85296503526243
 31
0.0
  0
LINE
  5
9D
330
1F
100
AcDbEntity
  8
1
  6
Continuous
 62
     7
100
AcDbLine
 10
52.21935647545837
 20
-36.25296503526241
 30
0.0
 11
52.21935647545837
 21
-36.86538793536411
 31
0.0
  0
LINE
  5
9E
330
1F
100
AcDbEntity
  8
1
  6
Continuous
 62
     7
100
AcDbLine
 10
44.21935647545837
 20
-36.25296503526241
 30
0.0
 11
52.21935647545837
 21
-36.25296503526241
 31
0.0
  0
LINE
  5
9F
330
1F
100
AcDbEntity
  8
1
  6
Continuous
 62
     7
100
AcDbLine
 10
43.41935647545847
 20
-35.45296503526242
 30
0.0
 11
53.01935647545844
 21
-35.45296503526242
 31
0.0
  0
LINE
  5
A0
330
1F
100
AcDbEntity
  8
1
  6
Continuous
 62
     7
100
AcDbLine
 10
53.01935647545844
 20
-35.45296503526242
 30
0.0
 11
53.01935647545844
 21
-37.19675878526252
 31
0.0
  0
LINE
  5
A1
330
1F
100
AcDbEntity
  8
1
  6
Continuous
 62
     7
100
AcDbLine
 10
53.01935647545844
 20
-37.19675878526252
 30
0.0
 11
51.56315022545857
 21
-38.65296503526241
 31
0.0
  0
LINE
  5
A2
330
1F
100
AcDbEntity
  8
1
  6
Continuous
 62
     7
100
AcDbLine
 10
43.41935647545847
 20
-37.19675878526252
 30
0.0
 11
44.87556272545845
 21
-38.65296503526241
 31
0.0
  0
LINE
  5
A3
330
1F
100
AcDbEntity
  8
1
  6
Continuous
 62
     7
100
AcDbLine
 10
44.87556272545845
 20
-38.65296503526241
 30
0.0
 11
51.56315022545857
 21
-38.65296503526241
 31
0.0
  0
LINE
  5
A4
330
1F
100
AcDbEntity
  8
1
  6
DOT_CENTER
 62
     2
100
AcDbLine
 10
34.41935647545847
 20
-81.05296503526012
 30
0.0
 11
48.51935647545827
 21
-81.05296503525805
 31
0.0
  0
LINE
  5
A5
330
1F
100
AcDbEntity
  8
1
  6
Continuous
 62
     2
100
AcDbLine
 10
54.47153287450647
 20
-99.09579472522853
 30
0.0
 11
26.76153735795504
 21
-99.09579472522853
 31
0.0
  0
LINE
  5
A6
330
1F
100
AcDbEntity
  8
1
  6
Continuous
 62
     2
100
AcDbLine
 10
100.2667701539072
 20
-94.98949585847163
 30
0.0
 11
105.0613550313468
 21
-69.22758023611901
 31
0.0
  0
LINE
  5
AF
330
1F
100
AcDbEntity
  8
1
  6
Continuous
 62
     2
100
AcDbLine
 10
-43.02482546248501
 20
-36.63389495044899
 30
0.0
 11
-43.02482546248501
 21
-93.34884565588204
 31
0.0
  0
LINE
  5
B0
330
1F
100
AcDbEntity
  8
1
  6
Continuous
 62
     2
100
AcDbLine
 10
-35.02482546248501
 20
-82.4601440171141
 30
0.0
 11
-35.02482546248501
 21
-93.34884565588204
 31
0.0
  0
LINE
  5
B1
330
1F
100
AcDbEntity
  8
1
  6
Continuous
 62
     2
100
AcDbLine
 10
-43.02482546248501
 20
-91.34884565588204
 30
0.0
 11
-35.02482546248501
 21
-91.34884565588204
 31
0.0
  0
LINE
  5
B2
330
1F
100
AcDbEntity
  8
1
  6
Continuous
 62
     2
100
AcDbLine
 10
-43.02482546248501
 20
-91.34884565588204
 30
0.0
 11
-50.02482546248504
 21
-91.34884565588204
 31
0.0
  0
LINE
  5
B3
330
1F
100
AcDbEntity
  8
1
  6
Continuous
 62
     2
100
AcDbLine
 10
-35.02482546248501
 20
-91.34884565588204
 30
0.0
 11
-28.02482546248501
 21
-91.34884565588204
 31
0.0
  0
LINE
  5
B4
330
1F
100
AcDbEntity
  8
1
  6
Continuous
 62
     2
100
AcDbLine
 10
-49.34544366255383
 20
-129.9963934281757
 30
0.0
 11
-49.34544366255383
 21
-129.9963934281757
 31
0.0
  0
LINE
  5
B5
330
1F
100
AcDbEntity
  8
1
  6
Continuous
 62
     2
100
AcDbLine
 10
-221.6034186358973
 20
-1.13389495044899
 30
0.0
 11
-239.8103612256972
 21
23.96358207138201
 31
0.0
  0
LINE
  5
B6
330
1F
100
AcDbEntity
  8
1
  6
Continuous
 62
     7
100
AcDbLine
 10
-183.9144589756003
 20
34.36610504955102
 30
0.0
 11
-183.9144589756003
 21
-36.63389495044899
 31
0.0
  0
LINE
  5
B7
330
1F
100
AcDbEntity
  8
1
  6
Continuous
 62
     7
100
AcDbLine
 10
-219.4144589756003
 20
-97.99639342817557
 30
0.0
 11
-219.4144589756003
 21
-126.4963934281756
 31
0.0
  0
LINE
  5
B8
330
1F
100
AcDbEntity
  8
1
  6
DOT_CENTER
 62
     2
100
AcDbLine
 10
-224.4585600917793
 20
-97.99639342817557
 30
0.0
 11
-219.4144589756003
 21
-97.99639342817557
 31
0.0
  0
LINE
  5
B9
330
1F
100
AcDbEntity
  8
1
  6
DOT_CENTER
 62
     2
100
AcDbLine
 10
-193.9144589756003
 20
35.86610504955102
 30
0.0
 11
-193.9144589756003
 21
37.28772371773411
 31
0.0
  0
LINE
  5
BA
330
1F
100
AcDbEntity
  8
1
  6
DOT_CENTER
 62
     2
100
AcDbLine
 10
-219.4144589756003
 20
-97.99639342817557
 30
0.0
 11
-165.4144589756003
 21
-97.99639342817557
 31
0.0
  0
LINE
  5
BB
330
1F
100
AcDbEntity
  8
1
  6
Continuous
 62
     7
100
AcDbLine
 10
-179.4144589756003
 20
60.36610504955102
 30
0.0
 11
-179.4144589756003
 21
-62.63389495044909
 31
0.0
  0
LINE
  5
BC
330
1F
100
AcDbEntity
  8
1
  6
Continuous
 62
     7
100
AcDbLine
 10
-195.9144589756003
 20
46.36610504955102
 30
0.0
 11
-219.4144589756003
 21
46.36610504955102
 31
0.0
  0
LINE
  5
BD
330
1F
100
AcDbEntity
  8
1
  6
Continuous
 62
     7
100
AcDbLine
 10
-195.9144589756003
 20
-48.63389495044899
 30
0.0
 11
-219.4144589756003
 21
-48.63389495044907
 31
0.0
  0
LINE
  5
BE
330
1F
100
AcDbEntity
  8
1
  6
DOT_CENTER
 62
     7
100
AcDbLine
 10
-223.6096142531263
 20
-1.13389495044899
 30
0.0
 11
-165.9144589756003
 21
-1.13389495044899
 31
0.0
  0
LINE
  5
BF
330
1F
100
AcDbEntity
  8
1
  6
Continuous
 62
     7
100
AcDbLine
 10
-219.4144589756003
 20
-129.9963934281756
 30
0.0
 11
-183.9144589756003
 21
-129.9963934281756
 31
0.0
  0
LINE
  5
C0
330
1F
100
AcDbEntity
  8
1
  6
Continuous
 62
     7
100
AcDbLine
 10
-219.4144589756003
 20
-126.4963934281756
 30
0.0
 11
-219.4144589756003
 21
-129.9963934281756
 31
0.0
  0
LINE
  5
C1
330
1F
100
AcDbEntity
  8
1
  6
Continuous
 62
     7
100
AcDbLine
 10
-183.9144589756003
 20
-126.4963934281756
 30
0.0
 11
-183.9144589756003
 21
-129.9963934281756
 31
0.0
  0
LINE
  5
C2
330
1F
100
AcDbEntity
  8
1
  6
Continuous
 62
     7
100
AcDbLine
 10
-183.9144589756003
 20
-129.9963934281756
 30
0.0
 11
-179.4144589756003
 21
-129.9963934281756
 31
0.0
  0
LINE
  5
C3
330
1F
100
AcDbEntity
  8
1
  6
Continuous
 62
     7
100
AcDbLine
 10
-204.9144589756003
 20
-126.4963934281756
 30
0.0
 11
-183.9144589756003
 21
-126.4963934281756
 31
0.0
  0
LINE
  5
C4
330
1F
100
AcDbEntity
  8
1
  6
Continuous
 62
     7
100
AcDbLine
 10
-179.4144589756003
 20
-129.9963934281756
 30
0.0
 11
-179.4144589756003
 21
-142.9963934281756
 31
0.0
  0
LINE
  5
C5
330
1F
100
AcDbEntity
  8
1
  6
Continuous
 62
     7
100
AcDbLine
 10
-179.4144589756003
 20
-142.9963934281756
 30
0.0
 11
-165.4144589756003
 21
-142.9963934281756
 31
0.0
  0
LINE
  5
C6
330
1F
100
AcDbEntity
  8
1
  6
Continuous
 62
     7
100
AcDbLine
 10
-165.4144589756003
 20
-97.99639342817557
 30
0.0
 11
-165.4144589756003
 21
-142.9963934281756
 31
0.0
  0
LINE
  5
C7
330
1F
100
AcDbEntity
  8
1
  6
DOT_CENTER
 62
     2
100
AcDbLine
 10
-165.4144589756003
 20
-97.99639342817557
 30
0.0
 11
-160.4144589756003
 21
-97.99639342817557
 31
0.0
  0
LINE
  5
C8
330
1F
100
AcDbEntity
  8
1
  6
Continuous
 62
     7
100
AcDbLine
 10
-219.4144589756003
 20
60.36610504955102
 30
0.0
 11
-219.4144589756003
 21
-62.63389495044909
 31
0.0
  0
LINE
  5
C9
330
1F
100
AcDbEntity
  8
1
  6
Continuous
 62
     7
100
AcDbLine
 10
-219.4144589756003
 20
-126.4963934281756
 30
0.0
 11
-204.9144589756003
 21
-126.4963934281756
 31
0.0
  0
LINE
  5
CA
330
1F
100
AcDbEntity
  8
1
  6
DOT_CENTER
 62
     2
100
AcDbLine
 10
-222.4144589756003
 20
60.36610504955102
 30
0.0
 11
-163.3265608864283
 21
60.36610504955102
 31
0.0
  0
LINE
  5
CB
330
1F
100
AcDbEntity
  8
1
  6
DOT_CENTER
 62
     2
100
AcDbLine
 10
-224.4144589756003
 20
-62.63389495044909
 30
0.0
 11
-163.6605311624373
 21
-62.63389495044909
 31
0.0
  0
LINE
  5
CC
330
1F
100
AcDbEntity
  8
1
  6
Continuous
 62
     7
100
AcDbLine
 10
-165.4144589756003
 20
60.36610504955102
 30
0.0
 11
-165.4144589756003
 21
-62.63389495044909
 31
0.0
  0
LINE
  5
CD
330
1F
100
AcDbEntity
  8
1
  6
DOT_CENTER
 62
     2
100
AcDbLine
 10
-190.7644589756003
 20
36.36610504955102
 30
0.0
 11
-197.0644589756003
 21
36.36610504955102
 31
0.0
  0
LINE
  5
CE
330
1F
100
AcDbEntity
  8
1
  6
DOT_CENTER
 62
     2
100
AcDbLine
 10
-193.9144589756003
 20
39.51610504955102
 30
0.0
 11
-193.9144589756003
 21
33.21610504955102
 31
0.0
  0
LINE
  5
CF
330
1F
100
AcDbEntity
  8
1
  6
DOT_CENTER
 62
     2
100
AcDbLine
 10
-202.7644589756003
 20
18.86610504955102
 30
0.0
 11
-209.0644589756003
 21
18.86610504955102
 31
0.0
  0
LINE
  5
D0
330
1F
100
AcDbEntity
  8
1
  6
DOT_CENTER
 62
     2
100
AcDbLine
 10
-205.9144589756003
 20
22.01610504955102
 30
0.0
 11
-205.9144589756003
 21
15.71610504955101
 31
0.0
  0
LINE
  5
D1
330
1F
100
AcDbEntity
  8
1
  6
DOT_CENTER
 62
     2
100
AcDbLine
 10
-202.7644589756003
 20
-21.13389495044899
 30
0.0
 11
-209.0644589756003
 21
-21.13389495044899
 31
0.0
  0
LINE
  5
D2
330
1F
100
AcDbEntity
  8
1
  6
DOT_CENTER
 62
     2
100
AcDbLine
 10
-205.9144589756003
 20
-17.98389495044899
 30
0.0
 11
-205.9144589756003
 21
-24.28389495044899
 31
0.0
  0
LINE
  5
D3
330
1F
100
AcDbEntity
  8
1
  6
DOT_CENTER
 62
     2
100
AcDbLine
 10
-190.7644589756003
 20
-38.63389495044899
 30
0.0
 11
-197.0644589756003
 21
-38.63389495044899
 31
0.0
  0
LINE
  5
D4
330
1F
100
AcDbEntity
  8
1
  6
DOT_CENTER
 62
     2
100
AcDbLine
 10
-193.9144589756003
 20
-35.48389495044899
 30
0.0
 11
-193.9144589756003
 21
-41.78389495044899
 31
0.0
  0
LINE
  5
D5
330
1F
100
AcDbEntity
  8
1
  6
Continuous
 62
     2
100
AcDbLine
 10
-239.8103612256972
 20
23.96358207138201
 30
0.0
 11
-271.1203618519853
 21
23.96358207138201
 31
0.0
  0
ARC
  5
D6
330
1F
100
AcDbEntity
  8
1
  6
Continuous
 62
     7
100
AcDbCircle
 10
-55.02482546248504
 20
34.36610504955101
 30
0.0
 40
12.00000000000003
100
AcDbArc
 50
0.0
 51
90.0
  0
ARC
  5
D7
330
1F
100
AcDbEntity
  8
1
  6
DOT_CENTER
 62
     2
100
AcDbCircle
 10
-55.02482546248504
 20
34.36610504955101
 30
0.0
 40
12.0
100
AcDbArc
 50
90.0
 51
0.0
  0
ARC
  5
D8
330
1F
100
AcDbEntity
  8
1
  6
Continuous
 62
     7
100
AcDbCircle
 10
-55.02482546248504
 20
-36.63389495044899
 30
0.0
 40
12.00000000000002
100
AcDbArc
 50
-90.0
 51
0.0
  0
ARC
  5
134
330
1F
100
AcDbEntity
  8
1
  6
Continuous
 62
     7
100
AcDbCircle
 10
48.81935647545834
 20
-71.76348699052102
 30
0.0
 40
3.0
100
AcDbArc
 50
180.0
 51
-161.9525772966079
  0
ARC
  5
135
330
1F
100
AcDbEntity
  8
1
  6
Continuous
 62
     7
100
AcDbCircle
 10
49.71935647545786
 20
-72.15719038737282
 30
0.0
 40
0.3999999999998707
100
AcDbArc
 50
180.0
 51
-153.069583810368
  0
ARC
  5
136
330
1F
100
AcDbEntity
  8
1
  6
Continuous
 62
     7
100
AcDbCircle
 10
43.21935647545837
 20
-81.05296503526012
 30
0.0
 40
8.800000000000065
100
AcDbArc
 50
71.80650102244373
 51
134.7928337023662
  0
ARC
  5
137
330
1F
100
AcDbEntity
  8
1
  6
Continuous
 62
     7
100
AcDbCircle
 10
43.21935647545837
 20
-81.05296503526012
 30
0.0
 40
8.799999999999898
100
AcDbArc
 50
180.0
 51
26.93041618962305
  0
ARC
  5
138
330
1F
100
AcDbEntity
  8
1
  6
Continuous
 62
     7
100
AcDbCircle
 10
43.21935647545837
 20
-81.05296503526012
 30
0.0
 40
8.8000000000001
100
AcDbArc
 50
26.93041618962305
 51
71.80650102244373
  0
ARC
  5
139
330
1F
100
AcDbEntity
  8
1
  6
Continuous
 62
     7
100
AcDbCircle
 10
43.21935647545837
 20
-81.05296503525543
 30
0.0
 40
8.79999999999682
100
AcDbArc
 50
134.7928337023877
 51
-179.9999999999695
  0
ARC
  5
13A
330
1F
100
AcDbEntity
  8
1
  6
Continuous
 62
     7
100
AcDbCircle
 10
-195.9144589756003
 20
-36.63389495044899
 30
0.0
 40
12.0
100
AcDbArc
 50
-90.0
 51
0.0
  0
ARC
  5
13B
330
1F
100
AcDbEntity
  8
1
  6
Continuous
 62
     7
100
AcDbCircle
 10
-195.9144589756003
 20
34.36610504955102
 30
0.0
 40
12.0
100
AcDbArc
 50
0.0
 51
90.0
  0
CIRCLE
  5
13C
330
1F
100
AcDbEntity
  8
1
  6
Continuous
 62
     7
100
AcDbCircle
 10
43.21935647545837
 20
-81.05296503525805
 30
0.0
 40
5.299999999999898
  0
CIRCLE
  5
13D
330
1F
100
AcDbEntity
  8
1
  6
Continuous
 62
     7
100
AcDbCircle
 10
-53.02482546248504
 20
-38.63389495044899
 30
0.0
 40
1.5
  0
CIRCLE
  5
13E
330
1F
100
AcDbEntity
  8
1
  6
Continuous
 62
     7
100
AcDbCircle
 10
-65.02482546248504
 20
-21.13389495044899
 30
0.0
 40
1.5
  0
CIRCLE
  5
13F
330
1F
100
AcDbEntity
  8
1
  6
Continuous
 62
     7
100
AcDbCircle
 10
-65.02482546248504
 20
18.86610504955101
 30
0.0
 40
1.5
  0
CIRCLE
  5
140
330
1F
100
AcDbEntity
  8
1
  6
Continuous
 62
     7
100
AcDbCircle
 10
-53.02482546248504
 20
36.36610504955101
 30
0.0
 40
1.5
  0
CIRCLE
  5
141
330
1F
100
AcDbEntity
  8
1
  6
Continuous
 62
     7
100
AcDbCircle
 10
-193.9144589756003
 20
36.36610504955102
 30
0.0
 40
1.5
  0
CIRCLE
  5
142
330
1F
100
AcDbEntity
  8
1
  6
Continuous
 62
     7
100
AcDbCircle
 10
-205.9144589756003
 20
18.86610504955102
 30
0.0
 40
1.5
  0
CIRCLE
  5
143
330
1F
100
AcDbEntity
  8
1
  6
Continuous
 62
     7
100
AcDbCircle
 10
-205.9144589756003
 20
-21.13389495044899
 30
0.0
 40
1.5
  0
CIRCLE
  5
144
330
1F
100
AcDbEntity
  8
1
  6
Continuous
 62
     7
100
AcDbCircle
 10
-193.9144589756003
 20
-38.63389495044899
 30
0.0
 40
1.5
  0
CIRCLE
  5
145
330
1F
100
AcDbEntity
  8
1
  6
DOT_CENTER
 62
     2
100
AcDbCircle
 10
-195.9144589756003
 20
34.36610504955102
 30
0.0
 40
12.0
  0
LWPOLYLINE
  5
148
330
1F
100
AcDbEntity
  8
1
  6
Continuous
 62
     7
100
AcDbPolyline
 90
       21
 70
     0
 43
0.0
 10
121.491555056444
 20
-76.97827703356373
 42
0.01652830894578
 10
121.504408628652
 20
-77.36287879839911
 42
0.01533837708382
 10
121.542772846718
 20
-77.75901784559669
 42
0.01435962970463
 10
121.6063529628047
 20
-78.16481297010911
 42
0.01356756740109
 10
121.6948542290749
 20
-78.57838296688901
 42
0.01293936130616
 10
121.8079818976913
 20
-78.99784663088903
 42
0.01238660966278
 10
121.9448598708731
 20
-79.41966294414428
 42
0.01195087158203
 10
122.104248968847
 20
-79.84025492264253
 42
0.01164333100033
 10
122.2853098207879
 20
-80.25768741226543
 42
0.0114553263855
 10
122.4872030558706
 20
-80.67002525889451
 42
0.01138039112678
 10
122.7090893032696
 20
-81.07533330841143
 42
0.01261122852628
 10
122.9768428639061
 20
-81.51319375568065
 42
0.01269978857412
 10
123.2642814991868
 20
-81.93378527077009
 42
0.01294329869559
 10
123.5696820167732
 20
-82.33478344556312
 42
0.01335183383536
 10
123.8913212243283
 20
-82.71386387194312
 42
0.01137127295462
 10
124.1961136757665
 20
-83.03725646751818
 42
0.01182842246173
 10
124.4777876426394
 20
-83.30809848050814
 42
0.01237473572948
 10
124.7649742543105
 20
-83.55852001215641
 42
0.01304664755557
 10
125.0565602144293
 20
-83.78762259391428
 42
0.01386007663805
 10
125.3514322266458
 20
-83.99450775723298
 42
0.01483204614512
 10
125.6484769946094
 20
-84.17827703356372
  0
LWPOLYLINE
  5
149
330
1F
100
AcDbEntity
  8
1
  6
Continuous
 62
     7
100
AcDbPolyline
 90
       17
 70
     0
 43
0.0
 10
125.6484769946094
 20
-44.17827703356372
 42
0.00822821548428
 10
125.49267945883
 20
-44.09169956086156
 42
0.00854089662779
 10
125.337332617767
 20
-44.0121023496448
 42
0.00887863757831
 10
125.1825964754636
 20
-43.93954102788749
 42
0.00924242504401
 10
125.0286310359626
 20
-43.87407122356332
 42
0.00963296641939
 10
124.8755963033073
 20
-43.81574856464614
 42
0.01005056809359
 10
124.7236522815406
 20
-43.76462867910981
 42
0.01049498562418
 10
124.5729589747054
 20
-43.72076719492822
 42
0.01096524461324
 10
124.4236763868447
 20
-43.68421974007513
 42
0.01145943407578
 10
124.2759645220015
 20
-43.65504194252451
 42
0.01197447880349
 10
124.1299833842189
 20
-43.63328943025014
 42
0.01214717359204
 10
123.9879363303431
 20
-43.619168747385
 42
0.01261927548912
 10
123.8502658798641
 20
-43.61242591668689
 42
0.01308685834124
 10
123.715153428415
 20
-43.61279591282343
 42
0.01354577897315
 10
123.582723667134
 20
-43.62025452127891
 42
0.01398771708055
 10
123.4531012871586
 20
-43.63477752753782
 42
0.01440339905041
 10
123.3264109796266
 20
-43.65634071708443
  0
LWPOLYLINE
  5
14A
330
1F
100
AcDbEntity
  8
1
  6
Continuous
 62
     7
100
AcDbPolyline
 90
       21
 70
     0
 43
0.0
 10
122.6173880813639
 20
-76.32827703356384
 42
0.01652830894623
 10
122.6302416535719
 20
-76.71287879839916
 42
0.01533837708368
 10
122.6686058716379
 20
-77.10901784559671
 42
0.01435962970491
 10
122.7321859877244
 20
-77.51481297010915
 42
0.01356756740123
 10
122.8206872539947
 20
-77.92838296688902
 42
0.0129393613059
 10
122.9338149226111
 20
-78.347846630889
 42
0.01238660966299
 10
123.0706928957927
 20
-78.7696629441443
 42
0.01195087158175
 10
123.2300819937669
 20
-79.19025492264254
 42
0.01164333100043
 10
123.4111428457079
 20
-79.60768741226538
 42
0.01145532638529
 10
123.6130360807904
 20
-80.02002525889452
 42
0.01138039112642
 10
123.8349223281894
 20
-80.4253333084115
 42
0.01261122852661
 10
124.102675888826
 20
-80.86319375568064
 42
0.0126997885741
 10
124.3901145241065
 20
-81.28378527077007
 42
0.01294329869555
 10
124.6955150416931
 20
-81.68478344556311
 42
0.01335183383508
 10
125.0171542492481
 20
-82.06386387194307
 42
0.01137127295433
 10
125.3219467006862
 20
-82.3872564675183
 42
0.01182842246168
 10
125.6036206675591
 20
-82.6580984805081
 42
0.01237473572933
 10
125.8908072792303
 20
-82.90852001215649
 42
0.01304664755534
 10
126.182393239349
 20
-83.13762259391424
 42
0.01386007663827
 10
126.4772652515655
 20
-83.34450775723298
 42
0.01483204614545
 10
126.7743100195291
 20
-83.52827703356374
  0
LWPOLYLINE
  5
14B
330
1F
100
AcDbEntity
  8
1
  6
Continuous
 62
     7
100
AcDbPolyline
 90
       16
 70
     0
 43
0.0
 10
123.3264109796266
 20
-43.65634071708442
 42
0.0159371603995
 10
123.2364429406178
 20
-43.7655045357851
 42
0.01544499060618
 10
123.1520884218764
 20
-43.88198855564254
 42
0.01491607940248
 10
123.0734583169376
 20
-44.00566516245946
 42
0.01436403512634
 10
123.0006635193376
 20
-44.13640674203917
 42
0.01380095957552
 10
122.9338149226111
 20
-44.2740856801842
 42
0.01363263607618
 10
122.8712223196632
 20
-44.42319979238323
 42
0.01299435250021
 10
122.8154127596376
 20
-44.5787605344083
 42
0.01238042264073
 10
122.7664292149557
 20
-44.74054325841561
 42
0.01179655664147
 10
122.7243146580385
 20
-44.90832331656142
 42
0.01124636000703
 10
122.6891120613074
 20
-45.08187606100162
 42
0.01073175412797
 10
122.6608643971836
 20
-45.26097684389251
 42
0.01025336465561
 10
122.6396146380882
 20
-45.44540101739023
 42
0.00981085827313
 10
122.6254057564426
 20
-45.63492393365081
 42
0.00940322146226
 10
122.618280724668
 20
-45.82932094483041
 10
122.6173880813639
 20
-45.92827703356372
  0
LWPOLYLINE
  5
14C
330
1F
100
AcDbEntity
  8
1
  6
Continuous
 62
     7
100
AcDbPolyline
 90
       22
 70
     0
 43
0.0
 10
123.3264109796266
 20
-43.65634071708442
 42
0.01743481144889
 10
123.181157968911
 20
-43.69072496570291
 42
0.01788572378941
 10
123.0403469688779
 20
-43.73479782718364
 42
0.01824127756089
 10
122.9041815662304
 20
-43.78851976581031
 42
0.01848528762272
 10
122.7728653476714
 20
-43.8518512458671
 42
0.02005196075152
 10
122.6418027886689
 20
-43.92777672103935
 42
0.01995150199177
 10
122.5122858511249
 20
-44.01708161906652
 42
0.01969501056051
 10
122.3896527415421
 20
-44.11684650957733
 42
0.0192966575285
 10
122.2740743068213
 20
-44.22687478516761
 42
0.01877783487984
 10
122.165721393864
 20
-44.34696983843401
 42
0.01816363538091
 10
122.0647648495713
 20
-44.47693506197251
 42
0.01748027274635
 10
121.9713755208442
 20
-44.61657384837951
 42
0.01675287782882
 10
121.8857242545837
 20
-44.76568959025128
 42
0.01600391336724
 10
121.8079818976913
 20
-44.92408568018411
 42
0.01613230485669
 10
121.7344070294638
 20
-45.10188315307125
 42
0.01523808316105
 10
121.6704086736999
 20
-45.28871198344382
 42
0.01438726973228
 10
121.6160587903211
 20
-45.48419598488562
 42
0.01358969849329
 10
121.5714293392485
 20
-45.68795897098043
 42
0.01285068008554
 10
121.5365922804033
 20
-45.89962475531192
 42
0.01217213446312
 10
121.5116195737066
 20
-46.11881715146382
 42
0.01155357496319
 10
121.4965831790798
 20
-46.34515997301982
 42
0.01099290389353
 10
121.491555056444
 20
-46.57827703356372
  0
LWPOLYLINE
  5
14D
330
1F
100
AcDbEntity
  8
1
  6
Continuous
 62
     3
100
AcDbPolyline
 90
        5
 70
     1
 43
0.0
 10
91.37499646855741
 20
23.54480354615248
 10
91.37499646855741
 20
31.54480354615248
 10
26.39099646855738
 20
31.54480354615248
 10
26.39099646855738
 20
23.54480354615248
 10
91.37499646855741
 20
23.54480354615248
  0
LWPOLYLINE
  5
14E
330
1F
100
AcDbEntity
  8
1
  6
Continuous
 62
     3
100
AcDbPolyline
 90
        5
 70
     1
 43
0.0
 10
115.0359964685574
 20
57.96666846526426
 10
115.0359964685574
 20
67.16666846526428
 10
26.39099646855738
 20
67.16666846526428
 10
26.39099646855738
 20
57.96666846526426
 10
115.0359964685574
 20
57.96666846526426
  0
MTEXT
  5
150
330
1F
100
AcDbEntity
  8
1
 62
     2
100
AcDbMText
 10
-101.048580699372
 20
54.58402917617701
 30
0.0
 40
2.5
 41
0.0
 71
     5
 72
     1
  1
Bandbezugslinie
  7
CONVERTER_11
 73
     1
 44
0.60024009603842
  0
TEXT
  5
152
330
1F
100
AcDbEntity
  8
1
 62
     2
100
AcDbText
 10
28.39099646855738
 20
0.11253396097479
 30
0.0
 40
3.2
  1
herstellerspezifisch.
 41
0.88209
  7
CONVERTER_12
100
AcDbText
  0
TEXT
  5
153
330
1F
100
AcDbEntity
  8
1
 62
     2
100
AcDbText
 10
28.39099646855738
 20
7.15253396097478
 30
0.0
 40
3.2
  1
der Dichtungsandruck sind jeweils
 41
0.88209
  7
CONVERTER_12
100
AcDbText
  0
TEXT
  5
154
330
1F
100
AcDbEntity
  8
1
 62
     2
100
AcDbText
 10
28.39099646855738
 20
14.19253396097477
 30
0.0
 40
3.2
  1
Die Tuerdicke, Zargenfalztiefe und
 41
0.88209
  7
CONVERTER_12
100
AcDbText
  0
MTEXT
  5
155
330
1F
100
AcDbEntity
  8
1
 62
     3
100
AcDbMText
 10
28.39099646855738
 20
29.54480354615248
 30
0.0
 40
4.0
 41
0.0
 71
     1
 72
     1
  1
A + B - C = Mass X
  7
CONVERTER_12
 73
     1
 44
0.60024009603842
  0
MTEXT
  5
156
330
1F
100
AcDbEntity
  8
1
 62
     2
100
AcDbMText
 10
38.17013571264079
 20
-96.25192054977703
 30
0.0
 40
2.8
 41
0.0
 71
     5
 72
     1
  1
Tuerdicke
  7
CONVERTER_12
 73
     1
 44
0.60024009603842
  0
TEXT
  5
157
330
1F
100
AcDbEntity
  8
1
 62
     2
100
AcDbText
 10
63.51601938109417
 20
-98.94427461192512
 30
0.0
 40
2.8
  1
Mass
 41
0.88209
  7
CONVERTER_12
100
AcDbText
  0
TEXT
  5
158
330
1F
100
AcDbEntity
  8
1
 62
     2
100
AcDbText
 10
63.51601938109417
 20
-92.78427461192513
 30
0.0
 40
2.8
  1
zu ermittelndes
 41
0.88209
  7
CONVERTER_12
100
AcDbText
  0
TEXT
  5
159
330
1F
100
AcDbEntity
  8
1
 62
     2
100
AcDbText
 10
28.39099646855738
 20
37.53596066002319
 30
0.0
 40
3.2
  1
C = Breite Bandfluegelteil
 41
0.88209
  7
CONVERTER_12
100
AcDbText
  0
TEXT
  5
15A
330
1F
100
AcDbEntity
  8
1
 62
     2
100
AcDbText
 10
28.39099646855738
 20
44.57596066002316
 30
0.0
 40
3.2
  1
B = Bandabstand zum Zargenspiegel
 41
0.88209
  7
CONVERTER_12
100
AcDbText
  0
TEXT
  5
15B
330
1F
100
AcDbEntity
  8
1
 62
     2
100
AcDbText
 10
28.39099646855738
 20
51.61596066002318
 30
0.0
 40
3.2
  1
A = Zargenfalztiefe bis Schliessebene
 41
0.88209
  7
CONVERTER_12
100
AcDbText
  0
MTEXT
  5
15C
330
1F
100
AcDbEntity
  8
1
 62
     2
100
AcDbMText
 10
79.41717655144794
 20
-25.97074051750423
 30
0.0
 40
2.8
 41
0.0
 71
     5
 72
     1
  1
Dichtungsandruck
  7
CONVERTER_12
 73
     1
 44
0.60024009603842
  0
MTEXT
  5
15D
330
1F
100
AcDbEntity
  8
1
 62
     3
100
AcDbMText
 10
28.39099646855738
 20
65.16666846526428
 30
0.0
 40
4.0
 41
0.0
 71
     1
 72
     1
  1
Berechnung der Fraesbreite:
  7
CONVERTER_12
 73
     1
 44
0.60024009603842
  0
TEXT
  5
15E
330
1F
100
AcDbEntity
  8
1
 62
     2
100
AcDbText
 10
-40.02312175878103
 20
-89.147090341395
 30
0.0
 40
3.5
  1
x
 41
0.891
  7
CONVERTER_11
100
AcDbText
  0
MTEXT
  5
160
330
1F
100
AcDbEntity
  8
1
 62
     3
100
AcDbMText
 10
-4.6754771291195
 20
-112.756989956074
 30
0.0
 40
3.5
 41
0.0
 71
     5
 72
     1
  1
Fräsbild Flügel
  7
CONVERTER_13
 73
     1
 44
1.32052821128451
  0
MTEXT
  5
161
330
1F
100
AcDbEntity
  8
1
 62
     3
100
AcDbMText
 10
-135.5651106422348
 20
-112.756989956074
 30
0.0
 40
3.5
 41
0.0
 71
     5
 72
     1
  1
Fräsbild Rahmen
  7
CONVERTER_13
 73
     1
 44
1.32052821128451
  0
MTEXT
  5
162
330
1F
100
AcDbEntity
  8
1
 62
     2
100
AcDbMText
 10
-256.2427305755304
 20
27.03100333255603
 30
0.0
 40
2.5
 41
0.0
 71
     5
 72
     1
  1
Bandbezugslinie
  7
CONVERTER_11
 73
     1
 44
0.60024009603842
  0
DIMENSION
  5
16E
330
1F
100
AcDbEntity
  8
1
100
AcDbDimension
  2
*D2
 10
-98.034157700977
 20
46.3661050495509
 30
0.0
 11
-101.784157700977
 21
20.9716044160609
 31
0.0
 70
    32
  1
<>
 71
     5
 42
-1.0
 53
90.0
  3
ME10_DIM_10
100
AcDbAlignedDimension
 13
-83.56529784946204
 23
-1.13389495044899
 33
0.0
 14
-75.02482546248504
 24
46.3661050495509
 34
0.0
 50
90.0
100
AcDbRotatedDimension
  0
DIMENSION
  5
17B
330
1F
100
AcDbEntity
  8
1
100
AcDbDimension
  2
*D3
 10
-28.74378842544801
 20
-126.4963934281757
 30
0.0
 11
-33.4057801984629
 21
-137.463648379993
 31
0.0
 70
    32
  1
<>
 71
     5
 42
-1.0
 53
90.0
  3
ME10_DIM_11
100
AcDbAlignedDimension
 13
-49.52482546248504
 23
-129.9963934281756
 33
0.0
 14
-43.02482546248501
 24
-126.4963934281756
 34
0.0
 50
90.0
100
AcDbRotatedDimension
  0
DIMENSION
  5
186
330
1F
100
AcDbEntity
  8
1
100
AcDbDimension
  2
*D4
 10
-14.87408830388904
 20
-48.633894950449
 30
0.0
 11
-18.62408830388904
 21
-0.92727897824
 31
0.0
 70
    32
  1
<>
 71
     5
 42
-1.0
 53
90.0
  3
ME10_DIM_12
100
AcDbAlignedDimension
 13
-55.02482546248504
 23
46.36610504955101
 33
0.0
 14
-55.02482546248504
 24
-48.63389495044901
 34
0.0
 50
90.0
100
AcDbRotatedDimension
  0
DIMENSION
  5
191
330
1F
100
AcDbEntity
  8
1
100
AcDbDimension
  2
*D5
 10
-23.67537503627904
 20
-38.633894950449
 30
0.0
 11
-27.42537503627904
 21
-1.04462946800499
 31
0.0
 70
    32
  1
<>
 71
     5
 42
-1.0
 53
90.0
  3
ME10_DIM_13
100
AcDbAlignedDimension
 13
-49.95630055188704
 23
36.36610504955101
 33
0.0
 14
-49.95316613258294
 24
-38.63389495044899
 34
0.0
 50
90.0
100
AcDbRotatedDimension
  0
DIMENSION
  5
19C
330
1F
100
AcDbEntity
  8
1
100
AcDbDimension
  2
*D6
 10
-85.65061037332103
 20
-21.13389495044899
 30
0.0
 11
-89.40061037332103
 21
-0.18866368731099
 31
0.0
 70
    32
  1
<>
 71
     5
 42
-1.0
 53
90.0
  3
ME10_DIM_14
100
AcDbAlignedDimension
 13
-67.39517765299402
 23
18.86610504955101
 33
0.0
 14
-67.46662050094304
 24
-21.13389495044899
 34
0.0
 50
90.0
100
AcDbRotatedDimension
  0
DIMENSION
  5
1A8
330
1F
100
AcDbEntity
  8
1
100
AcDbDimension
  2
*D7
 10
-43.02482546248501
 20
64.61979688882101
 30
0.0
 11
-53.02482546248504
 21
68.36979688882101
 31
0.0
 70
    32
  1
<>
 71
     5
 42
-1.0
 53
0.00013888888889
  3
ME10_DIM_15
100
AcDbAlignedDimension
 13
-65.02482546248504
 23
21.471092414411
 33
0.0
 14
-43.02482546248501
 24
34.36610504955101
 34
0.0
100
AcDbRotatedDimension
  0
DIMENSION
  5
1B4
330
1F
100
AcDbEntity
  8
1
100
AcDbDimension
  2
*D8
 10
-43.02482546248501
 20
53.80194669564199
 30
0.0
 11
-47.36245509211403
 21
57.55194669564199
 31
0.0
 70
    32
  1
<>
 71
     5
 42
-1.0
 53
0.00013888888889
  3
ME10_DIM_16
100
AcDbAlignedDimension
 13
-53.02482546248504
 23
37.86610504955101
 33
0.0
 14
-43.02482546248501
 24
34.36610504955101
 34
0.0
100
AcDbRotatedDimension
  0
DIMENSION
  5
1BF
330
1F
100
AcDbEntity
  8
1
100
AcDbDimension
  2
*D9
 10
85.43796273304858
 20
-44.25296503526283
 30
0.0
 11
83.59796273304858
 21
-62.65296503525913
 31
0.0
 70
    32
  1
C
 71
     5
 42
-1.0
 53
90.0
  3
ME10_DIM_17
100
AcDbAlignedDimension
 13
54.51124080142387
 23
-81.05296503525543
 33
0.0
 14
49.31935647545834
 24
-44.25296503526283
 34
0.0
 50
90.0
100
AcDbRotatedDimension
  0
DIMENSION
  5
1CC
330
1F
100
AcDbEntity
  8
1
100
AcDbDimension
  2
*D10
 10
100.1485180722418
 20
-38.65296503526253
 30
0.0
 11
104.527217330419
 21
-40.5822261716822
 31
0.0
 70
    32
  1
Mass X
 71
     5
 42
-1.0
 53
90.0
  3
ME10_DIM_18
100
AcDbAlignedDimension
 13
49.31935647545834
 23
-44.25296503526283
 33
0.0
 14
75.31046758656959
 24
-38.65296503526253
 34
0.0
 50
90.0
100
AcDbRotatedDimension
  0
DIMENSION
  5
1D7
330
1F
100
AcDbEntity
  8
1
100
AcDbDimension
  2
*D11
 10
14.44940527811525
 20
-81.05296503525543
 30
0.0
 11
10.69940527811525
 21
-76.05296503525824
 31
0.0
 70
    32
  1
B
 71
     5
 42
-1.0
 53
90.0
  3
ME10_DIM_19
100
AcDbAlignedDimension
 13
28.61935647545835
 23
-71.05296503526081
 33
0.0
 14
32.41064119093295
 24
-81.05296503525543
 34
0.0
 50
90.0
100
AcDbRotatedDimension
  0
DIMENSION
  5
1E2
330
1F
100
AcDbEntity
  8
1
100
AcDbDimension
  2
*D12
 10
14.44940527811525
 20
-71.05296503526081
 30
0.0
 11
10.69940527811525
 21
-51.85528296506831
 31
0.0
 70
    32
  1
A
 71
     5
 42
-1.0
 53
90.0
  3
ME10_DIM_20
100
AcDbAlignedDimension
 13
44.87556272545845
 23
-38.65296503526241
 33
0.0
 14
28.61935647545835
 24
-71.05296503526081
 34
0.0
 50
90.0
100
AcDbRotatedDimension
  0
DIMENSION
  5
1EF
330
1F
100
AcDbEntity
  8
1
100
AcDbDimension
  2
*D13
 10
115.8276806863417
 20
-71.58839521026798
 30
0.0
 11
105.1871037765968
 21
-61.37002926301062
 31
0.0
 70
    33
  1
Mass X
 71
     5
 42
-1.0
 53
-30.00000000000094
  3
ME10_DIM_21
100
AcDbAlignedDimension
 13
119.0666839258482
 23
-60.37827703356402
 33
0.0
 14
121.491555056444
 24
-61.77827703356371
 34
0.0
  0
DIMENSION
  5
1FA
330
1F
100
AcDbEntity
  8
1
100
AcDbDimension
  2
*D14
 10
-219.4144589756004
 20
-70.64797805119878
 30
0.0
 11
-202.5113838081583
 21
-66.89797805119878
 31
0.0
 70
    32
  1
<>
 71
     5
 42
-1.0
 53
0.00013888888889
  3
ME10_DIM_22
100
AcDbAlignedDimension
 13
-183.9144589756003
 23
-36.63389495044899
 33
0.0
 14
-219.4144589756003
 24
-62.63389495044909
 34
0.0
100
AcDbRotatedDimension
  0
DIMENSION
  5
207
330
1F
100
AcDbEntity
  8
1
100
AcDbDimension
  2
*D15
 10
-229.4108378975703
 20
-129.9963934281756
 30
0.0
 11
-233.1608378975703
 21
-119.9019036269639
 31
0.0
 70
    32
  1
<>
 71
     5
 42
-1.0
 53
90.0
  3
ME10_DIM_23
100
AcDbAlignedDimension
 13
-219.4144589756003
 23
-126.4963934281756
 33
0.0
 14
-219.4144589756003
 24
-129.9963934281756
 34
0.0
 50
90.0
100
AcDbRotatedDimension
  0
DIMENSION
  5
212
330
1F
100
AcDbEntity
  8
1
100
AcDbDimension
  2
*D16
 10
-156.8809334575827
 20
18.86610504955102
 30
0.0
 11
-160.6309334575827
 21
-6.11364791263008
 31
0.0
 70
    32
  1
<>
 71
     5
 42
-1.0
 53
90.0
  3
ME10_DIM_24
100
AcDbAlignedDimension
 13
-202.7644589756003
 23
-21.13389495044899
 33
0.0
 14
-202.7644589756003
 24
18.86610504955102
 34
0.0
 50
90.0
100
AcDbRotatedDimension
  0
DIMENSION
  5
21D
330
1F
100
AcDbEntity
  8
1
100
AcDbDimension
  2
*D17
 10
-147.9758860428584
 20
-38.63389495044899
 30
0.0
 11
-151.7258860428584
 21
4.65524663540862
 31
0.0
 70
    32
  1
<>
 71
     5
 42
-1.0
 53
90.0
  3
ME10_DIM_25
100
AcDbAlignedDimension
 13
-190.7644589756003
 23
36.36610504955102
 33
0.0
 14
-190.7644589756003
 24
-38.63389495044899
 34
0.0
 50
90.0
100
AcDbRotatedDimension
  0
DIMENSION
  5
22A
330
1F
100
AcDbEntity
  8
1
100
AcDbDimension
  2
*D18
 10
-139.4850268799818
 20
46.36610504955102
 30
0.0
 11
-143.2350268799818
 21
18.94474132415223
 31
0.0
 70
    32
  1
<>
 71
     5
 42
-1.0
 53
90.0
  3
ME10_DIM_26
100
AcDbAlignedDimension
 13
-165.9144589756003
 23
-1.13389495044899
 33
0.0
 14
-195.9144589756003
 24
46.36610504955102
 34
0.0
 50
90.0
100
AcDbRotatedDimension
  0
DIMENSION
  5
235
330
1F
100
AcDbEntity
  8
1
100
AcDbDimension
  2
*D19
 10
-130.1657912134098
 20
46.36610504955101
 30
0.0
 11
-133.9157912134098
 21
-1.76467126822988
 31
0.0
 70
    32
  1
<>
 71
     5
 42
-1.0
 53
90.0
  3
ME10_DIM_27
100
AcDbAlignedDimension
 13
-195.9144589756003
 23
-48.63389495044899
 33
0.0
 14
-195.9144589756003
 24
46.36610504955102
 34
0.0
 50
90.0
100
AcDbRotatedDimension
  0
DIMENSION
  5
240
330
1F
100
AcDbEntity
  8
1
100
AcDbDimension
  2
*D20
 10
-183.9144589756003
 20
65.94527776128652
 30
0.0
 11
-188.7485452262341
 21
69.69527776128652
 31
0.0
 70
    32
  1
<>
 71
     5
 42
-1.0
 53
0.00013888888889
  3
ME10_DIM_28
100
AcDbAlignedDimension
 13
-193.9144589756003
 23
39.51610504955102
 33
0.0
 14
-183.9144589756003
 24
34.36610504955102
 34
0.0
100
AcDbRotatedDimension
  0
DIMENSION
  5
24B
330
1F
100
AcDbEntity
  8
1
100
AcDbDimension
  2
*D21
 10
-205.9144589756003
 20
10.02521483367622
 30
0.0
 11
-194.5493816295132
 21
13.77521483367622
 31
0.0
 70
    32
  1
<>
 71
     5
 42
-1.0
 53
0.00013888888889
  3
ME10_DIM_29
100
AcDbAlignedDimension
 13
-183.9144589756003
 23
34.36610504955102
 33
0.0
 14
-205.9144589756003
 24
15.71610504955101
 34
0.0
100
AcDbRotatedDimension
  0
INSERT
  5
253
330
1F
100
AcDbEntity
  8
1
100
AcDbBlockReference
  2
*D22
 10
0.0
 20
0.0
 30
0.0
  0
INSERT
  5
25B
330
1F
100
AcDbEntity
  8
1
100
AcDbBlockReference
  2
*D23
 10
0.0
 20
0.0
 30
0.0
  0
HATCH
  5
25C
330
1F
100
AcDbEntity
  8
1
  6
Continuous
 62
     2
100
AcDbHatch
 10
0.0
 20
0.0
 30
0.0
210
0.0
220
0.0
230
1.0
  2
SOLID
 70
     1
 71
     0
 91
        1
 92
        1
 93
        3
 72
     1
 10
-43.02482546248501
 20
-91.34884565588204
 11
-46.52482546248504
 21
-91.80384565588204
 72
     1
 10
-46.52482546248504
 20
-91.80384565588204
 11
-46.52482546248504
 21
-90.89384565588205
 72
     1
 10
-46.52482546248504
 20
-90.89384565588205
 11
-43.02482546248501
 21
-91.34884565588204
 97
        0
 75
     0
 76
     1
 98
        1
 10
0.0
 20
0.0
  0
HATCH
  5
25D
330
1F
100
AcDbEntity
  8
1
  6
Continuous
 62
     2
100
AcDbHatch
 10
0.0
 20
0.0
 30
0.0
210
0.0
220
0.0
230
1.0
  2
SOLID
 70
     1
 71
     0
 91
        1
 92
        1
 93
        3
 72
     1
 10
-35.02482546248501
 20
-91.34884565588204
 11
-31.52482546248501
 21
-90.89384565588205
 72
     1
 10
-31.52482546248501
 20
-90.89384565588205
 11
-31.52482546248501
 21
-91.80384565588204
 72
     1
 10
-31.52482546248501
 20
-91.80384565588204
 11
-35.02482546248501
 21
-91.34884565588204
 97
        0
 75
     0
 76
     1
 98
        1
 10
0.0
 20
0.0
  0
ENDSEC
  0
SECTION
  2
OBJECTS
  0
DICTIONARY
  5
C
330
0
100
AcDbDictionary
281
     1
  3
ACAD_GROUP
350
D
  3
ACAD_LAYOUT
350
1A
  3
ACAD_MLINESTYLE
350
17
  3
ACAD_PLOTSETTINGS
350
19
  3
ACAD_PLOTSTYLENAME
350
E
  0
DICTIONARY
  5
D
102
{ACAD_REACTORS
330
C
102
}
330
C
100
AcDbDictionary
281
     1
  0
DICTIONARY
  5
1A
102
{ACAD_REACTORS
330
C
102
}
330
C
100
AcDbDictionary
281
     1
  3
Layout1
350
1E
  3
Layout2
350
26
  3
Model
350
22
  0
DICTIONARY
  5
17
102
{ACAD_REACTORS
330
C
102
}
330
C
100
AcDbDictionary
281
     1
  3
Standard
350
18
  0
DICTIONARY
  5
19
102
{ACAD_REACTORS
330
C
102
}
330
C
100
AcDbDictionary
281
     1
  0
ACDBDICTIONARYWDFLT
  5
E
102
{ACAD_REACTORS
330
C
102
}
330
C
100
AcDbDictionary
281
     1
  3
Normal
350
F
100
AcDbDictionaryWithDefault
340
F
  0
LAYOUT
  5
1E
102
{ACAD_REACTORS
330
1A
102
}
330
1A
100
AcDbPlotSettings
  1

  2

  4

  6

 40
0.0
 41
0.0
 42
0.0
 43
0.0
 44
0.0
 45
0.0
 46
0.0
 47
0.0
 48
0.0
 49
0.0
140
0.0
141
0.0
142
1.0
143
1.0
 70
   688
 72
     0
 73
     0
 74
     5
  7

 75
    16
 76
     0
 77
     2
 78
   300
147
1.0
148
0.0
149
0.0
100
AcDbLayout
  1
Layout1
 70
     1
 71
     1
 10
0.0
 20
0.0
 11
0.0
 21
0.0
 12
0.0
 22
0.0
 32
0.0
 14
0.0
 24
0.0
 34
0.0
 15
0.0
 25
0.0
 35
0.0
146
0.0
 13
0.0
 23
0.0
 33
0.0
 16
1.0
 26
0.0
 36
0.0
 17
0.0
 27
1.0
 37
0.0
 76
     0
330
1B
  0
LAYOUT
  5
26
102
{ACAD_REACTORS
330
1A
102
}
330
1A
100
AcDbPlotSettings
  1

  2

  4

  6

 40
0.0
 41
0.0
 42
0.0
 43
0.0
 44
0.0
 45
0.0
 46
0.0
 47
0.0
 48
0.0
 49
0.0
140
0.0
141
0.0
142
1.0
143
1.0
 70
   688
 72
     0
 73
     0
 74
     5
  7

 75
    16
 76
     0
 77
     2
 78
   300
147
1.0
148
0.0
149
0.0
100
AcDbLayout
  1
Layout2
 70
     1
 71
     2
 10
0.0
 20
0.0
 11
0.0
 21
0.0
 12
0.0
 22
0.0
 32
0.0
 14
0.0
 24
0.0
 34
0.0
 15
0.0
 25
0.0
 35
0.0
146
0.0
 13
0.0
 23
0.0
 33
0.0
 16
1.0
 26
0.0
 36
0.0
 17
0.0
 27
1.0
 37
0.0
 76
     0
330
23
  0
LAYOUT
  5
22
102
{ACAD_REACTORS
330
1A
102
}
330
1A
100
AcDbPlotSettings
  1

  2

  4

  6

 40
0.0
 41
0.0
 42
0.0
 43
0.0
 44
0.0
 45
0.0
 46
0.0
 47
0.0
 48
0.0
 49
0.0
140
0.0
141
0.0
142
1.0
143
1.0
 70
  1712
 72
     0
 73
     0
 74
     0
  7

 75
     0
 76
     0
 77
     2
 78
   300
147
1.0
148
0.0
149
0.0
100
AcDbLayout
  1
Model
 70
     1
 71
     0
 10
0.0
 20
0.0
 11
0.0
 21
0.0
 12
0.0
 22
0.0
 32
0.0
 14
-271.1203618519853
 24
-142.9963934281756
 34
0.0
 15
146.6030929563084
 25
72.86610504955101
 35
0.0
146
0.0
 13
0.0
 23
0.0
 33
0.0
 16
1.0
 26
0.0
 36
0.0
 17
0.0
 27
1.0
 37
0.0
 76
     0
330
1F
  0
MLINESTYLE
  5
18
102
{ACAD_REACTORS
330
17
102
}
330
17
100
AcDbMlineStyle
  2
Standard
 70
     0
  3

 62
   256
 51
90.0
 52
90.0
 71
     2
 49
0.5
 62
   256
  6
BYLAYER
 49
-0.5
 62
   256
  6
BYLAYER
  0
ACDBPLACEHOLDER
  5
F
102
{ACAD_REACTORS
330
E
102
}
330
E
  0
ENDSEC
  0
EOF
