  0
SECTION
  2
HEADER
  9
$ACADVER
  1
AC1018
  9
$ACADMAINTVER
 70
     0
  9
$DWGCODEPAGE
  3
ANSI_1252
  9
$INSBASE
 10
0.0
 20
0.0
 30
0.0
  9
$EXTMIN
 10
-173.311970537658
 20
-106.235691798994
 30
0.0
  9
$EXTMAX
 10
-9.5385769447694
 20
-7.3515743732184
 30
0.0
  9
$LIMMIN
 10
0.0
 20
0.0
  9
$LIMMAX
 10
12.0
 20
9.0
  9
$ORTHOMODE
 70
     0
  9
$REGENMODE
 70
     1
  9
$FILLMODE
 70
     1
  9
$QTEXTMODE
 70
     0
  9
$MIRRTEXT
 70
     1
  9
$LTSCALE
 40
1.0
  9
$ATTMODE
 70
     1
  9
$TEXTSIZE
 40
0.2
  9
$TRACEWID
 40
0.05
  9
$TEXTSTYLE
  7
Standard
  9
$CLAYER
  8
0
  9
$CELTYPE
  6
ByLayer
  9
$CECOLOR
 62
   256
  9
$CELTSCALE
 40
1.0
  9
$DISPSILH
 70
     0
  9
$DIMSCALE
 40
1.0
  9
$DIMASZ
 40
0.18
  9
$DIMEXO
 40
0.0625
  9
$DIMDLI
 40
0.38
  9
$DIMRND
 40
0.0
  9
$DIMDLE
 40
0.0
  9
$DIMEXE
 40
0.18
  9
$DIMTP
 40
0.0
  9
$DIMTM
 40
0.0
  9
$DIMTXT
 40
0.18
  9
$DIMCEN
 40
0.09
  9
$DIMTSZ
 40
0.0
  9
$DIMTOL
 70
     0
  9
$DIMLIM
 70
     0
  9
$DIMTIH
 70
     1
  9
$DIMTOH
 70
     1
  9
$DIMSE1
 70
     0
  9
$DIMSE2
 70
     0
  9
$DIMTAD
 70
     0
  9
$DIMZIN
 70
     0
  9
$DIMBLK
  1

  9
$DIMASO
 70
     1
  9
$DIMSHO
 70
     1
  9
$DIMPOST
  1

  9
$DIMAPOST
  1

  9
$DIMALT
 70
     0
  9
$DIMALTD
 70
     2
  9
$DIMALTF
 40
25.4
  9
$DIMLFAC
 40
1.0
  9
$DIMTOFL
 70
     0
  9
$DIMTVP
 40
0.0
  9
$DIMTIX
 70
     0
  9
$DIMSOXD
 70
     0
  9
$DIMSAH
 70
     0
  9
$DIMBLK1
  1

  9
$DIMBLK2
  1

  9
$DIMSTYLE
  2
Standard
  9
$DIMCLRD
 70
     0
  9
$DIMCLRE
 70
     0
  9
$DIMCLRT
 70
     0
  9
$DIMTFAC
 40
1.0
  9
$DIMGAP
 40
0.09
  9
$DIMJUST
 70
     0
  9
$DIMSD1
 70
     0
  9
$DIMSD2
 70
     0
  9
$DIMTOLJ
 70
     1
  9
$DIMTZIN
 70
     0
  9
$DIMALTZ
 70
     0
  9
$DIMALTTZ
 70
     0
  9
$DIMUPT
 70
     0
  9
$DIMDEC
 70
     4
  9
$DIMTDEC
 70
     4
  9
$DIMALTU
 70
     2
  9
$DIMALTTD
 70
     2
  9
$DIMTXSTY
  7
Standard
  9
$DIMAUNIT
 70
     0
  9
$DIMADEC
 70
     0
  9
$DIMALTRND
 40
0.0
  9
$DIMAZIN
 70
     0
  9
$DIMDSEP
 70
    46
  9
$DIMATFIT
 70
     3
  9
$DIMFRAC
 70
     0
  9
$DIMLDRBLK
  1

  9
$DIMLUNIT
 70
     2
  9
$DIMLWD
 70
    -2
  9
$DIMLWE
 70
    -2
  9
$DIMTMOVE
 70
     0
  9
$LUNITS
 70
     2
  9
$LUPREC
 70
     4
  9
$SKETCHINC
 40
0.1
  9
$FILLETRAD
 40
0.5
  9
$AUNITS
 70
     0
  9
$AUPREC
 70
     0
  9
$MENU
  1
.
  9
$ELEVATION
 40
0.0
  9
$PELEVATION
 40
0.0
  9
$THICKNESS
 40
0.0
  9
$LIMCHECK
 70
     0
  9
$CHAMFERA
 40
0.5
  9
$CHAMFERB
 40
0.5
  9
$CHAMFERC
 40
1.0
  9
$CHAMFERD
 40
0.0
  9
$SKPOLY
 70
     0
  9
$TDCREATE
 40
2456261.431164514
  9
$TDUCREATE
 40
2456261.389497847
  9
$TDUPDATE
 40
2456261.431164525
  9
$TDUUPDATE
 40
2456261.389497859
  9
$TDINDWG
 40
0.0000000116
  9
$TDUSRTIMER
 40
0.0000000116
  9
$USRTIMER
 70
     1
  9
$ANGBASE
 50
0.0
  9
$ANGDIR
 70
     0
  9
$PDMODE
 70
     0
  9
$PDSIZE
 40
0.0
  9
$PLINEWID
 40
0.0
  9
$SPLFRAME
 70
     0
  9
$SPLINETYPE
 70
     6
  9
$SPLINESEGS
 70
     8
  9
$HANDSEED
  5
12B
  9
$SURFTAB1
 70
     6
  9
$SURFTAB2
 70
     6
  9
$SURFTYPE
 70
     6
  9
$SURFU
 70
     6
  9
$SURFV
 70
     6
  9
$UCSBASE
  2

  9
$UCSNAME
  2

  9
$UCSORG
 10
0.0
 20
0.0
 30
0.0
  9
$UCSXDIR
 10
1.0
 20
0.0
 30
0.0
  9
$UCSYDIR
 10
0.0
 20
1.0
 30
0.0
  9
$UCSORTHOREF
  2

  9
$UCSORTHOVIEW
 70
     0
  9
$UCSORGTOP
 10
0.0
 20
0.0
 30
0.0
  9
$UCSORGBOTTOM
 10
0.0
 20
0.0
 30
0.0
  9
$UCSORGLEFT
 10
0.0
 20
0.0
 30
0.0
  9
$UCSORGRIGHT
 10
0.0
 20
0.0
 30
0.0
  9
$UCSORGFRONT
 10
0.0
 20
0.0
 30
0.0
  9
$UCSORGBACK
 10
0.0
 20
0.0
 30
0.0
  9
$PUCSBASE
  2

  9
$PUCSNAME
  2

  9
$PUCSORG
 10
0.0
 20
0.0
 30
0.0
  9
$PUCSXDIR
 10
1.0
 20
0.0
 30
0.0
  9
$PUCSYDIR
 10
0.0
 20
1.0
 30
0.0
  9
$PUCSORTHOREF
  2

  9
$PUCSORTHOVIEW
 70
     0
  9
$PUCSORGTOP
 10
0.0
 20
0.0
 30
0.0
  9
$PUCSORGBOTTOM
 10
0.0
 20
0.0
 30
0.0
  9
$PUCSORGLEFT
 10
0.0
 20
0.0
 30
0.0
  9
$PUCSORGRIGHT
 10
0.0
 20
0.0
 30
0.0
  9
$PUCSORGFRONT
 10
0.0
 20
0.0
 30
0.0
  9
$PUCSORGBACK
 10
0.0
 20
0.0
 30
0.0
  9
$USERI1
 70
     0
  9
$USERI2
 70
     0
  9
$USERI3
 70
     0
  9
$USERI4
 70
     0
  9
$USERI5
 70
     0
  9
$USERR1
 40
14.5
  9
$USERR2
 40
0.0
  9
$USERR3
 40
0.0
  9
$USERR4
 40
0.0
  9
$USERR5
 40
0.0
  9
$WORLDVIEW
 70
     1
  9
$SHADEDGE
 70
     3
  9
$SHADEDIF
 70
    70
  9
$TILEMODE
 70
     1
  9
$MAXACTVP
 70
    64
  9
$PINSBASE
 10
0.0
 20
0.0
 30
0.0
  9
$PLIMCHECK
 70
     0
  9
$PEXTMIN
 10
1.00000000000000E+20
 20
1.00000000000000E+20
 30
1.00000000000000E+20
  9
$PEXTMAX
 10
-1.00000000000000E+20
 20
-1.00000000000000E+20
 30
-1.00000000000000E+20
  9
$PLIMMIN
 10
0.0
 20
0.0
  9
$PLIMMAX
 10
12.0
 20
9.0
  9
$UNITMODE
 70
     0
  9
$VISRETAIN
 70
     1
  9
$PLINEGEN
 70
     0
  9
$PSLTSCALE
 70
     1
  9
$TREEDEPTH
 70
  3020
  9
$CMLSTYLE
  2
Standard
  9
$CMLJUST
 70
     0
  9
$CMLSCALE
 40
1.0
  9
$PROXYGRAPHICS
 70
     1
  9
$MEASUREMENT
 70
     1
  9
$CELWEIGHT
370
    -1
  9
$ENDCAPS
280
     0
  9
$JOINSTYLE
280
     0
  9
$LWDISPLAY
290
     0
  9
$INSUNITS
 70
     1
  9
$HYPERLINKBASE
  1

  9
$STYLESHEET
  1

  9
$XEDIT
290
     1
  9
$CEPSNTYPE
380
     0
  9
$PSTYLEMODE
290
     1
  9
$FINGERPRINTGUID
  2
{19650418-3FAF-41A9-9B63-CD58E61F3B76}
  9
$VERSIONGUID
  2
{FAEB1C32-E019-11D5-929B-00C0DF256EC4}
  9
$EXTNAMES
290
     1
  9
$PSVPSCALE
 40
0.0
  9
$OLESTARTUP
290
     0
  9
$SORTENTS
280
   127
  9
$INDEXCTL
280
     0
  9
$HIDETEXT
280
     1
  9
$XCLIPFRAME
290
     0
  9
$HALOGAP
280
     0
  9
$OBSCOLOR
 70
   257
  9
$OBSLTYPE
280
     0
  9
$INTERSECTIONDISPLAY
280
     0
  9
$INTERSECTIONCOLOR
 70
   257
  9
$DIMASSOC
280
     2
  9
$PROJECTNAME
  1

  0
ENDSEC
  0
SECTION
  2
CLASSES
  0
CLASS
  1
ACDBDICTIONARYWDFLT
  2
AcDbDictionaryWithDefault
  3
ObjectDBX Classes
 90
        0
 91
        3
280
     0
281
     0
  0
CLASS
  1

  2
exOdDbCircle
  3

 90
        0
 91
        3
280
     0
281
     1
  0
CLASS
  1

  2
exOdDbPolyline
  3

 90
        0
 91
        3
280
     0
281
     1
  0
ENDSEC
  0
SECTION
  2
TABLES
  0
TABLE
  2
VPORT
  5
8
330
0
100
AcDbSymbolTable
 70
     1
  0
VPORT
  5
29
330
8
100
AcDbSymbolTableRecord
100
AcDbViewportTableRecord
  2
*Active
 70
     0
 10
0.0
 20
0.0
 11
1.0
 21
1.0
 12
-91.4252737412137
 22
-56.7936330861062
 13
0.0
 23
0.0
 14
0.5
 24
0.5
 15
0.5
 25
0.5
 16
0.0
 26
0.0
 36
1.0
 17
0.0
 27
0.0
 37
0.0
 40
112.4060283601331
 41
1.60267857142857
 42
50.0
 43
0.0
 44
0.0
 50
0.0
 51
0.0
 71
     0
 72
   100
 73
     1
 74
     3
 75
     0
 76
     0
 77
     0
 78
     0
281
     0
 65
     1
110
0.0
120
0.0
130
0.0
111
1.0
121
0.0
131
0.0
112
0.0
122
1.0
132
0.0
 79
     0
146
0.0
  0
ENDTAB
  0
TABLE
  2
LTYPE
  5
5
330
0
100
AcDbSymbolTable
 70
     8
  0
LTYPE
  5
14
330
5
100
AcDbSymbolTableRecord
100
AcDbLinetypeTableRecord
  2
ByBlock
 70
     0
  3

 72
    65
 73
     0
 40
0.0
  0
LTYPE
  5
15
330
5
100
AcDbSymbolTableRecord
100
AcDbLinetypeTableRecord
  2
ByLayer
 70
     0
  3

 72
    65
 73
     0
 40
0.0
  0
LTYPE
  5
16
330
5
100
AcDbSymbolTableRecord
100
AcDbLinetypeTableRecord
  2
Continuous
 70
     0
  3
Solid line
 72
    65
 73
     0
 40
0.0
  0
LTYPE
  5
2A
330
5
100
AcDbSymbolTableRecord
100
AcDbLinetypeTableRecord
  2
DASHED
 70
     0
  3
Dashed
 72
    65
 73
     2
 40
15.0
 49
7.0
 74
     0
 49
-8.0
 74
     0
  0
LTYPE
  5
2B
330
5
100
AcDbSymbolTableRecord
100
AcDbLinetypeTableRecord
  2
DOTTED
 70
     0
  3
Dotted
 72
    65
 73
     2
 40
1.0
 49
0.0
 74
     0
 49
-1.0
 74
     0
  0
LTYPE
  5
2C
330
5
100
AcDbSymbolTableRecord
100
AcDbLinetypeTableRecord
  2
DOT_CENTER
 70
     0
  3
Dot_Center
 72
    65
 73
     4
 40
14.0
 49
12.0
 74
     0
 49
-1.0
 74
     0
 49
0.0
 74
     0
 49
-1.0
 74
     0
  0
LTYPE
  5
2D
330
5
100
AcDbSymbolTableRecord
100
AcDbLinetypeTableRecord
  2
LONG_DASHED
 70
     0
  3
Long_Dashed
 72
    65
 73
     2
 40
15.0
 49
10.0
 74
     0
 49
-5.0
 74
     0
  0
LTYPE
  5
2E
330
5
100
AcDbSymbolTableRecord
100
AcDbLinetypeTableRecord
  2
DASH_CENTER
 70
     0
  3
Dash_Center
 72
    65
 73
     4
 40
14.0
 49
11.0
 74
     0
 49
-1.0
 74
     0
 49
1.0
 74
     0
 49
-1.0
 74
     0
  0
LTYPE
  5
2F
330
5
100
AcDbSymbolTableRecord
100
AcDbLinetypeTableRecord
  2
PHANTOM
 70
     0
  3
Phantom
 72
    65
 73
     6
 40
13.0
 49
10.0
 74
     0
 49
-1.0
 74
     0
 49
0.0
 74
     0
 49
-1.0
 74
     0
 49
0.0
 74
     0
 49
-1.0
 74
     0
  0
LTYPE
  5
30
330
5
100
AcDbSymbolTableRecord
100
AcDbLinetypeTableRecord
  2
CENTER_DASH_DASH
 70
     0
  3
Center_Dash_Dash
 72
    65
 73
     6
 40
14.0
 49
9.0
 74
     0
 49
-1.0
 74
     0
 49
1.0
 74
     0
 49
-1.0
 74
     0
 49
1.0
 74
     0
 49
-1.0
 74
     0
  0
ENDTAB
  0
TABLE
  2
LAYER
  5
2
330
0
100
AcDbSymbolTable
 70
     5
  0
LAYER
  5
10
330
2
100
AcDbSymbolTableRecord
100
AcDbLayerTableRecord
  2
0
 70
     0
 62
     7
  6
Continuous
370
    -3
390
F
  0
LAYER
  5
31
330
2
100
AcDbSymbolTableRecord
100
AcDbLayerTableRecord
  2
1
 70
     0
 62
     7
  6
Continuous
370
    -3
390
F
  0
LAYER
  5
32
330
2
100
AcDbSymbolTableRecord
100
AcDbLayerTableRecord
  2
2
 70
     0
 62
     7
  6
Continuous
370
    -3
390
F
  0
LAYER
  5
33
330
2
100
AcDbSymbolTableRecord
100
AcDbLayerTableRecord
  2
A_BEMASSUNGEN
 70
     0
 62
     7
  6
Continuous
370
    -3
390
F
  0
LAYER
  5
34
330
2
100
AcDbSymbolTableRecord
100
AcDbLayerTableRecord
  2
DEFAULT_1
 70
     0
 62
     7
  6
Continuous
370
    -3
390
F
  0
ENDTAB
  0
TABLE
  2
STYLE
  5
3
330
0
100
AcDbSymbolTable
 70
     2
  0
STYLE
  5
11
330
3
100
AcDbSymbolTableRecord
100
AcDbTextStyleTableRecord
  2
Standard
 70
     0
 40
0.0
 41
1.0
 50
0.0
 71
     0
 42
0.2
  3
txt
  4

  0
STYLE
  5
DA
330
3
100
AcDbSymbolTableRecord
100
AcDbTextStyleTableRecord
  2
CONVERTER_11
 70
     0
 40
0.0
 41
0.9
 50
0.0
 71
     0
 42
0.2
  3
txt.shx
  4

  0
ENDTAB
  0
TABLE
  2
VIEW
  5
6
330
0
100
AcDbSymbolTable
 70
     0
  0
ENDTAB
  0
TABLE
  2
UCS
  5
7
330
0
100
AcDbSymbolTable
 70
     0
  0
ENDTAB
  0
TABLE
  2
APPID
  5
9
330
0
100
AcDbSymbolTable
 70
     1
  0
APPID
  5
12
330
9
100
AcDbSymbolTableRecord
100
AcDbRegAppTableRecord
  2
ACAD
 70
     0
  0
ENDTAB
  0
TABLE
  2
DIMSTYLE
  5
A
330
0
100
AcDbSymbolTable
 70
     8
100
AcDbDimStyleTable
  0
DIMSTYLE
105
27
330
A
100
AcDbSymbolTableRecord
100
AcDbDimStyleTableRecord
  2
Standard
 70
     0
340
11
  0
DIMSTYLE
105
DE
102
{ACAD_REACTORS
330
DF
102
}
330
A
100
AcDbSymbolTableRecord
100
AcDbDimStyleTableRecord
  2
ME10_DIM_10
 70
     0
 41
3.5
 42
0.0
 44
2.0
 73
     0
 74
     0
 77
     1
 78
     8
140
3.5
147
2.0
172
     1
173
     1
176
     2
177
     2
178
     2
271
     3
340
DA
  0
DIMSTYLE
105
E9
102
{ACAD_REACTORS
330
EA
102
}
330
A
100
AcDbSymbolTableRecord
100
AcDbDimStyleTableRecord
  2
ME10_DIM_11
 70
     0
 41
3.5
 42
0.0
 44
2.0
 73
     0
 74
     0
 77
     1
 78
     8
140
3.5
147
2.0
172
     1
173
     1
176
     2
177
     2
178
     2
271
     3
340
DA
  0
DIMSTYLE
105
F4
102
{ACAD_REACTORS
330
F5
102
}
330
A
100
AcDbSymbolTableRecord
100
AcDbDimStyleTableRecord
  2
ME10_DIM_12
 70
     0
 41
3.5
 42
0.0
 44
2.0
 73
     0
 74
     0
 77
     1
 78
     8
140
3.5
147
2.0
172
     1
173
     1
176
     2
177
     2
178
     2
271
     3
340
DA
  0
DIMSTYLE
105
FF
102
{ACAD_REACTORS
330
100
102
}
330
A
100
AcDbSymbolTableRecord
100
AcDbDimStyleTableRecord
  2
ME10_DIM_13
 70
     0
 41
3.5
 42
0.0
 44
2.0
 73
     0
 74
     0
 77
     1
 78
     8
140
3.5
147
2.0
172
     1
173
     1
176
     2
177
     2
178
     2
271
     3
340
DA
  0
DIMSTYLE
105
10A
102
{ACAD_REACTORS
330
10B
102
}
330
A
100
AcDbSymbolTableRecord
100
AcDbDimStyleTableRecord
  2
ME10_DIM_14
 70
     0
 41
3.5
 42
0.0
 44
2.0
 73
     0
 74
     0
 77
     1
 78
     8
140
3.5
147
2.0
172
     1
173
     1
176
     2
177
     2
178
     2
271
     3
340
DA
  0
DIMSTYLE
105
11C
102
{ACAD_REACTORS
330
11D
102
}
330
A
100
AcDbSymbolTableRecord
100
AcDbDimStyleTableRecord
  2
ME10_DIM_15
 70
     0
 41
1.5
 42
0.0
 44
2.0
 73
     0
 74
     0
 77
     1
 78
     8
140
3.5
147
2.0
172
     1
173
     1
176
     2
177
     2
178
     2
271
     3
340
DA
344
117
  0
DIMSTYLE
105
129
102
{ACAD_REACTORS
330
12A
102
}
330
A
100
AcDbSymbolTableRecord
100
AcDbDimStyleTableRecord
  2
ME10_DIM_16
 70
     0
 41
1.5
 42
0.0
 44
2.0
 73
     0
 74
     0
 77
     1
 78
     8
140
3.5
147
2.0
172
     1
173
     1
176
     2
177
     2
178
     2
271
     3
340
DA
343
117
344
117
  0
ENDTAB
  0
TABLE
  2
BLOCK_RECORD
  5
1
330
0
100
AcDbSymbolTable
 70
     9
  0
BLOCK_RECORD
  5
1F
330
1
100
AcDbSymbolTableRecord
100
AcDbBlockTableRecord
  2
*Model_Space
340
22
  0
BLOCK_RECORD
  5
1B
330
1
100
AcDbSymbolTableRecord
100
AcDbBlockTableRecord
  2
*Paper_Space
340
1E
  0
BLOCK_RECORD
  5
23
330
1
100
AcDbSymbolTableRecord
100
AcDbBlockTableRecord
  2
*Paper_Space0
340
26
  0
BLOCK_RECORD
  5
D4
330
1
100
AcDbSymbolTableRecord
100
AcDbBlockTableRecord
  2
*D1
340
0
  0
BLOCK_RECORD
  5
E0
330
1
100
AcDbSymbolTableRecord
100
AcDbBlockTableRecord
  2
*D2
340
0
  0
BLOCK_RECORD
  5
EB
330
1
100
AcDbSymbolTableRecord
100
AcDbBlockTableRecord
  2
*D3
340
0
  0
BLOCK_RECORD
  5
F6
330
1
100
AcDbSymbolTableRecord
100
AcDbBlockTableRecord
  2
*D4
340
0
  0
BLOCK_RECORD
  5
101
330
1
100
AcDbSymbolTableRecord
100
AcDbBlockTableRecord
  2
*D5
340
0
  0
BLOCK_RECORD
  5
10C
330
1
100
AcDbSymbolTableRecord
100
AcDbBlockTableRecord
  2
*D6
340
0
  0
BLOCK_RECORD
  5
117
330
1
100
AcDbSymbolTableRecord
100
AcDbBlockTableRecord
  2
_Dot
340
0
  0
BLOCK_RECORD
  5
11E
330
1
100
AcDbSymbolTableRecord
100
AcDbBlockTableRecord
  2
*D8
340
0
  0
ENDTAB
  0
ENDSEC
  0
SECTION
  2
BLOCKS
  0
BLOCK
  5
20
330
1F
100
AcDbEntity
  8
0
100
AcDbBlockBegin
  2
*Model_Space
 70
     0
 71
     0
 10
0.0
 20
0.0
 30
0.0
  3
*Model_Space
  1

  0
ENDBLK
  5
21
330
1F
100
AcDbEntity
  8
0
100
AcDbBlockEnd
  0
BLOCK
  5
1C
330
1B
100
AcDbEntity
 67
     1
  8
0
100
AcDbBlockBegin
  2
*Paper_Space
 70
     0
 71
     0
 10
0.0
 20
0.0
 30
0.0
  3
*Paper_Space
  1

  0
ENDBLK
  5
1D
330
1B
100
AcDbEntity
 67
     1
  8
0
100
AcDbBlockEnd
  0
BLOCK
  5
24
330
23
100
AcDbEntity
  8
0
100
AcDbBlockBegin
  2
*Paper_Space0
 70
     0
 71
     0
 10
0.0
 20
0.0
 30
0.0
  3
*Paper_Space0
  1

  0
ENDBLK
  5
25
330
23
100
AcDbEntity
  8
0
100
AcDbBlockEnd
  0
BLOCK
  5
DC
330
D4
100
AcDbEntity
  8
0
100
AcDbBlockBegin
  2
*D1
 70
     1
 71
     0
 10
0.0
 20
0.0
 30
0.0
  3
*D1
  1

  0
LINE
  5
D5
330
D4
100
AcDbEntity
  8
1
  6
Continuous
 62
     2
100
AcDbLine
 10
-157.512069771453
 20
-79.25492039405628
 30
0.0
 11
-157.512069771453
 21
-92.25492039405609
 31
0.0
  0
LINE
  5
D6
330
D4
100
AcDbEntity
  8
1
  6
Continuous
 62
     2
100
AcDbLine
 10
-147.7018546540922
 20
-79.25492039405628
 30
0.0
 11
-159.512069771453
 21
-79.25492039405628
 31
0.0
  0
LINE
  5
D7
330
D4
100
AcDbEntity
  8
1
  6
Continuous
 62
     2
100
AcDbLine
 10
-98.52378937199256
 20
-92.25492039405609
 30
0.0
 11
-159.512069771453
 21
-92.25492039405609
 31
0.0
  0
SOLID
  5
D8
330
D4
100
AcDbEntity
  8
1
 62
     2
100
AcDbTrace
 10
-157.0512860298971
 20
-82.75492039405628
 30
0.0
 11
-157.9728535130089
 21
-82.75492039405628
 31
0.0
 12
-157.512069771453
 22
-79.25492039405628
 32
0.0
 13
-157.512069771453
 23
-79.25492039405628
 33
0.0
  0
SOLID
  5
D9
330
D4
100
AcDbEntity
  8
1
 62
     2
100
AcDbTrace
 10
-157.9728535130089
 20
-88.75492039405609
 30
0.0
 11
-157.0512860298971
 21
-88.75492039405609
 31
0.0
 12
-157.512069771453
 22
-92.25492039405609
 32
0.0
 13
-157.512069771453
 23
-92.25492039405609
 33
0.0
  0
MTEXT
  5
DB
330
D4
100
AcDbEntity
  8
1
 62
     2
100
AcDbMText
 10
-159.512069771453
 20
-86.66689041100979
 30
0.0
 40
3.5
 41
0.0
 71
     7
 72
     1
  1
13
  7
CONVERTER_11
 11
0.0
 21
1.0
 31
0.0
 73
     1
 44
0.60024009603842
  0
ENDBLK
  5
DD
330
D4
100
AcDbEntity
  8
0
100
AcDbBlockEnd
  0
BLOCK
  5
E7
330
E0
100
AcDbEntity
  8
0
100
AcDbBlockBegin
  2
*D2
 70
     1
 71
     0
 10
0.0
 20
0.0
 30
0.0
  3
*D2
  1

  0
LINE
  5
E1
330
E0
100
AcDbEntity
  8
1
  6
Continuous
 62
     2
100
AcDbLine
 10
-23.1302922288805
 20
-71.25492039405609
 30
0.0
 11
-23.1302922288805
 21
-47.25492039405605
 31
0.0
  0
LINE
  5
E2
330
E0
100
AcDbEntity
  8
1
  6
Continuous
 62
     2
100
AcDbLine
 10
-61.45185465409254
 20
-47.25492039405605
 30
0.0
 11
-21.1302922288805
 21
-47.25492039405605
 31
0.0
  0
LINE
  5
E3
330
E0
100
AcDbEntity
  8
1
  6
Continuous
 62
     2
100
AcDbLine
 10
-61.45185465409254
 20
-71.25492039405609
 30
0.0
 11
-21.1302922288805
 21
-71.25492039405609
 31
0.0
  0
SOLID
  5
E4
330
E0
100
AcDbEntity
  8
1
 62
     2
100
AcDbTrace
 10
-23.59107597043639
 20
-67.75492039405609
 30
0.0
 11
-22.66950848732461
 21
-67.75492039405609
 31
0.0
 12
-23.1302922288805
 22
-71.25492039405609
 32
0.0
 13
-23.1302922288805
 23
-71.25492039405609
 33
0.0
  0
SOLID
  5
E5
330
E0
100
AcDbEntity
  8
1
 62
     2
100
AcDbTrace
 10
-22.66950848732462
 20
-50.75492039405605
 30
0.0
 11
-23.59107597043639
 21
-50.75492039405605
 31
0.0
 12
-23.1302922288805
 22
-47.25492039405605
 32
0.0
 13
-23.1302922288805
 23
-47.25492039405605
 33
0.0
  0
MTEXT
  5
E6
330
E0
100
AcDbEntity
  8
1
 62
     2
100
AcDbMText
 10
-25.1302922288805
 20
-61.4880511216242
 30
0.0
 40
3.5
 41
0.0
 71
     7
 72
     1
  1
24
  7
CONVERTER_11
 11
0.0
 21
1.0
 31
0.0
 73
     1
 44
0.60024009603842
  0
ENDBLK
  5
E8
330
E0
100
AcDbEntity
  8
0
100
AcDbBlockEnd
  0
BLOCK
  5
F2
330
EB
100
AcDbEntity
  8
0
100
AcDbBlockBegin
  2
*D3
 70
     1
 71
     0
 10
0.0
 20
0.0
 30
0.0
  3
*D3
  1

  0
LINE
  5
EC
330
EB
100
AcDbEntity
  8
1
  6
Continuous
 62
     2
100
AcDbLine
 10
-167.811970537658
 20
-92.25492039405609
 30
0.0
 11
-167.811970537658
 21
-46.25492039405609
 31
0.0
  0
LINE
  5
ED
330
EB
100
AcDbEntity
  8
1
  6
Continuous
 62
     2
100
AcDbLine
 10
-98.52378937199255
 20
-92.25492039405609
 30
0.0
 11
-169.811970537658
 21
-92.25492039405609
 31
0.0
  0
LINE
  5
EE
330
EB
100
AcDbEntity
  8
1
  6
Continuous
 62
     2
100
AcDbLine
 10
-90.95185465409251
 20
-46.25492039405609
 30
0.0
 11
-169.811970537658
 21
-46.25492039405609
 31
0.0
  0
SOLID
  5
EF
330
EB
100
AcDbEntity
  8
1
 62
     2
100
AcDbTrace
 10
-168.2727542792139
 20
-88.75492039405609
 30
0.0
 11
-167.3511867961021
 21
-88.75492039405609
 31
0.0
 12
-167.811970537658
 22
-92.25492039405609
 32
0.0
 13
-167.811970537658
 23
-92.25492039405609
 33
0.0
  0
SOLID
  5
F0
330
EB
100
AcDbEntity
  8
1
 62
     2
100
AcDbTrace
 10
-167.3511867961021
 20
-49.75492039405609
 30
0.0
 11
-168.2727542792139
 21
-49.75492039405609
 31
0.0
 12
-167.811970537658
 22
-46.25492039405609
 32
0.0
 13
-167.811970537658
 23
-46.25492039405609
 33
0.0
  0
MTEXT
  5
F1
330
EB
100
AcDbEntity
  8
1
 62
     2
100
AcDbMText
 10
-169.811970537658
 20
-70.4637980749667
 30
0.0
 40
3.5
 41
0.0
 71
     7
 72
     1
  1
46
  7
CONVERTER_11
 11
0.0
 21
1.0
 31
0.0
 73
     1
 44
0.60024009603842
  0
ENDBLK
  5
F3
330
EB
100
AcDbEntity
  8
0
100
AcDbBlockEnd
  0
BLOCK
  5
FD
330
F6
100
AcDbEntity
  8
0
100
AcDbBlockBegin
  2
*D4
 70
     1
 71
     0
 10
0.0
 20
0.0
 30
0.0
  3
*D4
  1

  0
LINE
  5
F7
330
F6
100
AcDbEntity
  8
1
  6
Continuous
 62
     2
100
AcDbLine
 10
-11.5385769447694
 20
-47.25492039405631
 30
0.0
 11
-11.5385769447694
 21
-92.25492039405609
 31
0.0
  0
LINE
  5
F8
330
F6
100
AcDbEntity
  8
1
  6
Continuous
 62
     2
100
AcDbLine
 10
-63.45185465409254
 20
-47.25492039405631
 30
0.0
 11
-9.5385769447694
 21
-47.25492039405631
 31
0.0
  0
LINE
  5
F9
330
F6
100
AcDbEntity
  8
1
  6
Continuous
 62
     2
100
AcDbLine
 10
-71.95185465409254
 20
-92.25492039405609
 30
0.0
 11
-9.5385769447694
 21
-92.25492039405609
 31
0.0
  0
SOLID
  5
FA
330
F6
100
AcDbEntity
  8
1
 62
     2
100
AcDbTrace
 10
-11.07779320321352
 20
-50.75492039405631
 30
0.0
 11
-11.99936068632529
 21
-50.75492039405631
 31
0.0
 12
-11.5385769447694
 22
-47.25492039405631
 32
0.0
 13
-11.5385769447694
 23
-47.25492039405631
 33
0.0
  0
SOLID
  5
FB
330
F6
100
AcDbEntity
  8
1
 62
     2
100
AcDbTrace
 10
-11.99936068632529
 20
-88.75492039405609
 30
0.0
 11
-11.07779320321351
 21
-88.75492039405609
 31
0.0
 12
-11.5385769447694
 22
-92.25492039405609
 32
0.0
 13
-11.5385769447694
 23
-92.25492039405609
 33
0.0
  0
MTEXT
  5
FC
330
F6
100
AcDbEntity
  8
1
 62
     2
100
AcDbMText
 10
-13.5385769447694
 20
-73.0740588258562
 30
0.0
 40
3.5
 41
0.0
 71
     7
 72
     1
  1
45
  7
CONVERTER_11
 11
0.0
 21
1.0
 31
0.0
 73
     1
 44
0.60024009603842
  0
ENDBLK
  5
FE
330
F6
100
AcDbEntity
  8
0
100
AcDbBlockEnd
  0
BLOCK
  5
108
330
101
100
AcDbEntity
  8
0
100
AcDbBlockBegin
  2
*D5
 70
     1
 71
     0
 10
0.0
 20
0.0
 30
0.0
  3
*D5
  1

  0
LINE
  5
102
330
101
100
AcDbEntity
  8
1
  6
Continuous
 62
     2
100
AcDbLine
 10
-61.45185465409254
 20
-14.5843750375592
 30
0.0
 11
-83.95185465409244
 21
-14.5843750375592
 31
0.0
  0
LINE
  5
103
330
101
100
AcDbEntity
  8
1
  6
Continuous
 62
     2
100
AcDbLine
 10
-83.95185465409244
 20
-39.25492039405629
 30
0.0
 11
-83.95185465409244
 21
-12.5843750375592
 31
0.0
  0
LINE
  5
104
330
101
100
AcDbEntity
  8
1
  6
Continuous
 62
     2
100
AcDbLine
 10
-61.45185465409254
 20
-47.25492039405606
 30
0.0
 11
-61.45185465409254
 21
-12.5843750375592
 31
0.0
  0
SOLID
  5
105
330
101
100
AcDbEntity
  8
1
 62
     2
100
AcDbTrace
 10
-64.95185465409254
 20
-15.04515877911508
 30
0.0
 11
-64.95185465409254
 21
-14.12359129600331
 31
0.0
 12
-61.45185465409254
 22
-14.5843750375592
 32
0.0
 13
-61.45185465409254
 23
-14.5843750375592
 33
0.0
  0
SOLID
  5
106
330
101
100
AcDbEntity
  8
1
 62
     2
100
AcDbTrace
 10
-80.45185465409244
 20
-14.12359129600331
 30
0.0
 11
-80.45185465409244
 21
-15.04515877911509
 31
0.0
 12
-83.95185465409244
 22
-14.5843750375592
 32
0.0
 13
-83.95185465409244
 23
-14.5843750375592
 33
0.0
  0
MTEXT
  5
107
330
101
100
AcDbEntity
  8
1
 62
     2
100
AcDbMText
 10
-77.4714572675834
 20
-12.5843750375592
 30
0.0
 40
3.5
 41
0.0
 71
     7
 72
     1
  1
22.5
  7
CONVERTER_11
 11
0.9999999999970621
 21
2.424068405545307E-6
 31
0.0
 73
     1
 44
0.60024009603842
  0
ENDBLK
  5
109
330
101
100
AcDbEntity
  8
0
100
AcDbBlockEnd
  0
BLOCK
  5
115
330
10C
100
AcDbEntity
  8
0
100
AcDbBlockBegin
  2
*D6
 70
     1
 71
     0
 10
0.0
 20
0.0
 30
0.0
  3
*D6
  1

  0
LINE
  5
10D
330
10C
100
AcDbEntity
  8
1
  6
Continuous
 62
     2
100
AcDbLine
 10
-90.95185465409251
 20
-14.5843750375592
 30
0.0
 11
-99.15157794650491
 21
-14.5843750375592
 31
0.0
  0
LINE
  5
10E
330
10C
100
AcDbEntity
  8
1
  6
Continuous
 62
     2
100
AcDbLine
 10
-87.45185465409219
 20
-14.5843750375592
 30
0.0
 11
-90.95185465409251
 21
-14.5843750375592
 31
0.0
  0
LINE
  5
10F
330
10C
100
AcDbEntity
  8
1
  6
Continuous
 62
     2
100
AcDbLine
 10
-90.95185465409251
 20
-46.2549203940561
 30
0.0
 11
-90.95185465409251
 21
-12.5843750375592
 31
0.0
  0
LINE
  5
110
330
10C
100
AcDbEntity
  8
1
  6
Continuous
 62
     2
100
AcDbLine
 10
-87.45185465409219
 20
-34.25492039405629
 30
0.0
 11
-87.45185465409219
 21
-12.5843750375592
 31
0.0
  0
CIRCLE
  5
111
102
{ACAD_REACTORS
330
112
102
}
330
10C
100
AcDbEntity
  8
1
 62
     2
100
AcDbCircle
 10
-87.45185465409219
 20
-14.5843750375592
 30
0.0
 40
0.75
  0
HATCH
  5
112
330
10C
100
AcDbEntity
  8
1
 62
     2
100
AcDbHatch
 10
0.0
 20
0.0
 30
0.0
210
0.0
220
0.0
230
1.0
  2
SOLID
 70
     1
 71
     1
 91
        1
 92
        1
 93
        1
 72
     2
 10
-87.45185465409219
 20
-14.5843750375592
 40
0.75
 50
0.0
 51
360.0
 73
     1
 97
        1
330
111
 75
     0
 76
     1
 98
        0
  0
SOLID
  5
113
330
10C
100
AcDbEntity
  8
1
 62
     2
100
AcDbTrace
 10
-94.45185465409251
 20
-15.04515877911508
 30
0.0
 11
-94.45185465409251
 21
-14.12359129600331
 31
0.0
 12
-90.95185465409251
 22
-14.5843750375592
 32
0.0
 13
-90.95185465409251
 23
-14.5843750375592
 33
0.0
  0
MTEXT
  5
114
330
10C
100
AcDbEntity
  8
1
 62
     2
100
AcDbMText
 10
-99.1515779465049
 20
-12.5843750375592
 30
0.0
 40
3.5
 41
0.0
 71
     7
 72
     1
  1
3.5
  7
CONVERTER_11
 11
0.9999999999970621
 21
2.424068405545307E-6
 31
0.0
 73
     1
 44
0.60024009603842
  0
ENDBLK
  5
116
330
10C
100
AcDbEntity
  8
0
100
AcDbBlockEnd
  0
BLOCK
  5
118
330
117
100
AcDbEntity
  8
0
100
AcDbBlockBegin
  2
_Dot
 70
     0
 71
     0
 10
0.0
 20
0.0
 30
0.0
  3
_Dot
  1

  0
LWPOLYLINE
  5
11A
330
117
100
AcDbEntity
  8
0
  6
ByBlock
 62
     0
100
AcDbPolyline
 90
        2
 70
     1
 43
0.5
 10
-0.25
 20
0.0
 42
1.0
 10
0.25
 20
0.0
 42
1.0
  0
LINE
  5
11B
330
117
100
AcDbEntity
  8
0
  6
ByBlock
 62
     0
370
    -2
100
AcDbLine
 10
-0.5
 20
0.0
 30
0.0
 11
-1.0
 21
0.0
 31
0.0
  0
ENDBLK
  5
119
330
117
100
AcDbEntity
  8
0
100
AcDbBlockEnd
  0
BLOCK
  5
127
330
11E
100
AcDbEntity
  8
0
100
AcDbBlockBegin
  2
*D8
 70
     1
 71
     0
 10
0.0
 20
0.0
 30
0.0
  3
*D8
  1

  0
LINE
  5
11F
330
11E
100
AcDbEntity
  8
1
  6
Continuous
 62
     2
100
AcDbLine
 10
-83.95185465409244
 20
-14.5843750375592
 30
0.0
 11
-87.45185465409219
 21
-14.5843750375592
 31
0.0
  0
LINE
  5
120
330
11E
100
AcDbEntity
  8
1
  6
Continuous
 62
     2
100
AcDbLine
 10
-87.45185465409219
 20
-34.25492039405629
 30
0.0
 11
-87.45185465409219
 21
-12.5843750375592
 31
0.0
  0
LINE
  5
121
330
11E
100
AcDbEntity
  8
1
  6
Continuous
 62
     2
100
AcDbLine
 10
-83.95185465409244
 20
-39.25492039405629
 30
0.0
 11
-83.95185465409244
 21
-12.5843750375592
 31
0.0
  0
CIRCLE
  5
122
102
{ACAD_REACTORS
330
123
102
}
330
11E
100
AcDbEntity
  8
1
 62
     2
100
AcDbCircle
 10
-83.95185465409244
 20
-14.5843750375592
 30
0.0
 40
0.75
  0
HATCH
  5
123
330
11E
100
AcDbEntity
  8
1
 62
     2
100
AcDbHatch
 10
0.0
 20
0.0
 30
0.0
210
0.0
220
0.0
230
1.0
  2
SOLID
 70
     1
 71
     1
 91
        1
 92
        1
 93
        1
 72
     2
 10
-83.95185465409244
 20
-14.5843750375592
 40
0.75
 50
0.0
 51
360.0
 73
     1
 97
        1
330
122
 75
     0
 76
     1
 98
        0
  0
CIRCLE
  5
124
102
{ACAD_REACTORS
330
125
102
}
330
11E
100
AcDbEntity
  8
1
 62
     2
100
AcDbCircle
 10
-87.45185465409219
 20
-14.5843750375592
 30
0.0
 40
0.75
  0
HATCH
  5
125
330
11E
100
AcDbEntity
  8
1
 62
     2
100
AcDbHatch
 10
0.0
 20
0.0
 30
0.0
210
0.0
220
0.0
230
1.0
  2
SOLID
 70
     1
 71
     1
 91
        1
 92
        1
 93
        1
 72
     2
 10
-87.45185465409219
 20
-14.5843750375592
 40
0.75
 50
0.0
 51
360.0
 73
     1
 97
        1
330
124
 75
     0
 76
     1
 98
        0
  0
MTEXT
  5
126
330
11E
100
AcDbEntity
  8
1
 62
     2
100
AcDbMText
 10
-88.7451769121017
 20
-10.8515743732184
 30
0.0
 40
3.5
 41
0.0
 71
     7
 72
     1
  1
3.5
  7
CONVERTER_11
 11
0.9999999999970621
 21
2.424068405545307E-6
 31
0.0
 73
     1
 44
0.60024009603842
  0
ENDBLK
  5
128
330
11E
100
AcDbEntity
  8
0
100
AcDbBlockEnd
  0
ENDSEC
  0
SECTION
  2
ENTITIES
  0
POINT
  5
35
330
1F
100
AcDbEntity
  8
1
 62
     3
 60
     1
100
AcDbPoint
 10
-83.95185465409256
 20
-79.25492039405628
 30
0.0
  0
POINT
  5
36
330
1F
100
AcDbEntity
  8
1
 62
     3
 60
     1
100
AcDbPoint
 10
-87.45185465409216
 20
-79.25492039405628
 30
0.0
  0
POINT
  5
37
330
1F
100
AcDbEntity
  8
1
 62
     3
 60
     1
100
AcDbPoint
 10
-90.95185465409251
 20
-86.55411866387928
 30
0.0
  0
POINT
  5
38
330
1F
100
AcDbEntity
  8
1
 62
     3
 60
     1
100
AcDbPoint
 10
-86.80168257010537
 20
-84.58338805084794
 30
0.0
  0
POINT
  5
39
330
1F
100
AcDbEntity
  8
1
 62
     3
 60
     1
100
AcDbPoint
 10
-85.7018077197805
 20
-92.25492039405609
 30
0.0
  0
POINT
  5
3A
330
1F
100
AcDbEntity
  8
1
 62
     3
 60
     1
100
AcDbPoint
 10
-83.95185465409256
 20
-81.14185534846318
 30
0.0
  0
POINT
  5
3B
330
1F
100
AcDbEntity
  8
1
 62
     3
 60
     1
100
AcDbPoint
 10
-79.95194852271588
 20
-71.25492039405628
 30
0.0
  0
POINT
  5
3C
330
1F
100
AcDbEntity
  8
1
 62
     3
 60
     1
100
AcDbPoint
 10
-79.95185465409254
 20
-71.25492039405609
 30
0.0
  0
POINT
  5
3D
330
1F
100
AcDbEntity
  8
1
 62
     3
 60
     1
100
AcDbPoint
 10
-83.95185465409256
 20
-70.75492039405609
 30
0.0
  0
POINT
  5
3E
330
1F
100
AcDbEntity
  8
1
 62
     3
 60
     1
100
AcDbPoint
 10
-87.35300307195708
 20
-81.12675688602076
 30
0.0
  0
POINT
  5
3F
330
1F
100
AcDbEntity
  8
1
 62
     3
 60
     1
100
AcDbPoint
 10
-94.57391764342078
 20
-85.3377057322828
 30
0.0
  0
POINT
  5
40
330
1F
100
AcDbEntity
  8
1
 62
     3
 60
     1
100
AcDbPoint
 10
-79.45185465409254
 20
-70.25492039405609
 30
0.0
  0
POINT
  5
41
330
1F
100
AcDbEntity
  8
1
 62
     3
 60
     1
100
AcDbPoint
 10
-79.95185465409254
 20
-70.75492039405609
 30
0.0
  0
POINT
  5
42
330
1F
100
AcDbEntity
  8
A_BEMASSUNGEN
 62
     7
100
AcDbPoint
 10
-98.52378937199255
 20
-92.25492039405609
 30
0.0
  0
POINT
  5
43
330
1F
100
AcDbEntity
  8
A_BEMASSUNGEN
 62
     7
100
AcDbPoint
 10
-90.95185465409251
 20
-46.25492039405609
 30
0.0
  0
POINT
  5
44
330
1F
100
AcDbEntity
  8
A_BEMASSUNGEN
 62
     7
100
AcDbPoint
 10
-73.37991993619255
 20
-92.25492039405609
 30
0.0
  0
POINT
  5
45
330
1F
100
AcDbEntity
  8
A_BEMASSUNGEN
 62
     7
100
AcDbPoint
 10
-73.37991993619255
 20
-92.25492039405609
 30
0.0
  0
POINT
  5
46
330
1F
100
AcDbEntity
  8
A_BEMASSUNGEN
 62
     7
100
AcDbPoint
 10
-82.45185465409256
 20
-47.25492039405606
 30
0.0
  0
POINT
  5
47
330
1F
100
AcDbEntity
  8
A_BEMASSUNGEN
 62
     7
100
AcDbPoint
 10
-72.45185465409254
 20
-48.25492039405606
 30
0.0
  0
POINT
  5
48
330
1F
100
AcDbEntity
  8
A_BEMASSUNGEN
 62
     7
100
AcDbPoint
 10
-90.95185465409251
 20
-46.25492039405609
 30
0.0
  0
POINT
  5
49
330
1F
100
AcDbEntity
  8
A_BEMASSUNGEN
 62
     7
100
AcDbPoint
 10
-90.95185465409251
 20
-46.25492039405609
 30
0.0
  0
POINT
  5
4A
330
1F
100
AcDbEntity
  8
A_BEMASSUNGEN
 62
     7
100
AcDbPoint
 10
-87.45185465409256
 20
-46.25492039405609
 30
0.0
  0
POINT
  5
4B
330
1F
100
AcDbEntity
  8
A_BEMASSUNGEN
 62
     7
100
AcDbPoint
 10
-82.45185465409256
 20
-47.25492039405606
 30
0.0
  0
POINT
  5
4C
330
1F
100
AcDbEntity
  8
1
 62
     3
 60
     1
100
AcDbPoint
 10
-91.25504723269252
 20
-81.72217865815608
 30
0.0
  0
POINT
  5
4D
330
1F
100
AcDbEntity
  8
1
 62
     3
 60
     1
100
AcDbPoint
 10
-88.39327156289008
 20
-83.91582152316046
 30
0.0
  0
POINT
  5
4E
330
1F
100
AcDbEntity
  8
1
 62
     3
 60
     1
100
AcDbPoint
 10
-87.45185465409213
 20
-81.14187512260708
 30
0.0
  0
POINT
  5
4F
330
1F
100
AcDbEntity
  8
1
 62
     3
 60
     1
100
AcDbPoint
 10
-147.7018546540922
 20
-24.25492039405629
 30
0.0
  0
POINT
  5
50
330
1F
100
AcDbEntity
  8
1
 62
     3
 60
     1
100
AcDbPoint
 10
-147.7018546540922
 20
-20.25492039405629
 30
0.0
  0
LINE
  5
51
330
1F
100
AcDbEntity
  8
1
  6
Continuous
 62
     7
100
AcDbLine
 10
-83.95185465409234
 20
-65.25492039405609
 30
0.0
 11
-83.95185465409254
 21
-70.25492039405593
 31
0.0
  0
LINE
  5
52
330
1F
100
AcDbEntity
  8
1
  6
Continuous
 62
     7
100
AcDbLine
 10
-87.45185465409229
 20
-73.50492039405609
 30
0.0
 11
-87.45185465409241
 21
-63.50492039405609
 31
0.0
  0
LINE
  5
53
330
1F
100
AcDbEntity
  8
1
  6
DASHED
 62
     2
100
AcDbLine
 10
-87.75185465409228
 20
-73.50492039405609
 30
0.0
 11
-87.45185465409229
 21
-73.50492039405609
 31
0.0
  0
LINE
  5
54
330
1F
100
AcDbEntity
  8
1
  6
Continuous
 62
     7
100
AcDbLine
 10
-87.45185465409229
 20
-63.00492039405609
 30
0.0
 11
-87.45185465409246
 21
-59.50492039405609
 31
0.0
  0
LINE
  5
55
330
1F
100
AcDbEntity
  8
1
  6
DASHED
 62
     2
100
AcDbLine
 10
-87.75185465409228
 20
-63.00492039405609
 30
0.0
 11
-87.45185465409229
 21
-63.00492039405609
 31
0.0
  0
LINE
  5
56
330
1F
100
AcDbEntity
  8
1
  6
DASHED
 62
     2
100
AcDbLine
 10
-87.75185465409228
 20
-63.00492039405609
 30
0.0
 11
-87.75185465409228
 21
-73.50492039405609
 31
0.0
  0
LINE
  5
57
330
1F
100
AcDbEntity
  8
1
  6
DASHED
 62
     2
100
AcDbLine
 10
-90.00185465409228
 20
-65.25492039405609
 30
0.0
 11
-90.00185465409228
 21
-71.25492039405609
 31
0.0
  0
LINE
  5
58
330
1F
100
AcDbEntity
  8
1
  6
DASHED
 62
     2
100
AcDbLine
 10
-90.00185465409228
 20
-71.25492039405609
 30
0.0
 11
-87.75185465409228
 21
-73.50492039405609
 31
0.0
  0
LINE
  5
59
330
1F
100
AcDbEntity
  8
0
  6
Continuous
 62
     7
100
AcDbLine
 10
-90.95185465409251
 20
-71.25492039405609
 30
0.0
 11
-90.9518546540925
 21
-79.25492039405628
 31
0.0
  0
LINE
  5
5A
330
1F
100
AcDbEntity
  8
1
  6
DASHED
 62
     2
100
AcDbLine
 10
-90.95185465409251
 20
-71.25492039405609
 30
0.0
 11
-90.00185465409228
 21
-71.25492039405609
 31
0.0
  0
LINE
  5
5B
330
1F
100
AcDbEntity
  8
1
  6
DASHED
 62
     2
100
AcDbLine
 10
-87.75185465409228
 20
-63.00492039405609
 30
0.0
 11
-87.75185465409241
 21
-63.50492039405609
 31
0.0
  0
LINE
  5
5C
330
1F
100
AcDbEntity
  8
1
  6
DASHED
 62
     2
100
AcDbLine
 10
-90.00185465409228
 20
-65.25492039405609
 30
0.0
 11
-87.75185465409228
 21
-63.00492039405609
 31
0.0
  0
LINE
  5
5D
330
1F
100
AcDbEntity
  8
0
  6
Continuous
 62
     7
100
AcDbLine
 10
-90.95185465409251
 20
-65.25492039405609
 30
0.0
 11
-90.95185465409251
 21
-71.25492039405609
 31
0.0
  0
LINE
  5
5E
330
1F
100
AcDbEntity
  8
1
  6
DASHED
 62
     2
100
AcDbLine
 10
-90.95185465409251
 20
-65.25492039405609
 30
0.0
 11
-90.00185465409228
 21
-65.25492039405609
 31
0.0
  0
LINE
  5
5F
330
1F
100
AcDbEntity
  8
1
  6
DOT_CENTER
 62
     2
100
AcDbLine
 10
-117.4518546540925
 20
-68.25492039405606
 30
0.0
 11
-86.25185465409228
 21
-68.25492039405609
 31
0.0
  0
LINE
  5
60
330
1F
100
AcDbEntity
  8
1
  6
Continuous
 62
     7
100
AcDbLine
 10
-87.45185465409241
 20
-63.50492039405609
 30
0.0
 11
-87.45185465409229
 21
-63.00492039405609
 31
0.0
  0
LINE
  5
61
330
1F
100
AcDbEntity
  8
1
  6
DASHED
 62
     2
100
AcDbLine
 10
-87.75185465409241
 20
-63.50492039405609
 30
0.0
 11
-87.45185465409241
 21
-63.50492039405609
 31
0.0
  0
LINE
  5
62
330
1F
100
AcDbEntity
  8
1
  6
Continuous
 62
     7
100
AcDbLine
 10
-87.45185465409241
 20
-53.00492039405609
 30
0.0
 11
-87.45185465409246
 21
-49.00492039405609
 31
0.0
  0
LINE
  5
63
330
1F
100
AcDbEntity
  8
1
  6
DASHED
 62
     2
100
AcDbLine
 10
-87.75185465409241
 20
-53.00492039405609
 30
0.0
 11
-87.45185465409241
 21
-53.00492039405609
 31
0.0
  0
LINE
  5
64
330
1F
100
AcDbEntity
  8
1
  6
DASHED
 62
     2
100
AcDbLine
 10
-87.75185465409241
 20
-53.00492039405609
 30
0.0
 11
-87.75185465409228
 21
-63.00492039405609
 31
0.0
  0
LINE
  5
65
330
1F
100
AcDbEntity
  8
1
  6
DASHED
 62
     2
100
AcDbLine
 10
-90.00185465409241
 20
-55.25492039405609
 30
0.0
 11
-90.00185465409241
 21
-61.25492039405609
 31
0.0
  0
LINE
  5
66
330
1F
100
AcDbEntity
  8
1
  6
DASHED
 62
     2
100
AcDbLine
 10
-90.00185465409241
 20
-61.25492039405609
 30
0.0
 11
-87.75185465409241
 21
-63.50492039405609
 31
0.0
  0
LINE
  5
67
330
1F
100
AcDbEntity
  8
0
  6
Continuous
 62
     7
100
AcDbLine
 10
-90.95185465409251
 20
-61.25492039405609
 30
0.0
 11
-90.95185465409251
 21
-65.25492039405609
 31
0.0
  0
LINE
  5
68
330
1F
100
AcDbEntity
  8
1
  6
DASHED
 62
     2
100
AcDbLine
 10
-90.95185465409251
 20
-61.25492039405609
 30
0.0
 11
-90.00185465409241
 21
-61.25492039405609
 31
0.0
  0
LINE
  5
69
330
1F
100
AcDbEntity
  8
1
  6
DASHED
 62
     2
100
AcDbLine
 10
-87.75185465409241
 20
-53.00492039405609
 30
0.0
 11
-87.75185465409245
 21
-59.50492039405609
 31
0.0
  0
LINE
  5
6A
330
1F
100
AcDbEntity
  8
1
  6
DASHED
 62
     2
100
AcDbLine
 10
-90.00185465409241
 20
-55.25492039405609
 30
0.0
 11
-87.75185465409241
 21
-53.00492039405609
 31
0.0
  0
LINE
  5
6B
330
1F
100
AcDbEntity
  8
1
  6
DASHED
 62
     2
100
AcDbLine
 10
-90.00185465409241
 20
-55.25492039405609
 30
0.0
 11
-90.00185465409245
 21
-57.25492039405609
 31
0.0
  0
LINE
  5
6C
330
1F
100
AcDbEntity
  8
0
  6
Continuous
 62
     7
100
AcDbLine
 10
-90.95185465409251
 20
-55.25492039405609
 30
0.0
 11
-90.95185465409251
 21
-57.25492039405609
 31
0.0
  0
LINE
  5
6D
330
1F
100
AcDbEntity
  8
1
  6
DASHED
 62
     2
100
AcDbLine
 10
-90.95185465409251
 20
-55.25492039405609
 30
0.0
 11
-90.00185465409241
 21
-55.25492039405609
 31
0.0
  0
LINE
  5
6E
330
1F
100
AcDbEntity
  8
1
  6
DOT_CENTER
 62
     2
100
AcDbLine
 10
-117.4518546540925
 20
-58.25492039405609
 30
0.0
 11
-86.25185465409241
 21
-58.25492039405609
 31
0.0
  0
LINE
  5
6F
330
1F
100
AcDbEntity
  8
1
  6
Continuous
 62
     7
100
AcDbLine
 10
-87.45185465409246
 20
-59.50492039405609
 30
0.0
 11
-87.45185465409241
 21
-53.00492039405609
 31
0.0
  0
LINE
  5
70
330
1F
100
AcDbEntity
  8
1
  6
DASHED
 62
     2
100
AcDbLine
 10
-87.75185465409245
 20
-59.50492039405609
 30
0.0
 11
-87.45185465409246
 21
-59.50492039405609
 31
0.0
  0
LINE
  5
71
330
1F
100
AcDbEntity
  8
1
  6
Continuous
 62
     7
100
AcDbLine
 10
-87.45185465409246
 20
-49.00492039405609
 30
0.0
 11
-87.45185465409256
 21
-46.25492039405609
 31
0.0
  0
LINE
  5
72
330
1F
100
AcDbEntity
  8
1
  6
DASHED
 62
     2
100
AcDbLine
 10
-87.75185465409245
 20
-49.00492039405609
 30
0.0
 11
-87.45185465409246
 21
-49.00492039405609
 31
0.0
  0
LINE
  5
73
330
1F
100
AcDbEntity
  8
1
  6
DASHED
 62
     2
100
AcDbLine
 10
-87.75185465409245
 20
-49.00492039405609
 30
0.0
 11
-87.75185465409241
 21
-53.00492039405609
 31
0.0
  0
LINE
  5
74
330
1F
100
AcDbEntity
  8
1
  6
DASHED
 62
     2
100
AcDbLine
 10
-90.00185465409245
 20
-51.25492039405609
 30
0.0
 11
-90.00185465409241
 21
-55.25492039405609
 31
0.0
  0
LINE
  5
75
330
1F
100
AcDbEntity
  8
1
  6
DASHED
 62
     2
100
AcDbLine
 10
-90.00185465409245
 20
-57.25492039405609
 30
0.0
 11
-87.75185465409245
 21
-59.50492039405609
 31
0.0
  0
LINE
  5
76
330
1F
100
AcDbEntity
  8
0
  6
Continuous
 62
     7
100
AcDbLine
 10
-90.95185465409251
 20
-57.25492039405609
 30
0.0
 11
-90.95185465409251
 21
-61.25492039405609
 31
0.0
  0
LINE
  5
77
330
1F
100
AcDbEntity
  8
1
  6
DASHED
 62
     2
100
AcDbLine
 10
-90.95185465409251
 20
-57.25492039405609
 30
0.0
 11
-90.00185465409245
 21
-57.25492039405609
 31
0.0
  0
LINE
  5
78
330
1F
100
AcDbEntity
  8
1
  6
DASHED
 62
     2
100
AcDbLine
 10
-90.00185465409245
 20
-51.25492039405609
 30
0.0
 11
-87.75185465409245
 21
-49.00492039405609
 31
0.0
  0
LINE
  5
79
330
1F
100
AcDbEntity
  8
0
  6
Continuous
 62
     7
100
AcDbLine
 10
-90.95185465409251
 20
-51.25492039405609
 30
0.0
 11
-90.95185465409251
 21
-55.25492039405609
 31
0.0
  0
LINE
  5
7A
330
1F
100
AcDbEntity
  8
1
  6
DASHED
 62
     2
100
AcDbLine
 10
-90.95185465409251
 20
-51.25492039405609
 30
0.0
 11
-90.00185465409245
 21
-51.25492039405609
 31
0.0
  0
LINE
  5
7B
330
1F
100
AcDbEntity
  8
1
  6
DOT_CENTER
 62
     2
100
AcDbLine
 10
-143.6487876629021
 20
-54.25492039405609
 30
0.0
 11
-86.25185465409245
 21
-54.25492039405609
 31
0.0
  0
LINE
  5
7C
330
1F
100
AcDbEntity
  8
1
  6
Continuous
 62
     7
100
AcDbLine
 10
-83.95185465409256
 20
-79.25492039405628
 30
0.0
 11
-83.95185465409256
 21
-81.14185534846318
 31
0.0
  0
LINE
  5
7D
330
1F
100
AcDbEntity
  8
1
  6
DASHED
 62
     2
100
AcDbLine
 10
-79.95194852271628
 20
-79.25492039405628
 30
0.0
 11
-83.95185465409256
 21
-79.25492039405628
 31
0.0
  0
LINE
  5
7E
330
1F
100
AcDbEntity
  8
1
  6
Continuous
 62
     7
100
AcDbLine
 10
-87.45185465409216
 20
-79.25492039405628
 30
0.0
 11
-87.45185465409229
 21
-73.50492039405609
 31
0.0
  0
LINE
  5
7F
330
1F
100
AcDbEntity
  8
1
  6
DASHED
 62
     2
100
AcDbLine
 10
-90.9518546540925
 20
-79.25492039405628
 30
0.0
 11
-87.45185465409216
 21
-79.25492039405628
 31
0.0
  0
LINE
  5
80
330
1F
100
AcDbEntity
  8
1
  6
Continuous
 62
     7
100
AcDbLine
 10
-90.95185465409251
 20
-86.55411866387928
 30
0.0
 11
-88.39327156289008
 21
-83.91582152316046
 31
0.0
  0
LINE
  5
81
330
1F
100
AcDbEntity
  8
1
  6
Continuous
 62
     7
100
AcDbLine
 10
-87.35300307195708
 20
-81.12675688602076
 30
0.0
 11
-86.80168257010537
 21
-84.58338805084794
 31
0.0
  0
LINE
  5
82
330
1F
100
AcDbEntity
  8
1
  6
Continuous
 62
     7
100
AcDbLine
 10
-87.45185465409256
 20
-46.25492039405609
 30
0.0
 11
-87.4518546540923
 21
-36.25492039405629
 31
0.0
  0
LINE
  5
83
330
1F
100
AcDbEntity
  8
1
  6
Continuous
 62
     7
100
AcDbLine
 10
-87.45185465409213
 20
-81.14187512260708
 30
0.0
 11
-87.45185465409216
 21
-79.25492039405628
 31
0.0
  0
LINE
  5
84
330
1F
100
AcDbEntity
  8
1
  6
Continuous
 62
     7
100
AcDbLine
 10
-79.45185465409254
 20
-70.25492039405609
 30
0.0
 11
-76.45170368922223
 21
-70.25480716470567
 31
0.0
  0
LINE
  5
85
330
1F
100
AcDbEntity
  8
1
  6
Continuous
 62
     7
100
AcDbLine
 10
-83.95185465409256
 20
-70.75492039405609
 30
0.0
 11
-83.95185465409256
 21
-79.25492039405628
 31
0.0
  0
LINE
  5
86
330
1F
100
AcDbEntity
  8
1
  6
Continuous
 62
     7
100
AcDbLine
 10
-79.95194852271628
 20
-79.25492039405628
 30
0.0
 11
-79.95194852271628
 21
-79.2549031024831
 31
0.0
  0
LINE
  5
87
330
1F
100
AcDbEntity
  8
1
  6
Continuous
 62
     7
100
AcDbLine
 10
-79.95194852271628
 20
-79.25492039405628
 30
0.0
 11
-79.95194852271588
 21
-71.25492039405628
 31
0.0
  0
LINE
  5
88
330
1F
100
AcDbEntity
  8
1
  6
Continuous
 62
     7
100
AcDbLine
 10
-61.45185465409254
 20
-71.25492039405609
 30
0.0
 11
-61.45185465409254
 21
-47.25492039405606
 31
0.0
  0
LINE
  5
89
330
1F
100
AcDbEntity
  8
1
  6
Continuous
 62
     7
100
AcDbLine
 10
-63.45185465409254
 20
-71.25492039405628
 30
0.0
 11
-61.45185465409254
 21
-71.25492039405609
 31
0.0
  0
LINE
  5
8A
330
1F
100
AcDbEntity
  8
1
  6
Continuous
 62
     7
100
AcDbLine
 10
-82.45185465409256
 20
-47.25492039405606
 30
0.0
 11
-83.95185465409213
 21
-47.25492039405631
 31
0.0
  0
LINE
  5
8B
330
1F
100
AcDbEntity
  8
0
  6
Continuous
 62
     7
100
AcDbLine
 10
-82.45185465409256
 20
-47.25492039405606
 30
0.0
 11
-63.45185465409254
 21
-47.25492039405631
 31
0.0
  0
LINE
  5
8C
330
1F
100
AcDbEntity
  8
1
  6
Continuous
 62
     7
100
AcDbLine
 10
-83.95185465409256
 20
-70.75492039405609
 30
0.0
 11
-83.95185465409254
 21
-70.25492039405593
 31
0.0
  0
LINE
  5
8D
330
1F
100
AcDbEntity
  8
0
  6
Continuous
 62
     7
100
AcDbLine
 10
-79.95185465409254
 20
-71.25492039405609
 30
0.0
 11
-63.45185465409254
 21
-71.25492039405628
 31
0.0
  0
LINE
  5
8E
330
1F
100
AcDbEntity
  8
1
  6
Continuous
 62
     7
100
AcDbLine
 10
-79.95185465409254
 20
-71.25492039405609
 30
0.0
 11
-77.45185465409253
 21
-71.25492039405628
 31
0.0
  0
LINE
  5
8F
330
1F
100
AcDbEntity
  8
1
  6
Continuous
 62
     7
100
AcDbLine
 10
-79.95185465409254
 20
-71.25492039405609
 30
0.0
 11
-79.95185465409254
 21
-70.75492039405609
 31
0.0
  0
LINE
  5
90
330
1F
100
AcDbEntity
  8
0
  6
Continuous
 62
     7
100
AcDbLine
 10
-72.45185465409254
 20
-48.25492039405606
 30
0.0
 11
-76.45185465409254
 21
-48.25492039405606
 31
0.0
  0
LINE
  5
91
330
1F
100
AcDbEntity
  8
1
  6
Continuous
 62
     7
100
AcDbLine
 10
-72.45185465409254
 20
-48.25492039405606
 30
0.0
 11
-72.45185465409254
 21
-66.25480716755446
 31
0.0
  0
LINE
  5
92
330
1F
100
AcDbEntity
  8
1
  6
Continuous
 62
     7
100
AcDbLine
 10
-76.45185465409254
 20
-65.75492039405609
 30
0.0
 11
-76.45185465409254
 21
-48.25492039405606
 31
0.0
  0
LINE
  5
93
330
1F
100
AcDbEntity
  8
1
  6
DOT_CENTER
 62
     2
100
AcDbLine
 10
-85.64247933607055
 20
-57.75492039405626
 30
0.0
 11
-70.52085651144483
 21
-57.75492039405629
 31
0.0
  0
LINE
  5
94
330
1F
100
AcDbEntity
  8
1
  6
Continuous
 62
     7
100
AcDbLine
 10
-63.45185465409254
 20
-47.25492039405631
 30
0.0
 11
-82.45185465409256
 21
-47.25492039405606
 31
0.0
  0
LINE
  5
95
330
1F
100
AcDbEntity
  8
0
  6
Continuous
 62
     7
100
AcDbLine
 10
-83.9518077197805
 20
-47.25492039405609
 30
0.0
 11
-82.45185465409256
 21
-47.25492039405606
 31
0.0
  0
LINE
  5
96
330
1F
100
AcDbEntity
  8
1
  6
DOT_CENTER
 62
     2
100
AcDbLine
 10
-69.95185465409222
 20
-54.25492039405629
 30
0.0
 11
-69.9370217366236
 21
-54.25492039405629
 31
0.0
  0
LINE
  5
97
330
1F
100
AcDbEntity
  8
1
  6
DOT_CENTER
 62
     2
100
AcDbLine
 10
-85.64247933607055
 20
-54.25492039405629
 30
0.0
 11
-69.95185465409222
 21
-54.25492039405629
 31
0.0
  0
LINE
  5
98
330
1F
100
AcDbEntity
  8
1
  6
Continuous
 62
     7
100
AcDbLine
 10
-79.9519485227163
 20
-82.37549586665773
 30
0.0
 11
-79.95194852271628
 21
-79.25492039405628
 31
0.0
  0
LINE
  5
99
330
1F
100
AcDbEntity
  8
1
  6
DOT_CENTER
 62
     2
100
AcDbLine
 10
-85.7018077197805
 20
-79.0049203940563
 30
0.0
 11
-85.7018077197805
 21
-106.235691798994
 31
0.0
  0
LINE
  5
9A
330
1F
100
AcDbEntity
  8
1
  6
Continuous
 62
     7
100
AcDbLine
 10
-87.4518546540923
 20
-36.25492039405629
 30
0.0
 11
-87.45185465409219
 21
-34.25492039405629
 31
0.0
  0
LINE
  5
9B
330
1F
100
AcDbEntity
  8
1
  6
Continuous
 62
     7
100
AcDbLine
 10
-77.45185465409253
 20
-71.25492039405628
 30
0.0
 11
-63.45185465409254
 21
-71.25492039405628
 31
0.0
  0
LINE
  5
9C
330
1F
100
AcDbEntity
  8
1
  6
Continuous
 62
     7
100
AcDbLine
 10
-77.45185465409253
 20
-79.25492039405628
 30
0.0
 11
-79.95194852271628
 21
-79.25492039405628
 31
0.0
  0
LINE
  5
9D
330
1F
100
AcDbEntity
  8
1
  6
Continuous
 62
     7
100
AcDbLine
 10
-77.45185465409253
 20
-71.25492039405628
 30
0.0
 11
-77.45185465409253
 21
-79.25492039405628
 31
0.0
  0
LINE
  5
9E
330
1F
100
AcDbEntity
  8
1
  6
Continuous
 62
     7
100
AcDbLine
 10
-79.95194852271588
 20
-71.25492039405628
 30
0.0
 11
-79.95185465409254
 21
-71.25492039405609
 31
0.0
  0
LINE
  5
9F
330
1F
100
AcDbEntity
  8
1
  6
Continuous
 62
     7
100
AcDbLine
 10
-83.95185465409213
 20
-47.25492039405631
 30
0.0
 11
-83.95185465409234
 21
-65.25492039405609
 31
0.0
  0
LINE
  5
A0
330
1F
100
AcDbEntity
  8
1
  6
Continuous
 62
     7
100
AcDbLine
 10
-87.4518546540923
 20
-36.25492039405629
 30
0.0
 11
-85.71980384652346
 21
-39.25492039405629
 31
0.0
  0
LINE
  5
A1
330
1F
100
AcDbEntity
  8
1
  6
Continuous
 62
     7
100
AcDbLine
 10
-85.71980384652346
 20
-39.25492039405629
 30
0.0
 11
-76.18390546166114
 21
-39.25492039405629
 31
0.0
  0
LINE
  5
A2
330
1F
100
AcDbEntity
  8
1
  6
Continuous
 62
     7
100
AcDbLine
 10
-76.18390546166114
 20
-39.25492039405629
 30
0.0
 11
-74.45185465409219
 21
-36.25492039405629
 31
0.0
  0
LINE
  5
A3
330
1F
100
AcDbEntity
  8
1
  6
Continuous
 62
     7
100
AcDbLine
 10
-74.45185465409219
 20
-36.25492039405629
 30
0.0
 11
-74.45185465409219
 21
-34.25492039405629
 31
0.0
  0
LINE
  5
A4
330
1F
100
AcDbEntity
  8
1
  6
Continuous
 62
     7
100
AcDbLine
 10
-86.4518546540923
 20
-35.25492039405629
 30
0.0
 11
-75.45185465409219
 21
-35.25492039405629
 31
0.0
  0
LINE
  5
A5
330
1F
100
AcDbEntity
  8
1
  6
Continuous
 62
     7
100
AcDbLine
 10
-75.45185465409219
 20
-35.25492039405629
 30
0.0
 11
-75.45185465409219
 21
-35.98697120162518
 31
0.0
  0
LINE
  5
A6
330
1F
100
AcDbEntity
  8
1
  6
Continuous
 62
     7
100
AcDbLine
 10
-75.45185465409219
 20
-35.98697120162518
 30
0.0
 11
-76.76125573085068
 21
-38.25492039405629
 31
0.0
  0
LINE
  5
A7
330
1F
100
AcDbEntity
  8
1
  6
Continuous
 62
     7
100
AcDbLine
 10
-76.76125573085068
 20
-38.25492039405629
 30
0.0
 11
-85.14245357733381
 21
-38.25492039405629
 31
0.0
  0
LINE
  5
A8
330
1F
100
AcDbEntity
  8
1
  6
Continuous
 62
     7
100
AcDbLine
 10
-85.14245357733381
 20
-38.25492039405629
 30
0.0
 11
-86.4518546540923
 21
-35.98697120162518
 31
0.0
  0
LINE
  5
A9
330
1F
100
AcDbEntity
  8
1
  6
Continuous
 62
     7
100
AcDbLine
 10
-86.4518546540923
 20
-35.98697120162518
 30
0.0
 11
-86.4518546540923
 21
-35.25492039405629
 31
0.0
  0
LINE
  5
AA
330
1F
100
AcDbEntity
  8
1
  6
DOT_CENTER
 62
     2
100
AcDbLine
 10
-147.7018546540922
 20
-79.25492039405628
 30
0.0
 11
-147.7018546540922
 21
-24.25492039405629
 31
0.0
  0
LINE
  5
AB
330
1F
100
AcDbEntity
  8
1
  6
Continuous
 62
     7
100
AcDbLine
 10
-87.45185465409219
 20
-34.25492039405629
 30
0.0
 11
-74.45185465409219
 21
-34.25492039405629
 31
0.0
  0
LINE
  5
AC
330
1F
100
AcDbEntity
  8
1
  6
Continuous
 62
     7
100
AcDbLine
 10
-33.45185465409212
 20
-79.25492039405628
 30
0.0
 11
-77.45185465409253
 21
-79.25492039405628
 31
0.0
  0
LINE
  5
AD
330
1F
100
AcDbEntity
  8
1
  6
Continuous
 62
     7
100
AcDbLine
 10
-83.95185465409244
 20
-39.25492039405629
 30
0.0
 11
-33.45185465409215
 21
-39.25492039405629
 31
0.0
  0
LINE
  5
AE
330
1F
100
AcDbEntity
  8
1
  6
Continuous
 62
     7
100
AcDbLine
 10
-83.95185465409213
 20
-47.25492039405631
 30
0.0
 11
-83.95185465409244
 21
-39.25492039405629
 31
0.0
  0
LINE
  5
AF
330
1F
100
AcDbEntity
  8
1
  6
Continuous
 62
     7
100
AcDbLine
 10
-74.45185465409219
 20
-34.25492039405629
 30
0.0
 11
-74.45185465409219
 21
-24.25492039405629
 31
0.0
  0
LINE
  5
B0
330
1F
100
AcDbEntity
  8
1
  6
DOT_CENTER
 62
     2
100
AcDbLine
 10
-33.45185465409212
 20
-79.25492039405628
 30
0.0
 11
-33.45185465409215
 21
-39.25492039405629
 31
0.0
  0
LINE
  5
B1
330
1F
100
AcDbEntity
  8
1
  6
DOT_CENTER
 62
     2
100
AcDbLine
 10
-33.45185465409212
 20
-79.25492039405628
 30
0.0
 11
-33.45185465409212
 21
-81.28815769874379
 31
0.0
  0
LINE
  5
B2
330
1F
100
AcDbEntity
  8
1
  6
DOT_CENTER
 62
     2
100
AcDbLine
 10
-33.45185465409215
 20
-39.25492039405629
 30
0.0
 11
-33.45185465409212
 21
-37.74889134132189
 31
0.0
  0
LINE
  5
B3
330
1F
100
AcDbEntity
  8
1
  6
DOT_CENTER
 62
     2
100
AcDbLine
 10
-151.2518390207383
 20
-24.25492039405629
 30
0.0
 11
-147.7018546540922
 21
-24.25492039405629
 31
0.0
  0
LINE
  5
B4
330
1F
100
AcDbEntity
  8
1
  6
DOT_CENTER
 62
     2
100
AcDbLine
 10
-74.45185465409219
 20
-24.25492039405629
 30
0.0
 11
-71.65707377030304
 21
-24.25492039405629
 31
0.0
  0
LINE
  5
B5
330
1F
100
AcDbEntity
  8
1
  6
DOT_CENTER
 62
     2
100
AcDbLine
 10
-147.7018546540922
 20
-24.25492039405629
 30
0.0
 11
-74.45185465409219
 21
-24.25492039405629
 31
0.0
  0
LINE
  5
B6
330
1F
100
AcDbEntity
  8
0
  6
Continuous
 62
     7
100
AcDbLine
 10
-90.95185465409251
 20
-46.25492039405609
 30
0.0
 11
-87.45185465409256
 21
-46.25492039405609
 31
0.0
  0
LINE
  5
B7
330
1F
100
AcDbEntity
  8
DEFAULT_1
  6
DOT_CENTER
 62
     2
100
AcDbLine
 10
-98.52378937199255
 20
-92.25492039405609
 30
0.0
 11
-71.95185465409254
 21
-92.25492039405609
 31
0.0
  0
LINE
  5
B8
330
1F
100
AcDbEntity
  8
DEFAULT_1
  6
DOT_CENTER
 62
     2
100
AcDbLine
 10
-70.60691805319254
 20
-61.25492039405629
 30
0.0
 11
-85.45185465409256
 21
-61.25492039405629
 31
0.0
  0
LINE
  5
B9
330
1F
100
AcDbEntity
  8
0
  6
Continuous
 62
     7
100
AcDbLine
 10
-63.45185465409254
 20
-47.25492039405631
 30
0.0
 11
-61.45185465409254
 21
-47.25492039405606
 31
0.0
  0
LINE
  5
BA
330
1F
100
AcDbEntity
  8
0
  6
Continuous
 62
     7
100
AcDbLine
 10
-90.95185465409251
 20
-46.25492039405609
 30
0.0
 11
-90.95185465409251
 21
-51.25492039405609
 31
0.0
  0
LINE
  5
BB
330
1F
100
AcDbEntity
  8
1
  6
Continuous
 62
     7
100
AcDbLine
 10
-79.95185465409254
 20
-66.25492039405609
 30
0.0
 11
-76.95185465409254
 21
-66.25492039405609
 31
0.0
  0
LINE
  5
BC
330
1F
100
AcDbEntity
  8
1
  6
Continuous
 62
     7
100
AcDbLine
 10
-147.7018546540922
 20
-79.25492039405628
 30
0.0
 11
-90.9518546540925
 21
-79.25492039405628
 31
0.0
  0
LINE
  5
BD
330
1F
100
AcDbEntity
  8
0
  6
Continuous
 62
     7
100
AcDbLine
 10
-90.9518546540925
 20
-79.25492039405628
 30
0.0
 11
-90.95185465409251
 21
-81.00492039405609
 31
0.0
  0
LINE
  5
BE
330
1F
100
AcDbEntity
  8
1
  6
Continuous
 62
     7
100
AcDbLine
 10
-94.57391764342078
 20
-85.3377057322828
 30
0.0
 11
-91.25504723269252
 21
-81.72217865815608
 31
0.0
  0
LINE
  5
BF
330
1F
100
AcDbEntity
  8
2
  6
DASHED
 62
     2
100
AcDbLine
 10
-140.9518546540925
 20
-58.91517443191594
 30
0.0
 11
-140.9518546540925
 21
-49.59466635622708
 31
0.0
  0
LINE
  5
C0
330
1F
100
AcDbEntity
  8
2
  6
DASHED
 62
     2
100
AcDbLine
 10
-140.9518546540925
 20
-49.59466635622708
 30
0.0
 11
-135.9518546540925
 21
-48.25492039407149
 31
0.0
  0
LINE
  5
C1
330
1F
100
AcDbEntity
  8
2
  6
DASHED
 62
     2
100
AcDbLine
 10
-135.9518546540925
 20
-60.25492039407139
 30
0.0
 11
-140.9518546540925
 21
-58.91517443191594
 31
0.0
  0
LINE
  5
C2
330
1F
100
AcDbEntity
  8
2
  6
DASHED
 62
     2
100
AcDbLine
 10
-135.9518546540925
 20
-60.25492039407139
 30
0.0
 11
-135.9518546540925
 21
-48.25492039407149
 31
0.0
  0
LINE
  5
C3
330
1F
100
AcDbEntity
  8
2
  6
DASHED
 62
     2
100
AcDbLine
 10
-90.95185465409246
 20
-48.25492039407149
 30
0.0
 11
-135.9518546540925
 21
-48.25492039407149
 31
0.0
  0
LINE
  5
C4
330
1F
100
AcDbEntity
  8
2
  6
DASHED
 62
     2
100
AcDbLine
 10
-90.95185465409246
 20
-60.25492039407139
 30
0.0
 11
-135.9518546540925
 21
-60.25492039407139
 31
0.0
  0
LINE
  5
C5
330
1F
100
AcDbEntity
  8
1
  6
DOT_CENTER
 62
     2
100
AcDbLine
 10
-147.7018546540922
 20
-24.25492039405629
 30
0.0
 11
-147.7018546540922
 21
-20.25492039405629
 31
0.0
  0
LINE
  5
C6
330
1F
100
AcDbEntity
  8
1
  6
DOT_CENTER
 62
     2
100
AcDbLine
 10
-147.7018546540922
 20
-79.25492039405628
 30
0.0
 11
-147.7018546540922
 21
-82.6102770904035
 31
0.0
  0
ARC
  5
C7
330
1F
100
AcDbEntity
  8
1
  6
Continuous
 62
     7
100
AcDbCircle
 10
-85.7018077197805
 20
-92.25492039405609
 30
0.0
 40
7.749976334110044
100
AcDbArc
 50
98.15895026056077
 51
132.642942815529
  0
ARC
  5
C8
330
1F
100
AcDbEntity
  8
1
  6
Continuous
 62
     7
100
AcDbCircle
 10
-85.7018077197805
 20
-92.25492039405609
 30
0.0
 40
7.749976334110046
100
AcDbArc
 50
132.642942815529
 51
98.15895026056077
  0
ARC
  5
C9
330
1F
100
AcDbEntity
  8
1
  6
Continuous
 62
     7
100
AcDbCircle
 10
-85.70179571574526
 20
-92.25490820936936
 30
0.0
 40
11.24998833815188
100
AcDbArc
 50
142.0580279034621
 51
81.05127645154508
  0
ARC
  5
CA
330
1F
100
AcDbEntity
  8
1
  6
Continuous
 62
     7
100
AcDbCircle
 10
-85.70179571574526
 20
-92.25490820936936
 30
0.0
 40
11.24998833815188
100
AcDbArc
 50
81.05127645154508
 51
98.44002919804433
  0
ARC
  5
CB
330
1F
100
AcDbEntity
  8
1
  6
Continuous
 62
     7
100
AcDbCircle
 10
-79.45185465409254
 20
-70.75492039405609
 30
0.0
 40
0.5
100
AcDbArc
 50
90.0
 51
180.0
  0
ARC
  5
CC
330
1F
100
AcDbEntity
  8
0
  6
Continuous
 62
     7
100
AcDbCircle
 10
-91.95185465409253
 20
-81.00492039405609
 30
0.0
 40
0.9999999999689354
100
AcDbArc
 50
-45.82857911155975
 51
0.0
  0
ARC
  5
CD
330
1F
100
AcDbEntity
  8
1
  6
Continuous
 62
     7
100
AcDbCircle
 10
-92.58511139599437
 20
-80.94648112391161
 30
0.0
 40
5.136974167057021
100
AcDbArc
 50
-35.3123103431594
 51
-2.17987328834869
  0
XLINE
  5
CE
330
1F
100
AcDbEntity
  8
1
  6
DOT_CENTER
 62
     3
 60
     1
100
AcDbXline
 10
-79.95194852271588
 20
-71.25492039405628
 30
0.0
 11
-1.0
 21
0.0
 31
0.0
  0
ARC
  5
CF
330
1F
100
AcDbEntity
  8
1
  6
Continuous
 62
     7
100
AcDbCircle
 10
-76.45185465409254
 20
-66.25480716755446
 30
0.0
 40
4.000000000000005
100
AcDbArc
 50
-89.99783758751855
 51
0.0
  0
ARC
  5
D0
330
1F
100
AcDbEntity
  8
1
  6
Continuous
 62
     7
100
AcDbCircle
 10
-79.95185465409254
 20
-70.25492039405609
 30
0.0
 40
4.0
100
AcDbArc
 50
90.0
 51
179.9999999999978
  0
ARC
  5
D1
330
1F
100
AcDbEntity
  8
1
  6
Continuous
 62
     7
100
AcDbCircle
 10
-79.45185465409257
 20
-82.37549586665774
 30
0.0
 40
0.4999999999999858
100
AcDbArc
 50
-179.9999999999967
 51
-149.9999999999966
  0
ARC
  5
D2
330
1F
100
AcDbEntity
  8
1
  6
Continuous
 62
     7
100
AcDbCircle
 10
-79.45185465409257
 20
-82.37549586665774
 30
0.0
 40
0.4999999999999858
100
AcDbArc
 50
-179.9999999999967
 51
-149.9999999999966
  0
ARC
  5
D3
330
1F
100
AcDbEntity
  8
1
  6
Continuous
 62
     7
100
AcDbCircle
 10
-76.95185465409254
 20
-65.75492039405609
 30
0.0
 40
0.5
100
AcDbArc
 50
-90.0
 51
0.0
  0
DIMENSION
  5
DF
330
1F
100
AcDbEntity
  8
1
100
AcDbDimension
  2
*D1
 10
-157.512069771453
 20
-79.25492039405628
 30
0.0
 11
-161.262069771453
 21
-84.5668904110098
 31
0.0
 70
    32
  1
<>
 71
     5
 42
-1.0
 53
90.0
  3
ME10_DIM_10
100
AcDbAlignedDimension
 13
-98.52378937199255
 23
-92.25492039405609
 33
0.0
 14
-147.7018546540922
 24
-79.25492039405628
 34
0.0
 50
90.0
100
AcDbRotatedDimension
  0
DIMENSION
  5
EA
330
1F
100
AcDbEntity
  8
1
100
AcDbDimension
  2
*D2
 10
-23.1302922288805
 20
-71.25492039405609
 30
0.0
 11
-26.8802922288805
 21
-58.8630511216242
 31
0.0
 70
    32
  1
<>
 71
     5
 42
-1.0
 53
90.0
  3
ME10_DIM_11
100
AcDbAlignedDimension
 13
-61.45185465409254
 23
-47.25492039405606
 33
0.0
 14
-61.45185465409254
 24
-71.25492039405609
 34
0.0
 50
90.0
100
AcDbRotatedDimension
  0
DIMENSION
  5
F5
330
1F
100
AcDbEntity
  8
1
100
AcDbDimension
  2
*D3
 10
-167.811970537658
 20
-92.25492039405609
 30
0.0
 11
-171.561970537658
 21
-67.8387980749667
 31
0.0
 70
    32
  1
<>
 71
     5
 42
-1.0
 53
90.0
  3
ME10_DIM_12
100
AcDbAlignedDimension
 13
-90.95185465409251
 23
-46.25492039405609
 33
0.0
 14
-98.52378937199255
 24
-92.25492039405609
 34
0.0
 50
90.0
100
AcDbRotatedDimension
  0
DIMENSION
  5
100
330
1F
100
AcDbEntity
  8
1
100
AcDbDimension
  2
*D4
 10
-11.5385769447694
 20
-47.25492039405631
 30
0.0
 11
-15.2885769447694
 21
-70.4490588258562
 31
0.0
 70
    32
  1
<>
 71
     5
 42
-1.0
 53
90.0
  3
ME10_DIM_13
100
AcDbAlignedDimension
 13
-71.95185465409254
 23
-92.25492039405609
 33
0.0
 14
-63.45185465409254
 24
-47.25492039405631
 34
0.0
 50
90.0
100
AcDbRotatedDimension
  0
DIMENSION
  5
10B
330
1F
100
AcDbEntity
  8
1
100
AcDbDimension
  2
*D5
 10
-61.45185465409254
 20
-14.5843750375592
 30
0.0
 11
-72.7027072675834
 21
-10.8343750375592
 31
0.0
 70
    32
  1
<>
 71
     5
 42
-1.0
 53
0.00013888888889
  3
ME10_DIM_14
100
AcDbAlignedDimension
 13
-83.95185465409244
 23
-39.25492039405629
 33
0.0
 14
-61.45185465409254
 24
-47.25492039405606
 34
0.0
100
AcDbRotatedDimension
  0
DIMENSION
  5
11D
330
1F
100
AcDbEntity
  8
1
100
AcDbDimension
  2
*D6
 10
-87.45185465409219
 20
-14.5843750375592
 30
0.0
 11
-95.9578279465049
 21
-10.8343750375592
 31
0.0
 70
    32
  1
<>
 71
     5
 42
-1.0
 53
0.00013888888889
  3
ME10_DIM_15
100
AcDbAlignedDimension
 13
-90.95185465409251
 23
-46.25492039405609
 33
0.0
 14
-87.45185465409219
 24
-34.25492039405629
 34
0.0
100
AcDbRotatedDimension
  0
DIMENSION
  5
12A
330
1F
100
AcDbEntity
  8
1
100
AcDbDimension
  2
*D8
 10
-83.95185465409244
 20
-14.5843750375592
 30
0.0
 11
-85.5514269121017
 21
-9.1015743732184
 31
0.0
 70
    32
  1
<>
 71
     5
 42
-1.0
 53
0.00013888888889
  3
ME10_DIM_16
100
AcDbAlignedDimension
 13
-87.45185465409219
 23
-34.25492039405629
 33
0.0
 14
-83.95185465409244
 24
-39.25492039405629
 34
0.0
100
AcDbRotatedDimension
  0
ENDSEC
  0
SECTION
  2
OBJECTS
  0
DICTIONARY
  5
C
330
0
100
AcDbDictionary
281
     1
  3
ACAD_GROUP
350
D
  3
ACAD_LAYOUT
350
1A
  3
ACAD_MLINESTYLE
350
17
  3
ACAD_PLOTSETTINGS
350
19
  3
ACAD_PLOTSTYLENAME
350
E
  0
DICTIONARY
  5
D
102
{ACAD_REACTORS
330
C
102
}
330
C
100
AcDbDictionary
281
     1
  0
DICTIONARY
  5
1A
102
{ACAD_REACTORS
330
C
102
}
330
C
100
AcDbDictionary
281
     1
  3
Layout1
350
1E
  3
Layout2
350
26
  3
Model
350
22
  0
DICTIONARY
  5
17
102
{ACAD_REACTORS
330
C
102
}
330
C
100
AcDbDictionary
281
     1
  3
Standard
350
18
  0
DICTIONARY
  5
19
102
{ACAD_REACTORS
330
C
102
}
330
C
100
AcDbDictionary
281
     1
  0
ACDBDICTIONARYWDFLT
  5
E
102
{ACAD_REACTORS
330
C
102
}
330
C
100
AcDbDictionary
281
     1
  3
Normal
350
F
100
AcDbDictionaryWithDefault
340
F
  0
LAYOUT
  5
1E
102
{ACAD_REACTORS
330
1A
102
}
330
1A
100
AcDbPlotSettings
  1

  2

  4

  6

 40
0.0
 41
0.0
 42
0.0
 43
0.0
 44
0.0
 45
0.0
 46
0.0
 47
0.0
 48
0.0
 49
0.0
140
0.0
141
0.0
142
1.0
143
1.0
 70
   688
 72
     0
 73
     0
 74
     5
  7

 75
    16
 76
     0
 77
     2
 78
   300
147
1.0
148
0.0
149
0.0
100
AcDbLayout
  1
Layout1
 70
     1
 71
     1
 10
0.0
 20
0.0
 11
0.0
 21
0.0
 12
0.0
 22
0.0
 32
0.0
 14
0.0
 24
0.0
 34
0.0
 15
0.0
 25
0.0
 35
0.0
146
0.0
 13
0.0
 23
0.0
 33
0.0
 16
1.0
 26
0.0
 36
0.0
 17
0.0
 27
1.0
 37
0.0
 76
     0
330
1B
  0
LAYOUT
  5
26
102
{ACAD_REACTORS
330
1A
102
}
330
1A
100
AcDbPlotSettings
  1

  2

  4

  6

 40
0.0
 41
0.0
 42
0.0
 43
0.0
 44
0.0
 45
0.0
 46
0.0
 47
0.0
 48
0.0
 49
0.0
140
0.0
141
0.0
142
1.0
143
1.0
 70
   688
 72
     0
 73
     0
 74
     5
  7

 75
    16
 76
     0
 77
     2
 78
   300
147
1.0
148
0.0
149
0.0
100
AcDbLayout
  1
Layout2
 70
     1
 71
     2
 10
0.0
 20
0.0
 11
0.0
 21
0.0
 12
0.0
 22
0.0
 32
0.0
 14
0.0
 24
0.0
 34
0.0
 15
0.0
 25
0.0
 35
0.0
146
0.0
 13
0.0
 23
0.0
 33
0.0
 16
1.0
 26
0.0
 36
0.0
 17
0.0
 27
1.0
 37
0.0
 76
     0
330
23
  0
LAYOUT
  5
22
102
{ACAD_REACTORS
330
1A
102
}
330
1A
100
AcDbPlotSettings
  1

  2

  4

  6

 40
0.0
 41
0.0
 42
0.0
 43
0.0
 44
0.0
 45
0.0
 46
0.0
 47
0.0
 48
0.0
 49
0.0
140
0.0
141
0.0
142
1.0
143
1.0
 70
  1712
 72
     0
 73
     0
 74
     0
  7

 75
     0
 76
     0
 77
     2
 78
   300
147
1.0
148
0.0
149
0.0
100
AcDbLayout
  1
Model
 70
     1
 71
     0
 10
0.0
 20
0.0
 11
0.0
 21
0.0
 12
0.0
 22
0.0
 32
0.0
 14
-173.311970537658
 24
-106.235691798994
 34
0.0
 15
-9.5385769447694
 25
-7.3515743732184
 35
0.0
146
0.0
 13
0.0
 23
0.0
 33
0.0
 16
1.0
 26
0.0
 36
0.0
 17
0.0
 27
1.0
 37
0.0
 76
     0
330
1F
  0
MLINESTYLE
  5
18
102
{ACAD_REACTORS
330
17
102
}
330
17
100
AcDbMlineStyle
  2
Standard
 70
     0
  3

 62
   256
 51
90.0
 52
90.0
 71
     2
 49
0.5
 62
   256
  6
BYLAYER
 49
-0.5
 62
   256
  6
BYLAYER
  0
ACDBPLACEHOLDER
  5
F
102
{ACAD_REACTORS
330
E
102
}
330
E
  0
ENDSEC
  0
EOF
