  0
SECTION
  2
HEADER
  9
$ACADVER
  1
AC1018
  9
$ACADMAINTVER
 70
     0
  9
$DWGCODEPAGE
  3
ANSI_1252
  9
$INSBASE
 10
0.0
 20
0.0
 30
0.0
  9
$EXTMIN
 10
-164.049542197713
 20
-278.9536212123285
 30
0.0
  9
$EXTMAX
 10
223.0117764094084
 20
3.44609801232741
 30
0.0
  9
$LIMMIN
 10
0.0
 20
0.0
  9
$LIMMAX
 10
12.0
 20
9.0
  9
$ORTHOMODE
 70
     0
  9
$REGENMODE
 70
     1
  9
$FILLMODE
 70
     1
  9
$QTEXTMODE
 70
     0
  9
$MIRRTEXT
 70
     1
  9
$LTSCALE
 40
1.0
  9
$ATTMODE
 70
     1
  9
$TEXTSIZE
 40
0.2
  9
$TRACEWID
 40
0.05
  9
$TEXTSTYLE
  7
Standard
  9
$CLAYER
  8
0
  9
$CELTYPE
  6
ByLayer
  9
$CECOLOR
 62
   256
  9
$CELTSCALE
 40
1.0
  9
$DISPSILH
 70
     0
  9
$DIMSCALE
 40
1.0
  9
$DIMASZ
 40
0.18
  9
$DIMEXO
 40
0.0625
  9
$DIMDLI
 40
0.38
  9
$DIMRND
 40
0.0
  9
$DIMDLE
 40
0.0
  9
$DIMEXE
 40
0.18
  9
$DIMTP
 40
0.0
  9
$DIMTM
 40
0.0
  9
$DIMTXT
 40
0.18
  9
$DIMCEN
 40
0.09
  9
$DIMTSZ
 40
0.0
  9
$DIMTOL
 70
     0
  9
$DIMLIM
 70
     0
  9
$DIMTIH
 70
     1
  9
$DIMTOH
 70
     1
  9
$DIMSE1
 70
     0
  9
$DIMSE2
 70
     0
  9
$DIMTAD
 70
     0
  9
$DIMZIN
 70
     0
  9
$DIMBLK
  1

  9
$DIMASO
 70
     1
  9
$DIMSHO
 70
     1
  9
$DIMPOST
  1

  9
$DIMAPOST
  1

  9
$DIMALT
 70
     0
  9
$DIMALTD
 70
     2
  9
$DIMALTF
 40
25.4
  9
$DIMLFAC
 40
1.0
  9
$DIMTOFL
 70
     0
  9
$DIMTVP
 40
0.0
  9
$DIMTIX
 70
     0
  9
$DIMSOXD
 70
     0
  9
$DIMSAH
 70
     0
  9
$DIMBLK1
  1

  9
$DIMBLK2
  1

  9
$DIMSTYLE
  2
Standard
  9
$DIMCLRD
 70
     0
  9
$DIMCLRE
 70
     0
  9
$DIMCLRT
 70
     0
  9
$DIMTFAC
 40
1.0
  9
$DIMGAP
 40
0.09
  9
$DIMJUST
 70
     0
  9
$DIMSD1
 70
     0
  9
$DIMSD2
 70
     0
  9
$DIMTOLJ
 70
     1
  9
$DIMTZIN
 70
     0
  9
$DIMALTZ
 70
     0
  9
$DIMALTTZ
 70
     0
  9
$DIMUPT
 70
     0
  9
$DIMDEC
 70
     4
  9
$DIMTDEC
 70
     4
  9
$DIMALTU
 70
     2
  9
$DIMALTTD
 70
     2
  9
$DIMTXSTY
  7
Standard
  9
$DIMAUNIT
 70
     0
  9
$DIMADEC
 70
     0
  9
$DIMALTRND
 40
0.0
  9
$DIMAZIN
 70
     0
  9
$DIMDSEP
 70
    46
  9
$DIMATFIT
 70
     3
  9
$DIMFRAC
 70
     0
  9
$DIMLDRBLK
  1

  9
$DIMLUNIT
 70
     2
  9
$DIMLWD
 70
    -2
  9
$DIMLWE
 70
    -2
  9
$DIMTMOVE
 70
     0
  9
$LUNITS
 70
     2
  9
$LUPREC
 70
     4
  9
$SKETCHINC
 40
0.1
  9
$FILLETRAD
 40
0.5
  9
$AUNITS
 70
     0
  9
$AUPREC
 70
     0
  9
$MENU
  1
.
  9
$ELEVATION
 40
0.0
  9
$PELEVATION
 40
0.0
  9
$THICKNESS
 40
0.0
  9
$LIMCHECK
 70
     0
  9
$CHAMFERA
 40
0.5
  9
$CHAMFERB
 40
0.5
  9
$CHAMFERC
 40
1.0
  9
$CHAMFERD
 40
0.0
  9
$SKPOLY
 70
     0
  9
$TDCREATE
 40
2455992.35483816
  9
$TDUCREATE
 40
2455992.313171493
  9
$TDUPDATE
 40
2455992.354838172
  9
$TDUUPDATE
 40
2455992.313171505
  9
$TDINDWG
 40
0.0000000116
  9
$TDUSRTIMER
 40
0.0000000116
  9
$USRTIMER
 70
     1
  9
$ANGBASE
 50
0.0
  9
$ANGDIR
 70
     0
  9
$PDMODE
 70
     0
  9
$PDSIZE
 40
0.0
  9
$PLINEWID
 40
0.0
  9
$SPLFRAME
 70
     0
  9
$SPLINETYPE
 70
     6
  9
$SPLINESEGS
 70
     8
  9
$HANDSEED
  5
265
  9
$SURFTAB1
 70
     6
  9
$SURFTAB2
 70
     6
  9
$SURFTYPE
 70
     6
  9
$SURFU
 70
     6
  9
$SURFV
 70
     6
  9
$UCSBASE
  2

  9
$UCSNAME
  2

  9
$UCSORG
 10
0.0
 20
0.0
 30
0.0
  9
$UCSXDIR
 10
1.0
 20
0.0
 30
0.0
  9
$UCSYDIR
 10
0.0
 20
1.0
 30
0.0
  9
$UCSORTHOREF
  2

  9
$UCSORTHOVIEW
 70
     0
  9
$UCSORGTOP
 10
0.0
 20
0.0
 30
0.0
  9
$UCSORGBOTTOM
 10
0.0
 20
0.0
 30
0.0
  9
$UCSORGLEFT
 10
0.0
 20
0.0
 30
0.0
  9
$UCSORGRIGHT
 10
0.0
 20
0.0
 30
0.0
  9
$UCSORGFRONT
 10
0.0
 20
0.0
 30
0.0
  9
$UCSORGBACK
 10
0.0
 20
0.0
 30
0.0
  9
$PUCSBASE
  2

  9
$PUCSNAME
  2

  9
$PUCSORG
 10
0.0
 20
0.0
 30
0.0
  9
$PUCSXDIR
 10
1.0
 20
0.0
 30
0.0
  9
$PUCSYDIR
 10
0.0
 20
1.0
 30
0.0
  9
$PUCSORTHOREF
  2

  9
$PUCSORTHOVIEW
 70
     0
  9
$PUCSORGTOP
 10
0.0
 20
0.0
 30
0.0
  9
$PUCSORGBOTTOM
 10
0.0
 20
0.0
 30
0.0
  9
$PUCSORGLEFT
 10
0.0
 20
0.0
 30
0.0
  9
$PUCSORGRIGHT
 10
0.0
 20
0.0
 30
0.0
  9
$PUCSORGFRONT
 10
0.0
 20
0.0
 30
0.0
  9
$PUCSORGBACK
 10
0.0
 20
0.0
 30
0.0
  9
$USERI1
 70
     0
  9
$USERI2
 70
     0
  9
$USERI3
 70
     0
  9
$USERI4
 70
     0
  9
$USERI5
 70
     0
  9
$USERR1
 40
14.5
  9
$USERR2
 40
0.0
  9
$USERR3
 40
0.0
  9
$USERR4
 40
0.0
  9
$USERR5
 40
0.0
  9
$WORLDVIEW
 70
     1
  9
$SHADEDGE
 70
     3
  9
$SHADEDIF
 70
    70
  9
$TILEMODE
 70
     1
  9
$MAXACTVP
 70
    64
  9
$PINSBASE
 10
0.0
 20
0.0
 30
0.0
  9
$PLIMCHECK
 70
     0
  9
$PEXTMIN
 10
1.00000000000000E+20
 20
1.00000000000000E+20
 30
1.00000000000000E+20
  9
$PEXTMAX
 10
-1.00000000000000E+20
 20
-1.00000000000000E+20
 30
-1.00000000000000E+20
  9
$PLIMMIN
 10
0.0
 20
0.0
  9
$PLIMMAX
 10
12.0
 20
9.0
  9
$UNITMODE
 70
     0
  9
$VISRETAIN
 70
     1
  9
$PLINEGEN
 70
     0
  9
$PSLTSCALE
 70
     1
  9
$TREEDEPTH
 70
  3020
  9
$CMLSTYLE
  2
Standard
  9
$CMLJUST
 70
     0
  9
$CMLSCALE
 40
1.0
  9
$PROXYGRAPHICS
 70
     1
  9
$MEASUREMENT
 70
     1
  9
$CELWEIGHT
370
    -1
  9
$ENDCAPS
280
     0
  9
$JOINSTYLE
280
     0
  9
$LWDISPLAY
290
     0
  9
$INSUNITS
 70
     1
  9
$HYPERLINKBASE
  1

  9
$STYLESHEET
  1

  9
$XEDIT
290
     1
  9
$CEPSNTYPE
380
     0
  9
$PSTYLEMODE
290
     1
  9
$FINGERPRINTGUID
  2
{3D4ABE57-8D1E-4946-9959-053C70325A65}
  9
$VERSIONGUID
  2
{FAEB1C32-E019-11D5-929B-00C0DF256EC4}
  9
$EXTNAMES
290
     1
  9
$PSVPSCALE
 40
0.0
  9
$OLESTARTUP
290
     0
  9
$SORTENTS
280
   127
  9
$INDEXCTL
280
     0
  9
$HIDETEXT
280
     1
  9
$XCLIPFRAME
290
     0
  9
$HALOGAP
280
     0
  9
$OBSCOLOR
 70
   257
  9
$OBSLTYPE
280
     0
  9
$INTERSECTIONDISPLAY
280
     0
  9
$INTERSECTIONCOLOR
 70
   257
  9
$DIMASSOC
280
     2
  9
$PROJECTNAME
  1

  0
ENDSEC
  0
SECTION
  2
CLASSES
  0
CLASS
  1
ACDBDICTIONARYWDFLT
  2
AcDbDictionaryWithDefault
  3
ObjectDBX Classes
 90
        0
 91
        3
280
     0
281
     0
  0
CLASS
  1

  2
exOdDbCircle
  3

 90
        0
 91
        3
280
     0
281
     1
  0
CLASS
  1

  2
exOdDbPolyline
  3

 90
        0
 91
        3
280
     0
281
     1
  0
ENDSEC
  0
SECTION
  2
TABLES
  0
TABLE
  2
VPORT
  5
8
330
0
100
AcDbSymbolTable
 70
     1
  0
VPORT
  5
29
330
8
100
AcDbSymbolTableRecord
100
AcDbViewportTableRecord
  2
*Active
 70
     0
 10
0.0
 20
0.0
 11
1.0
 21
1.0
 12
29.4811171058477
 22
-137.7537616000006
 13
0.0
 23
0.0
 14
0.5
 24
0.5
 15
0.5
 25
0.5
 16
0.0
 26
0.0
 36
1.0
 17
0.0
 27
0.0
 37
0.0
 40
310.6396911471215
 41
1.60267857142857
 42
50.0
 43
0.0
 44
0.0
 50
0.0
 51
0.0
 71
     0
 72
   100
 73
     1
 74
     3
 75
     0
 76
     0
 77
     0
 78
     0
281
     0
 65
     1
110
0.0
120
0.0
130
0.0
111
1.0
121
0.0
131
0.0
112
0.0
122
1.0
132
0.0
 79
     0
146
0.0
  0
ENDTAB
  0
TABLE
  2
LTYPE
  5
5
330
0
100
AcDbSymbolTable
 70
     8
  0
LTYPE
  5
14
330
5
100
AcDbSymbolTableRecord
100
AcDbLinetypeTableRecord
  2
ByBlock
 70
     0
  3

 72
    65
 73
     0
 40
0.0
  0
LTYPE
  5
15
330
5
100
AcDbSymbolTableRecord
100
AcDbLinetypeTableRecord
  2
ByLayer
 70
     0
  3

 72
    65
 73
     0
 40
0.0
  0
LTYPE
  5
16
330
5
100
AcDbSymbolTableRecord
100
AcDbLinetypeTableRecord
  2
Continuous
 70
     0
  3
Solid line
 72
    65
 73
     0
 40
0.0
  0
LTYPE
  5
2A
330
5
100
AcDbSymbolTableRecord
100
AcDbLinetypeTableRecord
  2
DASHED
 70
     0
  3
Dashed
 72
    65
 73
     2
 40
15.0
 49
7.0
 74
     0
 49
-8.0
 74
     0
  0
LTYPE
  5
2B
330
5
100
AcDbSymbolTableRecord
100
AcDbLinetypeTableRecord
  2
DOTTED
 70
     0
  3
Dotted
 72
    65
 73
     2
 40
1.0
 49
0.0
 74
     0
 49
-1.0
 74
     0
  0
LTYPE
  5
2C
330
5
100
AcDbSymbolTableRecord
100
AcDbLinetypeTableRecord
  2
DOT_CENTER
 70
     0
  3
Dot_Center
 72
    65
 73
     4
 40
14.0
 49
12.0
 74
     0
 49
-1.0
 74
     0
 49
0.0
 74
     0
 49
-1.0
 74
     0
  0
LTYPE
  5
2D
330
5
100
AcDbSymbolTableRecord
100
AcDbLinetypeTableRecord
  2
LONG_DASHED
 70
     0
  3
Long_Dashed
 72
    65
 73
     2
 40
15.0
 49
10.0
 74
     0
 49
-5.0
 74
     0
  0
LTYPE
  5
2E
330
5
100
AcDbSymbolTableRecord
100
AcDbLinetypeTableRecord
  2
DASH_CENTER
 70
     0
  3
Dash_Center
 72
    65
 73
     4
 40
14.0
 49
11.0
 74
     0
 49
-1.0
 74
     0
 49
1.0
 74
     0
 49
-1.0
 74
     0
  0
LTYPE
  5
2F
330
5
100
AcDbSymbolTableRecord
100
AcDbLinetypeTableRecord
  2
PHANTOM
 70
     0
  3
Phantom
 72
    65
 73
     6
 40
13.0
 49
10.0
 74
     0
 49
-1.0
 74
     0
 49
0.0
 74
     0
 49
-1.0
 74
     0
 49
0.0
 74
     0
 49
-1.0
 74
     0
  0
LTYPE
  5
30
330
5
100
AcDbSymbolTableRecord
100
AcDbLinetypeTableRecord
  2
CENTER_DASH_DASH
 70
     0
  3
Center_Dash_Dash
 72
    65
 73
     6
 40
14.0
 49
9.0
 74
     0
 49
-1.0
 74
     0
 49
1.0
 74
     0
 49
-1.0
 74
     0
 49
1.0
 74
     0
 49
-1.0
 74
     0
  0
ENDTAB
  0
TABLE
  2
LAYER
  5
2
330
0
100
AcDbSymbolTable
 70
     4
  0
LAYER
  5
10
330
2
100
AcDbSymbolTableRecord
100
AcDbLayerTableRecord
  2
0
 70
     0
 62
     7
  6
Continuous
370
    -3
390
F
  0
LAYER
  5
31
330
2
100
AcDbSymbolTableRecord
100
AcDbLayerTableRecord
  2
1
 70
     0
 62
     7
  6
Continuous
370
    -3
390
F
  0
LAYER
  5
32
330
2
100
AcDbSymbolTableRecord
100
AcDbLayerTableRecord
  2
A_BEMASSUNGEN
 70
     0
 62
     7
  6
Continuous
370
    -3
390
F
  0
LAYER
  5
33
330
2
100
AcDbSymbolTableRecord
100
AcDbLayerTableRecord
  2
DEFAULT_1
 70
     0
 62
     7
  6
Continuous
370
    -3
390
F
  0
ENDTAB
  0
TABLE
  2
STYLE
  5
3
330
0
100
AcDbSymbolTable
 70
     3
  0
STYLE
  5
11
330
3
100
AcDbSymbolTableRecord
100
AcDbTextStyleTableRecord
  2
Standard
 70
     0
 40
0.0
 41
1.0
 50
0.0
 71
     0
 42
0.2
  3
txt
  4

  0
STYLE
  5
146
330
3
100
AcDbSymbolTableRecord
100
AcDbTextStyleTableRecord
  2
CONVERTER_11
 70
     0
 40
0.0
 41
0.9
 50
0.0
 71
     0
 42
0.2
  3
txt.shx
  4

  0
STYLE
  5
14B
330
3
100
AcDbSymbolTableRecord
100
AcDbTextStyleTableRecord
  2
CONVERTER_12
 70
     0
 40
0.0
 41
0.8732691
 50
0.0
 71
     0
 42
0.2
  3
txt.shx
  4

  0
ENDTAB
  0
TABLE
  2
VIEW
  5
6
330
0
100
AcDbSymbolTable
 70
     0
  0
ENDTAB
  0
TABLE
  2
UCS
  5
7
330
0
100
AcDbSymbolTable
 70
     0
  0
ENDTAB
  0
TABLE
  2
APPID
  5
9
330
0
100
AcDbSymbolTable
 70
     1
  0
APPID
  5
12
330
9
100
AcDbSymbolTableRecord
100
AcDbRegAppTableRecord
  2
ACAD
 70
     0
  0
ENDTAB
  0
TABLE
  2
DIMSTYLE
  5
A
330
0
100
AcDbSymbolTable
 70
    23
100
AcDbDimStyleTable
  0
DIMSTYLE
105
27
330
A
100
AcDbSymbolTableRecord
100
AcDbDimStyleTableRecord
  2
Standard
 70
     0
340
11
  0
DIMSTYLE
105
163
102
{ACAD_REACTORS
330
164
102
}
330
A
100
AcDbSymbolTableRecord
100
AcDbDimStyleTableRecord
  2
ME10_DIM_10
 70
     0
 41
3.5
 42
0.0
 44
2.0
 73
     0
 74
     0
 77
     1
 78
     8
140
3.5
147
2.0
172
     1
173
     1
176
     2
177
     2
178
     2
271
     2
340
146
  0
DIMSTYLE
105
16E
102
{ACAD_REACTORS
330
16F
102
}
330
A
100
AcDbSymbolTableRecord
100
AcDbDimStyleTableRecord
  2
ME10_DIM_11
 70
     0
 41
3.5
 42
0.0
 44
2.0
 73
     0
 74
     0
 77
     1
 78
     8
140
3.5
147
2.0
172
     1
173
     1
176
     2
177
     2
178
     2
271
     2
340
146
  0
DIMSTYLE
105
17A
102
{ACAD_REACTORS
330
17B
102
}
330
A
100
AcDbSymbolTableRecord
100
AcDbDimStyleTableRecord
  2
ME10_DIM_12
 70
     0
 41
3.5
 42
0.0
 44
2.0
 73
     0
 74
     0
 77
     1
 78
     8
140
3.5
147
2.0
172
     1
173
     1
176
     2
177
     2
178
     2
271
     2
340
146
  0
DIMSTYLE
105
185
102
{ACAD_REACTORS
330
186
102
}
330
A
100
AcDbSymbolTableRecord
100
AcDbDimStyleTableRecord
  2
ME10_DIM_13
 70
     0
 41
3.5
 42
0.0
 44
2.0
 73
     0
 74
     0
 77
     1
 78
     8
140
3.5
147
2.0
172
     1
173
     1
176
     2
177
     2
178
     2
271
     2
340
146
  0
DIMSTYLE
105
190
102
{ACAD_REACTORS
330
191
102
}
330
A
100
AcDbSymbolTableRecord
100
AcDbDimStyleTableRecord
  2
ME10_DIM_14
 70
     0
 41
3.5
 42
0.0
 44
2.0
 73
     0
 74
     0
 77
     1
 78
     8
140
3.5
147
2.0
172
     1
173
     1
176
     2
177
     2
178
     2
271
     2
340
146
  0
DIMSTYLE
105
19B
102
{ACAD_REACTORS
330
19C
102
}
330
A
100
AcDbSymbolTableRecord
100
AcDbDimStyleTableRecord
  2
ME10_DIM_15
 70
     0
 41
3.5
 42
0.0
 44
2.0
 73
     0
 74
     0
 77
     1
 78
     8
140
3.5
147
2.0
172
     1
173
     1
176
     2
177
     2
178
     2
271
     2
340
146
  0
DIMSTYLE
105
1A7
102
{ACAD_REACTORS
330
1A8
102
}
330
A
100
AcDbSymbolTableRecord
100
AcDbDimStyleTableRecord
  2
ME10_DIM_16
 70
     0
 41
3.5
 42
0.0
 44
2.0
 73
     0
 74
     0
 77
     1
 78
     8
140
3.5
147
2.0
172
     1
173
     1
176
     2
177
     2
178
     2
271
     2
340
146
  0
DIMSTYLE
105
1B2
102
{ACAD_REACTORS
330
1B3
102
}
330
A
100
AcDbSymbolTableRecord
100
AcDbDimStyleTableRecord
  2
ME10_DIM_17
 70
     0
 41
3.5
 42
0.0
 44
2.0
 73
     0
 74
     0
 77
     1
 78
     8
140
3.5
147
2.0
172
     1
173
     1
176
     2
177
     2
178
     2
271
     2
340
146
  0
DIMSTYLE
105
1BF
102
{ACAD_REACTORS
330
1C0
102
}
330
A
100
AcDbSymbolTableRecord
100
AcDbDimStyleTableRecord
  2
ME10_DIM_18
 70
     0
 41
3.5
 42
0.0
 44
2.0
 73
     0
 74
     0
 77
     1
 78
     8
140
3.5
147
2.0
172
     1
173
     1
176
     2
177
     2
178
     2
271
     2
340
146
  0
DIMSTYLE
105
1CA
102
{ACAD_REACTORS
330
1CB
102
}
330
A
100
AcDbSymbolTableRecord
100
AcDbDimStyleTableRecord
  2
ME10_DIM_19
 70
     0
 41
3.5
 42
0.0
 44
2.0
 73
     0
 74
     0
 77
     1
 78
     8
140
3.5
147
2.0
172
     1
173
     1
176
     2
177
     2
178
     2
271
     3
340
146
  0
DIMSTYLE
105
1D5
102
{ACAD_REACTORS
330
1D6
102
}
330
A
100
AcDbSymbolTableRecord
100
AcDbDimStyleTableRecord
  2
ME10_DIM_20
 70
     0
 41
3.5
 42
0.0
 44
2.0
 73
     0
 74
     0
 77
     1
 78
     8
140
3.5
147
2.0
172
     1
173
     1
176
     2
177
     2
178
     2
271
     3
340
146
  0
DIMSTYLE
105
1E0
102
{ACAD_REACTORS
330
1E1
102
}
330
A
100
AcDbSymbolTableRecord
100
AcDbDimStyleTableRecord
  2
ME10_DIM_21
 70
     0
 41
3.5
 42
0.0
 44
2.0
 73
     0
 74
     0
 77
     1
 78
     8
140
3.5
147
2.0
172
     1
173
     1
176
     2
177
     2
178
     2
271
     3
340
146
  0
DIMSTYLE
105
1ED
102
{ACAD_REACTORS
330
1EE
102
}
330
A
100
AcDbSymbolTableRecord
100
AcDbDimStyleTableRecord
  2
ME10_DIM_22
 70
     0
 41
3.5
 42
0.0
 44
2.0
 73
     0
 74
     0
 77
     1
 78
     8
140
3.5
147
2.0
172
     1
173
     1
176
     2
177
     2
178
     2
271
     3
340
146
  0
DIMSTYLE
105
1F8
102
{ACAD_REACTORS
330
1F9
102
}
330
A
100
AcDbSymbolTableRecord
100
AcDbDimStyleTableRecord
  2
ME10_DIM_23
 70
     0
  3
x 7 tief
 41
3.5
 42
0.0
 44
2.0
 73
     0
 74
     0
 77
     1
 78
     8
140
3.5
147
2.0
172
     1
173
     1
176
     2
177
     2
178
     2
271
     2
340
146
  0
DIMSTYLE
105
203
102
{ACAD_REACTORS
330
204
102
}
330
A
100
AcDbSymbolTableRecord
100
AcDbDimStyleTableRecord
  2
ME10_DIM_24
 70
     0
 41
3.5
 42
0.0
 44
2.0
 73
     0
 74
     0
 77
     1
 78
     8
140
3.5
147
2.0
172
     1
173
     1
176
     2
177
     2
178
     2
271
     2
340
146
  0
DIMSTYLE
105
20E
102
{ACAD_REACTORS
330
20F
102
}
330
A
100
AcDbSymbolTableRecord
100
AcDbDimStyleTableRecord
  2
ME10_DIM_25
 70
     0
 41
3.5
 42
0.0
 44
2.0
 73
     0
 74
     0
 77
     1
 78
     8
140
3.5
147
2.0
172
     1
173
     1
176
     2
177
     2
178
     2
271
     2
340
146
  0
DIMSTYLE
105
219
102
{ACAD_REACTORS
330
21A
102
}
330
A
100
AcDbSymbolTableRecord
100
AcDbDimStyleTableRecord
  2
ME10_DIM_26
 70
     0
 41
3.5
 42
0.0
 44
2.0
 73
     0
 74
     0
 77
     1
 78
     8
140
3.5
147
2.0
172
     1
173
     1
176
     2
177
     2
178
     2
271
     2
340
146
  0
DIMSTYLE
105
226
102
{ACAD_REACTORS
330
227
102
}
330
A
100
AcDbSymbolTableRecord
100
AcDbDimStyleTableRecord
  2
ME10_DIM_27
 70
     0
 41
3.5
 42
0.0
 44
2.0
 73
     0
 74
     0
 77
     1
 78
     8
140
3.5
147
2.0
172
     1
173
     1
176
     2
177
     2
178
     2
271
     3
340
146
  0
DIMSTYLE
105
231
102
{ACAD_REACTORS
330
232
102
}
330
A
100
AcDbSymbolTableRecord
100
AcDbDimStyleTableRecord
  2
ME10_DIM_28
 70
     0
 41
3.5
 42
0.0
 44
2.0
 73
     0
 74
     0
 77
     1
 78
     8
140
3.5
147
2.0
172
     1
173
     1
176
     2
177
     2
178
     2
271
     3
340
146
  0
DIMSTYLE
105
23C
102
{ACAD_REACTORS
330
23D
102
}
330
A
100
AcDbSymbolTableRecord
100
AcDbDimStyleTableRecord
  2
ME10_DIM_29
 70
     0
 41
3.5
 42
0.0
 44
2.0
 73
     0
 74
     0
 77
     1
 78
     8
140
3.5
147
2.0
172
     1
173
     1
176
     2
177
     2
178
     2
271
     2
340
146
  0
DIMSTYLE
105
247
102
{ACAD_REACTORS
330
248
102
}
330
A
100
AcDbSymbolTableRecord
100
AcDbDimStyleTableRecord
  2
ME10_DIM_30
 70
     0
 41
3.5
 42
0.0
 44
2.0
 73
     0
 74
     0
 77
     1
 78
     8
140
3.5
147
2.0
172
     1
173
     1
176
     2
177
     2
178
     2
271
     3
340
146
  0
DIMSTYLE
105
252
102
{ACAD_REACTORS
330
253
102
}
330
A
100
AcDbSymbolTableRecord
100
AcDbDimStyleTableRecord
  2
ME10_DIM_31
 70
     0
 41
3.5
 42
0.0
 44
2.0
 73
     0
 74
     0
 77
     1
 78
     8
140
3.5
147
2.0
172
     1
173
     1
176
     2
177
     2
178
     2
271
     3
340
146
  0
ENDTAB
  0
TABLE
  2
BLOCK_RECORD
  5
1
330
0
100
AcDbSymbolTable
 70
    25
  0
BLOCK_RECORD
  5
1F
330
1
100
AcDbSymbolTableRecord
100
AcDbBlockTableRecord
  2
*Model_Space
340
22
  0
BLOCK_RECORD
  5
1B
330
1
100
AcDbSymbolTableRecord
100
AcDbBlockTableRecord
  2
*Paper_Space
340
1E
  0
BLOCK_RECORD
  5
23
330
1
100
AcDbSymbolTableRecord
100
AcDbBlockTableRecord
  2
*Paper_Space0
340
26
  0
BLOCK_RECORD
  5
158
330
1
100
AcDbSymbolTableRecord
100
AcDbBlockTableRecord
  2
*D1
340
0
  0
BLOCK_RECORD
  5
165
330
1
100
AcDbSymbolTableRecord
100
AcDbBlockTableRecord
  2
*D2
340
0
  0
BLOCK_RECORD
  5
170
330
1
100
AcDbSymbolTableRecord
100
AcDbBlockTableRecord
  2
*D3
340
0
  0
BLOCK_RECORD
  5
17C
330
1
100
AcDbSymbolTableRecord
100
AcDbBlockTableRecord
  2
*D4
340
0
  0
BLOCK_RECORD
  5
187
330
1
100
AcDbSymbolTableRecord
100
AcDbBlockTableRecord
  2
*D5
340
0
  0
BLOCK_RECORD
  5
192
330
1
100
AcDbSymbolTableRecord
100
AcDbBlockTableRecord
  2
*D6
340
0
  0
BLOCK_RECORD
  5
19D
330
1
100
AcDbSymbolTableRecord
100
AcDbBlockTableRecord
  2
*D7
340
0
  0
BLOCK_RECORD
  5
1A9
330
1
100
AcDbSymbolTableRecord
100
AcDbBlockTableRecord
  2
*D8
340
0
  0
BLOCK_RECORD
  5
1B4
330
1
100
AcDbSymbolTableRecord
100
AcDbBlockTableRecord
  2
*D9
340
0
  0
BLOCK_RECORD
  5
1C1
330
1
100
AcDbSymbolTableRecord
100
AcDbBlockTableRecord
  2
*D10
340
0
  0
BLOCK_RECORD
  5
1CC
330
1
100
AcDbSymbolTableRecord
100
AcDbBlockTableRecord
  2
*D11
340
0
  0
BLOCK_RECORD
  5
1D7
330
1
100
AcDbSymbolTableRecord
100
AcDbBlockTableRecord
  2
*D12
340
0
  0
BLOCK_RECORD
  5
1E2
330
1
100
AcDbSymbolTableRecord
100
AcDbBlockTableRecord
  2
*D13
340
0
  0
BLOCK_RECORD
  5
1EF
330
1
100
AcDbSymbolTableRecord
100
AcDbBlockTableRecord
  2
*D14
340
0
  0
BLOCK_RECORD
  5
1FA
330
1
100
AcDbSymbolTableRecord
100
AcDbBlockTableRecord
  2
*D15
340
0
  0
BLOCK_RECORD
  5
205
330
1
100
AcDbSymbolTableRecord
100
AcDbBlockTableRecord
  2
*D16
340
0
  0
BLOCK_RECORD
  5
210
330
1
100
AcDbSymbolTableRecord
100
AcDbBlockTableRecord
  2
*D17
340
0
  0
BLOCK_RECORD
  5
21B
330
1
100
AcDbSymbolTableRecord
100
AcDbBlockTableRecord
  2
*D18
340
0
  0
BLOCK_RECORD
  5
228
330
1
100
AcDbSymbolTableRecord
100
AcDbBlockTableRecord
  2
*D19
340
0
  0
BLOCK_RECORD
  5
233
330
1
100
AcDbSymbolTableRecord
100
AcDbBlockTableRecord
  2
*D20
340
0
  0
BLOCK_RECORD
  5
23E
330
1
100
AcDbSymbolTableRecord
100
AcDbBlockTableRecord
  2
*D21
340
0
  0
BLOCK_RECORD
  5
249
330
1
100
AcDbSymbolTableRecord
100
AcDbBlockTableRecord
  2
*D22
340
0
  0
BLOCK_RECORD
  5
254
330
1
100
AcDbSymbolTableRecord
100
AcDbBlockTableRecord
  2
*D23
340
0
102
{BLKREFS
331
25C
102
}
  0
BLOCK_RECORD
  5
25D
330
1
100
AcDbSymbolTableRecord
100
AcDbBlockTableRecord
  2
*D24
340
0
102
{BLKREFS
331
264
102
}
  0
ENDTAB
  0
ENDSEC
  0
SECTION
  2
BLOCKS
  0
BLOCK
  5
20
330
1F
100
AcDbEntity
  8
0
100
AcDbBlockBegin
  2
*Model_Space
 70
     0
 71
     0
 10
0.0
 20
0.0
 30
0.0
  3
*Model_Space
  1

  0
ENDBLK
  5
21
330
1F
100
AcDbEntity
  8
0
100
AcDbBlockEnd
  0
BLOCK
  5
1C
330
1B
100
AcDbEntity
 67
     1
  8
0
100
AcDbBlockBegin
  2
*Paper_Space
 70
     0
 71
     0
 10
0.0
 20
0.0
 30
0.0
  3
*Paper_Space
  1

  0
ENDBLK
  5
1D
330
1B
100
AcDbEntity
 67
     1
  8
0
100
AcDbBlockEnd
  0
BLOCK
  5
24
330
23
100
AcDbEntity
  8
0
100
AcDbBlockBegin
  2
*Paper_Space0
 70
     0
 71
     0
 10
0.0
 20
0.0
 30
0.0
  3
*Paper_Space0
  1

  0
ENDBLK
  5
25
330
23
100
AcDbEntity
  8
0
100
AcDbBlockEnd
  0
BLOCK
  5
161
330
158
100
AcDbEntity
  8
0
100
AcDbBlockBegin
  2
*D1
 70
     1
 71
     0
 10
0.0
 20
0.0
 30
0.0
  3
*D1
  1

  0
LINE
  5
159
330
158
100
AcDbEntity
  8
1
  6
Continuous
 62
     2
100
AcDbLine
 10
166.9828590909877
 20
-70.8600510892488
 30
0.0
 11
173.9828590909877
 21
-70.8600510892488
 31
0.0
  0
LINE
  5
15A
330
158
100
AcDbEntity
  8
1
  6
Continuous
 62
     2
100
AcDbLine
 10
158.9828590909877
 20
-70.8600510892488
 30
0.0
 11
166.9828590909877
 21
-70.8600510892488
 31
0.0
  0
LINE
  5
15B
330
158
100
AcDbEntity
  8
1
  6
Continuous
 62
     2
100
AcDbLine
 10
151.9828590909877
 20
-70.8600510892488
 30
0.0
 11
158.9828590909877
 21
-70.8600510892488
 31
0.0
  0
LINE
  5
15C
330
158
100
AcDbEntity
  8
1
  6
Continuous
 62
     2
100
AcDbLine
 10
158.9828590909877
 20
-74.07752408638262
 30
0.0
 11
158.9828590909877
 21
-68.8600510892488
 31
0.0
  0
LINE
  5
15D
330
158
100
AcDbEntity
  8
1
  6
Continuous
 62
     2
100
AcDbLine
 10
166.9828590909877
 20
-13.05390198767259
 30
0.0
 11
166.9828590909877
 21
-72.8600510892488
 31
0.0
  0
SOLID
  5
15E
330
158
100
AcDbEntity
  8
1
 62
     2
100
AcDbTrace
 10
155.4828590909877
 20
-71.32083483080469
 30
0.0
 11
155.4828590909877
 21
-70.39926734769291
 31
0.0
 12
158.9828590909877
 22
-70.8600510892488
 32
0.0
 13
158.9828590909877
 23
-70.8600510892488
 33
0.0
  0
SOLID
  5
15F
330
158
100
AcDbEntity
  8
1
 62
     2
100
AcDbTrace
 10
170.4828590909877
 20
-70.39926734769291
 30
0.0
 11
170.4828590909877
 21
-71.32083483080469
 31
0.0
 12
166.9828590909877
 22
-70.8600510892488
 32
0.0
 13
166.9828590909877
 23
-70.8600510892488
 33
0.0
  0
MTEXT
  5
160
330
158
100
AcDbEntity
  8
1
 62
     2
100
AcDbMText
 10
161.1992403585473
 20
-68.8600510892488
 30
0.0
 40
3.5
 41
0.0
 71
     7
 72
     1
  1
8
  7
CONVERTER_11
 11
0.9999999999970621
 21
2.424068405545307E-6
 31
0.0
 73
     1
 44
0.60024009603842
  0
ENDBLK
  5
162
330
158
100
AcDbEntity
  8
0
100
AcDbBlockEnd
  0
BLOCK
  5
16C
330
165
100
AcDbEntity
  8
0
100
AcDbBlockBegin
  2
*D2
 70
     1
 71
     0
 10
0.0
 20
0.0
 30
0.0
  3
*D2
  1

  0
LINE
  5
166
330
165
100
AcDbEntity
  8
1
  6
Continuous
 62
     2
100
AcDbLine
 10
133.9828590909877
 20
-179.2466173831278
 30
0.0
 11
166.9828590909877
 21
-179.2466173831278
 31
0.0
  0
LINE
  5
167
330
165
100
AcDbEntity
  8
1
  6
Continuous
 62
     2
100
AcDbLine
 10
166.9828590909877
 20
-149.0539019876726
 30
0.0
 11
166.9828590909877
 21
-181.2466173831278
 31
0.0
  0
LINE
  5
168
330
165
100
AcDbEntity
  8
1
  6
Continuous
 62
     2
100
AcDbLine
 10
133.9828590909877
 20
-167.0539019876727
 30
0.0
 11
133.9828590909877
 21
-181.2466173831278
 31
0.0
  0
SOLID
  5
169
330
165
100
AcDbEntity
  8
1
 62
     2
100
AcDbTrace
 10
137.4828590909877
 20
-178.7858336415719
 30
0.0
 11
137.4828590909877
 21
-179.7074011246837
 31
0.0
 12
133.9828590909877
 22
-179.2466173831278
 32
0.0
 13
133.9828590909877
 23
-179.2466173831278
 33
0.0
  0
SOLID
  5
16A
330
165
100
AcDbEntity
  8
1
 62
     2
100
AcDbTrace
 10
163.4828590909877
 20
-179.7074011246837
 30
0.0
 11
163.4828590909877
 21
-178.7858336415719
 31
0.0
 12
166.9828590909877
 22
-179.2466173831278
 32
0.0
 13
166.9828590909877
 23
-179.2466173831278
 33
0.0
  0
MTEXT
  5
16B
330
165
100
AcDbEntity
  8
1
 62
     2
100
AcDbMText
 10
147.4568547465967
 20
-177.2466173831278
 30
0.0
 40
3.5
 41
0.0
 71
     7
 72
     1
  1
33
  7
CONVERTER_11
 11
0.9999999999970621
 21
2.424068405545307E-6
 31
0.0
 73
     1
 44
0.60024009603842
  0
ENDBLK
  5
16D
330
165
100
AcDbEntity
  8
0
100
AcDbBlockEnd
  0
BLOCK
  5
178
330
170
100
AcDbEntity
  8
0
100
AcDbBlockBegin
  2
*D3
 70
     1
 71
     0
 10
0.0
 20
0.0
 30
0.0
  3
*D3
  1

  0
LINE
  5
171
330
170
100
AcDbEntity
  8
1
  6
Continuous
 62
     2
100
AcDbLine
 10
166.9828590909877
 20
-20.6057978423825
 30
0.0
 11
178.7870575616475
 21
-20.6057978423825
 31
0.0
  0
LINE
  5
172
330
170
100
AcDbEntity
  8
1
  6
Continuous
 62
     2
100
AcDbLine
 10
154.9828590909877
 20
-20.6057978423825
 30
0.0
 11
166.9828590909877
 21
-20.6057978423825
 31
0.0
  0
LINE
  5
173
330
170
100
AcDbEntity
  8
1
  6
Continuous
 62
     2
100
AcDbLine
 10
166.9828590909877
 20
-13.0539019876726
 30
0.0
 11
166.9828590909877
 21
-22.6057978423825
 31
0.0
  0
LINE
  5
174
330
170
100
AcDbEntity
  8
1
  6
Continuous
 62
     2
100
AcDbLine
 10
154.9828590909877
 20
-9.90390198767259
 30
0.0
 11
154.9828590909877
 21
-22.6057978423825
 31
0.0
  0
SOLID
  5
175
330
170
100
AcDbEntity
  8
1
 62
     2
100
AcDbTrace
 10
158.4828590909877
 20
-20.14501410082661
 30
0.0
 11
158.4828590909877
 21
-21.06658158393839
 31
0.0
 12
154.9828590909877
 22
-20.6057978423825
 32
0.0
 13
154.9828590909877
 23
-20.6057978423825
 33
0.0
  0
SOLID
  5
176
330
170
100
AcDbEntity
  8
1
 62
     2
100
AcDbTrace
 10
163.4828590909877
 20
-21.06658158393839
 30
0.0
 11
163.4828590909877
 21
-20.14501410082661
 31
0.0
 12
166.9828590909877
 22
-20.6057978423825
 32
0.0
 13
166.9828590909877
 23
-20.6057978423825
 33
0.0
  0
MTEXT
  5
177
330
170
100
AcDbEntity
  8
1
 62
     2
100
AcDbMText
 10
174.5870575616475
 20
-18.6057978423825
 30
0.0
 40
3.5
 41
0.0
 71
     7
 72
     1
  1
12
  7
CONVERTER_11
 11
0.9999999999970621
 21
2.424068405545307E-6
 31
0.0
 73
     1
 44
0.60024009603842
  0
ENDBLK
  5
179
330
170
100
AcDbEntity
  8
0
100
AcDbBlockEnd
  0
BLOCK
  5
183
330
17C
100
AcDbEntity
  8
0
100
AcDbBlockBegin
  2
*D4
 70
     1
 71
     0
 10
0.0
 20
0.0
 30
0.0
  3
*D4
  1

  0
LINE
  5
17D
330
17C
100
AcDbEntity
  8
1
  6
Continuous
 62
     2
100
AcDbLine
 10
144.9828590909877
 20
-55.9854168780717
 30
0.0
 11
166.9828590909877
 21
-55.9854168780717
 31
0.0
  0
LINE
  5
17E
330
17C
100
AcDbEntity
  8
1
  6
Continuous
 62
     2
100
AcDbLine
 10
144.9828590909877
 20
-50.20390198767261
 30
0.0
 11
144.9828590909877
 21
-57.9854168780717
 31
0.0
  0
LINE
  5
17F
330
17C
100
AcDbEntity
  8
1
  6
Continuous
 62
     2
100
AcDbLine
 10
166.9828590909877
 20
-13.05390198767261
 30
0.0
 11
166.9828590909877
 21
-57.9854168780717
 31
0.0
  0
SOLID
  5
180
330
17C
100
AcDbEntity
  8
1
 62
     2
100
AcDbTrace
 10
148.4828590909877
 20
-55.52463313651582
 30
0.0
 11
148.4828590909877
 21
-56.44620061962759
 31
0.0
 12
144.9828590909877
 22
-55.9854168780717
 32
0.0
 13
144.9828590909877
 23
-55.9854168780717
 33
0.0
  0
SOLID
  5
181
330
17C
100
AcDbEntity
  8
1
 62
     2
100
AcDbTrace
 10
163.4828590909877
 20
-56.44620061962759
 30
0.0
 11
163.4828590909877
 21
-55.52463313651582
 31
0.0
 12
166.9828590909877
 22
-55.9854168780717
 32
0.0
 13
166.9828590909877
 23
-55.9854168780717
 33
0.0
  0
MTEXT
  5
182
330
17C
100
AcDbEntity
  8
1
 62
     2
100
AcDbMText
 10
153.7216077350644
 20
-53.9854168780717
 30
0.0
 40
3.5
 41
0.0
 71
     7
 72
     1
  1
22
  7
CONVERTER_11
 11
0.9999999999970621
 21
2.424068405545307E-6
 31
0.0
 73
     1
 44
0.60024009603842
  0
ENDBLK
  5
184
330
17C
100
AcDbEntity
  8
0
100
AcDbBlockEnd
  0
BLOCK
  5
18E
330
187
100
AcDbEntity
  8
0
100
AcDbBlockBegin
  2
*D5
 70
     1
 71
     0
 10
0.0
 20
0.0
 30
0.0
  3
*D5
  1

  0
LINE
  5
188
330
187
100
AcDbEntity
  8
1
  6
Continuous
 62
     2
100
AcDbLine
 10
195.512403475962
 20
-115.0539019876726
 30
0.0
 11
195.512403475962
 21
-47.0539019876726
 31
0.0
  0
LINE
  5
189
330
187
100
AcDbEntity
  8
1
  6
Continuous
 62
     2
100
AcDbLine
 10
148.1328590909877
 20
-115.0539019876726
 30
0.0
 11
197.512403475962
 21
-115.0539019876726
 31
0.0
  0
LINE
  5
18A
330
187
100
AcDbEntity
  8
1
  6
Continuous
 62
     2
100
AcDbLine
 10
148.1328590909877
 20
-47.0539019876726
 30
0.0
 11
197.512403475962
 21
-47.0539019876726
 31
0.0
  0
SOLID
  5
18B
330
187
100
AcDbEntity
  8
1
 62
     2
100
AcDbTrace
 10
195.0516197344061
 20
-111.5539019876726
 30
0.0
 11
195.9731872175179
 21
-111.5539019876726
 31
0.0
 12
195.512403475962
 22
-115.0539019876726
 32
0.0
 13
195.512403475962
 23
-115.0539019876726
 33
0.0
  0
SOLID
  5
18C
330
187
100
AcDbEntity
  8
1
 62
     2
100
AcDbTrace
 10
195.9731872175179
 20
-50.5539019876726
 30
0.0
 11
195.0516197344061
 21
-50.5539019876726
 31
0.0
 12
195.512403475962
 22
-47.0539019876726
 32
0.0
 13
195.512403475962
 23
-47.0539019876726
 33
0.0
  0
MTEXT
  5
18D
330
187
100
AcDbEntity
  8
1
 62
     2
100
AcDbMText
 10
193.512403475962
 20
-89.09568609427272
 30
0.0
 40
3.5
 41
0.0
 71
     7
 72
     1
  1
68
  7
CONVERTER_11
 11
0.0
 21
1.0
 31
0.0
 73
     1
 44
0.60024009603842
  0
ENDBLK
  5
18F
330
187
100
AcDbEntity
  8
0
100
AcDbBlockEnd
  0
BLOCK
  5
199
330
192
100
AcDbEntity
  8
0
100
AcDbBlockBegin
  2
*D6
 70
     1
 71
     0
 10
0.0
 20
0.0
 30
0.0
  3
*D6
  1

  0
LINE
  5
193
330
192
100
AcDbEntity
  8
1
  6
Continuous
 62
     2
100
AcDbLine
 10
203.0677732340202
 20
-149.0539019876726
 30
0.0
 11
203.0677732340202
 21
-13.0539019876726
 31
0.0
  0
LINE
  5
194
330
192
100
AcDbEntity
  8
1
  6
Continuous
 62
     2
100
AcDbLine
 10
158.1328590909877
 20
-149.0539019876726
 30
0.0
 11
205.0677732340202
 21
-149.0539019876726
 31
0.0
  0
LINE
  5
195
330
192
100
AcDbEntity
  8
1
  6
Continuous
 62
     2
100
AcDbLine
 10
158.1328590909877
 20
-13.0539019876726
 30
0.0
 11
205.0677732340202
 21
-13.0539019876726
 31
0.0
  0
SOLID
  5
196
330
192
100
AcDbEntity
  8
1
 62
     2
100
AcDbTrace
 10
202.6069894924643
 20
-145.5539019876726
 30
0.0
 11
203.5285569755761
 21
-145.5539019876726
 31
0.0
 12
203.0677732340202
 22
-149.0539019876726
 32
0.0
 13
203.0677732340202
 23
-149.0539019876726
 33
0.0
  0
SOLID
  5
197
330
192
100
AcDbEntity
  8
1
 62
     2
100
AcDbTrace
 10
203.5285569755761
 20
-16.5539019876726
 30
0.0
 11
202.6069894924643
 21
-16.5539019876726
 31
0.0
 12
203.0677732340202
 22
-13.0539019876726
 32
0.0
 13
203.0677732340202
 23
-13.0539019876726
 33
0.0
  0
MTEXT
  5
198
330
192
100
AcDbEntity
  8
1
 62
     2
100
AcDbMText
 10
201.0677732340202
 20
-78.10431554236747
 30
0.0
 40
3.5
 41
0.0
 71
     7
 72
     1
  1
136
  7
CONVERTER_11
 11
0.0
 21
1.0
 31
0.0
 73
     1
 44
0.60024009603842
  0
ENDBLK
  5
19A
330
192
100
AcDbEntity
  8
0
100
AcDbBlockEnd
  0
BLOCK
  5
1A5
330
19D
100
AcDbEntity
  8
0
100
AcDbBlockBegin
  2
*D7
 70
     1
 71
     0
 10
0.0
 20
0.0
 30
0.0
  3
*D7
  1

  0
LINE
  5
19E
330
19D
100
AcDbEntity
  8
1
  6
Continuous
 62
     2
100
AcDbLine
 10
211.5675642118357
 20
-81.05390198767262
 30
0.0
 11
211.5675642118357
 21
-1.05390198767261
 31
0.0
  0
LINE
  5
19F
330
19D
100
AcDbEntity
  8
1
  6
Continuous
 62
     2
100
AcDbLine
 10
187.7329652480997
 20
-81.05390198767262
 30
0.0
 11
193.1213596291398
 21
-81.05390198767262
 31
0.0
  0
LINE
  5
1A0
330
19D
100
AcDbEntity
  8
1
  6
Continuous
 62
     2
100
AcDbLine
 10
206.2253967479997
 20
-81.05390198767262
 30
0.0
 11
213.5675642118357
 21
-81.05390198767262
 31
0.0
  0
LINE
  5
1A1
330
19D
100
AcDbEntity
  8
1
  6
Continuous
 62
     2
100
AcDbLine
 10
154.9828590909877
 20
-1.05390198767261
 30
0.0
 11
213.5675642118357
 21
-1.05390198767261
 31
0.0
  0
SOLID
  5
1A2
330
19D
100
AcDbEntity
  8
1
 62
     2
100
AcDbTrace
 10
212.0283479533916
 20
-4.55390198767261
 30
0.0
 11
211.1067804702798
 21
-4.55390198767261
 31
0.0
 12
211.5675642118357
 22
-1.05390198767261
 32
0.0
 13
211.5675642118357
 23
-1.05390198767261
 33
0.0
  0
SOLID
  5
1A3
330
19D
100
AcDbEntity
  8
1
 62
     2
100
AcDbTrace
 10
211.1067804702798
 20
-77.55390198767262
 30
0.0
 11
212.0283479533916
 21
-77.55390198767262
 31
0.0
 12
211.5675642118357
 22
-81.05390198767262
 32
0.0
 13
211.5675642118357
 23
-81.05390198767262
 33
0.0
  0
MTEXT
  5
1A4
330
19D
100
AcDbEntity
  8
1
 62
     2
100
AcDbMText
 10
209.5675642118357
 20
-49.6661001694065
 30
0.0
 40
3.5
 41
0.0
 71
     7
 72
     1
  1
80
  7
CONVERTER_11
 11
0.0
 21
1.0
 31
0.0
 73
     1
 44
0.60024009603842
  0
ENDBLK
  5
1A6
330
19D
100
AcDbEntity
  8
0
100
AcDbBlockEnd
  0
BLOCK
  5
1B0
330
1A9
100
AcDbEntity
  8
0
100
AcDbBlockBegin
  2
*D8
 70
     1
 71
     0
 10
0.0
 20
0.0
 30
0.0
  3
*D8
  1

  0
LINE
  5
1AA
330
1A9
100
AcDbEntity
  8
1
  6
Continuous
 62
     2
100
AcDbLine
 10
221.0117764094084
 20
-161.0539019876726
 30
0.0
 11
221.0117764094084
 21
-1.0539019876726
 31
0.0
  0
LINE
  5
1AB
330
1A9
100
AcDbEntity
  8
1
  6
Continuous
 62
     2
100
AcDbLine
 10
154.9828590909877
 20
-161.0539019876726
 30
0.0
 11
223.0117764094084
 21
-161.0539019876726
 31
0.0
  0
LINE
  5
1AC
330
1A9
100
AcDbEntity
  8
1
  6
Continuous
 62
     2
100
AcDbLine
 10
154.9828590909877
 20
-1.0539019876726
 30
0.0
 11
223.0117764094084
 21
-1.0539019876726
 31
0.0
  0
SOLID
  5
1AD
330
1A9
100
AcDbEntity
  8
1
 62
     2
100
AcDbTrace
 10
221.4725601509643
 20
-4.5539019876726
 30
0.0
 11
220.5509926678525
 21
-4.5539019876726
 31
0.0
 12
221.0117764094084
 22
-1.0539019876726
 32
0.0
 13
221.0117764094084
 23
-1.0539019876726
 33
0.0
  0
SOLID
  5
1AE
330
1A9
100
AcDbEntity
  8
1
 62
     2
100
AcDbTrace
 10
220.5509926678525
 20
-157.5539019876726
 30
0.0
 11
221.4725601509643
 21
-157.5539019876726
 31
0.0
 12
221.0117764094084
 22
-161.0539019876726
 32
0.0
 13
221.0117764094084
 23
-161.0539019876726
 33
0.0
  0
MTEXT
  5
1AF
330
1A9
100
AcDbEntity
  8
1
 62
     2
100
AcDbMText
 10
219.0117764094084
 20
-84.9513693856077
 30
0.0
 40
3.5
 41
0.0
 71
     7
 72
     1
  1
160
  7
CONVERTER_11
 11
0.0
 21
1.0
 31
0.0
 73
     1
 44
0.60024009603842
  0
ENDBLK
  5
1B1
330
1A9
100
AcDbEntity
  8
0
100
AcDbBlockEnd
  0
BLOCK
  5
1BD
330
1B4
100
AcDbEntity
  8
0
100
AcDbBlockBegin
  2
*D9
 70
     1
 71
     0
 10
0.0
 20
0.0
 30
0.0
  3
*D9
  1

  0
LINE
  5
1B5
330
1B4
100
AcDbEntity
  8
1
  6
Continuous
 62
     2
100
AcDbLine
 10
125.1530226040447
 20
-213.9899080356856
 30
0.0
 11
125.1530226040447
 21
-206.9899080356856
 31
0.0
  0
LINE
  5
1B6
330
1B4
100
AcDbEntity
  8
1
  6
Continuous
 62
     2
100
AcDbLine
 10
125.1530226040447
 20
-206.9899080356856
 30
0.0
 11
125.1530226040447
 21
-203.4899080356856
 31
0.0
  0
LINE
  5
1B7
330
1B4
100
AcDbEntity
  8
1
  6
Continuous
 62
     2
100
AcDbLine
 10
125.1530226040447
 20
-203.4899080356856
 30
0.0
 11
125.1530226040447
 21
-193.1310281152566
 31
0.0
  0
LINE
  5
1B8
330
1B4
100
AcDbEntity
  8
1
  6
Continuous
 62
     2
100
AcDbLine
 10
133.9828590909877
 20
-206.9899080356856
 30
0.0
 11
123.1530226040447
 21
-206.9899080356856
 31
0.0
  0
LINE
  5
1B9
330
1B4
100
AcDbEntity
  8
1
  6
Continuous
 62
     2
100
AcDbLine
 10
133.9828590909877
 20
-203.4899080356856
 30
0.0
 11
123.1530226040447
 21
-203.4899080356856
 31
0.0
  0
SOLID
  5
1BA
330
1B4
100
AcDbEntity
  8
1
 62
     2
100
AcDbTrace
 10
125.6138063456006
 20
-210.4899080356856
 30
0.0
 11
124.6922388624888
 21
-210.4899080356856
 31
0.0
 12
125.1530226040447
 22
-206.9899080356856
 32
0.0
 13
125.1530226040447
 23
-206.9899080356856
 33
0.0
  0
SOLID
  5
1BB
330
1B4
100
AcDbEntity
  8
1
 62
     2
100
AcDbTrace
 10
124.6922388624888
 20
-199.9899080356856
 30
0.0
 11
125.6138063456006
 21
-199.9899080356856
 31
0.0
 12
125.1530226040447
 22
-203.4899080356856
 32
0.0
 13
125.1530226040447
 23
-203.4899080356856
 33
0.0
  0
MTEXT
  5
1BC
330
1B4
100
AcDbEntity
  8
1
 62
     2
100
AcDbMText
 10
123.1530226040447
 20
-199.5185281152566
 30
0.0
 40
3.5
 41
0.0
 71
     7
 72
     1
  1
3.5
  7
CONVERTER_11
 11
0.0
 21
1.0
 31
0.0
 73
     1
 44
0.60024009603842
  0
ENDBLK
  5
1BE
330
1B4
100
AcDbEntity
  8
0
100
AcDbBlockEnd
  0
BLOCK
  5
1C8
330
1C1
100
AcDbEntity
  8
0
100
AcDbBlockBegin
  2
*D10
 70
     1
 71
     0
 10
0.0
 20
0.0
 30
0.0
  3
*D10
  1

  0
LINE
  5
1C2
330
1C1
100
AcDbEntity
  8
1
  6
Continuous
 62
     2
100
AcDbLine
 10
-158.549542197713
 20
-12.22174383720309
 30
0.0
 11
-158.549542197713
 21
-208.2217438372031
 31
0.0
  0
LINE
  5
1C3
330
1C1
100
AcDbEntity
  8
1
  6
Continuous
 62
     2
100
AcDbLine
 10
-108.3612348384092
 20
-208.2217438372031
 30
0.0
 11
-160.549542197713
 21
-208.2217438372031
 31
0.0
  0
LINE
  5
1C4
330
1C1
100
AcDbEntity
  8
1
  6
Continuous
 62
     2
100
AcDbLine
 10
-108.3612348384092
 20
-12.22174383720309
 30
0.0
 11
-160.549542197713
 21
-12.22174383720309
 31
0.0
  0
SOLID
  5
1C5
330
1C1
100
AcDbEntity
  8
1
 62
     2
100
AcDbTrace
 10
-158.0887584561571
 20
-15.72174383720309
 30
0.0
 11
-159.0103259392689
 21
-15.72174383720309
 31
0.0
 12
-158.549542197713
 22
-12.22174383720309
 32
0.0
 13
-158.549542197713
 23
-12.22174383720309
 33
0.0
  0
SOLID
  5
1C6
330
1C1
100
AcDbEntity
  8
1
 62
     2
100
AcDbTrace
 10
-159.0103259392689
 20
-204.7217438372031
 30
0.0
 11
-158.0887584561571
 21
-204.7217438372031
 31
0.0
 12
-158.549542197713
 22
-208.2217438372031
 32
0.0
 13
-158.549542197713
 23
-208.2217438372031
 33
0.0
  0
MTEXT
  5
1C7
330
1C1
100
AcDbEntity
  8
1
 62
     2
100
AcDbMText
 10
-160.549542197713
 20
-129.950624465565
 30
0.0
 40
3.5
 41
0.0
 71
     7
 72
     1
  1
196x 10.5 tief
  7
CONVERTER_11
 11
0.0
 21
1.0
 31
0.0
 73
     1
 44
0.60024009603842
  0
ENDBLK
  5
1C9
330
1C1
100
AcDbEntity
  8
0
100
AcDbBlockEnd
  0
BLOCK
  5
1D3
330
1CC
100
AcDbEntity
  8
0
100
AcDbBlockBegin
  2
*D11
 70
     1
 71
     0
 10
0.0
 20
0.0
 30
0.0
  3
*D11
  1

  0
LINE
  5
1CD
330
1CC
100
AcDbEntity
  8
1
  6
Continuous
 62
     2
100
AcDbLine
 10
-148.836514632886
 20
-30.22174383720309
 30
0.0
 11
-148.836514632886
 21
-190.2217438372031
 31
0.0
  0
LINE
  5
1CE
330
1CC
100
AcDbEntity
  8
1
  6
Continuous
 62
     2
100
AcDbLine
 10
-108.3612348384094
 20
-190.2217438372031
 30
0.0
 11
-150.836514632886
 21
-190.2217438372031
 31
0.0
  0
LINE
  5
1CF
330
1CC
100
AcDbEntity
  8
1
  6
Continuous
 62
     2
100
AcDbLine
 10
-108.3612348384094
 20
-30.22174383720309
 30
0.0
 11
-150.836514632886
 21
-30.22174383720309
 31
0.0
  0
SOLID
  5
1D0
330
1CC
100
AcDbEntity
  8
1
 62
     2
100
AcDbTrace
 10
-148.3757308913301
 20
-33.72174383720309
 30
0.0
 11
-149.2972983744419
 21
-33.72174383720309
 31
0.0
 12
-148.836514632886
 22
-30.22174383720309
 32
0.0
 13
-148.836514632886
 23
-30.22174383720309
 33
0.0
  0
SOLID
  5
1D1
330
1CC
100
AcDbEntity
  8
1
 62
     2
100
AcDbTrace
 10
-149.2972983744419
 20
-186.7217438372031
 30
0.0
 11
-148.3757308913301
 21
-186.7217438372031
 31
0.0
 12
-148.836514632886
 22
-190.2217438372031
 32
0.0
 13
-148.836514632886
 23
-190.2217438372031
 33
0.0
  0
MTEXT
  5
1D2
330
1CC
100
AcDbEntity
  8
1
 62
     2
100
AcDbMText
 10
-150.836514632886
 20
-130.617926155144
 30
0.0
 40
3.5
 41
0.0
 71
     7
 72
     1
  1
160x 22.5 tief
  7
CONVERTER_11
 11
0.0
 21
1.0
 31
0.0
 73
     1
 44
0.60024009603842
  0
ENDBLK
  5
1D4
330
1CC
100
AcDbEntity
  8
0
100
AcDbBlockEnd
  0
BLOCK
  5
1DE
330
1D7
100
AcDbEntity
  8
0
100
AcDbBlockBegin
  2
*D12
 70
     1
 71
     0
 10
0.0
 20
0.0
 30
0.0
  3
*D12
  1

  0
LINE
  5
1D8
330
1D7
100
AcDbEntity
  8
1
  6
Continuous
 62
     2
100
AcDbLine
 10
-149.849758919315
 20
-266.2217438372036
 30
0.0
 11
-149.849758919315
 21
-255.7217438372035
 31
0.0
  0
LINE
  5
1D9
330
1D7
100
AcDbEntity
  8
1
  6
Continuous
 62
     2
100
AcDbLine
 10
-120.3612348384092
 20
-255.7217438372035
 30
0.0
 11
-151.849758919315
 21
-255.7217438372035
 31
0.0
  0
LINE
  5
1DA
330
1D7
100
AcDbEntity
  8
1
  6
Continuous
 62
     2
100
AcDbLine
 10
-128.3612348384092
 20
-266.2217438372036
 30
0.0
 11
-151.849758919315
 21
-266.2217438372036
 31
0.0
  0
SOLID
  5
1DB
330
1D7
100
AcDbEntity
  8
1
 62
     2
100
AcDbTrace
 10
-150.3105426608709
 20
-262.7217438372036
 30
0.0
 11
-149.3889751777591
 21
-262.7217438372036
 31
0.0
 12
-149.849758919315
 22
-266.2217438372036
 32
0.0
 13
-149.849758919315
 23
-266.2217438372036
 33
0.0
  0
SOLID
  5
1DC
330
1D7
100
AcDbEntity
  8
1
 62
     2
100
AcDbTrace
 10
-149.3889751777591
 20
-259.2217438372035
 30
0.0
 11
-150.3105426608709
 21
-259.2217438372035
 31
0.0
 12
-149.849758919315
 22
-255.7217438372035
 32
0.0
 13
-149.849758919315
 23
-255.7217438372035
 33
0.0
  0
MTEXT
  5
1DD
330
1D7
100
AcDbEntity
  8
1
 62
     2
100
AcDbMText
 10
-151.849758919315
 20
-265.807035309812
 30
0.0
 40
3.5
 41
0.0
 71
     7
 72
     1
  1
10.5
  7
CONVERTER_11
 11
0.0
 21
1.0
 31
0.0
 73
     1
 44
0.60024009603842
  0
ENDBLK
  5
1DF
330
1D7
100
AcDbEntity
  8
0
100
AcDbBlockEnd
  0
BLOCK
  5
1EB
330
1E2
100
AcDbEntity
  8
0
100
AcDbBlockBegin
  2
*D13
 70
     1
 71
     0
 10
0.0
 20
0.0
 30
0.0
  3
*D13
  1

  0
LINE
  5
1E3
330
1E2
100
AcDbEntity
  8
1
  6
Continuous
 62
     2
100
AcDbLine
 10
-138.980815859366
 20
-259.2217438372033
 30
0.0
 11
-138.980815859366
 21
-252.2217438372033
 31
0.0
  0
LINE
  5
1E4
330
1E2
100
AcDbEntity
  8
1
  6
Continuous
 62
     2
100
AcDbLine
 10
-138.980815859366
 20
-266.2217438372036
 30
0.0
 11
-138.980815859366
 21
-259.2217438372033
 31
0.0
  0
LINE
  5
1E5
330
1E2
100
AcDbEntity
  8
1
  6
Continuous
 62
     2
100
AcDbLine
 10
-138.980815859366
 20
-273.2217438372036
 30
0.0
 11
-138.980815859366
 21
-266.2217438372036
 31
0.0
  0
LINE
  5
1E6
330
1E2
100
AcDbEntity
  8
1
  6
Continuous
 62
     2
100
AcDbLine
 10
-128.3612348384092
 20
-259.2217438372033
 30
0.0
 11
-140.980815859366
 21
-259.2217438372033
 31
0.0
  0
LINE
  5
1E7
330
1E2
100
AcDbEntity
  8
1
  6
Continuous
 62
     2
100
AcDbLine
 10
-128.3612348384092
 20
-266.2217438372036
 30
0.0
 11
-140.980815859366
 21
-266.2217438372036
 31
0.0
  0
SOLID
  5
1E8
330
1E2
100
AcDbEntity
  8
1
 62
     2
100
AcDbTrace
 10
-138.5200321178101
 20
-269.7217438372036
 30
0.0
 11
-139.4415996009219
 21
-269.7217438372036
 31
0.0
 12
-138.980815859366
 22
-266.2217438372036
 32
0.0
 13
-138.980815859366
 23
-266.2217438372036
 33
0.0
  0
SOLID
  5
1E9
330
1E2
100
AcDbEntity
  8
1
 62
     2
100
AcDbTrace
 10
-139.4415996009219
 20
-255.7217438372033
 30
0.0
 11
-138.5200321178101
 21
-255.7217438372033
 31
0.0
 12
-138.980815859366
 22
-259.2217438372033
 32
0.0
 13
-138.980815859366
 23
-259.2217438372033
 33
0.0
  0
MTEXT
  5
1EA
330
1E2
100
AcDbEntity
  8
1
 62
     2
100
AcDbMText
 10
-140.980815859366
 20
-263.873452621111
 30
0.0
 40
3.5
 41
0.0
 71
     7
 72
     1
  1
7
  7
CONVERTER_11
 11
0.0
 21
1.0
 31
0.0
 73
     1
 44
0.60024009603842
  0
ENDBLK
  5
1EC
330
1E2
100
AcDbEntity
  8
0
100
AcDbBlockEnd
  0
BLOCK
  5
1F6
330
1EF
100
AcDbEntity
  8
0
100
AcDbBlockBegin
  2
*D14
 70
     1
 71
     0
 10
0.0
 20
0.0
 30
0.0
  3
*D14
  1

  0
LINE
  5
1F0
330
1EF
100
AcDbEntity
  8
1
  6
Continuous
 62
     2
100
AcDbLine
 10
-137.7585031064025
 20
-65.22174383720314
 30
0.0
 11
-137.7585031064025
 21
-155.2217438372032
 31
0.0
  0
LINE
  5
1F1
330
1EF
100
AcDbEntity
  8
1
  6
Continuous
 62
     2
100
AcDbLine
 10
-128.3612348384091
 20
-155.2217438372032
 30
0.0
 11
-139.7585031064025
 21
-155.2217438372032
 31
0.0
  0
LINE
  5
1F2
330
1EF
100
AcDbEntity
  8
1
  6
Continuous
 62
     2
100
AcDbLine
 10
-128.3612348384091
 20
-65.22174383720314
 30
0.0
 11
-139.7585031064025
 21
-65.22174383720314
 31
0.0
  0
SOLID
  5
1F3
330
1EF
100
AcDbEntity
  8
1
 62
     2
100
AcDbTrace
 10
-137.2977193648466
 20
-68.72174383720314
 30
0.0
 11
-138.2192868479584
 21
-68.72174383720314
 31
0.0
 12
-137.7585031064025
 22
-65.22174383720314
 32
0.0
 13
-137.7585031064025
 23
-65.22174383720314
 33
0.0
  0
SOLID
  5
1F4
330
1EF
100
AcDbEntity
  8
1
 62
     2
100
AcDbTrace
 10
-138.2192868479584
 20
-151.7217438372032
 30
0.0
 11
-137.2977193648466
 21
-151.7217438372032
 31
0.0
 12
-137.7585031064025
 22
-155.2217438372032
 32
0.0
 13
-137.7585031064025
 23
-155.2217438372032
 33
0.0
  0
MTEXT
  5
1F5
330
1EF
100
AcDbEntity
  8
1
 62
     2
100
AcDbMText
 10
-139.7585031064025
 20
-124.007367485239
 30
0.0
 40
3.5
 41
0.0
 71
     7
 72
     1
  1
\C2;90\C2;x 7 tief
  7
CONVERTER_11
 11
0.0
 21
1.0
 31
0.0
 73
     1
 44
0.60024009603842
  0
ENDBLK
  5
1F7
330
1EF
100
AcDbEntity
  8
0
100
AcDbBlockEnd
  0
BLOCK
  5
201
330
1FA
100
AcDbEntity
  8
0
100
AcDbBlockBegin
  2
*D15
 70
     1
 71
     0
 10
0.0
 20
0.0
 30
0.0
  3
*D15
  1

  0
LINE
  5
1FB
330
1FA
100
AcDbEntity
  8
1
  6
Continuous
 62
     2
100
AcDbLine
 10
-96.3612348384093
 20
-178.8142366950589
 30
0.0
 11
-120.3612348384093
 21
-178.8142366950589
 31
0.0
  0
LINE
  5
1FC
330
1FA
100
AcDbEntity
  8
1
  6
Continuous
 62
     2
100
AcDbLine
 10
-120.3612348384093
 20
-196.2217438372031
 30
0.0
 11
-120.3612348384093
 21
-176.8142366950589
 31
0.0
  0
LINE
  5
1FD
330
1FA
100
AcDbEntity
  8
1
  6
Continuous
 62
     2
100
AcDbLine
 10
-96.3612348384093
 20
-196.2217438372031
 30
0.0
 11
-96.3612348384093
 21
-176.8142366950589
 31
0.0
  0
SOLID
  5
1FE
330
1FA
100
AcDbEntity
  8
1
 62
     2
100
AcDbTrace
 10
-99.8612348384093
 20
-179.2750204366148
 30
0.0
 11
-99.8612348384093
 21
-178.353452953503
 31
0.0
 12
-96.3612348384093
 22
-178.8142366950589
 32
0.0
 13
-96.3612348384093
 23
-178.8142366950589
 33
0.0
  0
SOLID
  5
1FF
330
1FA
100
AcDbEntity
  8
1
 62
     2
100
AcDbTrace
 10
-116.8612348384093
 20
-178.353452953503
 30
0.0
 11
-116.8612348384093
 21
-179.2750204366148
 31
0.0
 12
-120.3612348384093
 22
-178.8142366950589
 32
0.0
 13
-120.3612348384093
 23
-178.8142366950589
 33
0.0
  0
MTEXT
  5
200
330
1FA
100
AcDbEntity
  8
1
 62
     2
100
AcDbMText
 10
-110.8756251063298
 20
-176.8142366950589
 30
0.0
 40
3.5
 41
0.0
 71
     7
 72
     1
  1
24
  7
CONVERTER_11
 11
0.9999999999970621
 21
2.424068405545307E-6
 31
0.0
 73
     1
 44
0.60024009603842
  0
ENDBLK
  5
202
330
1FA
100
AcDbEntity
  8
0
100
AcDbBlockEnd
  0
BLOCK
  5
20C
330
205
100
AcDbEntity
  8
0
100
AcDbBlockBegin
  2
*D16
 70
     1
 71
     0
 10
0.0
 20
0.0
 30
0.0
  3
*D16
  1

  0
LINE
  5
206
330
205
100
AcDbEntity
  8
1
  6
Continuous
 62
     2
100
AcDbLine
 10
-77.96217422340436
 20
-266.2217438372032
 30
0.0
 11
-77.96217422340436
 21
-243.7217438372035
 31
0.0
  0
LINE
  5
207
330
205
100
AcDbEntity
  8
1
  6
Continuous
 62
     2
100
AcDbLine
 10
-96.36123483840927
 20
-243.7217438372035
 30
0.0
 11
-75.96217422340436
 21
-243.7217438372035
 31
0.0
  0
LINE
  5
208
330
205
100
AcDbEntity
  8
1
  6
Continuous
 62
     2
100
AcDbLine
 10
-86.36123483840927
 20
-266.2217438372032
 30
0.0
 11
-75.96217422340436
 21
-266.2217438372032
 31
0.0
  0
SOLID
  5
209
330
205
100
AcDbEntity
  8
1
 62
     2
100
AcDbTrace
 10
-78.42295796496025
 20
-262.7217438372032
 30
0.0
 11
-77.50139048184847
 21
-262.7217438372032
 31
0.0
 12
-77.96217422340436
 22
-266.2217438372032
 32
0.0
 13
-77.96217422340436
 23
-266.2217438372032
 33
0.0
  0
SOLID
  5
20A
330
205
100
AcDbEntity
  8
1
 62
     2
100
AcDbTrace
 10
-77.50139048184847
 20
-247.2217438372035
 30
0.0
 11
-78.42295796496025
 21
-247.2217438372035
 31
0.0
 12
-77.96217422340436
 22
-243.7217438372035
 32
0.0
 13
-77.96217422340436
 23
-243.7217438372035
 33
0.0
  0
MTEXT
  5
20B
330
205
100
AcDbEntity
  8
1
 62
     2
100
AcDbMText
 10
-79.96217422340436
 20
-259.3876074446886
 30
0.0
 40
3.5
 41
0.0
 71
     7
 72
     1
  1
22.5
  7
CONVERTER_11
 11
0.0
 21
1.0
 31
0.0
 73
     1
 44
0.60024009603842
  0
ENDBLK
  5
20D
330
205
100
AcDbEntity
  8
0
100
AcDbBlockEnd
  0
BLOCK
  5
217
330
210
100
AcDbEntity
  8
0
100
AcDbBlockBegin
  2
*D17
 70
     1
 71
     0
 10
0.0
 20
0.0
 30
0.0
  3
*D17
  1

  0
LINE
  5
211
330
210
100
AcDbEntity
  8
1
  6
Continuous
 62
     2
100
AcDbLine
 10
-86.36123483840927
 20
-276.9284128177895
 30
0.0
 11
-96.36123483840927
 21
-276.9284128177895
 31
0.0
  0
LINE
  5
212
330
210
100
AcDbEntity
  8
1
  6
Continuous
 62
     2
100
AcDbLine
 10
-96.36123483840927
 20
-266.2217438372032
 30
0.0
 11
-96.36123483840927
 21
-278.9284128177895
 31
0.0
  0
LINE
  5
213
330
210
100
AcDbEntity
  8
1
  6
Continuous
 62
     2
100
AcDbLine
 10
-86.36123483840927
 20
-266.2217438372032
 30
0.0
 11
-86.36123483840927
 21
-278.9284128177895
 31
0.0
  0
SOLID
  5
214
330
210
100
AcDbEntity
  8
1
 62
     2
100
AcDbTrace
 10
-89.86123483840927
 20
-277.3891965593454
 30
0.0
 11
-89.86123483840927
 21
-276.4676290762336
 31
0.0
 12
-86.36123483840927
 22
-276.9284128177895
 32
0.0
 13
-86.36123483840927
 23
-276.9284128177895
 33
0.0
  0
SOLID
  5
215
330
210
100
AcDbEntity
  8
1
 62
     2
100
AcDbTrace
 10
-92.86123483840927
 20
-276.4676290762336
 30
0.0
 11
-92.86123483840927
 21
-277.3891965593454
 31
0.0
 12
-96.36123483840927
 22
-276.9284128177895
 32
0.0
 13
-96.36123483840927
 23
-276.9284128177895
 33
0.0
  0
MTEXT
  5
216
330
210
100
AcDbEntity
  8
1
 62
     2
100
AcDbMText
 10
-92.68278934327847
 20
-274.9284128177895
 30
0.0
 40
3.5
 41
0.0
 71
     7
 72
     1
  1
X
  7
CONVERTER_11
 11
0.9999999999970621
 21
2.424068405545307E-6
 31
0.0
 73
     1
 44
0.60024009603842
  0
ENDBLK
  5
218
330
210
100
AcDbEntity
  8
0
100
AcDbBlockEnd
  0
BLOCK
  5
224
330
21B
100
AcDbEntity
  8
0
100
AcDbBlockBegin
  2
*D18
 70
     1
 71
     0
 10
0.0
 20
0.0
 30
0.0
  3
*D18
  1

  0
LINE
  5
21C
330
21B
100
AcDbEntity
  8
1
  6
Continuous
 62
     2
100
AcDbLine
 10
-64.82412890652844
 20
-47.00841982516161
 30
0.0
 11
-64.82412890652844
 21
-61.4129978604806
 31
0.0
  0
LINE
  5
21D
330
21B
100
AcDbEntity
  8
1
  6
Continuous
 62
     2
100
AcDbLine
 10
-64.82412890652844
 20
-39.00841982516184
 30
0.0
 11
-64.82412890652844
 21
-47.00841982516161
 31
0.0
  0
LINE
  5
21E
330
21B
100
AcDbEntity
  8
1
  6
Continuous
 62
     2
100
AcDbLine
 10
-64.82412890652844
 20
-32.00841982516184
 30
0.0
 11
-64.82412890652844
 21
-39.00841982516184
 31
0.0
  0
LINE
  5
21F
330
21B
100
AcDbEntity
  8
1
  6
Continuous
 62
     2
100
AcDbLine
 10
-44.74585482275036
 20
-39.00841982516184
 30
0.0
 11
-66.82412890652844
 21
-39.00841982516184
 31
0.0
  0
LINE
  5
220
330
21B
100
AcDbEntity
  8
1
  6
Continuous
 62
     2
100
AcDbLine
 10
-16.74585482274998
 20
-47.00841982516161
 30
0.0
 11
-66.82412890652844
 21
-47.00841982516161
 31
0.0
  0
SOLID
  5
221
330
21B
100
AcDbEntity
  8
1
 62
     2
100
AcDbTrace
 10
-65.28491264808433
 20
-35.50841982516184
 30
0.0
 11
-64.36334516497256
 21
-35.50841982516184
 31
0.0
 12
-64.82412890652844
 22
-39.00841982516184
 32
0.0
 13
-64.82412890652844
 23
-39.00841982516184
 33
0.0
  0
SOLID
  5
222
330
21B
100
AcDbEntity
  8
1
 62
     2
100
AcDbTrace
 10
-64.36334516497256
 20
-50.50841982516161
 30
0.0
 11
-65.28491264808433
 21
-50.50841982516161
 31
0.0
 12
-64.82412890652844
 22
-47.00841982516161
 32
0.0
 13
-64.82412890652844
 23
-47.00841982516161
 33
0.0
  0
MTEXT
  5
223
330
21B
100
AcDbEntity
  8
1
 62
     2
100
AcDbMText
 10
-66.82412890652844
 20
-61.4129978604806
 30
0.0
 40
3.5
 41
0.0
 71
     7
 72
     1
  1
MaßX
  7
CONVERTER_11
 11
0.0
 21
1.0
 31
0.0
 73
     1
 44
0.60024009603842
  0
ENDBLK
  5
225
330
21B
100
AcDbEntity
  8
0
100
AcDbBlockEnd
  0
BLOCK
  5
22F
330
228
100
AcDbEntity
  8
0
100
AcDbBlockBegin
  2
*D19
 70
     1
 71
     0
 10
0.0
 20
0.0
 30
0.0
  3
*D19
  1

  0
LINE
  5
229
330
228
100
AcDbEntity
  8
1
  6
Continuous
 62
     2
100
AcDbLine
 10
-54.51989546584786
 20
-92.00841982516164
 30
0.0
 11
-54.51989546584786
 21
-47.00841982516187
 31
0.0
  0
LINE
  5
22A
330
228
100
AcDbEntity
  8
1
  6
Continuous
 62
     2
100
AcDbLine
 10
-14.74585482274999
 20
-47.00841982516187
 30
0.0
 11
-56.51989546584786
 21
-47.00841982516187
 31
0.0
  0
LINE
  5
22B
330
228
100
AcDbEntity
  8
1
  6
Continuous
 62
     2
100
AcDbLine
 10
-6.24585482274999
 20
-92.00841982516164
 30
0.0
 11
-56.51989546584786
 21
-92.00841982516164
 31
0.0
  0
SOLID
  5
22C
330
228
100
AcDbEntity
  8
1
 62
     2
100
AcDbTrace
 10
-54.98067920740375
 20
-88.50841982516164
 30
0.0
 11
-54.05911172429197
 21
-88.50841982516164
 31
0.0
 12
-54.51989546584786
 22
-92.00841982516164
 32
0.0
 13
-54.51989546584786
 23
-92.00841982516164
 33
0.0
  0
SOLID
  5
22D
330
228
100
AcDbEntity
  8
1
 62
     2
100
AcDbTrace
 10
-54.05911172429197
 20
-50.50841982516187
 30
0.0
 11
-54.98067920740375
 21
-50.50841982516187
 31
0.0
 12
-54.51989546584786
 22
-47.00841982516187
 32
0.0
 13
-54.51989546584786
 23
-47.00841982516187
 33
0.0
  0
MTEXT
  5
22E
330
228
100
AcDbEntity
  8
1
 62
     2
100
AcDbMText
 10
-56.51989546584786
 20
-71.26832577078589
 30
0.0
 40
3.5
 41
0.0
 71
     7
 72
     1
  1
C
  7
CONVERTER_11
 11
0.0
 21
1.0
 31
0.0
 73
     1
 44
0.60024009603842
  0
ENDBLK
  5
230
330
228
100
AcDbEntity
  8
0
100
AcDbBlockEnd
  0
BLOCK
  5
23A
330
233
100
AcDbEntity
  8
0
100
AcDbBlockBegin
  2
*D20
 70
     1
 71
     0
 10
0.0
 20
0.0
 30
0.0
  3
*D20
  1

  0
LINE
  5
234
330
233
100
AcDbEntity
  8
1
  6
Continuous
 62
     2
100
AcDbLine
 10
-120.3612348384093
 20
-276.9536212123285
 30
0.0
 11
-96.36123483840932
 21
-276.9536212123285
 31
0.0
  0
LINE
  5
235
330
233
100
AcDbEntity
  8
1
  6
Continuous
 62
     2
100
AcDbLine
 10
-96.36123483840932
 20
-266.2217438372032
 30
0.0
 11
-96.36123483840932
 21
-278.9536212123285
 31
0.0
  0
LINE
  5
236
330
233
100
AcDbEntity
  8
1
  6
Continuous
 62
     2
100
AcDbLine
 10
-120.3612348384093
 20
-266.2217438372033
 30
0.0
 11
-120.3612348384093
 21
-278.9536212123285
 31
0.0
  0
SOLID
  5
237
330
233
100
AcDbEntity
  8
1
 62
     2
100
AcDbTrace
 10
-116.8612348384093
 20
-276.4928374707727
 30
0.0
 11
-116.8612348384093
 21
-277.4144049538844
 31
0.0
 12
-120.3612348384093
 22
-276.9536212123285
 32
0.0
 13
-120.3612348384093
 23
-276.9536212123285
 33
0.0
  0
SOLID
  5
238
330
233
100
AcDbEntity
  8
1
 62
     2
100
AcDbTrace
 10
-99.86123483840932
 20
-277.4144049538844
 30
0.0
 11
-99.86123483840932
 21
-276.4928374707727
 31
0.0
 12
-96.36123483840932
 22
-276.9536212123285
 32
0.0
 13
-96.36123483840932
 23
-276.9536212123285
 33
0.0
  0
MTEXT
  5
239
330
233
100
AcDbEntity
  8
1
 62
     2
100
AcDbMText
 10
-110.8779487644433
 20
-274.9536212123285
 30
0.0
 40
3.5
 41
0.0
 71
     7
 72
     1
  1
24
  7
CONVERTER_11
 11
0.9999999999970621
 21
2.424068405545307E-6
 31
0.0
 73
     1
 44
0.60024009603842
  0
ENDBLK
  5
23B
330
233
100
AcDbEntity
  8
0
100
AcDbBlockEnd
  0
BLOCK
  5
245
330
23E
100
AcDbEntity
  8
0
100
AcDbBlockBegin
  2
*D21
 70
     1
 71
     0
 10
0.0
 20
0.0
 30
0.0
  3
*D21
  1

  0
LINE
  5
23F
330
23E
100
AcDbEntity
  8
1
  6
Continuous
 62
     2
100
AcDbLine
 10
70.94667312623673
 20
-39.00841982516184
 30
0.0
 11
70.94667312623673
 21
-79.00841982516184
 31
0.0
  0
LINE
  5
240
330
23E
100
AcDbEntity
  8
1
  6
Continuous
 62
     2
100
AcDbLine
 10
-0.74585482275
 20
-79.00841982516184
 30
0.0
 11
72.94667312623673
 21
-79.00841982516184
 31
0.0
  0
LINE
  5
241
330
23E
100
AcDbEntity
  8
1
  6
Continuous
 62
     2
100
AcDbLine
 10
5.75414517724991
 20
-39.00841982516184
 30
0.0
 11
72.94667312623673
 21
-39.00841982516184
 31
0.0
  0
SOLID
  5
242
330
23E
100
AcDbEntity
  8
1
 62
     2
100
AcDbTrace
 10
71.40745686779262
 20
-42.50841982516184
 30
0.0
 11
70.48588938468085
 21
-42.50841982516184
 31
0.0
 12
70.94667312623673
 22
-39.00841982516184
 32
0.0
 13
70.94667312623673
 23
-39.00841982516184
 33
0.0
  0
SOLID
  5
243
330
23E
100
AcDbEntity
  8
1
 62
     2
100
AcDbTrace
 10
70.48588938468085
 20
-75.50841982516184
 30
0.0
 11
71.40745686779262
 21
-75.50841982516184
 31
0.0
 12
70.94667312623673
 22
-79.00841982516184
 32
0.0
 13
70.94667312623673
 23
-79.00841982516184
 33
0.0
  0
MTEXT
  5
244
330
23E
100
AcDbEntity
  8
1
 62
     2
100
AcDbMText
 10
68.94667312623673
 20
-59.935059796837
 30
0.0
 40
3.5
 41
0.0
 71
     7
 72
     1
  1
A
  7
CONVERTER_11
 11
0.0
 21
1.0
 31
0.0
 73
     1
 44
0.60024009603842
  0
ENDBLK
  5
246
330
23E
100
AcDbEntity
  8
0
100
AcDbBlockEnd
  0
BLOCK
  5
250
330
249
100
AcDbEntity
  8
0
100
AcDbBlockBegin
  2
*D22
 70
     1
 71
     0
 10
0.0
 20
0.0
 30
0.0
  3
*D22
  1

  0
LINE
  5
24A
330
249
100
AcDbEntity
  8
1
  6
Continuous
 62
     2
100
AcDbLine
 10
70.94667312623673
 20
-79.00841982516184
 30
0.0
 11
70.94667312623673
 21
-92.00841982516164
 31
0.0
  0
LINE
  5
24B
330
249
100
AcDbEntity
  8
1
  6
Continuous
 62
     2
100
AcDbLine
 10
20.32607989515001
 20
-92.00841982516164
 30
0.0
 11
72.94667312623673
 21
-92.00841982516164
 31
0.0
  0
LINE
  5
24C
330
249
100
AcDbEntity
  8
1
  6
Continuous
 62
     2
100
AcDbLine
 10
-0.74585482275
 20
-79.00841982516184
 30
0.0
 11
72.94667312623673
 21
-79.00841982516184
 31
0.0
  0
SOLID
  5
24D
330
249
100
AcDbEntity
  8
1
 62
     2
100
AcDbTrace
 10
71.40745686779262
 20
-82.50841982516184
 30
0.0
 11
70.48588938468085
 21
-82.50841982516184
 31
0.0
 12
70.94667312623673
 22
-79.00841982516184
 32
0.0
 13
70.94667312623673
 23
-79.00841982516184
 33
0.0
  0
SOLID
  5
24E
330
249
100
AcDbEntity
  8
1
 62
     2
100
AcDbTrace
 10
70.48588938468085
 20
-88.50841982516164
 30
0.0
 11
71.40745686779262
 21
-88.50841982516164
 31
0.0
 12
70.94667312623673
 22
-92.00841982516164
 32
0.0
 13
70.94667312623673
 23
-92.00841982516164
 33
0.0
  0
MTEXT
  5
24F
330
249
100
AcDbEntity
  8
1
 62
     2
100
AcDbMText
 10
68.94667312623673
 20
-86.2596065201371
 30
0.0
 40
3.5
 41
0.0
 71
     7
 72
     1
  1
B
  7
CONVERTER_11
 11
0.0
 21
1.0
 31
0.0
 73
     1
 44
0.60024009603842
  0
ENDBLK
  5
251
330
249
100
AcDbEntity
  8
0
100
AcDbBlockEnd
  0
BLOCK
  5
25A
330
254
100
AcDbEntity
  8
0
100
AcDbBlockBegin
  2
*D23
 70
     1
 71
     0
 10
0.0
 20
0.0
 30
0.0
  3
*D23
  1

  0
LINE
  5
255
330
254
100
AcDbEntity
  8
1
  6
Continuous
 62
     2
100
AcDbLine
 10
162.9569736969745
 20
-76.55874758559905
 30
0.0
 11
166.4343239772131
 21
-72.62548748378465
 31
0.0
  0
LINE
  5
256
330
254
100
AcDbEntity
  8
1
  6
Continuous
 62
     2
100
AcDbLine
 10
147.4600043804171
 20
-94.08749970995396
 30
0.0
 11
155.0087444850008
 21
-85.54905638974616
 31
0.0
  0
SOLID
  5
257
330
254
100
AcDbEntity
  8
1
 62
     2
100
AcDbTrace
 10
153.0357266422183
 20
-88.4764310238755
 30
0.0
 11
152.3452952874653
 21
-87.86602855803599
 31
0.0
 12
155.0087444850008
 22
-85.54905638974616
 32
0.0
 13
155.0087444850008
 23
-85.54905638974616
 33
0.0
  0
SOLID
  5
258
330
254
100
AcDbEntity
  8
1
 62
     2
100
AcDbTrace
 10
164.9299915397571
 20
-73.6313729514697
 30
0.0
 11
165.62042289451
 21
-74.24177541730921
 31
0.0
 12
162.9569736969745
 22
-76.55874758559905
 32
0.0
 13
162.9569736969745
 23
-76.55874758559905
 33
0.0
  0
MTEXT
  5
259
330
254
100
AcDbEntity
  8
1
 62
     2
100
AcDbMText
 10
146.6107249653704
 20
-92.02858628895297
 30
0.0
 40
3.5
 41
0.0
 71
     7
 72
     1
  1
\C2;ø\C2;12
  7
CONVERTER_11
 11
0.6623524343311495
 21
0.749192400345599
 31
0.0
 73
     1
 44
0.60024009603842
  0
ENDBLK
  5
25B
330
254
100
AcDbEntity
  8
0
100
AcDbBlockEnd
  0
BLOCK
  5
262
330
25D
100
AcDbEntity
  8
0
100
AcDbBlockBegin
  2
*D24
 70
     1
 71
     0
 10
0.0
 20
0.0
 30
0.0
  3
*D24
  1

  0
LINE
  5
25E
330
25D
100
AcDbEntity
  8
1
  6
Continuous
 62
     2
100
AcDbLine
 10
164.9412866890954
 20
-6.35840202327513
 30
0.0
 11
145.02443149288
 21
-19.74940195207007
 31
0.0
  0
SOLID
  5
25F
330
25D
100
AcDbEntity
  8
1
 62
     2
100
AcDbTrace
 10
147.6718747485629
 20
-17.41415766839834
 30
0.0
 11
148.1860710027599
 21
-18.17893792317658
 31
0.0
 12
145.02443149288
 22
-19.74940195207007
 32
0.0
 13
145.02443149288
 23
-19.74940195207007
 33
0.0
  0
SOLID
  5
260
330
25D
100
AcDbEntity
  8
1
 62
     2
100
AcDbTrace
 10
162.2938434334125
 20
-8.69364630694686
 30
0.0
 11
161.7796471792155
 21
-7.92886605216861
 31
0.0
 12
164.9412866890954
 22
-6.35840202327513
 32
0.0
 13
164.9412866890954
 23
-6.35840202327513
 33
0.0
  0
MTEXT
  5
261
330
25D
100
AcDbEntity
  8
1
 62
     2
100
AcDbMText
 10
147.333529421513
 20
-15.78687225446495
 30
0.0
 40
3.5
 41
0.0
 71
     7
 72
     1
  1
\C2;ø\C2;24
  7
CONVERTER_11
 11
0.8298689665089762
 21
0.5579583303664567
 31
0.0
 73
     1
 44
0.60024009603842
  0
ENDBLK
  5
263
330
25D
100
AcDbEntity
  8
0
100
AcDbBlockEnd
  0
ENDSEC
  0
SECTION
  2
ENTITIES
  0
POINT
  5
34
330
1F
100
AcDbEntity
  8
1
 62
     3
 60
     1
100
AcDbPoint
 10
-69.18007245120526
 20
-47.9449506483752
 30
0.0
  0
POINT
  5
35
330
1F
100
AcDbEntity
  8
1
 62
     3
 60
     1
100
AcDbPoint
 10
-79.18007245120526
 20
-13.9449506483752
 30
0.0
  0
POINT
  5
36
330
1F
100
AcDbEntity
  8
1
 62
     3
 60
     1
100
AcDbPoint
 10
153.7515575985636
 20
-78.1156227811708
 30
0.0
  0
POINT
  5
37
330
1F
100
AcDbEntity
  8
1
 62
     3
 60
     1
100
AcDbPoint
 10
124.67314998569
 20
-25.62750546104559
 30
0.0
  0
POINT
  5
38
330
1F
100
AcDbEntity
  8
1
 62
     3
 60
     1
100
AcDbPoint
 10
100.67314998569
 20
-25.62750546104559
 30
0.0
  0
POINT
  5
39
330
1F
100
AcDbEntity
  8
A_BEMASSUNGEN
 62
     7
100
AcDbPoint
 10
4.25414517725002
 20
-47.00841982516161
 30
0.0
  0
POINT
  5
3A
330
1F
100
AcDbEntity
  8
A_BEMASSUNGEN
 62
     7
100
AcDbPoint
 10
9.25414517725002
 20
-46.00841982516164
 30
0.0
  0
POINT
  5
3B
330
1F
100
AcDbEntity
  8
A_BEMASSUNGEN
 62
     7
100
AcDbPoint
 10
12.75414517724998
 20
-46.00841982516164
 30
0.0
  0
POINT
  5
3C
330
1F
100
AcDbEntity
  8
A_BEMASSUNGEN
 62
     7
100
AcDbPoint
 10
12.75414517724998
 20
-46.00841982516164
 30
0.0
  0
POINT
  5
3D
330
1F
100
AcDbEntity
  8
A_BEMASSUNGEN
 62
     7
100
AcDbPoint
 10
-5.74585482274999
 20
-48.00841982516161
 30
0.0
  0
POINT
  5
3E
330
1F
100
AcDbEntity
  8
A_BEMASSUNGEN
 62
     7
100
AcDbPoint
 10
4.25414517725002
 20
-47.00841982516161
 30
0.0
  0
POINT
  5
3F
330
1F
100
AcDbEntity
  8
A_BEMASSUNGEN
 62
     7
100
AcDbPoint
 10
-4.81778954064998
 20
-92.00841982516164
 30
0.0
  0
POINT
  5
40
330
1F
100
AcDbEntity
  8
A_BEMASSUNGEN
 62
     7
100
AcDbPoint
 10
-4.81778954064998
 20
-92.00841982516164
 30
0.0
  0
POINT
  5
41
330
1F
100
AcDbEntity
  8
A_BEMASSUNGEN
 62
     7
100
AcDbPoint
 10
12.75414517724998
 20
-46.00841982516164
 30
0.0
  0
POINT
  5
42
330
1F
100
AcDbEntity
  8
A_BEMASSUNGEN
 62
     7
100
AcDbPoint
 10
20.32607989515002
 20
-92.00841982516164
 30
0.0
  0
POINT
  5
43
330
1F
100
AcDbEntity
  8
1
 62
     3
 60
     1
100
AcDbPoint
 10
12.75414517724998
 20
-86.30761809498483
 30
0.0
  0
POINT
  5
44
330
1F
100
AcDbEntity
  8
1
 62
     3
 60
     1
100
AcDbPoint
 10
8.60397309326284
 20
-84.3368874819535
 30
0.0
  0
POINT
  5
45
330
1F
100
AcDbEntity
  8
1
 62
     3
 60
     1
100
AcDbPoint
 10
7.50409824293797
 20
-92.00841982516165
 30
0.0
  0
POINT
  5
46
330
1F
100
AcDbEntity
  8
1
 62
     3
 60
     1
100
AcDbPoint
 10
5.75414517725002
 20
-80.89535477956873
 30
0.0
  0
POINT
  5
47
330
1F
100
AcDbEntity
  8
1
 62
     3
 60
     1
100
AcDbPoint
 10
16.37620816657825
 20
-85.09120516338835
 30
0.0
  0
POINT
  5
48
330
1F
100
AcDbEntity
  8
1
 62
     3
 60
     1
100
AcDbPoint
 10
9.15529359511454
 20
-80.88025631712631
 30
0.0
  0
POINT
  5
49
330
1F
100
AcDbEntity
  8
1
 62
     3
 60
     1
100
AcDbPoint
 10
1.75414517725001
 20
-70.50841982516164
 30
0.0
  0
POINT
  5
4A
330
1F
100
AcDbEntity
  8
1
 62
     3
 60
     1
100
AcDbPoint
 10
1.25414517725001
 20
-70.00841982516164
 30
0.0
  0
POINT
  5
4B
330
1F
100
AcDbEntity
  8
1
 62
     3
 60
     1
100
AcDbPoint
 10
13.05733775584999
 20
-81.47567808926163
 30
0.0
  0
POINT
  5
4C
330
1F
100
AcDbEntity
  8
1
 62
     3
 60
     1
100
AcDbPoint
 10
9.2541451772496
 20
-80.89537455371263
 30
0.0
  0
POINT
  5
4D
330
1F
100
AcDbEntity
  8
1
 62
     3
 60
     1
100
AcDbPoint
 10
10.19556208604755
 20
-83.66932095426601
 30
0.0
  0
POINT
  5
4E
330
1F
100
AcDbEntity
  8
1
 62
     3
 60
     1
100
AcDbPoint
 10
5.75414517725002
 20
-79.00841982516184
 30
0.0
  0
POINT
  5
4F
330
1F
100
AcDbEntity
  8
1
 62
     3
 60
     1
100
AcDbPoint
 10
9.25414517724963
 20
-79.00841982516184
 30
0.0
  0
POINT
  5
50
330
1F
100
AcDbEntity
  8
1
 62
     3
 60
     1
100
AcDbPoint
 10
5.75414517725002
 20
-70.50841982516164
 30
0.0
  0
POINT
  5
51
330
1F
100
AcDbEntity
  8
1
 62
     3
 60
     1
100
AcDbPoint
 10
1.75423904587335
 20
-71.00841982516184
 30
0.0
  0
POINT
  5
52
330
1F
100
AcDbEntity
  8
1
 62
     3
 60
     1
100
AcDbPoint
 10
1.75414517724997
 20
-71.00841982516164
 30
0.0
  0
LINE
  5
53
330
1F
100
AcDbEntity
  8
1
  6
DOT_CENTER
 62
     2
100
AcDbLine
 10
144.9828590909877
 20
-184.132037656163
 30
0.0
 11
144.9828590909877
 21
-210.4214530295898
 31
0.0
  0
LINE
  5
54
330
1F
100
AcDbEntity
  8
1
  6
Continuous
 62
     2
100
AcDbLine
 10
-79.18007245120526
 20
-13.9449506483752
 30
0.0
 11
-69.18007245120526
 21
-47.9449506483752
 31
0.0
  0
LINE
  5
55
330
1F
100
AcDbEntity
  8
1
  6
DOT_CENTER
 62
     2
100
AcDbLine
 10
154.9828590909877
 20
-9.9039019876726
 30
0.0
 11
154.9828590909877
 21
-16.20390198767259
 31
0.0
  0
LINE
  5
56
330
1F
100
AcDbEntity
  8
1
  6
DOT_CENTER
 62
     2
100
AcDbLine
 10
158.1328590909877
 20
-13.0539019876726
 30
0.0
 11
151.8328590909877
 21
-13.0539019876726
 31
0.0
  0
LINE
  5
57
330
1F
100
AcDbEntity
  8
1
  6
DOT_CENTER
 62
     2
100
AcDbLine
 10
144.9828590909877
 20
-111.9039019876726
 30
0.0
 11
144.9828590909877
 21
-118.2039019876726
 31
0.0
  0
LINE
  5
58
330
1F
100
AcDbEntity
  8
1
  6
DOT_CENTER
 62
     2
100
AcDbLine
 10
148.1328590909877
 20
-115.0539019876726
 30
0.0
 11
141.8328590909877
 21
-115.0539019876726
 31
0.0
  0
LINE
  5
59
330
1F
100
AcDbEntity
  8
1
  6
DOT_CENTER
 62
     2
100
AcDbLine
 10
154.9828590909877
 20
-145.9039019876726
 30
0.0
 11
154.9828590909877
 21
-152.2039019876726
 31
0.0
  0
LINE
  5
5A
330
1F
100
AcDbEntity
  8
1
  6
DOT_CENTER
 62
     2
100
AcDbLine
 10
158.1328590909877
 20
-149.0539019876726
 30
0.0
 11
151.8328590909877
 21
-149.0539019876726
 31
0.0
  0
LINE
  5
5B
330
1F
100
AcDbEntity
  8
1
  6
DOT_CENTER
 62
     2
100
AcDbLine
 10
144.9828590909877
 20
-43.9039019876726
 30
0.0
 11
144.9828590909877
 21
-50.2039019876726
 31
0.0
  0
LINE
  5
5C
330
1F
100
AcDbEntity
  8
1
  6
DOT_CENTER
 62
     2
100
AcDbLine
 10
148.1328590909877
 20
-47.0539019876726
 30
0.0
 11
141.8328590909877
 21
-47.0539019876726
 31
0.0
  0
LINE
  5
5D
330
1F
100
AcDbEntity
  8
1
  6
Continuous
 62
     2
100
AcDbLine
 10
126.7004109132561
 20
-63.38801499692655
 30
0.0
 11
120.4712043424798
 21
-55.95642496584162
 31
0.0
  0
LINE
  5
5E
330
1F
100
AcDbEntity
  8
1
  6
Continuous
 62
     2
100
AcDbLine
 10
141.3118508895422
 20
-80.8198067401936
 30
0.0
 11
126.7004109132561
 21
-63.38801499692655
 31
0.0
  0
LINE
  5
5F
330
1F
100
AcDbEntity
  8
1
  6
DOT_CENTER
 62
     2
100
AcDbLine
 10
158.9828590909877
 20
-74.07752408638261
 30
0.0
 11
158.9828590909877
 21
-84.07752408638261
 31
0.0
  0
LINE
  5
60
330
1F
100
AcDbEntity
  8
1
  6
DOT_CENTER
 62
     2
100
AcDbLine
 10
158.9828590909877
 20
-84.07752408638261
 30
0.0
 11
158.9828590909877
 21
-88.07752408638261
 31
0.0
  0
LINE
  5
61
330
1F
100
AcDbEntity
  8
1
  6
DOT_CENTER
 62
     2
100
AcDbLine
 10
158.9828590909877
 20
-82.07752408638261
 30
0.0
 11
158.9828590909877
 21
-84.07752408638261
 31
0.0
  0
LINE
  5
62
330
1F
100
AcDbEntity
  8
1
  6
DOT_CENTER
 62
     2
100
AcDbLine
 10
158.9828590909877
 20
-82.07752408638261
 30
0.0
 11
158.9828590909877
 21
-88.07752408638261
 31
0.0
  0
LINE
  5
63
330
1F
100
AcDbEntity
  8
1
  6
DOT_CENTER
 62
     2
100
AcDbLine
 10
158.9828590909877
 20
-82.07752408638261
 30
0.0
 11
158.9828590909877
 21
-84.07752408638261
 31
0.0
  0
LINE
  5
64
330
1F
100
AcDbEntity
  8
1
  6
DOT_CENTER
 62
     2
100
AcDbLine
 10
158.9828590909877
 20
-184.132037656163
 30
0.0
 11
158.9828590909877
 21
-210.4214530295898
 31
0.0
  0
LINE
  5
65
330
1F
100
AcDbEntity
  8
1
  6
DOT_CENTER
 62
     7
100
AcDbLine
 10
160.4828590909877
 20
-81.0539019876726
 30
0.0
 11
187.7329652480997
 21
-81.0539019876726
 31
0.0
  0
LINE
  5
66
330
1F
100
AcDbEntity
  8
1
  6
Continuous
 62
     2
100
AcDbLine
 10
120.4712043424798
 20
-55.95642496584162
 30
0.0
 11
89.16120371619172
 21
-55.95642496584161
 31
0.0
  0
LINE
  5
67
330
1F
100
AcDbEntity
  8
1
  6
Continuous
 62
     7
100
AcDbLine
 10
166.9828590909877
 20
-13.0539019876726
 30
0.0
 11
166.9828590909877
 21
-149.0539019876726
 31
0.0
  0
LINE
  5
68
330
1F
100
AcDbEntity
  8
1
  6
Continuous
 62
     7
100
AcDbLine
 10
133.9828590909877
 20
-186.9899080356856
 30
0.0
 11
133.9828590909877
 21
-203.4899080356856
 31
0.0
  0
LINE
  5
69
330
1F
100
AcDbEntity
  8
1
  6
DOT_CENTER
 62
     2
100
AcDbLine
 10
128.9387579748087
 20
-186.9899080356856
 30
0.0
 11
133.9828590909877
 21
-186.9899080356856
 31
0.0
  0
LINE
  5
6A
330
1F
100
AcDbEntity
  8
1
  6
DOT_CENTER
 62
     2
100
AcDbLine
 10
133.9828590909877
 20
-186.9899080356856
 30
0.0
 11
184.4828590909877
 21
-186.9899080356856
 31
0.0
  0
LINE
  5
6B
330
1F
100
AcDbEntity
  8
1
  6
Continuous
 62
     7
100
AcDbLine
 10
133.9828590909877
 20
3.44609801232741
 30
0.0
 11
133.9828590909877
 21
-167.0539019876727
 31
0.0
  0
LINE
  5
6C
330
1F
100
AcDbEntity
  8
1
  6
Continuous
 62
     7
100
AcDbLine
 10
169.4828590909877
 20
3.44609801232741
 30
0.0
 11
169.4828590909877
 21
-167.0539019876727
 31
0.0
  0
LINE
  5
6D
330
1F
100
AcDbEntity
  8
1
  6
Continuous
 62
     7
100
AcDbLine
 10
154.9828590909877
 20
-1.0539019876726
 30
0.0
 11
133.9828590909877
 21
-1.0539019876726
 31
0.0
  0
LINE
  5
6E
330
1F
100
AcDbEntity
  8
1
  6
Continuous
 62
     7
100
AcDbLine
 10
154.9828590909877
 20
-161.0539019876726
 30
0.0
 11
133.9828590909877
 21
-161.0539019876726
 31
0.0
  0
LINE
  5
6F
330
1F
100
AcDbEntity
  8
1
  6
Continuous
 62
     7
100
AcDbLine
 10
184.4828590909877
 20
3.44609801232741
 30
0.0
 11
184.4828590909877
 21
-167.0539019876727
 31
0.0
  0
LINE
  5
70
330
1F
100
AcDbEntity
  8
1
  6
Continuous
 62
     7
100
AcDbLine
 10
169.4828590909876
 20
-219.9899080356856
 30
0.0
 11
184.4828590909876
 21
-219.9899080356855
 31
0.0
  0
LINE
  5
71
330
1F
100
AcDbEntity
  8
1
  6
Continuous
 62
     7
100
AcDbLine
 10
184.4828590909877
 20
-186.9899080356856
 30
0.0
 11
184.4828590909876
 21
-219.9899080356855
 31
0.0
  0
LINE
  5
72
330
1F
100
AcDbEntity
  8
1
  6
DOT_CENTER
 62
     2
100
AcDbLine
 10
184.4828590909877
 20
-186.9899080356856
 30
0.0
 11
188.4797219663938
 21
-186.9899080356856
 31
0.0
  0
LINE
  5
73
330
1F
100
AcDbEntity
  8
1
  6
Continuous
 62
     7
100
AcDbLine
 10
169.4828590909876
 20
-219.9899080356856
 30
0.0
 11
169.4828590909876
 21
-206.9899080356856
 31
0.0
  0
LINE
  5
74
330
1F
100
AcDbEntity
  8
1
  6
Continuous
 62
     7
100
AcDbLine
 10
133.9828590909877
 20
-206.9899080356856
 30
0.0
 11
166.9828590909877
 21
-206.9899080356856
 31
0.0
  0
LINE
  5
75
330
1F
100
AcDbEntity
  8
1
  6
DOT_CENTER
 62
     2
100
AcDbLine
 10
154.9828590909877
 20
-184.132037656163
 30
0.0
 11
154.9828590909877
 21
-210.4214530295898
 31
0.0
  0
LINE
  5
76
330
1F
100
AcDbEntity
  8
1
  6
Continuous
 62
     7
100
AcDbLine
 10
133.9828590909877
 20
-203.4899080356856
 30
0.0
 11
145.9828590909877
 21
-203.4899080356856
 31
0.0
  0
LINE
  5
77
330
1F
100
AcDbEntity
  8
1
  6
Continuous
 62
     7
100
AcDbLine
 10
133.9828590909877
 20
-203.4899080356856
 30
0.0
 11
133.9828590909877
 21
-206.9899080356856
 31
0.0
  0
LINE
  5
78
330
1F
100
AcDbEntity
  8
1
  6
Continuous
 62
     7
100
AcDbLine
 10
166.9828590909877
 20
-203.4899080356856
 30
0.0
 11
166.9828590909877
 21
-206.9899080356856
 31
0.0
  0
LINE
  5
79
330
1F
100
AcDbEntity
  8
1
  6
Continuous
 62
     7
100
AcDbLine
 10
166.9828590909877
 20
-206.9899080356856
 30
0.0
 11
169.4828590909876
 21
-206.9899080356856
 31
0.0
  0
LINE
  5
7A
330
1F
100
AcDbEntity
  8
1
  6
Continuous
 62
     7
100
AcDbLine
 10
145.9828590909877
 20
-203.4899080356856
 30
0.0
 11
166.9828590909877
 21
-203.4899080356856
 31
0.0
  0
LINE
  5
7B
330
1F
100
AcDbEntity
  8
1
  6
DOT_CENTER
 62
     7
100
AcDbLine
 10
131.1292695831867
 20
-81.0539019876726
 30
0.0
 11
160.4828590909877
 21
-81.0539019876726
 31
0.0
  0
LINE
  5
7C
330
1F
100
AcDbEntity
  8
1
  6
DOT_CENTER
 62
     2
100
AcDbLine
 10
129.3091860548947
 20
-167.0539019876726
 30
0.0
 11
187.3989949720917
 21
-167.0539019876726
 31
0.0
  0
LINE
  5
7D
330
1F
100
AcDbEntity
  8
1
  6
DOT_CENTER
 62
     2
100
AcDbLine
 10
130.6431563309027
 20
3.44609801232741
 30
0.0
 11
188.4009058001167
 21
3.44609801232741
 31
0.0
  0
LINE
  5
7E
330
1F
100
AcDbEntity
  8
1
  6
Continuous
 62
     2
100
AcDbLine
 10
100.67314998569
 20
-25.62750546104559
 30
0.0
 11
124.67314998569
 21
-25.62750546104559
 31
0.0
  0
LINE
  5
7F
330
1F
100
AcDbEntity
  8
1
  6
Continuous
 62
     2
100
AcDbLine
 10
124.67314998569
 20
-25.62750546104559
 30
0.0
 11
153.5707644177573
 21
-78.46368360923589
 31
0.0
  0
LINE
  5
80
330
1F
100
AcDbEntity
  8
1
  6
DOT_CENTER
 62
     2
100
AcDbLine
 10
-108.3612348384094
 20
-171.318696839004
 30
0.0
 11
-108.3612348384094
 21
-7.00165711915626
 31
0.0
  0
LINE
  5
81
330
1F
100
AcDbEntity
  8
1
  6
Continuous
 62
     7
100
AcDbLine
 10
-120.3612348384093
 20
-255.7217438372035
 30
0.0
 11
-120.3612348384094
 21
-259.2217438372033
 31
0.0
  0
LINE
  5
82
330
1F
100
AcDbEntity
  8
1
  6
Continuous
 62
     7
100
AcDbLine
 10
-96.36123483840925
 20
-255.7217438372035
 30
0.0
 11
-96.36123483840925
 21
-243.7217438372035
 31
0.0
  0
LINE
  5
83
330
1F
100
AcDbEntity
  8
1
  6
Continuous
 62
     7
100
AcDbLine
 10
-120.3612348384093
 20
-255.7217438372035
 30
0.0
 11
-96.36123483840925
 21
-255.7217438372035
 31
0.0
  0
LINE
  5
84
330
1F
100
AcDbEntity
  8
1
  6
Continuous
 62
     7
100
AcDbLine
 10
-96.36123483840936
 20
-42.22174383720311
 30
0.0
 11
-96.3612348384093
 21
-24.22174383720306
 31
0.0
  0
LINE
  5
85
330
1F
100
AcDbEntity
  8
1
  6
Continuous
 62
     7
100
AcDbLine
 10
-120.3612348384094
 20
-42.22174383720311
 30
0.0
 11
-120.3612348384093
 21
-24.22174383720306
 31
0.0
  0
LINE
  5
86
330
1F
100
AcDbEntity
  8
1
  6
Continuous
 62
     7
100
AcDbLine
 10
-120.3612348384093
 20
-178.2217438372031
 30
0.0
 11
-120.3612348384093
 21
-155.2217438372031
 31
0.0
  0
LINE
  5
87
330
1F
100
AcDbEntity
  8
1
  6
Continuous
 62
     7
100
AcDbLine
 10
-96.36123483840925
 20
-178.2217438372031
 30
0.0
 11
-96.36123483840936
 21
-42.22174383720311
 31
0.0
  0
LINE
  5
88
330
1F
100
AcDbEntity
  8
1
  6
Continuous
 62
     7
100
AcDbLine
 10
-120.3612348384093
 20
-196.2217438372031
 30
0.0
 11
-120.3612348384093
 21
-178.2217438372031
 31
0.0
  0
LINE
  5
89
330
1F
100
AcDbEntity
  8
1
  6
Continuous
 62
     7
100
AcDbLine
 10
-128.3612348384091
 20
-65.22174383720309
 30
0.0
 11
-128.3612348384093
 21
-155.2217438372031
 31
0.0
  0
LINE
  5
8A
330
1F
100
AcDbEntity
  8
1
  6
Continuous
 62
     7
100
AcDbLine
 10
-128.3612348384093
 20
-155.2217438372031
 30
0.0
 11
-120.3612348384093
 21
-155.2217438372031
 31
0.0
  0
LINE
  5
8B
330
1F
100
AcDbEntity
  8
1
  6
Continuous
 62
     7
100
AcDbLine
 10
-128.3612348384091
 20
-0.22174383720308
 30
0.0
 11
-128.3612348384091
 21
-65.22174383720309
 31
0.0
  0
LINE
  5
8C
330
1F
100
AcDbEntity
  8
1
  6
Continuous
 62
     7
100
AcDbLine
 10
-120.3612348384093
 20
-155.2217438372031
 30
0.0
 11
-120.3612348384093
 21
-65.2217438372031
 31
0.0
  0
LINE
  5
8D
330
1F
100
AcDbEntity
  8
1
  6
Continuous
 62
     7
100
AcDbLine
 10
-128.3612348384091
 20
-65.22174383720309
 30
0.0
 11
-120.3612348384093
 21
-65.2217438372031
 31
0.0
  0
LINE
  5
8E
330
1F
100
AcDbEntity
  8
1
  6
Continuous
 62
     7
100
AcDbLine
 10
-128.3612348384093
 20
-266.2217438372036
 30
0.0
 11
-128.3612348384093
 21
-259.2217438372033
 31
0.0
  0
LINE
  5
8F
330
1F
100
AcDbEntity
  8
1
  6
Continuous
 62
     7
100
AcDbLine
 10
-120.3612348384093
 20
-243.7217438372035
 30
0.0
 11
-120.3612348384093
 21
-255.7217438372035
 31
0.0
  0
LINE
  5
90
330
1F
100
AcDbEntity
  8
1
  6
Continuous
 62
     7
100
AcDbLine
 10
-128.3612348384093
 20
-259.2217438372033
 30
0.0
 11
-120.3612348384094
 21
-259.2217438372033
 31
0.0
  0
LINE
  5
91
330
1F
100
AcDbEntity
  8
1
  6
Continuous
 62
     7
100
AcDbLine
 10
-96.36123483840925
 20
-266.2217438372032
 30
0.0
 11
-120.3612348384093
 21
-266.2217438372033
 31
0.0
  0
LINE
  5
92
330
1F
100
AcDbEntity
  8
1
  6
Continuous
 62
     7
100
AcDbLine
 10
-128.3612348384093
 20
-155.2217438372031
 30
0.0
 11
-128.3612348384093
 21
-219.2217438372032
 31
0.0
  0
LINE
  5
93
330
1F
100
AcDbEntity
  8
1
  6
Continuous
 62
     7
100
AcDbLine
 10
-86.36123483840927
 20
-219.2217438372032
 30
0.0
 11
-86.3612348384093
 21
-0.22174383720308
 31
0.0
  0
LINE
  5
94
330
1F
100
AcDbEntity
  8
1
  6
PHANTOM
 62
     2
100
AcDbLine
 10
-86.36123483840927
 20
-219.2217438372032
 30
0.0
 11
-128.3612348384093
 21
-219.2217438372032
 31
0.0
  0
LINE
  5
95
330
1F
100
AcDbEntity
  8
1
  6
PHANTOM
 62
     2
100
AcDbLine
 10
-86.3612348384093
 20
-0.22174383720308
 30
0.0
 11
-128.3612348384091
 21
-0.22174383720308
 31
0.0
  0
LINE
  5
96
330
1F
100
AcDbEntity
  8
1
  6
Continuous
 62
     7
100
AcDbLine
 10
-120.3612348384093
 20
-65.2217438372031
 30
0.0
 11
-120.3612348384094
 21
-42.22174383720311
 31
0.0
  0
LINE
  5
97
330
1F
100
AcDbEntity
  8
1
  6
Continuous
 62
     7
100
AcDbLine
 10
-96.36123483840925
 20
-196.2217438372031
 30
0.0
 11
-96.36123483840925
 21
-178.2217438372031
 31
0.0
  0
LINE
  5
98
330
1F
100
AcDbEntity
  8
1
  6
PHANTOM
 62
     2
100
AcDbLine
 10
-83.10467236310876
 20
-110.2217438372031
 30
0.0
 11
-133.8144161952845
 21
-110.2217438372031
 31
0.0
  0
LINE
  5
99
330
1F
100
AcDbEntity
  8
1
  6
PHANTOM
 62
     2
100
AcDbLine
 10
-83.10467236310876
 20
-0.22174383720308
 30
0.0
 11
-86.3612348384093
 21
-0.22174383720308
 31
0.0
  0
LINE
  5
9A
330
1F
100
AcDbEntity
  8
1
  6
PHANTOM
 62
     2
100
AcDbLine
 10
-133.8144161952845
 20
-0.22174383720308
 30
0.0
 11
-128.3612348384091
 21
-0.22174383720308
 31
0.0
  0
LINE
  5
9B
330
1F
100
AcDbEntity
  8
1
  6
PHANTOM
 62
     2
100
AcDbLine
 10
-83.10467236310876
 20
-219.2217438372032
 30
0.0
 11
-86.36123483840927
 21
-219.2217438372032
 31
0.0
  0
LINE
  5
9C
330
1F
100
AcDbEntity
  8
1
  6
PHANTOM
 62
     2
100
AcDbLine
 10
-133.8144161952845
 20
-219.2217438372032
 30
0.0
 11
-128.3612348384093
 21
-219.2217438372032
 31
0.0
  0
LINE
  5
9D
330
1F
100
AcDbEntity
  8
1
  6
Continuous
 62
     7
100
AcDbLine
 10
-86.36123483840927
 20
-226.2217438372032
 30
0.0
 11
-86.36123483840927
 21
-266.2217438372032
 31
0.0
  0
LINE
  5
9E
330
1F
100
AcDbEntity
  8
1
  6
PHANTOM
 62
     2
100
AcDbLine
 10
-83.10467236310876
 20
-226.2217438372032
 30
0.0
 11
-86.36123483840927
 21
-226.2217438372032
 31
0.0
  0
LINE
  5
9F
330
1F
100
AcDbEntity
  8
1
  6
PHANTOM
 62
     2
100
AcDbLine
 10
-133.8144161952845
 20
-226.2217438372032
 30
0.0
 11
-128.3612348384093
 21
-226.2217438372032
 31
0.0
  0
LINE
  5
A0
330
1F
100
AcDbEntity
  8
1
  6
PHANTOM
 62
     2
100
AcDbLine
 10
-86.36123483840927
 20
-226.2217438372032
 30
0.0
 11
-128.3612348384093
 21
-226.2217438372032
 31
0.0
  0
LINE
  5
A1
330
1F
100
AcDbEntity
  8
1
  6
Continuous
 62
     7
100
AcDbLine
 10
-86.36123483840927
 20
-266.2217438372032
 30
0.0
 11
-96.36123483840925
 21
-266.2217438372032
 31
0.0
  0
LINE
  5
A2
330
1F
100
AcDbEntity
  8
1
  6
Continuous
 62
     7
100
AcDbLine
 10
-128.3612348384093
 20
-259.2217438372033
 30
0.0
 11
-128.3612348384093
 21
-226.2217438372032
 31
0.0
  0
LINE
  5
A3
330
1F
100
AcDbEntity
  8
1
  6
Continuous
 62
     7
100
AcDbLine
 10
-120.3612348384093
 20
-266.2217438372033
 30
0.0
 11
-128.3612348384093
 21
-266.2217438372036
 31
0.0
  0
LINE
  5
A4
330
1F
100
AcDbEntity
  8
1
  6
Continuous
 62
     7
100
AcDbLine
 10
-120.3612348384094
 20
-259.2217438372033
 30
0.0
 11
-120.3612348384093
 21
-266.2217438372033
 31
0.0
  0
LINE
  5
A5
330
1F
100
AcDbEntity
  8
1
  6
Continuous
 62
     7
100
AcDbLine
 10
-96.36123483840925
 20
-266.2217438372032
 30
0.0
 11
-96.36123483840925
 21
-255.7217438372035
 31
0.0
  0
LINE
  5
A6
330
1F
100
AcDbEntity
  8
1
  6
Continuous
 62
     7
100
AcDbLine
 10
-96.36123483840925
 20
-243.7217438372035
 30
0.0
 11
-120.3612348384093
 21
-243.7217438372035
 31
0.0
  0
LINE
  5
A7
330
1F
100
AcDbEntity
  8
1
  6
DOT_CENTER
 62
     2
100
AcDbLine
 10
-108.3612348384094
 20
-212.0016571191563
 30
0.0
 11
-108.3612348384094
 21
-181.891152679565
 31
0.0
  0
LINE
  5
A8
330
1F
100
AcDbEntity
  8
1
  6
DOT_CENTER
 62
     2
100
AcDbLine
 10
-108.3612348384094
 20
-240.5557434224085
 30
0.0
 11
-108.3612348384094
 21
-267.5557434224085
 31
0.0
  0
LINE
  5
A9
330
1F
100
AcDbEntity
  8
1
  6
Continuous
 62
     2
100
AcDbLine
 10
-26.55968945833865
 20
-74.8074923475458
 30
0.0
 11
-20.82868877839826
 21
-89.20819414217871
 31
0.0
  0
LINE
  5
AA
330
1F
100
AcDbEntity
  8
1
  6
Continuous
 62
     7
100
AcDbLine
 10
13.05733775584999
 20
-81.47567808926163
 30
0.0
 11
16.37620816657825
 21
-85.09120516338835
 31
0.0
  0
LINE
  5
AB
330
1F
100
AcDbEntity
  8
0
  6
Continuous
 62
     7
100
AcDbLine
 10
12.75414517724998
 20
-80.75841982516164
 30
0.0
 11
12.75414517724997
 21
-79.00841982516184
 31
0.0
  0
LINE
  5
AC
330
1F
100
AcDbEntity
  8
1
  6
Continuous
 62
     7
100
AcDbLine
 10
12.75414517724997
 20
-79.00841982516184
 30
0.0
 11
59.25414517724965
 21
-79.00841982516184
 31
0.0
  0
LINE
  5
AD
330
1F
100
AcDbEntity
  8
1
  6
Continuous
 62
     7
100
AcDbLine
 10
-1.24585482274999
 20
-66.00841982516164
 30
0.0
 11
1.75414517725001
 21
-66.00841982516164
 31
0.0
  0
LINE
  5
AE
330
1F
100
AcDbEntity
  8
0
  6
Continuous
 62
     7
100
AcDbLine
 10
12.75414517724998
 20
-51.00841982516164
 30
0.0
 11
12.75414517724998
 21
-46.00841982516164
 31
0.0
  0
LINE
  5
AF
330
1F
100
AcDbEntity
  8
0
  6
Continuous
 62
     7
100
AcDbLine
 10
-16.74585482274999
 20
-47.00841982516161
 30
0.0
 11
-14.74585482274999
 21
-47.00841982516187
 31
0.0
  0
LINE
  5
B0
330
1F
100
AcDbEntity
  8
DEFAULT_1
  6
DOT_CENTER
 62
     2
100
AcDbLine
 10
7.25414517725002
 20
-61.00841982516184
 30
0.0
 11
-7.59079142364999
 21
-61.00841982516184
 31
0.0
  0
LINE
  5
B1
330
1F
100
AcDbEntity
  8
DEFAULT_1
  6
DOT_CENTER
 62
     2
100
AcDbLine
 10
-6.24585482274999
 20
-92.00841982516164
 30
0.0
 11
20.32607989515002
 21
-92.00841982516164
 31
0.0
  0
LINE
  5
B2
330
1F
100
AcDbEntity
  8
0
  6
Continuous
 62
     7
100
AcDbLine
 10
9.25414517725002
 20
-46.00841982516164
 30
0.0
 11
12.75414517724998
 21
-46.00841982516164
 31
0.0
  0
LINE
  5
B3
330
1F
100
AcDbEntity
  8
1
  6
DOT_CENTER
 62
     2
100
AcDbLine
 10
-3.74585482275035
 20
-24.00841982516184
 30
0.0
 11
59.25414517724965
 21
-24.00841982516184
 31
0.0
  0
LINE
  5
B4
330
1F
100
AcDbEntity
  8
1
  6
DOT_CENTER
 62
     2
100
AcDbLine
 10
-6.54063570653949
 20
-24.00841982516184
 30
0.0
 11
-3.74585482275035
 21
-24.00841982516184
 31
0.0
  0
LINE
  5
B5
330
1F
100
AcDbEntity
  8
1
  6
DOT_CENTER
 62
     2
100
AcDbLine
 10
59.25414517724965
 20
-24.00841982516184
 30
0.0
 11
62.80412954389576
 21
-24.00841982516184
 31
0.0
  0
LINE
  5
B6
330
1F
100
AcDbEntity
  8
1
  6
DOT_CENTER
 62
     2
100
AcDbLine
 10
-44.74585482275042
 20
-37.50239077242745
 30
0.0
 11
-44.74585482275037
 21
-39.00841982516184
 31
0.0
  0
LINE
  5
B7
330
1F
100
AcDbEntity
  8
1
  6
DOT_CENTER
 62
     2
100
AcDbLine
 10
-44.74585482275042
 20
-81.04165712984934
 30
0.0
 11
-44.74585482275042
 21
-79.00841982516184
 31
0.0
  0
LINE
  5
B8
330
1F
100
AcDbEntity
  8
1
  6
DOT_CENTER
 62
     2
100
AcDbLine
 10
-44.74585482275037
 20
-39.00841982516184
 30
0.0
 11
-44.74585482275042
 21
-79.00841982516184
 31
0.0
  0
LINE
  5
B9
330
1F
100
AcDbEntity
  8
1
  6
Continuous
 62
     7
100
AcDbLine
 10
-3.74585482275035
 20
-24.00841982516184
 30
0.0
 11
-3.74585482275035
 21
-34.00841982516184
 31
0.0
  0
LINE
  5
BA
330
1F
100
AcDbEntity
  8
1
  6
Continuous
 62
     7
100
AcDbLine
 10
5.75414517724991
 20
-39.00841982516184
 30
0.0
 11
5.7541451772496
 21
-47.00841982516187
 31
0.0
  0
LINE
  5
BB
330
1F
100
AcDbEntity
  8
1
  6
Continuous
 62
     7
100
AcDbLine
 10
-44.74585482275037
 20
-39.00841982516184
 30
0.0
 11
5.75414517724991
 21
-39.00841982516184
 31
0.0
  0
LINE
  5
BC
330
1F
100
AcDbEntity
  8
1
  6
Continuous
 62
     7
100
AcDbLine
 10
-0.74585482275
 20
-79.00841982516184
 30
0.0
 11
-44.74585482275042
 21
-79.00841982516184
 31
0.0
  0
LINE
  5
BD
330
1F
100
AcDbEntity
  8
1
  6
Continuous
 62
     7
100
AcDbLine
 10
-3.74585482275035
 20
-34.00841982516184
 30
0.0
 11
9.25414517724965
 21
-34.00841982516184
 31
0.0
  0
LINE
  5
BE
330
1F
100
AcDbEntity
  8
1
  6
Continuous
 62
     7
100
AcDbLine
 10
59.25414517724965
 20
-24.00841982516184
 30
0.0
 11
59.25414517724965
 21
-79.00841982516184
 31
0.0
  0
LINE
  5
BF
330
1F
100
AcDbEntity
  8
1
  6
Continuous
 62
     7
100
AcDbLine
 10
8.25414517724977
 20
-35.00841982516184
 30
0.0
 11
8.25414517724977
 21
-35.74047063273073
 31
0.0
  0
LINE
  5
C0
330
1F
100
AcDbEntity
  8
1
  6
Continuous
 62
     7
100
AcDbLine
 10
8.25414517724977
 20
-35.74047063273073
 30
0.0
 11
6.94474410049128
 21
-38.00841982516184
 31
0.0
  0
LINE
  5
C1
330
1F
100
AcDbEntity
  8
1
  6
Continuous
 62
     7
100
AcDbLine
 10
6.94474410049128
 20
-38.00841982516184
 30
0.0
 11
-1.43645374599185
 21
-38.00841982516184
 31
0.0
  0
LINE
  5
C2
330
1F
100
AcDbEntity
  8
1
  6
Continuous
 62
     7
100
AcDbLine
 10
-1.43645374599185
 20
-38.00841982516184
 30
0.0
 11
-2.74585482275035
 21
-35.74047063273073
 31
0.0
  0
LINE
  5
C3
330
1F
100
AcDbEntity
  8
1
  6
Continuous
 62
     7
100
AcDbLine
 10
-2.74585482275035
 20
-35.74047063273073
 30
0.0
 11
-2.74585482275024
 21
-35.00841982516184
 31
0.0
  0
LINE
  5
C4
330
1F
100
AcDbEntity
  8
1
  6
Continuous
 62
     7
100
AcDbLine
 10
-2.74585482275024
 20
-35.00841982516184
 30
0.0
 11
8.25414517724977
 21
-35.00841982516184
 31
0.0
  0
LINE
  5
C5
330
1F
100
AcDbEntity
  8
1
  6
Continuous
 62
     7
100
AcDbLine
 10
-3.74585482275035
 20
-34.00841982516184
 30
0.0
 11
-3.74585482275035
 21
-36.00841982516184
 31
0.0
  0
LINE
  5
C6
330
1F
100
AcDbEntity
  8
1
  6
Continuous
 62
     7
100
AcDbLine
 10
-3.74585482275035
 20
-36.00841982516184
 30
0.0
 11
-2.01380401518139
 21
-39.00841982516184
 31
0.0
  0
LINE
  5
C7
330
1F
100
AcDbEntity
  8
1
  6
Continuous
 62
     7
100
AcDbLine
 10
-2.01380401518139
 20
-39.00841982516184
 30
0.0
 11
7.52209436968093
 21
-39.00841982516184
 31
0.0
  0
LINE
  5
C8
330
1F
100
AcDbEntity
  8
1
  6
Continuous
 62
     7
100
AcDbLine
 10
7.52209436968093
 20
-39.00841982516184
 30
0.0
 11
9.25414517724977
 21
-36.00841982516184
 31
0.0
  0
LINE
  5
C9
330
1F
100
AcDbEntity
  8
1
  6
Continuous
 62
     7
100
AcDbLine
 10
5.75414517724981
 20
-65.00841982516164
 30
0.0
 11
5.7541451772496
 21
-47.00841982516187
 31
0.0
  0
LINE
  5
CA
330
1F
100
AcDbEntity
  8
1
  6
Continuous
 62
     7
100
AcDbLine
 10
1.75414517724997
 20
-71.00841982516164
 30
0.0
 11
1.75423904587335
 21
-71.00841982516184
 31
0.0
  0
LINE
  5
CB
330
1F
100
AcDbEntity
  8
1
  6
Continuous
 62
     7
100
AcDbLine
 10
-0.74585482275
 20
-79.00841982516184
 30
0.0
 11
-0.74585482275
 21
-71.00841982516184
 31
0.0
  0
LINE
  5
CC
330
1F
100
AcDbEntity
  8
1
  6
Continuous
 62
     7
100
AcDbLine
 10
1.75423904587375
 20
-79.00841982516184
 30
0.0
 11
-0.74585482275
 21
-79.00841982516184
 31
0.0
  0
LINE
  5
CD
330
1F
100
AcDbEntity
  8
1
  6
Continuous
 62
     7
100
AcDbLine
 10
-14.74585482274999
 20
-71.00841982516184
 30
0.0
 11
-0.74585482275
 21
-71.00841982516184
 31
0.0
  0
LINE
  5
CE
330
1F
100
AcDbEntity
  8
1
  6
Continuous
 62
     7
100
AcDbLine
 10
9.25414517724965
 20
-34.00841982516184
 30
0.0
 11
9.25414517724977
 21
-36.00841982516184
 31
0.0
  0
LINE
  5
CF
330
1F
100
AcDbEntity
  8
1
  6
DOT_CENTER
 62
     2
100
AcDbLine
 10
7.50409824293797
 20
-105.9891912300996
 30
0.0
 11
7.50409824293797
 21
-78.75841982516185
 31
0.0
  0
LINE
  5
D0
330
1F
100
AcDbEntity
  8
1
  6
Continuous
 62
     7
100
AcDbLine
 10
1.75423904587375
 20
-79.00841982516184
 30
0.0
 11
1.75423904587376
 21
-82.12899529776328
 31
0.0
  0
LINE
  5
D1
330
1F
100
AcDbEntity
  8
1
  6
DOT_CENTER
 62
     2
100
AcDbLine
 10
-8.24585482275032
 20
-54.00841982516184
 30
0.0
 11
7.44476985922802
 21
-54.00841982516184
 31
0.0
  0
LINE
  5
D2
330
1F
100
AcDbEntity
  8
1
  6
DOT_CENTER
 62
     2
100
AcDbLine
 10
-8.26068774021893
 20
-54.00841982516184
 30
0.0
 11
-8.24585482275032
 21
-54.00841982516184
 31
0.0
  0
LINE
  5
D3
330
1F
100
AcDbEntity
  8
0
  6
Continuous
 62
     7
100
AcDbLine
 10
4.25414517725002
 20
-47.00841982516161
 30
0.0
 11
5.75409824293797
 21
-47.00841982516164
 31
0.0
  0
LINE
  5
D4
330
1F
100
AcDbEntity
  8
1
  6
Continuous
 62
     7
100
AcDbLine
 10
4.25414517725002
 20
-47.00841982516161
 30
0.0
 11
-14.74585482274999
 21
-47.00841982516187
 31
0.0
  0
LINE
  5
D5
330
1F
100
AcDbEntity
  8
1
  6
DOT_CENTER
 62
     2
100
AcDbLine
 10
-7.6768529653977
 20
-57.50841982516184
 30
0.0
 11
7.44476985922802
 21
-57.50841982516181
 31
0.0
  0
LINE
  5
D6
330
1F
100
AcDbEntity
  8
1
  6
Continuous
 62
     7
100
AcDbLine
 10
-1.74585482274999
 20
-48.00841982516161
 30
0.0
 11
-1.74585482274999
 21
-65.50841982516164
 31
0.0
  0
LINE
  5
D7
330
1F
100
AcDbEntity
  8
1
  6
Continuous
 62
     7
100
AcDbLine
 10
-5.74585482274999
 20
-66.00830659866001
 30
0.0
 11
-5.74585482274999
 21
-48.00841982516161
 31
0.0
  0
LINE
  5
D8
330
1F
100
AcDbEntity
  8
0
  6
Continuous
 62
     7
100
AcDbLine
 10
-1.74585482274999
 20
-48.00841982516161
 30
0.0
 11
-5.74585482274999
 21
-48.00841982516161
 31
0.0
  0
LINE
  5
D9
330
1F
100
AcDbEntity
  8
1
  6
Continuous
 62
     7
100
AcDbLine
 10
1.75414517725001
 20
-70.50841982516164
 30
0.0
 11
1.75414517724997
 21
-71.00841982516164
 31
0.0
  0
LINE
  5
DA
330
1F
100
AcDbEntity
  8
1
  6
Continuous
 62
     7
100
AcDbLine
 10
-0.74585482275
 20
-71.00841982516184
 30
0.0
 11
1.75414517724997
 21
-71.00841982516164
 31
0.0
  0
LINE
  5
DB
330
1F
100
AcDbEntity
  8
0
  6
Continuous
 62
     7
100
AcDbLine
 10
-14.74585482274999
 20
-71.00841982516184
 30
0.0
 11
1.75414517724997
 21
-71.00841982516164
 31
0.0
  0
LINE
  5
DC
330
1F
100
AcDbEntity
  8
1
  6
Continuous
 62
     7
100
AcDbLine
 10
5.75414517725001
 20
-70.00841982516148
 30
0.0
 11
5.75414517725002
 21
-70.50841982516164
 31
0.0
  0
LINE
  5
DD
330
1F
100
AcDbEntity
  8
0
  6
Continuous
 62
     7
100
AcDbLine
 10
-14.74585482274999
 20
-47.00841982516187
 30
0.0
 11
4.25414517725002
 21
-47.00841982516161
 31
0.0
  0
LINE
  5
DE
330
1F
100
AcDbEntity
  8
1
  6
Continuous
 62
     7
100
AcDbLine
 10
5.7541451772496
 20
-47.00841982516187
 30
0.0
 11
4.25414517725002
 21
-47.00841982516161
 31
0.0
  0
LINE
  5
DF
330
1F
100
AcDbEntity
  8
1
  6
Continuous
 62
     7
100
AcDbLine
 10
-16.74585482274999
 20
-71.00841982516164
 30
0.0
 11
-14.74585482274999
 21
-71.00841982516184
 31
0.0
  0
LINE
  5
E0
330
1F
100
AcDbEntity
  8
1
  6
Continuous
 62
     7
100
AcDbLine
 10
-16.74585482274999
 20
-47.00841982516161
 30
0.0
 11
-16.74585482274999
 21
-71.00841982516164
 31
0.0
  0
LINE
  5
E1
330
1F
100
AcDbEntity
  8
1
  6
Continuous
 62
     7
100
AcDbLine
 10
1.75423904587335
 20
-71.00841982516184
 30
0.0
 11
1.75423904587375
 21
-79.00841982516184
 31
0.0
  0
LINE
  5
E2
330
1F
100
AcDbEntity
  8
1
  6
Continuous
 62
     7
100
AcDbLine
 10
1.75423904587375
 20
-79.00840253358865
 30
0.0
 11
1.75423904587375
 21
-79.00841982516184
 31
0.0
  0
LINE
  5
E3
330
1F
100
AcDbEntity
  8
1
  6
Continuous
 62
     7
100
AcDbLine
 10
5.75414517725002
 20
-79.00841982516184
 30
0.0
 11
5.75414517725002
 21
-70.50841982516164
 31
0.0
  0
LINE
  5
E4
330
1F
100
AcDbEntity
  8
1
  6
Continuous
 62
     7
100
AcDbLine
 10
-1.74600578762031
 20
-70.00830659581122
 30
0.0
 11
1.25414517725001
 21
-70.00841982516164
 31
0.0
  0
LINE
  5
E5
330
1F
100
AcDbEntity
  8
1
  6
Continuous
 62
     7
100
AcDbLine
 10
9.25414517724963
 20
-79.00841982516184
 30
0.0
 11
9.2541451772496
 21
-80.89537455371263
 31
0.0
  0
LINE
  5
E6
330
1F
100
AcDbEntity
  8
1
  6
Continuous
 62
     7
100
AcDbLine
 10
9.25414517724977
 20
-36.00841982516184
 30
0.0
 11
9.25414517725002
 21
-46.00841982516164
 31
0.0
  0
LINE
  5
E7
330
1F
100
AcDbEntity
  8
1
  6
Continuous
 62
     7
100
AcDbLine
 10
8.60397309326284
 20
-84.3368874819535
 30
0.0
 11
9.15529359511454
 21
-80.88025631712631
 31
0.0
  0
LINE
  5
E8
330
1F
100
AcDbEntity
  8
1
  6
Continuous
 62
     7
100
AcDbLine
 10
10.19556208604755
 20
-83.66932095426601
 30
0.0
 11
12.75414517724998
 21
-86.30761809498483
 31
0.0
  0
LINE
  5
E9
330
1F
100
AcDbEntity
  8
1
  6
DASHED
 62
     2
100
AcDbLine
 10
9.25414517724963
 20
-79.00841982516184
 30
0.0
 11
12.75414517724997
 21
-79.00841982516184
 31
0.0
  0
LINE
  5
EA
330
1F
100
AcDbEntity
  8
1
  6
Continuous
 62
     7
100
AcDbLine
 10
9.25414517724975
 20
-73.25841982516164
 30
0.0
 11
9.25414517724963
 21
-79.00841982516184
 31
0.0
  0
LINE
  5
EB
330
1F
100
AcDbEntity
  8
1
  6
DASHED
 62
     2
100
AcDbLine
 10
5.75414517725002
 20
-79.00841982516184
 30
0.0
 11
1.75423904587375
 21
-79.00841982516184
 31
0.0
  0
LINE
  5
EC
330
1F
100
AcDbEntity
  8
1
  6
Continuous
 62
     7
100
AcDbLine
 10
5.75414517725002
 20
-80.89535477956873
 30
0.0
 11
5.75414517725002
 21
-79.00841982516184
 31
0.0
  0
LINE
  5
ED
330
1F
100
AcDbEntity
  8
1
  6
DOT_CENTER
 62
     2
100
AcDbLine
 10
8.05414517724992
 20
-54.00841982516164
 30
0.0
 11
39.25414517724997
 21
-54.00841982516164
 31
0.0
  0
LINE
  5
EE
330
1F
100
AcDbEntity
  8
1
  6
DASHED
 62
     2
100
AcDbLine
 10
11.80414517724992
 20
-51.00841982516164
 30
0.0
 11
12.75414517724998
 21
-51.00841982516164
 31
0.0
  0
LINE
  5
EF
330
1F
100
AcDbEntity
  8
0
  6
Continuous
 62
     7
100
AcDbLine
 10
12.75414517724998
 20
-55.00841982516164
 30
0.0
 11
12.75414517724998
 21
-51.00841982516164
 31
0.0
  0
LINE
  5
F0
330
1F
100
AcDbEntity
  8
1
  6
DASHED
 62
     2
100
AcDbLine
 10
9.55414517724992
 20
-48.75841982516164
 30
0.0
 11
11.80414517724992
 21
-51.00841982516164
 31
0.0
  0
LINE
  5
F1
330
1F
100
AcDbEntity
  8
1
  6
DASHED
 62
     2
100
AcDbLine
 10
11.80414517724992
 20
-57.00841982516164
 30
0.0
 11
12.75414517724998
 21
-57.00841982516164
 31
0.0
  0
LINE
  5
F2
330
1F
100
AcDbEntity
  8
0
  6
Continuous
 62
     7
100
AcDbLine
 10
12.75414517724998
 20
-61.00841982516164
 30
0.0
 11
12.75414517724998
 21
-57.00841982516164
 31
0.0
  0
LINE
  5
F3
330
1F
100
AcDbEntity
  8
1
  6
DASHED
 62
     2
100
AcDbLine
 10
9.55414517724992
 20
-59.25841982516164
 30
0.0
 11
11.80414517724992
 21
-57.00841982516164
 31
0.0
  0
LINE
  5
F4
330
1F
100
AcDbEntity
  8
1
  6
DASHED
 62
     2
100
AcDbLine
 10
11.80414517724988
 20
-55.00841982516164
 30
0.0
 11
11.80414517724992
 21
-51.00841982516164
 31
0.0
  0
LINE
  5
F5
330
1F
100
AcDbEntity
  8
1
  6
DASHED
 62
     2
100
AcDbLine
 10
9.55414517724988
 20
-52.75841982516164
 30
0.0
 11
9.55414517724992
 21
-48.75841982516164
 31
0.0
  0
LINE
  5
F6
330
1F
100
AcDbEntity
  8
1
  6
DASHED
 62
     2
100
AcDbLine
 10
9.25414517724992
 20
-48.75841982516164
 30
0.0
 11
9.55414517724992
 21
-48.75841982516164
 31
0.0
  0
LINE
  5
F7
330
1F
100
AcDbEntity
  8
1
  6
Continuous
 62
     7
100
AcDbLine
 10
9.25414517725002
 20
-46.00841982516164
 30
0.0
 11
9.25414517724992
 21
-48.75841982516164
 31
0.0
  0
LINE
  5
F8
330
1F
100
AcDbEntity
  8
1
  6
DASHED
 62
     2
100
AcDbLine
 10
9.25414517724992
 20
-59.25841982516164
 30
0.0
 11
9.55414517724992
 21
-59.25841982516164
 31
0.0
  0
LINE
  5
F9
330
1F
100
AcDbEntity
  8
1
  6
Continuous
 62
     7
100
AcDbLine
 10
9.25414517724988
 20
-52.75841982516164
 30
0.0
 11
9.25414517724992
 21
-59.25841982516164
 31
0.0
  0
LINE
  5
FA
330
1F
100
AcDbEntity
  8
1
  6
DOT_CENTER
 62
     2
100
AcDbLine
 10
8.05414517724988
 20
-58.00841982516164
 30
0.0
 11
39.25414517724997
 21
-58.00841982516164
 31
0.0
  0
LINE
  5
FB
330
1F
100
AcDbEntity
  8
1
  6
DASHED
 62
     2
100
AcDbLine
 10
11.80414517724988
 20
-55.00841982516164
 30
0.0
 11
12.75414517724998
 21
-55.00841982516164
 31
0.0
  0
LINE
  5
FC
330
1F
100
AcDbEntity
  8
0
  6
Continuous
 62
     7
100
AcDbLine
 10
12.75414517724998
 20
-57.00841982516164
 30
0.0
 11
12.75414517724998
 21
-55.00841982516164
 31
0.0
  0
LINE
  5
FD
330
1F
100
AcDbEntity
  8
1
  6
DASHED
 62
     2
100
AcDbLine
 10
11.80414517724992
 20
-57.00841982516164
 30
0.0
 11
11.80414517724988
 21
-55.00841982516164
 31
0.0
  0
LINE
  5
FE
330
1F
100
AcDbEntity
  8
1
  6
DASHED
 62
     2
100
AcDbLine
 10
9.55414517724988
 20
-52.75841982516164
 30
0.0
 11
11.80414517724988
 21
-55.00841982516164
 31
0.0
  0
LINE
  5
FF
330
1F
100
AcDbEntity
  8
1
  6
DASHED
 62
     2
100
AcDbLine
 10
9.55414517724992
 20
-59.25841982516164
 30
0.0
 11
9.55414517724988
 21
-52.75841982516164
 31
0.0
  0
LINE
  5
100
330
1F
100
AcDbEntity
  8
1
  6
DASHED
 62
     2
100
AcDbLine
 10
11.80414517724988
 20
-61.00841982516164
 30
0.0
 11
12.75414517724998
 21
-61.00841982516164
 31
0.0
  0
LINE
  5
101
330
1F
100
AcDbEntity
  8
0
  6
Continuous
 62
     7
100
AcDbLine
 10
12.75414517724998
 20
-65.00841982516164
 30
0.0
 11
12.75414517724998
 21
-61.00841982516164
 31
0.0
  0
LINE
  5
102
330
1F
100
AcDbEntity
  8
1
  6
DASHED
 62
     2
100
AcDbLine
 10
9.55414517724988
 20
-63.25841982516164
 30
0.0
 11
11.80414517724988
 21
-61.00841982516164
 31
0.0
  0
LINE
  5
103
330
1F
100
AcDbEntity
  8
1
  6
DASHED
 62
     2
100
AcDbLine
 10
11.80414517724988
 20
-61.00841982516164
 30
0.0
 11
11.80414517724988
 21
-55.00841982516164
 31
0.0
  0
LINE
  5
104
330
1F
100
AcDbEntity
  8
1
  6
DASHED
 62
     2
100
AcDbLine
 10
9.55414517724975
 20
-62.75841982516164
 30
0.0
 11
9.55414517724988
 21
-52.75841982516164
 31
0.0
  0
LINE
  5
105
330
1F
100
AcDbEntity
  8
1
  6
DASHED
 62
     2
100
AcDbLine
 10
9.25414517724988
 20
-52.75841982516164
 30
0.0
 11
9.55414517724988
 21
-52.75841982516164
 31
0.0
  0
LINE
  5
106
330
1F
100
AcDbEntity
  8
1
  6
Continuous
 62
     7
100
AcDbLine
 10
9.25414517724992
 20
-48.75841982516164
 30
0.0
 11
9.25414517724988
 21
-52.75841982516164
 31
0.0
  0
LINE
  5
107
330
1F
100
AcDbEntity
  8
1
  6
DASHED
 62
     2
100
AcDbLine
 10
9.25414517724988
 20
-63.25841982516164
 30
0.0
 11
9.55414517724988
 21
-63.25841982516164
 31
0.0
  0
LINE
  5
108
330
1F
100
AcDbEntity
  8
1
  6
Continuous
 62
     7
100
AcDbLine
 10
9.25414517724975
 20
-62.75841982516164
 30
0.0
 11
9.25414517724988
 21
-63.25841982516164
 31
0.0
  0
LINE
  5
109
330
1F
100
AcDbEntity
  8
1
  6
DOT_CENTER
 62
     2
100
AcDbLine
 10
8.05414517724975
 20
-68.00841982516164
 30
0.0
 11
39.25414517724997
 21
-68.00841982516161
 31
0.0
  0
LINE
  5
10A
330
1F
100
AcDbEntity
  8
1
  6
DASHED
 62
     2
100
AcDbLine
 10
11.80414517724975
 20
-65.00841982516164
 30
0.0
 11
12.75414517724998
 21
-65.00841982516164
 31
0.0
  0
LINE
  5
10B
330
1F
100
AcDbEntity
  8
0
  6
Continuous
 62
     7
100
AcDbLine
 10
12.75414517724998
 20
-71.00841982516164
 30
0.0
 11
12.75414517724998
 21
-65.00841982516164
 31
0.0
  0
LINE
  5
10C
330
1F
100
AcDbEntity
  8
1
  6
DASHED
 62
     2
100
AcDbLine
 10
9.55414517724975
 20
-62.75841982516164
 30
0.0
 11
11.80414517724975
 21
-65.00841982516164
 31
0.0
  0
LINE
  5
10D
330
1F
100
AcDbEntity
  8
1
  6
DASHED
 62
     2
100
AcDbLine
 10
9.55414517724988
 20
-63.25841982516164
 30
0.0
 11
9.55414517724975
 21
-62.75841982516164
 31
0.0
  0
LINE
  5
10E
330
1F
100
AcDbEntity
  8
1
  6
DASHED
 62
     2
100
AcDbLine
 10
11.80414517724975
 20
-71.00841982516164
 30
0.0
 11
12.75414517724998
 21
-71.00841982516164
 31
0.0
  0
LINE
  5
10F
330
1F
100
AcDbEntity
  8
0
  6
Continuous
 62
     7
100
AcDbLine
 10
12.75414517724997
 20
-79.00841982516184
 30
0.0
 11
12.75414517724998
 21
-71.00841982516164
 31
0.0
  0
LINE
  5
110
330
1F
100
AcDbEntity
  8
1
  6
DASHED
 62
     2
100
AcDbLine
 10
9.55414517724975
 20
-73.25841982516164
 30
0.0
 11
11.80414517724975
 21
-71.00841982516164
 31
0.0
  0
LINE
  5
111
330
1F
100
AcDbEntity
  8
1
  6
DASHED
 62
     2
100
AcDbLine
 10
11.80414517724975
 20
-71.00841982516164
 30
0.0
 11
11.80414517724975
 21
-65.00841982516164
 31
0.0
  0
LINE
  5
112
330
1F
100
AcDbEntity
  8
1
  6
DASHED
 62
     2
100
AcDbLine
 10
9.55414517724975
 20
-73.25841982516164
 30
0.0
 11
9.55414517724975
 21
-62.75841982516164
 31
0.0
  0
LINE
  5
113
330
1F
100
AcDbEntity
  8
1
  6
DASHED
 62
     2
100
AcDbLine
 10
9.25414517724975
 20
-62.75841982516164
 30
0.0
 11
9.55414517724975
 21
-62.75841982516164
 31
0.0
  0
LINE
  5
114
330
1F
100
AcDbEntity
  8
1
  6
Continuous
 62
     7
100
AcDbLine
 10
9.25414517724992
 20
-59.25841982516164
 30
0.0
 11
9.25414517724975
 21
-62.75841982516164
 31
0.0
  0
LINE
  5
115
330
1F
100
AcDbEntity
  8
1
  6
DASHED
 62
     2
100
AcDbLine
 10
9.25414517724975
 20
-73.25841982516164
 30
0.0
 11
9.55414517724975
 21
-73.25841982516164
 31
0.0
  0
LINE
  5
116
330
1F
100
AcDbEntity
  8
1
  6
Continuous
 62
     7
100
AcDbLine
 10
9.25414517724988
 20
-63.25841982516164
 30
0.0
 11
9.25414517724975
 21
-73.25841982516164
 31
0.0
  0
LINE
  5
117
330
1F
100
AcDbEntity
  8
1
  6
Continuous
 62
     7
100
AcDbLine
 10
5.75414517725001
 20
-70.00841982516148
 30
0.0
 11
5.75414517724981
 21
-65.00841982516164
 31
0.0
  0
LINE
  5
118
330
1F
100
AcDbEntity
  8
1
  6
Continuous
 62
     2
100
AcDbLine
 10
-79.18007245120526
 20
-13.9449506483752
 30
0.0
 11
-44.94839420999001
 21
-13.94495064837521
 31
0.0
  0
LINE
  5
119
330
1F
100
AcDbEntity
  8
1
  6
Continuous
 62
     2
100
AcDbLine
 10
-18.17890082948451
 20
-95.86650884189287
 30
0.0
 11
-9.74807815611007
 21
-117.0512495151321
 31
0.0
  0
LINE
  5
11A
330
1F
100
AcDbEntity
  8
1
  6
Continuous
 62
     2
100
AcDbLine
 10
-50.76605601239437
 20
-28.84789416604692
 30
0.0
 11
-10.0266181212008
 21
-28.84789416604692
 31
0.0
  0
LINE
  5
11B
330
1F
100
AcDbEntity
  8
1
  6
Continuous
 62
     2
100
AcDbLine
 10
-3.27618267410805
 20
-36.8219158495103
 30
0.0
 11
-10.0266181212008
 21
-28.84789416604692
 31
0.0
  0
LINE
  5
11C
330
1F
100
AcDbEntity
  8
1
  6
Continuous
 62
     2
100
AcDbLine
 10
8.96191736044136
 20
-117.0512495151321
 30
0.0
 11
-9.74807815611007
 21
-117.0512495151321
 31
0.0
  0
ARC
  5
125
330
1F
100
AcDbEntity
  8
1
  6
Continuous
 62
     7
100
AcDbCircle
 10
154.9828590909877
 20
-149.0539019876726
 30
0.0
 40
12.0
100
AcDbArc
 50
-90.0
 51
0.0
  0
ARC
  5
126
330
1F
100
AcDbEntity
  8
1
  6
Continuous
 62
     7
100
AcDbCircle
 10
154.9828590909877
 20
-13.0539019876726
 30
0.0
 40
12.0
100
AcDbArc
 50
0.0
 51
90.0
  0
ARC
  5
127
330
1F
100
AcDbEntity
  8
1
  6
Continuous
 62
     7
100
AcDbCircle
 10
-108.3612348384093
 20
-178.2217438372031
 30
0.0
 40
12.0
100
AcDbArc
 50
180.0
 51
-90.00000000000048
  0
ARC
  5
128
330
1F
100
AcDbEntity
  8
1
  6
Continuous
 62
     7
100
AcDbCircle
 10
-108.3612348384094
 20
-42.22174383720309
 30
0.0
 40
12.00000000000004
100
AcDbArc
 50
-0.00000000000007
 51
90.0
  0
ARC
  5
129
330
1F
100
AcDbEntity
  8
1
  6
Continuous
 62
     7
100
AcDbCircle
 10
-108.3612348384094
 20
-42.22174383720309
 30
0.0
 40
12.0
100
AcDbArc
 50
90.0
 51
-179.9999999999999
  0
ARC
  5
12A
330
1F
100
AcDbEntity
  8
1
  6
Continuous
 62
     7
100
AcDbCircle
 10
-108.3612348384093
 20
-178.2217438372031
 30
0.0
 40
12.0
100
AcDbArc
 50
-90.00000000000048
 51
0.0
  0
ARC
  5
12B
330
1F
100
AcDbEntity
  8
1
  6
Continuous
 62
     7
100
AcDbCircle
 10
-108.3612348384093
 20
-196.2217438372031
 30
0.0
 40
12.0
100
AcDbArc
 50
-90.0
 51
0.0
  0
ARC
  5
12C
330
1F
100
AcDbEntity
  8
1
  6
Continuous
 62
     7
100
AcDbCircle
 10
-108.3612348384093
 20
-24.22174383720306
 30
0.0
 40
12.0
100
AcDbArc
 50
90.0
 51
180.0
  0
ARC
  5
12D
330
1F
100
AcDbEntity
  8
1
  6
Continuous
 62
     7
100
AcDbCircle
 10
-108.3612348384093
 20
-196.2217438372031
 30
0.0
 40
12.00000000000008
100
AcDbArc
 50
-128.6821874534891
 51
-90.0
  0
ARC
  5
12E
330
1F
100
AcDbEntity
  8
1
  6
Continuous
 62
     7
100
AcDbCircle
 10
-108.3612348384093
 20
-196.2217438372031
 30
0.0
 40
12.0
100
AcDbArc
 50
180.0
 51
-128.6821874534891
  0
ARC
  5
12F
330
1F
100
AcDbEntity
  8
1
  6
Continuous
 62
     7
100
AcDbCircle
 10
-108.3612348384093
 20
-24.22174383720306
 30
0.0
 40
12.0
100
AcDbArc
 50
0.0
 51
90.0
  0
ARC
  5
130
330
1F
100
AcDbEntity
  8
1
  6
Continuous
 62
     7
100
AcDbCircle
 10
14.38740191915184
 20
-80.69998055501716
 30
0.0
 40
5.136974167057007
100
AcDbArc
 50
-177.8201267116513
 51
-144.6876896568406
  0
ARC
  5
131
330
1F
100
AcDbEntity
  8
0
  6
Continuous
 62
     7
100
AcDbCircle
 10
13.75414517725
 20
-80.75841982516164
 30
0.0
 40
1.000000000000021
100
AcDbArc
 50
180.0
 51
-134.1714208884403
  0
ARC
  5
132
330
1F
100
AcDbEntity
  8
1
  6
Continuous
 62
     7
100
AcDbCircle
 10
1.25414517725001
 20
-70.50841982516164
 30
0.0
 40
0.5
100
AcDbArc
 50
0.0
 51
90.0
  0
ARC
  5
133
330
1F
100
AcDbEntity
  8
1
  6
Continuous
 62
     7
100
AcDbCircle
 10
7.50408623890273
 20
-92.00840764047491
 30
0.0
 40
11.24998833815188
100
AcDbArc
 50
81.55997080195569
 51
98.94872354845494
  0
ARC
  5
134
330
1F
100
AcDbEntity
  8
1
  6
Continuous
 62
     7
100
AcDbCircle
 10
7.50408623890273
 20
-92.00840764047491
 30
0.0
 40
11.24998833815188
100
AcDbArc
 50
98.94872354845494
 51
37.94197209653794
  0
ARC
  5
135
330
1F
100
AcDbEntity
  8
1
  6
Continuous
 62
     7
100
AcDbCircle
 10
7.50409824293797
 20
-92.00841982516165
 30
0.0
 40
7.749976334110058
100
AcDbArc
 50
81.84104973943926
 51
47.3570571844711
  0
ARC
  5
136
330
1F
100
AcDbEntity
  8
1
  6
Continuous
 62
     7
100
AcDbCircle
 10
7.50409824293797
 20
-92.00841982516165
 30
0.0
 40
7.749976334110056
100
AcDbArc
 50
47.3570571844711
 51
81.84104973943926
  0
CIRCLE
  5
137
330
1F
100
AcDbEntity
  8
1
  6
DASHED
 62
     2
100
AcDbCircle
 10
158.9828590909877
 20
-81.0539019876726
 30
0.0
 40
5.99999999999994
  0
CIRCLE
  5
138
330
1F
100
AcDbEntity
  8
1
  6
Continuous
 62
     7
100
AcDbCircle
 10
158.9828590909877
 20
-81.0539019876726
 30
0.0
 40
1.5
  0
CIRCLE
  5
139
330
1F
100
AcDbEntity
  8
1
  6
DOT_CENTER
 62
     2
100
AcDbCircle
 10
154.9828590909877
 20
-13.0539019876726
 30
0.0
 40
12.0
  0
CIRCLE
  5
13A
330
1F
100
AcDbEntity
  8
1
  6
Continuous
 62
     7
100
AcDbCircle
 10
154.9828590909877
 20
-13.0539019876726
 30
0.0
 40
1.5
  0
CIRCLE
  5
13B
330
1F
100
AcDbEntity
  8
1
  6
Continuous
 62
     7
100
AcDbCircle
 10
144.9828590909877
 20
-115.0539019876726
 30
0.0
 40
1.5
  0
CIRCLE
  5
13C
330
1F
100
AcDbEntity
  8
1
  6
Continuous
 62
     7
100
AcDbCircle
 10
154.9828590909877
 20
-149.0539019876726
 30
0.0
 40
1.5
  0
CIRCLE
  5
13D
330
1F
100
AcDbEntity
  8
1
  6
Continuous
 62
     7
100
AcDbCircle
 10
144.9828590909877
 20
-47.0539019876726
 30
0.0
 40
1.5
  0
XLINE
  5
13E
330
1F
100
AcDbEntity
  8
1
  6
DOT_CENTER
 62
     3
 60
     1
100
AcDbXline
 10
1.75423904587335
 20
-71.00841982516184
 30
0.0
 11
1.0
 21
0.0
 31
0.0
  0
ARC
  5
13F
330
1F
100
AcDbEntity
  8
1
  6
Continuous
 62
     7
100
AcDbCircle
 10
-1.24585482274999
 20
-65.50841982516164
 30
0.0
 40
0.5
100
AcDbArc
 50
180.0
 51
-90.0
  0
ARC
  5
140
330
1F
100
AcDbEntity
  8
1
  6
Continuous
 62
     7
100
AcDbCircle
 10
1.25414517725004
 20
-82.1289952977633
 30
0.0
 40
0.500000000000006
100
AcDbArc
 50
-30.00000000000336
 51
-0.00000000000326
  0
ARC
  5
141
330
1F
100
AcDbEntity
  8
1
  6
Continuous
 62
     7
100
AcDbCircle
 10
1.25414517725004
 20
-82.1289952977633
 30
0.0
 40
0.500000000000006
100
AcDbArc
 50
-30.00000000000336
 51
-0.00000000000326
  0
ARC
  5
142
330
1F
100
AcDbEntity
  8
1
  6
Continuous
 62
     7
100
AcDbCircle
 10
1.75414517725001
 20
-70.00841982516164
 30
0.0
 40
4.000000000000002
100
AcDbArc
 50
0.00000000000224
 51
90.0
  0
ARC
  5
143
330
1F
100
AcDbEntity
  8
1
  6
Continuous
 62
     7
100
AcDbCircle
 10
-1.74585482274999
 20
-66.00830659866001
 30
0.0
 40
4.0
100
AcDbArc
 50
180.0
 51
-90.00216241248147
  0
LWPOLYLINE
  5
144
330
1F
100
AcDbEntity
  8
1
  6
Continuous
 62
     3
100
AcDbPolyline
 90
        5
 70
     1
 43
0.0
 10
62.95385282210907
 20
-144.9814988742752
 10
62.95385282210907
 20
-135.7814988742752
 10
-25.69114717789091
 20
-135.7814988742752
 10
-25.69114717789091
 20
-144.9814988742752
 10
62.95385282210907
 20
-144.9814988742752
  0
LWPOLYLINE
  5
145
330
1F
100
AcDbEntity
  8
1
  6
Continuous
 62
     3
100
AcDbPolyline
 90
        5
 70
     1
 43
0.0
 10
39.29285282210913
 20
-179.403363793387
 10
39.29285282210913
 20
-171.403363793387
 10
-25.69114717789091
 20
-171.403363793387
 10
-25.69114717789091
 20
-179.403363793387
 10
39.29285282210913
 20
-179.403363793387
  0
MTEXT
  5
147
330
1F
100
AcDbEntity
  8
1
 62
     3
100
AcDbMText
 10
94.9105131647759
 20
-175.253856794216
 30
0.0
 40
3.5
 41
0.0
 71
     4
 72
     1
  1
Fräsbild\PRahmen
  7
CONVERTER_11
 73
     1
 44
1.32052821128451
  0
MTEXT
  5
148
330
1F
100
AcDbEntity
  8
1
 62
     3
100
AcDbMText
 10
-67.0894868352241
 20
-246.253856794216
 30
0.0
 40
3.5
 41
0.0
 71
     4
 72
     1
  1
Fräsbild\PFlügel
  7
CONVERTER_11
 73
     1
 44
1.32052821128451
  0
MTEXT
  5
149
330
1F
100
AcDbEntity
  8
1
 62
     2
100
AcDbMText
 10
104.0388349926467
 20
-52.88900370466759
 30
0.0
 40
2.5
 41
0.0
 71
     5
 72
     1
  1
Bandbezugslinie
  7
CONVERTER_11
 73
     1
 44
1.32052821128451
  0
MTEXT
  5
14A
330
1F
100
AcDbEntity
  8
1
 62
     2
100
AcDbMText
 10
112.581204910791
 20
-22.64328891354339
 30
0.0
 40
2.5
 41
0.0
 71
     5
 72
     1
  1
Tragzapfen
  7
CONVERTER_11
 73
     1
 44
1.32052821128451
  0
TEXT
  5
14C
330
1F
100
AcDbEntity
  8
1
 62
     2
100
AcDbText
 10
-23.69114717789091
 20
-202.8356333785647
 30
0.0
 40
3.2
  1
herstellerspezifisch.
 41
0.8732691
  7
CONVERTER_12
100
AcDbText
  0
TEXT
  5
14D
330
1F
100
AcDbEntity
  8
1
 62
     2
100
AcDbText
 10
-23.69114717789091
 20
-195.7956333785647
 30
0.0
 40
3.2
  1
der Dichtungsandruck sind jeweils
 41
0.8732691
  7
CONVERTER_12
100
AcDbText
  0
TEXT
  5
14E
330
1F
100
AcDbEntity
  8
1
 62
     2
100
AcDbText
 10
-23.69114717789091
 20
-188.7556333785647
 30
0.0
 40
3.2
  1
Die Tuerdicke, Zargenfalztiefe und
 41
0.8732691
  7
CONVERTER_12
100
AcDbText
  0
MTEXT
  5
14F
330
1F
100
AcDbEntity
  8
1
 62
     3
100
AcDbMText
 10
-23.69114717789091
 20
-173.403363793387
 30
0.0
 40
4.0
 41
0.0
 71
     1
 72
     1
  1
A + B - C = Mass X
  7
CONVERTER_12
 73
     1
 44
0.60024009603842
  0
MTEXT
  5
150
330
1F
100
AcDbEntity
  8
1
 62
     2
100
AcDbMText
 10
-0.44668099424439
 20
-114.2073753396806
 30
0.0
 40
2.8
 41
0.0
 71
     5
 72
     1
  1
Türdicke
  7
CONVERTER_12
 73
     1
 44
0.60024009603842
  0
TEXT
  5
151
330
1F
100
AcDbEntity
  8
1
 62
     2
100
AcDbText
 10
-73.69914498280303
 20
-17.89972940182869
 30
0.0
 40
2.8
  1
Mass
 41
0.8732691
  7
CONVERTER_12
100
AcDbText
  0
TEXT
  5
152
330
1F
100
AcDbEntity
  8
1
 62
     2
100
AcDbText
 10
-76.69914498280303
 20
-11.7397294018287
 30
0.0
 40
2.8
  1
zu ermittelndes
 41
0.8732691
  7
CONVERTER_12
100
AcDbText
  0
TEXT
  5
153
330
1F
100
AcDbEntity
  8
1
 62
     2
100
AcDbText
 10
-23.69114717789091
 20
-165.4122066795163
 30
0.0
 40
3.2
  1
C = Breite Bandfluegelteil
 41
0.8732691
  7
CONVERTER_12
100
AcDbText
  0
TEXT
  5
154
330
1F
100
AcDbEntity
  8
1
 62
     2
100
AcDbText
 10
-23.69114717789091
 20
-158.3722066795163
 30
0.0
 40
3.2
  1
B = Bandabstand zum Zargenspiegel
 41
0.8732691
  7
CONVERTER_12
100
AcDbText
  0
TEXT
  5
155
330
1F
100
AcDbEntity
  8
1
 62
     2
100
AcDbText
 10
-23.69114717789091
 20
-151.3322066795163
 30
0.0
 40
3.2
  1
A = Zargenfalztiefe bis Schliessebene
 41
0.8732691
  7
CONVERTER_12
100
AcDbText
  0
MTEXT
  5
156
330
1F
100
AcDbEntity
  8
1
 62
     2
100
AcDbMText
 10
-30.17782313252731
 20
-25.15082285810021
 30
0.0
 40
2.8
 41
0.0
 71
     5
 72
     1
  1
Dichtungsandruck
  7
CONVERTER_12
 73
     1
 44
0.60024009603842
  0
MTEXT
  5
157
330
1F
100
AcDbEntity
  8
1
 62
     3
100
AcDbMText
 10
-23.69114717789091
 20
-137.7814988742752
 30
0.0
 40
4.0
 41
0.0
 71
     1
 72
     1
  1
Berechnung der Fraesbreite:
  7
CONVERTER_12
 73
     1
 44
0.60024009603842
  0
DIMENSION
  5
164
330
1F
100
AcDbEntity
  8
1
100
AcDbDimension
  2
*D1
 10
158.9828590909877
 20
-70.8600510892488
 30
0.0
 11
162.2492403585473
 21
-67.1100510892488
 31
0.0
 70
    32
  1
<>
 71
     5
 42
-1.0
 53
0.00013888888889
  3
ME10_DIM_10
100
AcDbAlignedDimension
 13
166.9828590909877
 23
-13.0539019876726
 33
0.0
 14
158.9828590909877
 24
-74.07752408638261
 34
0.0
100
AcDbRotatedDimension
  0
DIMENSION
  5
16F
330
1F
100
AcDbEntity
  8
1
100
AcDbDimension
  2
*D2
 10
133.9828590909877
 20
-179.2466173831278
 30
0.0
 11
150.0818547465967
 21
-175.4966173831278
 31
0.0
 70
    32
  1
<>
 71
     5
 42
-1.0
 53
0.00013888888889
  3
ME10_DIM_11
100
AcDbAlignedDimension
 13
166.9828590909877
 23
-149.0539019876726
 33
0.0
 14
133.9828590909877
 24
-167.0539019876727
 34
0.0
100
AcDbRotatedDimension
  0
DIMENSION
  5
17B
330
1F
100
AcDbEntity
  8
1
100
AcDbDimension
  2
*D3
 10
154.9828590909877
 20
-20.6057978423825
 30
0.0
 11
176.6870575616475
 21
-16.8557978423825
 31
0.0
 70
    32
  1
<>
 71
     5
 42
-1.0
 53
0.00013888888889
  3
ME10_DIM_12
100
AcDbAlignedDimension
 13
166.9828590909877
 23
-13.0539019876726
 33
0.0
 14
154.9828590909877
 24
-9.9039019876726
 34
0.0
100
AcDbRotatedDimension
  0
DIMENSION
  5
186
330
1F
100
AcDbEntity
  8
1
100
AcDbDimension
  2
*D4
 10
144.9828590909877
 20
-55.9854168780717
 30
0.0
 11
156.3466077350644
 21
-52.2354168780717
 31
0.0
 70
    32
  1
<>
 71
     5
 42
-1.0
 53
0.00013888888889
  3
ME10_DIM_13
100
AcDbAlignedDimension
 13
166.9828590909877
 23
-13.0539019876726
 33
0.0
 14
144.9828590909877
 24
-50.2039019876726
 34
0.0
100
AcDbRotatedDimension
  0
DIMENSION
  5
191
330
1F
100
AcDbEntity
  8
1
100
AcDbDimension
  2
*D5
 10
195.512403475962
 20
-115.0539019876726
 30
0.0
 11
191.762403475962
 21
-86.47068609427272
 31
0.0
 70
    32
  1
<>
 71
     5
 42
-1.0
 53
90.0
  3
ME10_DIM_14
100
AcDbAlignedDimension
 13
148.1328590909877
 23
-47.0539019876726
 33
0.0
 14
148.1328590909877
 24
-115.0539019876726
 34
0.0
 50
90.0
100
AcDbRotatedDimension
  0
DIMENSION
  5
19C
330
1F
100
AcDbEntity
  8
1
100
AcDbDimension
  2
*D6
 10
203.0677732340202
 20
-149.0539019876726
 30
0.0
 11
199.3177732340202
 21
-74.42931554236748
 31
0.0
 70
    32
  1
<>
 71
     5
 42
-1.0
 53
90.0
  3
ME10_DIM_15
100
AcDbAlignedDimension
 13
158.1328590909877
 23
-13.0539019876726
 33
0.0
 14
158.1328590909877
 24
-149.0539019876726
 34
0.0
 50
90.0
100
AcDbRotatedDimension
  0
DIMENSION
  5
1A8
330
1F
100
AcDbEntity
  8
1
100
AcDbDimension
  2
*D7
 10
211.5675642118357
 20
-1.05390198767261
 30
0.0
 11
207.8175642118357
 21
-47.0411001694065
 31
0.0
 70
    32
  1
<>
 71
     5
 42
-1.0
 53
90.0
  3
ME10_DIM_16
100
AcDbAlignedDimension
 13
187.7329652480997
 23
-81.0539019876726
 33
0.0
 14
154.9828590909877
 24
-1.0539019876726
 34
0.0
 50
90.0
100
AcDbRotatedDimension
  0
DIMENSION
  5
1B3
330
1F
100
AcDbEntity
  8
1
100
AcDbDimension
  2
*D8
 10
221.0117764094084
 20
-1.0539019876726
 30
0.0
 11
217.2617764094084
 21
-81.27636938560771
 31
0.0
 70
    32
  1
<>
 71
     5
 42
-1.0
 53
90.0
  3
ME10_DIM_17
100
AcDbAlignedDimension
 13
154.9828590909877
 23
-161.0539019876726
 33
0.0
 14
154.9828590909877
 24
-1.0539019876726
 34
0.0
 50
90.0
100
AcDbRotatedDimension
  0
DIMENSION
  5
1C0
330
1F
100
AcDbEntity
  8
1
100
AcDbDimension
  2
*D9
 10
125.1530226040447
 20
-206.9899080356856
 30
0.0
 11
121.4030226040447
 21
-196.3247781152566
 31
0.0
 70
    32
  1
<>
 71
     5
 42
-1.0
 53
90.0
  3
ME10_DIM_18
100
AcDbAlignedDimension
 13
133.9828590909877
 23
-203.4899080356856
 33
0.0
 14
133.9828590909877
 24
-206.9899080356856
 34
0.0
 50
90.0
100
AcDbRotatedDimension
  0
DIMENSION
  5
1CB
330
1F
100
AcDbEntity
  8
1
100
AcDbDimension
  2
*D10
 10
-158.549542197713
 20
-12.22174383720309
 30
0.0
 11
-162.299542197713
 21
-113.019374465565
 31
0.0
 70
    32
  1
196x 10.5 tief
 71
     5
 42
-1.0
 53
90.0
  3
ME10_DIM_19
100
AcDbAlignedDimension
 13
-108.3612348384093
 23
-208.2217438372031
 33
0.0
 14
-108.3612348384093
 24
-12.22174383720306
 34
0.0
 50
90.0
100
AcDbRotatedDimension
  0
DIMENSION
  5
1D6
330
1F
100
AcDbEntity
  8
1
100
AcDbDimension
  2
*D11
 10
-148.836514632886
 20
-30.22174383720309
 30
0.0
 11
-152.586514632886
 21
-113.161676155144
 31
0.0
 70
    32
  1
160x 22.5 tief
 71
     5
 42
-1.0
 53
90.0
  3
ME10_DIM_20
100
AcDbAlignedDimension
 13
-108.3612348384094
 23
-190.2217438372031
 33
0.0
 14
-108.3612348384094
 24
-30.22174383720309
 34
0.0
 50
90.0
100
AcDbRotatedDimension
  0
DIMENSION
  5
1E1
330
1F
100
AcDbEntity
  8
1
100
AcDbDimension
  2
*D12
 10
-149.849758919315
 20
-266.2217438372036
 30
0.0
 11
-153.599758919315
 21
-261.563285309812
 31
0.0
 70
    32
  1
<>
 71
     5
 42
-1.0
 53
90.0
  3
ME10_DIM_21
100
AcDbAlignedDimension
 13
-120.3612348384093
 23
-255.7217438372035
 33
0.0
 14
-128.3612348384093
 24
-266.2217438372036
 34
0.0
 50
90.0
100
AcDbRotatedDimension
  0
DIMENSION
  5
1EE
330
1F
100
AcDbEntity
  8
1
100
AcDbDimension
  2
*D13
 10
-138.980815859366
 20
-266.2217438372036
 30
0.0
 11
-142.730815859366
 21
-262.823452621111
 31
0.0
 70
    32
  1
<>
 71
     5
 42
-1.0
 53
90.0
  3
ME10_DIM_22
100
AcDbAlignedDimension
 13
-128.3612348384093
 23
-259.2217438372033
 33
0.0
 14
-128.3612348384093
 24
-266.2217438372036
 34
0.0
 50
90.0
100
AcDbRotatedDimension
  0
DIMENSION
  5
1F9
330
1F
100
AcDbEntity
  8
1
100
AcDbDimension
  2
*D14
 10
-137.7585031064025
 20
-65.22174383720314
 30
0.0
 11
-141.5085031064025
 21
-110.969867485239
 31
0.0
 70
    32
  1
<>
 71
     5
 42
-1.0
 53
270.0
  3
ME10_DIM_23
100
AcDbAlignedDimension
 13
-128.3612348384093
 23
-155.2217438372031
 33
0.0
 14
-128.3612348384091
 24
-65.22174383720309
 34
0.0
 50
270.0
100
AcDbRotatedDimension
  0
DIMENSION
  5
204
330
1F
100
AcDbEntity
  8
1
100
AcDbDimension
  2
*D15
 10
-96.3612348384093
 20
-178.8142366950589
 30
0.0
 11
-108.2506251063298
 21
-175.0642366950589
 31
0.0
 70
    32
  1
<>
 71
     5
 42
-1.0
 53
180.0
  3
ME10_DIM_24
100
AcDbAlignedDimension
 13
-120.3612348384093
 23
-196.2217438372031
 33
0.0
 14
-96.36123483840925
 24
-196.2217438372031
 34
0.0
 50
180.0
100
AcDbRotatedDimension
  0
DIMENSION
  5
20F
330
1F
100
AcDbEntity
  8
1
100
AcDbDimension
  2
*D16
 10
-77.96217422340436
 20
-266.2217438372032
 30
0.0
 11
-81.71217422340436
 21
-254.6188574446886
 31
0.0
 70
    32
  1
<>
 71
     5
 42
-1.0
 53
270.0
  3
ME10_DIM_25
100
AcDbAlignedDimension
 13
-96.36123483840925
 23
-243.7217438372035
 33
0.0
 14
-86.36123483840927
 24
-266.2217438372032
 34
0.0
 50
270.0
100
AcDbRotatedDimension
  0
DIMENSION
  5
21A
330
1F
100
AcDbEntity
  8
1
100
AcDbDimension
  2
*D17
 10
-86.36123483840927
 20
-276.9284128177895
 30
0.0
 11
-91.45778934327848
 21
-273.1784128177895
 31
0.0
 70
    32
  1
X
 71
     5
 42
-1.0
 53
0.00013888888889
  3
ME10_DIM_26
100
AcDbAlignedDimension
 13
-96.36123483840925
 23
-266.2217438372032
 33
0.0
 14
-86.36123483840927
 24
-266.2217438372032
 34
0.0
100
AcDbRotatedDimension
  0
DIMENSION
  5
227
330
1F
100
AcDbEntity
  8
1
100
AcDbDimension
  2
*D18
 10
-64.82412890652844
 20
-39.00841982516184
 30
0.0
 11
-68.57412890652844
 21
-55.2004978604806
 31
0.0
 70
    32
  1
MaÞX
 71
     5
 42
-1.0
 53
90.0
  3
ME10_DIM_27
100
AcDbAlignedDimension
 13
-16.74585482274999
 23
-47.00841982516161
 33
0.0
 14
-44.74585482275037
 24
-39.00841982516184
 34
0.0
 50
90.0
100
AcDbRotatedDimension
  0
DIMENSION
  5
232
330
1F
100
AcDbEntity
  8
1
100
AcDbDimension
  2
*D19
 10
-54.51989546584786
 20
-92.00841982516164
 30
0.0
 11
-58.26989546584786
 21
-70.2183257707859
 31
0.0
 70
    32
  1
C
 71
     5
 42
-1.0
 53
90.0
  3
ME10_DIM_28
100
AcDbAlignedDimension
 13
-14.74585482274999
 23
-47.00841982516187
 33
0.0
 14
-6.24585482274999
 24
-92.00841982516164
 34
0.0
 50
90.0
100
AcDbRotatedDimension
  0
DIMENSION
  5
23D
330
1F
100
AcDbEntity
  8
1
100
AcDbDimension
  2
*D20
 10
-120.3612348384093
 20
-276.9536212123285
 30
0.0
 11
-108.2529487644433
 21
-273.2036212123285
 31
0.0
 70
    32
  1
<>
 71
     5
 42
-1.0
 53
0.00013888888889
  3
ME10_DIM_29
100
AcDbAlignedDimension
 13
-96.36123483840925
 23
-266.2217438372032
 33
0.0
 14
-120.3612348384093
 24
-266.2217438372033
 34
0.0
100
AcDbRotatedDimension
  0
DIMENSION
  5
248
330
1F
100
AcDbEntity
  8
1
100
AcDbDimension
  2
*D21
 10
70.94667312623673
 20
-39.00841982516184
 30
0.0
 11
67.19667312623673
 21
-58.535059796837
 31
0.0
 70
    32
  1
A
 71
     5
 42
-1.0
 53
90.0
  3
ME10_DIM_30
100
AcDbAlignedDimension
 13
-0.74585482275
 23
-79.00841982516184
 33
0.0
 14
5.75414517724991
 24
-39.00841982516184
 34
0.0
 50
90.0
100
AcDbRotatedDimension
  0
DIMENSION
  5
253
330
1F
100
AcDbEntity
  8
1
100
AcDbDimension
  2
*D22
 10
70.94667312623673
 20
-79.00841982516184
 30
0.0
 11
67.19667312623673
 21
-85.1221065201371
 31
0.0
 70
    32
  1
B
 71
     5
 42
-1.0
 53
90.0
  3
ME10_DIM_31
100
AcDbAlignedDimension
 13
20.32607989515002
 23
-92.00841982516164
 33
0.0
 14
-0.74585482275
 24
-79.00841982516184
 34
0.0
 50
90.0
100
AcDbRotatedDimension
  0
INSERT
  5
25C
330
1F
100
AcDbEntity
  8
1
100
AcDbBlockReference
  2
*D23
 10
0.0
 20
0.0
 30
0.0
  0
INSERT
  5
264
330
1F
100
AcDbEntity
  8
1
100
AcDbBlockReference
  2
*D24
 10
0.0
 20
0.0
 30
0.0
  0
ENDSEC
  0
SECTION
  2
OBJECTS
  0
DICTIONARY
  5
C
330
0
100
AcDbDictionary
281
     1
  3
ACAD_GROUP
350
D
  3
ACAD_LAYOUT
350
1A
  3
ACAD_MLINESTYLE
350
17
  3
ACAD_PLOTSETTINGS
350
19
  3
ACAD_PLOTSTYLENAME
350
E
  0
DICTIONARY
  5
D
102
{ACAD_REACTORS
330
C
102
}
330
C
100
AcDbDictionary
281
     1
  0
DICTIONARY
  5
1A
102
{ACAD_REACTORS
330
C
102
}
330
C
100
AcDbDictionary
281
     1
  3
Layout1
350
1E
  3
Layout2
350
26
  3
Model
350
22
  0
DICTIONARY
  5
17
102
{ACAD_REACTORS
330
C
102
}
330
C
100
AcDbDictionary
281
     1
  3
Standard
350
18
  0
DICTIONARY
  5
19
102
{ACAD_REACTORS
330
C
102
}
330
C
100
AcDbDictionary
281
     1
  0
ACDBDICTIONARYWDFLT
  5
E
102
{ACAD_REACTORS
330
C
102
}
330
C
100
AcDbDictionary
281
     1
  3
Normal
350
F
100
AcDbDictionaryWithDefault
340
F
  0
LAYOUT
  5
1E
102
{ACAD_REACTORS
330
1A
102
}
330
1A
100
AcDbPlotSettings
  1

  2

  4

  6

 40
0.0
 41
0.0
 42
0.0
 43
0.0
 44
0.0
 45
0.0
 46
0.0
 47
0.0
 48
0.0
 49
0.0
140
0.0
141
0.0
142
1.0
143
1.0
 70
   688
 72
     0
 73
     0
 74
     5
  7

 75
    16
 76
     0
 77
     2
 78
   300
147
1.0
148
0.0
149
0.0
100
AcDbLayout
  1
Layout1
 70
     1
 71
     1
 10
0.0
 20
0.0
 11
0.0
 21
0.0
 12
0.0
 22
0.0
 32
0.0
 14
0.0
 24
0.0
 34
0.0
 15
0.0
 25
0.0
 35
0.0
146
0.0
 13
0.0
 23
0.0
 33
0.0
 16
1.0
 26
0.0
 36
0.0
 17
0.0
 27
1.0
 37
0.0
 76
     0
330
1B
  0
LAYOUT
  5
26
102
{ACAD_REACTORS
330
1A
102
}
330
1A
100
AcDbPlotSettings
  1

  2

  4

  6

 40
0.0
 41
0.0
 42
0.0
 43
0.0
 44
0.0
 45
0.0
 46
0.0
 47
0.0
 48
0.0
 49
0.0
140
0.0
141
0.0
142
1.0
143
1.0
 70
   688
 72
     0
 73
     0
 74
     5
  7

 75
    16
 76
     0
 77
     2
 78
   300
147
1.0
148
0.0
149
0.0
100
AcDbLayout
  1
Layout2
 70
     1
 71
     2
 10
0.0
 20
0.0
 11
0.0
 21
0.0
 12
0.0
 22
0.0
 32
0.0
 14
0.0
 24
0.0
 34
0.0
 15
0.0
 25
0.0
 35
0.0
146
0.0
 13
0.0
 23
0.0
 33
0.0
 16
1.0
 26
0.0
 36
0.0
 17
0.0
 27
1.0
 37
0.0
 76
     0
330
23
  0
LAYOUT
  5
22
102
{ACAD_REACTORS
330
1A
102
}
330
1A
100
AcDbPlotSettings
  1

  2

  4

  6

 40
0.0
 41
0.0
 42
0.0
 43
0.0
 44
0.0
 45
0.0
 46
0.0
 47
0.0
 48
0.0
 49
0.0
140
0.0
141
0.0
142
1.0
143
1.0
 70
  1712
 72
     0
 73
     0
 74
     0
  7

 75
     0
 76
     0
 77
     2
 78
   300
147
1.0
148
0.0
149
0.0
100
AcDbLayout
  1
Model
 70
     1
 71
     0
 10
0.0
 20
0.0
 11
0.0
 21
0.0
 12
0.0
 22
0.0
 32
0.0
 14
-164.049542197713
 24
-278.9536212123285
 34
0.0
 15
223.0117764094084
 25
3.44609801232741
 35
0.0
146
0.0
 13
0.0
 23
0.0
 33
0.0
 16
1.0
 26
0.0
 36
0.0
 17
0.0
 27
1.0
 37
0.0
 76
     0
330
1F
  0
MLINESTYLE
  5
18
102
{ACAD_REACTORS
330
17
102
}
330
17
100
AcDbMlineStyle
  2
Standard
 70
     0
  3

 62
   256
 51
90.0
 52
90.0
 71
     2
 49
0.5
 62
   256
  6
BYLAYER
 49
-0.5
 62
   256
  6
BYLAYER
  0
ACDBPLACEHOLDER
  5
F
102
{ACAD_REACTORS
330
E
102
}
330
E
  0
ENDSEC
  0
EOF
