  0
SECTION
  2
HEADER
  9
$ACADVER
  1
AC1018
  9
$ACADMAINTVER
 70
     0
  9
$DWGCODEPAGE
  3
ANSI_1252
  9
$INSBASE
 10
0.0
 20
0.0
 30
0.0
  9
$EXTMIN
 10
-111.251836272667
 20
-143.286454741996
 30
0.0
  9
$EXTMAX
 10
228.0001339926648
 20
118.702236595877
 30
0.0
  9
$LIMMIN
 10
0.0
 20
0.0
  9
$LIMMAX
 10
12.0
 20
9.0
  9
$ORTHOMODE
 70
     0
  9
$REGENMODE
 70
     1
  9
$FILLMODE
 70
     1
  9
$QTEXTMODE
 70
     0
  9
$MIRRTEXT
 70
     1
  9
$LTSCALE
 40
1.0
  9
$ATTMODE
 70
     1
  9
$TEXTSIZE
 40
0.2
  9
$TRACEWID
 40
0.05
  9
$TEXTSTYLE
  7
Standard
  9
$CLAYER
  8
0
  9
$CELTYPE
  6
ByLayer
  9
$CECOLOR
 62
   256
  9
$CELTSCALE
 40
1.0
  9
$DISPSILH
 70
     0
  9
$DIMSCALE
 40
1.0
  9
$DIMASZ
 40
0.18
  9
$DIMEXO
 40
0.0625
  9
$DIMDLI
 40
0.38
  9
$DIMRND
 40
0.0
  9
$DIMDLE
 40
0.0
  9
$DIMEXE
 40
0.18
  9
$DIMTP
 40
0.0
  9
$DIMTM
 40
0.0
  9
$DIMTXT
 40
0.18
  9
$DIMCEN
 40
0.09
  9
$DIMTSZ
 40
0.0
  9
$DIMTOL
 70
     0
  9
$DIMLIM
 70
     0
  9
$DIMTIH
 70
     1
  9
$DIMTOH
 70
     1
  9
$DIMSE1
 70
     0
  9
$DIMSE2
 70
     0
  9
$DIMTAD
 70
     0
  9
$DIMZIN
 70
     0
  9
$DIMBLK
  1

  9
$DIMASO
 70
     1
  9
$DIMSHO
 70
     1
  9
$DIMPOST
  1

  9
$DIMAPOST
  1

  9
$DIMALT
 70
     0
  9
$DIMALTD
 70
     2
  9
$DIMALTF
 40
25.4
  9
$DIMLFAC
 40
1.0
  9
$DIMTOFL
 70
     0
  9
$DIMTVP
 40
0.0
  9
$DIMTIX
 70
     0
  9
$DIMSOXD
 70
     0
  9
$DIMSAH
 70
     0
  9
$DIMBLK1
  1

  9
$DIMBLK2
  1

  9
$DIMSTYLE
  2
Standard
  9
$DIMCLRD
 70
     0
  9
$DIMCLRE
 70
     0
  9
$DIMCLRT
 70
     0
  9
$DIMTFAC
 40
1.0
  9
$DIMGAP
 40
0.09
  9
$DIMJUST
 70
     0
  9
$DIMSD1
 70
     0
  9
$DIMSD2
 70
     0
  9
$DIMTOLJ
 70
     1
  9
$DIMTZIN
 70
     0
  9
$DIMALTZ
 70
     0
  9
$DIMALTTZ
 70
     0
  9
$DIMUPT
 70
     0
  9
$DIMDEC
 70
     4
  9
$DIMTDEC
 70
     4
  9
$DIMALTU
 70
     2
  9
$DIMALTTD
 70
     2
  9
$DIMTXSTY
  7
Standard
  9
$DIMAUNIT
 70
     0
  9
$DIMADEC
 70
     0
  9
$DIMALTRND
 40
0.0
  9
$DIMAZIN
 70
     0
  9
$DIMDSEP
 70
    46
  9
$DIMATFIT
 70
     3
  9
$DIMFRAC
 70
     0
  9
$DIMLDRBLK
  1

  9
$DIMLUNIT
 70
     2
  9
$DIMLWD
 70
    -2
  9
$DIMLWE
 70
    -2
  9
$DIMTMOVE
 70
     0
  9
$LUNITS
 70
     2
  9
$LUPREC
 70
     4
  9
$SKETCHINC
 40
0.1
  9
$FILLETRAD
 40
0.5
  9
$AUNITS
 70
     0
  9
$AUPREC
 70
     0
  9
$MENU
  1
.
  9
$ELEVATION
 40
0.0
  9
$PELEVATION
 40
0.0
  9
$THICKNESS
 40
0.0
  9
$LIMCHECK
 70
     0
  9
$CHAMFERA
 40
0.5
  9
$CHAMFERB
 40
0.5
  9
$CHAMFERC
 40
1.0
  9
$CHAMFERD
 40
0.0
  9
$SKPOLY
 70
     0
  9
$TDCREATE
 40
2454722.457315879
  9
$TDUCREATE
 40
2454722.373982546
  9
$TDUPDATE
 40
2454722.457315891
  9
$TDUUPDATE
 40
2454722.373982558
  9
$TDINDWG
 40
0.0000000116
  9
$TDUSRTIMER
 40
0.0000000116
  9
$USRTIMER
 70
     1
  9
$ANGBASE
 50
0.0
  9
$ANGDIR
 70
     0
  9
$PDMODE
 70
     0
  9
$PDSIZE
 40
0.0
  9
$PLINEWID
 40
0.0
  9
$SPLFRAME
 70
     0
  9
$SPLINETYPE
 70
     6
  9
$SPLINESEGS
 70
     8
  9
$HANDSEED
  5
20C
  9
$SURFTAB1
 70
     6
  9
$SURFTAB2
 70
     6
  9
$SURFTYPE
 70
     6
  9
$SURFU
 70
     6
  9
$SURFV
 70
     6
  9
$UCSBASE
  2

  9
$UCSNAME
  2

  9
$UCSORG
 10
0.0
 20
0.0
 30
0.0
  9
$UCSXDIR
 10
1.0
 20
0.0
 30
0.0
  9
$UCSYDIR
 10
0.0
 20
1.0
 30
0.0
  9
$UCSORTHOREF
  2

  9
$UCSORTHOVIEW
 70
     0
  9
$UCSORGTOP
 10
0.0
 20
0.0
 30
0.0
  9
$UCSORGBOTTOM
 10
0.0
 20
0.0
 30
0.0
  9
$UCSORGLEFT
 10
0.0
 20
0.0
 30
0.0
  9
$UCSORGRIGHT
 10
0.0
 20
0.0
 30
0.0
  9
$UCSORGFRONT
 10
0.0
 20
0.0
 30
0.0
  9
$UCSORGBACK
 10
0.0
 20
0.0
 30
0.0
  9
$PUCSBASE
  2

  9
$PUCSNAME
  2

  9
$PUCSORG
 10
0.0
 20
0.0
 30
0.0
  9
$PUCSXDIR
 10
1.0
 20
0.0
 30
0.0
  9
$PUCSYDIR
 10
0.0
 20
1.0
 30
0.0
  9
$PUCSORTHOREF
  2

  9
$PUCSORTHOVIEW
 70
     0
  9
$PUCSORGTOP
 10
0.0
 20
0.0
 30
0.0
  9
$PUCSORGBOTTOM
 10
0.0
 20
0.0
 30
0.0
  9
$PUCSORGLEFT
 10
0.0
 20
0.0
 30
0.0
  9
$PUCSORGRIGHT
 10
0.0
 20
0.0
 30
0.0
  9
$PUCSORGFRONT
 10
0.0
 20
0.0
 30
0.0
  9
$PUCSORGBACK
 10
0.0
 20
0.0
 30
0.0
  9
$USERI1
 70
     0
  9
$USERI2
 70
     0
  9
$USERI3
 70
     0
  9
$USERI4
 70
     0
  9
$USERI5
 70
     0
  9
$USERR1
 40
14.5
  9
$USERR2
 40
0.0
  9
$USERR3
 40
0.0
  9
$USERR4
 40
0.0
  9
$USERR5
 40
0.0
  9
$WORLDVIEW
 70
     1
  9
$SHADEDGE
 70
     3
  9
$SHADEDIF
 70
    70
  9
$TILEMODE
 70
     1
  9
$MAXACTVP
 70
    64
  9
$PINSBASE
 10
0.0
 20
0.0
 30
0.0
  9
$PLIMCHECK
 70
     0
  9
$PEXTMIN
 10
1.00000000000000E+20
 20
1.00000000000000E+20
 30
1.00000000000000E+20
  9
$PEXTMAX
 10
-1.00000000000000E+20
 20
-1.00000000000000E+20
 30
-1.00000000000000E+20
  9
$PLIMMIN
 10
0.0
 20
0.0
  9
$PLIMMAX
 10
12.0
 20
9.0
  9
$UNITMODE
 70
     0
  9
$VISRETAIN
 70
     1
  9
$PLINEGEN
 70
     0
  9
$PSLTSCALE
 70
     1
  9
$TREEDEPTH
 70
  3020
  9
$CMLSTYLE
  2
Standard
  9
$CMLJUST
 70
     0
  9
$CMLSCALE
 40
1.0
  9
$PROXYGRAPHICS
 70
     1
  9
$MEASUREMENT
 70
     1
  9
$CELWEIGHT
370
    -1
  9
$ENDCAPS
280
     0
  9
$JOINSTYLE
280
     0
  9
$LWDISPLAY
290
     0
  9
$INSUNITS
 70
     1
  9
$HYPERLINKBASE
  1

  9
$STYLESHEET
  1

  9
$XEDIT
290
     1
  9
$CEPSNTYPE
380
     0
  9
$PSTYLEMODE
290
     1
  9
$FINGERPRINTGUID
  2
{08CA796D-5089-477B-A79D-048DBE43FC34}
  9
$VERSIONGUID
  2
{FAEB1C32-E019-11D5-929B-00C0DF256EC4}
  9
$EXTNAMES
290
     1
  9
$PSVPSCALE
 40
0.0
  9
$OLESTARTUP
290
     0
  9
$SORTENTS
280
   127
  9
$INDEXCTL
280
     0
  9
$HIDETEXT
280
     1
  9
$XCLIPFRAME
290
     0
  9
$HALOGAP
280
     0
  9
$OBSCOLOR
 70
   257
  9
$OBSLTYPE
280
     0
  9
$INTERSECTIONDISPLAY
280
     0
  9
$INTERSECTIONCOLOR
 70
   257
  9
$DIMASSOC
280
     2
  9
$PROJECTNAME
  1

  0
ENDSEC
  0
SECTION
  2
CLASSES
  0
CLASS
  1
ACDBDICTIONARYWDFLT
  2
AcDbDictionaryWithDefault
  3
ObjectDBX Classes
 90
        0
 91
        3
280
     0
281
     0
  0
CLASS
  1

  2
exOdDbCircle
  3

 90
        0
 91
        3
280
     0
281
     1
  0
ENDSEC
  0
SECTION
  2
TABLES
  0
TABLE
  2
VPORT
  5
8
330
0
100
AcDbSymbolTable
 70
     1
  0
VPORT
  5
29
330
8
100
AcDbSymbolTableRecord
100
AcDbViewportTableRecord
  2
*Active
 70
     0
 10
0.0
 20
0.0
 11
1.0
 21
1.0
 12
58.37414885999889
 22
-12.29210907305951
 13
0.0
 23
0.0
 14
0.5
 24
0.5
 15
0.5
 25
0.5
 16
0.0
 26
0.0
 36
1.0
 17
0.0
 27
0.0
 37
0.0
 40
288.1875604716603
 41
1.60267857142857
 42
50.0
 43
0.0
 44
0.0
 50
0.0
 51
0.0
 71
     0
 72
   100
 73
     1
 74
     3
 75
     0
 76
     0
 77
     0
 78
     0
281
     0
 65
     1
110
0.0
120
0.0
130
0.0
111
1.0
121
0.0
131
0.0
112
0.0
122
1.0
132
0.0
 79
     0
146
0.0
  0
ENDTAB
  0
TABLE
  2
LTYPE
  5
5
330
0
100
AcDbSymbolTable
 70
     8
  0
LTYPE
  5
14
330
5
100
AcDbSymbolTableRecord
100
AcDbLinetypeTableRecord
  2
ByBlock
 70
     0
  3

 72
    65
 73
     0
 40
0.0
  0
LTYPE
  5
15
330
5
100
AcDbSymbolTableRecord
100
AcDbLinetypeTableRecord
  2
ByLayer
 70
     0
  3

 72
    65
 73
     0
 40
0.0
  0
LTYPE
  5
16
330
5
100
AcDbSymbolTableRecord
100
AcDbLinetypeTableRecord
  2
Continuous
 70
     0
  3
Solid line
 72
    65
 73
     0
 40
0.0
  0
LTYPE
  5
2A
330
5
100
AcDbSymbolTableRecord
100
AcDbLinetypeTableRecord
  2
DASHED
 70
     0
  3
Dashed
 72
    65
 73
     2
 40
15.0
 49
7.0
 74
     0
 49
-8.0
 74
     0
  0
LTYPE
  5
2B
330
5
100
AcDbSymbolTableRecord
100
AcDbLinetypeTableRecord
  2
DOTTED
 70
     0
  3
Dotted
 72
    65
 73
     2
 40
1.0
 49
0.0
 74
     0
 49
-1.0
 74
     0
  0
LTYPE
  5
2C
330
5
100
AcDbSymbolTableRecord
100
AcDbLinetypeTableRecord
  2
DOT_CENTER
 70
     0
  3
Dot_Center
 72
    65
 73
     4
 40
14.0
 49
12.0
 74
     0
 49
-1.0
 74
     0
 49
0.0
 74
     0
 49
-1.0
 74
     0
  0
LTYPE
  5
2D
330
5
100
AcDbSymbolTableRecord
100
AcDbLinetypeTableRecord
  2
LONG_DASHED
 70
     0
  3
Long_Dashed
 72
    65
 73
     2
 40
15.0
 49
10.0
 74
     0
 49
-5.0
 74
     0
  0
LTYPE
  5
2E
330
5
100
AcDbSymbolTableRecord
100
AcDbLinetypeTableRecord
  2
DASH_CENTER
 70
     0
  3
Dash_Center
 72
    65
 73
     4
 40
14.0
 49
11.0
 74
     0
 49
-1.0
 74
     0
 49
1.0
 74
     0
 49
-1.0
 74
     0
  0
LTYPE
  5
2F
330
5
100
AcDbSymbolTableRecord
100
AcDbLinetypeTableRecord
  2
PHANTOM
 70
     0
  3
Phantom
 72
    65
 73
     6
 40
13.0
 49
10.0
 74
     0
 49
-1.0
 74
     0
 49
0.0
 74
     0
 49
-1.0
 74
     0
 49
0.0
 74
     0
 49
-1.0
 74
     0
  0
LTYPE
  5
30
330
5
100
AcDbSymbolTableRecord
100
AcDbLinetypeTableRecord
  2
CENTER_DASH_DASH
 70
     0
  3
Center_Dash_Dash
 72
    65
 73
     6
 40
14.0
 49
9.0
 74
     0
 49
-1.0
 74
     0
 49
1.0
 74
     0
 49
-1.0
 74
     0
 49
1.0
 74
     0
 49
-1.0
 74
     0
  0
ENDTAB
  0
TABLE
  2
LAYER
  5
2
330
0
100
AcDbSymbolTable
 70
     2
  0
LAYER
  5
10
330
2
100
AcDbSymbolTableRecord
100
AcDbLayerTableRecord
  2
0
 70
     0
 62
     7
  6
Continuous
370
    -3
390
F
  0
LAYER
  5
31
330
2
100
AcDbSymbolTableRecord
100
AcDbLayerTableRecord
  2
1
 70
     0
 62
     7
  6
Continuous
370
    -3
390
F
  0
ENDTAB
  0
TABLE
  2
STYLE
  5
3
330
0
100
AcDbSymbolTable
 70
     3
  0
STYLE
  5
11
330
3
100
AcDbSymbolTableRecord
100
AcDbTextStyleTableRecord
  2
Standard
 70
     0
 40
0.0
 41
1.0
 50
0.0
 71
     0
 42
0.2
  3
txt
  4

  0
STYLE
  5
D4
330
3
100
AcDbSymbolTableRecord
100
AcDbTextStyleTableRecord
  2
CONVERTER_11
 70
     0
 40
0.0
 41
0.9
 50
0.0
 71
     0
 42
0.2
  3
txt.shx
  4

  0
STYLE
  5
D7
330
3
100
AcDbSymbolTableRecord
100
AcDbTextStyleTableRecord
  2
CONVERTER_12
 70
     0
 40
0.0
 41
0.891
 50
0.0
 71
     0
 42
0.2
  3
txt.shx
  4

  0
ENDTAB
  0
TABLE
  2
VIEW
  5
6
330
0
100
AcDbSymbolTable
 70
     0
  0
ENDTAB
  0
TABLE
  2
UCS
  5
7
330
0
100
AcDbSymbolTable
 70
     0
  0
ENDTAB
  0
TABLE
  2
APPID
  5
9
330
0
100
AcDbSymbolTable
 70
     1
  0
APPID
  5
12
330
9
100
AcDbSymbolTableRecord
100
AcDbRegAppTableRecord
  2
ACAD
 70
     0
  0
ENDTAB
  0
TABLE
  2
DIMSTYLE
  5
A
330
0
100
AcDbSymbolTable
 70
    25
100
AcDbDimStyleTable
  0
DIMSTYLE
105
27
330
A
100
AcDbSymbolTableRecord
100
AcDbDimStyleTableRecord
  2
Standard
 70
     0
340
11
  0
DIMSTYLE
105
EB
102
{ACAD_REACTORS
330
EC
102
}
330
A
100
AcDbSymbolTableRecord
100
AcDbDimStyleTableRecord
  2
ME10_DIM_10
 70
     0
 41
3.5
 42
0.0
 44
2.0
 73
     0
 74
     0
 77
     1
 78
     8
140
3.5
147
2.0
172
     1
173
     1
176
     2
177
     2
178
     2
271
     2
340
D4
  0
DIMSTYLE
105
F6
102
{ACAD_REACTORS
330
F7
102
}
330
A
100
AcDbSymbolTableRecord
100
AcDbDimStyleTableRecord
  2
ME10_DIM_11
 70
     0
 41
3.5
 42
0.0
 44
0.0
 73
     0
 74
     0
 77
     1
 78
     1
140
3.5
172
     1
173
     1
176
     2
177
     2
178
     2
271
     0
340
D7
  0
DIMSTYLE
105
102
102
{ACAD_REACTORS
330
103
102
}
330
A
100
AcDbSymbolTableRecord
100
AcDbDimStyleTableRecord
  2
ME10_DIM_12
 70
     0
 41
3.5
 42
0.0
 44
0.0
 73
     0
 74
     0
 77
     1
 78
     1
140
3.5
172
     1
173
     1
176
     2
177
     2
178
     2
271
     0
340
D7
  0
DIMSTYLE
105
10E
102
{ACAD_REACTORS
330
10F
102
}
330
A
100
AcDbSymbolTableRecord
100
AcDbDimStyleTableRecord
  2
ME10_DIM_13
 70
     0
 41
3.5
 42
0.0
 44
0.0
 73
     0
 74
     0
 77
     1
 78
     1
140
3.5
172
     1
173
     1
176
     2
177
     2
178
     2
271
     0
340
D7
  0
DIMSTYLE
105
11B
102
{ACAD_REACTORS
330
11C
102
}
330
A
100
AcDbSymbolTableRecord
100
AcDbDimStyleTableRecord
  2
ME10_DIM_14
 70
     0
 41
3.5
 42
0.0
 44
2.0
 73
     0
 74
     0
 77
     1
 78
     1
140
3.5
172
     1
173
     1
176
     2
177
     2
178
     2
271
     1
340
D7
  0
DIMSTYLE
105
126
102
{ACAD_REACTORS
330
127
102
}
330
A
100
AcDbSymbolTableRecord
100
AcDbDimStyleTableRecord
  2
ME10_DIM_15
 70
     0
 41
3.5
 42
0.0
 44
0.0
 73
     0
 74
     0
 77
     1
 78
     1
140
3.5
172
     1
173
     1
176
     2
177
     2
178
     2
271
     0
340
D7
  0
DIMSTYLE
105
131
102
{ACAD_REACTORS
330
132
102
}
330
A
100
AcDbSymbolTableRecord
100
AcDbDimStyleTableRecord
  2
ME10_DIM_16
 70
     0
 41
3.5
 42
0.0
 44
0.0
 73
     0
 74
     0
 77
     1
 78
     1
140
3.5
172
     1
173
     1
176
     2
177
     2
178
     2
271
     0
340
D7
  0
DIMSTYLE
105
13F
102
{ACAD_REACTORS
330
140
102
}
330
A
100
AcDbSymbolTableRecord
100
AcDbDimStyleTableRecord
  2
ME10_DIM_17
 70
     0
 41
3.5
 42
0.0
 44
0.0
 73
     0
 74
     0
 77
     1
 78
     1
140
3.5
172
     1
173
     1
176
     2
177
     2
178
     2
271
     0
340
D7
  0
DIMSTYLE
105
14B
102
{ACAD_REACTORS
330
14C
102
}
330
A
100
AcDbSymbolTableRecord
100
AcDbDimStyleTableRecord
  2
ME10_DIM_18
 70
     0
 41
3.5
 42
0.0
 44
0.0
 73
     0
 74
     0
 77
     1
 78
     1
140
3.5
172
     1
173
     1
176
     2
177
     2
178
     2
271
     0
340
D7
  0
DIMSTYLE
105
156
102
{ACAD_REACTORS
330
157
102
}
330
A
100
AcDbSymbolTableRecord
100
AcDbDimStyleTableRecord
  2
ME10_DIM_19
 70
     0
 41
3.5
 42
0.0
 44
0.0
 73
     0
 74
     0
 77
     1
 78
     1
140
3.5
172
     1
173
     1
176
     2
177
     2
178
     2
271
     0
340
D7
  0
DIMSTYLE
105
161
102
{ACAD_REACTORS
330
162
102
}
330
A
100
AcDbSymbolTableRecord
100
AcDbDimStyleTableRecord
  2
ME10_DIM_20
 70
     0
 41
3.5
 42
0.0
 44
0.0
 73
     0
 74
     0
 77
     1
 78
     1
140
3.5
172
     1
173
     1
176
     2
177
     2
178
     2
271
     0
340
D7
  0
DIMSTYLE
105
16E
102
{ACAD_REACTORS
330
16F
102
}
330
A
100
AcDbSymbolTableRecord
100
AcDbDimStyleTableRecord
  2
ME10_DIM_21
 70
     0
 41
3.5
 42
0.0
 44
2.0
 73
     0
 74
     0
 77
     1
 78
     1
140
3.5
172
     1
173
     1
176
     2
177
     2
178
     2
271
     0
340
D7
  0
DIMSTYLE
105
179
102
{ACAD_REACTORS
330
17A
102
}
330
A
100
AcDbSymbolTableRecord
100
AcDbDimStyleTableRecord
  2
ME10_DIM_22
 70
     0
 41
3.5
 42
0.0
 44
2.0
 73
     0
 74
     0
 77
     1
 78
     8
140
3.5
147
2.0
172
     1
173
     1
176
     2
177
     2
178
     2
271
     3
340
D4
  0
DIMSTYLE
105
186
102
{ACAD_REACTORS
330
187
102
}
330
A
100
AcDbSymbolTableRecord
100
AcDbDimStyleTableRecord
  2
ME10_DIM_23
 70
     0
 41
3.5
 42
0.0
 44
2.0
 73
     0
 74
     0
 77
     1
 78
     8
140
3.5
147
2.0
172
     1
173
     1
176
     2
177
     2
178
     2
271
     3
340
D4
  0
DIMSTYLE
105
192
102
{ACAD_REACTORS
330
193
102
}
330
A
100
AcDbSymbolTableRecord
100
AcDbDimStyleTableRecord
  2
ME10_DIM_24
 70
     0
 41
3.5
 42
0.0
 44
0.0
 73
     0
 74
     0
 77
     1
 78
     1
140
3.5
172
     1
173
     1
176
     2
177
     2
178
     2
271
     0
340
D7
  0
DIMSTYLE
105
19D
102
{ACAD_REACTORS
330
19E
102
}
330
A
100
AcDbSymbolTableRecord
100
AcDbDimStyleTableRecord
  2
ME10_DIM_25
 70
     0
 41
3.5
 42
0.0
 44
0.0
 73
     0
 74
     0
 77
     1
 78
     1
140
3.5
172
     1
173
     1
176
     2
177
     2
178
     2
271
     0
340
D7
  0
DIMSTYLE
105
1A9
102
{ACAD_REACTORS
330
1AA
102
}
330
A
100
AcDbSymbolTableRecord
100
AcDbDimStyleTableRecord
  2
ME10_DIM_26
 70
     0
 41
3.5
 42
0.0
 44
0.0
 73
     0
 74
     0
 77
     1
 78
     1
140
3.5
172
     1
173
     1
176
     2
177
     2
178
     2
271
     0
340
D7
  0
DIMSTYLE
105
1B5
102
{ACAD_REACTORS
330
1B6
102
}
330
A
100
AcDbSymbolTableRecord
100
AcDbDimStyleTableRecord
  2
ME10_DIM_27
 70
     0
 41
3.5
 42
0.0
 44
0.0
 73
     0
 74
     0
 77
     1
 78
     1
140
3.5
172
     1
173
     1
176
     2
177
     2
178
     2
271
     0
340
D7
  0
DIMSTYLE
105
1C0
102
{ACAD_REACTORS
330
1C1
102
}
330
A
100
AcDbSymbolTableRecord
100
AcDbDimStyleTableRecord
  2
ME10_DIM_28
 70
     0
 41
3.5
 42
0.0
 44
0.0
 73
     0
 74
     0
 77
     1
 78
     1
140
3.5
172
     1
173
     1
176
     2
177
     2
178
     2
271
     0
340
D7
  0
DIMSTYLE
105
1CB
102
{ACAD_REACTORS
330
1CC
102
}
330
A
100
AcDbSymbolTableRecord
100
AcDbDimStyleTableRecord
  2
ME10_DIM_29
 70
     0
 41
3.5
 42
0.0
 44
0.0
 73
     0
 74
     0
 77
     1
 78
     1
140
3.5
172
     1
173
     1
176
     2
177
     2
178
     2
271
     0
340
D7
  0
DIMSTYLE
105
1D6
102
{ACAD_REACTORS
330
1D7
102
}
330
A
100
AcDbSymbolTableRecord
100
AcDbDimStyleTableRecord
  2
ME10_DIM_30
 70
     0
 41
3.5
 42
0.0
 44
0.0
 73
     0
 74
     0
 77
     1
 78
     1
140
3.5
172
     1
173
     1
176
     2
177
     2
178
     2
271
     0
340
D7
  0
DIMSTYLE
105
1E1
102
{ACAD_REACTORS
330
1E2
102
}
330
A
100
AcDbSymbolTableRecord
100
AcDbDimStyleTableRecord
  2
ME10_DIM_31
 70
     0
 41
3.5
 42
0.0
 44
0.0
 73
     0
 74
     0
 77
     1
 78
     1
140
3.5
172
     1
173
     1
176
     2
177
     2
178
     2
271
     0
340
D7
  0
DIMSTYLE
105
1EE
102
{ACAD_REACTORS
330
1EF
102
}
330
A
100
AcDbSymbolTableRecord
100
AcDbDimStyleTableRecord
  2
ME10_DIM_32
 70
     0
 41
3.5
 42
0.0
 44
2.0
 73
     0
 74
     0
 77
     1
 78
     8
140
3.5
147
2.0
172
     1
173
     1
176
     2
177
     2
178
     2
271
     2
340
D4
  0
DIMSTYLE
105
1FA
102
{ACAD_REACTORS
330
1FB
102
}
330
A
100
AcDbSymbolTableRecord
100
AcDbDimStyleTableRecord
  2
ME10_DIM_33
 70
     0
 41
3.5
 42
0.0
 44
2.0
 73
     0
 74
     0
 77
     1
 78
     8
140
3.5
147
2.0
172
     1
173
     1
176
     2
177
     2
178
     2
271
     3
340
D4
  0
ENDTAB
  0
TABLE
  2
BLOCK_RECORD
  5
1
330
0
100
AcDbSymbolTable
 70
    27
  0
BLOCK_RECORD
  5
1F
330
1
100
AcDbSymbolTableRecord
100
AcDbBlockTableRecord
  2
*Model_Space
340
22
  0
BLOCK_RECORD
  5
1B
330
1
100
AcDbSymbolTableRecord
100
AcDbBlockTableRecord
  2
*Paper_Space
340
1E
  0
BLOCK_RECORD
  5
23
330
1
100
AcDbSymbolTableRecord
100
AcDbBlockTableRecord
  2
*Paper_Space0
340
26
  0
BLOCK_RECORD
  5
E0
330
1
100
AcDbSymbolTableRecord
100
AcDbBlockTableRecord
  2
*D1
340
0
  0
BLOCK_RECORD
  5
ED
330
1
100
AcDbSymbolTableRecord
100
AcDbBlockTableRecord
  2
*D2
340
0
  0
BLOCK_RECORD
  5
F8
330
1
100
AcDbSymbolTableRecord
100
AcDbBlockTableRecord
  2
*D3
340
0
  0
BLOCK_RECORD
  5
104
330
1
100
AcDbSymbolTableRecord
100
AcDbBlockTableRecord
  2
*D4
340
0
  0
BLOCK_RECORD
  5
110
330
1
100
AcDbSymbolTableRecord
100
AcDbBlockTableRecord
  2
*D5
340
0
  0
BLOCK_RECORD
  5
11D
330
1
100
AcDbSymbolTableRecord
100
AcDbBlockTableRecord
  2
*D6
340
0
  0
BLOCK_RECORD
  5
128
330
1
100
AcDbSymbolTableRecord
100
AcDbBlockTableRecord
  2
*D7
340
0
  0
BLOCK_RECORD
  5
133
330
1
100
AcDbSymbolTableRecord
100
AcDbBlockTableRecord
  2
*D8
340
0
  0
BLOCK_RECORD
  5
141
330
1
100
AcDbSymbolTableRecord
100
AcDbBlockTableRecord
  2
*D9
340
0
  0
BLOCK_RECORD
  5
14D
330
1
100
AcDbSymbolTableRecord
100
AcDbBlockTableRecord
  2
*D10
340
0
  0
BLOCK_RECORD
  5
158
330
1
100
AcDbSymbolTableRecord
100
AcDbBlockTableRecord
  2
*D11
340
0
  0
BLOCK_RECORD
  5
163
330
1
100
AcDbSymbolTableRecord
100
AcDbBlockTableRecord
  2
*D12
340
0
  0
BLOCK_RECORD
  5
170
330
1
100
AcDbSymbolTableRecord
100
AcDbBlockTableRecord
  2
*D13
340
0
  0
BLOCK_RECORD
  5
17B
330
1
100
AcDbSymbolTableRecord
100
AcDbBlockTableRecord
  2
*D14
340
0
  0
BLOCK_RECORD
  5
188
330
1
100
AcDbSymbolTableRecord
100
AcDbBlockTableRecord
  2
*D15
340
0
  0
BLOCK_RECORD
  5
194
330
1
100
AcDbSymbolTableRecord
100
AcDbBlockTableRecord
  2
*D16
340
0
  0
BLOCK_RECORD
  5
19F
330
1
100
AcDbSymbolTableRecord
100
AcDbBlockTableRecord
  2
*D17
340
0
  0
BLOCK_RECORD
  5
1AB
330
1
100
AcDbSymbolTableRecord
100
AcDbBlockTableRecord
  2
*D18
340
0
  0
BLOCK_RECORD
  5
1B7
330
1
100
AcDbSymbolTableRecord
100
AcDbBlockTableRecord
  2
*D19
340
0
  0
BLOCK_RECORD
  5
1C2
330
1
100
AcDbSymbolTableRecord
100
AcDbBlockTableRecord
  2
*D20
340
0
  0
BLOCK_RECORD
  5
1CD
330
1
100
AcDbSymbolTableRecord
100
AcDbBlockTableRecord
  2
*D21
340
0
  0
BLOCK_RECORD
  5
1D8
330
1
100
AcDbSymbolTableRecord
100
AcDbBlockTableRecord
  2
*D22
340
0
  0
BLOCK_RECORD
  5
1E3
330
1
100
AcDbSymbolTableRecord
100
AcDbBlockTableRecord
  2
*D23
340
0
  0
BLOCK_RECORD
  5
1F0
330
1
100
AcDbSymbolTableRecord
100
AcDbBlockTableRecord
  2
*D24
340
0
  0
BLOCK_RECORD
  5
1FC
330
1
100
AcDbSymbolTableRecord
100
AcDbBlockTableRecord
  2
*D25
340
0
102
{BLKREFS
331
203
102
}
  0
BLOCK_RECORD
  5
204
330
1
100
AcDbSymbolTableRecord
100
AcDbBlockTableRecord
  2
*D26
340
0
102
{BLKREFS
331
20B
102
}
  0
ENDTAB
  0
ENDSEC
  0
SECTION
  2
BLOCKS
  0
BLOCK
  5
20
330
1F
100
AcDbEntity
  8
0
100
AcDbBlockBegin
  2
*Model_Space
 70
     0
 71
     0
 10
0.0
 20
0.0
 30
0.0
  3
*Model_Space
  1

  0
ENDBLK
  5
21
330
1F
100
AcDbEntity
  8
0
100
AcDbBlockEnd
  0
BLOCK
  5
1C
330
1B
100
AcDbEntity
 67
     1
  8
0
100
AcDbBlockBegin
  2
*Paper_Space
 70
     0
 71
     0
 10
0.0
 20
0.0
 30
0.0
  3
*Paper_Space
  1

  0
ENDBLK
  5
1D
330
1B
100
AcDbEntity
 67
     1
  8
0
100
AcDbBlockEnd
  0
BLOCK
  5
24
330
23
100
AcDbEntity
  8
0
100
AcDbBlockBegin
  2
*Paper_Space0
 70
     0
 71
     0
 10
0.0
 20
0.0
 30
0.0
  3
*Paper_Space0
  1

  0
ENDBLK
  5
25
330
23
100
AcDbEntity
  8
0
100
AcDbBlockEnd
  0
BLOCK
  5
E9
330
E0
100
AcDbEntity
  8
0
100
AcDbBlockBegin
  2
*D1
 70
     1
 71
     0
 10
0.0
 20
0.0
 30
0.0
  3
*D1
  1

  0
LINE
  5
E1
330
E0
100
AcDbEntity
  8
1
  6
Continuous
 62
     2
100
AcDbLine
 10
148.7409768498107
 20
-122.6961328902793
 30
0.0
 11
159.5940349050883
 21
-122.6961328902793
 31
0.0
  0
LINE
  5
E2
330
E0
100
AcDbEntity
  8
1
  6
Continuous
 62
     2
100
AcDbLine
 10
144.2409768498107
 20
-122.6961328902793
 30
0.0
 11
148.7409768498107
 21
-122.6961328902793
 31
0.0
  0
LINE
  5
E3
330
E0
100
AcDbEntity
  8
1
  6
Continuous
 62
     2
100
AcDbLine
 10
137.2409768498107
 20
-122.6961328902793
 30
0.0
 11
144.2409768498107
 21
-122.6961328902793
 31
0.0
  0
LINE
  5
E4
330
E0
100
AcDbEntity
  8
1
  6
Continuous
 62
     2
100
AcDbLine
 10
148.7409768498107
 20
-114.6737693643846
 30
0.0
 11
148.7409768498107
 21
-124.6961328902793
 31
0.0
  0
LINE
  5
E5
330
E0
100
AcDbEntity
  8
1
  6
Continuous
 62
     2
100
AcDbLine
 10
144.2409768498107
 20
-114.6737693643846
 30
0.0
 11
144.2409768498107
 21
-124.6961328902793
 31
0.0
  0
SOLID
  5
E6
330
E0
100
AcDbEntity
  8
1
 62
     2
100
AcDbTrace
 10
140.7409768498107
 20
-123.1569166318352
 30
0.0
 11
140.7409768498107
 21
-122.2353491487234
 31
0.0
 12
144.2409768498107
 22
-122.6961328902793
 32
0.0
 13
144.2409768498107
 23
-122.6961328902793
 33
0.0
  0
SOLID
  5
E7
330
E0
100
AcDbEntity
  8
1
 62
     2
100
AcDbTrace
 10
152.2409768498107
 20
-122.2353491487234
 30
0.0
 11
152.2409768498107
 21
-123.1569166318352
 31
0.0
 12
148.7409768498107
 22
-122.6961328902793
 32
0.0
 13
148.7409768498107
 23
-122.6961328902793
 33
0.0
  0
MTEXT
  5
E8
330
E0
100
AcDbEntity
  8
1
 62
     2
100
AcDbMText
 10
153.2065349050883
 20
-120.6961328902793
 30
0.0
 40
3.5
 41
0.0
 71
     7
 72
     1
  1
4.5
  7
CONVERTER_11
 11
0.9999999999970621
 21
2.424068405545307E-6
 31
0.0
 73
     1
 44
0.60024009603842
  0
ENDBLK
  5
EA
330
E0
100
AcDbEntity
  8
0
100
AcDbBlockEnd
  0
BLOCK
  5
F4
330
ED
100
AcDbEntity
  8
0
100
AcDbBlockBegin
  2
*D2
 70
     1
 71
     0
 10
0.0
 20
0.0
 30
0.0
  3
*D2
  1

  0
LINE
  5
EE
330
ED
100
AcDbEntity
  8
1
  6
Continuous
 62
     2
100
AcDbLine
 10
209.2777374125558
 20
13.1887291133419
 30
0.0
 11
209.2777374125558
 21
93.18872911334199
 31
0.0
  0
LINE
  5
EF
330
ED
100
AcDbEntity
  8
1
  6
Continuous
 62
     2
100
AcDbLine
 10
200.8035824998028
 20
13.1887291133419
 30
0.0
 11
211.2777374125558
 21
13.1887291133419
 31
0.0
  0
LINE
  5
F0
330
ED
100
AcDbEntity
  8
1
  6
Continuous
 62
     2
100
AcDbLine
 10
155.9909768498106
 20
93.18872911334199
 30
0.0
 11
211.2777374125558
 21
93.18872911334199
 31
0.0
  0
SOLID
  5
F1
330
ED
100
AcDbEntity
  8
1
 62
     2
100
AcDbTrace
 10
208.8169536709999
 20
16.6887291133419
 30
0.0
 11
209.7385211541117
 21
16.6887291133419
 31
0.0
 12
209.2777374125558
 22
13.1887291133419
 32
0.0
 13
209.2777374125558
 23
13.1887291133419
 33
0.0
  0
SOLID
  5
F2
330
ED
100
AcDbEntity
  8
1
 62
     2
100
AcDbTrace
 10
209.7385211541117
 20
89.68872911334199
 30
0.0
 11
208.8169536709999
 21
89.68872911334199
 31
0.0
 12
209.2777374125558
 22
93.18872911334199
 32
0.0
 13
209.2777374125558
 23
93.18872911334199
 33
0.0
  0
MTEXT
  5
F3
330
ED
100
AcDbEntity
  8
1
 62
     2
100
AcDbMText
 10
207.2777374125558
 20
50.20310901268389
 30
0.0
 40
3.5
 41
0.0
 71
     7
 72
     1
  1
80
  7
CONVERTER_12
 11
0.0
 21
1.0
 31
0.0
 73
     1
 44
0.60024009603842
  0
ENDBLK
  5
F5
330
ED
100
AcDbEntity
  8
0
100
AcDbBlockEnd
  0
BLOCK
  5
100
330
F8
100
AcDbEntity
  8
0
100
AcDbBlockBegin
  2
*D3
 70
     1
 71
     0
 10
0.0
 20
0.0
 30
0.0
  3
*D3
  1

  0
LINE
  5
F9
330
F8
100
AcDbEntity
  8
1
  6
Continuous
 62
     2
100
AcDbLine
 10
157.9909768498106
 20
-49.23724861303599
 30
0.0
 11
167.9909768498106
 21
-49.23724861303599
 31
0.0
  0
LINE
  5
FA
330
F8
100
AcDbEntity
  8
1
  6
Continuous
 62
     2
100
AcDbLine
 10
157.9909768498106
 20
-49.23724861303599
 30
0.0
 11
167.9909768498106
 21
-49.23724861303599
 31
0.0
  0
LINE
  5
FB
330
F8
100
AcDbEntity
  8
1
  6
Continuous
 62
     2
100
AcDbLine
 10
157.9909768498106
 20
-44.89302198760297
 30
0.0
 11
157.9909768498106
 21
-51.23724861303599
 31
0.0
  0
LINE
  5
FC
330
F8
100
AcDbEntity
  8
1
  6
Continuous
 62
     2
100
AcDbLine
 10
167.9909768498106
 20
-54.811270886658
 30
0.0
 11
167.9909768498106
 21
-47.23724861303599
 31
0.0
  0
SOLID
  5
FD
330
F8
100
AcDbEntity
  8
1
 62
     2
100
AcDbTrace
 10
164.4909768498106
 20
-49.69803235459188
 30
0.0
 11
164.4909768498106
 21
-48.77646487148011
 31
0.0
 12
167.9909768498106
 22
-49.23724861303599
 32
0.0
 13
167.9909768498106
 23
-49.23724861303599
 33
0.0
  0
SOLID
  5
FE
330
F8
100
AcDbEntity
  8
1
 62
     2
100
AcDbTrace
 10
161.4909768498106
 20
-48.77646487148011
 30
0.0
 11
161.4909768498106
 21
-49.69803235459188
 31
0.0
 12
157.9909768498106
 22
-49.23724861303599
 32
0.0
 13
157.9909768498106
 23
-49.23724861303599
 33
0.0
  0
MTEXT
  5
FF
330
F8
100
AcDbEntity
  8
1
 62
     2
100
AcDbMText
 10
160.7040985721246
 20
-47.23724861303599
 30
0.0
 40
3.5
 41
0.0
 71
     7
 72
     1
  1
10
  7
CONVERTER_12
 11
0.9999999999970621
 21
2.424068405545307E-6
 31
0.0
 73
     1
 44
0.60024009603842
  0
ENDBLK
  5
101
330
F8
100
AcDbEntity
  8
0
100
AcDbBlockEnd
  0
BLOCK
  5
10C
330
104
100
AcDbEntity
  8
0
100
AcDbBlockBegin
  2
*D4
 70
     1
 71
     0
 10
0.0
 20
0.0
 30
0.0
  3
*D4
  1

  0
LINE
  5
105
330
104
100
AcDbEntity
  8
1
  6
Continuous
 62
     2
100
AcDbLine
 10
144.2409768498106
 20
-131.6619859248942
 30
0.0
 11
168.2409768498106
 21
-131.6619859248942
 31
0.0
  0
LINE
  5
106
330
104
100
AcDbEntity
  8
1
  6
Continuous
 62
     2
100
AcDbLine
 10
144.2409768498106
 20
-131.6619859248942
 30
0.0
 11
168.2409768498106
 21
-131.6619859248942
 31
0.0
  0
LINE
  5
107
330
104
100
AcDbEntity
  8
1
  6
Continuous
 62
     2
100
AcDbLine
 10
168.2409768498106
 20
-101.6737693643846
 30
0.0
 11
168.2409768498106
 21
-133.6619859248942
 31
0.0
  0
LINE
  5
108
330
104
100
AcDbEntity
  8
1
  6
Continuous
 62
     2
100
AcDbLine
 10
144.2409768498106
 20
-114.6737693643846
 30
0.0
 11
144.2409768498106
 21
-133.6619859248942
 31
0.0
  0
SOLID
  5
109
330
104
100
AcDbEntity
  8
1
 62
     2
100
AcDbTrace
 10
164.7409768498106
 20
-132.1227696664501
 30
0.0
 11
164.7409768498106
 21
-131.2012021833383
 31
0.0
 12
168.2409768498106
 22
-131.6619859248942
 32
0.0
 13
168.2409768498106
 23
-131.6619859248942
 33
0.0
  0
SOLID
  5
10A
330
104
100
AcDbEntity
  8
1
 62
     2
100
AcDbTrace
 10
147.7409768498106
 20
-131.2012021833383
 30
0.0
 11
147.7409768498106
 21
-132.1227696664501
 31
0.0
 12
144.2409768498106
 22
-131.6619859248942
 32
0.0
 13
144.2409768498106
 23
-131.6619859248942
 33
0.0
  0
MTEXT
  5
10B
330
104
100
AcDbEntity
  8
1
 62
     2
100
AcDbMText
 10
154.0315049814456
 20
-129.6619859248942
 30
0.0
 40
3.5
 41
0.0
 71
     7
 72
     1
  1
24
  7
CONVERTER_12
 11
0.9999999999970621
 21
2.424068405545307E-6
 31
0.0
 73
     1
 44
0.60024009603842
  0
ENDBLK
  5
10D
330
104
100
AcDbEntity
  8
0
100
AcDbBlockEnd
  0
BLOCK
  5
119
330
110
100
AcDbEntity
  8
0
100
AcDbBlockBegin
  2
*D5
 70
     1
 71
     0
 10
0.0
 20
0.0
 30
0.0
  3
*D5
  1

  0
LINE
  5
111
330
110
100
AcDbEntity
  8
1
  6
Continuous
 62
     2
100
AcDbLine
 10
183.6907433041626
 20
-98.1737693643846
 30
0.0
 11
183.6907433041626
 21
-88.7735704714198
 31
0.0
  0
LINE
  5
112
330
110
100
AcDbEntity
  8
1
  6
Continuous
 62
     2
100
AcDbLine
 10
183.6907433041626
 20
-101.6737693643846
 30
0.0
 11
183.6907433041626
 21
-98.1737693643846
 31
0.0
  0
LINE
  5
113
330
110
100
AcDbEntity
  8
1
  6
Continuous
 62
     2
100
AcDbLine
 10
183.6907433041626
 20
-108.6737693643846
 30
0.0
 11
183.6907433041626
 21
-101.6737693643846
 31
0.0
  0
LINE
  5
114
330
110
100
AcDbEntity
  8
1
  6
Continuous
 62
     2
100
AcDbLine
 10
168.2409768498105
 20
-98.1737693643846
 30
0.0
 11
185.6907433041626
 21
-98.1737693643846
 31
0.0
  0
LINE
  5
115
330
110
100
AcDbEntity
  8
1
  6
Continuous
 62
     2
100
AcDbLine
 10
172.9909768498105
 20
-101.6737693643846
 30
0.0
 11
185.6907433041626
 21
-101.6737693643846
 31
0.0
  0
SOLID
  5
116
330
110
100
AcDbEntity
  8
1
 62
     2
100
AcDbTrace
 10
184.1515270457185
 20
-105.1737693643846
 30
0.0
 11
183.2299595626067
 21
-105.1737693643846
 31
0.0
 12
183.6907433041626
 22
-101.6737693643846
 32
0.0
 13
183.6907433041626
 23
-101.6737693643846
 33
0.0
  0
SOLID
  5
117
330
110
100
AcDbEntity
  8
1
 62
     2
100
AcDbTrace
 10
183.2299595626067
 20
-94.6737693643846
 30
0.0
 11
184.1515270457185
 21
-94.6737693643846
 31
0.0
 12
183.6907433041626
 22
-98.1737693643846
 32
0.0
 13
183.6907433041626
 23
-98.1737693643846
 33
0.0
  0
MTEXT
  5
118
330
110
100
AcDbEntity
  8
1
 62
     2
100
AcDbMText
 10
181.1094223361191
 20
-95.0971954714198
 30
0.0
 40
3.5
 41
0.0
 71
     7
 72
     1
  1
3.5
  7
CONVERTER_12
 11
0.0
 21
1.0
 31
0.0
 73
     1
 44
0.60024009603842
  0
ENDBLK
  5
11A
330
110
100
AcDbEntity
  8
0
100
AcDbBlockEnd
  0
BLOCK
  5
124
330
11D
100
AcDbEntity
  8
0
100
AcDbBlockBegin
  2
*D6
 70
     1
 71
     0
 10
0.0
 20
0.0
 30
0.0
  3
*D6
  1

  0
LINE
  5
11E
330
11D
100
AcDbEntity
  8
1
  6
Continuous
 62
     2
100
AcDbLine
 10
198.3359874655216
 20
-54.81127088665806
 30
0.0
 11
198.3359874655216
 21
81.1887291133419
 31
0.0
  0
LINE
  5
11F
330
11D
100
AcDbEntity
  8
1
  6
Continuous
 62
     2
100
AcDbLine
 10
164.0595017604086
 20
81.1887291133419
 30
0.0
 11
200.3359874655216
 21
81.1887291133419
 31
0.0
  0
LINE
  5
120
330
11D
100
AcDbEntity
  8
1
  6
Continuous
 62
     2
100
AcDbLine
 10
164.0626361797126
 20
-54.81127088665806
 30
0.0
 11
200.3359874655216
 21
-54.81127088665806
 31
0.0
  0
SOLID
  5
121
330
11D
100
AcDbEntity
  8
1
 62
     2
100
AcDbTrace
 10
197.8752037239657
 20
-51.31127088665806
 30
0.0
 11
198.7967712070775
 21
-51.31127088665806
 31
0.0
 12
198.3359874655216
 22
-54.81127088665806
 32
0.0
 13
198.3359874655216
 23
-54.81127088665806
 33
0.0
  0
SOLID
  5
122
330
11D
100
AcDbEntity
  8
1
 62
     2
100
AcDbTrace
 10
198.7967712070775
 20
77.6887291133419
 30
0.0
 11
197.8752037239657
 21
77.6887291133419
 31
0.0
 12
198.3359874655216
 22
81.1887291133419
 32
0.0
 13
198.3359874655216
 23
81.1887291133419
 33
0.0
  0
MTEXT
  5
123
330
11D
100
AcDbEntity
  8
1
 62
     2
100
AcDbMText
 10
196.3359874655216
 20
9.7334939753379
 30
0.0
 40
3.5
 41
0.0
 71
     7
 72
     1
  1
136
  7
CONVERTER_12
 11
0.0
 21
1.0
 31
0.0
 73
     1
 44
0.60024009603842
  0
ENDBLK
  5
125
330
11D
100
AcDbEntity
  8
0
100
AcDbBlockEnd
  0
BLOCK
  5
12F
330
128
100
AcDbEntity
  8
0
100
AcDbBlockBegin
  2
*D7
 70
     1
 71
     0
 10
0.0
 20
0.0
 30
0.0
  3
*D7
  1

  0
LINE
  5
129
330
128
100
AcDbEntity
  8
1
  6
Continuous
 62
     2
100
AcDbLine
 10
186.9412953211486
 20
-20.81127088665809
 30
0.0
 11
186.9412953211486
 21
47.18872911334191
 31
0.0
  0
LINE
  5
12A
330
128
100
AcDbEntity
  8
1
  6
Continuous
 62
     2
100
AcDbLine
 10
157.9909768498106
 20
-20.81127088665809
 30
0.0
 11
188.9412953211486
 21
-20.81127088665809
 31
0.0
  0
LINE
  5
12B
330
128
100
AcDbEntity
  8
1
  6
Continuous
 62
     2
100
AcDbLine
 10
157.9909768498106
 20
47.18872911334191
 30
0.0
 11
188.9412953211486
 21
47.18872911334191
 31
0.0
  0
SOLID
  5
12C
330
128
100
AcDbEntity
  8
1
 62
     2
100
AcDbTrace
 10
186.4805115795927
 20
-17.31127088665809
 30
0.0
 11
187.4020790627045
 21
-17.31127088665809
 31
0.0
 12
186.9412953211486
 22
-20.81127088665809
 32
0.0
 13
186.9412953211486
 23
-20.81127088665809
 33
0.0
  0
SOLID
  5
12D
330
128
100
AcDbEntity
  8
1
 62
     2
100
AcDbTrace
 10
187.4020790627045
 20
43.68872911334191
 30
0.0
 11
186.4805115795927
 21
43.68872911334191
 31
0.0
 12
186.9412953211486
 22
47.18872911334191
 32
0.0
 13
186.9412953211486
 23
47.18872911334191
 33
0.0
  0
MTEXT
  5
12E
330
128
100
AcDbEntity
  8
1
 62
     2
100
AcDbMText
 10
184.9412953211486
 20
10.4378559710909
 30
0.0
 40
3.5
 41
0.0
 71
     7
 72
     1
  1
68
  7
CONVERTER_12
 11
0.0
 21
1.0
 31
0.0
 73
     1
 44
0.60024009603842
  0
ENDBLK
  5
130
330
128
100
AcDbEntity
  8
0
100
AcDbBlockEnd
  0
BLOCK
  5
13D
330
133
100
AcDbEntity
  8
0
100
AcDbBlockBegin
  2
*D8
 70
     1
 71
     0
 10
0.0
 20
0.0
 30
0.0
  3
*D8
  1

  0
LINE
  5
134
330
133
100
AcDbEntity
  8
1
  6
Continuous
 62
     2
100
AcDbLine
 10
167.9909768498106
 20
73.1037769413029
 30
0.0
 11
174.9909768498106
 21
73.1037769413029
 31
0.0
  0
LINE
  5
135
330
133
100
AcDbEntity
  8
1
  6
Continuous
 62
     2
100
AcDbLine
 10
160.9909768498106
 20
73.1037769413029
 30
0.0
 11
153.9909768498106
 21
73.1037769413029
 31
0.0
  0
LINE
  5
136
330
133
100
AcDbEntity
  8
1
  6
Continuous
 62
     2
100
AcDbLine
 10
167.9909768498106
 20
73.1037769413029
 30
0.0
 11
174.9909768498106
 21
73.1037769413029
 31
0.0
  0
LINE
  5
137
330
133
100
AcDbEntity
  8
1
  6
Continuous
 62
     2
100
AcDbLine
 10
160.9909768498106
 20
73.1037769413029
 30
0.0
 11
167.9909768498106
 21
73.1037769413029
 31
0.0
  0
LINE
  5
138
330
133
100
AcDbEntity
  8
1
  6
Continuous
 62
     2
100
AcDbLine
 10
167.9909768498106
 20
81.18872911334188
 30
0.0
 11
167.9909768498106
 21
71.1037769413029
 31
0.0
  0
LINE
  5
139
330
133
100
AcDbEntity
  8
1
  6
Continuous
 62
     2
100
AcDbLine
 10
160.9909768498106
 20
77.6209848107049
 30
0.0
 11
160.9909768498106
 21
71.1037769413029
 31
0.0
  0
SOLID
  5
13A
330
133
100
AcDbEntity
  8
1
 62
     2
100
AcDbTrace
 10
171.4909768498106
 20
73.56456068285878
 30
0.0
 11
171.4909768498106
 21
72.64299319974701
 31
0.0
 12
167.9909768498106
 22
73.1037769413029
 32
0.0
 13
167.9909768498106
 23
73.1037769413029
 33
0.0
  0
SOLID
  5
13B
330
133
100
AcDbEntity
  8
1
 62
     2
100
AcDbTrace
 10
157.4909768498106
 20
72.64299319974701
 30
0.0
 11
157.4909768498106
 21
73.56456068285878
 31
0.0
 12
160.9909768498106
 22
73.1037769413029
 32
0.0
 13
160.9909768498106
 23
73.1037769413029
 33
0.0
  0
MTEXT
  5
13C
330
133
100
AcDbEntity
  8
1
 62
     2
100
AcDbMText
 10
163.6064251010356
 20
75.1037769413029
 30
0.0
 40
3.5
 41
0.0
 71
     7
 72
     1
  1
7
  7
CONVERTER_12
 11
0.9999999999970621
 21
2.424068405545307E-6
 31
0.0
 73
     1
 44
0.60024009603842
  0
ENDBLK
  5
13E
330
133
100
AcDbEntity
  8
0
100
AcDbBlockEnd
  0
BLOCK
  5
149
330
141
100
AcDbEntity
  8
0
100
AcDbBlockBegin
  2
*D9
 70
     1
 71
     0
 10
0.0
 20
0.0
 30
0.0
  3
*D9
  1

  0
LINE
  5
142
330
141
100
AcDbEntity
  8
1
  6
Continuous
 62
     2
100
AcDbLine
 10
154.9909768498107
 20
30.8799461345539
 30
0.0
 11
167.9909768498107
 21
30.8799461345539
 31
0.0
  0
LINE
  5
143
330
141
100
AcDbEntity
  8
1
  6
Continuous
 62
     2
100
AcDbLine
 10
154.9909768498107
 20
30.8799461345539
 30
0.0
 11
167.9909768498107
 21
30.8799461345539
 31
0.0
  0
LINE
  5
144
330
141
100
AcDbEntity
  8
1
  6
Continuous
 62
     2
100
AcDbLine
 10
154.9909768498107
 20
44.1842671305439
 30
0.0
 11
154.9909768498107
 21
28.8799461345539
 31
0.0
  0
LINE
  5
145
330
141
100
AcDbEntity
  8
1
  6
Continuous
 62
     2
100
AcDbLine
 10
167.9909768498107
 20
81.18872911334186
 30
0.0
 11
167.9909768498107
 21
28.8799461345539
 31
0.0
  0
SOLID
  5
146
330
141
100
AcDbEntity
  8
1
 62
     2
100
AcDbTrace
 10
164.4909768498107
 20
30.41916239299801
 30
0.0
 11
164.4909768498107
 21
31.34072987610979
 31
0.0
 12
167.9909768498107
 22
30.8799461345539
 32
0.0
 13
167.9909768498107
 23
30.8799461345539
 33
0.0
  0
SOLID
  5
147
330
141
100
AcDbEntity
  8
1
 62
     2
100
AcDbTrace
 10
158.4909768498107
 20
31.34072987610979
 30
0.0
 11
158.4909768498107
 21
30.41916239299801
 31
0.0
 12
154.9909768498107
 22
30.8799461345539
 32
0.0
 13
154.9909768498107
 23
30.8799461345539
 33
0.0
  0
MTEXT
  5
148
330
141
100
AcDbEntity
  8
1
 62
     2
100
AcDbMText
 10
159.3283250451397
 20
32.8799461345539
 30
0.0
 40
3.5
 41
0.0
 71
     7
 72
     1
  1
13
  7
CONVERTER_12
 11
0.9999999999970621
 21
2.424068405545307E-6
 31
0.0
 73
     1
 44
0.60024009603842
  0
ENDBLK
  5
14A
330
141
100
AcDbEntity
  8
0
100
AcDbBlockEnd
  0
BLOCK
  5
154
330
14D
100
AcDbEntity
  8
0
100
AcDbBlockBegin
  2
*D10
 70
     1
 71
     0
 10
0.0
 20
0.0
 30
0.0
  3
*D10
  1

  0
LINE
  5
14E
330
14D
100
AcDbEntity
  8
1
  6
Continuous
 62
     2
100
AcDbLine
 10
123.2650745143545
 20
-36.81127088665812
 30
0.0
 11
123.2650745143545
 21
63.18872911334188
 31
0.0
  0
LINE
  5
14F
330
14D
100
AcDbEntity
  8
1
  6
Continuous
 62
     2
100
AcDbLine
 10
150.4676520826955
 20
-36.81127088665812
 30
0.0
 11
121.2650745143545
 21
-36.81127088665812
 31
0.0
  0
LINE
  5
150
330
14D
100
AcDbEntity
  8
1
  6
Continuous
 62
     2
100
AcDbLine
 10
149.6509161811295
 20
63.18872911334188
 30
0.0
 11
121.2650745143545
 21
63.18872911334188
 31
0.0
  0
SOLID
  5
151
330
14D
100
AcDbEntity
  8
1
 62
     2
100
AcDbTrace
 10
122.8042907727986
 20
-33.31127088665812
 30
0.0
 11
123.7258582559104
 21
-33.31127088665812
 31
0.0
 12
123.2650745143545
 22
-36.81127088665812
 32
0.0
 13
123.2650745143545
 23
-36.81127088665812
 33
0.0
  0
SOLID
  5
152
330
14D
100
AcDbEntity
  8
1
 62
     2
100
AcDbTrace
 10
123.7258582559104
 20
59.68872911334188
 30
0.0
 11
122.8042907727986
 21
59.68872911334188
 31
0.0
 12
123.2650745143545
 22
63.18872911334188
 32
0.0
 13
123.2650745143545
 23
63.18872911334188
 33
0.0
  0
MTEXT
  5
153
330
14D
100
AcDbEntity
  8
1
 62
     2
100
AcDbMText
 10
121.2650745143545
 20
9.20772585854491
 30
0.0
 40
3.5
 41
0.0
 71
     7
 72
     1
  1
100
  7
CONVERTER_12
 11
0.0
 21
1.0
 31
0.0
 73
     1
 44
0.60024009603842
  0
ENDBLK
  5
155
330
14D
100
AcDbEntity
  8
0
100
AcDbBlockEnd
  0
BLOCK
  5
15F
330
158
100
AcDbEntity
  8
0
100
AcDbBlockBegin
  2
*D11
 70
     1
 71
     0
 10
0.0
 20
0.0
 30
0.0
  3
*D11
  1

  0
LINE
  5
159
330
158
100
AcDbEntity
  8
1
  6
Continuous
 62
     2
100
AcDbLine
 10
219.6708782206118
 20
-66.81127088665797
 30
0.0
 11
219.6708782206118
 21
93.18872911334199
 31
0.0
  0
LINE
  5
15A
330
158
100
AcDbEntity
  8
1
  6
Continuous
 62
     2
100
AcDbLine
 10
155.9909768498106
 20
-66.81127088665797
 30
0.0
 11
221.6708782206118
 21
-66.81127088665797
 31
0.0
  0
LINE
  5
15B
330
158
100
AcDbEntity
  8
1
  6
Continuous
 62
     2
100
AcDbLine
 10
155.9909768498106
 20
93.18872911334199
 30
0.0
 11
221.6708782206118
 21
93.18872911334199
 31
0.0
  0
SOLID
  5
15C
330
158
100
AcDbEntity
  8
1
 62
     2
100
AcDbTrace
 10
219.2100944790559
 20
-63.31127088665797
 30
0.0
 11
220.1316619621677
 21
-63.31127088665797
 31
0.0
 12
219.6708782206118
 22
-66.81127088665797
 32
0.0
 13
219.6708782206118
 23
-66.81127088665797
 33
0.0
  0
SOLID
  5
15D
330
158
100
AcDbEntity
  8
1
 62
     2
100
AcDbTrace
 10
220.1316619621677
 20
89.68872911334199
 30
0.0
 11
219.2100944790559
 21
89.68872911334199
 31
0.0
 12
219.6708782206118
 22
93.18872911334199
 32
0.0
 13
219.6708782206118
 23
93.18872911334199
 33
0.0
  0
MTEXT
  5
15E
330
158
100
AcDbEntity
  8
1
 62
     2
100
AcDbMText
 10
217.6708782206118
 20
8.53587676300963
 30
0.0
 40
3.5
 41
0.0
 71
     7
 72
     1
  1
160
  7
CONVERTER_12
 11
0.0
 21
1.0
 31
0.0
 73
     1
 44
0.60024009603842
  0
ENDBLK
  5
160
330
158
100
AcDbEntity
  8
0
100
AcDbBlockEnd
  0
BLOCK
  5
16C
330
163
100
AcDbEntity
  8
0
100
AcDbBlockBegin
  2
*D12
 70
     1
 71
     0
 10
0.0
 20
0.0
 30
0.0
  3
*D12
  1

  0
LINE
  5
164
330
163
100
AcDbEntity
  8
1
  6
Continuous
 62
     2
100
AcDbLine
 10
-20.08492672080899
 20
24.57356987767301
 30
0.0
 11
-27.08492672080899
 21
24.57356987767301
 31
0.0
  0
LINE
  5
165
330
163
100
AcDbEntity
  8
1
  6
Continuous
 62
     2
100
AcDbLine
 10
-13.08492672080899
 20
24.57356987767301
 30
0.0
 11
-20.08492672080899
 21
24.57356987767301
 31
0.0
  0
LINE
  5
166
330
163
100
AcDbEntity
  8
1
  6
Continuous
 62
     2
100
AcDbLine
 10
-6.08492672080899
 20
24.57356987767301
 30
0.0
 11
-13.08492672080899
 21
24.57356987767301
 31
0.0
  0
LINE
  5
167
330
163
100
AcDbEntity
  8
1
  6
Continuous
 62
     2
100
AcDbLine
 10
-13.08492672080899
 20
81.19021531291712
 30
0.0
 11
-13.08492672080899
 21
22.57356987767301
 31
0.0
  0
LINE
  5
168
330
163
100
AcDbEntity
  8
1
  6
Continuous
 62
     2
100
AcDbLine
 10
-20.08492672080899
 20
15.83992839571101
 30
0.0
 11
-20.08492672080899
 21
26.57356987767301
 31
0.0
  0
SOLID
  5
169
330
163
100
AcDbEntity
  8
1
 62
     2
100
AcDbTrace
 10
-9.58492672080899
 20
25.0343536192289
 30
0.0
 11
-9.58492672080899
 21
24.11278613611712
 31
0.0
 12
-13.08492672080899
 22
24.57356987767301
 32
0.0
 13
-13.08492672080899
 23
24.57356987767301
 33
0.0
  0
SOLID
  5
16A
330
163
100
AcDbEntity
  8
1
 62
     2
100
AcDbTrace
 10
-23.58492672080899
 20
24.11278613611712
 30
0.0
 11
-23.58492672080899
 21
25.0343536192289
 31
0.0
 12
-20.08492672080899
 22
24.57356987767301
 32
0.0
 13
-20.08492672080899
 23
24.57356987767301
 33
0.0
  0
MTEXT
  5
16B
330
163
100
AcDbEntity
  8
1
 62
     2
100
AcDbMText
 10
-17.8175159460555
 20
27.0414840975715
 30
0.0
 40
3.5
 41
0.0
 71
     7
 72
     1
  1
7
  7
CONVERTER_12
 11
0.9999999999970621
 21
2.424068405545307E-6
 31
0.0
 73
     1
 44
0.60024009603842
  0
ENDBLK
  5
16D
330
163
100
AcDbEntity
  8
0
100
AcDbBlockEnd
  0
BLOCK
  5
177
330
170
100
AcDbEntity
  8
0
100
AcDbBlockBegin
  2
*D13
 70
     1
 71
     0
 10
0.0
 20
0.0
 30
0.0
  3
*D13
  1

  0
LINE
  5
171
330
170
100
AcDbEntity
  8
1
  6
Continuous
 62
     2
100
AcDbLine
 10
-37.08492672080899
 20
-141.286454741996
 30
0.0
 11
-13.08492672080899
 21
-141.286454741996
 31
0.0
  0
LINE
  5
172
330
170
100
AcDbEntity
  8
1
  6
Continuous
 62
     2
100
AcDbLine
 10
-37.08492672080899
 20
-120.3157040076767
 30
0.0
 11
-37.08492672080899
 21
-143.286454741996
 31
0.0
  0
LINE
  5
173
330
170
100
AcDbEntity
  8
1
  6
Continuous
 62
     2
100
AcDbLine
 10
-13.08492672080899
 20
-120.3157040076768
 30
0.0
 11
-13.08492672080899
 21
-143.286454741996
 31
0.0
  0
SOLID
  5
174
330
170
100
AcDbEntity
  8
1
 62
     2
100
AcDbTrace
 10
-33.58492672080899
 20
-140.8256710004401
 30
0.0
 11
-33.58492672080899
 21
-141.7472384835519
 31
0.0
 12
-37.08492672080899
 22
-141.286454741996
 32
0.0
 13
-37.08492672080899
 23
-141.286454741996
 33
0.0
  0
SOLID
  5
175
330
170
100
AcDbEntity
  8
1
 62
     2
100
AcDbTrace
 10
-16.58492672080899
 20
-141.7472384835519
 30
0.0
 11
-16.58492672080899
 21
-140.8256710004401
 31
0.0
 12
-13.08492672080899
 22
-141.286454741996
 32
0.0
 13
-13.08492672080899
 23
-141.286454741996
 33
0.0
  0
MTEXT
  5
176
330
170
100
AcDbEntity
  8
1
 62
     2
100
AcDbMText
 10
-28.4639117700075
 20
-139.286454741996
 30
0.0
 40
3.5
 41
0.0
 71
     7
 72
     1
  1
24
  7
CONVERTER_11
 11
0.9999999999970621
 21
2.424068405545307E-6
 31
0.0
 73
     1
 44
0.60024009603842
  0
ENDBLK
  5
178
330
170
100
AcDbEntity
  8
0
100
AcDbBlockEnd
  0
BLOCK
  5
184
330
17B
100
AcDbEntity
  8
0
100
AcDbBlockBegin
  2
*D14
 70
     1
 71
     0
 10
0.0
 20
0.0
 30
0.0
  3
*D14
  1

  0
LINE
  5
17C
330
17B
100
AcDbEntity
  8
1
  6
Continuous
 62
     2
100
AcDbLine
 10
-37.08492672080899
 20
-130.261280621889
 30
0.0
 11
-44.08492672080899
 21
-130.261280621889
 31
0.0
  0
LINE
  5
17D
330
17B
100
AcDbEntity
  8
1
  6
Continuous
 62
     2
100
AcDbLine
 10
-33.58492672080899
 20
-130.261280621889
 30
0.0
 11
-37.08492672080899
 21
-130.261280621889
 31
0.0
  0
LINE
  5
17E
330
17B
100
AcDbEntity
  8
1
  6
Continuous
 62
     2
100
AcDbLine
 10
-24.9256503705359
 20
-130.261280621889
 30
0.0
 11
-33.58492672080899
 21
-130.261280621889
 31
0.0
  0
LINE
  5
17F
330
17B
100
AcDbEntity
  8
1
  6
Continuous
 62
     2
100
AcDbLine
 10
-33.58492672080899
 20
-116.8157040076767
 30
0.0
 11
-33.58492672080899
 21
-132.261280621889
 31
0.0
  0
LINE
  5
180
330
17B
100
AcDbEntity
  8
1
  6
Continuous
 62
     2
100
AcDbLine
 10
-37.08492672080899
 20
-120.3157040076767
 30
0.0
 11
-37.08492672080899
 21
-132.261280621889
 31
0.0
  0
SOLID
  5
181
330
17B
100
AcDbEntity
  8
1
 62
     2
100
AcDbTrace
 10
-30.08492672080899
 20
-129.8004968803331
 30
0.0
 11
-30.08492672080899
 21
-130.7220643634449
 31
0.0
 12
-33.58492672080899
 22
-130.261280621889
 32
0.0
 13
-33.58492672080899
 23
-130.261280621889
 33
0.0
  0
SOLID
  5
182
330
17B
100
AcDbEntity
  8
1
 62
     2
100
AcDbTrace
 10
-40.58492672080899
 20
-130.7220643634449
 30
0.0
 11
-40.58492672080899
 21
-129.8004968803331
 31
0.0
 12
-37.08492672080899
 22
-130.261280621889
 32
0.0
 13
-37.08492672080899
 23
-130.261280621889
 33
0.0
  0
MTEXT
  5
183
330
17B
100
AcDbEntity
  8
1
 62
     2
100
AcDbMText
 10
-31.3131503705359
 20
-128.261280621889
 30
0.0
 40
3.5
 41
0.0
 71
     7
 72
     1
  1
3.5
  7
CONVERTER_11
 11
0.9999999999970621
 21
2.424068405545307E-6
 31
0.0
 73
     1
 44
0.60024009603842
  0
ENDBLK
  5
185
330
17B
100
AcDbEntity
  8
0
100
AcDbBlockEnd
  0
BLOCK
  5
190
330
188
100
AcDbEntity
  8
0
100
AcDbBlockBegin
  2
*D15
 70
     1
 71
     0
 10
0.0
 20
0.0
 30
0.0
  3
*D15
  1

  0
LINE
  5
189
330
188
100
AcDbEntity
  8
1
  6
Continuous
 62
     2
100
AcDbLine
 10
-58.59845424728103
 20
93.1902153129171
 30
0.0
 11
-58.59845424728103
 21
13.18872911334191
 31
0.0
  0
LINE
  5
18A
330
188
100
AcDbEntity
  8
1
  6
Continuous
 62
     2
100
AcDbLine
 10
-41.98914722072074
 20
13.1887291133419
 30
0.0
 11
-46.51501574818072
 21
13.1887291133419
 31
0.0
  0
LINE
  5
18B
330
188
100
AcDbEntity
  8
1
  6
Continuous
 62
     2
100
AcDbLine
 10
-54.88448104088973
 20
13.1887291133419
 30
0.0
 11
-58.59845424728103
 21
13.1887291133419
 31
0.0
  0
LINE
  5
18C
330
188
100
AcDbEntity
  8
1
  6
Continuous
 62
     2
100
AcDbLine
 10
-37.08492672080899
 20
93.1902153129171
 30
0.0
 11
-58.59845424728103
 21
93.1902153129171
 31
0.0
  0
SOLID
  5
18D
330
188
100
AcDbEntity
  8
1
 62
     2
100
AcDbTrace
 10
-58.13767050572514
 20
89.6902153129171
 30
0.0
 11
-59.05923798883691
 21
89.6902153129171
 31
0.0
 12
-58.59845424728103
 22
93.1902153129171
 32
0.0
 13
-58.59845424728103
 23
93.1902153129171
 33
0.0
  0
SOLID
  5
18E
330
188
100
AcDbEntity
  8
1
 62
     2
100
AcDbTrace
 10
-59.05923798883691
 20
16.68872911334191
 30
0.0
 11
-58.13767050572514
 21
16.68872911334191
 31
0.0
 12
-58.59845424728103
 22
13.18872911334191
 32
0.0
 13
-58.59845424728103
 23
13.18872911334191
 33
0.0
  0
MTEXT
  5
18F
330
188
100
AcDbEntity
  8
1
 62
     2
100
AcDbMText
 10
-60.6682847477597
 20
51.1895078488504
 30
0.0
 40
3.5
 41
0.0
 71
     7
 72
     1
  1
80
  7
CONVERTER_12
 11
0.0
 21
1.0
 31
0.0
 73
     1
 44
0.60024009603842
  0
ENDBLK
  5
191
330
188
100
AcDbEntity
  8
0
100
AcDbBlockEnd
  0
BLOCK
  5
19B
330
194
100
AcDbEntity
  8
0
100
AcDbBlockBegin
  2
*D16
 70
     1
 71
     0
 10
0.0
 20
0.0
 30
0.0
  3
*D16
  1

  0
LINE
  5
195
330
194
100
AcDbEntity
  8
1
  6
Continuous
 62
     2
100
AcDbLine
 10
-58.66578068740802
 20
-99.3157040076767
 30
0.0
 11
-58.66578068740802
 21
-120.3157040076767
 31
0.0
  0
LINE
  5
196
330
194
100
AcDbEntity
  8
1
  6
Continuous
 62
     2
100
AcDbLine
 10
-37.08492672080899
 20
-99.3157040076767
 30
0.0
 11
-58.66578068740802
 21
-99.3157040076767
 31
0.0
  0
LINE
  5
197
330
194
100
AcDbEntity
  8
1
  6
Continuous
 62
     2
100
AcDbLine
 10
-37.08492672080899
 20
-120.3157040076767
 30
0.0
 11
-58.66578068740802
 21
-120.3157040076767
 31
0.0
  0
SOLID
  5
198
330
194
100
AcDbEntity
  8
1
 62
     2
100
AcDbTrace
 10
-58.20499694585213
 20
-102.8157040076767
 30
0.0
 11
-59.1265644289639
 21
-102.8157040076767
 31
0.0
 12
-58.66578068740802
 22
-99.3157040076767
 32
0.0
 13
-58.66578068740802
 23
-99.3157040076767
 33
0.0
  0
SOLID
  5
199
330
194
100
AcDbEntity
  8
1
 62
     2
100
AcDbTrace
 10
-59.1265644289639
 20
-116.8157040076767
 30
0.0
 11
-58.20499694585213
 21
-116.8157040076767
 31
0.0
 12
-58.66578068740802
 22
-120.3157040076767
 32
0.0
 13
-58.66578068740802
 23
-120.3157040076767
 33
0.0
  0
MTEXT
  5
19A
330
194
100
AcDbEntity
  8
1
 62
     2
100
AcDbMText
 10
-60.9469343526902
 20
-111.5587304088546
 30
0.0
 40
3.5
 41
0.0
 71
     7
 72
     1
  1
21
  7
CONVERTER_12
 11
0.0
 21
1.0
 31
0.0
 73
     1
 44
0.60024009603842
  0
ENDBLK
  5
19C
330
194
100
AcDbEntity
  8
0
100
AcDbBlockEnd
  0
BLOCK
  5
1A7
330
19F
100
AcDbEntity
  8
0
100
AcDbBlockBegin
  2
*D17
 70
     1
 71
     0
 10
0.0
 20
0.0
 30
0.0
  3
*D17
  1

  0
LINE
  5
1A0
330
19F
100
AcDbEntity
  8
1
  6
Continuous
 62
     2
100
AcDbLine
 10
-23.084926720809
 20
-13.40521993124401
 30
0.0
 11
-13.084926720809
 21
-13.40521993124401
 31
0.0
  0
LINE
  5
1A1
330
19F
100
AcDbEntity
  8
1
  6
Continuous
 62
     2
100
AcDbLine
 10
-23.084926720809
 20
-13.40521993124401
 30
0.0
 11
-13.084926720809
 21
-13.40521993124401
 31
0.0
  0
LINE
  5
1A2
330
19F
100
AcDbEntity
  8
1
  6
Continuous
 62
     2
100
AcDbLine
 10
-23.084926720809
 20
-28.913108914795
 30
0.0
 11
-23.084926720809
 21
-11.40521993124401
 31
0.0
  0
LINE
  5
1A3
330
19F
100
AcDbEntity
  8
1
  6
Continuous
 62
     2
100
AcDbLine
 10
-13.084926720809
 20
-54.8097846870829
 30
0.0
 11
-13.084926720809
 21
-11.40521993124401
 31
0.0
  0
SOLID
  5
1A4
330
19F
100
AcDbEntity
  8
1
 62
     2
100
AcDbTrace
 10
-16.584926720809
 20
-13.86600367279989
 30
0.0
 11
-16.584926720809
 21
-12.94443618968812
 31
0.0
 12
-13.084926720809
 22
-13.40521993124401
 32
0.0
 13
-13.084926720809
 23
-13.40521993124401
 33
0.0
  0
SOLID
  5
1A5
330
19F
100
AcDbEntity
  8
1
 62
     2
100
AcDbTrace
 10
-19.584926720809
 20
-12.94443618968812
 30
0.0
 11
-19.584926720809
 21
-13.86600367279989
 31
0.0
 12
-23.084926720809
 22
-13.40521993124401
 32
0.0
 13
-23.084926720809
 23
-13.40521993124401
 33
0.0
  0
MTEXT
  5
1A6
330
19F
100
AcDbEntity
  8
1
 62
     2
100
AcDbMText
 10
-19.999807824843
 20
-11.40521993124401
 30
0.0
 40
3.5
 41
0.0
 71
     7
 72
     1
  1
10
  7
CONVERTER_12
 11
0.9999999999970621
 21
2.424068405545307E-6
 31
0.0
 73
     1
 44
0.60024009603842
  0
ENDBLK
  5
1A8
330
19F
100
AcDbEntity
  8
0
100
AcDbBlockEnd
  0
BLOCK
  5
1B3
330
1AB
100
AcDbEntity
  8
0
100
AcDbBlockBegin
  2
*D18
 70
     1
 71
     0
 10
0.0
 20
0.0
 30
0.0
  3
*D18
  1

  0
LINE
  5
1AC
330
1AB
100
AcDbEntity
  8
1
  6
Continuous
 62
     2
100
AcDbLine
 10
-26.08492672080899
 20
36.022380918013
 30
0.0
 11
-13.08492672080899
 21
36.022380918013
 31
0.0
  0
LINE
  5
1AD
330
1AB
100
AcDbEntity
  8
1
  6
Continuous
 62
     2
100
AcDbLine
 10
-26.08492672080899
 20
36.022380918013
 30
0.0
 11
-13.08492672080899
 21
36.022380918013
 31
0.0
  0
LINE
  5
1AE
330
1AB
100
AcDbEntity
  8
1
  6
Continuous
 62
     2
100
AcDbLine
 10
-13.08492672080899
 20
81.19021531291722
 30
0.0
 11
-13.08492672080899
 21
34.022380918013
 31
0.0
  0
LINE
  5
1AF
330
1AB
100
AcDbEntity
  8
1
  6
Continuous
 62
     2
100
AcDbLine
 10
-26.08492672080899
 20
43.631120285398
 30
0.0
 11
-26.08492672080899
 21
34.022380918013
 31
0.0
  0
SOLID
  5
1B0
330
1AB
100
AcDbEntity
  8
1
 62
     2
100
AcDbTrace
 10
-16.58492672080899
 20
35.56159717645711
 30
0.0
 11
-16.58492672080899
 21
36.48316465956889
 31
0.0
 12
-13.08492672080899
 22
36.022380918013
 32
0.0
 13
-13.08492672080899
 23
36.022380918013
 33
0.0
  0
SOLID
  5
1B1
330
1AB
100
AcDbEntity
  8
1
 62
     2
100
AcDbTrace
 10
-22.58492672080899
 20
36.48316465956889
 30
0.0
 11
-22.58492672080899
 21
35.56159717645711
 31
0.0
 12
-26.08492672080899
 22
36.022380918013
 32
0.0
 13
-26.08492672080899
 23
36.022380918013
 33
0.0
  0
MTEXT
  5
1B2
330
1AB
100
AcDbEntity
  8
1
 62
     2
100
AcDbMText
 10
-21.66965920488501
 20
38.022380918013
 30
0.0
 40
3.5
 41
0.0
 71
     7
 72
     1
  1
13
  7
CONVERTER_12
 11
0.9999999999970621
 21
2.424068405545307E-6
 31
0.0
 73
     1
 44
0.60024009603842
  0
ENDBLK
  5
1B4
330
1AB
100
AcDbEntity
  8
0
100
AcDbBlockEnd
  0
BLOCK
  5
1BE
330
1B7
100
AcDbEntity
  8
0
100
AcDbBlockBegin
  2
*D19
 70
     1
 71
     0
 10
0.0
 20
0.0
 30
0.0
  3
*D19
  1

  0
LINE
  5
1B8
330
1B7
100
AcDbEntity
  8
1
  6
Continuous
 62
     2
100
AcDbLine
 10
-46.720398748072
 20
-36.6112708866581
 30
0.0
 11
-46.720398748072
 21
63.3887291133419
 31
0.0
  0
LINE
  5
1B9
330
1B7
100
AcDbEntity
  8
1
  6
Continuous
 62
     2
100
AcDbLine
 10
-30.53616274120202
 20
63.3887291133419
 30
0.0
 11
-48.720398748072
 21
63.3887291133419
 31
0.0
  0
LINE
  5
1BA
330
1B7
100
AcDbEntity
  8
1
  6
Continuous
 62
     2
100
AcDbLine
 10
-29.08492672080899
 20
-36.6112708866581
 30
0.0
 11
-48.720398748072
 21
-36.6112708866581
 31
0.0
  0
SOLID
  5
1BB
330
1B7
100
AcDbEntity
  8
1
 62
     2
100
AcDbTrace
 10
-47.18118248962789
 20
-33.1112708866581
 30
0.0
 11
-46.25961500651611
 21
-33.1112708866581
 31
0.0
 12
-46.720398748072
 22
-36.6112708866581
 32
0.0
 13
-46.720398748072
 23
-36.6112708866581
 33
0.0
  0
SOLID
  5
1BC
330
1B7
100
AcDbEntity
  8
1
 62
     2
100
AcDbTrace
 10
-46.25961500651611
 20
59.8887291133419
 30
0.0
 11
-47.18118248962789
 21
59.8887291133419
 31
0.0
 12
-46.720398748072
 22
63.3887291133419
 32
0.0
 13
-46.720398748072
 23
63.3887291133419
 33
0.0
  0
MTEXT
  5
1BD
330
1B7
100
AcDbEntity
  8
1
 62
     2
100
AcDbMText
 10
-48.720398748072
 20
9.55047911334191
 30
0.0
 40
3.5
 41
0.0
 71
     7
 72
     1
  1
100
  7
CONVERTER_12
 11
0.0
 21
1.0
 31
0.0
 73
     1
 44
0.60024009603842
  0
ENDBLK
  5
1BF
330
1B7
100
AcDbEntity
  8
0
100
AcDbBlockEnd
  0
BLOCK
  5
1C9
330
1C2
100
AcDbEntity
  8
0
100
AcDbBlockBegin
  2
*D20
 70
     1
 71
     0
 10
0.0
 20
0.0
 30
0.0
  3
*D20
  1

  0
LINE
  5
1C3
330
1C2
100
AcDbEntity
  8
1
  6
Continuous
 62
     2
100
AcDbLine
 10
44.94026068818999
 20
-66.8097846870829
 30
0.0
 11
44.94026068818999
 21
93.1902153129171
 31
0.0
  0
LINE
  5
1C4
330
1C2
100
AcDbEntity
  8
1
  6
Continuous
 62
     2
100
AcDbLine
 10
-25.084926720809
 20
-66.8097846870829
 30
0.0
 11
46.94026068818999
 21
-66.8097846870829
 31
0.0
  0
LINE
  5
1C5
330
1C2
100
AcDbEntity
  8
1
  6
Continuous
 62
     2
100
AcDbLine
 10
-25.084926720809
 20
93.1902153129171
 30
0.0
 11
46.94026068818999
 21
93.1902153129171
 31
0.0
  0
SOLID
  5
1C6
330
1C2
100
AcDbEntity
  8
1
 62
     2
100
AcDbTrace
 10
44.4794769466341
 20
-63.3097846870829
 30
0.0
 11
45.40104442974587
 21
-63.3097846870829
 31
0.0
 12
44.94026068818999
 22
-66.8097846870829
 32
0.0
 13
44.94026068818999
 23
-66.8097846870829
 33
0.0
  0
SOLID
  5
1C7
330
1C2
100
AcDbEntity
  8
1
 62
     2
100
AcDbTrace
 10
45.40104442974587
 20
89.6902153129171
 30
0.0
 11
44.4794769466341
 21
89.6902153129171
 31
0.0
 12
44.94026068818999
 22
93.1902153129171
 32
0.0
 13
44.94026068818999
 23
93.1902153129171
 33
0.0
  0
MTEXT
  5
1C8
330
1C2
100
AcDbEntity
  8
1
 62
     2
100
AcDbMText
 10
42.94026068818999
 20
9.84115452501101
 30
0.0
 40
3.5
 41
0.0
 71
     7
 72
     1
  1
160
  7
CONVERTER_12
 11
0.0
 21
1.0
 31
0.0
 73
     1
 44
0.60024009603842
  0
ENDBLK
  5
1CA
330
1C2
100
AcDbEntity
  8
0
100
AcDbBlockEnd
  0
BLOCK
  5
1D4
330
1CD
100
AcDbEntity
  8
0
100
AcDbBlockBegin
  2
*D21
 70
     1
 71
     0
 10
0.0
 20
0.0
 30
0.0
  3
*D21
  1

  0
LINE
  5
1CE
330
1CD
100
AcDbEntity
  8
1
  6
Continuous
 62
     2
100
AcDbLine
 10
36.36055720686798
 20
-54.6112708866581
 30
0.0
 11
36.36055720686798
 21
81.38872911334201
 31
0.0
  0
LINE
  5
1CF
330
1CD
100
AcDbEntity
  8
1
  6
Continuous
 62
     2
100
AcDbLine
 10
-21.090136533242
 20
-54.6112708866581
 30
0.0
 11
38.36055720686798
 21
-54.6112708866581
 31
0.0
  0
LINE
  5
1D0
330
1CD
100
AcDbEntity
  8
1
  6
Continuous
 62
     2
100
AcDbLine
 10
-21.51770357450101
 20
81.38872911334201
 30
0.0
 11
38.36055720686798
 21
81.38872911334201
 31
0.0
  0
SOLID
  5
1D1
330
1CD
100
AcDbEntity
  8
1
 62
     2
100
AcDbTrace
 10
35.89977346531209
 20
-51.1112708866581
 30
0.0
 11
36.82134094842387
 21
-51.1112708866581
 31
0.0
 12
36.36055720686798
 22
-54.6112708866581
 32
0.0
 13
36.36055720686798
 23
-54.6112708866581
 33
0.0
  0
SOLID
  5
1D2
330
1CD
100
AcDbEntity
  8
1
 62
     2
100
AcDbTrace
 10
36.82134094842387
 20
77.88872911334201
 30
0.0
 11
35.89977346531209
 21
77.88872911334201
 31
0.0
 12
36.36055720686798
 22
81.38872911334201
 32
0.0
 13
36.36055720686798
 23
81.38872911334201
 33
0.0
  0
MTEXT
  5
1D3
330
1CD
100
AcDbEntity
  8
1
 62
     2
100
AcDbMText
 10
34.36055720686798
 20
10.23114104688901
 30
0.0
 40
3.5
 41
0.0
 71
     7
 72
     1
  1
136
  7
CONVERTER_12
 11
0.0
 21
1.0
 31
0.0
 73
     1
 44
0.60024009603842
  0
ENDBLK
  5
1D5
330
1CD
100
AcDbEntity
  8
0
100
AcDbBlockEnd
  0
BLOCK
  5
1DF
330
1D8
100
AcDbEntity
  8
0
100
AcDbBlockBegin
  2
*D22
 70
     1
 71
     0
 10
0.0
 20
0.0
 30
0.0
  3
*D22
  1

  0
LINE
  5
1D9
330
1D8
100
AcDbEntity
  8
1
  6
Continuous
 62
     2
100
AcDbLine
 10
26.80588742084998
 20
-20.6112708866581
 30
0.0
 11
26.80588742084998
 21
47.3887291133419
 31
0.0
  0
LINE
  5
1DA
330
1D8
100
AcDbEntity
  8
1
  6
Continuous
 62
     2
100
AcDbLine
 10
-23.084926720809
 20
-20.6112708866581
 30
0.0
 11
28.80588742084998
 21
-20.6112708866581
 31
0.0
  0
LINE
  5
1DB
330
1D8
100
AcDbEntity
  8
1
  6
Continuous
 62
     2
100
AcDbLine
 10
-23.084926720809
 20
47.3887291133419
 30
0.0
 11
28.80588742084998
 21
47.3887291133419
 31
0.0
  0
SOLID
  5
1DC
330
1D8
100
AcDbEntity
  8
1
 62
     2
100
AcDbTrace
 10
26.34510367929409
 20
-17.1112708866581
 30
0.0
 11
27.26667116240587
 21
-17.1112708866581
 31
0.0
 12
26.80588742084998
 22
-20.6112708866581
 32
0.0
 13
26.80588742084998
 23
-20.6112708866581
 33
0.0
  0
SOLID
  5
1DD
330
1D8
100
AcDbEntity
  8
1
 62
     2
100
AcDbTrace
 10
27.26667116240586
 20
43.8887291133419
 30
0.0
 11
26.34510367929409
 21
43.8887291133419
 31
0.0
 12
26.80588742084998
 22
47.3887291133419
 32
0.0
 13
26.80588742084998
 23
47.3887291133419
 33
0.0
  0
MTEXT
  5
1DE
330
1D8
100
AcDbEntity
  8
1
 62
     2
100
AcDbMText
 10
24.80588742084998
 20
10.88065452501101
 30
0.0
 40
3.5
 41
0.0
 71
     7
 72
     1
  1
68
  7
CONVERTER_12
 11
0.0
 21
1.0
 31
0.0
 73
     1
 44
0.60024009603842
  0
ENDBLK
  5
1E0
330
1D8
100
AcDbEntity
  8
0
100
AcDbBlockEnd
  0
BLOCK
  5
1EC
330
1E3
100
AcDbEntity
  8
0
100
AcDbBlockBegin
  2
*D23
 70
     1
 71
     0
 10
0.0
 20
0.0
 30
0.0
  3
*D23
  1

  0
LINE
  5
1E4
330
1E3
100
AcDbEntity
  8
1
  6
Continuous
 62
     2
100
AcDbLine
 10
-47.0255862085241
 20
-116.8157040076767
 30
0.0
 11
-47.0255862085241
 21
-108.17468589852
 31
0.0
  0
LINE
  5
1E5
330
1E3
100
AcDbEntity
  8
1
  6
Continuous
 62
     2
100
AcDbLine
 10
-47.0255862085241
 20
-120.3157040076767
 30
0.0
 11
-47.0255862085241
 21
-116.8157040076767
 31
0.0
  0
LINE
  5
1E6
330
1E3
100
AcDbEntity
  8
1
  6
Continuous
 62
     2
100
AcDbLine
 10
-47.0255862085241
 20
-127.3157040076767
 30
0.0
 11
-47.0255862085241
 21
-120.3157040076767
 31
0.0
  0
LINE
  5
1E7
330
1E3
100
AcDbEntity
  8
1
  6
Continuous
 62
     2
100
AcDbLine
 10
-37.08492672080898
 20
-120.3157040076767
 30
0.0
 11
-49.0255862085241
 21
-120.3157040076767
 31
0.0
  0
LINE
  5
1E8
330
1E3
100
AcDbEntity
  8
1
  6
Continuous
 62
     2
100
AcDbLine
 10
-33.58492672080898
 20
-116.8157040076767
 30
0.0
 11
-49.0255862085241
 21
-116.8157040076767
 31
0.0
  0
SOLID
  5
1E9
330
1E3
100
AcDbEntity
  8
1
 62
     2
100
AcDbTrace
 10
-46.56480246696822
 20
-123.8157040076767
 30
0.0
 11
-47.48636995007999
 21
-123.8157040076767
 31
0.0
 12
-47.0255862085241
 22
-120.3157040076767
 32
0.0
 13
-47.0255862085241
 23
-120.3157040076767
 33
0.0
  0
SOLID
  5
1EA
330
1E3
100
AcDbEntity
  8
1
 62
     2
100
AcDbTrace
 10
-47.48636995007999
 20
-113.3157040076767
 30
0.0
 11
-46.56480246696822
 21
-113.3157040076767
 31
0.0
 12
-47.0255862085241
 22
-116.8157040076767
 32
0.0
 13
-47.0255862085241
 23
-116.8157040076767
 33
0.0
  0
MTEXT
  5
1EB
330
1E3
100
AcDbEntity
  8
1
 62
     2
100
AcDbMText
 10
-49.0255862085241
 20
-114.56218589852
 30
0.0
 40
3.5
 41
0.0
 71
     7
 72
     1
  1
3.5
  7
CONVERTER_11
 11
0.0
 21
1.0
 31
0.0
 73
     1
 44
0.60024009603842
  0
ENDBLK
  5
1ED
330
1E3
100
AcDbEntity
  8
0
100
AcDbBlockEnd
  0
BLOCK
  5
1F8
330
1F0
100
AcDbEntity
  8
0
100
AcDbBlockBegin
  2
*D24
 70
     1
 71
     0
 10
0.0
 20
0.0
 30
0.0
  3
*D24
  1

  0
LINE
  5
1F1
330
1F0
100
AcDbEntity
  8
1
  6
Continuous
 62
     2
100
AcDbLine
 10
-24.08492672080899
 20
113.202236595877
 30
0.0
 11
-13.08492672080899
 21
113.202236595877
 31
0.0
  0
LINE
  5
1F2
330
1F0
100
AcDbEntity
  8
1
  6
Continuous
 62
     2
100
AcDbLine
 10
-13.08492672080899
 20
95.9398192968073
 30
0.0
 11
-13.08492672080899
 21
115.202236595877
 31
0.0
  0
LINE
  5
1F3
330
1F0
100
AcDbEntity
  8
1
  6
Continuous
 62
     2
100
AcDbLine
 10
-13.08492672080899
 20
81.1902153129171
 30
0.0
 11
-13.08492672080899
 21
91.0462329796821
 31
0.0
  0
LINE
  5
1F4
330
1F0
100
AcDbEntity
  8
1
  6
Continuous
 62
     2
100
AcDbLine
 10
-24.08492672080899
 20
83.95218131559503
 30
0.0
 11
-24.08492672080899
 21
115.202236595877
 31
0.0
  0
SOLID
  5
1F5
330
1F0
100
AcDbEntity
  8
1
 62
     2
100
AcDbTrace
 10
-20.58492672080899
 20
113.6630203374329
 30
0.0
 11
-20.58492672080899
 21
112.7414528543211
 31
0.0
 12
-24.08492672080899
 22
113.202236595877
 32
0.0
 13
-24.08492672080899
 23
113.202236595877
 33
0.0
  0
SOLID
  5
1F6
330
1F0
100
AcDbEntity
  8
1
 62
     2
100
AcDbTrace
 10
-16.58492672080899
 20
112.7414528543211
 30
0.0
 11
-16.58492672080899
 21
113.6630203374329
 31
0.0
 12
-13.08492672080899
 22
113.202236595877
 32
0.0
 13
-13.08492672080899
 23
113.202236595877
 33
0.0
  0
MTEXT
  5
1F7
330
1F0
100
AcDbEntity
  8
1
 62
     2
100
AcDbMText
 10
-20.5580608952929
 20
115.202236595877
 30
0.0
 40
3.5
 41
0.0
 71
     7
 72
     1
  1
11
  7
CONVERTER_11
 11
0.9999999999970621
 21
2.424068405545307E-6
 31
0.0
 73
     1
 44
0.60024009603842
  0
ENDBLK
  5
1F9
330
1F0
100
AcDbEntity
  8
0
100
AcDbBlockEnd
  0
BLOCK
  5
201
330
1FC
100
AcDbEntity
  8
0
100
AcDbBlockBegin
  2
*D25
 70
     1
 71
     0
 10
0.0
 20
0.0
 30
0.0
  3
*D25
  1

  0
LINE
  5
1FD
330
1FC
100
AcDbEntity
  8
1
  6
Continuous
 62
     2
100
AcDbLine
 10
161.5846250392543
 20
-32.00651358888453
 30
0.0
 11
148.7947369990935
 21
-49.10677067002689
 31
0.0
  0
SOLID
  5
1FE
330
1FC
100
AcDbEntity
  8
1
 62
     2
100
AcDbTrace
 10
159.8573226029015
 20
-35.08527112234699
 30
0.0
 11
159.1193379212561
 21
-34.53330623615785
 31
0.0
 12
161.5846250392543
 22
-32.00651358888454
 32
0.0
 13
161.5846250392543
 23
-32.00651358888454
 33
0.0
  0
SOLID
  5
1FF
330
1FC
100
AcDbEntity
  8
1
 62
     2
100
AcDbTrace
 10
156.1246310967198
 20
-38.53727065096914
 30
0.0
 11
156.8626157783651
 21
-39.08923553715828
 31
0.0
 12
154.397328660367
 22
-41.61602818443159
 32
0.0
 13
154.397328660367
 23
-41.61602818443159
 33
0.0
  0
MTEXT
  5
200
330
1FC
100
AcDbEntity
  8
1
 62
     2
100
AcDbMText
 10
147.9897432484956
 20
-46.84383340587252
 30
0.0
 40
3.5
 41
0.0
 71
     7
 72
     1
  1
\C2;ø\C2;12
  7
CONVERTER_12
 11
0.5989413649072849
 21
0.8007928829622543
 31
0.0
 73
     1
 44
0.60024009603842
  0
ENDBLK
  5
202
330
1FC
100
AcDbEntity
  8
0
100
AcDbBlockEnd
  0
BLOCK
  5
209
330
204
100
AcDbEntity
  8
0
100
AcDbBlockBegin
  2
*D26
 70
     1
 71
     0
 10
0.0
 20
0.0
 30
0.0
  3
*D26
  1

  0
LINE
  5
205
330
204
100
AcDbEntity
  8
1
  6
Continuous
 62
     2
100
AcDbLine
 10
-20.7119890475785
 20
-31.10044818954978
 30
0.0
 11
-28.84311318979562
 21
-49.98387019487081
 31
0.0
  0
SOLID
  5
206
330
204
100
AcDbEntity
  8
1
 62
     2
100
AcDbTrace
 10
-21.67298644005881
 20
-34.49732994612128
 30
0.0
 11
-22.51941894053369
 21
-34.13285957960461
 31
0.0
 12
-20.7119890475785
 22
-31.10044818954978
 32
0.0
 13
-20.7119890475785
 23
-31.10044818954978
 33
0.0
  0
SOLID
  5
207
330
204
100
AcDbEntity
  8
1
 62
     2
100
AcDbTrace
 10
-24.49686700155909
 20
-38.72521182719491
 30
0.0
 11
-23.6504345010842
 21
-39.08968219371159
 31
0.0
 12
-25.4578643940394
 22
-42.12209358376641
 32
0.0
 13
-25.4578643940394
 23
-42.12209358376641
 33
0.0
  0
MTEXT
  5
208
330
204
100
AcDbEntity
  8
1
 62
     2
100
AcDbMText
 10
-30.15405290459898
 20
-47.9713252726017
 30
0.0
 40
3.5
 41
0.0
 71
     7
 72
     1
  1
\C2;ø\C2;12
  7
CONVERTER_12
 11
0.3954896122050745
 21
0.9184704495180451
 31
0.0
 73
     1
 44
0.60024009603842
  0
ENDBLK
  5
20A
330
204
100
AcDbEntity
  8
0
100
AcDbBlockEnd
  0
ENDSEC
  0
SECTION
  2
ENTITIES
  0
POINT
  5
32
330
1F
100
AcDbEntity
  8
1
 62
     3
 60
     1
100
AcDbPoint
 10
156.0862078998139
 20
16.64462864127213
 30
0.0
  0
POINT
  5
33
330
1F
100
AcDbEntity
  8
1
 62
     3
 60
     1
100
AcDbPoint
 10
160.9909768498106
 20
13.18872911334191
 30
0.0
  0
POINT
  5
34
330
1F
100
AcDbEntity
  8
1
 62
     3
 60
     1
100
AcDbPoint
 10
119.0
 20
6.56363890813491
 30
0.0
  0
POINT
  5
35
330
1F
100
AcDbEntity
  8
1
 62
     3
 60
     1
100
AcDbPoint
 10
113.0
 20
-7.43636109186509
 30
0.0
  0
POINT
  5
36
330
1F
100
AcDbEntity
  8
1
 62
     3
 60
     1
100
AcDbPoint
 10
114.0412435683612
 20
59.5587408579466
 30
0.0
  0
POINT
  5
37
330
1F
100
AcDbEntity
  8
1
 62
     3
 60
     1
100
AcDbPoint
 10
76.04124356836121
 20
59.5587408579466
 30
0.0
  0
POINT
  5
38
330
1F
100
AcDbEntity
  8
1
 62
     3
 60
     1
100
AcDbPoint
 10
76.0
 20
-7.43636109186509
 30
0.0
  0
POINT
  5
39
330
1F
100
AcDbEntity
  8
1
 62
     3
 60
     1
100
AcDbPoint
 10
-24.19080056325609
 20
17.56386339584213
 30
0.0
  0
POINT
  5
3A
330
1F
100
AcDbEntity
  8
1
 62
     3
 60
     1
100
AcDbPoint
 10
-66.409296291943
 20
43.4999657329463
 30
0.0
  0
POINT
  5
3B
330
1F
100
AcDbEntity
  8
1
 62
     3
 60
     1
100
AcDbPoint
 10
-106.409296291943
 20
43.4999657329463
 30
0.0
  0
POINT
  5
3C
330
1F
100
AcDbEntity
  8
1
 62
     3
 60
     1
100
AcDbPoint
 10
-70.251836272667
 20
1.25801950601101
 30
0.0
  0
POINT
  5
3D
330
1F
100
AcDbEntity
  8
1
 62
     3
 60
     1
100
AcDbPoint
 10
-111.251836272667
 20
1.25801950601101
 30
0.0
  0
LINE
  5
3E
330
1F
100
AcDbEntity
  8
1
  6
Continuous
 62
     2
100
AcDbLine
 10
122.0311613881236
 20
24.20971075139042
 30
0.0
 11
110.6842830383832
 21
38.75560809423391
 31
0.0
  0
LINE
  5
3F
330
1F
100
AcDbEntity
  8
1
  6
Continuous
 62
     7
100
AcDbLine
 10
168.2409768498105
 20
-101.6737693643846
 30
0.0
 11
172.9909768498105
 21
-101.6737693643846
 31
0.0
  0
LINE
  5
40
330
1F
100
AcDbEntity
  8
1
  6
Continuous
 62
     7
100
AcDbLine
 10
144.2409768498106
 20
-114.6737693643846
 30
0.0
 11
148.7409768498106
 21
-114.6737693643846
 31
0.0
  0
LINE
  5
41
330
1F
100
AcDbEntity
  8
1
  6
DOT_CENTER
 62
     2
100
AcDbLine
 10
157.9909768498106
 20
-81.35484206961016
 30
0.0
 11
157.9909768498106
 21
-99.9973382718452
 31
0.0
  0
LINE
  5
42
330
1F
100
AcDbEntity
  8
1
  6
Continuous
 62
     7
100
AcDbLine
 10
163.9909768498106
 20
-98.1737693643846
 30
0.0
 11
168.2409768498105
 21
-98.1737693643846
 31
0.0
  0
LINE
  5
43
330
1F
100
AcDbEntity
  8
1
  6
DOT_CENTER
 62
     2
100
AcDbLine
 10
157.9909768498106
 20
70.4779858447429
 30
0.0
 11
157.9909768498106
 21
56.36762663096999
 31
0.0
  0
LINE
  5
44
330
1F
100
AcDbEntity
  8
1
  6
DOT_CENTER
 62
     2
100
AcDbLine
 10
148.4909768498106
 20
-76.81127088665806
 30
0.0
 11
172.9909768498105
 21
-76.81127088665806
 31
0.0
  0
LINE
  5
45
330
1F
100
AcDbEntity
  8
1
  6
DOT_CENTER
 62
     2
100
AcDbLine
 10
133.9909768498106
 20
-76.81127088665806
 30
0.0
 11
148.4909768498106
 21
-76.81127088665806
 31
0.0
  0
LINE
  5
46
330
1F
100
AcDbEntity
  8
1
  6
DOT_CENTER
 62
     2
100
AcDbLine
 10
172.9909768498105
 20
-76.81127088665806
 30
0.0
 11
178.1403467889757
 21
-76.81127088665806
 31
0.0
  0
LINE
  5
47
330
1F
100
AcDbEntity
  8
1
  6
DOT_CENTER
 62
     2
100
AcDbLine
 10
133.9909768498106
 20
103.188729113342
 30
0.0
 11
148.4909768498106
 21
103.188729113342
 31
0.0
  0
LINE
  5
48
330
1F
100
AcDbEntity
  8
1
  6
DOT_CENTER
 62
     2
100
AcDbLine
 10
148.4909768498106
 20
103.188729113342
 30
0.0
 11
172.9909768498105
 21
103.188729113342
 31
0.0
  0
LINE
  5
49
330
1F
100
AcDbEntity
  8
1
  6
DOT_CENTER
 62
     2
100
AcDbLine
 10
172.9909768498105
 20
103.188729113342
 30
0.0
 11
178.1403467889757
 21
103.188729113342
 31
0.0
  0
LINE
  5
4A
330
1F
100
AcDbEntity
  8
1
  6
DOT_CENTER
 62
     7
100
AcDbLine
 10
126.8881106077726
 20
13.18872911334191
 30
0.0
 11
130.6283441534196
 21
13.18872911334191
 31
0.0
  0
LINE
  5
4B
330
1F
100
AcDbEntity
  8
1
  6
DOT_CENTER
 62
     2
100
AcDbLine
 10
129.0160220992116
 20
-76.81127088665806
 30
0.0
 11
133.9909768498106
 21
-76.81127088665806
 31
0.0
  0
LINE
  5
4C
330
1F
100
AcDbEntity
  8
1
  6
DOT_CENTER
 62
     2
100
AcDbLine
 10
129.0160220992116
 20
103.188729113342
 30
0.0
 11
133.9909768498106
 21
103.188729113342
 31
0.0
  0
LINE
  5
4D
330
1F
100
AcDbEntity
  8
1
  6
DOT_CENTER
 62
     2
100
AcDbLine
 10
133.9909768498106
 20
-83.6737693643847
 30
0.0
 11
172.9909768498105
 21
-83.6737693643847
 31
0.0
  0
LINE
  5
4E
330
1F
100
AcDbEntity
  8
1
  6
DOT_CENTER
 62
     2
100
AcDbLine
 10
172.9909768498105
 20
-83.6737693643847
 30
0.0
 11
178.4878397252167
 21
-83.6737693643847
 31
0.0
  0
LINE
  5
4F
330
1F
100
AcDbEntity
  8
1
  6
Continuous
 62
     7
100
AcDbLine
 10
132.9909768498106
 20
13.18872911334191
 30
0.0
 11
132.9909768498106
 21
-76.81127088665806
 31
0.0
  0
LINE
  5
50
330
1F
100
AcDbEntity
  8
1
  6
DOT_CENTER
 62
     2
100
AcDbLine
 10
160.9909768498106
 20
-51.69051403611108
 30
0.0
 11
160.9909768498106
 21
-58.48800608462008
 31
0.0
  0
LINE
  5
51
330
1F
100
AcDbEntity
  8
1
  6
DOT_CENTER
 62
     2
100
AcDbLine
 10
157.9909768498106
 20
-28.8509407531221
 30
0.0
 11
157.9909768498106
 21
-44.89302198760299
 31
0.0
  0
LINE
  5
52
330
1F
100
AcDbEntity
  8
1
  6
DOT_CENTER
 62
     2
100
AcDbLine
 10
155.9909768498106
 20
-17.2498876570011
 30
0.0
 11
155.9909768498106
 21
-23.6848467962551
 31
0.0
  0
LINE
  5
53
330
1F
100
AcDbEntity
  8
1
  6
DOT_CENTER
 62
     2
100
AcDbLine
 10
157.9909768498106
 20
-54.81127088665799
 30
0.0
 11
164.0626361797126
 21
-54.81127088665799
 31
0.0
  0
LINE
  5
54
330
1F
100
AcDbEntity
  8
1
  6
DOT_CENTER
 62
     2
100
AcDbLine
 10
150.4676520826956
 20
-36.81127088665809
 30
0.0
 11
165.0596016801607
 21
-36.81127088665809
 31
0.0
  0
LINE
  5
55
330
1F
100
AcDbEntity
  8
1
  6
DOT_CENTER
 62
     2
100
AcDbLine
 10
153.5491818113526
 20
-20.81127088665809
 30
0.0
 11
157.9909768498106
 21
-20.81127088665809
 31
0.0
  0
LINE
  5
56
330
1F
100
AcDbEntity
  8
1
  6
DOT_CENTER
 62
     2
100
AcDbLine
 10
157.9909768498106
 20
81.18872911334199
 30
0.0
 11
164.0595017604085
 21
81.18872911334199
 31
0.0
  0
LINE
  5
57
330
1F
100
AcDbEntity
  8
1
  6
DOT_CENTER
 62
     2
100
AcDbLine
 10
152.6206246593017
 20
47.18872911334191
 30
0.0
 11
157.9909768498106
 21
47.18872911334191
 31
0.0
  0
LINE
  5
58
330
1F
100
AcDbEntity
  8
1
  6
DOT_CENTER
 62
     2
100
AcDbLine
 10
154.9909768498106
 20
49.7937164782019
 30
0.0
 11
154.9909768498106
 21
44.1842671305439
 31
0.0
  0
LINE
  5
59
330
1F
100
AcDbEntity
  8
1
  6
DOT_CENTER
 62
     2
100
AcDbLine
 10
160.9909768498106
 20
82.68872911334199
 30
0.0
 11
160.9909768498106
 21
84.11034778152509
 31
0.0
  0
LINE
  5
5A
330
1F
100
AcDbEntity
  8
1
  6
DOT_CENTER
 62
     2
100
AcDbLine
 10
160.9909768498106
 20
82.68872911334199
 30
0.0
 11
160.9909768498106
 21
77.6209848107049
 31
0.0
  0
LINE
  5
5B
330
1F
100
AcDbEntity
  8
1
  6
DOT_CENTER
 62
     2
100
AcDbLine
 10
149.6509161811296
 20
63.18872911334191
 30
0.0
 11
165.9293182096286
 21
63.18872911334191
 31
0.0
  0
LINE
  5
5C
330
1F
100
AcDbEntity
  8
1
  6
Continuous
 62
     7
100
AcDbLine
 10
148.7409768498106
 20
90.75102486279457
 30
0.0
 11
148.7409768498106
 21
103.188729113342
 31
0.0
  0
LINE
  5
5D
330
1F
100
AcDbEntity
  8
1
  6
Continuous
 62
     7
100
AcDbLine
 10
172.9909768498105
 20
-76.81127088665806
 30
0.0
 11
172.9909768498105
 21
103.188729113342
 31
0.0
  0
LINE
  5
5E
330
1F
100
AcDbEntity
  8
1
  6
Continuous
 62
     7
100
AcDbLine
 10
148.7409768498106
 20
-64.3735666361106
 30
0.0
 11
148.7409768498106
 21
-76.81127088665806
 31
0.0
  0
LINE
  5
5F
330
1F
100
AcDbEntity
  8
1
  6
Continuous
 62
     7
100
AcDbLine
 10
132.9909768498106
 20
103.188729113342
 30
0.0
 11
132.9909768498106
 21
13.18872911334191
 31
0.0
  0
LINE
  5
60
330
1F
100
AcDbEntity
  8
1
  6
DOT_CENTER
 62
     2
100
AcDbLine
 10
128.9468757336317
 20
-83.6737693643847
 30
0.0
 11
133.9909768498106
 21
-83.6737693643847
 31
0.0
  0
LINE
  5
61
330
1F
100
AcDbEntity
  8
1
  6
Continuous
 62
     7
100
AcDbLine
 10
148.7409768498106
 20
-101.6737693643846
 30
0.0
 11
148.7409768498106
 21
-114.6737693643846
 31
0.0
  0
LINE
  5
62
330
1F
100
AcDbEntity
  8
1
  6
Continuous
 62
     7
100
AcDbLine
 10
168.2409768498105
 20
-98.1737693643846
 30
0.0
 11
168.2409768498105
 21
-101.6737693643846
 31
0.0
  0
LINE
  5
63
330
1F
100
AcDbEntity
  8
1
  6
Continuous
 62
     7
100
AcDbLine
 10
144.2409768498106
 20
-98.1737693643846
 30
0.0
 11
163.9909768498106
 21
-98.1737693643846
 31
0.0
  0
LINE
  5
64
330
1F
100
AcDbEntity
  8
1
  6
Continuous
 62
     7
100
AcDbLine
 10
144.2409768498106
 20
-114.6737693643846
 30
0.0
 11
144.2409768498106
 21
-98.1737693643846
 31
0.0
  0
LINE
  5
65
330
1F
100
AcDbEntity
  8
1
  6
Continuous
 62
     7
100
AcDbLine
 10
148.7409768498106
 20
-101.6737693643846
 30
0.0
 11
168.2409768498105
 21
-101.6737693643846
 31
0.0
  0
LINE
  5
66
330
1F
100
AcDbEntity
  8
1
  6
Continuous
 62
     7
100
AcDbLine
 10
172.9909768498105
 20
-101.6737693643846
 30
0.0
 11
172.9909768498105
 21
-83.6737693643847
 31
0.0
  0
LINE
  5
67
330
1F
100
AcDbEntity
  8
1
  6
Continuous
 62
     7
100
AcDbLine
 10
133.9909768498106
 20
-114.6737693643846
 30
0.0
 11
144.2409768498106
 21
-114.6737693643846
 31
0.0
  0
LINE
  5
68
330
1F
100
AcDbEntity
  8
1
  6
Continuous
 62
     7
100
AcDbLine
 10
133.9909768498106
 20
-83.6737693643847
 30
0.0
 11
133.9909768498106
 21
-114.6737693643846
 31
0.0
  0
LINE
  5
69
330
1F
100
AcDbEntity
  8
1
  6
Continuous
 62
     7
100
AcDbLine
 10
143.9909768498106
 20
81.18872911334199
 30
0.0
 11
143.9909768498106
 21
-54.81127088665799
 31
0.0
  0
LINE
  5
6A
330
1F
100
AcDbEntity
  8
1
  6
Continuous
 62
     7
100
AcDbLine
 10
167.9909768498105
 20
81.18872911334199
 30
0.0
 11
167.9909768498105
 21
-54.81127088665799
 31
0.0
  0
LINE
  5
6B
330
1F
100
AcDbEntity
  8
1
  6
DOT_CENTER
 62
     7
100
AcDbLine
 10
162.4909768498106
 20
13.18872911334191
 30
0.0
 11
177.4939492489617
 21
13.18872911334191
 31
0.0
  0
LINE
  5
6C
330
1F
100
AcDbEntity
  8
1
  6
Continuous
 62
     2
100
AcDbLine
 10
130.6283441534196
 20
13.18872911334191
 30
0.0
 11
124.4620589941528
 21
21.09347155869011
 31
0.0
  0
LINE
  5
6D
330
1F
100
AcDbEntity
  8
1
  6
DOT_CENTER
 62
     7
100
AcDbLine
 10
130.6283441534196
 20
13.18872911334191
 30
0.0
 11
162.4909768498106
 21
13.18872911334191
 31
0.0
  0
LINE
  5
6E
330
1F
100
AcDbEntity
  8
1
  6
Continuous
 62
     2
100
AcDbLine
 10
110.6842830383832
 20
38.75560809423391
 30
0.0
 11
79.54380790164561
 21
38.75560809423391
 31
0.0
  0
LINE
  5
6F
330
1F
100
AcDbEntity
  8
1
  6
DOT_CENTER
 62
     2
100
AcDbLine
 10
160.9909768498106
 20
-81.35484206961016
 30
0.0
 11
160.9909768498106
 21
-99.9973382718452
 31
0.0
  0
LINE
  5
70
330
1F
100
AcDbEntity
  8
1
  6
DOT_CENTER
 62
     2
100
AcDbLine
 10
160.9909768498106
 20
15.51699681694592
 30
0.0
 11
160.9909768498106
 21
4.0425331742909
 31
0.0
  0
LINE
  5
71
330
1F
100
AcDbEntity
  8
1
  6
DOT_CENTER
 62
     2
100
AcDbLine
 10
160.9909768498106
 20
22.51699681694592
 30
0.0
 11
160.9909768498106
 21
11.0425331742909
 31
0.0
  0
LINE
  5
72
330
1F
100
AcDbEntity
  8
1
  6
Continuous
 62
     2
100
AcDbLine
 10
76.0
 20
-7.43636109186509
 30
0.0
 11
113.0
 21
-7.43636109186509
 31
0.0
  0
LINE
  5
73
330
1F
100
AcDbEntity
  8
1
  6
Continuous
 62
     2
100
AcDbLine
 10
76.04124356836121
 20
59.5587408579466
 30
0.0
 11
114.0412435683612
 21
59.5587408579466
 31
0.0
  0
LINE
  5
74
330
1F
100
AcDbEntity
  8
1
  6
Continuous
 62
     2
100
AcDbLine
 10
114.0412435683612
 20
59.5587408579466
 30
0.0
 11
121.0835867457291
 21
52.37081930331193
 31
0.0
  0
LINE
  5
75
330
1F
100
AcDbEntity
  8
1
  6
Continuous
 62
     2
100
AcDbLine
 10
113.0
 20
-7.43636109186509
 30
0.0
 11
119.0
 21
6.56363890813491
 31
0.0
  0
LINE
  5
76
330
1F
100
AcDbEntity
  8
1
  6
Continuous
 62
     2
100
AcDbLine
 10
126.2011585470359
 20
47.14745774146414
 30
0.0
 11
156.0862078998139
 21
16.64462864127213
 31
0.0
  0
LINE
  5
77
330
1F
100
AcDbEntity
  8
1
  6
Continuous
 62
     2
100
AcDbLine
 10
-44.06165519260935
 20
29.77113204190233
 30
0.0
 11
-24.19080056325609
 21
17.56386339584213
 31
0.0
  0
LINE
  5
78
330
1F
100
AcDbEntity
  8
1
  6
Continuous
 62
     2
100
AcDbLine
 10
-57.19223598020082
 20
37.8376460465968
 30
0.0
 11
-48.33196067239989
 21
32.39451020881527
 31
0.0
  0
LINE
  5
79
330
1F
100
AcDbEntity
  8
1
  6
Continuous
 62
     2
100
AcDbLine
 10
-70.251836272667
 20
1.25801950601101
 30
0.0
 11
-53.25183627266701
 21
9.25801950601101
 31
0.0
  0
LINE
  5
7A
330
1F
100
AcDbEntity
  8
1
  6
Continuous
 62
     2
100
AcDbLine
 10
-66.409296291943
 20
43.4999657329463
 30
0.0
 11
-60.37543735260709
 21
39.79318319043305
 31
0.0
  0
LINE
  5
7B
330
1F
100
AcDbEntity
  8
1
  6
Continuous
 62
     2
100
AcDbLine
 10
-106.409296291943
 20
43.4999657329463
 30
0.0
 11
-66.409296291943
 21
43.4999657329463
 31
0.0
  0
LINE
  5
7C
330
1F
100
AcDbEntity
  8
1
  6
Continuous
 62
     2
100
AcDbLine
 10
-111.251836272667
 20
1.25801950601101
 30
0.0
 11
-70.251836272667
 21
1.25801950601101
 31
0.0
  0
LINE
  5
7D
330
1F
100
AcDbEntity
  8
1
  6
DOT_CENTER
 62
     2
100
AcDbLine
 10
-20.08492672080899
 20
11.83992839571101
 30
0.0
 11
-20.08492672080899
 21
5.25801950601101
 31
0.0
  0
LINE
  5
7E
330
1F
100
AcDbEntity
  8
1
  6
DOT_CENTER
 62
     2
100
AcDbLine
 10
-20.08492672080899
 20
11.83992839571101
 30
0.0
 11
-20.08492672080899
 21
9.25801950601101
 31
0.0
  0
LINE
  5
7F
330
1F
100
AcDbEntity
  8
1
  6
DOT_CENTER
 62
     2
100
AcDbLine
 10
-20.08492672080899
 20
-81.40177082409342
 30
0.0
 11
-20.08492672080899
 21
-121.9990439715276
 31
0.0
  0
LINE
  5
80
330
1F
100
AcDbEntity
  8
1
  6
Continuous
 62
     2
100
AcDbLine
 10
-37.08492672080899
 20
-83.82009033614968
 30
0.0
 11
-36.938605749044
 21
-83.67376936438471
 31
0.0
  0
LINE
  5
81
330
1F
100
AcDbEntity
  8
1
  6
Continuous
 62
     2
100
AcDbLine
 10
-62.95943310299302
 20
-54.81127088665809
 30
0.0
 11
-35.3961044690063
 21
-66.06997851216279
 31
0.0
  0
LINE
  5
82
330
1F
100
AcDbEntity
  8
1
  6
Continuous
 62
     2
100
AcDbLine
 10
-87.45339346390901
 20
-54.81127088665809
 30
0.0
 11
-62.95943310299302
 21
-54.81127088665809
 31
0.0
  0
LINE
  5
83
330
1F
100
AcDbEntity
  8
1
  6
Continuous
 62
     2
100
AcDbLine
 10
-62.95943310299302
 20
81.1887291133419
 30
0.0
 11
-59.85680168239849
 21
82.4563653313659
 31
0.0
  0
LINE
  5
84
330
1F
100
AcDbEntity
  8
1
  6
Continuous
 62
     2
100
AcDbLine
 10
-88.17852863111301
 20
81.1887291133419
 30
0.0
 11
-62.95943310299302
 21
81.1887291133419
 31
0.0
  0
LINE
  5
85
330
1F
100
AcDbEntity
  8
1
  6
Continuous
 62
     2
100
AcDbLine
 10
-45.72107585647223
 20
7.56567185370598
 30
0.0
 11
-41.98914722072074
 21
13.18872911334191
 31
0.0
  0
LINE
  5
86
330
1F
100
AcDbEntity
  8
1
  6
Continuous
 62
     2
100
AcDbLine
 10
-66.3683025239711
 20
-23.54439190576599
 30
0.0
 11
-47.73000188617331
 21
4.53873666872821
 31
0.0
  0
LINE
  5
87
330
1F
100
AcDbEntity
  8
1
  6
Continuous
 62
     7
100
AcDbLine
 10
-33.58492672080899
 20
93.1902153129171
 30
0.0
 11
-33.58492672080899
 21
-66.8097846870829
 31
0.0
  0
LINE
  5
88
330
1F
100
AcDbEntity
  8
1
  6
DOT_CENTER
 62
     2
100
AcDbLine
 10
12.91507327919101
 20
-83.6737693643847
 30
0.0
 11
12.91507327919101
 21
-79.94685652739192
 31
0.0
  0
LINE
  5
89
330
1F
100
AcDbEntity
  8
1
  6
DOT_CENTER
 62
     2
100
AcDbLine
 10
12.91507327919101
 20
-83.6737693643847
 30
0.0
 11
19.12065400351099
 21
-83.6737693643847
 31
0.0
  0
LINE
  5
8A
330
1F
100
AcDbEntity
  8
1
  6
DOT_CENTER
 62
     2
100
AcDbLine
 10
-43.63651907749701
 20
-76.8097846870829
 30
0.0
 11
19.24505099837
 21
-76.8097846870829
 31
0.0
  0
LINE
  5
8B
330
1F
100
AcDbEntity
  8
1
  6
DOT_CENTER
 62
     2
100
AcDbLine
 10
12.91507327919101
 20
-134.3157040076768
 30
0.0
 11
12.91507327919101
 21
-137.225236142346
 31
0.0
  0
LINE
  5
8C
330
1F
100
AcDbEntity
  8
1
  6
DOT_CENTER
 62
     2
100
AcDbLine
 10
-37.08492672080899
 20
-83.6737693643847
 30
0.0
 11
12.91507327919101
 21
-83.6737693643847
 31
0.0
  0
LINE
  5
8D
330
1F
100
AcDbEntity
  8
1
  6
Continuous
 62
     7
100
AcDbLine
 10
-37.08492672080899
 20
-99.3157040076767
 30
0.0
 11
-37.08492672080899
 21
-120.3157040076767
 31
0.0
  0
LINE
  5
8E
330
1F
100
AcDbEntity
  8
1
  6
Continuous
 62
     7
100
AcDbLine
 10
-29.08492672080899
 20
-116.8157040076767
 30
0.0
 11
-13.08492672080899
 21
-116.8157040076768
 31
0.0
  0
LINE
  5
8F
330
1F
100
AcDbEntity
  8
1
  6
Continuous
 62
     7
100
AcDbLine
 10
-13.08492672080899
 20
-120.3157040076768
 30
0.0
 11
-37.08492672080899
 21
-120.3157040076767
 31
0.0
  0
LINE
  5
90
330
1F
100
AcDbEntity
  8
1
  6
DOT_CENTER
 62
     2
100
AcDbLine
 10
12.91507327919101
 20
-83.6737693643847
 30
0.0
 11
12.91507327919101
 21
-134.3157040076768
 31
0.0
  0
LINE
  5
91
330
1F
100
AcDbEntity
  8
1
  6
Continuous
 62
     7
100
AcDbLine
 10
-7.08492672080899
 20
-134.3157040076768
 30
0.0
 11
12.91507327919101
 21
-134.3157040076768
 31
0.0
  0
LINE
  5
92
330
1F
100
AcDbEntity
  8
1
  6
Continuous
 62
     7
100
AcDbLine
 10
0.91507327919101
 20
-125.3157040076768
 30
0.0
 11
0.91507327919101
 21
-129.3157040076768
 31
0.0
  0
LINE
  5
93
330
1F
100
AcDbEntity
  8
1
  6
Continuous
 62
     7
100
AcDbLine
 10
-7.08492672080899
 20
-129.3157040076768
 30
0.0
 11
-7.08492672080899
 21
-134.3157040076768
 31
0.0
  0
LINE
  5
94
330
1F
100
AcDbEntity
  8
1
  6
Continuous
 62
     7
100
AcDbLine
 10
-7.08492672080899
 20
-120.3157040076768
 30
0.0
 11
-7.08492672080899
 21
-125.3157040076768
 31
0.0
  0
LINE
  5
95
330
1F
100
AcDbEntity
  8
1
  6
Continuous
 62
     7
100
AcDbLine
 10
-7.08492672080899
 20
-129.3157040076768
 30
0.0
 11
0.91507327919101
 21
-129.3157040076768
 31
0.0
  0
LINE
  5
96
330
1F
100
AcDbEntity
  8
1
  6
Continuous
 62
     7
100
AcDbLine
 10
-7.08492672080899
 20
-125.3157040076768
 30
0.0
 11
0.91507327919101
 21
-125.3157040076768
 31
0.0
  0
LINE
  5
97
330
1F
100
AcDbEntity
  8
1
  6
Continuous
 62
     7
100
AcDbLine
 10
-7.08492672080899
 20
-120.3157040076768
 30
0.0
 11
-13.08492672080899
 21
-120.3157040076768
 31
0.0
  0
LINE
  5
98
330
1F
100
AcDbEntity
  8
1
  6
Continuous
 62
     7
100
AcDbLine
 10
-33.58492672080899
 20
-116.8157040076767
 30
0.0
 11
-29.08492672080899
 21
-116.8157040076767
 31
0.0
  0
LINE
  5
99
330
1F
100
AcDbEntity
  8
1
  6
Continuous
 62
     7
100
AcDbLine
 10
-37.08492672080899
 20
-99.3157040076767
 30
0.0
 11
-33.58492672080899
 21
-99.31570400767671
 31
0.0
  0
LINE
  5
9A
330
1F
100
AcDbEntity
  8
1
  6
Continuous
 62
     7
100
AcDbLine
 10
-13.08492672080899
 20
-116.8157040076768
 30
0.0
 11
-13.08492672080899
 21
-120.3157040076768
 31
0.0
  0
LINE
  5
9B
330
1F
100
AcDbEntity
  8
1
  6
Continuous
 62
     7
100
AcDbLine
 10
-33.58492672080899
 20
-99.31570400767671
 30
0.0
 11
-33.58492672080899
 21
-116.8157040076767
 31
0.0
  0
LINE
  5
9C
330
1F
100
AcDbEntity
  8
1
  6
Continuous
 62
     7
100
AcDbLine
 10
12.91507327919101
 20
-76.8097846870829
 30
0.0
 11
12.91507327919101
 21
103.1902153129171
 31
0.0
  0
LINE
  5
9D
330
1F
100
AcDbEntity
  8
1
  6
Continuous
 62
     2
100
AcDbLine
 10
-66.3683025239711
 20
-23.54439190576599
 30
0.0
 11
-97.18605253849259
 21
-23.54439190576599
 31
0.0
  0
LINE
  5
9E
330
1F
100
AcDbEntity
  8
1
  6
Continuous
 62
     7
100
AcDbLine
 10
-37.08492672080899
 20
-83.6737693643847
 30
0.0
 11
-37.08492672080899
 21
-99.3157040076767
 31
0.0
  0
LINE
  5
9F
330
1F
100
AcDbEntity
  8
1
  6
DOT_CENTER
 62
     2
100
AcDbLine
 10
-26.08492672080899
 20
51.22522146597302
 30
0.0
 11
-26.08492672080899
 21
43.631120285398
 31
0.0
  0
LINE
  5
A0
330
1F
100
AcDbEntity
  8
1
  6
DOT_CENTER
 62
     2
100
AcDbLine
 10
-23.08492672080899
 20
71.38575198107202
 30
0.0
 11
-23.08492672080899
 21
56.10714365348602
 31
0.0
  0
LINE
  5
A1
330
1F
100
AcDbEntity
  8
1
  6
DOT_CENTER
 62
     2
100
AcDbLine
 10
-24.08492672080899
 20
83.95218131559503
 30
0.0
 11
-24.08492672080899
 21
78.437417363035
 31
0.0
  0
LINE
  5
A2
330
1F
100
AcDbEntity
  8
1
  6
DOT_CENTER
 62
     2
100
AcDbLine
 10
-28.63763744605799
 20
47.3887291133419
 30
0.0
 11
-23.08492672080899
 21
47.3887291133419
 31
0.0
  0
LINE
  5
A3
330
1F
100
AcDbEntity
  8
1
  6
DOT_CENTER
 62
     2
100
AcDbLine
 10
-30.53616274120202
 20
63.3887291133419
 30
0.0
 11
-15.43836634648702
 21
63.3887291133419
 31
0.0
  0
LINE
  5
A4
330
1F
100
AcDbEntity
  8
1
  6
DOT_CENTER
 62
     2
100
AcDbLine
 10
-26.309219795579
 20
81.38872911334201
 30
0.0
 11
-21.51770357450101
 21
81.38872911334201
 31
0.0
  0
LINE
  5
A5
330
1F
100
AcDbEntity
  8
1
  6
DOT_CENTER
 62
     2
100
AcDbLine
 10
-20.08492672080899
 20
15.83992839571101
 30
0.0
 11
-20.08492672080899
 21
9.25801950601101
 31
0.0
  0
LINE
  5
A6
330
1F
100
AcDbEntity
  8
1
  6
DOT_CENTER
 62
     2
100
AcDbLine
 10
-24.08492672080899
 20
-51.73972910673399
 30
0.0
 11
-24.08492672080899
 21
-57.761475537737
 31
0.0
  0
LINE
  5
A7
330
1F
100
AcDbEntity
  8
1
  6
DOT_CENTER
 62
     2
100
AcDbLine
 10
-23.08492672080899
 20
-28.913108914795
 30
0.0
 11
-23.08492672080899
 21
-44.03749529963798
 31
0.0
  0
LINE
  5
A8
330
1F
100
AcDbEntity
  8
1
  6
DOT_CENTER
 62
     2
100
AcDbLine
 10
-26.08492672080899
 20
-17.709859740837
 30
0.0
 11
-26.08492672080899
 21
-23.59156555716498
 31
0.0
  0
LINE
  5
A9
330
1F
100
AcDbEntity
  8
1
  6
DOT_CENTER
 62
     2
100
AcDbLine
 10
-31.51431984471302
 20
-36.6112708866581
 30
0.0
 11
-29.08492672080899
 21
-36.6112708866581
 31
0.0
  0
LINE
  5
AA
330
1F
100
AcDbEntity
  8
1
  6
DOT_CENTER
 62
     2
100
AcDbLine
 10
-29.08492672080899
 20
-36.6112708866581
 30
0.0
 11
-15.40964915714901
 21
-36.6112708866581
 31
0.0
  0
LINE
  5
AB
330
1F
100
AcDbEntity
  8
1
  6
DOT_CENTER
 62
     2
100
AcDbLine
 10
-29.133629395247
 20
-20.6112708866581
 30
0.0
 11
-23.08492672080899
 21
-20.6112708866581
 31
0.0
  0
LINE
  5
AC
330
1F
100
AcDbEntity
  8
1
  6
DOT_CENTER
 62
     2
100
AcDbLine
 10
-27.08492672080899
 20
-54.6112708866581
 30
0.0
 11
-21.090136533242
 21
-54.6112708866581
 31
0.0
  0
LINE
  5
AD
330
1F
100
AcDbEntity
  8
1
  6
DOT_CENTER
 62
     7
100
AcDbLine
 10
-41.98914722072074
 20
13.18872911334191
 30
0.0
 11
18.08877693815899
 21
13.18872911334191
 31
0.0
  0
LINE
  5
AE
330
1F
100
AcDbEntity
  8
1
  6
DOT_CENTER
 62
     2
100
AcDbLine
 10
-43.63651907749701
 20
103.1902153129171
 30
0.0
 11
16.70885243884499
 21
103.1902153129171
 31
0.0
  0
LINE
  5
AF
330
1F
100
AcDbEntity
  8
1
  6
Continuous
 62
     7
100
AcDbLine
 10
-37.08492672080899
 20
-66.8097846870829
 30
0.0
 11
-37.08492672080899
 21
-76.8097846870829
 31
0.0
  0
LINE
  5
B0
330
1F
100
AcDbEntity
  8
1
  6
Continuous
 62
     7
100
AcDbLine
 10
-37.08492672080899
 20
-66.8097846870829
 30
0.0
 11
-37.08492672080899
 21
103.1902153129171
 31
0.0
  0
LINE
  5
B1
330
1F
100
AcDbEntity
  8
1
  6
Continuous
 62
     7
100
AcDbLine
 10
-7.08492672080899
 20
103.1902153129171
 30
0.0
 11
-7.08492672080899
 21
-76.8097846870829
 31
0.0
  0
LINE
  5
B2
330
1F
100
AcDbEntity
  8
1
  6
Continuous
 62
     7
100
AcDbLine
 10
-37.08492672080899
 20
93.1902153129171
 30
0.0
 11
-25.08492672080899
 21
93.1902153129171
 31
0.0
  0
LINE
  5
B3
330
1F
100
AcDbEntity
  8
1
  6
Continuous
 62
     7
100
AcDbLine
 10
-37.08492672080899
 20
-66.8097846870829
 30
0.0
 11
-25.08492672080899
 21
-66.8097846870829
 31
0.0
  0
LINE
  5
B4
330
1F
100
AcDbEntity
  8
1
  6
Continuous
 62
     7
100
AcDbLine
 10
-13.08492672080899
 20
81.1902153129171
 30
0.0
 11
-13.08492672080899
 21
-54.8097846870829
 31
0.0
  0
LINE
  5
B5
330
1F
100
AcDbEntity
  8
1
  6
DOT_CENTER
 62
     2
100
AcDbLine
 10
-23.08492672080899
 20
-81.40177082409342
 30
0.0
 11
-23.08492672080899
 21
-121.9990439715276
 31
0.0
  0
LINE
  5
B6
330
1F
100
AcDbEntity
  8
1
  6
DOT_CENTER
 62
     2
100
AcDbLine
 10
-43.35980994798601
 20
-83.6737693643847
 30
0.0
 11
-37.08492672080899
 21
-83.6737693643847
 31
0.0
  0
LINE
  5
B7
330
1F
100
AcDbEntity
  8
1
  6
Continuous
 62
     2
100
AcDbLine
 10
-57.12698920464076
 20
83.57167962305076
 30
0.0
 11
-35.20811436222471
 21
92.52703262571501
 31
0.0
  0
ARC
  5
B8
330
1F
100
AcDbEntity
  8
1
  6
Continuous
 62
     7
100
AcDbCircle
 10
155.9909768498106
 20
-54.81127088665799
 30
0.0
 40
11.99999999999999
100
AcDbArc
 50
-128.6821874534895
 51
-127.1688996559995
  0
ARC
  5
B9
330
1F
100
AcDbEntity
  8
1
  6
Continuous
 62
     7
100
AcDbCircle
 10
155.9909768498106
 20
81.18872911334199
 30
0.0
 40
12.0
100
AcDbArc
 50
90.0
 51
127.1688996559996
  0
ARC
  5
BA
330
1F
100
AcDbEntity
  8
1
  6
Continuous
 62
     7
100
AcDbCircle
 10
155.9909768498106
 20
-54.81127088665799
 30
0.0
 40
11.99999999999998
100
AcDbArc
 50
-127.1688996559995
 51
-90.0
  0
ARC
  5
BB
330
1F
100
AcDbEntity
  8
1
  6
Continuous
 62
     7
100
AcDbCircle
 10
155.9909768498106
 20
81.18872911334199
 30
0.0
 40
11.99999999999989
100
AcDbArc
 50
0.0
 51
90.0
  0
ARC
  5
BC
330
1F
100
AcDbEntity
  8
1
  6
Continuous
 62
     7
100
AcDbCircle
 10
155.9909768498106
 20
81.18872911334199
 30
0.0
 40
11.99999999999995
100
AcDbArc
 50
127.1688996559996
 51
128.6821874534897
  0
ARC
  5
BD
330
1F
100
AcDbEntity
  8
1
  6
Continuous
 62
     7
100
AcDbCircle
 10
155.9909768498106
 20
-54.81127088665799
 30
0.0
 40
12.0
100
AcDbArc
 50
180.0
 51
-128.6821874534895
  0
ARC
  5
BE
330
1F
100
AcDbEntity
  8
1
  6
Continuous
 62
     7
100
AcDbCircle
 10
155.9909768498106
 20
-54.81127088665799
 30
0.0
 40
11.99999999999998
100
AcDbArc
 50
-90.0
 51
0.0
  0
ARC
  5
BF
330
1F
100
AcDbEntity
  8
1
  6
Continuous
 62
     7
100
AcDbCircle
 10
155.9909768498106
 20
81.18872911334199
 30
0.0
 40
11.99999999999994
100
AcDbArc
 50
128.6821874534897
 51
180.0
  0
ARC
  5
C0
330
1F
100
AcDbEntity
  8
1
  6
DOT_CENTER
 62
     2
100
AcDbCircle
 10
-45.58492672080899
 20
84.71967813986842
 30
0.0
 40
12.0
100
AcDbArc
 50
0.0
 51
44.90052796068889
  0
ARC
  5
C1
330
1F
100
AcDbEntity
  8
1
  6
DOT_CENTER
 62
     2
100
AcDbCircle
 10
-45.58492672080899
 20
-58.34221991318459
 30
0.0
 40
12.00000000000006
100
AcDbArc
 50
-44.88049545881992
 51
0.0
  0
ARC
  5
C2
330
1F
100
AcDbEntity
  8
1
  6
Continuous
 62
     7
100
AcDbCircle
 10
-25.08492672080899
 20
81.1902153129171
 30
0.0
 40
12.0
100
AcDbArc
 50
0.0
 51
90.0
  0
ARC
  5
C3
330
1F
100
AcDbEntity
  8
1
  6
Continuous
 62
     7
100
AcDbCircle
 10
-25.08492672080899
 20
-54.8097846870829
 30
0.0
 40
11.99999999999999
100
AcDbArc
 50
-90.0
 51
0.0
  0
CIRCLE
  5
C4
330
1F
100
AcDbEntity
  8
1
  6
DASHED
 62
     2
100
AcDbCircle
 10
157.9909768498106
 20
-36.81127088665809
 30
0.0
 40
6.0
  0
CIRCLE
  5
C5
330
1F
100
AcDbEntity
  8
1
  6
Continuous
 62
     7
100
AcDbCircle
 10
160.9909768498106
 20
-54.81127088665799
 30
0.0
 40
1.5
  0
CIRCLE
  5
C6
330
1F
100
AcDbEntity
  8
1
  6
Continuous
 62
     7
100
AcDbCircle
 10
155.9909768498106
 20
-20.81127088665809
 30
0.0
 40
1.5
  0
CIRCLE
  5
C7
330
1F
100
AcDbEntity
  8
1
  6
Continuous
 62
     7
100
AcDbCircle
 10
154.9909768498106
 20
47.18872911334191
 30
0.0
 40
1.5
  0
CIRCLE
  5
C8
330
1F
100
AcDbEntity
  8
1
  6
Continuous
 62
     7
100
AcDbCircle
 10
160.9909768498106
 20
81.18872911334199
 30
0.0
 40
1.5
  0
CIRCLE
  5
C9
330
1F
100
AcDbEntity
  8
1
  6
DASHED
 62
     2
100
AcDbCircle
 10
157.9909768498106
 20
63.18872911334191
 30
0.0
 40
6.0
  0
CIRCLE
  5
CA
330
1F
100
AcDbEntity
  8
1
  6
Continuous
 62
     7
100
AcDbCircle
 10
160.9909768498106
 20
13.18872911334191
 30
0.0
 40
1.5
  0
CIRCLE
  5
CB
330
1F
100
AcDbEntity
  8
1
  6
DASHED
 62
     2
100
AcDbCircle
 10
160.9909768498106
 20
13.18872911334191
 30
0.0
 40
6.000000000000011
  0
CIRCLE
  5
CC
330
1F
100
AcDbEntity
  8
1
  6
DASHED
 62
     2
100
AcDbCircle
 10
-20.08492672080899
 20
13.18872911334191
 30
0.0
 40
6.000000000000002
  0
CIRCLE
  5
CD
330
1F
100
AcDbEntity
  8
1
  6
Continuous
 62
     7
100
AcDbCircle
 10
-24.08492672080899
 20
-54.6112708866581
 30
0.0
 40
1.5
  0
CIRCLE
  5
CE
330
1F
100
AcDbEntity
  8
1
  6
Continuous
 62
     7
100
AcDbCircle
 10
-26.08492672080899
 20
-20.6112708866581
 30
0.0
 40
1.5
  0
CIRCLE
  5
CF
330
1F
100
AcDbEntity
  8
1
  6
Continuous
 62
     7
100
AcDbCircle
 10
-20.08492672080899
 20
13.18872911334191
 30
0.0
 40
1.5
  0
CIRCLE
  5
D0
330
1F
100
AcDbEntity
  8
1
  6
Continuous
 62
     7
100
AcDbCircle
 10
-26.08492672080899
 20
47.3887291133419
 30
0.0
 40
1.5
  0
CIRCLE
  5
D1
330
1F
100
AcDbEntity
  8
1
  6
Continuous
 62
     7
100
AcDbCircle
 10
-24.08492672080899
 20
81.1902153129171
 30
0.0
 40
1.5
  0
CIRCLE
  5
D2
330
1F
100
AcDbEntity
  8
1
  6
DASHED
 62
     2
100
AcDbCircle
 10
-23.08492672080899
 20
-36.6112708866581
 30
0.0
 40
6.0
  0
CIRCLE
  5
D3
330
1F
100
AcDbEntity
  8
1
  6
DASHED
 62
     2
100
AcDbCircle
 10
-23.08492672080899
 20
63.3887291133419
 30
0.0
 40
6.0
  0
MTEXT
  5
D5
330
1F
100
AcDbEntity
  8
1
 62
     3
100
AcDbMText
 10
208.7938839926648
 20
-93.4547149874405
 30
0.0
 40
3.5
 41
0.0
 71
     5
 72
     1
  1
Fräsbild Flügel
  7
CONVERTER_11
 73
     1
 44
1.32052821128451
  0
MTEXT
  5
D6
330
1F
100
AcDbEntity
  8
1
 62
     3
100
AcDbMText
 10
48.7179804220453
 20
-93.4547149874405
 30
0.0
 40
3.5
 41
0.0
 71
     5
 72
     1
  1
Fräsbild Rahmen
  7
CONVERTER_11
 73
     1
 44
1.32052821128451
  0
MTEXT
  5
D8
330
1F
100
AcDbEntity
  8
1
 62
     2
100
AcDbMText
 10
95.08295895754662
 20
40.93902334253892
 30
0.0
 40
2.5
 41
0.0
 71
     5
 72
     1
  1
Bandbezugslinie
  7
CONVERTER_12
 73
     1
 44
0.60024009603842
  0
MTEXT
  5
D9
330
1F
100
AcDbEntity
  8
1
 62
     2
100
AcDbMText
 10
75.002427722231
 20
59.4478967203704
 30
0.0
 40
2.5
 41
0.0
 71
     4
 72
     1
  1
für Ausführung mit\P1 Tragzapfen
  7
CONVERTER_11
 73
     1
 44
1.32052821128451
  0
MTEXT
  5
DA
330
1F
100
AcDbEntity
  8
1
 62
     2
100
AcDbMText
 10
74.7808188957257
 20
-7.35444878658767
 30
0.0
 40
2.5
 41
0.0
 71
     4
 72
     1
  1
für Ausführung mit\P2 Tragzapfen
  7
CONVERTER_11
 73
     1
 44
1.32052821128451
  0
MTEXT
  5
DB
330
1F
100
AcDbEntity
  8
1
 62
     2
100
AcDbMText
 10
-111.8652653295551
 20
1.25801950601101
 30
0.0
 40
2.5
 41
0.0
 71
     4
 72
     1
  1
für Ausführung mit\P2 Tragzapfen
  7
CONVERTER_11
 73
     1
 44
1.32052821128451
  0
MTEXT
  5
DC
330
1F
100
AcDbEntity
  8
1
 62
     2
100
AcDbMText
 10
-107.7520140195099
 20
43.4446343877079
 30
0.0
 40
2.5
 41
0.0
 71
     4
 72
     1
  1
für Ausführung mit\P1 Tragzapfen
  7
CONVERTER_11
 73
     1
 44
1.32052821128451
  0
MTEXT
  5
DD
330
1F
100
AcDbEntity
  8
1
 62
     2
100
AcDbMText
 10
-75.02073965992
 20
-52.438728700083
 30
0.0
 40
2.5
 41
0.0
 71
     5
 72
     1
  1
ausstemmen
  7
CONVERTER_12
 73
     1
 44
0.60024009603842
  0
MTEXT
  5
DE
330
1F
100
AcDbEntity
  8
1
 62
     2
100
AcDbMText
 10
-75.29486026348701
 20
83.1887291133419
 30
0.0
 40
2.5
 41
0.0
 71
     5
 72
     1
  1
ausstemmen
  7
CONVERTER_12
 73
     1
 44
0.60024009603842
  0
MTEXT
  5
DF
330
1F
100
AcDbEntity
  8
1
 62
     2
100
AcDbMText
 10
-81.835374809395
 20
-21.406182578797
 30
0.0
 40
2.5
 41
0.0
 71
     5
 72
     1
  1
Bandbezugslinie
  7
CONVERTER_12
 73
     1
 44
0.60024009603842
  0
DIMENSION
  5
EC
330
1F
100
AcDbEntity
  8
1
100
AcDbDimension
  2
*D1
 10
144.2409768498107
 20
-122.6961328902793
 30
0.0
 11
156.4002849050883
 21
-118.9461328902793
 31
0.0
 70
    32
  1
<>
 71
     5
 42
-1.0
 53
0.00013888888889
  3
ME10_DIM_10
100
AcDbAlignedDimension
 13
148.7409768498106
 23
-114.6737693643846
 33
0.0
 14
144.2409768498106
 24
-114.6737693643846
 34
0.0
100
AcDbRotatedDimension
  0
DIMENSION
  5
F7
330
1F
100
AcDbEntity
  8
1
100
AcDbDimension
  2
*D2
 10
209.2777374125558
 20
13.1887291133419
 30
0.0
 11
205.5277374125558
 21
52.80185901268389
 31
0.0
 70
    32
  1
<>
 71
     5
 42
-1.0
 53
90.0
  3
ME10_DIM_11
100
AcDbAlignedDimension
 13
155.9909768498106
 23
93.18872911334199
 33
0.0
 14
177.4939492489617
 24
13.18872911334191
 34
0.0
 50
90.0
100
AcDbRotatedDimension
  0
DIMENSION
  5
103
330
1F
100
AcDbEntity
  8
1
100
AcDbDimension
  2
*D3
 10
167.9909768498106
 20
-49.23724861303599
 30
0.0
 11
162.7830985721246
 21
-45.48724861303599
 31
0.0
 70
    32
  1
<>
 71
     5
 42
-1.0
 53
0.00013888888889
  3
ME10_DIM_12
100
AcDbAlignedDimension
 13
157.9909768498106
 23
-44.89302198760299
 33
0.0
 14
167.9909768498105
 24
-54.81127088665799
 34
0.0
100
AcDbRotatedDimension
  0
DIMENSION
  5
10F
330
1F
100
AcDbEntity
  8
1
100
AcDbDimension
  2
*D4
 10
168.2409768498106
 20
-131.6619859248942
 30
0.0
 11
156.6302549814456
 21
-127.9119859248942
 31
0.0
 70
    32
  1
<>
 71
     5
 42
-1.0
 53
0.00013888888889
  3
ME10_DIM_13
100
AcDbAlignedDimension
 13
144.2409768498106
 23
-114.6737693643846
 33
0.0
 14
168.2409768498105
 24
-101.6737693643846
 34
0.0
100
AcDbRotatedDimension
  0
DIMENSION
  5
11C
330
1F
100
AcDbEntity
  8
1
100
AcDbDimension
  2
*D5
 10
183.6907433041626
 20
-101.6737693643846
 30
0.0
 11
179.3594223361191
 21
-91.9353829714198
 31
0.0
 70
    32
  1
<>
 71
     5
 42
-1.0
 53
90.0
  3
ME10_DIM_14
100
AcDbAlignedDimension
 13
168.2409768498105
 23
-98.1737693643846
 33
0.0
 14
172.9909768498105
 24
-101.6737693643846
 34
0.0
 50
90.0
100
AcDbRotatedDimension
  0
DIMENSION
  5
127
330
1F
100
AcDbEntity
  8
1
100
AcDbDimension
  2
*D6
 10
198.3359874655216
 20
-54.81127088665806
 30
0.0
 11
194.5859874655216
 21
13.3717439753379
 31
0.0
 70
    32
  1
<>
 71
     5
 42
-1.0
 53
90.0
  3
ME10_DIM_15
100
AcDbAlignedDimension
 13
164.0595017604085
 23
81.18872911334199
 33
0.0
 14
164.0626361797126
 24
-54.81127088665799
 34
0.0
 50
90.0
100
AcDbRotatedDimension
  0
DIMENSION
  5
132
330
1F
100
AcDbEntity
  8
1
100
AcDbDimension
  2
*D7
 10
186.9412953211486
 20
-20.81127088665809
 30
0.0
 11
183.1912953211486
 21
13.0366059710909
 31
0.0
 70
    32
  1
<>
 71
     5
 42
-1.0
 53
90.0
  3
ME10_DIM_16
100
AcDbAlignedDimension
 13
157.9909768498106
 23
47.18872911334191
 33
0.0
 14
157.9909768498106
 24
-20.81127088665809
 34
0.0
 50
90.0
100
AcDbRotatedDimension
  0
DIMENSION
  5
140
330
1F
100
AcDbEntity
  8
1
100
AcDbDimension
  2
*D8
 10
167.9909768498106
 20
73.1037769413029
 30
0.0
 11
164.6459251010356
 21
76.8537769413029
 31
0.0
 70
    32
  1
<>
 71
     5
 42
-1.0
 53
0.00013888888889
  3
ME10_DIM_17
100
AcDbAlignedDimension
 13
160.9909768498106
 23
77.6209848107049
 33
0.0
 14
167.9909768498105
 24
81.18872911334199
 34
0.0
100
AcDbRotatedDimension
  0
DIMENSION
  5
14C
330
1F
100
AcDbEntity
  8
1
100
AcDbDimension
  2
*D9
 10
167.9909768498107
 20
30.8799461345539
 30
0.0
 11
161.4073250451397
 21
34.6299461345539
 31
0.0
 70
    32
  1
<>
 71
     5
 42
-1.0
 53
0.00013888888889
  3
ME10_DIM_18
100
AcDbAlignedDimension
 13
154.9909768498106
 23
44.1842671305439
 33
0.0
 14
167.9909768498105
 24
81.18872911334199
 34
0.0
100
AcDbRotatedDimension
  0
DIMENSION
  5
157
330
1F
100
AcDbEntity
  8
1
100
AcDbDimension
  2
*D10
 10
123.2650745143545
 20
-36.81127088665812
 30
0.0
 11
119.5150745143545
 21
12.84597585854491
 31
0.0
 70
    32
  1
<>
 71
     5
 42
-1.0
 53
90.0
  3
ME10_DIM_19
100
AcDbAlignedDimension
 13
149.6509161811296
 23
63.18872911334191
 33
0.0
 14
150.4676520826956
 24
-36.81127088665809
 34
0.0
 50
90.0
100
AcDbRotatedDimension
  0
DIMENSION
  5
162
330
1F
100
AcDbEntity
  8
1
100
AcDbDimension
  2
*D11
 10
219.6708782206118
 20
-66.81127088665797
 30
0.0
 11
215.9208782206118
 21
12.17412676300963
 31
0.0
 70
    32
  1
<>
 71
     5
 42
-1.0
 53
90.0
  3
ME10_DIM_20
100
AcDbAlignedDimension
 13
155.9909768498106
 23
93.18872911334199
 33
0.0
 14
155.9909768498106
 24
-66.81127088665797
 34
0.0
 50
90.0
100
AcDbRotatedDimension
  0
DIMENSION
  5
16F
330
1F
100
AcDbEntity
  8
1
100
AcDbDimension
  2
*D12
 10
-13.08492672080899
 20
24.57356987767301
 30
0.0
 11
-16.7780159460555
 21
28.7914840975715
 31
0.0
 70
    32
  1
<>
 71
     5
 42
-1.0
 53
0.00013888888889
  3
ME10_DIM_21
100
AcDbAlignedDimension
 13
-20.08492672080899
 23
15.83992839571101
 33
0.0
 14
-13.08492672080899
 24
81.1902153129171
 34
0.0
100
AcDbRotatedDimension
  0
DIMENSION
  5
17A
330
1F
100
AcDbEntity
  8
1
100
AcDbDimension
  2
*D13
 10
-37.08492672080899
 20
-141.286454741996
 30
0.0
 11
-25.8389117700075
 21
-137.536454741996
 31
0.0
 70
    32
  1
<>
 71
     5
 42
-1.0
 53
0.00013888888889
  3
ME10_DIM_22
100
AcDbAlignedDimension
 13
-13.08492672080899
 23
-120.3157040076768
 33
0.0
 14
-37.08492672080899
 24
-120.3157040076767
 34
0.0
100
AcDbRotatedDimension
  0
DIMENSION
  5
187
330
1F
100
AcDbEntity
  8
1
100
AcDbDimension
  2
*D14
 10
-33.58492672080899
 20
-130.261280621889
 30
0.0
 11
-28.1194003705359
 21
-126.511280621889
 31
0.0
 70
    32
  1
<>
 71
     5
 42
-1.0
 53
0.00013888888889
  3
ME10_DIM_23
100
AcDbAlignedDimension
 13
-37.08492672080899
 23
-120.3157040076767
 33
0.0
 14
-33.58492672080899
 24
-116.8157040076767
 34
0.0
100
AcDbRotatedDimension
  0
DIMENSION
  5
193
330
1F
100
AcDbEntity
  8
1
100
AcDbDimension
  2
*D15
 10
-58.59845424728103
 20
93.1902153129171
 30
0.0
 11
-62.4182847477597
 21
53.7882578488504
 31
0.0
 70
    32
  1
<>
 71
     5
 42
-1.0
 53
90.0
  3
ME10_DIM_24
100
AcDbAlignedDimension
 13
-41.98914722072074
 23
13.18872911334191
 33
0.0
 14
-37.08492672080899
 24
93.1902153129171
 34
0.0
 50
90.0
100
AcDbRotatedDimension
  0
DIMENSION
  5
19E
330
1F
100
AcDbEntity
  8
1
100
AcDbDimension
  2
*D16
 10
-58.66578068740802
 20
-99.3157040076767
 30
0.0
 11
-62.6969343526902
 21
-109.4797304088546
 31
0.0
 70
    32
  1
<>
 71
     5
 42
-1.0
 53
90.0
  3
ME10_DIM_25
100
AcDbAlignedDimension
 13
-37.08492672080899
 23
-120.3157040076767
 33
0.0
 14
-37.08492672080899
 24
-99.3157040076767
 34
0.0
 50
90.0
100
AcDbRotatedDimension
  0
DIMENSION
  5
1AA
330
1F
100
AcDbEntity
  8
1
100
AcDbDimension
  2
*D17
 10
-13.084926720809
 20
-13.40521993124401
 30
0.0
 11
-17.920807824843
 21
-9.65521993124401
 31
0.0
 70
    32
  1
<>
 71
     5
 42
-1.0
 53
0.00013888888889
  3
ME10_DIM_26
100
AcDbAlignedDimension
 13
-23.08492672080899
 23
-28.913108914795
 33
0.0
 14
-13.08492672080899
 24
-54.8097846870829
 34
0.0
100
AcDbRotatedDimension
  0
DIMENSION
  5
1B6
330
1F
100
AcDbEntity
  8
1
100
AcDbDimension
  2
*D18
 10
-13.08492672080899
 20
36.022380918013
 30
0.0
 11
-19.59065920488501
 21
39.772380918013
 31
0.0
 70
    32
  1
<>
 71
     5
 42
-1.0
 53
0.00013888888889
  3
ME10_DIM_27
100
AcDbAlignedDimension
 13
-26.08492672080899
 23
43.631120285398
 33
0.0
 14
-13.08492672080899
 24
81.1902153129171
 34
0.0
100
AcDbRotatedDimension
  0
DIMENSION
  5
1C1
330
1F
100
AcDbEntity
  8
1
100
AcDbDimension
  2
*D19
 10
-46.720398748072
 20
-36.6112708866581
 30
0.0
 11
-50.470398748072
 21
13.18872911334191
 31
0.0
 70
    32
  1
<>
 71
     5
 42
-1.0
 53
90.0
  3
ME10_DIM_28
100
AcDbAlignedDimension
 13
-30.53616274120202
 23
63.3887291133419
 33
0.0
 14
-29.08492672080899
 24
-36.6112708866581
 34
0.0
 50
90.0
100
AcDbRotatedDimension
  0
DIMENSION
  5
1CC
330
1F
100
AcDbEntity
  8
1
100
AcDbDimension
  2
*D20
 10
44.94026068818999
 20
-66.8097846870829
 30
0.0
 11
41.19026068818999
 21
13.47940452501101
 31
0.0
 70
    32
  1
<>
 71
     5
 42
-1.0
 53
90.0
  3
ME10_DIM_29
100
AcDbAlignedDimension
 13
-25.08492672080899
 23
93.1902153129171
 33
0.0
 14
-25.08492672080899
 24
-66.8097846870829
 34
0.0
 50
90.0
100
AcDbRotatedDimension
  0
DIMENSION
  5
1D7
330
1F
100
AcDbEntity
  8
1
100
AcDbDimension
  2
*D21
 10
36.36055720686798
 20
-54.6112708866581
 30
0.0
 11
32.61055720686798
 21
13.86939104688901
 31
0.0
 70
    32
  1
<>
 71
     5
 42
-1.0
 53
90.0
  3
ME10_DIM_30
100
AcDbAlignedDimension
 13
-21.51770357450101
 23
81.38872911334201
 33
0.0
 14
-21.090136533242
 24
-54.6112708866581
 34
0.0
 50
90.0
100
AcDbRotatedDimension
  0
DIMENSION
  5
1E2
330
1F
100
AcDbEntity
  8
1
100
AcDbDimension
  2
*D22
 10
26.80588742084998
 20
-20.6112708866581
 30
0.0
 11
23.05588742084998
 21
13.47940452501101
 31
0.0
 70
    32
  1
<>
 71
     5
 42
-1.0
 53
90.0
  3
ME10_DIM_31
100
AcDbAlignedDimension
 13
-23.08492672080899
 23
47.3887291133419
 33
0.0
 14
-23.08492672080899
 24
-20.6112708866581
 34
0.0
 50
90.0
100
AcDbRotatedDimension
  0
DIMENSION
  5
1EF
330
1F
100
AcDbEntity
  8
1
100
AcDbDimension
  2
*D23
 10
-47.0255862085241
 20
-120.3157040076767
 30
0.0
 11
-50.7755862085241
 21
-111.36843589852
 31
0.0
 70
    32
  1
<>
 71
     5
 42
-1.0
 53
90.0
  3
ME10_DIM_32
100
AcDbAlignedDimension
 13
-33.58492672080899
 23
-116.8157040076767
 33
0.0
 14
-37.08492672080899
 24
-120.3157040076767
 34
0.0
 50
90.0
100
AcDbRotatedDimension
  0
DIMENSION
  5
1FB
330
1F
100
AcDbEntity
  8
1
100
AcDbDimension
  2
*D24
 10
-24.08492672080899
 20
113.202236595877
 30
0.0
 11
-18.9830608952929
 21
116.952236595877
 31
0.0
 70
    32
  1
<>
 71
     5
 42
-1.0
 53
0.00013888888889
  3
ME10_DIM_33
100
AcDbAlignedDimension
 13
-13.08492672080899
 23
81.1902153129171
 33
0.0
 14
-24.08492672080899
 24
83.95218131559503
 34
0.0
100
AcDbRotatedDimension
  0
INSERT
  5
203
330
1F
100
AcDbEntity
  8
1
100
AcDbBlockReference
  2
*D25
 10
0.0
 20
0.0
 30
0.0
  0
INSERT
  5
20B
330
1F
100
AcDbEntity
  8
1
100
AcDbBlockReference
  2
*D26
 10
0.0
 20
0.0
 30
0.0
  0
ENDSEC
  0
SECTION
  2
OBJECTS
  0
DICTIONARY
  5
C
330
0
100
AcDbDictionary
281
     1
  3
ACAD_GROUP
350
D
  3
ACAD_LAYOUT
350
1A
  3
ACAD_MLINESTYLE
350
17
  3
ACAD_PLOTSETTINGS
350
19
  3
ACAD_PLOTSTYLENAME
350
E
  0
DICTIONARY
  5
D
102
{ACAD_REACTORS
330
C
102
}
330
C
100
AcDbDictionary
281
     1
  0
DICTIONARY
  5
1A
102
{ACAD_REACTORS
330
C
102
}
330
C
100
AcDbDictionary
281
     1
  3
Layout1
350
1E
  3
Layout2
350
26
  3
Model
350
22
  0
DICTIONARY
  5
17
102
{ACAD_REACTORS
330
C
102
}
330
C
100
AcDbDictionary
281
     1
  3
Standard
350
18
  0
DICTIONARY
  5
19
102
{ACAD_REACTORS
330
C
102
}
330
C
100
AcDbDictionary
281
     1
  0
ACDBDICTIONARYWDFLT
  5
E
102
{ACAD_REACTORS
330
C
102
}
330
C
100
AcDbDictionary
281
     1
  3
Normal
350
F
100
AcDbDictionaryWithDefault
340
F
  0
LAYOUT
  5
1E
102
{ACAD_REACTORS
330
1A
102
}
330
1A
100
AcDbPlotSettings
  1

  2

  4

  6

 40
0.0
 41
0.0
 42
0.0
 43
0.0
 44
0.0
 45
0.0
 46
0.0
 47
0.0
 48
0.0
 49
0.0
140
0.0
141
0.0
142
1.0
143
1.0
 70
   688
 72
     0
 73
     0
 74
     5
  7

 75
    16
 76
     0
 77
     2
 78
   300
147
1.0
148
0.0
149
0.0
100
AcDbLayout
  1
Layout1
 70
     1
 71
     1
 10
0.0
 20
0.0
 11
0.0
 21
0.0
 12
0.0
 22
0.0
 32
0.0
 14
0.0
 24
0.0
 34
0.0
 15
0.0
 25
0.0
 35
0.0
146
0.0
 13
0.0
 23
0.0
 33
0.0
 16
1.0
 26
0.0
 36
0.0
 17
0.0
 27
1.0
 37
0.0
 76
     0
330
1B
  0
LAYOUT
  5
26
102
{ACAD_REACTORS
330
1A
102
}
330
1A
100
AcDbPlotSettings
  1

  2

  4

  6

 40
0.0
 41
0.0
 42
0.0
 43
0.0
 44
0.0
 45
0.0
 46
0.0
 47
0.0
 48
0.0
 49
0.0
140
0.0
141
0.0
142
1.0
143
1.0
 70
   688
 72
     0
 73
     0
 74
     5
  7

 75
    16
 76
     0
 77
     2
 78
   300
147
1.0
148
0.0
149
0.0
100
AcDbLayout
  1
Layout2
 70
     1
 71
     2
 10
0.0
 20
0.0
 11
0.0
 21
0.0
 12
0.0
 22
0.0
 32
0.0
 14
0.0
 24
0.0
 34
0.0
 15
0.0
 25
0.0
 35
0.0
146
0.0
 13
0.0
 23
0.0
 33
0.0
 16
1.0
 26
0.0
 36
0.0
 17
0.0
 27
1.0
 37
0.0
 76
     0
330
23
  0
LAYOUT
  5
22
102
{ACAD_REACTORS
330
1A
102
}
330
1A
100
AcDbPlotSettings
  1

  2

  4

  6

 40
0.0
 41
0.0
 42
0.0
 43
0.0
 44
0.0
 45
0.0
 46
0.0
 47
0.0
 48
0.0
 49
0.0
140
0.0
141
0.0
142
1.0
143
1.0
 70
  1712
 72
     0
 73
     0
 74
     0
  7

 75
     0
 76
     0
 77
     2
 78
   300
147
1.0
148
0.0
149
0.0
100
AcDbLayout
  1
Model
 70
     1
 71
     0
 10
0.0
 20
0.0
 11
0.0
 21
0.0
 12
0.0
 22
0.0
 32
0.0
 14
-111.251836272667
 24
-143.286454741996
 34
0.0
 15
228.0001339926648
 25
118.702236595877
 35
0.0
146
0.0
 13
0.0
 23
0.0
 33
0.0
 16
1.0
 26
0.0
 36
0.0
 17
0.0
 27
1.0
 37
0.0
 76
     0
330
1F
  0
MLINESTYLE
  5
18
102
{ACAD_REACTORS
330
17
102
}
330
17
100
AcDbMlineStyle
  2
Standard
 70
     0
  3

 62
   256
 51
90.0
 52
90.0
 71
     2
 49
0.5
 62
   256
  6
BYLAYER
 49
-0.5
 62
   256
  6
BYLAYER
  0
ACDBPLACEHOLDER
  5
F
102
{ACAD_REACTORS
330
E
102
}
330
E
  0
ENDSEC
  0
EOF
