  0
SECTION
  2
HEADER
  9
$ACADVER
  1
AC1018
  9
$ACADMAINTVER
 70
     0
  9
$DWGCODEPAGE
  3
ANSI_1252
  9
$INSBASE
 10
0.0
 20
0.0
 30
0.0
  9
$EXTMIN
 10
-38.9368652658489
 20
-18.35707095489201
 30
0.0
  9
$EXTMAX
 10
28.92420135609919
 20
59.43948743251242
 30
0.0
  9
$LIMMIN
 10
0.0
 20
0.0
  9
$LIMMAX
 10
12.0
 20
9.0
  9
$ORTHOMODE
 70
     0
  9
$REGENMODE
 70
     1
  9
$FILLMODE
 70
     1
  9
$QTEXTMODE
 70
     0
  9
$MIRRTEXT
 70
     1
  9
$LTSCALE
 40
1.0
  9
$ATTMODE
 70
     1
  9
$TEXTSIZE
 40
0.2
  9
$TRACEWID
 40
0.05
  9
$TEXTSTYLE
  7
Standard
  9
$CLAYER
  8
0
  9
$CELTYPE
  6
ByLayer
  9
$CECOLOR
 62
   256
  9
$CELTSCALE
 40
1.0
  9
$DISPSILH
 70
     0
  9
$DIMSCALE
 40
1.0
  9
$DIMASZ
 40
0.18
  9
$DIMEXO
 40
0.0625
  9
$DIMDLI
 40
0.38
  9
$DIMRND
 40
0.0
  9
$DIMDLE
 40
0.0
  9
$DIMEXE
 40
0.18
  9
$DIMTP
 40
0.0
  9
$DIMTM
 40
0.0
  9
$DIMTXT
 40
0.18
  9
$DIMCEN
 40
0.09
  9
$DIMTSZ
 40
0.0
  9
$DIMTOL
 70
     0
  9
$DIMLIM
 70
     0
  9
$DIMTIH
 70
     1
  9
$DIMTOH
 70
     1
  9
$DIMSE1
 70
     0
  9
$DIMSE2
 70
     0
  9
$DIMTAD
 70
     0
  9
$DIMZIN
 70
     0
  9
$DIMBLK
  1

  9
$DIMASO
 70
     1
  9
$DIMSHO
 70
     1
  9
$DIMPOST
  1

  9
$DIMAPOST
  1

  9
$DIMALT
 70
     0
  9
$DIMALTD
 70
     2
  9
$DIMALTF
 40
25.4
  9
$DIMLFAC
 40
1.0
  9
$DIMTOFL
 70
     0
  9
$DIMTVP
 40
0.0
  9
$DIMTIX
 70
     0
  9
$DIMSOXD
 70
     0
  9
$DIMSAH
 70
     0
  9
$DIMBLK1
  1

  9
$DIMBLK2
  1

  9
$DIMSTYLE
  2
Standard
  9
$DIMCLRD
 70
     0
  9
$DIMCLRE
 70
     0
  9
$DIMCLRT
 70
     0
  9
$DIMTFAC
 40
1.0
  9
$DIMGAP
 40
0.09
  9
$DIMJUST
 70
     0
  9
$DIMSD1
 70
     0
  9
$DIMSD2
 70
     0
  9
$DIMTOLJ
 70
     1
  9
$DIMTZIN
 70
     0
  9
$DIMALTZ
 70
     0
  9
$DIMALTTZ
 70
     0
  9
$DIMUPT
 70
     0
  9
$DIMDEC
 70
     4
  9
$DIMTDEC
 70
     4
  9
$DIMALTU
 70
     2
  9
$DIMALTTD
 70
     2
  9
$DIMTXSTY
  7
Standard
  9
$DIMAUNIT
 70
     0
  9
$DIMADEC
 70
     0
  9
$DIMALTRND
 40
0.0
  9
$DIMAZIN
 70
     0
  9
$DIMDSEP
 70
    46
  9
$DIMATFIT
 70
     3
  9
$DIMFRAC
 70
     0
  9
$DIMLDRBLK
  1

  9
$DIMLUNIT
 70
     2
  9
$DIMLWD
 70
    -2
  9
$DIMLWE
 70
    -2
  9
$DIMTMOVE
 70
     0
  9
$LUNITS
 70
     2
  9
$LUPREC
 70
     4
  9
$SKETCHINC
 40
0.1
  9
$FILLETRAD
 40
0.5
  9
$AUNITS
 70
     0
  9
$AUPREC
 70
     0
  9
$MENU
  1
.
  9
$ELEVATION
 40
0.0
  9
$PELEVATION
 40
0.0
  9
$THICKNESS
 40
0.0
  9
$LIMCHECK
 70
     0
  9
$CHAMFERA
 40
0.5
  9
$CHAMFERB
 40
0.5
  9
$CHAMFERC
 40
1.0
  9
$CHAMFERD
 40
0.0
  9
$SKPOLY
 70
     0
  9
$TDCREATE
 40
2454428.415931968
  9
$TDUCREATE
 40
2454428.374265301
  9
$TDUPDATE
 40
2454428.415931979
  9
$TDUUPDATE
 40
2454428.374265313
  9
$TDINDWG
 40
0.0000000116
  9
$TDUSRTIMER
 40
0.0000000116
  9
$USRTIMER
 70
     1
  9
$ANGBASE
 50
0.0
  9
$ANGDIR
 70
     0
  9
$PDMODE
 70
     0
  9
$PDSIZE
 40
0.0
  9
$PLINEWID
 40
0.0
  9
$SPLFRAME
 70
     0
  9
$SPLINETYPE
 70
     6
  9
$SPLINESEGS
 70
     8
  9
$HANDSEED
  5
121
  9
$SURFTAB1
 70
     6
  9
$SURFTAB2
 70
     6
  9
$SURFTYPE
 70
     6
  9
$SURFU
 70
     6
  9
$SURFV
 70
     6
  9
$UCSBASE
  2

  9
$UCSNAME
  2

  9
$UCSORG
 10
0.0
 20
0.0
 30
0.0
  9
$UCSXDIR
 10
1.0
 20
0.0
 30
0.0
  9
$UCSYDIR
 10
0.0
 20
1.0
 30
0.0
  9
$UCSORTHOREF
  2

  9
$UCSORTHOVIEW
 70
     0
  9
$UCSORGTOP
 10
0.0
 20
0.0
 30
0.0
  9
$UCSORGBOTTOM
 10
0.0
 20
0.0
 30
0.0
  9
$UCSORGLEFT
 10
0.0
 20
0.0
 30
0.0
  9
$UCSORGRIGHT
 10
0.0
 20
0.0
 30
0.0
  9
$UCSORGFRONT
 10
0.0
 20
0.0
 30
0.0
  9
$UCSORGBACK
 10
0.0
 20
0.0
 30
0.0
  9
$PUCSBASE
  2

  9
$PUCSNAME
  2

  9
$PUCSORG
 10
0.0
 20
0.0
 30
0.0
  9
$PUCSXDIR
 10
1.0
 20
0.0
 30
0.0
  9
$PUCSYDIR
 10
0.0
 20
1.0
 30
0.0
  9
$PUCSORTHOREF
  2

  9
$PUCSORTHOVIEW
 70
     0
  9
$PUCSORGTOP
 10
0.0
 20
0.0
 30
0.0
  9
$PUCSORGBOTTOM
 10
0.0
 20
0.0
 30
0.0
  9
$PUCSORGLEFT
 10
0.0
 20
0.0
 30
0.0
  9
$PUCSORGRIGHT
 10
0.0
 20
0.0
 30
0.0
  9
$PUCSORGFRONT
 10
0.0
 20
0.0
 30
0.0
  9
$PUCSORGBACK
 10
0.0
 20
0.0
 30
0.0
  9
$USERI1
 70
     0
  9
$USERI2
 70
     0
  9
$USERI3
 70
     0
  9
$USERI4
 70
     0
  9
$USERI5
 70
     0
  9
$USERR1
 40
14.5
  9
$USERR2
 40
0.0
  9
$USERR3
 40
0.0
  9
$USERR4
 40
0.0
  9
$USERR5
 40
0.0
  9
$WORLDVIEW
 70
     1
  9
$SHADEDGE
 70
     3
  9
$SHADEDIF
 70
    70
  9
$TILEMODE
 70
     1
  9
$MAXACTVP
 70
    64
  9
$PINSBASE
 10
0.0
 20
0.0
 30
0.0
  9
$PLIMCHECK
 70
     0
  9
$PEXTMIN
 10
1.00000000000000E+20
 20
1.00000000000000E+20
 30
1.00000000000000E+20
  9
$PEXTMAX
 10
-1.00000000000000E+20
 20
-1.00000000000000E+20
 30
-1.00000000000000E+20
  9
$PLIMMIN
 10
0.0
 20
0.0
  9
$PLIMMAX
 10
12.0
 20
9.0
  9
$UNITMODE
 70
     0
  9
$VISRETAIN
 70
     1
  9
$PLINEGEN
 70
     0
  9
$PSLTSCALE
 70
     1
  9
$TREEDEPTH
 70
  3020
  9
$CMLSTYLE
  2
Standard
  9
$CMLJUST
 70
     0
  9
$CMLSCALE
 40
1.0
  9
$PROXYGRAPHICS
 70
     1
  9
$MEASUREMENT
 70
     1
  9
$CELWEIGHT
370
    -1
  9
$ENDCAPS
280
     0
  9
$JOINSTYLE
280
     0
  9
$LWDISPLAY
290
     0
  9
$INSUNITS
 70
     1
  9
$HYPERLINKBASE
  1

  9
$STYLESHEET
  1

  9
$XEDIT
290
     1
  9
$CEPSNTYPE
380
     0
  9
$PSTYLEMODE
290
     1
  9
$FINGERPRINTGUID
  2
{4C439971-19B3-4D6E-9B09-8A4389F58C2F}
  9
$VERSIONGUID
  2
{FAEB1C32-E019-11D5-929B-00C0DF256EC4}
  9
$EXTNAMES
290
     1
  9
$PSVPSCALE
 40
0.0
  9
$OLESTARTUP
290
     0
  9
$SORTENTS
280
   127
  9
$INDEXCTL
280
     0
  9
$HIDETEXT
280
     1
  9
$XCLIPFRAME
290
     0
  9
$HALOGAP
280
     0
  9
$OBSCOLOR
 70
   257
  9
$OBSLTYPE
280
     0
  9
$INTERSECTIONDISPLAY
280
     0
  9
$INTERSECTIONCOLOR
 70
   257
  9
$DIMASSOC
280
     2
  9
$PROJECTNAME
  1

  0
ENDSEC
  0
SECTION
  2
CLASSES
  0
CLASS
  1
ACDBDICTIONARYWDFLT
  2
AcDbDictionaryWithDefault
  3
ObjectDBX Classes
 90
        0
 91
        3
280
     0
281
     0
  0
CLASS
  1

  2
exOdDbSpline
  3

 90
        0
 91
        3
280
     0
281
     1
  0
ENDSEC
  0
SECTION
  2
TABLES
  0
TABLE
  2
VPORT
  5
8
330
0
100
AcDbSymbolTable
 70
     1
  0
VPORT
  5
29
330
8
100
AcDbSymbolTableRecord
100
AcDbViewportTableRecord
  2
*Active
 70
     0
 10
0.0
 20
0.0
 11
1.0
 21
1.0
 12
-5.00633195487486
 22
20.54120823881021
 13
0.0
 23
0.0
 14
0.5
 24
0.5
 15
0.5
 25
0.5
 16
0.0
 26
0.0
 36
1.0
 17
0.0
 27
0.0
 37
0.0
 40
85.57621422614488
 41
1.60267857142857
 42
50.0
 43
0.0
 44
0.0
 50
0.0
 51
0.0
 71
     0
 72
   100
 73
     1
 74
     3
 75
     0
 76
     0
 77
     0
 78
     0
281
     0
 65
     1
110
0.0
120
0.0
130
0.0
111
1.0
121
0.0
131
0.0
112
0.0
122
1.0
132
0.0
 79
     0
146
0.0
  0
ENDTAB
  0
TABLE
  2
LTYPE
  5
5
330
0
100
AcDbSymbolTable
 70
     8
  0
LTYPE
  5
14
330
5
100
AcDbSymbolTableRecord
100
AcDbLinetypeTableRecord
  2
ByBlock
 70
     0
  3

 72
    65
 73
     0
 40
0.0
  0
LTYPE
  5
15
330
5
100
AcDbSymbolTableRecord
100
AcDbLinetypeTableRecord
  2
ByLayer
 70
     0
  3

 72
    65
 73
     0
 40
0.0
  0
LTYPE
  5
16
330
5
100
AcDbSymbolTableRecord
100
AcDbLinetypeTableRecord
  2
Continuous
 70
     0
  3
Solid line
 72
    65
 73
     0
 40
0.0
  0
LTYPE
  5
2A
330
5
100
AcDbSymbolTableRecord
100
AcDbLinetypeTableRecord
  2
DASHED
 70
     0
  3
Dashed
 72
    65
 73
     2
 40
15.0
 49
7.0
 74
     0
 49
-8.0
 74
     0
  0
LTYPE
  5
2B
330
5
100
AcDbSymbolTableRecord
100
AcDbLinetypeTableRecord
  2
DOTTED
 70
     0
  3
Dotted
 72
    65
 73
     2
 40
1.0
 49
0.0
 74
     0
 49
-1.0
 74
     0
  0
LTYPE
  5
2C
330
5
100
AcDbSymbolTableRecord
100
AcDbLinetypeTableRecord
  2
DOT_CENTER
 70
     0
  3
Dot_Center
 72
    65
 73
     4
 40
14.0
 49
12.0
 74
     0
 49
-1.0
 74
     0
 49
0.0
 74
     0
 49
-1.0
 74
     0
  0
LTYPE
  5
2D
330
5
100
AcDbSymbolTableRecord
100
AcDbLinetypeTableRecord
  2
LONG_DASHED
 70
     0
  3
Long_Dashed
 72
    65
 73
     2
 40
15.0
 49
10.0
 74
     0
 49
-5.0
 74
     0
  0
LTYPE
  5
2E
330
5
100
AcDbSymbolTableRecord
100
AcDbLinetypeTableRecord
  2
DASH_CENTER
 70
     0
  3
Dash_Center
 72
    65
 73
     4
 40
14.0
 49
11.0
 74
     0
 49
-1.0
 74
     0
 49
1.0
 74
     0
 49
-1.0
 74
     0
  0
LTYPE
  5
2F
330
5
100
AcDbSymbolTableRecord
100
AcDbLinetypeTableRecord
  2
PHANTOM
 70
     0
  3
Phantom
 72
    65
 73
     6
 40
13.0
 49
10.0
 74
     0
 49
-1.0
 74
     0
 49
0.0
 74
     0
 49
-1.0
 74
     0
 49
0.0
 74
     0
 49
-1.0
 74
     0
  0
LTYPE
  5
30
330
5
100
AcDbSymbolTableRecord
100
AcDbLinetypeTableRecord
  2
CENTER_DASH_DASH
 70
     0
  3
Center_Dash_Dash
 72
    65
 73
     6
 40
14.0
 49
9.0
 74
     0
 49
-1.0
 74
     0
 49
1.0
 74
     0
 49
-1.0
 74
     0
 49
1.0
 74
     0
 49
-1.0
 74
     0
  0
ENDTAB
  0
TABLE
  2
LAYER
  5
2
330
0
100
AcDbSymbolTable
 70
     2
  0
LAYER
  5
10
330
2
100
AcDbSymbolTableRecord
100
AcDbLayerTableRecord
  2
0
 70
     0
 62
     7
  6
Continuous
370
    -3
390
F
  0
LAYER
  5
31
330
2
100
AcDbSymbolTableRecord
100
AcDbLayerTableRecord
  2
1
 70
     0
 62
     7
  6
Continuous
370
    -3
390
F
  0
ENDTAB
  0
TABLE
  2
STYLE
  5
3
330
0
100
AcDbSymbolTable
 70
     2
  0
STYLE
  5
11
330
3
100
AcDbSymbolTableRecord
100
AcDbTextStyleTableRecord
  2
Standard
 70
     0
 40
0.0
 41
1.0
 50
0.0
 71
     0
 42
0.2
  3
txt
  4

  0
STYLE
  5
D4
330
3
100
AcDbSymbolTableRecord
100
AcDbTextStyleTableRecord
  2
CONVERTER_11
 70
     0
 40
0.0
 41
0.9
 50
0.0
 71
     0
 42
0.2
  3
txt.shx
  4

  0
ENDTAB
  0
TABLE
  2
VIEW
  5
6
330
0
100
AcDbSymbolTable
 70
     0
  0
ENDTAB
  0
TABLE
  2
UCS
  5
7
330
0
100
AcDbSymbolTable
 70
     0
  0
ENDTAB
  0
TABLE
  2
APPID
  5
9
330
0
100
AcDbSymbolTable
 70
     1
  0
APPID
  5
12
330
9
100
AcDbSymbolTableRecord
100
AcDbRegAppTableRecord
  2
ACAD
 70
     0
  0
ENDTAB
  0
TABLE
  2
DIMSTYLE
  5
A
330
0
100
AcDbSymbolTable
 70
     8
100
AcDbDimStyleTable
  0
DIMSTYLE
105
27
330
A
100
AcDbSymbolTableRecord
100
AcDbDimStyleTableRecord
  2
Standard
 70
     0
340
11
  0
DIMSTYLE
105
D8
102
{ACAD_REACTORS
330
D9
102
}
330
A
100
AcDbSymbolTableRecord
100
AcDbDimStyleTableRecord
  2
ME10_DIM_10
 70
     0
 41
3.5
 42
0.0
 44
2.0
 73
     0
 74
     0
 77
     1
 78
     8
140
3.5
147
2.0
172
     1
173
     1
176
     2
177
     2
178
     2
271
     2
340
D4
  0
DIMSTYLE
105
E4
102
{ACAD_REACTORS
330
E5
102
}
330
A
100
AcDbSymbolTableRecord
100
AcDbDimStyleTableRecord
  2
ME10_DIM_11
 70
     0
 41
3.5
 42
0.0
 44
2.0
 73
     0
 74
     0
 77
     1
 78
     8
140
3.5
147
2.0
172
     1
173
     1
176
     2
177
     2
178
     2
271
     2
340
D4
  0
DIMSTYLE
105
F1
102
{ACAD_REACTORS
330
F2
102
}
330
A
100
AcDbSymbolTableRecord
100
AcDbDimStyleTableRecord
  2
ME10_DIM_12
 70
     0
  3
ø<>
 41
3.5
 42
0.0
 44
2.0
 73
     0
 74
     0
 77
     1
 78
     8
140
3.5
147
2.0
172
     1
173
     1
176
     2
177
     2
178
     2
271
     2
340
D4
  0
DIMSTYLE
105
FC
102
{ACAD_REACTORS
330
FD
102
}
330
A
100
AcDbSymbolTableRecord
100
AcDbDimStyleTableRecord
  2
ME10_DIM_13
 70
     0
 41
3.5
 42
0.0
 44
2.0
 73
     0
 74
     0
 77
     1
 78
     8
140
3.5
147
2.0
172
     1
173
     1
176
     2
177
     2
178
     2
271
     2
340
D4
  0
DIMSTYLE
105
107
102
{ACAD_REACTORS
330
108
102
}
330
A
100
AcDbSymbolTableRecord
100
AcDbDimStyleTableRecord
  2
ME10_DIM_14
 70
     0
 41
3.5
 42
0.0
 44
2.0
 73
     0
 74
     0
 77
     1
 78
     8
140
3.5
147
2.0
172
     1
173
     1
176
     2
177
     2
178
     2
271
     2
340
D4
  0
DIMSTYLE
105
112
102
{ACAD_REACTORS
330
113
102
}
330
A
100
AcDbSymbolTableRecord
100
AcDbDimStyleTableRecord
  2
ME10_DIM_15
 70
     0
 41
3.5
 42
0.0
 44
2.0
 73
     0
 74
     0
 77
     1
 78
     8
140
3.5
147
2.0
172
     1
173
     1
176
     2
177
     2
178
     2
271
     2
340
D4
  0
DIMSTYLE
105
11F
102
{ACAD_REACTORS
330
120
102
}
330
A
100
AcDbSymbolTableRecord
100
AcDbDimStyleTableRecord
  2
ME10_DIM_16
 70
     0
 41
3.5
 42
0.0
 44
2.0
 73
     0
 74
     0
 77
     1
 78
     8
140
3.5
147
2.0
172
     1
173
     1
176
     2
177
     2
178
     2
271
     2
340
D4
  0
ENDTAB
  0
TABLE
  2
BLOCK_RECORD
  5
1
330
0
100
AcDbSymbolTable
 70
     8
  0
BLOCK_RECORD
  5
1F
330
1
100
AcDbSymbolTableRecord
100
AcDbBlockTableRecord
  2
*Model_Space
340
22
  0
BLOCK_RECORD
  5
1B
330
1
100
AcDbSymbolTableRecord
100
AcDbBlockTableRecord
  2
*Paper_Space
340
1E
  0
BLOCK_RECORD
  5
23
330
1
100
AcDbSymbolTableRecord
100
AcDbBlockTableRecord
  2
*Paper_Space0
340
26
  0
BLOCK_RECORD
  5
CE
330
1
100
AcDbSymbolTableRecord
100
AcDbBlockTableRecord
  2
*D1
340
0
  0
BLOCK_RECORD
  5
DA
330
1
100
AcDbSymbolTableRecord
100
AcDbBlockTableRecord
  2
*D2
340
0
  0
BLOCK_RECORD
  5
E6
330
1
100
AcDbSymbolTableRecord
100
AcDbBlockTableRecord
  2
*D3
340
0
  0
BLOCK_RECORD
  5
F3
330
1
100
AcDbSymbolTableRecord
100
AcDbBlockTableRecord
  2
*D4
340
0
  0
BLOCK_RECORD
  5
FE
330
1
100
AcDbSymbolTableRecord
100
AcDbBlockTableRecord
  2
*D5
340
0
  0
BLOCK_RECORD
  5
109
330
1
100
AcDbSymbolTableRecord
100
AcDbBlockTableRecord
  2
*D6
340
0
  0
BLOCK_RECORD
  5
114
330
1
100
AcDbSymbolTableRecord
100
AcDbBlockTableRecord
  2
*D7
340
0
  0
ENDTAB
  0
ENDSEC
  0
SECTION
  2
BLOCKS
  0
BLOCK
  5
20
330
1F
100
AcDbEntity
  8
0
100
AcDbBlockBegin
  2
*Model_Space
 70
     0
 71
     0
 10
0.0
 20
0.0
 30
0.0
  3
*Model_Space
  1

  0
ENDBLK
  5
21
330
1F
100
AcDbEntity
  8
0
100
AcDbBlockEnd
  0
BLOCK
  5
1C
330
1B
100
AcDbEntity
 67
     1
  8
0
100
AcDbBlockBegin
  2
*Paper_Space
 70
     0
 71
     0
 10
0.0
 20
0.0
 30
0.0
  3
*Paper_Space
  1

  0
ENDBLK
  5
1D
330
1B
100
AcDbEntity
 67
     1
  8
0
100
AcDbBlockEnd
  0
BLOCK
  5
24
330
23
100
AcDbEntity
  8
0
100
AcDbBlockBegin
  2
*Paper_Space0
 70
     0
 71
     0
 10
0.0
 20
0.0
 30
0.0
  3
*Paper_Space0
  1

  0
ENDBLK
  5
25
330
23
100
AcDbEntity
  8
0
100
AcDbBlockEnd
  0
BLOCK
  5
D6
330
CE
100
AcDbEntity
  8
0
100
AcDbBlockBegin
  2
*D1
 70
     1
 71
     0
 10
0.0
 20
0.0
 30
0.0
  3
*D1
  1

  0
LINE
  5
CF
330
CE
100
AcDbEntity
  8
1
  6
Continuous
 62
     2
100
AcDbLine
 10
-22.12997351358091
 20
40.9415362282104
 30
0.0
 11
5.12002648641907
 21
40.9415362282104
 31
0.0
  0
LINE
  5
D0
330
CE
100
AcDbEntity
  8
1
  6
Continuous
 62
     2
100
AcDbLine
 10
5.12002648641907
 20
48.48821921978546
 30
0.0
 11
5.12002648641907
 21
38.9415362282104
 31
0.0
  0
LINE
  5
D1
330
CE
100
AcDbEntity
  8
1
  6
Continuous
 62
     2
100
AcDbLine
 10
-22.12997351358091
 20
9.99526243043081
 30
0.0
 11
-22.12997351358091
 21
42.9415362282104
 31
0.0
  0
SOLID
  5
D2
330
CE
100
AcDbEntity
  8
1
 62
     2
100
AcDbTrace
 10
-18.62997351358091
 20
41.40231996976629
 30
0.0
 11
-18.62997351358091
 21
40.48075248665452
 31
0.0
 12
-22.12997351358091
 22
40.9415362282104
 32
0.0
 13
-22.12997351358091
 23
40.9415362282104
 33
0.0
  0
SOLID
  5
D3
330
CE
100
AcDbEntity
  8
1
 62
     2
100
AcDbTrace
 10
1.62002648641907
 20
40.48075248665452
 30
0.0
 11
1.62002648641907
 21
41.40231996976629
 31
0.0
 12
5.12002648641907
 22
40.9415362282104
 32
0.0
 13
5.12002648641907
 23
40.9415362282104
 33
0.0
  0
MTEXT
  5
D5
330
CE
100
AcDbEntity
  8
1
 62
     2
100
AcDbMText
 10
-15.07941479546072
 20
42.9415362282104
 30
0.0
 40
3.5
 41
0.0
 71
     7
 72
     1
  1
27.25
  7
CONVERTER_11
 11
0.9999999999970621
 21
2.424068405545307E-6
 31
0.0
 73
     1
 44
0.60024009603842
  0
ENDBLK
  5
D7
330
CE
100
AcDbEntity
  8
0
100
AcDbBlockEnd
  0
BLOCK
  5
E2
330
DA
100
AcDbEntity
  8
0
100
AcDbBlockBegin
  2
*D2
 70
     1
 71
     0
 10
0.0
 20
0.0
 30
0.0
  3
*D2
  1

  0
LINE
  5
DB
330
DA
100
AcDbEntity
  8
1
  6
Continuous
 62
     2
100
AcDbLine
 10
26.92420135609919
 20
-6.00473756956916
 30
0.0
 11
26.92420135609919
 21
7.4952624304308
 31
0.0
  0
LINE
  5
DC
330
DA
100
AcDbEntity
  8
1
  6
Continuous
 62
     2
100
AcDbLine
 10
18.7925460632633
 20
7.4952624304308
 30
0.0
 11
28.92420135609919
 21
7.4952624304308
 31
0.0
  0
LINE
  5
DD
330
DA
100
AcDbEntity
  8
1
  6
Continuous
 62
     2
100
AcDbLine
 10
7.85251990736917
 20
7.4952624304308
 30
0.0
 11
14.9178575867188
 21
7.4952624304308
 31
0.0
  0
LINE
  5
DE
330
DA
100
AcDbEntity
  8
1
  6
Continuous
 62
     2
100
AcDbLine
 10
5.12002648641908
 20
-6.0047375695692
 30
0.0
 11
28.92420135609919
 21
-6.0047375695692
 31
0.0
  0
SOLID
  5
DF
330
DA
100
AcDbEntity
  8
1
 62
     2
100
AcDbTrace
 10
26.4634176145433
 20
-2.50473756956916
 30
0.0
 11
27.38498509765508
 21
-2.50473756956916
 31
0.0
 12
26.92420135609919
 22
-6.00473756956916
 32
0.0
 13
26.92420135609919
 23
-6.00473756956916
 33
0.0
  0
SOLID
  5
E0
330
DA
100
AcDbEntity
  8
1
 62
     2
100
AcDbTrace
 10
27.38498509765507
 20
3.9952624304308
 30
0.0
 11
26.4634176145433
 21
3.9952624304308
 31
0.0
 12
26.92420135609919
 22
7.4952624304308
 32
0.0
 13
26.92420135609919
 23
7.4952624304308
 33
0.0
  0
MTEXT
  5
E1
330
DA
100
AcDbEntity
  8
1
 62
     2
100
AcDbMText
 10
24.92420135609919
 20
-3.06867097154251
 30
0.0
 40
3.5
 41
0.0
 71
     7
 72
     1
  1
13.5
  7
CONVERTER_11
 11
0.0
 21
1.0
 31
0.0
 73
     1
 44
0.60024009603842
  0
ENDBLK
  5
E3
330
DA
100
AcDbEntity
  8
0
100
AcDbBlockEnd
  0
BLOCK
  5
EF
330
E6
100
AcDbEntity
  8
0
100
AcDbBlockBegin
  2
*D3
 70
     1
 71
     0
 10
0.0
 20
0.0
 30
0.0
  3
*D3
  1

  0
LINE
  5
E7
330
E6
100
AcDbEntity
  8
1
  6
Continuous
 62
     2
100
AcDbLine
 10
16.70076685238722
 20
19.15296113307779
 30
0.0
 11
16.70076685238722
 21
10.9952624304308
 31
0.0
  0
LINE
  5
E8
330
E6
100
AcDbEntity
  8
1
  6
Continuous
 62
     2
100
AcDbLine
 10
16.70076685238722
 20
10.9952624304308
 30
0.0
 11
16.70076685238722
 21
3.9952624304308
 31
0.0
  0
LINE
  5
E9
330
E6
100
AcDbEntity
  8
1
  6
Continuous
 62
     2
100
AcDbLine
 10
16.70076685238722
 20
3.9952624304308
 30
0.0
 11
16.70076685238722
 21
-3.0047375695692
 31
0.0
  0
LINE
  5
EA
330
E6
100
AcDbEntity
  8
1
  6
Continuous
 62
     2
100
AcDbLine
 10
6.62002648641907
 20
3.9952624304308
 30
0.0
 11
18.70076685238722
 21
3.9952624304308
 31
0.0
  0
LINE
  5
EB
330
E6
100
AcDbEntity
  8
1
  6
Continuous
 62
     2
100
AcDbLine
 10
5.12002648641907
 20
10.9952624304308
 30
0.0
 11
18.70076685238722
 21
10.9952624304308
 31
0.0
  0
SOLID
  5
EC
330
E6
100
AcDbEntity
  8
1
 62
     2
100
AcDbTrace
 10
16.23998311083133
 20
14.4952624304308
 30
0.0
 11
17.1615505939431
 21
14.4952624304308
 31
0.0
 12
16.70076685238722
 22
10.9952624304308
 32
0.0
 13
16.70076685238722
 23
10.9952624304308
 33
0.0
  0
SOLID
  5
ED
330
E6
100
AcDbEntity
  8
1
 62
     2
100
AcDbTrace
 10
17.1615505939431
 20
0.4952624304308
 30
0.0
 11
16.23998311083133
 21
0.4952624304308
 31
0.0
 12
16.70076685238722
 22
3.9952624304308
 32
0.0
 13
16.70076685238722
 23
3.9952624304308
 33
0.0
  0
MTEXT
  5
EE
330
E6
100
AcDbEntity
  8
1
 62
     2
100
AcDbMText
 10
14.70076685238722
 20
14.18296113307779
 30
0.0
 40
3.5
 41
0.0
 71
     7
 72
     1
  1
\C2;ø\C2;7
  7
CONVERTER_11
 11
0.0
 21
1.0
 31
0.0
 73
     1
 44
0.60024009603842
  0
ENDBLK
  5
F0
330
E6
100
AcDbEntity
  8
0
100
AcDbBlockEnd
  0
BLOCK
  5
FA
330
F3
100
AcDbEntity
  8
0
100
AcDbBlockBegin
  2
*D4
 70
     1
 71
     0
 10
0.0
 20
0.0
 30
0.0
  3
*D4
  1

  0
LINE
  5
F4
330
F3
100
AcDbEntity
  8
1
  6
Continuous
 62
     2
100
AcDbLine
 10
-33.4368652658489
 20
-4.5047375695692
 30
0.0
 11
-33.4368652658489
 21
20.49526243043079
 31
0.0
  0
LINE
  5
F5
330
F3
100
AcDbEntity
  8
1
  6
Continuous
 62
     2
100
AcDbLine
 10
-12.62997351358091
 20
20.49526243043079
 30
0.0
 11
-35.4368652658489
 21
20.49526243043079
 31
0.0
  0
LINE
  5
F6
330
F3
100
AcDbEntity
  8
1
  6
Continuous
 62
     2
100
AcDbLine
 10
-21.37997351358091
 20
-4.5047375695692
 30
0.0
 11
-35.4368652658489
 21
-4.5047375695692
 31
0.0
  0
SOLID
  5
F7
330
F3
100
AcDbEntity
  8
1
 62
     2
100
AcDbTrace
 10
-33.89764900740479
 20
-1.0047375695692
 30
0.0
 11
-32.97608152429301
 21
-1.0047375695692
 31
0.0
 12
-33.4368652658489
 22
-4.5047375695692
 32
0.0
 13
-33.4368652658489
 23
-4.5047375695692
 33
0.0
  0
SOLID
  5
F8
330
F3
100
AcDbEntity
  8
1
 62
     2
100
AcDbTrace
 10
-32.97608152429301
 20
16.99526243043079
 30
0.0
 11
-33.89764900740479
 21
16.99526243043079
 31
0.0
 12
-33.4368652658489
 22
20.49526243043079
 32
0.0
 13
-33.4368652658489
 23
20.49526243043079
 33
0.0
  0
MTEXT
  5
F9
330
F3
100
AcDbEntity
  8
1
 62
     2
100
AcDbMText
 10
-35.4368652658489
 20
5.39442914291824
 30
0.0
 40
3.5
 41
0.0
 71
     7
 72
     1
  1
25
  7
CONVERTER_11
 11
0.0
 21
1.0
 31
0.0
 73
     1
 44
0.60024009603842
  0
ENDBLK
  5
FB
330
F3
100
AcDbEntity
  8
0
100
AcDbBlockEnd
  0
BLOCK
  5
105
330
FE
100
AcDbEntity
  8
0
100
AcDbBlockBegin
  2
*D5
 70
     1
 71
     0
 10
0.0
 20
0.0
 30
0.0
  3
*D5
  1

  0
LINE
  5
FF
330
FE
100
AcDbEntity
  8
1
  6
Continuous
 62
     2
100
AcDbLine
 10
-15.12997351358091
 20
31.1244165306796
 30
0.0
 11
5.12002648641907
 21
31.1244165306796
 31
0.0
  0
LINE
  5
100
330
FE
100
AcDbEntity
  8
1
  6
Continuous
 62
     2
100
AcDbLine
 10
-15.12997351358091
 20
17.99526243043079
 30
0.0
 11
-15.12997351358091
 21
33.1244165306796
 31
0.0
  0
LINE
  5
101
330
FE
100
AcDbEntity
  8
1
  6
Continuous
 62
     2
100
AcDbLine
 10
5.12002648641907
 20
20.49526243043079
 30
0.0
 11
5.12002648641907
 21
33.1244165306796
 31
0.0
  0
SOLID
  5
102
330
FE
100
AcDbEntity
  8
1
 62
     2
100
AcDbTrace
 10
-11.62997351358091
 20
31.58520027223549
 30
0.0
 11
-11.62997351358091
 21
30.66363278912372
 31
0.0
 12
-15.12997351358091
 22
31.1244165306796
 32
0.0
 13
-15.12997351358091
 23
31.1244165306796
 33
0.0
  0
SOLID
  5
103
330
FE
100
AcDbEntity
  8
1
 62
     2
100
AcDbTrace
 10
1.62002648641907
 20
30.66363278912372
 30
0.0
 11
1.62002648641907
 21
31.58520027223549
 31
0.0
 12
5.12002648641907
 22
31.1244165306796
 32
0.0
 13
5.12002648641907
 23
31.1244165306796
 33
0.0
  0
MTEXT
  5
104
330
FE
100
AcDbEntity
  8
1
 62
     2
100
AcDbMText
 10
-11.17280343620557
 20
33.1244165306796
 30
0.0
 40
3.5
 41
0.0
 71
     7
 72
     1
  1
20.25
  7
CONVERTER_11
 11
0.9999999999970621
 21
2.424068405545307E-6
 31
0.0
 73
     1
 44
0.60024009603842
  0
ENDBLK
  5
106
330
FE
100
AcDbEntity
  8
0
100
AcDbBlockEnd
  0
BLOCK
  5
110
330
109
100
AcDbEntity
  8
0
100
AcDbBlockBegin
  2
*D6
 70
     1
 71
     0
 10
0.0
 20
0.0
 30
0.0
  3
*D6
  1

  0
LINE
  5
10A
330
109
100
AcDbEntity
  8
1
  6
Continuous
 62
     2
100
AcDbLine
 10
6.62002648641907
 20
-16.35707095489201
 30
0.0
 11
-9.37997351358093
 21
-16.35707095489201
 31
0.0
  0
LINE
  5
10B
330
109
100
AcDbEntity
  8
1
  6
Continuous
 62
     2
100
AcDbLine
 10
-9.37997351358093
 20
-6.00473756956916
 30
0.0
 11
-9.37997351358093
 21
-18.35707095489201
 31
0.0
  0
LINE
  5
10C
330
109
100
AcDbEntity
  8
1
  6
Continuous
 62
     2
100
AcDbLine
 10
6.62002648641907
 20
-4.50473756956916
 30
0.0
 11
6.62002648641907
 21
-18.35707095489201
 31
0.0
  0
SOLID
  5
10D
330
109
100
AcDbEntity
  8
1
 62
     2
100
AcDbTrace
 10
3.12002648641907
 20
-16.8178546964479
 30
0.0
 11
3.12002648641907
 21
-15.89628721333612
 31
0.0
 12
6.62002648641907
 22
-16.35707095489201
 32
0.0
 13
6.62002648641907
 23
-16.35707095489201
 33
0.0
  0
SOLID
  5
10E
330
109
100
AcDbEntity
  8
1
 62
     2
100
AcDbTrace
 10
-5.87997351358093
 20
-15.89628721333612
 30
0.0
 11
-5.87997351358093
 21
-16.8178546964479
 31
0.0
 12
-9.37997351358093
 22
-16.35707095489201
 32
0.0
 13
-9.37997351358093
 23
-16.35707095489201
 33
0.0
  0
MTEXT
  5
10F
330
109
100
AcDbEntity
  8
1
 62
     2
100
AcDbMText
 10
-3.40392136281473
 20
-14.35707095489201
 30
0.0
 40
3.5
 41
0.0
 71
     7
 72
     1
  1
16
  7
CONVERTER_11
 11
0.9999999999970621
 21
2.424068405545307E-6
 31
0.0
 73
     1
 44
0.60024009603842
  0
ENDBLK
  5
111
330
109
100
AcDbEntity
  8
0
100
AcDbBlockEnd
  0
BLOCK
  5
11D
330
114
100
AcDbEntity
  8
0
100
AcDbBlockBegin
  2
*D7
 70
     1
 71
     0
 10
0.0
 20
0.0
 30
0.0
  3
*D7
  1

  0
LINE
  5
115
330
114
100
AcDbEntity
  8
1
  6
Continuous
 62
     2
100
AcDbLine
 10
-2.37997351358093
 20
-16.35707095489201
 30
0.0
 11
-9.37997351358093
 21
-16.35707095489201
 31
0.0
  0
LINE
  5
116
330
114
100
AcDbEntity
  8
1
  6
Continuous
 62
     2
100
AcDbLine
 10
-9.37997351358093
 20
-16.35707095489201
 30
0.0
 11
-13.37997351358093
 21
-16.35707095489201
 31
0.0
  0
LINE
  5
117
330
114
100
AcDbEntity
  8
1
  6
Continuous
 62
     2
100
AcDbLine
 10
-13.37997351358093
 20
-16.35707095489201
 30
0.0
 11
-20.37997351358093
 21
-16.35707095489201
 31
0.0
  0
LINE
  5
118
330
114
100
AcDbEntity
  8
1
  6
Continuous
 62
     2
100
AcDbLine
 10
-13.37997351358093
 20
-4.50473756956916
 30
0.0
 11
-13.37997351358093
 21
-18.35707095489201
 31
0.0
  0
LINE
  5
119
330
114
100
AcDbEntity
  8
1
  6
Continuous
 62
     2
100
AcDbLine
 10
-9.37997351358093
 20
-6.00473756956916
 30
0.0
 11
-9.37997351358093
 21
-18.35707095489201
 31
0.0
  0
SOLID
  5
11A
330
114
100
AcDbEntity
  8
1
 62
     2
100
AcDbTrace
 10
-5.87997351358093
 20
-15.89628721333612
 30
0.0
 11
-5.87997351358093
 21
-16.8178546964479
 31
0.0
 12
-9.37997351358093
 22
-16.35707095489201
 32
0.0
 13
-9.37997351358093
 23
-16.35707095489201
 33
0.0
  0
SOLID
  5
11B
330
114
100
AcDbEntity
  8
1
 62
     2
100
AcDbTrace
 10
-16.87997351358093
 20
-16.8178546964479
 30
0.0
 11
-16.87997351358093
 21
-15.89628721333612
 31
0.0
 12
-13.37997351358093
 22
-16.35707095489201
 32
0.0
 13
-13.37997351358093
 23
-16.35707095489201
 33
0.0
  0
MTEXT
  5
11C
330
114
100
AcDbEntity
  8
1
 62
     2
100
AcDbMText
 10
-12.42997351358093
 20
-14.35707095489201
 30
0.0
 40
3.5
 41
0.0
 71
     7
 72
     1
  1
4
  7
CONVERTER_11
 11
0.9999999999970621
 21
2.424068405545307E-6
 31
0.0
 73
     1
 44
0.60024009603842
  0
ENDBLK
  5
11E
330
114
100
AcDbEntity
  8
0
100
AcDbBlockEnd
  0
ENDSEC
  0
SECTION
  2
ENTITIES
  0
LINE
  5
32
330
1F
100
AcDbEntity
  8
1
  6
Continuous
 62
     7
100
AcDbLine
 10
-10.12997351358091
 20
-6.0047375695692
 30
0.0
 11
-9.37997351358093
 21
-6.0047375695692
 31
0.0
  0
LINE
  5
33
330
1F
100
AcDbEntity
  8
1
  6
Continuous
 62
     7
100
AcDbLine
 10
-13.12997351358091
 20
-6.0047375695692
 30
0.0
 11
-10.12997351358091
 21
-6.0047375695692
 31
0.0
  0
LINE
  5
34
330
1F
100
AcDbEntity
  8
1
  6
Continuous
 62
     7
100
AcDbLine
 10
-13.37997351358093
 20
-6.0047375695692
 30
0.0
 11
-13.12997351358091
 21
-6.0047375695692
 31
0.0
  0
LINE
  5
35
330
1F
100
AcDbEntity
  8
1
  6
Continuous
 62
     7
100
AcDbLine
 10
-13.37997351358093
 20
-4.5047375695692
 30
0.0
 11
-13.12997351358091
 21
-4.5047375695692
 31
0.0
  0
LINE
  5
36
330
1F
100
AcDbEntity
  8
1
  6
Continuous
 62
     7
100
AcDbLine
 10
-13.37997351358093
 20
-4.5047375695692
 30
0.0
 11
-13.37997351358093
 21
-6.0047375695692
 31
0.0
  0
LINE
  5
37
330
1F
100
AcDbEntity
  8
1
  6
Continuous
 62
     7
100
AcDbLine
 10
-15.47997351358088
 20
-4.5047375695692
 30
0.0
 11
-15.47997350788863
 21
-4.5047375695692
 31
0.0
  0
LINE
  5
38
330
1F
100
AcDbEntity
  8
1
  6
Continuous
 62
     7
100
AcDbLine
 10
-9.37997351358093
 20
-4.5047375695692
 30
0.0
 11
3.12002648641907
 21
-4.5047375695692
 31
0.0
  0
LINE
  5
39
330
1F
100
AcDbEntity
  8
1
  6
Continuous
 62
     7
100
AcDbLine
 10
5.12002648641907
 20
3.9952624304308
 30
0.0
 11
5.12002648641907
 21
10.9952624304308
 31
0.0
  0
LINE
  5
3A
330
1F
100
AcDbEntity
  8
1
  6
Continuous
 62
     7
100
AcDbLine
 10
5.12002648641907
 20
10.9952624304308
 30
0.0
 11
5.12002648641907
 21
18.49526243043079
 31
0.0
  0
LINE
  5
3B
330
1F
100
AcDbEntity
  8
1
  6
Continuous
 62
     7
100
AcDbLine
 10
6.62002648641907
 20
3.9952624304308
 30
0.0
 11
6.62002648641907
 21
10.9952624304308
 31
0.0
  0
LINE
  5
3C
330
1F
100
AcDbEntity
  8
1
  6
Continuous
 62
     7
100
AcDbLine
 10
5.12002648641907
 20
3.9952624304308
 30
0.0
 11
6.62002648641907
 21
3.9952624304308
 31
0.0
  0
LINE
  5
3D
330
1F
100
AcDbEntity
  8
1
  6
Continuous
 62
     7
100
AcDbLine
 10
5.12002648641907
 20
10.9952624304308
 30
0.0
 11
6.62002648641907
 21
10.9952624304308
 31
0.0
  0
LINE
  5
3E
330
1F
100
AcDbEntity
  8
1
  6
Continuous
 62
     7
100
AcDbLine
 10
5.12002648641907
 20
48.98821921978546
 30
0.0
 11
5.12002648641907
 21
48.48821921978546
 31
0.0
  0
LINE
  5
3F
330
1F
100
AcDbEntity
  8
1
  6
Continuous
 62
     7
100
AcDbLine
 10
21.16518842715702
 20
37.98821921978546
 30
0.0
 11
21.16518842715702
 21
59.27972205582874
 31
0.0
  0
LINE
  5
40
330
1F
100
AcDbEntity
  8
1
  6
Continuous
 62
     7
100
AcDbLine
 10
19.66518842715702
 20
37.98821921978546
 30
0.0
 11
19.66518842715702
 21
59.27972205582874
 31
0.0
  0
LINE
  5
41
330
1F
100
AcDbEntity
  8
1
  6
Continuous
 62
     7
100
AcDbLine
 10
19.57940198953012
 20
47.97058112958043
 30
0.0
 11
16.85141674203821
 21
38.25864351724114
 31
0.0
  0
LINE
  5
42
330
1F
100
AcDbEntity
  8
1
  6
Continuous
 62
     7
100
AcDbLine
 10
6.62002648641907
 20
50.48821921978546
 30
0.0
 11
17.64755033695216
 21
50.48821921978546
 31
0.0
  0
LINE
  5
43
330
1F
100
AcDbEntity
  8
1
  6
Continuous
 62
     7
100
AcDbLine
 10
7.12002648641907
 20
48.98821921978546
 30
0.0
 11
9.62002648641907
 21
48.98821921978546
 31
0.0
  0
LINE
  5
44
330
1F
100
AcDbEntity
  8
1
  6
Continuous
 62
     7
100
AcDbLine
 10
15.41361248209561
 20
38.66072786988542
 30
0.0
 11
17.23967612183911
 21
45.1789322919072
 31
0.0
  0
LINE
  5
45
330
1F
100
AcDbEntity
  8
1
  6
Continuous
 62
     7
100
AcDbLine
 10
17.82146131395431
 20
36.9882458894539
 30
0.0
 11
18.66518842715702
 21
36.98821921978546
 31
0.0
  0
LINE
  5
46
330
1F
100
AcDbEntity
  8
1
  6
Continuous
 62
     7
100
AcDbLine
 10
17.82144073839832
 20
35.49526243043081
 30
0.0
 11
18.66518842715702
 21
35.48821921978546
 31
0.0
  0
LINE
  5
47
330
1F
100
AcDbEntity
  8
1
  6
Continuous
 62
     7
100
AcDbLine
 10
6.62002648641907
 20
-4.5047375695692
 30
0.0
 11
6.62002648641907
 21
3.9952624304308
 31
0.0
  0
LINE
  5
48
330
1F
100
AcDbEntity
  8
1
  6
Continuous
 62
     7
100
AcDbLine
 10
5.12002648641907
 20
-6.0047375695692
 30
0.0
 11
-9.37997351358093
 21
-6.0047375695692
 31
0.0
  0
LINE
  5
49
330
1F
100
AcDbEntity
  8
1
  6
Continuous
 62
     7
100
AcDbLine
 10
-9.37997351358093
 20
-4.5047375695692
 30
0.0
 11
-9.37997351358093
 21
-6.0047375695692
 31
0.0
  0
LINE
  5
4A
330
1F
100
AcDbEntity
  8
1
  6
Continuous
 62
     7
100
AcDbLine
 10
-13.37997351358093
 20
-6.0047375695692
 30
0.0
 11
-21.87997351358091
 21
-6.0047375695692
 31
0.0
  0
LINE
  5
4B
330
1F
100
AcDbEntity
  8
1
  6
Continuous
 62
     7
100
AcDbLine
 10
-21.37997351358091
 20
-4.5047375695692
 30
0.0
 11
-15.12997351358091
 21
-4.5047375695692
 31
0.0
  0
LINE
  5
4C
330
1F
100
AcDbEntity
  8
1
  6
Continuous
 62
     7
100
AcDbLine
 10
-21.87997351358091
 20
3.99526243043083
 30
0.0
 11
-21.87997351358091
 21
-4.0047375695692
 31
0.0
  0
LINE
  5
4D
330
1F
100
AcDbEntity
  8
1
  6
Continuous
 62
     7
100
AcDbLine
 10
-23.37997351358091
 20
3.99526243043083
 30
0.0
 11
-23.37997351358091
 21
-4.5047375695692
 31
0.0
  0
LINE
  5
4E
330
1F
100
AcDbEntity
  8
1
  6
Continuous
 62
     7
100
AcDbLine
 10
-21.87997351358091
 20
3.99526243043083
 30
0.0
 11
-23.37997351358091
 21
3.99526243043083
 31
0.0
  0
LINE
  5
4F
330
1F
100
AcDbEntity
  8
1
  6
Continuous
 62
     7
100
AcDbLine
 10
5.12002648641907
 20
48.48821921978546
 30
0.0
 11
5.12002648641907
 21
20.49526243043079
 31
0.0
  0
LINE
  5
50
330
1F
100
AcDbEntity
  8
1
  6
Continuous
 62
     7
100
AcDbLine
 10
-15.47997350788863
 20
-4.5047375695692
 30
0.0
 11
-15.47997351358088
 21
-4.5047375695692
 31
0.0
  0
LINE
  5
51
330
1F
100
AcDbEntity
  8
1
  6
Continuous
 62
     7
100
AcDbLine
 10
3.12002648641907
 20
-4.5047375695692
 30
0.0
 11
5.12002648641907
 21
-4.5047375695692
 31
0.0
  0
LINE
  5
52
330
1F
100
AcDbEntity
  8
1
  6
Continuous
 62
     7
100
AcDbLine
 10
5.12002648641907
 20
-2.5047375695692
 30
0.0
 11
5.12002648641907
 21
-4.5047375695692
 31
0.0
  0
LINE
  5
53
330
1F
100
AcDbEntity
  8
1
  6
Continuous
 62
     7
100
AcDbLine
 10
-18.32997351358091
 20
4.4952624304308
 30
0.0
 11
-13.12997351358091
 21
4.4952624304308
 31
0.0
  0
LINE
  5
54
330
1F
100
AcDbEntity
  8
1
  6
Continuous
 62
     7
100
AcDbLine
 10
-18.32997351358091
 20
10.4952624304308
 30
0.0
 11
-21.62997351358091
 21
10.4952624304308
 31
0.0
  0
LINE
  5
55
330
1F
100
AcDbEntity
  8
1
  6
Continuous
 62
     7
100
AcDbLine
 10
-10.12997351358091
 20
-4.5047375695692
 30
0.0
 11
-10.12997351358091
 21
-6.0047375695692
 31
0.0
  0
LINE
  5
56
330
1F
100
AcDbEntity
  8
1
  6
Continuous
 62
     7
100
AcDbLine
 10
-10.12997351358091
 20
-4.5047375695692
 30
0.0
 11
-9.37997351358093
 21
-4.5047375695692
 31
0.0
  0
LINE
  5
57
330
1F
100
AcDbEntity
  8
1
  6
Continuous
 62
     7
100
AcDbLine
 10
-4.62997351358091
 20
12.4952624304308
 30
0.0
 11
-4.12997351358091
 21
12.4952624304308
 31
0.0
  0
LINE
  5
58
330
1F
100
AcDbEntity
  8
1
  6
Continuous
 62
     7
100
AcDbLine
 10
-13.12997351358091
 20
10.4952624304308
 30
0.0
 11
-18.32997351358091
 21
10.4952624304308
 31
0.0
  0
LINE
  5
59
330
1F
100
AcDbEntity
  8
1
  6
Continuous
 62
     7
100
AcDbLine
 10
-13.12997351358091
 20
4.4952624304308
 30
0.0
 11
-10.12997351358091
 21
4.4952624304308
 31
0.0
  0
LINE
  5
5A
330
1F
100
AcDbEntity
  8
1
  6
Continuous
 62
     7
100
AcDbLine
 10
-13.12997351358091
 20
2.82026243043079
 30
0.0
 11
-13.12997351358091
 21
4.4952624304308
 31
0.0
  0
LINE
  5
5B
330
1F
100
AcDbEntity
  8
1
  6
Continuous
 62
     7
100
AcDbLine
 10
-13.12997351358091
 20
12.17026243043078
 30
0.0
 11
-13.12997351358091
 21
12.99526243043079
 31
0.0
  0
LINE
  5
5C
330
1F
100
AcDbEntity
  8
1
  6
Continuous
 62
     7
100
AcDbLine
 10
-5.12997351358091
 20
13.49526243043079
 30
0.0
 11
-9.62997351358091
 21
13.49526243043079
 31
0.0
  0
LINE
  5
5D
330
1F
100
AcDbEntity
  8
1
  6
Continuous
 62
     7
100
AcDbLine
 10
-3.82997351358091
 20
10.49526243043079
 30
0.0
 11
-4.12997351358091
 21
10.49526243043079
 31
0.0
  0
LINE
  5
5E
330
1F
100
AcDbEntity
  8
1
  6
Continuous
 62
     7
100
AcDbLine
 10
-3.82997351358091
 20
4.49526243043078
 30
0.0
 11
-3.82997351358091
 21
10.49526243043079
 31
0.0
  0
LINE
  5
5F
330
1F
100
AcDbEntity
  8
1
  6
Continuous
 62
     7
100
AcDbLine
 10
-1.62997351358091
 20
4.49526243043078
 30
0.0
 11
-3.82997351358091
 21
4.49526243043078
 31
0.0
  0
LINE
  5
60
330
1F
100
AcDbEntity
  8
1
  6
Continuous
 62
     7
100
AcDbLine
 10
-1.62997351358091
 20
12.99526243043079
 30
0.0
 11
-1.62997351358091
 21
4.49526243043078
 31
0.0
  0
LINE
  5
61
330
1F
100
AcDbEntity
  8
1
  6
Continuous
 62
     7
100
AcDbLine
 10
-9.62997351358091
 20
16.49526243043079
 30
0.0
 11
-5.12997351358091
 21
16.49526243043079
 31
0.0
  0
LINE
  5
62
330
1F
100
AcDbEntity
  8
1
  6
Continuous
 62
     7
100
AcDbLine
 10
-13.12997351358091
 20
-6.0047375695692
 30
0.0
 11
-13.12997351358091
 21
-4.5047375695692
 31
0.0
  0
LINE
  5
63
330
1F
100
AcDbEntity
  8
1
  6
Continuous
 62
     7
100
AcDbLine
 10
-10.12997351358091
 20
12.99526243043079
 30
0.0
 11
-10.12997351358091
 21
12.4952624304308
 31
0.0
  0
LINE
  5
64
330
1F
100
AcDbEntity
  8
1
  6
Continuous
 62
     7
100
AcDbLine
 10
-10.12997351358091
 20
11.24526243043079
 30
0.0
 11
-13.12997351358091
 21
11.24526243043079
 31
0.0
  0
LINE
  5
65
330
1F
100
AcDbEntity
  8
1
  6
Continuous
 62
     7
100
AcDbLine
 10
-13.12997351358091
 20
11.24526243043079
 30
0.0
 11
-13.12997351358091
 21
12.17026243043078
 31
0.0
  0
LINE
  5
66
330
1F
100
AcDbEntity
  8
1
  6
Continuous
 62
     7
100
AcDbLine
 10
-10.12997351358091
 20
11.24526243043079
 30
0.0
 11
-10.12997351358091
 21
2.4952624304308
 31
0.0
  0
LINE
  5
67
330
1F
100
AcDbEntity
  8
1
  6
Continuous
 62
     7
100
AcDbLine
 10
-10.12997351358091
 20
0.99526243043078
 30
0.0
 11
-13.12997351358091
 21
0.99526243043078
 31
0.0
  0
LINE
  5
68
330
1F
100
AcDbEntity
  8
1
  6
Continuous
 62
     7
100
AcDbLine
 10
-13.12997351358091
 20
0.99526243043078
 30
0.0
 11
-13.12997351358091
 21
2.82026243043079
 31
0.0
  0
LINE
  5
69
330
1F
100
AcDbEntity
  8
1
  6
Continuous
 62
     7
100
AcDbLine
 10
-10.12997351358091
 20
0.99526243043078
 30
0.0
 11
-10.12997351358091
 21
-4.5047375695692
 31
0.0
  0
LINE
  5
6A
330
1F
100
AcDbEntity
  8
1
  6
Continuous
 62
     7
100
AcDbLine
 10
-4.62997351358091
 20
12.4952624304308
 30
0.0
 11
-4.62997351358091
 21
12.99526243043079
 31
0.0
  0
LINE
  5
6B
330
1F
100
AcDbEntity
  8
1
  6
Continuous
 62
     7
100
AcDbLine
 10
-5.12997351358091
 20
16.49526243043079
 30
0.0
 11
-5.12997351358091
 21
13.49526243043079
 31
0.0
  0
LINE
  5
6C
330
1F
100
AcDbEntity
  8
1
  6
Continuous
 62
     7
100
AcDbLine
 10
-13.12997351358091
 20
-4.5047375695692
 30
0.0
 11
-13.12997351358091
 21
0.99526243043078
 31
0.0
  0
LINE
  5
6D
330
1F
100
AcDbEntity
  8
1
  6
Continuous
 62
     7
100
AcDbLine
 10
-10.12997351358091
 20
12.4952624304308
 30
0.0
 11
-10.12997351358091
 21
11.24526243043079
 31
0.0
  0
LINE
  5
6E
330
1F
100
AcDbEntity
  8
1
  6
Continuous
 62
     7
100
AcDbLine
 10
-10.12997351358091
 20
2.4952624304308
 30
0.0
 11
-10.12997351358091
 21
0.99526243043078
 31
0.0
  0
LINE
  5
6F
330
1F
100
AcDbEntity
  8
1
  6
Continuous
 62
     7
100
AcDbLine
 10
-13.12997351358091
 20
10.4952624304308
 30
0.0
 11
-13.12997351358091
 21
11.24526243043079
 31
0.0
  0
LINE
  5
70
330
1F
100
AcDbEntity
  8
1
  6
Continuous
 62
     7
100
AcDbLine
 10
-16.34997351358091
 20
2.04368955517698
 30
0.0
 11
-16.34997351358091
 21
1.31848998421209
 31
0.0
  0
LINE
  5
71
330
1F
100
AcDbEntity
  8
1
  6
Continuous
 62
     7
100
AcDbLine
 10
-16.3499735135809
 20
12.94683530568463
 30
0.0
 11
-16.34997351358091
 21
11.87026243043077
 31
0.0
  0
LINE
  5
72
330
1F
100
AcDbEntity
  8
1
  6
DOT_CENTER
 62
     2
100
AcDbLine
 10
7.85251990736917
 20
7.4952624304308
 30
0.0
 11
-9.1888192403929
 21
7.4952624304308
 31
0.0
  0
LINE
  5
73
330
1F
100
AcDbEntity
  8
1
  6
Continuous
 62
     7
100
AcDbLine
 10
-13.12997351358091
 20
2.82026243043079
 30
0.0
 11
-14.76997351358093
 21
2.82026243043079
 31
0.0
  0
LINE
  5
74
330
1F
100
AcDbEntity
  8
1
  6
Continuous
 62
     7
100
AcDbLine
 10
-14.76997351358093
 20
2.82026243043079
 30
0.0
 11
-14.76997351358093
 21
3.12026243043077
 31
0.0
  0
LINE
  5
75
330
1F
100
AcDbEntity
  8
1
  6
Continuous
 62
     7
100
AcDbLine
 10
-14.76997351358093
 20
3.12026243043077
 30
0.0
 11
-16.34997351358091
 21
3.12026243043077
 31
0.0
  0
LINE
  5
76
330
1F
100
AcDbEntity
  8
1
  6
Continuous
 62
     7
100
AcDbLine
 10
-16.34997351358091
 20
3.12026243043077
 30
0.0
 11
-16.34997351358091
 21
2.04368955517698
 31
0.0
  0
LINE
  5
77
330
1F
100
AcDbEntity
  8
1
  6
Continuous
 62
     7
100
AcDbLine
 10
-18.32997351358091
 20
1.14526243043078
 30
0.0
 11
-16.34997351358091
 21
1.31848998421209
 31
0.0
  0
LINE
  5
78
330
1F
100
AcDbEntity
  8
1
  6
Continuous
 62
     7
100
AcDbLine
 10
-18.32997351358091
 20
4.4952624304308
 30
0.0
 11
-18.32997351358091
 21
1.14526243043078
 31
0.0
  0
LINE
  5
79
330
1F
100
AcDbEntity
  8
1
  6
Continuous
 62
     7
100
AcDbLine
 10
-18.32997351358091
 20
10.4952624304308
 30
0.0
 11
-18.32997351358091
 21
13.84526243043077
 31
0.0
  0
LINE
  5
7A
330
1F
100
AcDbEntity
  8
1
  6
Continuous
 62
     7
100
AcDbLine
 10
-16.3499735135809
 20
13.67203487664945
 30
0.0
 11
-18.32997351358091
 21
13.84526243043077
 31
0.0
  0
LINE
  5
7B
330
1F
100
AcDbEntity
  8
1
  6
Continuous
 62
     7
100
AcDbLine
 10
-16.3499735135809
 20
13.67203487664945
 30
0.0
 11
-16.3499735135809
 21
12.94683530568463
 31
0.0
  0
LINE
  5
7C
330
1F
100
AcDbEntity
  8
1
  6
Continuous
 62
     7
100
AcDbLine
 10
-16.34997351358091
 20
11.87026243043077
 30
0.0
 11
-14.76997351358093
 21
11.87026243043077
 31
0.0
  0
LINE
  5
7D
330
1F
100
AcDbEntity
  8
1
  6
Continuous
 62
     7
100
AcDbLine
 10
-14.76997351358093
 20
11.87026243043077
 30
0.0
 11
-14.76997351358093
 21
12.17026243043078
 31
0.0
  0
LINE
  5
7E
330
1F
100
AcDbEntity
  8
1
  6
Continuous
 62
     7
100
AcDbLine
 10
-14.76997351358093
 20
12.17026243043078
 30
0.0
 11
-13.12997351358091
 21
12.17026243043078
 31
0.0
  0
LINE
  5
7F
330
1F
100
AcDbEntity
  8
1
  6
DOT_CENTER
 62
     2
100
AcDbLine
 10
-9.1888192403929
 20
7.4952624304308
 30
0.0
 11
-22.93664210398892
 21
7.4952624304308
 31
0.0
  0
LINE
  5
80
330
1F
100
AcDbEntity
  8
1
  6
Continuous
 62
     7
100
AcDbLine
 10
-10.12997351358091
 20
12.4952624304308
 30
0.0
 11
-10.12997351358091
 21
2.4952624304308
 31
0.0
  0
LINE
  5
81
330
1F
100
AcDbEntity
  8
1
  6
Continuous
 62
     7
100
AcDbLine
 10
-21.62997351358091
 20
4.4952624304308
 30
0.0
 11
-18.32997351358091
 21
4.4952624304308
 31
0.0
  0
LINE
  5
82
330
1F
100
AcDbEntity
  8
1
  6
Continuous
 62
     7
100
AcDbLine
 10
-22.12997351358091
 20
4.9952624304308
 30
0.0
 11
-21.62997351358091
 21
4.4952624304308
 31
0.0
  0
LINE
  5
83
330
1F
100
AcDbEntity
  8
1
  6
Continuous
 62
     7
100
AcDbLine
 10
-22.12997351358091
 20
9.9952624304308
 30
0.0
 11
-22.12997351358091
 21
4.9952624304308
 31
0.0
  0
LINE
  5
84
330
1F
100
AcDbEntity
  8
1
  6
Continuous
 62
     7
100
AcDbLine
 10
-21.62997351358091
 20
10.4952624304308
 30
0.0
 11
-21.62997351358091
 21
4.4952624304308
 31
0.0
  0
LINE
  5
85
330
1F
100
AcDbEntity
  8
1
  6
Continuous
 62
     7
100
AcDbLine
 10
-10.12997351358091
 20
10.4952624304308
 30
0.0
 11
-13.12997351358091
 21
10.4952624304308
 31
0.0
  0
LINE
  5
86
330
1F
100
AcDbEntity
  8
1
  6
Continuous
 62
     7
100
AcDbLine
 10
-21.62997351358091
 20
10.4952624304308
 30
0.0
 11
-22.12997351358091
 21
9.9952624304308
 31
0.0
  0
LINE
  5
87
330
1F
100
AcDbEntity
  8
1
  6
Continuous
 62
     2
100
AcDbLine
 10
-22.12997351358091
 20
4.9952624304308
 30
0.0
 11
-10.12997351358091
 21
4.9952624304308
 31
0.0
  0
LINE
  5
88
330
1F
100
AcDbEntity
  8
1
  6
Continuous
 62
     2
100
AcDbLine
 10
-22.12997351358091
 20
9.9952624304308
 30
0.0
 11
-10.12997351358091
 21
9.9952624304308
 31
0.0
  0
LINE
  5
89
330
1F
100
AcDbEntity
  8
1
  6
Continuous
 62
     7
100
AcDbLine
 10
-4.12997351358091
 20
2.4952624304308
 30
0.0
 11
-10.12997351358091
 21
2.4952624304308
 31
0.0
  0
LINE
  5
8A
330
1F
100
AcDbEntity
  8
1
  6
DASHED
 62
     2
100
AcDbLine
 10
-4.12997351358091
 20
5.79526243043078
 30
0.0
 11
-7.62997351358091
 21
5.79526243043078
 31
0.0
  0
LINE
  5
8B
330
1F
100
AcDbEntity
  8
1
  6
DASHED
 62
     2
100
AcDbLine
 10
-4.12997351358091
 20
9.19526243043079
 30
0.0
 11
-7.62997351358091
 21
9.19526243043079
 31
0.0
  0
LINE
  5
8C
330
1F
100
AcDbEntity
  8
1
  6
DASHED
 62
     2
100
AcDbLine
 10
-7.62997351358091
 20
4.79526243043078
 30
0.0
 11
-7.62997351358091
 21
10.19526243043079
 31
0.0
  0
LINE
  5
8D
330
1F
100
AcDbEntity
  8
1
  6
DASHED
 62
     2
100
AcDbLine
 10
-7.62997351358091
 20
10.19526243043079
 30
0.0
 11
-4.12997351358091
 21
10.19526243043079
 31
0.0
  0
LINE
  5
8E
330
1F
100
AcDbEntity
  8
1
  6
DASHED
 62
     2
100
AcDbLine
 10
-9.1888192403929
 20
7.4952624304308
 30
0.0
 11
-7.62997351358091
 21
10.19526243043079
 31
0.0
  0
LINE
  5
8F
330
1F
100
AcDbEntity
  8
1
  6
DASHED
 62
     2
100
AcDbLine
 10
-7.62997351358091
 20
4.79526243043078
 30
0.0
 11
-9.1888192403929
 21
7.4952624304308
 31
0.0
  0
LINE
  5
90
330
1F
100
AcDbEntity
  8
1
  6
DASHED
 62
     2
100
AcDbLine
 10
-4.12997351358091
 20
4.79526243043078
 30
0.0
 11
-7.62997351358091
 21
4.79526243043078
 31
0.0
  0
LINE
  5
91
330
1F
100
AcDbEntity
  8
1
  6
Continuous
 62
     7
100
AcDbLine
 10
-4.12997351358091
 20
12.4952624304308
 30
0.0
 11
-4.12997351358091
 21
2.4952624304308
 31
0.0
  0
LINE
  5
92
330
1F
100
AcDbEntity
  8
1
  6
Continuous
 62
     7
100
AcDbLine
 10
-10.12997351358091
 20
12.4952624304308
 30
0.0
 11
-4.62997351358091
 21
12.4952624304308
 31
0.0
  0
LINE
  5
93
330
1F
100
AcDbEntity
  8
1
  6
Continuous
 62
     7
100
AcDbLine
 10
-14.76997351358093
 20
2.82026243043079
 30
0.0
 11
-14.76997351358093
 21
2.463689555177
 31
0.0
  0
LINE
  5
94
330
1F
100
AcDbEntity
  8
1
  6
Continuous
 62
     7
100
AcDbLine
 10
-14.76997351358093
 20
12.17026243043078
 30
0.0
 11
-14.76997351358093
 21
12.73773822577346
 31
0.0
  0
LINE
  5
95
330
1F
100
AcDbEntity
  8
1
  6
Continuous
 62
     7
100
AcDbLine
 10
-13.8160408739123
 20
13.56899575612856
 30
0.0
 11
-14.76997351358093
 21
12.73773822577346
 31
0.0
  0
LINE
  5
96
330
1F
100
AcDbEntity
  8
1
  6
Continuous
 62
     7
100
AcDbLine
 10
-15.764187075954
 20
14.36104886805771
 30
0.0
 11
-15.12997351358091
 21
14.9952624304308
 31
0.0
  0
LINE
  5
97
330
1F
100
AcDbEntity
  8
1
  6
Continuous
 62
     7
100
AcDbLine
 10
-13.71575995120782
 20
1.40947599280389
 30
0.0
 11
-14.76997351358093
 21
2.463689555177
 31
0.0
  0
LINE
  5
98
330
1F
100
AcDbEntity
  8
1
  6
Continuous
 62
     7
100
AcDbLine
 10
-15.12997351358091
 20
-0.0047375695692
 30
0.0
 11
-15.12997351358091
 21
-4.5047375695692
 31
0.0
  0
LINE
  5
99
330
1F
100
AcDbEntity
  8
1
  6
Continuous
 62
     7
100
AcDbLine
 10
-15.76418707595401
 20
0.62947599280389
 30
0.0
 11
-15.12997351358091
 21
-0.0047375695692
 31
0.0
  0
LINE
  5
9A
330
1F
100
AcDbEntity
  8
1
  6
Continuous
 62
     7
100
AcDbLine
 10
5.12002648641907
 20
-2.5047375695692
 30
0.0
 11
5.12002648641907
 21
3.9952624304308
 31
0.0
  0
LINE
  5
9B
330
1F
100
AcDbEntity
  8
1
  6
Continuous
 62
     7
100
AcDbLine
 10
5.12002648641907
 20
20.49526243043079
 30
0.0
 11
-12.62997351358091
 21
20.49526243043079
 31
0.0
  0
LINE
  5
9C
330
1F
100
AcDbEntity
  8
1
  6
Continuous
 62
     7
100
AcDbLine
 10
-15.12997351358091
 20
17.99526243043079
 30
0.0
 11
-15.12997351358091
 21
14.9952624304308
 31
0.0
  0
LINE
  5
9D
330
1F
100
AcDbEntity
  8
1
  6
Continuous
 62
     7
100
AcDbLine
 10
-15.12997351358091
 20
-4.5047375695692
 30
0.0
 11
-13.37997351358093
 21
-4.5047375695692
 31
0.0
  0
LINE
  5
9E
330
1F
100
AcDbEntity
  8
1
  6
Continuous
 62
     7
100
AcDbLine
 10
3.12002648641907
 20
-4.5047375695692
 30
0.0
 11
5.12002648641907
 21
-2.5047375695692
 31
0.0
  0
LINE
  5
9F
330
1F
100
AcDbEntity
  8
1
  6
Continuous
 62
     7
100
AcDbLine
 10
5.12002648641907
 20
18.49526243043079
 30
0.0
 11
-12.62997351358091
 21
18.49526243043079
 31
0.0
  0
LINE
  5
A0
330
1F
100
AcDbEntity
  8
1
  6
Continuous
 62
     7
100
AcDbLine
 10
5.12002648641907
 20
18.49526243043079
 30
0.0
 11
5.12002648641907
 21
20.49526243043079
 31
0.0
  0
LINE
  5
A1
330
1F
100
AcDbEntity
  8
1
  6
Continuous
 62
     7
100
AcDbLine
 10
-13.12997351358091
 20
17.99526243043079
 30
0.0
 11
-13.12997351358091
 21
15.07683560784143
 31
0.0
  0
LINE
  5
A2
330
1F
100
AcDbEntity
  8
1
  6
Continuous
 62
     7
100
AcDbLine
 10
-13.12997351358091
 20
-4.5047375695692
 30
0.0
 11
-13.12997351358091
 21
-0.0047375695692
 31
0.0
  0
LINE
  5
A3
330
1F
100
AcDbEntity
  8
1
  6
Continuous
 62
     7
100
AcDbLine
 10
6.62002648641907
 20
10.9952624304308
 30
0.0
 11
6.62002648641907
 21
35.48821921978546
 31
0.0
  0
LINE
  5
A4
330
1F
100
AcDbEntity
  8
1
  6
Continuous
 62
     7
100
AcDbLine
 10
9.62002648641907
 20
48.98821921978546
 30
0.0
 11
14.35089529450634
 21
48.98821921978546
 31
0.0
  0
LINE
  5
A5
330
1F
100
AcDbEntity
  8
1
  6
Continuous
 62
     7
100
AcDbLine
 10
6.62002648641907
 20
45.98821921978546
 30
0.0
 11
6.62002648641907
 21
48.48821921978544
 31
0.0
  0
LINE
  5
A6
330
1F
100
AcDbEntity
  8
1
  6
Continuous
 62
     7
100
AcDbLine
 10
14.35089529450634
 20
48.98821921978546
 30
0.0
 11
17.64755033695216
 21
48.98821921978546
 31
0.0
  0
LINE
  5
A7
330
1F
100
AcDbEntity
  8
1
  6
Continuous
 62
     7
100
AcDbLine
 10
17.23967612183911
 20
45.1789322919072
 30
0.0
 11
18.13051325009665
 21
48.35880969723419
 31
0.0
  0
LINE
  5
A8
330
1F
100
AcDbEntity
  8
1
  6
Continuous
 62
     7
100
AcDbLine
 10
6.62002648641907
 20
35.48821921978546
 30
0.0
 11
6.62002648641907
 21
45.98821921978546
 31
0.0
  0
LINE
  5
A9
330
1F
100
AcDbEntity
  8
1
  6
Continuous
 62
     7
100
AcDbLine
 10
9.62002648641907
 20
32.48821921978546
 30
0.0
 11
14.99693305527597
 21
32.48821921978546
 31
0.0
  0
LINE
  5
AA
330
1F
100
AcDbEntity
  8
1
  6
Continuous
 62
     7
100
AcDbLine
 10
7.62002648641907
 20
35.48821921978546
 30
0.0
 11
7.62002648641907
 21
45.98821921978546
 31
0.0
  0
LINE
  5
AB
330
1F
100
AcDbEntity
  8
1
  6
Continuous
 62
     7
100
AcDbLine
 10
9.62002648641907
 20
47.98821921978546
 30
0.0
 11
14.35089529450634
 21
47.98821921978546
 31
0.0
  0
LINE
  5
AC
330
1F
100
AcDbEntity
  8
1
  6
Continuous
 62
     7
100
AcDbLine
 10
14.45068553965136
 20
38.93049017917817
 30
0.0
 11
16.27674917939485
 21
45.44869460119995
 31
0.0
  0
LINE
  5
AD
330
1F
100
AcDbEntity
  8
1
  6
Continuous
 62
     7
100
AcDbLine
 10
9.62002648641907
 20
33.48821921978546
 30
0.0
 11
14.99693305527597
 21
33.48821921978546
 31
0.0
  0
ARC
  5
AE
330
1F
100
AcDbEntity
  8
1
  6
Continuous
 62
     7
100
AcDbCircle
 10
17.81415798419281
 20
37.98821921978546
 30
0.0
 40
0.9999999999998908
100
AcDbArc
 50
164.3104834256023
 51
-89.58154630826017
  0
ARC
  5
AF
330
1F
100
AcDbEntity
  8
1
  6
Continuous
 62
     7
100
AcDbCircle
 10
-14.3499735135809
 20
12.94683530568462
 30
0.0
 40
1.999999999999998
100
AcDbArc
 50
135.0000000000002
 51
179.9999999999997
  0
ARC
  5
B0
330
1F
100
AcDbEntity
  8
1
  6
Continuous
 62
     7
100
AcDbCircle
 10
-14.34997351358091
 20
2.04368955517698
 30
0.0
 40
2.0
100
AcDbArc
 50
180.0
 51
-135.0000000000002
  0
ARC
  5
B1
330
1F
100
AcDbEntity
  8
1
  6
Continuous
 62
     7
100
AcDbCircle
 10
9.62002648641907
 20
45.98821921978546
 30
0.0
 40
3.0
100
AcDbArc
 50
90.0
 51
180.0
  0
ARC
  5
B2
330
1F
100
AcDbEntity
  8
1
  6
Continuous
 62
     7
100
AcDbCircle
 10
14.35089529450634
 20
45.98821921978546
 30
0.0
 40
3.000000000000004
100
AcDbArc
 50
-15.65012336363118
 51
90.0
  0
ARC
  5
B3
330
1F
100
AcDbEntity
  8
1
  6
Continuous
 62
     7
100
AcDbCircle
 10
17.81415798419281
 20
37.98821921978546
 30
0.0
 40
2.492967427003062
100
AcDbArc
 50
-128.8313325026446
 51
-89.8326204874579
  0
ARC
  5
B4
330
1F
100
AcDbEntity
  8
1
  6
Continuous
 62
     7
100
AcDbCircle
 10
14.99693305527597
 20
34.48821921978546
 30
0.0
 40
2.0
100
AcDbArc
 50
-90.0
 51
51.16866749735537
  0
ARC
  5
B5
330
1F
100
AcDbEntity
  8
1
  6
Continuous
 62
     7
100
AcDbCircle
 10
17.81415798419281
 20
37.98821921978546
 30
0.0
 40
2.492967427003084
100
AcDbArc
 50
164.3498766363687
 51
-128.8313325026446
  0
ARC
  5
B6
330
1F
100
AcDbEntity
  8
1
  6
Continuous
 62
     7
100
AcDbCircle
 10
9.62002648641907
 20
35.48821921978546
 30
0.0
 40
2.999999999999999
100
AcDbArc
 50
180.0
 51
-90.0
  0
ARC
  5
B7
330
1F
100
AcDbEntity
  8
1
  6
Continuous
 62
     7
100
AcDbCircle
 10
9.62002648641907
 20
35.48821921978546
 30
0.0
 40
1.999999999999999
100
AcDbArc
 50
180.0
 51
-90.0
  0
ARC
  5
B8
330
1F
100
AcDbEntity
  8
1
  6
Continuous
 62
     7
100
AcDbCircle
 10
9.62002648641907
 20
45.98821921978546
 30
0.0
 40
2.0
100
AcDbArc
 50
90.0
 51
180.0
  0
ARC
  5
B9
330
1F
100
AcDbEntity
  8
1
  6
Continuous
 62
     7
100
AcDbCircle
 10
14.35089529450634
 20
45.98821921978546
 30
0.0
 40
2.0
100
AcDbArc
 50
-15.65012336363119
 51
90.0
  0
ARC
  5
BA
330
1F
100
AcDbEntity
  8
1
  6
Continuous
 62
     7
100
AcDbCircle
 10
17.81415798419281
 20
37.98821921978546
 30
0.0
 40
3.492967427003079
100
AcDbArc
 50
164.3498766363687
 51
-128.8313325026446
  0
ARC
  5
BB
330
1F
100
AcDbEntity
  8
1
  6
Continuous
 62
     7
100
AcDbCircle
 10
14.99693305527597
 20
34.48821921978546
 30
0.0
 40
1.0
100
AcDbArc
 50
-90.0
 51
51.1686674973555
  0
SPLINE
  5
BC
330
1F
100
AcDbEntity
  8
1
  6
Continuous
 62
     7
100
AcDbSpline
210
0.0
220
0.0
230
1.0
 70
     8
 71
     3
 72
    21
 73
    17
 74
    15
 42
0.0000000001
 43
0.0000000001
 44
0.00000001
 40
0.0
 40
0.0
 40
0.0
 40
0.0
 40
0.2055941652648785
 40
0.3664905725465377
 40
0.5282493060459547
 40
0.6720983026135963
 40
0.7797807341074544
 40
0.8857064111210212
 40
0.988232723380543
 40
1.109598171382103
 40
1.203206969204872
 40
1.29300254424429
 40
1.416894134578877
 40
1.53205243308843
 40
1.636514903006332
 40
1.759431153385616
 40
1.759431153385616
 40
1.759431153385616
 40
1.759431153385616
 10
19.66518842715702
 20
59.27972205582874
 30
0.0
 10
19.71761748768586
 20
59.23614185727362
 30
0.0
 10
19.81107712641897
 20
59.1584561316132
 30
0.0
 10
20.01089854706785
 20
59.1259840115025
 30
0.0
 10
20.10880406114712
 20
59.25598954008092
 30
0.0
 10
20.23828729007895
 20
59.35086446658536
 30
0.0
 10
20.34580381691758
 20
59.28015175805956
 30
0.0
 10
20.44534965405288
 20
59.22176599876982
 30
0.0
 10
20.54796111468002
 20
59.2957880952762
 30
0.0
 10
20.6070500528077
 20
59.37166676973684
 30
0.0
 10
20.69528921412039
 20
59.45528192398248
 30
0.0
 10
20.79295181434737
 20
59.38186405075918
 30
0.0
 10
20.85289695669858
 20
59.29969688234448
 30
0.0
 10
20.94006626831946
 20
59.21000160346692
 30
0.0
 10
21.06381350260701
 20
59.22258272270099
 30
0.0
 10
21.12961661867771
 20
59.25967223163723
 30
0.0
 10
21.16518842715702
 20
59.27972205582874
 30
0.0
 11
19.66518842715702
 21
59.27972205582874
 31
0.0
 11
19.83669156875774
 21
59.16633937103055
 31
0.0
 11
19.99706104905196
 21
59.15332846536235
 31
0.0
 11
20.12141820889892
 21
59.25677499579297
 31
0.0
 11
20.24858849988906
 21
59.32400780700149
 31
0.0
 11
20.34709777878365
 21
59.28051725602663
 31
0.0
 11
20.44621721125996
 21
59.243159697804
 31
0.0
 11
20.53623081036379
 21
59.29224326615342
 31
0.0
 11
20.61930190853764
 21
59.38072357253179
 31
0.0
 11
20.69774466209706
 21
59.4318052859314
 31
0.0
 11
20.77700185010396
 21
59.38959695208726
 31
0.0
 11
20.85907790180722
 21
59.2967925993206
 31
0.0
 11
20.94927211293291
 21
59.22519345131569
 31
0.0
 11
21.0536976610185
 21
59.22797059523921
 31
0.0
 11
21.16518842715702
 21
59.27972205582874
 31
0.0
  0
ARC
  5
BD
330
1F
100
AcDbEntity
  8
1
  6
Continuous
 62
     7
100
AcDbCircle
 10
6.62002648641907
 20
48.98821921978546
 30
0.0
 40
1.5
100
AcDbArc
 50
90.0
 51
180.0
  0
ARC
  5
BE
330
1F
100
AcDbEntity
  8
1
  6
Continuous
 62
     7
100
AcDbCircle
 10
18.66518842715702
 20
37.98821921978546
 30
0.0
 40
2.5
100
AcDbArc
 50
-90.0
 51
0.0
  0
ARC
  5
BF
330
1F
100
AcDbEntity
  8
1
  6
Continuous
 62
     7
100
AcDbCircle
 10
17.64755033695216
 20
48.48821921978546
 30
0.0
 40
0.4999999999999585
100
AcDbArc
 50
-15.00000000000164
 51
90.0
  0
ARC
  5
C0
330
1F
100
AcDbEntity
  8
1
  6
Continuous
 62
     7
100
AcDbCircle
 10
18.66518842715702
 20
37.98821921978546
 30
0.0
 40
1.0
100
AcDbArc
 50
-90.0
 51
0.0
  0
ARC
  5
C1
330
1F
100
AcDbEntity
  8
1
  6
Continuous
 62
     7
100
AcDbCircle
 10
17.64755033695216
 20
48.48821921978546
 30
0.0
 40
1.999999999999823
100
AcDbArc
 50
-15.00000000000088
 51
90.0
  0
ARC
  5
C2
330
1F
100
AcDbEntity
  8
1
  6
Continuous
 62
     7
100
AcDbCircle
 10
7.12002648641907
 20
48.48821921978546
 30
0.0
 40
0.5
100
AcDbArc
 50
90.0
 51
-179.9999999999984
  0
ARC
  5
C3
330
1F
100
AcDbEntity
  8
1
  6
Continuous
 62
     7
100
AcDbCircle
 10
5.12002648641907
 20
-4.5047375695692
 30
0.0
 40
1.5
100
AcDbArc
 50
-90.0
 51
0.0
  0
ARC
  5
C4
330
1F
100
AcDbEntity
  8
1
  6
Continuous
 62
     7
100
AcDbCircle
 10
-21.87997351358091
 20
-4.5047375695692
 30
0.0
 40
1.5
100
AcDbArc
 50
180.0
 51
-90.0
  0
ARC
  5
C5
330
1F
100
AcDbEntity
  8
1
  6
Continuous
 62
     7
100
AcDbCircle
 10
-21.37997351358091
 20
-4.0047375695692
 30
0.0
 40
0.5
100
AcDbArc
 50
180.0
 51
-90.0
  0
ARC
  5
C6
330
1F
100
AcDbEntity
  8
1
  6
Continuous
 62
     7
100
AcDbCircle
 10
-5.12997351358091
 20
12.99526243043079
 30
0.0
 40
3.499999999999998
100
AcDbArc
 50
0.0
 51
90.0
  0
ARC
  5
C7
330
1F
100
AcDbEntity
  8
1
  6
Continuous
 62
     7
100
AcDbCircle
 10
-9.62997351358091
 20
12.99526243043079
 30
0.0
 40
3.500000000000002
100
AcDbArc
 50
90.0
 51
180.0
  0
ARC
  5
C8
330
1F
100
AcDbEntity
  8
1
  6
Continuous
 62
     7
100
AcDbCircle
 10
-9.62997351358091
 20
12.99526243043079
 30
0.0
 40
0.5
100
AcDbArc
 50
90.0
 51
180.0
  0
ARC
  5
C9
330
1F
100
AcDbEntity
  8
1
  6
Continuous
 62
     7
100
AcDbCircle
 10
-5.12997351358091
 20
12.99526243043079
 30
0.0
 40
0.5
100
AcDbArc
 50
0.0
 51
90.0
  0
ARC
  5
CA
330
1F
100
AcDbEntity
  8
1
  6
Continuous
 62
     7
100
AcDbCircle
 10
-15.12997351358091
 20
-0.0047375695692
 30
0.0
 40
2.0
100
AcDbArc
 50
0.0
 51
45.00000000000003
  0
ARC
  5
CB
330
1F
100
AcDbEntity
  8
1
  6
Continuous
 62
     7
100
AcDbCircle
 10
-15.12997351358091
 20
15.07683560784143
 30
0.0
 40
2.000000000000003
100
AcDbArc
 50
-48.93108456428337
 51
0.0
  0
ARC
  5
CC
330
1F
100
AcDbEntity
  8
1
  6
Continuous
 62
     7
100
AcDbCircle
 10
-12.62997351358091
 20
17.99526243043079
 30
0.0
 40
0.5
100
AcDbArc
 50
90.0
 51
180.0
  0
ARC
  5
CD
330
1F
100
AcDbEntity
  8
1
  6
Continuous
 62
     7
100
AcDbCircle
 10
-12.62997351358091
 20
17.99526243043079
 30
0.0
 40
2.5
100
AcDbArc
 50
90.0
 51
180.0
  0
DIMENSION
  5
D9
330
1F
100
AcDbEntity
  8
1
100
AcDbDimension
  2
*D1
 10
-22.12997351358091
 20
40.9415362282104
 30
0.0
 11
-8.73566479546072
 21
44.6915362282104
 31
0.0
 70
    32
  1
<>
 71
     5
 42
-1.0
 53
0.00013888888889
  3
ME10_DIM_10
100
AcDbAlignedDimension
 13
5.12002648641907
 23
48.48821921978546
 33
0.0
 14
-22.12997351358091
 24
9.9952624304308
 34
0.0
100
AcDbRotatedDimension
  0
DIMENSION
  5
E5
330
1F
100
AcDbEntity
  8
1
100
AcDbDimension
  2
*D2
 10
26.92420135609919
 20
-6.00473756956916
 30
0.0
 11
23.17420135609919
 21
1.17507902845749
 31
0.0
 70
    32
  1
<>
 71
     5
 42
-1.0
 53
90.0
  3
ME10_DIM_11
100
AcDbAlignedDimension
 13
7.85251990736917
 23
7.4952624304308
 33
0.0
 14
5.12002648641907
 24
-6.0047375695692
 34
0.0
 50
90.0
100
AcDbRotatedDimension
  0
DIMENSION
  5
F2
330
1F
100
AcDbEntity
  8
1
100
AcDbDimension
  2
*D3
 10
16.70076685238722
 20
10.9952624304308
 30
0.0
 11
12.95076685238722
 21
16.00296113307779
 31
0.0
 70
    32
  1
<>
 71
     5
 42
-1.0
 53
90.0
  3
ME10_DIM_12
100
AcDbAlignedDimension
 13
6.62002648641907
 23
3.9952624304308
 33
0.0
 14
5.12002648641907
 24
10.9952624304308
 34
0.0
 50
90.0
100
AcDbRotatedDimension
  0
DIMENSION
  5
FD
330
1F
100
AcDbEntity
  8
1
100
AcDbDimension
  2
*D4
 10
-33.4368652658489
 20
-4.5047375695692
 30
0.0
 11
-37.1868652658489
 21
8.01942914291824
 31
0.0
 70
    32
  1
<>
 71
     5
 42
-1.0
 53
90.0
  3
ME10_DIM_13
100
AcDbAlignedDimension
 13
-12.62997351358091
 23
20.49526243043079
 33
0.0
 14
-21.37997351358091
 24
-4.5047375695692
 34
0.0
 50
90.0
100
AcDbRotatedDimension
  0
DIMENSION
  5
108
330
1F
100
AcDbEntity
  8
1
100
AcDbDimension
  2
*D5
 10
-15.12997351358091
 20
31.1244165306796
 30
0.0
 11
-4.82905343620557
 21
34.8744165306796
 31
0.0
 70
    32
  1
<>
 71
     5
 42
-1.0
 53
0.00013888888889
  3
ME10_DIM_14
100
AcDbAlignedDimension
 13
5.12002648641907
 23
20.49526243043079
 33
0.0
 14
-15.12997351358091
 24
17.99526243043079
 34
0.0
100
AcDbRotatedDimension
  0
DIMENSION
  5
113
330
1F
100
AcDbEntity
  8
1
100
AcDbDimension
  2
*D6
 10
6.62002648641907
 20
-16.35707095489201
 30
0.0
 11
-1.30392136281473
 21
-12.60707095489201
 31
0.0
 70
    32
  1
<>
 71
     5
 42
-1.0
 53
0.00013888888889
  3
ME10_DIM_15
100
AcDbAlignedDimension
 13
-9.37997351358093
 23
-6.0047375695692
 33
0.0
 14
6.62002648641907
 24
-4.5047375695692
 34
0.0
100
AcDbRotatedDimension
  0
DIMENSION
  5
120
330
1F
100
AcDbEntity
  8
1
100
AcDbDimension
  2
*D7
 10
-9.37997351358093
 20
-16.35707095489201
 30
0.0
 11
-11.37997351358093
 21
-12.60707095489201
 31
0.0
 70
    32
  1
<>
 71
     5
 42
-1.0
 53
0.00013888888889
  3
ME10_DIM_16
100
AcDbAlignedDimension
 13
-13.37997351358093
 23
-4.5047375695692
 33
0.0
 14
-9.37997351358093
 24
-6.0047375695692
 34
0.0
100
AcDbRotatedDimension
  0
ENDSEC
  0
SECTION
  2
OBJECTS
  0
DICTIONARY
  5
C
330
0
100
AcDbDictionary
281
     1
  3
ACAD_GROUP
350
D
  3
ACAD_LAYOUT
350
1A
  3
ACAD_MLINESTYLE
350
17
  3
ACAD_PLOTSETTINGS
350
19
  3
ACAD_PLOTSTYLENAME
350
E
  0
DICTIONARY
  5
D
102
{ACAD_REACTORS
330
C
102
}
330
C
100
AcDbDictionary
281
     1
  0
DICTIONARY
  5
1A
102
{ACAD_REACTORS
330
C
102
}
330
C
100
AcDbDictionary
281
     1
  3
Layout1
350
1E
  3
Layout2
350
26
  3
Model
350
22
  0
DICTIONARY
  5
17
102
{ACAD_REACTORS
330
C
102
}
330
C
100
AcDbDictionary
281
     1
  3
Standard
350
18
  0
DICTIONARY
  5
19
102
{ACAD_REACTORS
330
C
102
}
330
C
100
AcDbDictionary
281
     1
  0
ACDBDICTIONARYWDFLT
  5
E
102
{ACAD_REACTORS
330
C
102
}
330
C
100
AcDbDictionary
281
     1
  3
Normal
350
F
100
AcDbDictionaryWithDefault
340
F
  0
LAYOUT
  5
1E
102
{ACAD_REACTORS
330
1A
102
}
330
1A
100
AcDbPlotSettings
  1

  2

  4

  6

 40
0.0
 41
0.0
 42
0.0
 43
0.0
 44
0.0
 45
0.0
 46
0.0
 47
0.0
 48
0.0
 49
0.0
140
0.0
141
0.0
142
1.0
143
1.0
 70
   688
 72
     0
 73
     0
 74
     5
  7

 75
    16
 76
     0
 77
     2
 78
   300
147
1.0
148
0.0
149
0.0
100
AcDbLayout
  1
Layout1
 70
     1
 71
     1
 10
0.0
 20
0.0
 11
0.0
 21
0.0
 12
0.0
 22
0.0
 32
0.0
 14
0.0
 24
0.0
 34
0.0
 15
0.0
 25
0.0
 35
0.0
146
0.0
 13
0.0
 23
0.0
 33
0.0
 16
1.0
 26
0.0
 36
0.0
 17
0.0
 27
1.0
 37
0.0
 76
     0
330
1B
  0
LAYOUT
  5
26
102
{ACAD_REACTORS
330
1A
102
}
330
1A
100
AcDbPlotSettings
  1

  2

  4

  6

 40
0.0
 41
0.0
 42
0.0
 43
0.0
 44
0.0
 45
0.0
 46
0.0
 47
0.0
 48
0.0
 49
0.0
140
0.0
141
0.0
142
1.0
143
1.0
 70
   688
 72
     0
 73
     0
 74
     5
  7

 75
    16
 76
     0
 77
     2
 78
   300
147
1.0
148
0.0
149
0.0
100
AcDbLayout
  1
Layout2
 70
     1
 71
     2
 10
0.0
 20
0.0
 11
0.0
 21
0.0
 12
0.0
 22
0.0
 32
0.0
 14
0.0
 24
0.0
 34
0.0
 15
0.0
 25
0.0
 35
0.0
146
0.0
 13
0.0
 23
0.0
 33
0.0
 16
1.0
 26
0.0
 36
0.0
 17
0.0
 27
1.0
 37
0.0
 76
     0
330
23
  0
LAYOUT
  5
22
102
{ACAD_REACTORS
330
1A
102
}
330
1A
100
AcDbPlotSettings
  1

  2

  4

  6

 40
0.0
 41
0.0
 42
0.0
 43
0.0
 44
0.0
 45
0.0
 46
0.0
 47
0.0
 48
0.0
 49
0.0
140
0.0
141
0.0
142
1.0
143
1.0
 70
  1712
 72
     0
 73
     0
 74
     0
  7

 75
     0
 76
     0
 77
     2
 78
   300
147
1.0
148
0.0
149
0.0
100
AcDbLayout
  1
Model
 70
     1
 71
     0
 10
0.0
 20
0.0
 11
0.0
 21
0.0
 12
0.0
 22
0.0
 32
0.0
 14
-38.9368652658489
 24
-18.35707095489201
 34
0.0
 15
28.92420135609919
 25
59.43948743251242
 35
0.0
146
0.0
 13
0.0
 23
0.0
 33
0.0
 16
1.0
 26
0.0
 36
0.0
 17
0.0
 27
1.0
 37
0.0
 76
     0
330
1F
  0
MLINESTYLE
  5
18
102
{ACAD_REACTORS
330
17
102
}
330
17
100
AcDbMlineStyle
  2
Standard
 70
     0
  3

 62
   256
 51
90.0
 52
90.0
 71
     2
 49
0.5
 62
   256
  6
BYLAYER
 49
-0.5
 62
   256
  6
BYLAYER
  0
ACDBPLACEHOLDER
  5
F
102
{ACAD_REACTORS
330
E
102
}
330
E
  0
ENDSEC
  0
EOF
