  0
SECTION
  2
HEADER
  9
$ACADVER
  1
AC1018
  9
$ACADMAINTVER
 70
     0
  9
$DWGCODEPAGE
  3
ANSI_1252
  9
$INSBASE
 10
0.0
 20
0.0
 30
0.0
  9
$EXTMIN
 10
-38.940924744809
 20
-18.3016485854447
 30
0.0
  9
$EXTMAX
 10
29.15794069203056
 20
63.3773633060815
 30
0.0
  9
$LIMMIN
 10
0.0
 20
0.0
  9
$LIMMAX
 10
12.0
 20
9.0
  9
$ORTHOMODE
 70
     0
  9
$REGENMODE
 70
     1
  9
$FILLMODE
 70
     1
  9
$QTEXTMODE
 70
     0
  9
$MIRRTEXT
 70
     1
  9
$LTSCALE
 40
1.0
  9
$ATTMODE
 70
     1
  9
$TEXTSIZE
 40
0.2
  9
$TRACEWID
 40
0.05
  9
$TEXTSTYLE
  7
Standard
  9
$CLAYER
  8
0
  9
$CELTYPE
  6
ByLayer
  9
$CECOLOR
 62
   256
  9
$CELTSCALE
 40
1.0
  9
$DISPSILH
 70
     0
  9
$DIMSCALE
 40
1.0
  9
$DIMASZ
 40
0.18
  9
$DIMEXO
 40
0.0625
  9
$DIMDLI
 40
0.38
  9
$DIMRND
 40
0.0
  9
$DIMDLE
 40
0.0
  9
$DIMEXE
 40
0.18
  9
$DIMTP
 40
0.0
  9
$DIMTM
 40
0.0
  9
$DIMTXT
 40
0.18
  9
$DIMCEN
 40
0.09
  9
$DIMTSZ
 40
0.0
  9
$DIMTOL
 70
     0
  9
$DIMLIM
 70
     0
  9
$DIMTIH
 70
     1
  9
$DIMTOH
 70
     1
  9
$DIMSE1
 70
     0
  9
$DIMSE2
 70
     0
  9
$DIMTAD
 70
     0
  9
$DIMZIN
 70
     0
  9
$DIMBLK
  1

  9
$DIMASO
 70
     1
  9
$DIMSHO
 70
     1
  9
$DIMPOST
  1

  9
$DIMAPOST
  1

  9
$DIMALT
 70
     0
  9
$DIMALTD
 70
     2
  9
$DIMALTF
 40
25.4
  9
$DIMLFAC
 40
1.0
  9
$DIMTOFL
 70
     0
  9
$DIMTVP
 40
0.0
  9
$DIMTIX
 70
     0
  9
$DIMSOXD
 70
     0
  9
$DIMSAH
 70
     0
  9
$DIMBLK1
  1

  9
$DIMBLK2
  1

  9
$DIMSTYLE
  2
Standard
  9
$DIMCLRD
 70
     0
  9
$DIMCLRE
 70
     0
  9
$DIMCLRT
 70
     0
  9
$DIMTFAC
 40
1.0
  9
$DIMGAP
 40
0.09
  9
$DIMJUST
 70
     0
  9
$DIMSD1
 70
     0
  9
$DIMSD2
 70
     0
  9
$DIMTOLJ
 70
     1
  9
$DIMTZIN
 70
     0
  9
$DIMALTZ
 70
     0
  9
$DIMALTTZ
 70
     0
  9
$DIMUPT
 70
     0
  9
$DIMDEC
 70
     4
  9
$DIMTDEC
 70
     4
  9
$DIMALTU
 70
     2
  9
$DIMALTTD
 70
     2
  9
$DIMTXSTY
  7
Standard
  9
$DIMAUNIT
 70
     0
  9
$DIMADEC
 70
     0
  9
$DIMALTRND
 40
0.0
  9
$DIMAZIN
 70
     0
  9
$DIMDSEP
 70
    46
  9
$DIMATFIT
 70
     3
  9
$DIMFRAC
 70
     0
  9
$DIMLDRBLK
  1

  9
$DIMLUNIT
 70
     2
  9
$DIMLWD
 70
    -2
  9
$DIMLWE
 70
    -2
  9
$DIMTMOVE
 70
     0
  9
$LUNITS
 70
     2
  9
$LUPREC
 70
     4
  9
$SKETCHINC
 40
0.1
  9
$FILLETRAD
 40
0.5
  9
$AUNITS
 70
     0
  9
$AUPREC
 70
     0
  9
$MENU
  1
.
  9
$ELEVATION
 40
0.0
  9
$PELEVATION
 40
0.0
  9
$THICKNESS
 40
0.0
  9
$LIMCHECK
 70
     0
  9
$CHAMFERA
 40
0.5
  9
$CHAMFERB
 40
0.5
  9
$CHAMFERC
 40
1.0
  9
$CHAMFERD
 40
0.0
  9
$SKPOLY
 70
     0
  9
$TDCREATE
 40
2454428.415433924
  9
$TDUCREATE
 40
2454428.373767257
  9
$TDUPDATE
 40
2454428.415433935
  9
$TDUUPDATE
 40
2454428.373767268
  9
$TDINDWG
 40
0.0000000116
  9
$TDUSRTIMER
 40
0.0000000116
  9
$USRTIMER
 70
     1
  9
$ANGBASE
 50
0.0
  9
$ANGDIR
 70
     0
  9
$PDMODE
 70
     0
  9
$PDSIZE
 40
0.0
  9
$PLINEWID
 40
0.0
  9
$SPLFRAME
 70
     0
  9
$SPLINETYPE
 70
     6
  9
$SPLINESEGS
 70
     8
  9
$HANDSEED
  5
120
  9
$SURFTAB1
 70
     6
  9
$SURFTAB2
 70
     6
  9
$SURFTYPE
 70
     6
  9
$SURFU
 70
     6
  9
$SURFV
 70
     6
  9
$UCSBASE
  2

  9
$UCSNAME
  2

  9
$UCSORG
 10
0.0
 20
0.0
 30
0.0
  9
$UCSXDIR
 10
1.0
 20
0.0
 30
0.0
  9
$UCSYDIR
 10
0.0
 20
1.0
 30
0.0
  9
$UCSORTHOREF
  2

  9
$UCSORTHOVIEW
 70
     0
  9
$UCSORGTOP
 10
0.0
 20
0.0
 30
0.0
  9
$UCSORGBOTTOM
 10
0.0
 20
0.0
 30
0.0
  9
$UCSORGLEFT
 10
0.0
 20
0.0
 30
0.0
  9
$UCSORGRIGHT
 10
0.0
 20
0.0
 30
0.0
  9
$UCSORGFRONT
 10
0.0
 20
0.0
 30
0.0
  9
$UCSORGBACK
 10
0.0
 20
0.0
 30
0.0
  9
$PUCSBASE
  2

  9
$PUCSNAME
  2

  9
$PUCSORG
 10
0.0
 20
0.0
 30
0.0
  9
$PUCSXDIR
 10
1.0
 20
0.0
 30
0.0
  9
$PUCSYDIR
 10
0.0
 20
1.0
 30
0.0
  9
$PUCSORTHOREF
  2

  9
$PUCSORTHOVIEW
 70
     0
  9
$PUCSORGTOP
 10
0.0
 20
0.0
 30
0.0
  9
$PUCSORGBOTTOM
 10
0.0
 20
0.0
 30
0.0
  9
$PUCSORGLEFT
 10
0.0
 20
0.0
 30
0.0
  9
$PUCSORGRIGHT
 10
0.0
 20
0.0
 30
0.0
  9
$PUCSORGFRONT
 10
0.0
 20
0.0
 30
0.0
  9
$PUCSORGBACK
 10
0.0
 20
0.0
 30
0.0
  9
$USERI1
 70
     0
  9
$USERI2
 70
     0
  9
$USERI3
 70
     0
  9
$USERI4
 70
     0
  9
$USERI5
 70
     0
  9
$USERR1
 40
14.5
  9
$USERR2
 40
0.0
  9
$USERR3
 40
0.0
  9
$USERR4
 40
0.0
  9
$USERR5
 40
0.0
  9
$WORLDVIEW
 70
     1
  9
$SHADEDGE
 70
     3
  9
$SHADEDIF
 70
    70
  9
$TILEMODE
 70
     1
  9
$MAXACTVP
 70
    64
  9
$PINSBASE
 10
0.0
 20
0.0
 30
0.0
  9
$PLIMCHECK
 70
     0
  9
$PEXTMIN
 10
1.00000000000000E+20
 20
1.00000000000000E+20
 30
1.00000000000000E+20
  9
$PEXTMAX
 10
-1.00000000000000E+20
 20
-1.00000000000000E+20
 30
-1.00000000000000E+20
  9
$PLIMMIN
 10
0.0
 20
0.0
  9
$PLIMMAX
 10
12.0
 20
9.0
  9
$UNITMODE
 70
     0
  9
$VISRETAIN
 70
     1
  9
$PLINEGEN
 70
     0
  9
$PSLTSCALE
 70
     1
  9
$TREEDEPTH
 70
  3020
  9
$CMLSTYLE
  2
Standard
  9
$CMLJUST
 70
     0
  9
$CMLSCALE
 40
1.0
  9
$PROXYGRAPHICS
 70
     1
  9
$MEASUREMENT
 70
     1
  9
$CELWEIGHT
370
    -1
  9
$ENDCAPS
280
     0
  9
$JOINSTYLE
280
     0
  9
$LWDISPLAY
290
     0
  9
$INSUNITS
 70
     1
  9
$HYPERLINKBASE
  1

  9
$STYLESHEET
  1

  9
$XEDIT
290
     1
  9
$CEPSNTYPE
380
     0
  9
$PSTYLEMODE
290
     1
  9
$FINGERPRINTGUID
  2
{C50FE1E0-C84C-4085-BACA-1937E6FB429F}
  9
$VERSIONGUID
  2
{FAEB1C32-E019-11D5-929B-00C0DF256EC4}
  9
$EXTNAMES
290
     1
  9
$PSVPSCALE
 40
0.0
  9
$OLESTARTUP
290
     0
  9
$SORTENTS
280
   127
  9
$INDEXCTL
280
     0
  9
$HIDETEXT
280
     1
  9
$XCLIPFRAME
290
     0
  9
$HALOGAP
280
     0
  9
$OBSCOLOR
 70
   257
  9
$OBSLTYPE
280
     0
  9
$INTERSECTIONDISPLAY
280
     0
  9
$INTERSECTIONCOLOR
 70
   257
  9
$DIMASSOC
280
     2
  9
$PROJECTNAME
  1

  0
ENDSEC
  0
SECTION
  2
CLASSES
  0
CLASS
  1
ACDBDICTIONARYWDFLT
  2
AcDbDictionaryWithDefault
  3
ObjectDBX Classes
 90
        0
 91
        3
280
     0
281
     0
  0
CLASS
  1

  2
exOdDbSpline
  3

 90
        0
 91
        3
280
     0
281
     1
  0
ENDSEC
  0
SECTION
  2
TABLES
  0
TABLE
  2
VPORT
  5
8
330
0
100
AcDbSymbolTable
 70
     1
  0
VPORT
  5
29
330
8
100
AcDbSymbolTableRecord
100
AcDbViewportTableRecord
  2
*Active
 70
     0
 10
0.0
 20
0.0
 11
1.0
 21
1.0
 12
-4.89149202638922
 22
22.5378573603184
 13
0.0
 23
0.0
 14
0.5
 24
0.5
 15
0.5
 25
0.5
 16
0.0
 26
0.0
 36
1.0
 17
0.0
 27
0.0
 37
0.0
 40
89.84691308067883
 41
1.60267857142857
 42
50.0
 43
0.0
 44
0.0
 50
0.0
 51
0.0
 71
     0
 72
   100
 73
     1
 74
     3
 75
     0
 76
     0
 77
     0
 78
     0
281
     0
 65
     1
110
0.0
120
0.0
130
0.0
111
1.0
121
0.0
131
0.0
112
0.0
122
1.0
132
0.0
 79
     0
146
0.0
  0
ENDTAB
  0
TABLE
  2
LTYPE
  5
5
330
0
100
AcDbSymbolTable
 70
     8
  0
LTYPE
  5
14
330
5
100
AcDbSymbolTableRecord
100
AcDbLinetypeTableRecord
  2
ByBlock
 70
     0
  3

 72
    65
 73
     0
 40
0.0
  0
LTYPE
  5
15
330
5
100
AcDbSymbolTableRecord
100
AcDbLinetypeTableRecord
  2
ByLayer
 70
     0
  3

 72
    65
 73
     0
 40
0.0
  0
LTYPE
  5
16
330
5
100
AcDbSymbolTableRecord
100
AcDbLinetypeTableRecord
  2
Continuous
 70
     0
  3
Solid line
 72
    65
 73
     0
 40
0.0
  0
LTYPE
  5
2A
330
5
100
AcDbSymbolTableRecord
100
AcDbLinetypeTableRecord
  2
DASHED
 70
     0
  3
Dashed
 72
    65
 73
     2
 40
15.0
 49
7.0
 74
     0
 49
-8.0
 74
     0
  0
LTYPE
  5
2B
330
5
100
AcDbSymbolTableRecord
100
AcDbLinetypeTableRecord
  2
DOTTED
 70
     0
  3
Dotted
 72
    65
 73
     2
 40
1.0
 49
0.0
 74
     0
 49
-1.0
 74
     0
  0
LTYPE
  5
2C
330
5
100
AcDbSymbolTableRecord
100
AcDbLinetypeTableRecord
  2
DOT_CENTER
 70
     0
  3
Dot_Center
 72
    65
 73
     4
 40
14.0
 49
12.0
 74
     0
 49
-1.0
 74
     0
 49
0.0
 74
     0
 49
-1.0
 74
     0
  0
LTYPE
  5
2D
330
5
100
AcDbSymbolTableRecord
100
AcDbLinetypeTableRecord
  2
LONG_DASHED
 70
     0
  3
Long_Dashed
 72
    65
 73
     2
 40
15.0
 49
10.0
 74
     0
 49
-5.0
 74
     0
  0
LTYPE
  5
2E
330
5
100
AcDbSymbolTableRecord
100
AcDbLinetypeTableRecord
  2
DASH_CENTER
 70
     0
  3
Dash_Center
 72
    65
 73
     4
 40
14.0
 49
11.0
 74
     0
 49
-1.0
 74
     0
 49
1.0
 74
     0
 49
-1.0
 74
     0
  0
LTYPE
  5
2F
330
5
100
AcDbSymbolTableRecord
100
AcDbLinetypeTableRecord
  2
PHANTOM
 70
     0
  3
Phantom
 72
    65
 73
     6
 40
13.0
 49
10.0
 74
     0
 49
-1.0
 74
     0
 49
0.0
 74
     0
 49
-1.0
 74
     0
 49
0.0
 74
     0
 49
-1.0
 74
     0
  0
LTYPE
  5
30
330
5
100
AcDbSymbolTableRecord
100
AcDbLinetypeTableRecord
  2
CENTER_DASH_DASH
 70
     0
  3
Center_Dash_Dash
 72
    65
 73
     6
 40
14.0
 49
9.0
 74
     0
 49
-1.0
 74
     0
 49
1.0
 74
     0
 49
-1.0
 74
     0
 49
1.0
 74
     0
 49
-1.0
 74
     0
  0
ENDTAB
  0
TABLE
  2
LAYER
  5
2
330
0
100
AcDbSymbolTable
 70
     2
  0
LAYER
  5
10
330
2
100
AcDbSymbolTableRecord
100
AcDbLayerTableRecord
  2
0
 70
     0
 62
     7
  6
Continuous
370
    -3
390
F
  0
LAYER
  5
31
330
2
100
AcDbSymbolTableRecord
100
AcDbLayerTableRecord
  2
1
 70
     0
 62
     7
  6
Continuous
370
    -3
390
F
  0
ENDTAB
  0
TABLE
  2
STYLE
  5
3
330
0
100
AcDbSymbolTable
 70
     2
  0
STYLE
  5
11
330
3
100
AcDbSymbolTableRecord
100
AcDbTextStyleTableRecord
  2
Standard
 70
     0
 40
0.0
 41
1.0
 50
0.0
 71
     0
 42
0.2
  3
txt
  4

  0
STYLE
  5
D3
330
3
100
AcDbSymbolTableRecord
100
AcDbTextStyleTableRecord
  2
CONVERTER_11
 70
     0
 40
0.0
 41
0.9
 50
0.0
 71
     0
 42
0.2
  3
txt.shx
  4

  0
ENDTAB
  0
TABLE
  2
VIEW
  5
6
330
0
100
AcDbSymbolTable
 70
     0
  0
ENDTAB
  0
TABLE
  2
UCS
  5
7
330
0
100
AcDbSymbolTable
 70
     0
  0
ENDTAB
  0
TABLE
  2
APPID
  5
9
330
0
100
AcDbSymbolTable
 70
     1
  0
APPID
  5
12
330
9
100
AcDbSymbolTableRecord
100
AcDbRegAppTableRecord
  2
ACAD
 70
     0
  0
ENDTAB
  0
TABLE
  2
DIMSTYLE
  5
A
330
0
100
AcDbSymbolTable
 70
     8
100
AcDbDimStyleTable
  0
DIMSTYLE
105
27
330
A
100
AcDbSymbolTableRecord
100
AcDbDimStyleTableRecord
  2
Standard
 70
     0
340
11
  0
DIMSTYLE
105
D7
102
{ACAD_REACTORS
330
D8
102
}
330
A
100
AcDbSymbolTableRecord
100
AcDbDimStyleTableRecord
  2
ME10_DIM_10
 70
     0
 41
3.5
 42
0.0
 44
2.0
 73
     0
 74
     0
 77
     1
 78
     8
140
3.5
147
2.0
172
     1
173
     1
176
     2
177
     2
178
     2
271
     2
340
D3
  0
DIMSTYLE
105
E3
102
{ACAD_REACTORS
330
E4
102
}
330
A
100
AcDbSymbolTableRecord
100
AcDbDimStyleTableRecord
  2
ME10_DIM_11
 70
     0
 41
3.5
 42
0.0
 44
2.0
 73
     0
 74
     0
 77
     1
 78
     8
140
3.5
147
2.0
172
     1
173
     1
176
     2
177
     2
178
     2
271
     2
340
D3
  0
DIMSTYLE
105
F0
102
{ACAD_REACTORS
330
F1
102
}
330
A
100
AcDbSymbolTableRecord
100
AcDbDimStyleTableRecord
  2
ME10_DIM_12
 70
     0
  3
ø<>
 41
3.5
 42
0.0
 44
2.0
 73
     0
 74
     0
 77
     1
 78
     8
140
3.5
147
2.0
172
     1
173
     1
176
     2
177
     2
178
     2
271
     2
340
D3
  0
DIMSTYLE
105
FB
102
{ACAD_REACTORS
330
FC
102
}
330
A
100
AcDbSymbolTableRecord
100
AcDbDimStyleTableRecord
  2
ME10_DIM_13
 70
     0
 41
3.5
 42
0.0
 44
2.0
 73
     0
 74
     0
 77
     1
 78
     8
140
3.5
147
2.0
172
     1
173
     1
176
     2
177
     2
178
     2
271
     2
340
D3
  0
DIMSTYLE
105
106
102
{ACAD_REACTORS
330
107
102
}
330
A
100
AcDbSymbolTableRecord
100
AcDbDimStyleTableRecord
  2
ME10_DIM_14
 70
     0
 41
3.5
 42
0.0
 44
2.0
 73
     0
 74
     0
 77
     1
 78
     8
140
3.5
147
2.0
172
     1
173
     1
176
     2
177
     2
178
     2
271
     2
340
D3
  0
DIMSTYLE
105
111
102
{ACAD_REACTORS
330
112
102
}
330
A
100
AcDbSymbolTableRecord
100
AcDbDimStyleTableRecord
  2
ME10_DIM_15
 70
     0
 41
3.5
 42
0.0
 44
2.0
 73
     0
 74
     0
 77
     1
 78
     8
140
3.5
147
2.0
172
     1
173
     1
176
     2
177
     2
178
     2
271
     2
340
D3
  0
DIMSTYLE
105
11E
102
{ACAD_REACTORS
330
11F
102
}
330
A
100
AcDbSymbolTableRecord
100
AcDbDimStyleTableRecord
  2
ME10_DIM_16
 70
     0
 41
3.5
 42
0.0
 44
2.0
 73
     0
 74
     0
 77
     1
 78
     8
140
3.5
147
2.0
172
     1
173
     1
176
     2
177
     2
178
     2
271
     2
340
D3
  0
ENDTAB
  0
TABLE
  2
BLOCK_RECORD
  5
1
330
0
100
AcDbSymbolTable
 70
     8
  0
BLOCK_RECORD
  5
1F
330
1
100
AcDbSymbolTableRecord
100
AcDbBlockTableRecord
  2
*Model_Space
340
22
  0
BLOCK_RECORD
  5
1B
330
1
100
AcDbSymbolTableRecord
100
AcDbBlockTableRecord
  2
*Paper_Space
340
1E
  0
BLOCK_RECORD
  5
23
330
1
100
AcDbSymbolTableRecord
100
AcDbBlockTableRecord
  2
*Paper_Space0
340
26
  0
BLOCK_RECORD
  5
CD
330
1
100
AcDbSymbolTableRecord
100
AcDbBlockTableRecord
  2
*D1
340
0
  0
BLOCK_RECORD
  5
D9
330
1
100
AcDbSymbolTableRecord
100
AcDbBlockTableRecord
  2
*D2
340
0
  0
BLOCK_RECORD
  5
E5
330
1
100
AcDbSymbolTableRecord
100
AcDbBlockTableRecord
  2
*D3
340
0
  0
BLOCK_RECORD
  5
F2
330
1
100
AcDbSymbolTableRecord
100
AcDbBlockTableRecord
  2
*D4
340
0
  0
BLOCK_RECORD
  5
FD
330
1
100
AcDbSymbolTableRecord
100
AcDbBlockTableRecord
  2
*D5
340
0
  0
BLOCK_RECORD
  5
108
330
1
100
AcDbSymbolTableRecord
100
AcDbBlockTableRecord
  2
*D6
340
0
  0
BLOCK_RECORD
  5
113
330
1
100
AcDbSymbolTableRecord
100
AcDbBlockTableRecord
  2
*D7
340
0
  0
ENDTAB
  0
ENDSEC
  0
SECTION
  2
BLOCKS
  0
BLOCK
  5
20
330
1F
100
AcDbEntity
  8
0
100
AcDbBlockBegin
  2
*Model_Space
 70
     0
 71
     0
 10
0.0
 20
0.0
 30
0.0
  3
*Model_Space
  1

  0
ENDBLK
  5
21
330
1F
100
AcDbEntity
  8
0
100
AcDbBlockEnd
  0
BLOCK
  5
1C
330
1B
100
AcDbEntity
 67
     1
  8
0
100
AcDbBlockBegin
  2
*Paper_Space
 70
     0
 71
     0
 10
0.0
 20
0.0
 30
0.0
  3
*Paper_Space
  1

  0
ENDBLK
  5
1D
330
1B
100
AcDbEntity
 67
     1
  8
0
100
AcDbBlockEnd
  0
BLOCK
  5
24
330
23
100
AcDbEntity
  8
0
100
AcDbBlockBegin
  2
*Paper_Space0
 70
     0
 71
     0
 10
0.0
 20
0.0
 30
0.0
  3
*Paper_Space0
  1

  0
ENDBLK
  5
25
330
23
100
AcDbEntity
  8
0
100
AcDbBlockEnd
  0
BLOCK
  5
D5
330
CD
100
AcDbEntity
  8
0
100
AcDbBlockBegin
  2
*D1
 70
     1
 71
     0
 10
0.0
 20
0.0
 30
0.0
  3
*D1
  1

  0
LINE
  5
CE
330
CD
100
AcDbEntity
  8
1
  6
Continuous
 62
     2
100
AcDbLine
 10
5.34073168491924
 20
57.8773633060815
 30
0.0
 11
-21.90926831508074
 21
57.8773633060815
 31
0.0
  0
LINE
  5
CF
330
CD
100
AcDbEntity
  8
1
  6
Continuous
 62
     2
100
AcDbLine
 10
-21.90926831508074
 20
10.05068479987811
 30
0.0
 11
-21.90926831508074
 21
59.8773633060815
 31
0.0
  0
LINE
  5
D0
330
CD
100
AcDbEntity
  8
1
  6
Continuous
 62
     2
100
AcDbLine
 10
5.34073168491924
 20
35.55068479987813
 30
0.0
 11
5.34073168491924
 21
59.8773633060815
 31
0.0
  0
SOLID
  5
D1
330
CD
100
AcDbEntity
  8
1
 62
     2
100
AcDbTrace
 10
1.84073168491924
 20
57.41657956452561
 30
0.0
 11
1.84073168491924
 21
58.33814704763738
 31
0.0
 12
5.34073168491924
 22
57.8773633060815
 32
0.0
 13
5.34073168491924
 23
57.8773633060815
 33
0.0
  0
SOLID
  5
D2
330
CD
100
AcDbEntity
  8
1
 62
     2
100
AcDbTrace
 10
-18.40926831508074
 20
58.33814704763738
 30
0.0
 11
-18.40926831508074
 21
57.41657956452561
 31
0.0
 12
-21.90926831508074
 22
57.8773633060815
 32
0.0
 13
-21.90926831508074
 23
57.8773633060815
 33
0.0
  0
MTEXT
  5
D4
330
CD
100
AcDbEntity
  8
1
 62
     2
100
AcDbMText
 10
-15.88132722834396
 20
59.8773633060815
 30
0.0
 40
3.5
 41
0.0
 71
     7
 72
     1
  1
27.25
  7
CONVERTER_11
 11
0.9999999999970621
 21
2.424068405545307E-6
 31
0.0
 73
     1
 44
0.60024009603842
  0
ENDBLK
  5
D6
330
CD
100
AcDbEntity
  8
0
100
AcDbBlockEnd
  0
BLOCK
  5
E1
330
D9
100
AcDbEntity
  8
0
100
AcDbBlockBegin
  2
*D2
 70
     1
 71
     0
 10
0.0
 20
0.0
 30
0.0
  3
*D2
  1

  0
LINE
  5
DA
330
D9
100
AcDbEntity
  8
1
  6
Continuous
 62
     2
100
AcDbLine
 10
27.15794069203056
 20
-5.94931520012189
 30
0.0
 11
27.15794069203056
 21
7.55068479987811
 31
0.0
  0
LINE
  5
DB
330
D9
100
AcDbEntity
  8
1
  6
Continuous
 62
     2
100
AcDbLine
 10
8.07322510586934
 20
7.55068479987811
 30
0.0
 11
14.67035725475524
 21
7.55068479987811
 31
0.0
  0
LINE
  5
DC
330
D9
100
AcDbEntity
  8
1
  6
Continuous
 62
     2
100
AcDbLine
 10
17.69938617967734
 20
7.55068479987811
 30
0.0
 11
29.15794069203056
 21
7.55068479987811
 31
0.0
  0
LINE
  5
DD
330
D9
100
AcDbEntity
  8
1
  6
Continuous
 62
     2
100
AcDbLine
 10
5.34073168491924
 20
-5.94931520012189
 30
0.0
 11
29.15794069203056
 21
-5.94931520012189
 31
0.0
  0
SOLID
  5
DE
330
D9
100
AcDbEntity
  8
1
 62
     2
100
AcDbTrace
 10
26.69715695047467
 20
-2.44931520012189
 30
0.0
 11
27.61872443358645
 21
-2.44931520012189
 31
0.0
 12
27.15794069203056
 22
-5.94931520012189
 32
0.0
 13
27.15794069203056
 23
-5.94931520012189
 33
0.0
  0
SOLID
  5
DF
330
D9
100
AcDbEntity
  8
1
 62
     2
100
AcDbTrace
 10
27.61872443358644
 20
4.05068479987811
 30
0.0
 11
26.69715695047467
 21
4.05068479987811
 31
0.0
 12
27.15794069203056
 22
7.55068479987811
 32
0.0
 13
27.15794069203056
 23
7.55068479987811
 33
0.0
  0
MTEXT
  5
E0
330
D9
100
AcDbEntity
  8
1
 62
     2
100
AcDbMText
 10
25.15794069203056
 20
-2.83971260639989
 30
0.0
 40
3.5
 41
0.0
 71
     7
 72
     1
  1
13.5
  7
CONVERTER_11
 11
0.0
 21
1.0
 31
0.0
 73
     1
 44
0.60024009603842
  0
ENDBLK
  5
E2
330
D9
100
AcDbEntity
  8
0
100
AcDbBlockEnd
  0
BLOCK
  5
EE
330
E5
100
AcDbEntity
  8
0
100
AcDbBlockBegin
  2
*D3
 70
     1
 71
     0
 10
0.0
 20
0.0
 30
0.0
  3
*D3
  1

  0
LINE
  5
E6
330
E5
100
AcDbEntity
  8
1
  6
Continuous
 62
     2
100
AcDbLine
 10
16.61459001105168
 20
4.05068479987811
 30
0.0
 11
16.61459001105168
 21
-4.1342354125885
 31
0.0
  0
LINE
  5
E7
330
E5
100
AcDbEntity
  8
1
  6
Continuous
 62
     2
100
AcDbLine
 10
16.61459001105168
 20
4.05068479987811
 30
0.0
 11
16.61459001105168
 21
11.05068479987811
 31
0.0
  0
LINE
  5
E8
330
E5
100
AcDbEntity
  8
1
  6
Continuous
 62
     2
100
AcDbLine
 10
16.61459001105168
 20
18.05068479987811
 30
0.0
 11
16.61459001105168
 21
11.05068479987811
 31
0.0
  0
LINE
  5
E9
330
E5
100
AcDbEntity
  8
1
  6
Continuous
 62
     2
100
AcDbLine
 10
5.34073168491924
 20
11.05068479987811
 30
0.0
 11
18.61459001105168
 21
11.05068479987811
 31
0.0
  0
LINE
  5
EA
330
E5
100
AcDbEntity
  8
1
  6
Continuous
 62
     2
100
AcDbLine
 10
6.84073168491924
 20
4.05068479987811
 30
0.0
 11
18.61459001105168
 21
4.05068479987811
 31
0.0
  0
SOLID
  5
EB
330
E5
100
AcDbEntity
  8
1
 62
     2
100
AcDbTrace
 10
16.1538062694958
 20
14.55068479987811
 30
0.0
 11
17.07537375260757
 21
14.55068479987811
 31
0.0
 12
16.61459001105168
 22
11.05068479987811
 32
0.0
 13
16.61459001105168
 23
11.05068479987811
 33
0.0
  0
SOLID
  5
EC
330
E5
100
AcDbEntity
  8
1
 62
     2
100
AcDbTrace
 10
17.07537375260756
 20
0.55068479987811
 30
0.0
 11
16.1538062694958
 21
0.55068479987811
 31
0.0
 12
16.61459001105168
 22
4.05068479987811
 32
0.0
 13
16.61459001105168
 23
4.05068479987811
 33
0.0
  0
MTEXT
  5
ED
330
E5
100
AcDbEntity
  8
1
 62
     2
100
AcDbMText
 10
14.61459001105168
 20
-2.80423541258849
 30
0.0
 40
3.5
 41
0.0
 71
     7
 72
     1
  1
\C2;ø\C2;7
  7
CONVERTER_11
 11
0.0
 21
1.0
 31
0.0
 73
     1
 44
0.60024009603842
  0
ENDBLK
  5
EF
330
E5
100
AcDbEntity
  8
0
100
AcDbBlockEnd
  0
BLOCK
  5
F9
330
F2
100
AcDbEntity
  8
0
100
AcDbBlockBegin
  2
*D4
 70
     1
 71
     0
 10
0.0
 20
0.0
 30
0.0
  3
*D4
  1

  0
LINE
  5
F3
330
F2
100
AcDbEntity
  8
1
  6
Continuous
 62
     2
100
AcDbLine
 10
-33.440924744809
 20
-4.44931520012189
 30
0.0
 11
-33.440924744809
 21
20.5506847998781
 31
0.0
  0
LINE
  5
F4
330
F2
100
AcDbEntity
  8
1
  6
Continuous
 62
     2
100
AcDbLine
 10
-12.40926831508073
 20
20.5506847998781
 30
0.0
 11
-35.440924744809
 21
20.5506847998781
 31
0.0
  0
LINE
  5
F5
330
F2
100
AcDbEntity
  8
1
  6
Continuous
 62
     2
100
AcDbLine
 10
-21.15926831508074
 20
-4.44931520012189
 30
0.0
 11
-35.440924744809
 21
-4.44931520012189
 31
0.0
  0
SOLID
  5
F6
330
F2
100
AcDbEntity
  8
1
 62
     2
100
AcDbTrace
 10
-33.90170848636489
 20
-0.94931520012189
 30
0.0
 11
-32.98014100325312
 21
-0.94931520012189
 31
0.0
 12
-33.440924744809
 22
-4.44931520012189
 32
0.0
 13
-33.440924744809
 23
-4.44931520012189
 33
0.0
  0
SOLID
  5
F7
330
F2
100
AcDbEntity
  8
1
 62
     2
100
AcDbTrace
 10
-32.98014100325312
 20
17.0506847998781
 30
0.0
 11
-33.90170848636489
 21
17.0506847998781
 31
0.0
 12
-33.440924744809
 22
20.5506847998781
 32
0.0
 13
-33.440924744809
 23
20.5506847998781
 33
0.0
  0
MTEXT
  5
F8
330
F2
100
AcDbEntity
  8
1
 62
     2
100
AcDbMText
 10
-35.440924744809
 20
6.70915455657938
 30
0.0
 40
3.5
 41
0.0
 71
     7
 72
     1
  1
25
  7
CONVERTER_11
 11
0.0
 21
1.0
 31
0.0
 73
     1
 44
0.60024009603842
  0
ENDBLK
  5
FA
330
F2
100
AcDbEntity
  8
0
100
AcDbBlockEnd
  0
BLOCK
  5
104
330
FD
100
AcDbEntity
  8
0
100
AcDbBlockBegin
  2
*D5
 70
     1
 71
     0
 10
0.0
 20
0.0
 30
0.0
  3
*D5
  1

  0
LINE
  5
FE
330
FD
100
AcDbEntity
  8
1
  6
Continuous
 62
     2
100
AcDbLine
 10
-14.90926831508074
 20
47.2206895563442
 30
0.0
 11
5.34073168491924
 21
47.2206895563442
 31
0.0
  0
LINE
  5
FF
330
FD
100
AcDbEntity
  8
1
  6
Continuous
 62
     2
100
AcDbLine
 10
5.34073168491924
 20
35.55068479987813
 30
0.0
 11
5.34073168491924
 21
49.2206895563442
 31
0.0
  0
LINE
  5
100
330
FD
100
AcDbEntity
  8
1
  6
Continuous
 62
     2
100
AcDbLine
 10
-14.90926831508074
 20
18.0506847998781
 30
0.0
 11
-14.90926831508074
 21
49.2206895563442
 31
0.0
  0
SOLID
  5
101
330
FD
100
AcDbEntity
  8
1
 62
     2
100
AcDbTrace
 10
-11.40926831508074
 20
47.68147329790008
 30
0.0
 11
-11.40926831508074
 21
46.75990581478831
 31
0.0
 12
-14.90926831508074
 22
47.2206895563442
 32
0.0
 13
-14.90926831508074
 23
47.2206895563442
 33
0.0
  0
SOLID
  5
102
330
FD
100
AcDbEntity
  8
1
 62
     2
100
AcDbTrace
 10
1.84073168491924
 20
46.75990581478831
 30
0.0
 11
1.84073168491924
 21
47.68147329790008
 31
0.0
 12
5.34073168491924
 22
47.2206895563442
 32
0.0
 13
5.34073168491924
 23
47.2206895563442
 33
0.0
  0
MTEXT
  5
103
330
FD
100
AcDbEntity
  8
1
 62
     2
100
AcDbMText
 10
-11.3123184783263
 20
49.2206895563442
 30
0.0
 40
3.5
 41
0.0
 71
     7
 72
     1
  1
20.25
  7
CONVERTER_11
 11
0.9999999999970621
 21
2.424068405545307E-6
 31
0.0
 73
     1
 44
0.60024009603842
  0
ENDBLK
  5
105
330
FD
100
AcDbEntity
  8
0
100
AcDbBlockEnd
  0
BLOCK
  5
10F
330
108
100
AcDbEntity
  8
0
100
AcDbBlockBegin
  2
*D6
 70
     1
 71
     0
 10
0.0
 20
0.0
 30
0.0
  3
*D6
  1

  0
LINE
  5
109
330
108
100
AcDbEntity
  8
1
  6
Continuous
 62
     2
100
AcDbLine
 10
6.84073168491924
 20
-16.3016485854447
 30
0.0
 11
-9.15926831508076
 21
-16.3016485854447
 31
0.0
  0
LINE
  5
10A
330
108
100
AcDbEntity
  8
1
  6
Continuous
 62
     2
100
AcDbLine
 10
-9.15926831508076
 20
-5.94931520012189
 30
0.0
 11
-9.15926831508076
 21
-18.3016485854447
 31
0.0
  0
LINE
  5
10B
330
108
100
AcDbEntity
  8
1
  6
Continuous
 62
     2
100
AcDbLine
 10
6.84073168491924
 20
-4.44931520012189
 30
0.0
 11
6.84073168491924
 21
-18.3016485854447
 31
0.0
  0
SOLID
  5
10C
330
108
100
AcDbEntity
  8
1
 62
     2
100
AcDbTrace
 10
3.34073168491924
 20
-16.76243232700059
 30
0.0
 11
3.34073168491924
 21
-15.84086484388882
 31
0.0
 12
6.84073168491924
 22
-16.3016485854447
 32
0.0
 13
6.84073168491924
 23
-16.3016485854447
 33
0.0
  0
SOLID
  5
10D
330
108
100
AcDbEntity
  8
1
 62
     2
100
AcDbTrace
 10
-5.65926831508076
 20
-15.84086484388882
 30
0.0
 11
-5.65926831508076
 21
-16.76243232700059
 31
0.0
 12
-9.15926831508076
 22
-16.3016485854447
 32
0.0
 13
-9.15926831508076
 23
-16.3016485854447
 33
0.0
  0
MTEXT
  5
10E
330
108
100
AcDbEntity
  8
1
 62
     2
100
AcDbMText
 10
-4.18321616431456
 20
-14.3016485854447
 30
0.0
 40
3.5
 41
0.0
 71
     7
 72
     1
  1
16
  7
CONVERTER_11
 11
0.9999999999970621
 21
2.424068405545307E-6
 31
0.0
 73
     1
 44
0.60024009603842
  0
ENDBLK
  5
110
330
108
100
AcDbEntity
  8
0
100
AcDbBlockEnd
  0
BLOCK
  5
11C
330
113
100
AcDbEntity
  8
0
100
AcDbBlockBegin
  2
*D7
 70
     1
 71
     0
 10
0.0
 20
0.0
 30
0.0
  3
*D7
  1

  0
LINE
  5
114
330
113
100
AcDbEntity
  8
1
  6
Continuous
 62
     2
100
AcDbLine
 10
-2.15926831508076
 20
-16.3016485854447
 30
0.0
 11
-9.15926831508076
 21
-16.3016485854447
 31
0.0
  0
LINE
  5
115
330
113
100
AcDbEntity
  8
1
  6
Continuous
 62
     2
100
AcDbLine
 10
-9.15926831508076
 20
-16.3016485854447
 30
0.0
 11
-13.15926831508076
 21
-16.3016485854447
 31
0.0
  0
LINE
  5
116
330
113
100
AcDbEntity
  8
1
  6
Continuous
 62
     2
100
AcDbLine
 10
-13.15926831508076
 20
-16.3016485854447
 30
0.0
 11
-20.15926831508076
 21
-16.3016485854447
 31
0.0
  0
LINE
  5
117
330
113
100
AcDbEntity
  8
1
  6
Continuous
 62
     2
100
AcDbLine
 10
-13.15926831508076
 20
-4.44931520012189
 30
0.0
 11
-13.15926831508076
 21
-18.3016485854447
 31
0.0
  0
LINE
  5
118
330
113
100
AcDbEntity
  8
1
  6
Continuous
 62
     2
100
AcDbLine
 10
-9.15926831508076
 20
-5.94931520012189
 30
0.0
 11
-9.15926831508076
 21
-18.3016485854447
 31
0.0
  0
SOLID
  5
119
330
113
100
AcDbEntity
  8
1
 62
     2
100
AcDbTrace
 10
-5.65926831508076
 20
-15.84086484388882
 30
0.0
 11
-5.65926831508076
 21
-16.76243232700059
 31
0.0
 12
-9.15926831508076
 22
-16.3016485854447
 32
0.0
 13
-9.15926831508076
 23
-16.3016485854447
 33
0.0
  0
SOLID
  5
11A
330
113
100
AcDbEntity
  8
1
 62
     2
100
AcDbTrace
 10
-16.65926831508076
 20
-16.76243232700059
 30
0.0
 11
-16.65926831508076
 21
-15.84086484388882
 31
0.0
 12
-13.15926831508076
 22
-16.3016485854447
 32
0.0
 13
-13.15926831508076
 23
-16.3016485854447
 33
0.0
  0
MTEXT
  5
11B
330
113
100
AcDbEntity
  8
1
 62
     2
100
AcDbMText
 10
-12.20926831508076
 20
-14.3016485854447
 30
0.0
 40
3.5
 41
0.0
 71
     7
 72
     1
  1
4
  7
CONVERTER_11
 11
0.9999999999970621
 21
2.424068405545307E-6
 31
0.0
 73
     1
 44
0.60024009603842
  0
ENDBLK
  5
11D
330
113
100
AcDbEntity
  8
0
100
AcDbBlockEnd
  0
ENDSEC
  0
SECTION
  2
ENTITIES
  0
LINE
  5
32
330
1F
100
AcDbEntity
  8
1
  6
Continuous
 62
     7
100
AcDbLine
 10
9.84073168491924
 20
21.05068479987811
 30
0.0
 11
14.69960379297678
 21
21.05068479987834
 31
0.0
  0
LINE
  5
33
330
1F
100
AcDbEntity
  8
1
  6
Continuous
 62
     7
100
AcDbLine
 10
14.67139073815153
 20
25.99295575927086
 30
0.0
 11
16.49745437789502
 21
32.51116018129262
 31
0.0
  0
LINE
  5
34
330
1F
100
AcDbEntity
  8
1
  6
Continuous
 62
     7
100
AcDbLine
 10
9.84073168491924
 20
35.05068479987812
 30
0.0
 11
14.57160049300651
 21
35.05068479987813
 31
0.0
  0
LINE
  5
35
330
1F
100
AcDbEntity
  8
1
  6
Continuous
 62
     7
100
AcDbLine
 10
6.84073168491924
 20
23.05068479987811
 30
0.0
 11
6.84073168491924
 21
33.05068479987811
 31
0.0
  0
LINE
  5
36
330
1F
100
AcDbEntity
  8
1
  6
Continuous
 62
     7
100
AcDbLine
 10
6.84073168491924
 20
33.05068479987811
 30
0.0
 11
6.84073168491924
 21
35.55068479987813
 31
0.0
  0
LINE
  5
37
330
1F
100
AcDbEntity
  8
1
  6
Continuous
 62
     7
100
AcDbLine
 10
9.84073168491924
 20
36.05068479987812
 30
0.0
 11
14.57160049300651
 21
36.05068479987813
 31
0.0
  0
LINE
  5
38
330
1F
100
AcDbEntity
  8
1
  6
Continuous
 62
     7
100
AcDbLine
 10
17.46038132033928
 20
32.24139787199987
 30
0.0
 11
18.35121844859682
 21
35.42127527732686
 31
0.0
  0
LINE
  5
39
330
1F
100
AcDbEntity
  8
1
  6
Continuous
 62
     7
100
AcDbLine
 10
14.57160049300651
 20
36.05068479987813
 30
0.0
 11
17.86825553545233
 21
36.05068479987813
 31
0.0
  0
LINE
  5
3A
330
1F
100
AcDbEntity
  8
1
  6
Continuous
 62
     7
100
AcDbLine
 10
7.84073168491924
 20
23.05068479987811
 30
0.0
 11
7.84073168491924
 21
33.05068479987811
 31
0.0
  0
LINE
  5
3B
330
1F
100
AcDbEntity
  8
1
  6
Continuous
 62
     7
100
AcDbLine
 10
9.84073168491924
 20
20.05068479987811
 30
0.0
 11
14.69960379297678
 21
20.05068479987811
 31
0.0
  0
LINE
  5
3C
330
1F
100
AcDbEntity
  8
1
  6
Continuous
 62
     7
100
AcDbLine
 10
-9.90926831508074
 20
-5.94931520012189
 30
0.0
 11
-9.15926831508076
 21
-5.94931520012189
 31
0.0
  0
LINE
  5
3D
330
1F
100
AcDbEntity
  8
1
  6
Continuous
 62
     7
100
AcDbLine
 10
-12.90926831508074
 20
-5.94931520012189
 30
0.0
 11
-9.90926831508074
 21
-5.94931520012189
 31
0.0
  0
LINE
  5
3E
330
1F
100
AcDbEntity
  8
1
  6
Continuous
 62
     7
100
AcDbLine
 10
-13.15926831508076
 20
-5.94931520012189
 30
0.0
 11
-12.90926831508074
 21
-5.94931520012189
 31
0.0
  0
LINE
  5
3F
330
1F
100
AcDbEntity
  8
1
  6
Continuous
 62
     7
100
AcDbLine
 10
-13.15926831508076
 20
-4.44931520012189
 30
0.0
 11
-12.90926831508074
 21
-4.44931520012189
 31
0.0
  0
LINE
  5
40
330
1F
100
AcDbEntity
  8
1
  6
Continuous
 62
     7
100
AcDbLine
 10
-13.15926831508076
 20
-4.44931520012189
 30
0.0
 11
-13.15926831508076
 21
-5.94931520012189
 31
0.0
  0
LINE
  5
41
330
1F
100
AcDbEntity
  8
1
  6
Continuous
 62
     7
100
AcDbLine
 10
-15.25926831508071
 20
-4.44931520012189
 30
0.0
 11
-15.25926830938846
 21
-4.44931520012189
 31
0.0
  0
LINE
  5
42
330
1F
100
AcDbEntity
  8
1
  6
Continuous
 62
     7
100
AcDbLine
 10
-9.15926831508076
 20
-4.44931520012189
 30
0.0
 11
3.34073168491924
 21
-4.44931520012189
 31
0.0
  0
LINE
  5
43
330
1F
100
AcDbEntity
  8
1
  6
Continuous
 62
     7
100
AcDbLine
 10
5.34073168491924
 20
4.05068479987811
 30
0.0
 11
5.34073168491924
 21
11.05068479987811
 31
0.0
  0
LINE
  5
44
330
1F
100
AcDbEntity
  8
1
  6
Continuous
 62
     7
100
AcDbLine
 10
5.34073168491924
 20
11.05068479987811
 30
0.0
 11
5.34073168491924
 21
18.5506847998781
 31
0.0
  0
LINE
  5
45
330
1F
100
AcDbEntity
  8
1
  6
Continuous
 62
     7
100
AcDbLine
 10
6.84073168491924
 20
4.05068479987811
 30
0.0
 11
6.84073168491924
 21
11.05068479987811
 31
0.0
  0
LINE
  5
46
330
1F
100
AcDbEntity
  8
1
  6
Continuous
 62
     7
100
AcDbLine
 10
5.34073168491924
 20
4.05068479987811
 30
0.0
 11
6.84073168491924
 21
4.05068479987811
 31
0.0
  0
LINE
  5
47
330
1F
100
AcDbEntity
  8
1
  6
Continuous
 62
     7
100
AcDbLine
 10
6.84073168491924
 20
11.05068479987811
 30
0.0
 11
6.84073168491924
 21
23.05068479987811
 31
0.0
  0
LINE
  5
48
330
1F
100
AcDbEntity
  8
1
  6
Continuous
 62
     7
100
AcDbLine
 10
5.34073168491924
 20
11.05068479987811
 30
0.0
 11
6.84073168491924
 21
11.05068479987811
 31
0.0
  0
LINE
  5
49
330
1F
100
AcDbEntity
  8
1
  6
Continuous
 62
     7
100
AcDbLine
 10
5.34073168491924
 20
36.05068479987813
 30
0.0
 11
5.34073168491924
 21
35.55068479987813
 31
0.0
  0
LINE
  5
4A
330
1F
100
AcDbEntity
  8
1
  6
Continuous
 62
     7
100
AcDbLine
 10
21.38589362565719
 20
25.05068479987813
 30
0.0
 11
21.38589362565719
 21
46.34218763592142
 31
0.0
  0
LINE
  5
4B
330
1F
100
AcDbEntity
  8
1
  6
Continuous
 62
     7
100
AcDbLine
 10
19.88589362565719
 20
25.05068479987813
 30
0.0
 11
19.88589362565719
 21
46.34218763592142
 31
0.0
  0
LINE
  5
4C
330
1F
100
AcDbEntity
  8
1
  6
Continuous
 62
     7
100
AcDbLine
 10
19.80010718803029
 20
35.03304670967312
 30
0.0
 11
17.07212194053838
 21
25.32110909733382
 31
0.0
  0
LINE
  5
4D
330
1F
100
AcDbEntity
  8
1
  6
Continuous
 62
     7
100
AcDbLine
 10
6.84073168491924
 20
37.55068479987813
 30
0.0
 11
17.86825553545233
 21
37.55068479987813
 31
0.0
  0
LINE
  5
4E
330
1F
100
AcDbEntity
  8
1
  6
Continuous
 62
     7
100
AcDbLine
 10
7.34073168491924
 20
36.05068479987813
 30
0.0
 11
9.84073168491924
 21
36.05068479987812
 31
0.0
  0
LINE
  5
4F
330
1F
100
AcDbEntity
  8
1
  6
Continuous
 62
     7
100
AcDbLine
 10
15.63431768059578
 20
25.7231934499781
 30
0.0
 11
17.46038132033928
 21
32.24139787199987
 31
0.0
  0
LINE
  5
50
330
1F
100
AcDbEntity
  8
1
  6
Continuous
 62
     7
100
AcDbLine
 10
18.04216651245448
 20
24.05071146954658
 30
0.0
 11
18.88589362565719
 21
24.05068479987814
 31
0.0
  0
LINE
  5
51
330
1F
100
AcDbEntity
  8
1
  6
Continuous
 62
     7
100
AcDbLine
 10
18.04214593689849
 20
22.55772801052349
 30
0.0
 11
18.88589362565719
 21
22.55068479987814
 31
0.0
  0
LINE
  5
52
330
1F
100
AcDbEntity
  8
1
  6
Continuous
 62
     7
100
AcDbLine
 10
6.84073168491924
 20
-4.44931520012189
 30
0.0
 11
6.84073168491924
 21
4.05068479987811
 31
0.0
  0
LINE
  5
53
330
1F
100
AcDbEntity
  8
1
  6
Continuous
 62
     7
100
AcDbLine
 10
5.34073168491924
 20
-5.94931520012189
 30
0.0
 11
-9.15926831508076
 21
-5.94931520012189
 31
0.0
  0
LINE
  5
54
330
1F
100
AcDbEntity
  8
1
  6
Continuous
 62
     7
100
AcDbLine
 10
-9.15926831508076
 20
-4.44931520012189
 30
0.0
 11
-9.15926831508076
 21
-5.94931520012189
 31
0.0
  0
LINE
  5
55
330
1F
100
AcDbEntity
  8
1
  6
Continuous
 62
     7
100
AcDbLine
 10
-13.15926831508076
 20
-5.94931520012189
 30
0.0
 11
-21.65926831508074
 21
-5.94931520012189
 31
0.0
  0
LINE
  5
56
330
1F
100
AcDbEntity
  8
1
  6
Continuous
 62
     7
100
AcDbLine
 10
-21.15926831508074
 20
-4.44931520012189
 30
0.0
 11
-14.90926831508074
 21
-4.44931520012189
 31
0.0
  0
LINE
  5
57
330
1F
100
AcDbEntity
  8
1
  6
Continuous
 62
     7
100
AcDbLine
 10
-21.65926831508074
 20
4.05068479987814
 30
0.0
 11
-21.65926831508074
 21
-3.94931520012189
 31
0.0
  0
LINE
  5
58
330
1F
100
AcDbEntity
  8
1
  6
Continuous
 62
     7
100
AcDbLine
 10
-23.15926831508074
 20
4.05068479987814
 30
0.0
 11
-23.15926831508074
 21
-4.44931520012189
 31
0.0
  0
LINE
  5
59
330
1F
100
AcDbEntity
  8
1
  6
Continuous
 62
     7
100
AcDbLine
 10
-21.65926831508074
 20
4.05068479987814
 30
0.0
 11
-23.15926831508074
 21
4.05068479987814
 31
0.0
  0
LINE
  5
5A
330
1F
100
AcDbEntity
  8
1
  6
Continuous
 62
     7
100
AcDbLine
 10
5.34073168491924
 20
35.55068479987813
 30
0.0
 11
5.34073168491924
 21
20.5506847998781
 31
0.0
  0
LINE
  5
5B
330
1F
100
AcDbEntity
  8
1
  6
Continuous
 62
     7
100
AcDbLine
 10
-15.25926830938846
 20
-4.44931520012189
 30
0.0
 11
-15.25926831508071
 21
-4.44931520012189
 31
0.0
  0
LINE
  5
5C
330
1F
100
AcDbEntity
  8
1
  6
Continuous
 62
     7
100
AcDbLine
 10
3.34073168491924
 20
-4.44931520012189
 30
0.0
 11
5.34073168491924
 21
-4.44931520012189
 31
0.0
  0
LINE
  5
5D
330
1F
100
AcDbEntity
  8
1
  6
Continuous
 62
     7
100
AcDbLine
 10
5.34073168491924
 20
-2.44931520012189
 30
0.0
 11
5.34073168491924
 21
-4.44931520012189
 31
0.0
  0
LINE
  5
5E
330
1F
100
AcDbEntity
  8
1
  6
Continuous
 62
     7
100
AcDbLine
 10
-18.10926831508074
 20
4.55068479987811
 30
0.0
 11
-12.90926831508074
 21
4.55068479987811
 31
0.0
  0
LINE
  5
5F
330
1F
100
AcDbEntity
  8
1
  6
Continuous
 62
     7
100
AcDbLine
 10
-18.10926831508074
 20
10.55068479987811
 30
0.0
 11
-21.40926831508074
 21
10.55068479987811
 31
0.0
  0
LINE
  5
60
330
1F
100
AcDbEntity
  8
1
  6
Continuous
 62
     7
100
AcDbLine
 10
-9.90926831508074
 20
-4.44931520012189
 30
0.0
 11
-9.90926831508074
 21
-5.94931520012189
 31
0.0
  0
LINE
  5
61
330
1F
100
AcDbEntity
  8
1
  6
Continuous
 62
     7
100
AcDbLine
 10
-9.90926831508074
 20
-4.44931520012189
 30
0.0
 11
-9.15926831508076
 21
-4.44931520012189
 31
0.0
  0
LINE
  5
62
330
1F
100
AcDbEntity
  8
1
  6
Continuous
 62
     7
100
AcDbLine
 10
-4.40926831508074
 20
12.55068479987811
 30
0.0
 11
-3.90926831508074
 21
12.55068479987811
 31
0.0
  0
LINE
  5
63
330
1F
100
AcDbEntity
  8
1
  6
Continuous
 62
     7
100
AcDbLine
 10
-12.90926831508074
 20
10.55068479987811
 30
0.0
 11
-18.10926831508074
 21
10.55068479987811
 31
0.0
  0
LINE
  5
64
330
1F
100
AcDbEntity
  8
1
  6
Continuous
 62
     7
100
AcDbLine
 10
-12.90926831508074
 20
4.55068479987811
 30
0.0
 11
-9.90926831508074
 21
4.55068479987811
 31
0.0
  0
LINE
  5
65
330
1F
100
AcDbEntity
  8
1
  6
Continuous
 62
     7
100
AcDbLine
 10
-12.90926831508074
 20
1.0506847998781
 30
0.0
 11
-12.90926831508074
 21
2.8756847998781
 31
0.0
  0
LINE
  5
66
330
1F
100
AcDbEntity
  8
1
  6
Continuous
 62
     7
100
AcDbLine
 10
-12.90926831508074
 20
12.2256847998781
 30
0.0
 11
-12.90926831508074
 21
13.0506847998781
 31
0.0
  0
LINE
  5
67
330
1F
100
AcDbEntity
  8
1
  6
Continuous
 62
     7
100
AcDbLine
 10
-4.90926831508074
 20
13.5506847998781
 30
0.0
 11
-9.40926831508074
 21
13.5506847998781
 31
0.0
  0
LINE
  5
68
330
1F
100
AcDbEntity
  8
1
  6
Continuous
 62
     7
100
AcDbLine
 10
-3.60926831508074
 20
10.5506847998781
 30
0.0
 11
-3.90926831508074
 21
10.5506847998781
 31
0.0
  0
LINE
  5
69
330
1F
100
AcDbEntity
  8
1
  6
Continuous
 62
     7
100
AcDbLine
 10
-3.60926831508074
 20
4.5506847998781
 30
0.0
 11
-3.60926831508074
 21
10.5506847998781
 31
0.0
  0
LINE
  5
6A
330
1F
100
AcDbEntity
  8
1
  6
Continuous
 62
     7
100
AcDbLine
 10
-1.40926831508074
 20
4.5506847998781
 30
0.0
 11
-3.60926831508074
 21
4.5506847998781
 31
0.0
  0
LINE
  5
6B
330
1F
100
AcDbEntity
  8
1
  6
Continuous
 62
     7
100
AcDbLine
 10
-1.40926831508074
 20
13.0506847998781
 30
0.0
 11
-1.40926831508074
 21
4.5506847998781
 31
0.0
  0
LINE
  5
6C
330
1F
100
AcDbEntity
  8
1
  6
Continuous
 62
     7
100
AcDbLine
 10
-9.40926831508074
 20
16.5506847998781
 30
0.0
 11
-4.90926831508074
 21
16.5506847998781
 31
0.0
  0
LINE
  5
6D
330
1F
100
AcDbEntity
  8
1
  6
Continuous
 62
     7
100
AcDbLine
 10
-12.90926831508074
 20
-5.94931520012189
 30
0.0
 11
-12.90926831508074
 21
-4.44931520012189
 31
0.0
  0
LINE
  5
6E
330
1F
100
AcDbEntity
  8
1
  6
Continuous
 62
     7
100
AcDbLine
 10
-9.90926831508074
 20
13.0506847998781
 30
0.0
 11
-9.90926831508074
 21
12.55068479987811
 31
0.0
  0
LINE
  5
6F
330
1F
100
AcDbEntity
  8
1
  6
Continuous
 62
     7
100
AcDbLine
 10
-9.90926831508074
 20
11.3006847998781
 30
0.0
 11
-12.90926831508074
 21
11.3006847998781
 31
0.0
  0
LINE
  5
70
330
1F
100
AcDbEntity
  8
1
  6
Continuous
 62
     7
100
AcDbLine
 10
-12.90926831508074
 20
11.3006847998781
 30
0.0
 11
-12.90926831508074
 21
12.2256847998781
 31
0.0
  0
LINE
  5
71
330
1F
100
AcDbEntity
  8
1
  6
Continuous
 62
     7
100
AcDbLine
 10
-9.90926831508074
 20
11.3006847998781
 30
0.0
 11
-9.90926831508074
 21
1.0506847998781
 31
0.0
  0
LINE
  5
72
330
1F
100
AcDbEntity
  8
1
  6
Continuous
 62
     7
100
AcDbLine
 10
-9.90926831508074
 20
1.0506847998781
 30
0.0
 11
-12.90926831508074
 21
1.0506847998781
 31
0.0
  0
LINE
  5
73
330
1F
100
AcDbEntity
  8
1
  6
Continuous
 62
     7
100
AcDbLine
 10
-9.90926831508074
 20
1.0506847998781
 30
0.0
 11
-9.90926831508074
 21
-4.44931520012189
 31
0.0
  0
LINE
  5
74
330
1F
100
AcDbEntity
  8
1
  6
Continuous
 62
     7
100
AcDbLine
 10
-4.40926831508074
 20
12.55068479987811
 30
0.0
 11
-4.40926831508074
 21
13.0506847998781
 31
0.0
  0
LINE
  5
75
330
1F
100
AcDbEntity
  8
1
  6
Continuous
 62
     7
100
AcDbLine
 10
-4.90926831508074
 20
16.5506847998781
 30
0.0
 11
-4.90926831508074
 21
13.5506847998781
 31
0.0
  0
LINE
  5
76
330
1F
100
AcDbEntity
  8
1
  6
Continuous
 62
     7
100
AcDbLine
 10
-12.90926831508074
 20
-4.44931520012189
 30
0.0
 11
-12.90926831508074
 21
1.0506847998781
 31
0.0
  0
LINE
  5
77
330
1F
100
AcDbEntity
  8
1
  6
Continuous
 62
     7
100
AcDbLine
 10
-9.90926831508074
 20
12.55068479987811
 30
0.0
 11
-9.90926831508074
 21
11.3006847998781
 31
0.0
  0
LINE
  5
78
330
1F
100
AcDbEntity
  8
1
  6
Continuous
 62
     7
100
AcDbLine
 10
-12.90926831508074
 20
10.55068479987811
 30
0.0
 11
-12.90926831508074
 21
11.3006847998781
 31
0.0
  0
LINE
  5
79
330
1F
100
AcDbEntity
  8
1
  6
Continuous
 62
     7
100
AcDbLine
 10
-16.12926831508074
 20
2.0991119246243
 30
0.0
 11
-16.12926831508074
 21
1.37391235365941
 31
0.0
  0
LINE
  5
7A
330
1F
100
AcDbEntity
  8
1
  6
Continuous
 62
     7
100
AcDbLine
 10
-16.12926831508073
 20
13.00225767513194
 30
0.0
 11
-16.12926831508074
 21
11.92568479987808
 31
0.0
  0
LINE
  5
7B
330
1F
100
AcDbEntity
  8
1
  6
DOT_CENTER
 62
     2
100
AcDbLine
 10
8.07322510586934
 20
7.55068479987811
 30
0.0
 11
-8.96811404189273
 21
7.55068479987811
 31
0.0
  0
LINE
  5
7C
330
1F
100
AcDbEntity
  8
1
  6
Continuous
 62
     7
100
AcDbLine
 10
-12.90926831508074
 20
2.8756847998781
 30
0.0
 11
-14.54926831508076
 21
2.8756847998781
 31
0.0
  0
LINE
  5
7D
330
1F
100
AcDbEntity
  8
1
  6
Continuous
 62
     7
100
AcDbLine
 10
-14.54926831508076
 20
2.8756847998781
 30
0.0
 11
-14.54926831508076
 21
3.17568479987808
 31
0.0
  0
LINE
  5
7E
330
1F
100
AcDbEntity
  8
1
  6
Continuous
 62
     7
100
AcDbLine
 10
-14.54926831508076
 20
3.17568479987808
 30
0.0
 11
-16.12926831508074
 21
3.17568479987808
 31
0.0
  0
LINE
  5
7F
330
1F
100
AcDbEntity
  8
1
  6
Continuous
 62
     7
100
AcDbLine
 10
-16.12926831508074
 20
3.17568479987808
 30
0.0
 11
-16.12926831508074
 21
2.0991119246243
 31
0.0
  0
LINE
  5
80
330
1F
100
AcDbEntity
  8
1
  6
Continuous
 62
     7
100
AcDbLine
 10
-18.10926831508074
 20
1.20068479987809
 30
0.0
 11
-16.12926831508074
 21
1.37391235365941
 31
0.0
  0
LINE
  5
81
330
1F
100
AcDbEntity
  8
1
  6
Continuous
 62
     7
100
AcDbLine
 10
-18.10926831508074
 20
4.55068479987811
 30
0.0
 11
-18.10926831508074
 21
1.20068479987809
 31
0.0
  0
LINE
  5
82
330
1F
100
AcDbEntity
  8
1
  6
Continuous
 62
     7
100
AcDbLine
 10
-18.10926831508074
 20
10.55068479987811
 30
0.0
 11
-18.10926831508074
 21
13.90068479987808
 31
0.0
  0
LINE
  5
83
330
1F
100
AcDbEntity
  8
1
  6
Continuous
 62
     7
100
AcDbLine
 10
-16.12926831508073
 20
13.72745724609676
 30
0.0
 11
-18.10926831508074
 21
13.90068479987808
 31
0.0
  0
LINE
  5
84
330
1F
100
AcDbEntity
  8
1
  6
Continuous
 62
     7
100
AcDbLine
 10
-16.12926831508073
 20
13.72745724609676
 30
0.0
 11
-16.12926831508073
 21
13.00225767513194
 31
0.0
  0
LINE
  5
85
330
1F
100
AcDbEntity
  8
1
  6
Continuous
 62
     7
100
AcDbLine
 10
-16.12926831508074
 20
11.92568479987808
 30
0.0
 11
-14.54926831508076
 21
11.92568479987808
 31
0.0
  0
LINE
  5
86
330
1F
100
AcDbEntity
  8
1
  6
Continuous
 62
     7
100
AcDbLine
 10
-14.54926831508076
 20
11.92568479987808
 30
0.0
 11
-14.54926831508076
 21
12.2256847998781
 31
0.0
  0
LINE
  5
87
330
1F
100
AcDbEntity
  8
1
  6
Continuous
 62
     7
100
AcDbLine
 10
-14.54926831508076
 20
12.2256847998781
 30
0.0
 11
-12.90926831508074
 21
12.2256847998781
 31
0.0
  0
LINE
  5
88
330
1F
100
AcDbEntity
  8
1
  6
DOT_CENTER
 62
     2
100
AcDbLine
 10
-8.96811404189273
 20
7.55068479987811
 30
0.0
 11
-22.71593690548875
 21
7.55068479987811
 31
0.0
  0
LINE
  5
89
330
1F
100
AcDbEntity
  8
1
  6
Continuous
 62
     7
100
AcDbLine
 10
-9.90926831508074
 20
12.55068479987811
 30
0.0
 11
-9.90926831508074
 21
2.55068479987811
 31
0.0
  0
LINE
  5
8A
330
1F
100
AcDbEntity
  8
1
  6
Continuous
 62
     7
100
AcDbLine
 10
-21.40926831508074
 20
4.55068479987811
 30
0.0
 11
-18.10926831508074
 21
4.55068479987811
 31
0.0
  0
LINE
  5
8B
330
1F
100
AcDbEntity
  8
1
  6
Continuous
 62
     7
100
AcDbLine
 10
-21.90926831508074
 20
5.05068479987811
 30
0.0
 11
-21.40926831508074
 21
4.55068479987811
 31
0.0
  0
LINE
  5
8C
330
1F
100
AcDbEntity
  8
1
  6
Continuous
 62
     7
100
AcDbLine
 10
-21.90926831508074
 20
10.05068479987811
 30
0.0
 11
-21.90926831508074
 21
5.05068479987811
 31
0.0
  0
LINE
  5
8D
330
1F
100
AcDbEntity
  8
1
  6
Continuous
 62
     7
100
AcDbLine
 10
-21.40926831508074
 20
10.55068479987811
 30
0.0
 11
-21.40926831508074
 21
4.55068479987811
 31
0.0
  0
LINE
  5
8E
330
1F
100
AcDbEntity
  8
1
  6
Continuous
 62
     7
100
AcDbLine
 10
-9.90926831508074
 20
10.55068479987811
 30
0.0
 11
-12.90926831508074
 21
10.55068479987811
 31
0.0
  0
LINE
  5
8F
330
1F
100
AcDbEntity
  8
1
  6
Continuous
 62
     7
100
AcDbLine
 10
-21.40926831508074
 20
10.55068479987811
 30
0.0
 11
-21.90926831508074
 21
10.05068479987811
 31
0.0
  0
LINE
  5
90
330
1F
100
AcDbEntity
  8
1
  6
Continuous
 62
     2
100
AcDbLine
 10
-21.90926831508074
 20
5.05068479987811
 30
0.0
 11
-9.90926831508074
 21
5.05068479987811
 31
0.0
  0
LINE
  5
91
330
1F
100
AcDbEntity
  8
1
  6
Continuous
 62
     2
100
AcDbLine
 10
-21.90926831508074
 20
10.05068479987811
 30
0.0
 11
-9.90926831508074
 21
10.05068479987811
 31
0.0
  0
LINE
  5
92
330
1F
100
AcDbEntity
  8
1
  6
Continuous
 62
     7
100
AcDbLine
 10
-3.90926831508074
 20
2.55068479987811
 30
0.0
 11
-9.90926831508074
 21
2.55068479987811
 31
0.0
  0
LINE
  5
93
330
1F
100
AcDbEntity
  8
1
  6
DASHED
 62
     2
100
AcDbLine
 10
-3.90926831508074
 20
5.8506847998781
 30
0.0
 11
-7.40926831508074
 21
5.8506847998781
 31
0.0
  0
LINE
  5
94
330
1F
100
AcDbEntity
  8
1
  6
DASHED
 62
     2
100
AcDbLine
 10
-3.90926831508074
 20
9.2506847998781
 30
0.0
 11
-7.40926831508074
 21
9.2506847998781
 31
0.0
  0
LINE
  5
95
330
1F
100
AcDbEntity
  8
1
  6
DASHED
 62
     2
100
AcDbLine
 10
-7.40926831508074
 20
4.8506847998781
 30
0.0
 11
-7.40926831508074
 21
10.2506847998781
 31
0.0
  0
LINE
  5
96
330
1F
100
AcDbEntity
  8
1
  6
DASHED
 62
     2
100
AcDbLine
 10
-7.40926831508074
 20
10.2506847998781
 30
0.0
 11
-3.90926831508074
 21
10.2506847998781
 31
0.0
  0
LINE
  5
97
330
1F
100
AcDbEntity
  8
1
  6
DASHED
 62
     2
100
AcDbLine
 10
-8.96811404189273
 20
7.55068479987811
 30
0.0
 11
-7.40926831508074
 21
10.2506847998781
 31
0.0
  0
LINE
  5
98
330
1F
100
AcDbEntity
  8
1
  6
DASHED
 62
     2
100
AcDbLine
 10
-7.40926831508074
 20
4.8506847998781
 30
0.0
 11
-8.96811404189273
 21
7.55068479987811
 31
0.0
  0
LINE
  5
99
330
1F
100
AcDbEntity
  8
1
  6
DASHED
 62
     2
100
AcDbLine
 10
-3.90926831508074
 20
4.8506847998781
 30
0.0
 11
-7.40926831508074
 21
4.8506847998781
 31
0.0
  0
LINE
  5
9A
330
1F
100
AcDbEntity
  8
1
  6
Continuous
 62
     7
100
AcDbLine
 10
-3.90926831508074
 20
12.55068479987811
 30
0.0
 11
-3.90926831508074
 21
2.55068479987811
 31
0.0
  0
LINE
  5
9B
330
1F
100
AcDbEntity
  8
1
  6
Continuous
 62
     7
100
AcDbLine
 10
-9.90926831508074
 20
12.55068479987811
 30
0.0
 11
-4.40926831508074
 21
12.55068479987811
 31
0.0
  0
LINE
  5
9C
330
1F
100
AcDbEntity
  8
1
  6
Continuous
 62
     7
100
AcDbLine
 10
-14.54926831508076
 20
2.8756847998781
 30
0.0
 11
-14.54926831508076
 21
2.51911192462431
 31
0.0
  0
LINE
  5
9D
330
1F
100
AcDbEntity
  8
1
  6
Continuous
 62
     7
100
AcDbLine
 10
-14.54926831508076
 20
12.2256847998781
 30
0.0
 11
-14.54926831508076
 21
12.79316059522077
 31
0.0
  0
LINE
  5
9E
330
1F
100
AcDbEntity
  8
1
  6
Continuous
 62
     7
100
AcDbLine
 10
-13.59533567541213
 20
13.62441812557587
 30
0.0
 11
-14.54926831508076
 21
12.79316059522077
 31
0.0
  0
LINE
  5
9F
330
1F
100
AcDbEntity
  8
1
  6
Continuous
 62
     7
100
AcDbLine
 10
-15.54348187745383
 20
14.41647123750502
 30
0.0
 11
-14.90926831508074
 21
15.05068479987811
 31
0.0
  0
LINE
  5
A0
330
1F
100
AcDbEntity
  8
1
  6
Continuous
 62
     7
100
AcDbLine
 10
-13.49505475270765
 20
1.46489836225121
 30
0.0
 11
-14.54926831508076
 21
2.51911192462431
 31
0.0
  0
LINE
  5
A1
330
1F
100
AcDbEntity
  8
1
  6
Continuous
 62
     7
100
AcDbLine
 10
-14.90926831508074
 20
0.05068479987811
 30
0.0
 11
-14.90926831508074
 21
-4.44931520012189
 31
0.0
  0
LINE
  5
A2
330
1F
100
AcDbEntity
  8
1
  6
Continuous
 62
     7
100
AcDbLine
 10
-15.54348187745384
 20
0.6848983622512
 30
0.0
 11
-14.90926831508074
 21
0.05068479987811
 31
0.0
  0
LINE
  5
A3
330
1F
100
AcDbEntity
  8
1
  6
Continuous
 62
     7
100
AcDbLine
 10
5.34073168491924
 20
-2.44931520012189
 30
0.0
 11
5.34073168491924
 21
4.05068479987811
 31
0.0
  0
LINE
  5
A4
330
1F
100
AcDbEntity
  8
1
  6
Continuous
 62
     7
100
AcDbLine
 10
5.34073168491924
 20
20.5506847998781
 30
0.0
 11
-12.40926831508074
 21
20.5506847998781
 31
0.0
  0
LINE
  5
A5
330
1F
100
AcDbEntity
  8
1
  6
Continuous
 62
     7
100
AcDbLine
 10
-14.90926831508074
 20
18.0506847998781
 30
0.0
 11
-14.90926831508074
 21
15.05068479987811
 31
0.0
  0
LINE
  5
A6
330
1F
100
AcDbEntity
  8
1
  6
Continuous
 62
     7
100
AcDbLine
 10
-14.90926831508074
 20
-4.44931520012189
 30
0.0
 11
-13.15926831508076
 21
-4.44931520012189
 31
0.0
  0
LINE
  5
A7
330
1F
100
AcDbEntity
  8
1
  6
Continuous
 62
     7
100
AcDbLine
 10
3.34073168491924
 20
-4.44931520012189
 30
0.0
 11
5.34073168491924
 21
-2.44931520012189
 31
0.0
  0
LINE
  5
A8
330
1F
100
AcDbEntity
  8
1
  6
Continuous
 62
     7
100
AcDbLine
 10
5.34073168491924
 20
18.5506847998781
 30
0.0
 11
-12.40926831508074
 21
18.5506847998781
 31
0.0
  0
LINE
  5
A9
330
1F
100
AcDbEntity
  8
1
  6
Continuous
 62
     7
100
AcDbLine
 10
5.34073168491924
 20
18.5506847998781
 30
0.0
 11
5.34073168491924
 21
20.5506847998781
 31
0.0
  0
LINE
  5
AA
330
1F
100
AcDbEntity
  8
1
  6
Continuous
 62
     7
100
AcDbLine
 10
-12.90926831508074
 20
18.0506847998781
 30
0.0
 11
-12.90926831508074
 21
15.13225797728875
 31
0.0
  0
LINE
  5
AB
330
1F
100
AcDbEntity
  8
1
  6
Continuous
 62
     7
100
AcDbLine
 10
-12.90926831508074
 20
-4.44931520012189
 30
0.0
 11
-12.90926831508074
 21
0.05068479987811
 31
0.0
  0
LINE
  5
AC
330
1F
100
AcDbEntity
  8
1
  6
Continuous
 62
     7
100
AcDbLine
 10
-12.90926831508074
 20
2.8756847998781
 30
0.0
 11
-12.90926831508074
 21
4.55068479987811
 31
0.0
  0
ARC
  5
AD
330
1F
100
AcDbEntity
  8
1
  6
Continuous
 62
     7
100
AcDbCircle
 10
18.03486318269298
 20
25.05068479987813
 30
0.0
 40
3.492967427003083
100
AcDbArc
 50
164.3498766363685
 51
-136.3202580873183
  0
ARC
  5
AE
330
1F
100
AcDbEntity
  8
1
  6
Continuous
 62
     7
100
AcDbCircle
 10
14.57160049300651
 20
33.05068479987813
 30
0.0
 40
2.000000000000002
100
AcDbArc
 50
-15.65012336363139
 51
90.0
  0
ARC
  5
AF
330
1F
100
AcDbEntity
  8
1
  6
Continuous
 62
     7
100
AcDbCircle
 10
14.57160049300651
 20
33.05068479987813
 30
0.0
 40
3.000000000000004
100
AcDbArc
 50
-15.65012336363118
 51
90.0
  0
ARC
  5
B0
330
1F
100
AcDbEntity
  8
1
  6
Continuous
 62
     7
100
AcDbCircle
 10
18.03486318269298
 20
25.05068479987813
 30
0.0
 40
2.492967427003085
100
AcDbArc
 50
164.3498766363686
 51
-135.1657106488087
  0
ARC
  5
B1
330
1F
100
AcDbEntity
  8
1
  6
Continuous
 62
     7
100
AcDbCircle
 10
9.84073168491924
 20
23.05068479987811
 30
0.0
 40
1.999999999999999
100
AcDbArc
 50
180.0
 51
-90.0
  0
ARC
  5
B2
330
1F
100
AcDbEntity
  8
1
  6
Continuous
 62
     7
100
AcDbCircle
 10
9.84073168491924
 20
23.05068479987811
 30
0.0
 40
2.999999999999999
100
AcDbArc
 50
180.0
 51
-90.0
  0
ARC
  5
B3
330
1F
100
AcDbEntity
  8
1
  6
Continuous
 62
     7
100
AcDbCircle
 10
9.84073168491924
 20
33.05068479987811
 30
0.0
 40
2.000000000000007
100
AcDbArc
 50
90.0
 51
180.0
  0
ARC
  5
B4
330
1F
100
AcDbEntity
  8
1
  6
Continuous
 62
     7
100
AcDbCircle
 10
9.84073168491924
 20
33.05068479987811
 30
0.0
 40
3.000000000000007
100
AcDbArc
 50
90.0
 51
180.0
  0
ARC
  5
B5
330
1F
100
AcDbEntity
  8
1
  6
Continuous
 62
     7
100
AcDbCircle
 10
18.03486318269298
 20
25.05068479987813
 30
0.0
 40
2.492967427003052
100
AcDbArc
 50
-135.1657106488087
 51
-89.8326204874579
  0
ARC
  5
B6
330
1F
100
AcDbEntity
  8
1
  6
Continuous
 62
     7
100
AcDbCircle
 10
18.03486318269298
 20
25.05068479987813
 30
0.0
 40
0.9999999999998928
100
AcDbArc
 50
164.3104834256019
 51
-89.58154630826017
  0
ARC
  5
B7
330
1F
100
AcDbEntity
  8
1
  6
Continuous
 62
     7
100
AcDbCircle
 10
-14.12926831508073
 20
13.00225767513193
 30
0.0
 40
2.000000000000001
100
AcDbArc
 50
135.0000000000002
 51
179.9999999999997
  0
ARC
  5
B8
330
1F
100
AcDbEntity
  8
1
  6
Continuous
 62
     7
100
AcDbCircle
 10
-14.12926831508074
 20
2.0991119246243
 30
0.0
 40
2.0
100
AcDbArc
 50
180.0
 51
-135.0000000000001
  0
SPLINE
  5
B9
330
1F
100
AcDbEntity
  8
1
  6
Continuous
 62
     7
100
AcDbSpline
210
0.0
220
0.0
230
1.0
 70
     8
 71
     3
 72
    21
 73
    17
 74
    15
 42
0.0000000001
 43
0.0000000001
 44
0.00000001
 40
0.0
 40
0.0
 40
0.0
 40
0.0
 40
0.2055941652648785
 40
0.3664905725465377
 40
0.5282493060459574
 40
0.6720983026135926
 40
0.7797807341074565
 40
0.8857064111210208
 40
0.9882327233805426
 40
1.109598171382103
 40
1.203206969204876
 40
1.29300254424429
 40
1.416894134578887
 40
1.53205243308843
 40
1.636514903006332
 40
1.759431153385622
 40
1.759431153385622
 40
1.759431153385622
 40
1.759431153385622
 10
19.88589362565719
 20
46.34218763592142
 30
0.0
 10
19.93832268618603
 20
46.29860743736631
 30
0.0
 10
20.03178232491914
 20
46.22092171170588
 30
0.0
 10
20.23160374556802
 20
46.18844959159517
 30
0.0
 10
20.32950925964729
 20
46.3184551201736
 30
0.0
 10
20.45899248857913
 20
46.41333004667804
 30
0.0
 10
20.56650901541774
 20
46.3426173381522
 30
0.0
 10
20.66605485255305
 20
46.28423157886247
 30
0.0
 10
20.76866631318018
 20
46.35825367536886
 30
0.0
 10
20.82775525130787
 20
46.43413234982952
 30
0.0
 10
20.91599441262056
 20
46.51774750407514
 30
0.0
 10
21.01365701284755
 20
46.44432963085185
 30
0.0
 10
21.07360215519876
 20
46.36216246243714
 30
0.0
 10
21.16077146681963
 20
46.2724671835596
 30
0.0
 10
21.28451870110718
 20
46.28504830279364
 30
0.0
 10
21.35032181717788
 20
46.3221378117299
 30
0.0
 10
21.38589362565719
 20
46.34218763592142
 30
0.0
 11
19.88589362565719
 21
46.34218763592142
 31
0.0
 11
20.05739676725791
 21
46.22880495112323
 31
0.0
 11
20.21776624755213
 21
46.21579404545503
 31
0.0
 11
20.3421234073991
 21
46.31924057588564
 31
0.0
 11
20.46929369838923
 21
46.38647338709416
 31
0.0
 11
20.56780297728382
 21
46.34298283611929
 31
0.0
 11
20.66692240976013
 21
46.30562527789667
 31
0.0
 11
20.75693600886396
 21
46.35470884624608
 31
0.0
 11
20.84000710703781
 21
46.44318915262446
 31
0.0
 11
20.91844986059723
 21
46.49427086602407
 31
0.0
 11
20.99770704860413
 21
46.45206253217994
 31
0.0
 11
21.0797831003074
 21
46.35925817941327
 31
0.0
 11
21.16997731143308
 21
46.28765903140837
 31
0.0
 11
21.27440285951867
 21
46.29043617533188
 31
0.0
 11
21.38589362565719
 21
46.34218763592142
 31
0.0
  0
ARC
  5
BA
330
1F
100
AcDbEntity
  8
1
  6
Continuous
 62
     7
100
AcDbCircle
 10
14.69960379297678
 20
22.05068479987811
 30
0.0
 40
0.9999999999997691
100
AcDbArc
 50
-90.0
 51
35.99136111206257
  0
ARC
  5
BB
330
1F
100
AcDbEntity
  8
1
  6
Continuous
 62
     7
100
AcDbCircle
 10
14.69960379297678
 20
22.05068479987811
 30
0.0
 40
2.0
100
AcDbArc
 50
-90.0
 51
38.40058411928871
  0
ARC
  5
BC
330
1F
100
AcDbEntity
  8
1
  6
Continuous
 62
     7
100
AcDbCircle
 10
6.84073168491924
 20
36.05068479987813
 30
0.0
 40
1.5
100
AcDbArc
 50
90.0
 51
180.0
  0
ARC
  5
BD
330
1F
100
AcDbEntity
  8
1
  6
Continuous
 62
     7
100
AcDbCircle
 10
18.88589362565719
 20
25.05068479987813
 30
0.0
 40
2.499999999999989
100
AcDbArc
 50
-90.0
 51
0.0
  0
ARC
  5
BE
330
1F
100
AcDbEntity
  8
1
  6
Continuous
 62
     7
100
AcDbCircle
 10
17.86825553545233
 20
35.55068479987813
 30
0.0
 40
0.4999999999999585
100
AcDbArc
 50
-15.00000000000164
 51
90.0
  0
ARC
  5
BF
330
1F
100
AcDbEntity
  8
1
  6
Continuous
 62
     7
100
AcDbCircle
 10
18.88589362565719
 20
25.05068479987813
 30
0.0
 40
0.9999999999999893
100
AcDbArc
 50
-90.0
 51
0.0
  0
ARC
  5
C0
330
1F
100
AcDbEntity
  8
1
  6
Continuous
 62
     7
100
AcDbCircle
 10
17.86825553545233
 20
35.55068479987813
 30
0.0
 40
1.999999999999818
100
AcDbArc
 50
-15.00000000000029
 51
90.0
  0
ARC
  5
C1
330
1F
100
AcDbEntity
  8
1
  6
Continuous
 62
     7
100
AcDbCircle
 10
7.34073168491924
 20
35.55068479987813
 30
0.0
 40
0.5
100
AcDbArc
 50
90.0
 51
180.0
  0
ARC
  5
C2
330
1F
100
AcDbEntity
  8
1
  6
Continuous
 62
     7
100
AcDbCircle
 10
5.34073168491924
 20
-4.44931520012189
 30
0.0
 40
1.5
100
AcDbArc
 50
-90.0
 51
0.0
  0
ARC
  5
C3
330
1F
100
AcDbEntity
  8
1
  6
Continuous
 62
     7
100
AcDbCircle
 10
-21.65926831508074
 20
-4.44931520012189
 30
0.0
 40
1.5
100
AcDbArc
 50
180.0
 51
-90.0
  0
ARC
  5
C4
330
1F
100
AcDbEntity
  8
1
  6
Continuous
 62
     7
100
AcDbCircle
 10
-21.15926831508074
 20
-3.94931520012189
 30
0.0
 40
0.5
100
AcDbArc
 50
180.0
 51
-90.0
  0
ARC
  5
C5
330
1F
100
AcDbEntity
  8
1
  6
Continuous
 62
     7
100
AcDbCircle
 10
-4.90926831508074
 20
13.0506847998781
 30
0.0
 40
3.499999999999998
100
AcDbArc
 50
0.0
 51
90.0
  0
ARC
  5
C6
330
1F
100
AcDbEntity
  8
1
  6
Continuous
 62
     7
100
AcDbCircle
 10
-9.40926831508074
 20
13.0506847998781
 30
0.0
 40
3.499999999999998
100
AcDbArc
 50
90.0
 51
180.0
  0
ARC
  5
C7
330
1F
100
AcDbEntity
  8
1
  6
Continuous
 62
     7
100
AcDbCircle
 10
-9.40926831508074
 20
13.0506847998781
 30
0.0
 40
0.5
100
AcDbArc
 50
90.0
 51
180.0
  0
ARC
  5
C8
330
1F
100
AcDbEntity
  8
1
  6
Continuous
 62
     7
100
AcDbCircle
 10
-4.90926831508074
 20
13.0506847998781
 30
0.0
 40
0.5
100
AcDbArc
 50
0.0
 51
90.0
  0
ARC
  5
C9
330
1F
100
AcDbEntity
  8
1
  6
Continuous
 62
     7
100
AcDbCircle
 10
-14.90926831508074
 20
0.05068479987811
 30
0.0
 40
2.0
100
AcDbArc
 50
0.0
 51
45.00000000000008
  0
ARC
  5
CA
330
1F
100
AcDbEntity
  8
1
  6
Continuous
 62
     7
100
AcDbCircle
 10
-14.90926831508074
 20
15.13225797728875
 30
0.0
 40
2.00000000000001
100
AcDbArc
 50
-48.93108456428361
 51
0.0
  0
ARC
  5
CB
330
1F
100
AcDbEntity
  8
1
  6
Continuous
 62
     7
100
AcDbCircle
 10
-12.40926831508074
 20
18.0506847998781
 30
0.0
 40
0.5
100
AcDbArc
 50
90.0
 51
180.0
  0
ARC
  5
CC
330
1F
100
AcDbEntity
  8
1
  6
Continuous
 62
     7
100
AcDbCircle
 10
-12.40926831508074
 20
18.0506847998781
 30
0.0
 40
2.5
100
AcDbArc
 50
90.0
 51
180.0
  0
DIMENSION
  5
D8
330
1F
100
AcDbEntity
  8
1
100
AcDbDimension
  2
*D1
 10
5.34073168491924
 20
57.8773633060815
 30
0.0
 11
-9.53757722834396
 21
61.6273633060815
 31
0.0
 70
    32
  1
<>
 71
     5
 42
-1.0
 53
0.00013888888889
  3
ME10_DIM_10
100
AcDbAlignedDimension
 13
-21.90926831508074
 23
10.05068479987811
 33
0.0
 14
5.34073168491924
 24
35.55068479987813
 34
0.0
100
AcDbRotatedDimension
  0
DIMENSION
  5
E4
330
1F
100
AcDbEntity
  8
1
100
AcDbDimension
  2
*D2
 10
27.15794069203056
 20
-5.94931520012189
 30
0.0
 11
23.40794069203056
 21
1.40403739360011
 31
0.0
 70
    32
  1
<>
 71
     5
 42
-1.0
 53
90.0
  3
ME10_DIM_11
100
AcDbAlignedDimension
 13
8.07322510586934
 23
7.55068479987811
 33
0.0
 14
5.34073168491924
 24
-5.94931520012189
 34
0.0
 50
90.0
100
AcDbRotatedDimension
  0
DIMENSION
  5
F1
330
1F
100
AcDbEntity
  8
1
100
AcDbDimension
  2
*D3
 10
16.61459001105168
 20
11.05068479987811
 30
0.0
 11
12.86459001105168
 21
-0.98423541258849
 31
0.0
 70
    32
  1
<>
 71
     5
 42
-1.0
 53
90.0
  3
ME10_DIM_12
100
AcDbAlignedDimension
 13
6.84073168491924
 23
4.05068479987811
 33
0.0
 14
5.34073168491924
 24
11.05068479987811
 34
0.0
 50
90.0
100
AcDbRotatedDimension
  0
DIMENSION
  5
FC
330
1F
100
AcDbEntity
  8
1
100
AcDbDimension
  2
*D4
 10
-33.440924744809
 20
-4.44931520012189
 30
0.0
 11
-37.190924744809
 21
9.33415455657938
 31
0.0
 70
    32
  1
<>
 71
     5
 42
-1.0
 53
90.0
  3
ME10_DIM_13
100
AcDbAlignedDimension
 13
-12.40926831508074
 23
20.5506847998781
 33
0.0
 14
-21.15926831508074
 24
-4.44931520012189
 34
0.0
 50
90.0
100
AcDbRotatedDimension
  0
DIMENSION
  5
107
330
1F
100
AcDbEntity
  8
1
100
AcDbDimension
  2
*D5
 10
-14.90926831508074
 20
47.2206895563442
 30
0.0
 11
-4.9685684783263
 21
50.9706895563442
 31
0.0
 70
    32
  1
<>
 71
     5
 42
-1.0
 53
0.00013888888889
  3
ME10_DIM_14
100
AcDbAlignedDimension
 13
5.34073168491924
 23
35.55068479987813
 33
0.0
 14
-14.90926831508074
 24
18.0506847998781
 34
0.0
100
AcDbRotatedDimension
  0
DIMENSION
  5
112
330
1F
100
AcDbEntity
  8
1
100
AcDbDimension
  2
*D6
 10
6.84073168491924
 20
-16.3016485854447
 30
0.0
 11
-2.08321616431456
 21
-12.5516485854447
 31
0.0
 70
    32
  1
<>
 71
     5
 42
-1.0
 53
0.00013888888889
  3
ME10_DIM_15
100
AcDbAlignedDimension
 13
-9.15926831508076
 23
-5.94931520012189
 33
0.0
 14
6.84073168491924
 24
-4.44931520012189
 34
0.0
100
AcDbRotatedDimension
  0
DIMENSION
  5
11F
330
1F
100
AcDbEntity
  8
1
100
AcDbDimension
  2
*D7
 10
-9.15926831508076
 20
-16.3016485854447
 30
0.0
 11
-11.15926831508076
 21
-12.5516485854447
 31
0.0
 70
    32
  1
<>
 71
     5
 42
-1.0
 53
0.00013888888889
  3
ME10_DIM_16
100
AcDbAlignedDimension
 13
-13.15926831508076
 23
-4.44931520012189
 33
0.0
 14
-9.15926831508076
 24
-5.94931520012189
 34
0.0
100
AcDbRotatedDimension
  0
ENDSEC
  0
SECTION
  2
OBJECTS
  0
DICTIONARY
  5
C
330
0
100
AcDbDictionary
281
     1
  3
ACAD_GROUP
350
D
  3
ACAD_LAYOUT
350
1A
  3
ACAD_MLINESTYLE
350
17
  3
ACAD_PLOTSETTINGS
350
19
  3
ACAD_PLOTSTYLENAME
350
E
  0
DICTIONARY
  5
D
102
{ACAD_REACTORS
330
C
102
}
330
C
100
AcDbDictionary
281
     1
  0
DICTIONARY
  5
1A
102
{ACAD_REACTORS
330
C
102
}
330
C
100
AcDbDictionary
281
     1
  3
Layout1
350
1E
  3
Layout2
350
26
  3
Model
350
22
  0
DICTIONARY
  5
17
102
{ACAD_REACTORS
330
C
102
}
330
C
100
AcDbDictionary
281
     1
  3
Standard
350
18
  0
DICTIONARY
  5
19
102
{ACAD_REACTORS
330
C
102
}
330
C
100
AcDbDictionary
281
     1
  0
ACDBDICTIONARYWDFLT
  5
E
102
{ACAD_REACTORS
330
C
102
}
330
C
100
AcDbDictionary
281
     1
  3
Normal
350
F
100
AcDbDictionaryWithDefault
340
F
  0
LAYOUT
  5
1E
102
{ACAD_REACTORS
330
1A
102
}
330
1A
100
AcDbPlotSettings
  1

  2

  4

  6

 40
0.0
 41
0.0
 42
0.0
 43
0.0
 44
0.0
 45
0.0
 46
0.0
 47
0.0
 48
0.0
 49
0.0
140
0.0
141
0.0
142
1.0
143
1.0
 70
   688
 72
     0
 73
     0
 74
     5
  7

 75
    16
 76
     0
 77
     2
 78
   300
147
1.0
148
0.0
149
0.0
100
AcDbLayout
  1
Layout1
 70
     1
 71
     1
 10
0.0
 20
0.0
 11
0.0
 21
0.0
 12
0.0
 22
0.0
 32
0.0
 14
0.0
 24
0.0
 34
0.0
 15
0.0
 25
0.0
 35
0.0
146
0.0
 13
0.0
 23
0.0
 33
0.0
 16
1.0
 26
0.0
 36
0.0
 17
0.0
 27
1.0
 37
0.0
 76
     0
330
1B
  0
LAYOUT
  5
26
102
{ACAD_REACTORS
330
1A
102
}
330
1A
100
AcDbPlotSettings
  1

  2

  4

  6

 40
0.0
 41
0.0
 42
0.0
 43
0.0
 44
0.0
 45
0.0
 46
0.0
 47
0.0
 48
0.0
 49
0.0
140
0.0
141
0.0
142
1.0
143
1.0
 70
   688
 72
     0
 73
     0
 74
     5
  7

 75
    16
 76
     0
 77
     2
 78
   300
147
1.0
148
0.0
149
0.0
100
AcDbLayout
  1
Layout2
 70
     1
 71
     2
 10
0.0
 20
0.0
 11
0.0
 21
0.0
 12
0.0
 22
0.0
 32
0.0
 14
0.0
 24
0.0
 34
0.0
 15
0.0
 25
0.0
 35
0.0
146
0.0
 13
0.0
 23
0.0
 33
0.0
 16
1.0
 26
0.0
 36
0.0
 17
0.0
 27
1.0
 37
0.0
 76
     0
330
23
  0
LAYOUT
  5
22
102
{ACAD_REACTORS
330
1A
102
}
330
1A
100
AcDbPlotSettings
  1

  2

  4

  6

 40
0.0
 41
0.0
 42
0.0
 43
0.0
 44
0.0
 45
0.0
 46
0.0
 47
0.0
 48
0.0
 49
0.0
140
0.0
141
0.0
142
1.0
143
1.0
 70
  1712
 72
     0
 73
     0
 74
     0
  7

 75
     0
 76
     0
 77
     2
 78
   300
147
1.0
148
0.0
149
0.0
100
AcDbLayout
  1
Model
 70
     1
 71
     0
 10
0.0
 20
0.0
 11
0.0
 21
0.0
 12
0.0
 22
0.0
 32
0.0
 14
-38.940924744809
 24
-18.3016485854447
 34
0.0
 15
29.15794069203056
 25
63.3773633060815
 35
0.0
146
0.0
 13
0.0
 23
0.0
 33
0.0
 16
1.0
 26
0.0
 36
0.0
 17
0.0
 27
1.0
 37
0.0
 76
     0
330
1F
  0
MLINESTYLE
  5
18
102
{ACAD_REACTORS
330
17
102
}
330
17
100
AcDbMlineStyle
  2
Standard
 70
     0
  3

 62
   256
 51
90.0
 52
90.0
 71
     2
 49
0.5
 62
   256
  6
BYLAYER
 49
-0.5
 62
   256
  6
BYLAYER
  0
ACDBPLACEHOLDER
  5
F
102
{ACAD_REACTORS
330
E
102
}
330
E
  0
ENDSEC
  0
EOF
