  0
SECTION
  2
HEADER
  9
$ACADVER
  1
AC1018
  9
$ACADMAINTVER
 70
     0
  9
$DWGCODEPAGE
  3
ANSI_1252
  9
$INSBASE
 10
0.0
 20
0.0
 30
0.0
  9
$EXTMIN
 10
218.510367562813
 20
194.552630618036
 30
0.0
  9
$EXTMAX
 10
284.460336104006
 20
315.985235000274
 30
0.0
  9
$LIMMIN
 10
0.0
 20
0.0
  9
$LIMMAX
 10
12.0
 20
9.0
  9
$ORTHOMODE
 70
     0
  9
$REGENMODE
 70
     1
  9
$FILLMODE
 70
     1
  9
$QTEXTMODE
 70
     0
  9
$MIRRTEXT
 70
     1
  9
$LTSCALE
 40
1.0
  9
$ATTMODE
 70
     1
  9
$TEXTSIZE
 40
0.2
  9
$TRACEWID
 40
0.05
  9
$TEXTSTYLE
  7
Standard
  9
$CLAYER
  8
0
  9
$CELTYPE
  6
ByLayer
  9
$CECOLOR
 62
   256
  9
$CELTSCALE
 40
1.0
  9
$DISPSILH
 70
     0
  9
$DIMSCALE
 40
1.0
  9
$DIMASZ
 40
0.18
  9
$DIMEXO
 40
0.0625
  9
$DIMDLI
 40
0.38
  9
$DIMRND
 40
0.0
  9
$DIMDLE
 40
0.0
  9
$DIMEXE
 40
0.18
  9
$DIMTP
 40
0.0
  9
$DIMTM
 40
0.0
  9
$DIMTXT
 40
0.18
  9
$DIMCEN
 40
0.09
  9
$DIMTSZ
 40
0.0
  9
$DIMTOL
 70
     0
  9
$DIMLIM
 70
     0
  9
$DIMTIH
 70
     1
  9
$DIMTOH
 70
     1
  9
$DIMSE1
 70
     0
  9
$DIMSE2
 70
     0
  9
$DIMTAD
 70
     0
  9
$DIMZIN
 70
     0
  9
$DIMBLK
  1

  9
$DIMASO
 70
     1
  9
$DIMSHO
 70
     1
  9
$DIMPOST
  1

  9
$DIMAPOST
  1

  9
$DIMALT
 70
     0
  9
$DIMALTD
 70
     2
  9
$DIMALTF
 40
25.4
  9
$DIMLFAC
 40
1.0
  9
$DIMTOFL
 70
     0
  9
$DIMTVP
 40
0.0
  9
$DIMTIX
 70
     0
  9
$DIMSOXD
 70
     0
  9
$DIMSAH
 70
     0
  9
$DIMBLK1
  1

  9
$DIMBLK2
  1

  9
$DIMSTYLE
  2
Standard
  9
$DIMCLRD
 70
     0
  9
$DIMCLRE
 70
     0
  9
$DIMCLRT
 70
     0
  9
$DIMTFAC
 40
1.0
  9
$DIMGAP
 40
0.09
  9
$DIMJUST
 70
     0
  9
$DIMSD1
 70
     0
  9
$DIMSD2
 70
     0
  9
$DIMTOLJ
 70
     1
  9
$DIMTZIN
 70
     0
  9
$DIMALTZ
 70
     0
  9
$DIMALTTZ
 70
     0
  9
$DIMUPT
 70
     0
  9
$DIMDEC
 70
     4
  9
$DIMTDEC
 70
     4
  9
$DIMALTU
 70
     2
  9
$DIMALTTD
 70
     2
  9
$DIMTXSTY
  7
Standard
  9
$DIMAUNIT
 70
     0
  9
$DIMADEC
 70
     0
  9
$DIMALTRND
 40
0.0
  9
$DIMAZIN
 70
     0
  9
$DIMDSEP
 70
    46
  9
$DIMATFIT
 70
     3
  9
$DIMFRAC
 70
     0
  9
$DIMLDRBLK
  1

  9
$DIMLUNIT
 70
     2
  9
$DIMLWD
 70
    -2
  9
$DIMLWE
 70
    -2
  9
$DIMTMOVE
 70
     0
  9
$LUNITS
 70
     2
  9
$LUPREC
 70
     4
  9
$SKETCHINC
 40
0.1
  9
$FILLETRAD
 40
0.5
  9
$AUNITS
 70
     0
  9
$AUPREC
 70
     0
  9
$MENU
  1
.
  9
$ELEVATION
 40
0.0
  9
$PELEVATION
 40
0.0
  9
$THICKNESS
 40
0.0
  9
$LIMCHECK
 70
     0
  9
$CHAMFERA
 40
0.5
  9
$CHAMFERB
 40
0.5
  9
$CHAMFERC
 40
1.0
  9
$CHAMFERD
 40
0.0
  9
$SKPOLY
 70
     0
  9
$TDCREATE
 40
2454428.408265949
  9
$TDUCREATE
 40
2454428.366599282
  9
$TDUPDATE
 40
2454428.408265961
  9
$TDUUPDATE
 40
2454428.366599294
  9
$TDINDWG
 40
0.0000000116
  9
$TDUSRTIMER
 40
0.0000000116
  9
$USRTIMER
 70
     1
  9
$ANGBASE
 50
0.0
  9
$ANGDIR
 70
     0
  9
$PDMODE
 70
     0
  9
$PDSIZE
 40
0.0
  9
$PLINEWID
 40
0.0
  9
$SPLFRAME
 70
     0
  9
$SPLINETYPE
 70
     6
  9
$SPLINESEGS
 70
     8
  9
$HANDSEED
  5
C2
  9
$SURFTAB1
 70
     6
  9
$SURFTAB2
 70
     6
  9
$SURFTYPE
 70
     6
  9
$SURFU
 70
     6
  9
$SURFV
 70
     6
  9
$UCSBASE
  2

  9
$UCSNAME
  2

  9
$UCSORG
 10
0.0
 20
0.0
 30
0.0
  9
$UCSXDIR
 10
1.0
 20
0.0
 30
0.0
  9
$UCSYDIR
 10
0.0
 20
1.0
 30
0.0
  9
$UCSORTHOREF
  2

  9
$UCSORTHOVIEW
 70
     0
  9
$UCSORGTOP
 10
0.0
 20
0.0
 30
0.0
  9
$UCSORGBOTTOM
 10
0.0
 20
0.0
 30
0.0
  9
$UCSORGLEFT
 10
0.0
 20
0.0
 30
0.0
  9
$UCSORGRIGHT
 10
0.0
 20
0.0
 30
0.0
  9
$UCSORGFRONT
 10
0.0
 20
0.0
 30
0.0
  9
$UCSORGBACK
 10
0.0
 20
0.0
 30
0.0
  9
$PUCSBASE
  2

  9
$PUCSNAME
  2

  9
$PUCSORG
 10
0.0
 20
0.0
 30
0.0
  9
$PUCSXDIR
 10
1.0
 20
0.0
 30
0.0
  9
$PUCSYDIR
 10
0.0
 20
1.0
 30
0.0
  9
$PUCSORTHOREF
  2

  9
$PUCSORTHOVIEW
 70
     0
  9
$PUCSORGTOP
 10
0.0
 20
0.0
 30
0.0
  9
$PUCSORGBOTTOM
 10
0.0
 20
0.0
 30
0.0
  9
$PUCSORGLEFT
 10
0.0
 20
0.0
 30
0.0
  9
$PUCSORGRIGHT
 10
0.0
 20
0.0
 30
0.0
  9
$PUCSORGFRONT
 10
0.0
 20
0.0
 30
0.0
  9
$PUCSORGBACK
 10
0.0
 20
0.0
 30
0.0
  9
$USERI1
 70
     0
  9
$USERI2
 70
     0
  9
$USERI3
 70
     0
  9
$USERI4
 70
     0
  9
$USERI5
 70
     0
  9
$USERR1
 40
14.5
  9
$USERR2
 40
0.0
  9
$USERR3
 40
0.0
  9
$USERR4
 40
0.0
  9
$USERR5
 40
0.0
  9
$WORLDVIEW
 70
     1
  9
$SHADEDGE
 70
     3
  9
$SHADEDIF
 70
    70
  9
$TILEMODE
 70
     1
  9
$MAXACTVP
 70
    64
  9
$PINSBASE
 10
0.0
 20
0.0
 30
0.0
  9
$PLIMCHECK
 70
     0
  9
$PEXTMIN
 10
1.00000000000000E+20
 20
1.00000000000000E+20
 30
1.00000000000000E+20
  9
$PEXTMAX
 10
-1.00000000000000E+20
 20
-1.00000000000000E+20
 30
-1.00000000000000E+20
  9
$PLIMMIN
 10
0.0
 20
0.0
  9
$PLIMMAX
 10
12.0
 20
9.0
  9
$UNITMODE
 70
     0
  9
$VISRETAIN
 70
     1
  9
$PLINEGEN
 70
     0
  9
$PSLTSCALE
 70
     1
  9
$TREEDEPTH
 70
  3020
  9
$CMLSTYLE
  2
Standard
  9
$CMLJUST
 70
     0
  9
$CMLSCALE
 40
1.0
  9
$PROXYGRAPHICS
 70
     1
  9
$MEASUREMENT
 70
     1
  9
$CELWEIGHT
370
    -1
  9
$ENDCAPS
280
     0
  9
$JOINSTYLE
280
     0
  9
$LWDISPLAY
290
     0
  9
$INSUNITS
 70
     1
  9
$HYPERLINKBASE
  1

  9
$STYLESHEET
  1

  9
$XEDIT
290
     1
  9
$CEPSNTYPE
380
     0
  9
$PSTYLEMODE
290
     1
  9
$FINGERPRINTGUID
  2
{CB7BCB45-9DD5-4C5E-AAD6-79673E681998}
  9
$VERSIONGUID
  2
{FAEB1C32-E019-11D5-929B-00C0DF256EC4}
  9
$EXTNAMES
290
     1
  9
$PSVPSCALE
 40
0.0
  9
$OLESTARTUP
290
     0
  9
$SORTENTS
280
   127
  9
$INDEXCTL
280
     0
  9
$HIDETEXT
280
     1
  9
$XCLIPFRAME
290
     0
  9
$HALOGAP
280
     0
  9
$OBSCOLOR
 70
   257
  9
$OBSLTYPE
280
     0
  9
$INTERSECTIONDISPLAY
280
     0
  9
$INTERSECTIONCOLOR
 70
   257
  9
$DIMASSOC
280
     2
  9
$PROJECTNAME
  1

  0
ENDSEC
  0
SECTION
  2
CLASSES
  0
CLASS
  1
ACDBDICTIONARYWDFLT
  2
AcDbDictionaryWithDefault
  3
ObjectDBX Classes
 90
        0
 91
        3
280
     0
281
     0
  0
ENDSEC
  0
SECTION
  2
TABLES
  0
TABLE
  2
VPORT
  5
8
330
0
100
AcDbSymbolTable
 70
     1
  0
VPORT
  5
29
330
8
100
AcDbSymbolTableRecord
100
AcDbViewportTableRecord
  2
*Active
 70
     0
 10
0.0
 20
0.0
 11
1.0
 21
1.0
 12
251.4853518334095
 22
255.268932809155
 13
0.0
 23
0.0
 14
0.5
 24
0.5
 15
0.5
 25
0.5
 16
0.0
 26
0.0
 36
1.0
 17
0.0
 27
0.0
 37
0.0
 40
133.5758648204618
 41
1.60267857142857
 42
50.0
 43
0.0
 44
0.0
 50
0.0
 51
0.0
 71
     0
 72
   100
 73
     1
 74
     3
 75
     0
 76
     0
 77
     0
 78
     0
281
     0
 65
     1
110
0.0
120
0.0
130
0.0
111
1.0
121
0.0
131
0.0
112
0.0
122
1.0
132
0.0
 79
     0
146
0.0
  0
ENDTAB
  0
TABLE
  2
LTYPE
  5
5
330
0
100
AcDbSymbolTable
 70
     8
  0
LTYPE
  5
14
330
5
100
AcDbSymbolTableRecord
100
AcDbLinetypeTableRecord
  2
ByBlock
 70
     0
  3

 72
    65
 73
     0
 40
0.0
  0
LTYPE
  5
15
330
5
100
AcDbSymbolTableRecord
100
AcDbLinetypeTableRecord
  2
ByLayer
 70
     0
  3

 72
    65
 73
     0
 40
0.0
  0
LTYPE
  5
16
330
5
100
AcDbSymbolTableRecord
100
AcDbLinetypeTableRecord
  2
Continuous
 70
     0
  3
Solid line
 72
    65
 73
     0
 40
0.0
  0
LTYPE
  5
2A
330
5
100
AcDbSymbolTableRecord
100
AcDbLinetypeTableRecord
  2
DASHED
 70
     0
  3
Dashed
 72
    65
 73
     2
 40
15.0
 49
7.0
 74
     0
 49
-8.0
 74
     0
  0
LTYPE
  5
2B
330
5
100
AcDbSymbolTableRecord
100
AcDbLinetypeTableRecord
  2
DOTTED
 70
     0
  3
Dotted
 72
    65
 73
     2
 40
1.0
 49
0.0
 74
     0
 49
-1.0
 74
     0
  0
LTYPE
  5
2C
330
5
100
AcDbSymbolTableRecord
100
AcDbLinetypeTableRecord
  2
DOT_CENTER
 70
     0
  3
Dot_Center
 72
    65
 73
     4
 40
14.0
 49
12.0
 74
     0
 49
-1.0
 74
     0
 49
0.0
 74
     0
 49
-1.0
 74
     0
  0
LTYPE
  5
2D
330
5
100
AcDbSymbolTableRecord
100
AcDbLinetypeTableRecord
  2
LONG_DASHED
 70
     0
  3
Long_Dashed
 72
    65
 73
     2
 40
15.0
 49
10.0
 74
     0
 49
-5.0
 74
     0
  0
LTYPE
  5
2E
330
5
100
AcDbSymbolTableRecord
100
AcDbLinetypeTableRecord
  2
DASH_CENTER
 70
     0
  3
Dash_Center
 72
    65
 73
     4
 40
14.0
 49
11.0
 74
     0
 49
-1.0
 74
     0
 49
1.0
 74
     0
 49
-1.0
 74
     0
  0
LTYPE
  5
2F
330
5
100
AcDbSymbolTableRecord
100
AcDbLinetypeTableRecord
  2
PHANTOM
 70
     0
  3
Phantom
 72
    65
 73
     6
 40
13.0
 49
10.0
 74
     0
 49
-1.0
 74
     0
 49
0.0
 74
     0
 49
-1.0
 74
     0
 49
0.0
 74
     0
 49
-1.0
 74
     0
  0
LTYPE
  5
30
330
5
100
AcDbSymbolTableRecord
100
AcDbLinetypeTableRecord
  2
CENTER_DASH_DASH
 70
     0
  3
Center_Dash_Dash
 72
    65
 73
     6
 40
14.0
 49
9.0
 74
     0
 49
-1.0
 74
     0
 49
1.0
 74
     0
 49
-1.0
 74
     0
 49
1.0
 74
     0
 49
-1.0
 74
     0
  0
ENDTAB
  0
TABLE
  2
LAYER
  5
2
330
0
100
AcDbSymbolTable
 70
     2
  0
LAYER
  5
10
330
2
100
AcDbSymbolTableRecord
100
AcDbLayerTableRecord
  2
0
 70
     0
 62
     7
  6
Continuous
370
    -3
390
F
  0
LAYER
  5
31
330
2
100
AcDbSymbolTableRecord
100
AcDbLayerTableRecord
  2
1
 70
     0
 62
     7
  6
Continuous
370
    -3
390
F
  0
ENDTAB
  0
TABLE
  2
STYLE
  5
3
330
0
100
AcDbSymbolTable
 70
     2
  0
STYLE
  5
11
330
3
100
AcDbSymbolTableRecord
100
AcDbTextStyleTableRecord
  2
Standard
 70
     0
 40
0.0
 41
1.0
 50
0.0
 71
     0
 42
0.2
  3
txt
  4

  0
STYLE
  5
73
330
3
100
AcDbSymbolTableRecord
100
AcDbTextStyleTableRecord
  2
CONVERTER_11
 70
     0
 40
0.0
 41
0.9
 50
0.0
 71
     0
 42
0.2
  3
txt.shx
  4

  0
ENDTAB
  0
TABLE
  2
VIEW
  5
6
330
0
100
AcDbSymbolTable
 70
     0
  0
ENDTAB
  0
TABLE
  2
UCS
  5
7
330
0
100
AcDbSymbolTable
 70
     0
  0
ENDTAB
  0
TABLE
  2
APPID
  5
9
330
0
100
AcDbSymbolTable
 70
     1
  0
APPID
  5
12
330
9
100
AcDbSymbolTableRecord
100
AcDbRegAppTableRecord
  2
ACAD
 70
     0
  0
ENDTAB
  0
TABLE
  2
DIMSTYLE
  5
A
330
0
100
AcDbSymbolTable
 70
     8
100
AcDbDimStyleTable
  0
DIMSTYLE
105
27
330
A
100
AcDbSymbolTableRecord
100
AcDbDimStyleTableRecord
  2
Standard
 70
     0
340
11
  0
DIMSTYLE
105
7E
102
{ACAD_REACTORS
330
7F
102
}
330
A
100
AcDbSymbolTableRecord
100
AcDbDimStyleTableRecord
  2
ME10_DIM_10
 70
     0
 41
3.5
 42
0.0
 44
2.0
 73
     0
 74
     0
 77
     1
 78
     8
140
3.5
147
2.0
172
     1
173
     1
176
     2
177
     2
178
     2
271
     3
340
73
  0
DIMSTYLE
105
89
102
{ACAD_REACTORS
330
8A
102
}
330
A
100
AcDbSymbolTableRecord
100
AcDbDimStyleTableRecord
  2
ME10_DIM_11
 70
     0
  3
ø<>
 41
3.5
 42
0.0
 44
2.0
 73
     0
 74
     0
 77
     1
 78
     8
140
3.5
147
2.0
172
     1
173
     1
176
     2
177
     2
178
     2
271
     3
340
73
  0
DIMSTYLE
105
94
102
{ACAD_REACTORS
330
95
102
}
330
A
100
AcDbSymbolTableRecord
100
AcDbDimStyleTableRecord
  2
ME10_DIM_12
 70
     0
 41
3.5
 42
0.0
 44
2.0
 73
     0
 74
     0
 77
     1
 78
     8
140
3.5
147
2.0
172
     1
173
     1
176
     2
177
     2
178
     2
271
     3
340
73
  0
DIMSTYLE
105
9F
102
{ACAD_REACTORS
330
A0
102
}
330
A
100
AcDbSymbolTableRecord
100
AcDbDimStyleTableRecord
  2
ME10_DIM_13
 70
     0
 41
3.5
 42
0.0
 44
2.0
 73
     0
 74
     0
 77
     1
 78
     8
140
3.5
147
2.0
172
     1
173
     1
176
     2
177
     2
178
     2
271
     3
340
73
  0
DIMSTYLE
105
AA
102
{ACAD_REACTORS
330
AB
102
}
330
A
100
AcDbSymbolTableRecord
100
AcDbDimStyleTableRecord
  2
ME10_DIM_14
 70
     0
 41
3.5
 42
0.0
 44
2.0
 73
     0
 74
     0
 77
     1
 78
     8
140
3.5
147
2.0
172
     1
173
     1
176
     2
177
     2
178
     2
271
     3
340
73
  0
DIMSTYLE
105
B5
102
{ACAD_REACTORS
330
B6
102
}
330
A
100
AcDbSymbolTableRecord
100
AcDbDimStyleTableRecord
  2
ME10_DIM_15
 70
     0
 41
3.5
 42
0.0
 44
2.0
 73
     0
 74
     0
 77
     1
 78
     8
140
3.5
147
2.0
172
     1
173
     1
176
     2
177
     2
178
     2
271
     3
340
73
  0
DIMSTYLE
105
C0
102
{ACAD_REACTORS
330
C1
102
}
330
A
100
AcDbSymbolTableRecord
100
AcDbDimStyleTableRecord
  2
ME10_DIM_16
 70
     0
 41
3.5
 42
0.0
 44
2.0
 73
     0
 74
     0
 77
     1
 78
     8
140
3.5
147
2.0
172
     1
173
     1
176
     2
177
     2
178
     2
271
     3
340
73
  0
ENDTAB
  0
TABLE
  2
BLOCK_RECORD
  5
1
330
0
100
AcDbSymbolTable
 70
     8
  0
BLOCK_RECORD
  5
1F
330
1
100
AcDbSymbolTableRecord
100
AcDbBlockTableRecord
  2
*Model_Space
340
22
  0
BLOCK_RECORD
  5
1B
330
1
100
AcDbSymbolTableRecord
100
AcDbBlockTableRecord
  2
*Paper_Space
340
1E
  0
BLOCK_RECORD
  5
23
330
1
100
AcDbSymbolTableRecord
100
AcDbBlockTableRecord
  2
*Paper_Space0
340
26
  0
BLOCK_RECORD
  5
75
330
1
100
AcDbSymbolTableRecord
100
AcDbBlockTableRecord
  2
*D1
340
0
  0
BLOCK_RECORD
  5
80
330
1
100
AcDbSymbolTableRecord
100
AcDbBlockTableRecord
  2
*D2
340
0
  0
BLOCK_RECORD
  5
8B
330
1
100
AcDbSymbolTableRecord
100
AcDbBlockTableRecord
  2
*D3
340
0
  0
BLOCK_RECORD
  5
96
330
1
100
AcDbSymbolTableRecord
100
AcDbBlockTableRecord
  2
*D4
340
0
  0
BLOCK_RECORD
  5
A1
330
1
100
AcDbSymbolTableRecord
100
AcDbBlockTableRecord
  2
*D5
340
0
  0
BLOCK_RECORD
  5
AC
330
1
100
AcDbSymbolTableRecord
100
AcDbBlockTableRecord
  2
*D6
340
0
  0
BLOCK_RECORD
  5
B7
330
1
100
AcDbSymbolTableRecord
100
AcDbBlockTableRecord
  2
*D7
340
0
  0
ENDTAB
  0
ENDSEC
  0
SECTION
  2
BLOCKS
  0
BLOCK
  5
20
330
1F
100
AcDbEntity
  8
0
100
AcDbBlockBegin
  2
*Model_Space
 70
     0
 71
     0
 10
0.0
 20
0.0
 30
0.0
  3
*Model_Space
  1

  0
ENDBLK
  5
21
330
1F
100
AcDbEntity
  8
0
100
AcDbBlockEnd
  0
BLOCK
  5
1C
330
1B
100
AcDbEntity
 67
     1
  8
0
100
AcDbBlockBegin
  2
*Paper_Space
 70
     0
 71
     0
 10
0.0
 20
0.0
 30
0.0
  3
*Paper_Space
  1

  0
ENDBLK
  5
1D
330
1B
100
AcDbEntity
 67
     1
  8
0
100
AcDbBlockEnd
  0
BLOCK
  5
24
330
23
100
AcDbEntity
  8
0
100
AcDbBlockBegin
  2
*Paper_Space0
 70
     0
 71
     0
 10
0.0
 20
0.0
 30
0.0
  3
*Paper_Space0
  1

  0
ENDBLK
  5
25
330
23
100
AcDbEntity
  8
0
100
AcDbBlockEnd
  0
BLOCK
  5
7C
330
75
100
AcDbEntity
  8
0
100
AcDbBlockBegin
  2
*D1
 70
     1
 71
     0
 10
0.0
 20
0.0
 30
0.0
  3
*D1
  1

  0
LINE
  5
76
330
75
100
AcDbEntity
  8
1
  6
Continuous
 62
     2
100
AcDbLine
 10
240.7571584227601
 20
310.485235000274
 30
0.0
 11
251.9571584227601
 21
310.485235000274
 31
0.0
  0
LINE
  5
77
330
75
100
AcDbEntity
  8
1
  6
Continuous
 62
     2
100
AcDbLine
 10
240.7571584227601
 20
278.6399960410989
 30
0.0
 11
240.7571584227601
 21
312.485235000274
 31
0.0
  0
LINE
  5
78
330
75
100
AcDbEntity
  8
1
  6
Continuous
 62
     2
100
AcDbLine
 10
251.9571584227601
 20
302.6399960410989
 30
0.0
 11
251.9571584227601
 21
312.485235000274
 31
0.0
  0
SOLID
  5
79
330
75
100
AcDbEntity
  8
1
 62
     2
100
AcDbTrace
 10
244.2571584227601
 20
310.9460187418298
 30
0.0
 11
244.2571584227601
 21
310.0244512587181
 31
0.0
 12
240.7571584227601
 22
310.485235000274
 32
0.0
 13
240.7571584227601
 23
310.485235000274
 33
0.0
  0
SOLID
  5
7A
330
75
100
AcDbEntity
  8
1
 62
     2
100
AcDbTrace
 10
248.4571584227601
 20
310.0244512587181
 30
0.0
 11
248.4571584227601
 21
310.9460187418298
 31
0.0
 12
251.9571584227601
 22
310.485235000274
 32
0.0
 13
251.9571584227601
 23
310.485235000274
 33
0.0
  0
MTEXT
  5
7B
330
75
100
AcDbEntity
  8
1
 62
     2
100
AcDbMText
 10
242.425391199982
 20
312.485235000274
 30
0.0
 40
3.5
 41
0.0
 71
     7
 72
     1
  1
11.2
  7
CONVERTER_11
 11
0.9999999999970621
 21
2.424068405545307E-6
 31
0.0
 73
     1
 44
0.60024009603842
  0
ENDBLK
  5
7D
330
75
100
AcDbEntity
  8
0
100
AcDbBlockEnd
  0
BLOCK
  5
87
330
80
100
AcDbEntity
  8
0
100
AcDbBlockBegin
  2
*D2
 70
     1
 71
     0
 10
0.0
 20
0.0
 30
0.0
  3
*D2
  1

  0
LINE
  5
81
330
80
100
AcDbEntity
  8
1
  6
Continuous
 62
     2
100
AcDbLine
 10
233.2571584227601
 20
196.552630618036
 30
0.0
 11
248.2571584227601
 21
196.552630618036
 31
0.0
  0
LINE
  5
82
330
80
100
AcDbEntity
  8
1
  6
Continuous
 62
     2
100
AcDbLine
 10
233.2571584227601
 20
229.1399960410989
 30
0.0
 11
233.2571584227601
 21
194.552630618036
 31
0.0
  0
LINE
  5
83
330
80
100
AcDbEntity
  8
1
  6
Continuous
 62
     2
100
AcDbLine
 10
248.2571584227601
 20
229.1399960410989
 30
0.0
 11
248.2571584227601
 21
194.552630618036
 31
0.0
  0
SOLID
  5
84
330
80
100
AcDbEntity
  8
1
 62
     2
100
AcDbTrace
 10
236.7571584227601
 20
197.0134143595919
 30
0.0
 11
236.7571584227601
 21
196.0918468764801
 31
0.0
 12
233.2571584227601
 22
196.552630618036
 32
0.0
 13
233.2571584227601
 23
196.552630618036
 33
0.0
  0
SOLID
  5
85
330
80
100
AcDbEntity
  8
1
 62
     2
100
AcDbTrace
 10
244.7571584227601
 20
196.0918468764801
 30
0.0
 11
244.7571584227601
 21
197.0134143595919
 31
0.0
 12
248.2571584227601
 22
196.552630618036
 32
0.0
 13
248.2571584227601
 23
196.552630618036
 33
0.0
  0
MTEXT
  5
86
330
80
100
AcDbEntity
  8
1
 62
     2
100
AcDbMText
 10
237.3281635302104
 20
198.5526236609597
 30
0.0
 40
3.5
 41
0.0
 71
     7
 72
     1
  1
\C2;ø\C2;15
  7
CONVERTER_11
 11
0.9999999999970621
 21
2.424068405545307E-6
 31
0.0
 73
     1
 44
0.60024009603842
  0
ENDBLK
  5
88
330
80
100
AcDbEntity
  8
0
100
AcDbBlockEnd
  0
BLOCK
  5
92
330
8B
100
AcDbEntity
  8
0
100
AcDbBlockBegin
  2
*D3
 70
     1
 71
     0
 10
0.0
 20
0.0
 30
0.0
  3
*D3
  1

  0
LINE
  5
8C
330
8B
100
AcDbEntity
  8
1
  6
Continuous
 62
     2
100
AcDbLine
 10
282.460336104006
 20
207.6399960410989
 30
0.0
 11
282.460336104006
 21
302.6399960410989
 31
0.0
  0
LINE
  5
8D
330
8B
100
AcDbEntity
  8
1
  6
Continuous
 62
     2
100
AcDbLine
 10
251.9571584227601
 20
207.6399960410989
 30
0.0
 11
284.460336104006
 21
207.6399960410989
 31
0.0
  0
LINE
  5
8E
330
8B
100
AcDbEntity
  8
1
  6
Continuous
 62
     2
100
AcDbLine
 10
251.9571584227601
 20
302.6399960410989
 30
0.0
 11
284.460336104006
 21
302.6399960410989
 31
0.0
  0
SOLID
  5
8F
330
8B
100
AcDbEntity
  8
1
 62
     2
100
AcDbTrace
 10
281.9995523624501
 20
211.1399960410989
 30
0.0
 11
282.9211198455619
 21
211.1399960410989
 31
0.0
 12
282.460336104006
 22
207.6399960410989
 32
0.0
 13
282.460336104006
 23
207.6399960410989
 33
0.0
  0
SOLID
  5
90
330
8B
100
AcDbEntity
  8
1
 62
     2
100
AcDbTrace
 10
282.9211198455619
 20
299.1399960410989
 30
0.0
 11
281.9995523624501
 21
299.1399960410989
 31
0.0
 12
282.460336104006
 22
302.6399960410989
 32
0.0
 13
282.460336104006
 23
302.6399960410989
 33
0.0
  0
MTEXT
  5
91
330
8B
100
AcDbEntity
  8
1
 62
     2
100
AcDbMText
 10
280.460336104006
 20
247.297043584148
 30
0.0
 40
3.5
 41
0.0
 71
     7
 72
     1
  1
95
  7
CONVERTER_11
 11
0.0
 21
1.0
 31
0.0
 73
     1
 44
0.60024009603842
  0
ENDBLK
  5
93
330
8B
100
AcDbEntity
  8
0
100
AcDbBlockEnd
  0
BLOCK
  5
9D
330
96
100
AcDbEntity
  8
0
100
AcDbBlockBegin
  2
*D4
 70
     1
 71
     0
 10
0.0
 20
0.0
 30
0.0
  3
*D4
  1

  0
LINE
  5
97
330
96
100
AcDbEntity
  8
1
  6
Continuous
 62
     2
100
AcDbLine
 10
266.561513493523
 20
283.1399960410989
 30
0.0
 11
266.561513493523
 21
270.1399960410989
 31
0.0
  0
LINE
  5
98
330
96
100
AcDbEntity
  8
1
  6
Continuous
 62
     2
100
AcDbLine
 10
253.4571584227601
 20
283.1399960410989
 30
0.0
 11
268.561513493523
 21
283.1399960410989
 31
0.0
  0
LINE
  5
99
330
96
100
AcDbEntity
  8
1
  6
Continuous
 62
     2
100
AcDbLine
 10
261.681268285616
 20
270.1399960410989
 30
0.0
 11
268.561513493523
 21
270.1399960410989
 31
0.0
  0
SOLID
  5
9A
330
96
100
AcDbEntity
  8
1
 62
     2
100
AcDbTrace
 10
267.0222972350789
 20
279.6399960410989
 30
0.0
 11
266.1007297519672
 21
279.6399960410989
 31
0.0
 12
266.561513493523
 22
283.1399960410989
 32
0.0
 13
266.561513493523
 23
283.1399960410989
 33
0.0
  0
SOLID
  5
9B
330
96
100
AcDbEntity
  8
1
 62
     2
100
AcDbTrace
 10
266.1007297519672
 20
273.6399960410989
 30
0.0
 11
267.0222972350789
 21
273.6399960410989
 31
0.0
 12
266.561513493523
 22
270.1399960410989
 32
0.0
 13
266.561513493523
 23
270.1399960410989
 33
0.0
  0
MTEXT
  5
9C
330
96
100
AcDbEntity
  8
1
 62
     2
100
AcDbMText
 10
264.561513493523
 20
273.81876704183
 30
0.0
 40
3.5
 41
0.0
 71
     7
 72
     1
  1
13
  7
CONVERTER_11
 11
0.0
 21
1.0
 31
0.0
 73
     1
 44
0.60024009603842
  0
ENDBLK
  5
9E
330
96
100
AcDbEntity
  8
0
100
AcDbBlockEnd
  0
BLOCK
  5
A8
330
A1
100
AcDbEntity
  8
0
100
AcDbBlockBegin
  2
*D5
 70
     1
 71
     0
 10
0.0
 20
0.0
 30
0.0
  3
*D5
  1

  0
LINE
  5
A2
330
A1
100
AcDbEntity
  8
1
  6
Continuous
 62
     2
100
AcDbLine
 10
224.010367562813
 20
277.1399960410989
 30
0.0
 11
224.010367562813
 21
228.6399960410988
 31
0.0
  0
LINE
  5
A3
330
A1
100
AcDbEntity
  8
1
  6
Continuous
 62
     2
100
AcDbLine
 10
234.1071584227601
 20
277.1399960410989
 30
0.0
 11
222.010367562813
 21
277.1399960410989
 31
0.0
  0
LINE
  5
A4
330
A1
100
AcDbEntity
  8
1
  6
Continuous
 62
     2
100
AcDbLine
 10
234.1071584227601
 20
228.6399960410988
 30
0.0
 11
222.010367562813
 21
228.6399960410988
 31
0.0
  0
SOLID
  5
A5
330
A1
100
AcDbEntity
  8
1
 62
     2
100
AcDbTrace
 10
224.4711513043689
 20
273.6399960410989
 30
0.0
 11
223.5495838212571
 21
273.6399960410989
 31
0.0
 12
224.010367562813
 22
277.1399960410989
 32
0.0
 13
224.010367562813
 23
277.1399960410989
 33
0.0
  0
SOLID
  5
A6
330
A1
100
AcDbEntity
  8
1
 62
     2
100
AcDbTrace
 10
223.5495838212571
 20
232.1399960410988
 30
0.0
 11
224.4711513043689
 21
232.1399960410988
 31
0.0
 12
224.010367562813
 22
228.6399960410988
 32
0.0
 13
224.010367562813
 23
228.6399960410988
 33
0.0
  0
MTEXT
  5
A7
330
A1
100
AcDbEntity
  8
1
 62
     2
100
AcDbMText
 10
222.010367562813
 20
248.282634984678
 30
0.0
 40
3.5
 41
0.0
 71
     7
 72
     1
  1
48.5
  7
CONVERTER_11
 11
0.0
 21
1.0
 31
0.0
 73
     1
 44
0.60024009603842
  0
ENDBLK
  5
A9
330
A1
100
AcDbEntity
  8
0
100
AcDbBlockEnd
  0
BLOCK
  5
B3
330
AC
100
AcDbEntity
  8
0
100
AcDbBlockBegin
  2
*D6
 70
     1
 71
     0
 10
0.0
 20
0.0
 30
0.0
  3
*D6
  1

  0
LINE
  5
AD
330
AC
100
AcDbEntity
  8
1
  6
Continuous
 62
     2
100
AcDbLine
 10
274.510924798764
 20
295.1399960410989
 30
0.0
 11
274.510924798764
 21
283.1399960410989
 31
0.0
  0
LINE
  5
AE
330
AC
100
AcDbEntity
  8
1
  6
Continuous
 62
     2
100
AcDbLine
 10
253.4571584227601
 20
295.1399960410989
 30
0.0
 11
276.510924798764
 21
295.1399960410989
 31
0.0
  0
LINE
  5
AF
330
AC
100
AcDbEntity
  8
1
  6
Continuous
 62
     2
100
AcDbLine
 10
253.4571584227601
 20
283.1399960410989
 30
0.0
 11
276.510924798764
 21
283.1399960410989
 31
0.0
  0
SOLID
  5
B0
330
AC
100
AcDbEntity
  8
1
 62
     2
100
AcDbTrace
 10
274.9717085403199
 20
291.6399960410989
 30
0.0
 11
274.0501410572081
 21
291.6399960410989
 31
0.0
 12
274.510924798764
 22
295.1399960410989
 32
0.0
 13
274.510924798764
 23
295.1399960410989
 33
0.0
  0
SOLID
  5
B1
330
AC
100
AcDbEntity
  8
1
 62
     2
100
AcDbTrace
 10
274.0501410572081
 20
286.6399960410989
 30
0.0
 11
274.9717085403199
 21
286.6399960410989
 31
0.0
 12
274.510924798764
 22
283.1399960410989
 32
0.0
 13
274.510924798764
 23
283.1399960410989
 33
0.0
  0
MTEXT
  5
B2
330
AC
100
AcDbEntity
  8
1
 62
     2
100
AcDbMText
 10
272.510924798764
 20
287.139402201964
 30
0.0
 40
3.5
 41
0.0
 71
     7
 72
     1
  1
12
  7
CONVERTER_11
 11
0.0
 21
1.0
 31
0.0
 73
     1
 44
0.60024009603842
  0
ENDBLK
  5
B4
330
AC
100
AcDbEntity
  8
0
100
AcDbBlockEnd
  0
BLOCK
  5
BE
330
B7
100
AcDbEntity
  8
0
100
AcDbBlockBegin
  2
*D7
 70
     1
 71
     0
 10
0.0
 20
0.0
 30
0.0
  3
*D7
  1

  0
LINE
  5
B8
330
B7
100
AcDbEntity
  8
1
  6
Continuous
 62
     2
100
AcDbLine
 10
274.510924798764
 20
283.1399960410989
 30
0.0
 11
274.510924798764
 21
215.1399960410989
 31
0.0
  0
LINE
  5
B9
330
B7
100
AcDbEntity
  8
1
  6
Continuous
 62
     2
100
AcDbLine
 10
253.4571584227601
 20
283.1399960410989
 30
0.0
 11
276.510924798764
 21
283.1399960410989
 31
0.0
  0
LINE
  5
BA
330
B7
100
AcDbEntity
  8
1
  6
Continuous
 62
     2
100
AcDbLine
 10
253.4571584227601
 20
215.1399960410989
 30
0.0
 11
276.510924798764
 21
215.1399960410989
 31
0.0
  0
SOLID
  5
BB
330
B7
100
AcDbEntity
  8
1
 62
     2
100
AcDbTrace
 10
274.9717085403199
 20
279.6399960410989
 30
0.0
 11
274.0501410572081
 21
279.6399960410989
 31
0.0
 12
274.510924798764
 22
283.1399960410989
 32
0.0
 13
274.510924798764
 23
283.1399960410989
 33
0.0
  0
SOLID
  5
BC
330
B7
100
AcDbEntity
  8
1
 62
     2
100
AcDbTrace
 10
274.0501410572081
 20
218.6399960410989
 30
0.0
 11
274.9717085403199
 21
218.6399960410989
 31
0.0
 12
274.510924798764
 22
215.1399960410989
 32
0.0
 13
274.510924798764
 23
215.1399960410989
 33
0.0
  0
MTEXT
  5
BD
330
B7
100
AcDbEntity
  8
1
 62
     2
100
AcDbMText
 10
272.510924798764
 20
246.5149960410989
 30
0.0
 40
3.5
 41
0.0
 71
     7
 72
     1
  1
68
  7
CONVERTER_11
 11
0.0
 21
1.0
 31
0.0
 73
     1
 44
0.60024009603842
  0
ENDBLK
  5
BF
330
B7
100
AcDbEntity
  8
0
100
AcDbBlockEnd
  0
ENDSEC
  0
SECTION
  2
ENTITIES
  0
LINE
  5
32
330
1F
100
AcDbEntity
  8
1
  6
PHANTOM
 62
     7
100
AcDbLine
 10
227.1455121087201
 20
270.1399960410989
 30
0.0
 11
261.681268285616
 21
270.1399960410989
 31
0.0
  0
LINE
  5
33
330
1F
100
AcDbEntity
  8
1
  6
Continuous
 62
     7
100
AcDbLine
 10
248.2571584227601
 20
229.1399960410989
 30
0.0
 11
248.2571584227601
 21
276.6399960410989
 31
0.0
  0
LINE
  5
34
330
1F
100
AcDbEntity
  8
1
  6
DOT_CENTER
 62
     2
100
AcDbLine
 10
240.7571584227601
 20
227.1399960410989
 30
0.0
 11
240.7571584227601
 21
278.6399960410989
 31
0.0
  0
LINE
  5
35
330
1F
100
AcDbEntity
  8
1
  6
Continuous
 62
     7
100
AcDbLine
 10
234.1071584227601
 20
229.1399960410988
 30
0.0
 11
247.4071584227602
 21
229.1399960410988
 31
0.0
  0
LINE
  5
36
330
1F
100
AcDbEntity
  8
1
  6
Continuous
 62
     7
100
AcDbLine
 10
233.2571584227601
 20
229.1399960410989
 30
0.0
 11
234.1071584227601
 21
229.1399960410988
 31
0.0
  0
LINE
  5
37
330
1F
100
AcDbEntity
  8
1
  6
Continuous
 62
     7
100
AcDbLine
 10
247.4071584227602
 20
276.6399960410989
 30
0.0
 11
234.1071584227601
 21
276.6399960410989
 31
0.0
  0
LINE
  5
38
330
1F
100
AcDbEntity
  8
1
  6
Continuous
 62
     7
100
AcDbLine
 10
248.2571584227601
 20
276.6399960410989
 30
0.0
 11
247.4071584227602
 21
276.6399960410989
 31
0.0
  0
LINE
  5
39
330
1F
100
AcDbEntity
  8
1
  6
Continuous
 62
     7
100
AcDbLine
 10
234.1071584227601
 20
276.6399960410989
 30
0.0
 11
233.2571584227601
 21
276.6399960410989
 31
0.0
  0
LINE
  5
3A
330
1F
100
AcDbEntity
  8
1
  6
Continuous
 62
     7
100
AcDbLine
 10
233.2571584227601
 20
276.6399960410989
 30
0.0
 11
233.2571584227601
 21
229.1399960410989
 31
0.0
  0
LINE
  5
3B
330
1F
100
AcDbEntity
  8
1
  6
Continuous
 62
     7
100
AcDbLine
 10
247.4071584227602
 20
229.1399960410988
 30
0.0
 11
248.2571584227601
 21
229.1399960410989
 31
0.0
  0
LINE
  5
3C
330
1F
100
AcDbEntity
  8
1
  6
DASHED
 62
     2
100
AcDbLine
 10
251.0660257727623
 20
212.2399960410989
 30
0.0
 11
251.0660257727623
 21
218.0399960410989
 31
0.0
  0
LINE
  5
3D
330
1F
100
AcDbEntity
  8
1
  6
Continuous
 62
     7
100
AcDbLine
 10
249.4571584227601
 20
219.3899960410989
 30
0.0
 11
249.4571584227601
 21
210.8899960410989
 31
0.0
  0
LINE
  5
3E
330
1F
100
AcDbEntity
  8
1
  6
DASHED
 62
     2
100
AcDbLine
 10
249.4571584227601
 20
210.8899960410989
 30
0.0
 11
251.0660257727623
 21
212.2399960410989
 31
0.0
  0
LINE
  5
3F
330
1F
100
AcDbEntity
  8
1
  6
Continuous
 62
     7
100
AcDbLine
 10
251.9571584227601
 20
207.6399960410989
 30
0.0
 11
251.9571584227601
 21
212.2399960410989
 31
0.0
  0
LINE
  5
40
330
1F
100
AcDbEntity
  8
1
  6
DASHED
 62
     2
100
AcDbLine
 10
251.0660257727623
 20
212.2399960410989
 30
0.0
 11
251.9571584227601
 21
212.2399960410989
 31
0.0
  0
LINE
  5
41
330
1F
100
AcDbEntity
  8
1
  6
Continuous
 62
     7
100
AcDbLine
 10
249.4571584227601
 20
234.6399960410989
 30
0.0
 11
249.4571584227601
 21
219.3899960410989
 31
0.0
  0
LINE
  5
42
330
1F
100
AcDbEntity
  8
1
  6
DASHED
 62
     2
100
AcDbLine
 10
249.4571584227601
 20
219.3899960410989
 30
0.0
 11
251.0660257727623
 21
218.0399960410989
 31
0.0
  0
LINE
  5
43
330
1F
100
AcDbEntity
  8
1
  6
Continuous
 62
     7
100
AcDbLine
 10
251.9571584227601
 20
212.2399960410989
 30
0.0
 11
251.9571584227601
 21
218.0399960410989
 31
0.0
  0
LINE
  5
44
330
1F
100
AcDbEntity
  8
1
  6
DASHED
 62
     2
100
AcDbLine
 10
251.0660257727623
 20
218.0399960410989
 30
0.0
 11
251.9571584227601
 21
218.0399960410989
 31
0.0
  0
LINE
  5
45
330
1F
100
AcDbEntity
  8
1
  6
DOT_CENTER
 62
     2
100
AcDbLine
 10
247.9571584227601
 20
215.1399960410989
 30
0.0
 11
253.4571584227601
 21
215.1399960410989
 31
0.0
  0
LINE
  5
46
330
1F
100
AcDbEntity
  8
1
  6
Continuous
 62
     7
100
AcDbLine
 10
251.9571584227601
 20
218.0399960410989
 30
0.0
 11
251.9571584227601
 21
235.6755299470316
 31
0.0
  0
LINE
  5
47
330
1F
100
AcDbEntity
  8
1
  6
DASHED
 62
     2
100
AcDbLine
 10
251.0660257727623
 20
280.2399960410989
 30
0.0
 11
251.0660257727623
 21
286.0399960410989
 31
0.0
  0
LINE
  5
48
330
1F
100
AcDbEntity
  8
1
  6
Continuous
 62
     7
100
AcDbLine
 10
249.4571584227601
 20
287.3899960410989
 30
0.0
 11
249.4571584227601
 21
278.8899960410989
 31
0.0
  0
LINE
  5
49
330
1F
100
AcDbEntity
  8
1
  6
DASHED
 62
     2
100
AcDbLine
 10
249.4571584227601
 20
278.8899960410989
 30
0.0
 11
251.0660257727623
 21
280.2399960410989
 31
0.0
  0
LINE
  5
4A
330
1F
100
AcDbEntity
  8
1
  6
Continuous
 62
     7
100
AcDbLine
 10
251.9571584227601
 20
261.6044621351661
 30
0.0
 11
251.9571584227601
 21
280.2399960410989
 31
0.0
  0
LINE
  5
4B
330
1F
100
AcDbEntity
  8
1
  6
DASHED
 62
     2
100
AcDbLine
 10
251.0660257727623
 20
280.2399960410989
 30
0.0
 11
251.9571584227601
 21
280.2399960410989
 31
0.0
  0
LINE
  5
4C
330
1F
100
AcDbEntity
  8
1
  6
Continuous
 62
     7
100
AcDbLine
 10
249.4571584227601
 20
290.8899960410989
 30
0.0
 11
249.4571584227601
 21
287.3899960410989
 31
0.0
  0
LINE
  5
4D
330
1F
100
AcDbEntity
  8
1
  6
DASHED
 62
     2
100
AcDbLine
 10
249.4571584227601
 20
287.3899960410989
 30
0.0
 11
251.0660257727623
 21
286.0399960410989
 31
0.0
  0
LINE
  5
4E
330
1F
100
AcDbEntity
  8
1
  6
Continuous
 62
     7
100
AcDbLine
 10
251.9571584227601
 20
280.2399960410989
 30
0.0
 11
251.9571584227601
 21
286.0399960410989
 31
0.0
  0
LINE
  5
4F
330
1F
100
AcDbEntity
  8
1
  6
DASHED
 62
     2
100
AcDbLine
 10
251.0660257727623
 20
286.0399960410989
 30
0.0
 11
251.9571584227601
 21
286.0399960410989
 31
0.0
  0
LINE
  5
50
330
1F
100
AcDbEntity
  8
1
  6
DOT_CENTER
 62
     2
100
AcDbLine
 10
247.9571584227601
 20
283.1399960410989
 30
0.0
 11
253.4571584227601
 21
283.1399960410989
 31
0.0
  0
LINE
  5
51
330
1F
100
AcDbEntity
  8
1
  6
DASHED
 62
     2
100
AcDbLine
 10
251.0660257727623
 20
292.2399960410989
 30
0.0
 11
251.0660257727623
 21
298.0399960410989
 31
0.0
  0
LINE
  5
52
330
1F
100
AcDbEntity
  8
1
  6
Continuous
 62
     7
100
AcDbLine
 10
249.4571584227601
 20
299.3899960410989
 30
0.0
 11
249.4571584227601
 21
290.8899960410989
 31
0.0
  0
LINE
  5
53
330
1F
100
AcDbEntity
  8
1
  6
DASHED
 62
     2
100
AcDbLine
 10
249.4571584227601
 20
290.8899960410989
 30
0.0
 11
251.0660257727623
 21
292.2399960410989
 31
0.0
  0
LINE
  5
54
330
1F
100
AcDbEntity
  8
1
  6
Continuous
 62
     7
100
AcDbLine
 10
251.9571584227601
 20
286.0399960410989
 30
0.0
 11
251.9571584227601
 21
292.2399960410989
 31
0.0
  0
LINE
  5
55
330
1F
100
AcDbEntity
  8
1
  6
DASHED
 62
     2
100
AcDbLine
 10
251.0660257727623
 20
292.2399960410989
 30
0.0
 11
251.9571584227601
 21
292.2399960410989
 31
0.0
  0
LINE
  5
56
330
1F
100
AcDbEntity
  8
1
  6
Continuous
 62
     7
100
AcDbLine
 10
249.4571584227601
 20
302.6399960410989
 30
0.0
 11
249.4571584227601
 21
299.3899960410989
 31
0.0
  0
LINE
  5
57
330
1F
100
AcDbEntity
  8
1
  6
DASHED
 62
     2
100
AcDbLine
 10
249.4571584227601
 20
299.3899960410989
 30
0.0
 11
251.0660257727623
 21
298.0399960410989
 31
0.0
  0
LINE
  5
58
330
1F
100
AcDbEntity
  8
1
  6
Continuous
 62
     7
100
AcDbLine
 10
251.9571584227601
 20
292.2399960410989
 30
0.0
 11
251.9571584227601
 21
298.0399960410989
 31
0.0
  0
LINE
  5
59
330
1F
100
AcDbEntity
  8
1
  6
DASHED
 62
     2
100
AcDbLine
 10
251.0660257727623
 20
298.0399960410989
 30
0.0
 11
251.9571584227601
 21
298.0399960410989
 31
0.0
  0
LINE
  5
5A
330
1F
100
AcDbEntity
  8
1
  6
DOT_CENTER
 62
     2
100
AcDbLine
 10
247.9571584227601
 20
295.1399960410989
 30
0.0
 11
253.4571584227601
 21
295.1399960410989
 31
0.0
  0
LINE
  5
5B
330
1F
100
AcDbEntity
  8
1
  6
Continuous
 62
     7
100
AcDbLine
 10
248.2571584227601
 20
235.8399960410989
 30
0.0
 11
249.4571584227601
 21
234.6399960410989
 31
0.0
  0
LINE
  5
5C
330
1F
100
AcDbEntity
  8
1
  6
Continuous
 62
     7
100
AcDbLine
 10
249.4571584227601
 20
210.8899960410989
 30
0.0
 11
249.4571584227601
 21
207.6399960410989
 31
0.0
  0
LINE
  5
5D
330
1F
100
AcDbEntity
  8
1
  6
Continuous
 62
     7
100
AcDbLine
 10
249.4571584227601
 20
207.6399960410989
 30
0.0
 11
251.9571584227601
 21
207.6399960410989
 31
0.0
  0
LINE
  5
5E
330
1F
100
AcDbEntity
  8
1
  6
Continuous
 62
     7
100
AcDbLine
 10
251.9571584227601
 20
235.6755299470316
 30
0.0
 11
250.7571584227601
 21
236.8755299470316
 31
0.0
  0
LINE
  5
5F
330
1F
100
AcDbEntity
  8
1
  6
Continuous
 62
     7
100
AcDbLine
 10
250.7571584227601
 20
236.8755299470316
 30
0.0
 11
250.7571584227601
 21
260.4044621351662
 31
0.0
  0
LINE
  5
60
330
1F
100
AcDbEntity
  8
1
  6
Continuous
 62
     7
100
AcDbLine
 10
250.7571584227601
 20
260.4044621351662
 30
0.0
 11
251.9571584227601
 21
261.6044621351661
 31
0.0
  0
LINE
  5
61
330
1F
100
AcDbEntity
  8
1
  6
Continuous
 62
     7
100
AcDbLine
 10
251.9571584227601
 20
298.0399960410989
 30
0.0
 11
251.9571584227601
 21
302.6399960410989
 31
0.0
  0
LINE
  5
62
330
1F
100
AcDbEntity
  8
1
  6
Continuous
 62
     7
100
AcDbLine
 10
251.9571584227601
 20
302.6399960410989
 30
0.0
 11
249.4571584227601
 21
302.6399960410989
 31
0.0
  0
LINE
  5
63
330
1F
100
AcDbEntity
  8
1
  6
Continuous
 62
     7
100
AcDbLine
 10
249.4571584227601
 20
278.8899960410989
 30
0.0
 11
249.4571584227601
 21
262.6399960410989
 31
0.0
  0
LINE
  5
64
330
1F
100
AcDbEntity
  8
1
  6
Continuous
 62
     7
100
AcDbLine
 10
249.4571584227601
 20
262.6399960410989
 30
0.0
 11
248.2571584227601
 21
261.4399960410989
 31
0.0
  0
LINE
  5
65
330
1F
100
AcDbEntity
  8
1
  6
DASHED
 62
     2
100
AcDbLine
 10
251.0660257727623
 20
230.0399960410989
 30
0.0
 11
251.9571584227601
 21
230.0399960410989
 31
0.0
  0
LINE
  5
66
330
1F
100
AcDbEntity
  8
1
  6
DASHED
 62
     2
100
AcDbLine
 10
249.4571584227601
 20
231.3899960410989
 30
0.0
 11
251.0660257727623
 21
230.0399960410989
 31
0.0
  0
LINE
  5
67
330
1F
100
AcDbEntity
  8
1
  6
DASHED
 62
     2
100
AcDbLine
 10
251.0660257727623
 20
224.2399960410989
 30
0.0
 11
251.0660257727623
 21
230.0399960410989
 31
0.0
  0
LINE
  5
68
330
1F
100
AcDbEntity
  8
1
  6
DOT_CENTER
 62
     2
100
AcDbLine
 10
247.9571584227601
 20
227.1399960410989
 30
0.0
 11
253.4571584227601
 21
227.1399960410989
 31
0.0
  0
LINE
  5
69
330
1F
100
AcDbEntity
  8
1
  6
DASHED
 62
     2
100
AcDbLine
 10
251.0660257727623
 20
224.2399960410989
 30
0.0
 11
251.9571584227601
 21
224.2399960410989
 31
0.0
  0
LINE
  5
6A
330
1F
100
AcDbEntity
  8
1
  6
DASHED
 62
     2
100
AcDbLine
 10
249.4571584227601
 20
222.8899960410989
 30
0.0
 11
251.0660257727623
 21
224.2399960410989
 31
0.0
  0
LINE
  5
6B
330
1F
100
AcDbEntity
  8
1
  6
Continuous
 62
     7
100
AcDbLine
 10
247.4071584227602
 20
228.6399960410988
 30
0.0
 11
236.7571584227601
 21
228.6399960410988
 31
0.0
  0
LINE
  5
6C
330
1F
100
AcDbEntity
  8
1
  6
Continuous
 62
     7
100
AcDbLine
 10
247.4071584227602
 20
229.1399960410988
 30
0.0
 11
247.4071584227602
 21
228.6399960410988
 31
0.0
  0
LINE
  5
6D
330
1F
100
AcDbEntity
  8
1
  6
Continuous
 62
     7
100
AcDbLine
 10
236.7571584227601
 20
228.6399960410988
 30
0.0
 11
234.1071584227601
 21
228.6399960410988
 31
0.0
  0
LINE
  5
6E
330
1F
100
AcDbEntity
  8
1
  6
Continuous
 62
     7
100
AcDbLine
 10
234.1071584227601
 20
228.6399960410988
 30
0.0
 11
234.1071584227601
 21
229.1399960410988
 31
0.0
  0
LINE
  5
6F
330
1F
100
AcDbEntity
  8
1
  6
Continuous
 62
     7
100
AcDbLine
 10
236.7571584227601
 20
277.1399960410989
 30
0.0
 11
247.4071584227602
 21
277.1399960410989
 31
0.0
  0
LINE
  5
70
330
1F
100
AcDbEntity
  8
1
  6
Continuous
 62
     7
100
AcDbLine
 10
247.4071584227602
 20
277.1399960410989
 30
0.0
 11
247.4071584227602
 21
276.6399960410989
 31
0.0
  0
LINE
  5
71
330
1F
100
AcDbEntity
  8
1
  6
Continuous
 62
     7
100
AcDbLine
 10
234.1071584227601
 20
277.1399960410989
 30
0.0
 11
236.7571584227601
 21
277.1399960410989
 31
0.0
  0
LINE
  5
72
330
1F
100
AcDbEntity
  8
1
  6
Continuous
 62
     7
100
AcDbLine
 10
234.1071584227601
 20
276.6399960410989
 30
0.0
 11
234.1071584227601
 21
277.1399960410989
 31
0.0
  0
MTEXT
  5
74
330
1F
100
AcDbEntity
  8
1
 62
     2
100
AcDbMText
 10
257.3087198307602
 20
272.9227451461955
 30
0.0
 40
2.5
 41
0.0
 71
     5
 72
     1
  1
BBL
  7
CONVERTER_11
 73
     1
 44
1.32052821128451
  0
DIMENSION
  5
7F
330
1F
100
AcDbEntity
  8
1
100
AcDbDimension
  2
*D1
 10
240.7571584227601
 20
310.485235000274
 30
0.0
 11
246.144141199982
 21
314.235235000274
 31
0.0
 70
    32
  1
<>
 71
     5
 42
-1.0
 53
0.00013888888889
  3
ME10_DIM_10
100
AcDbAlignedDimension
 13
251.9571584227601
 23
302.6399960410989
 33
0.0
 14
240.7571584227601
 24
278.6399960410989
 34
0.0
100
AcDbRotatedDimension
  0
DIMENSION
  5
8A
330
1F
100
AcDbEntity
  8
1
100
AcDbDimension
  2
*D2
 10
233.2571584227601
 20
196.552630618036
 30
0.0
 11
240.198163530202
 21
200.302630618036
 31
0.0
 70
    32
  1
<>
 71
     5
 42
-1.0
 53
0.00013888888889
  3
ME10_DIM_11
100
AcDbAlignedDimension
 13
248.2571584227601
 23
229.1399960410989
 33
0.0
 14
233.2571584227601
 24
229.1399960410989
 34
0.0
100
AcDbRotatedDimension
  0
DIMENSION
  5
95
330
1F
100
AcDbEntity
  8
1
100
AcDbDimension
  2
*D3
 10
282.460336104006
 20
207.6399960410989
 30
0.0
 11
278.710336104006
 21
249.922043584148
 31
0.0
 70
    32
  1
<>
 71
     5
 42
-1.0
 53
90.0
  3
ME10_DIM_12
100
AcDbAlignedDimension
 13
251.9571584227601
 23
302.6399960410989
 33
0.0
 14
251.9571584227601
 24
207.6399960410989
 34
0.0
 50
90.0
100
AcDbRotatedDimension
  0
DIMENSION
  5
A0
330
1F
100
AcDbEntity
  8
1
100
AcDbDimension
  2
*D4
 10
266.561513493523
 20
283.1399960410989
 30
0.0
 11
262.811513493523
 21
275.91876704183
 31
0.0
 70
    32
  1
<>
 71
     5
 42
-1.0
 53
90.0
  3
ME10_DIM_13
100
AcDbAlignedDimension
 13
261.681268285616
 23
270.1399960410989
 33
0.0
 14
253.4571584227601
 24
283.1399960410989
 34
0.0
 50
90.0
100
AcDbRotatedDimension
  0
DIMENSION
  5
AB
330
1F
100
AcDbEntity
  8
1
100
AcDbDimension
  2
*D5
 10
224.010367562813
 20
277.1399960410989
 30
0.0
 11
220.260367562813
 21
253.051384984678
 31
0.0
 70
    32
  1
<>
 71
     5
 42
-1.0
 53
90.0
  3
ME10_DIM_14
100
AcDbAlignedDimension
 13
234.1071584227601
 23
228.6399960410988
 33
0.0
 14
234.1071584227601
 24
277.1399960410989
 34
0.0
 50
90.0
100
AcDbRotatedDimension
  0
DIMENSION
  5
B6
330
1F
100
AcDbEntity
  8
1
100
AcDbDimension
  2
*D6
 10
274.510924798764
 20
295.1399960410989
 30
0.0
 11
270.760924798764
 21
289.239402201964
 31
0.0
 70
    32
  1
<>
 71
     5
 42
-1.0
 53
90.0
  3
ME10_DIM_15
100
AcDbAlignedDimension
 13
253.4571584227601
 23
283.1399960410989
 33
0.0
 14
253.4571584227601
 24
295.1399960410989
 34
0.0
 50
90.0
100
AcDbRotatedDimension
  0
DIMENSION
  5
C1
330
1F
100
AcDbEntity
  8
1
100
AcDbDimension
  2
*D7
 10
274.510924798764
 20
283.1399960410989
 30
0.0
 11
270.760924798764
 21
249.1399960410989
 31
0.0
 70
    32
  1
<>
 71
     5
 42
-1.0
 53
90.0
  3
ME10_DIM_16
100
AcDbAlignedDimension
 13
253.4571584227601
 23
215.1399960410989
 33
0.0
 14
253.4571584227601
 24
283.1399960410989
 34
0.0
 50
90.0
100
AcDbRotatedDimension
  0
ENDSEC
  0
SECTION
  2
OBJECTS
  0
DICTIONARY
  5
C
330
0
100
AcDbDictionary
281
     1
  3
ACAD_GROUP
350
D
  3
ACAD_LAYOUT
350
1A
  3
ACAD_MLINESTYLE
350
17
  3
ACAD_PLOTSETTINGS
350
19
  3
ACAD_PLOTSTYLENAME
350
E
  0
DICTIONARY
  5
D
102
{ACAD_REACTORS
330
C
102
}
330
C
100
AcDbDictionary
281
     1
  0
DICTIONARY
  5
1A
102
{ACAD_REACTORS
330
C
102
}
330
C
100
AcDbDictionary
281
     1
  3
Layout1
350
1E
  3
Layout2
350
26
  3
Model
350
22
  0
DICTIONARY
  5
17
102
{ACAD_REACTORS
330
C
102
}
330
C
100
AcDbDictionary
281
     1
  3
Standard
350
18
  0
DICTIONARY
  5
19
102
{ACAD_REACTORS
330
C
102
}
330
C
100
AcDbDictionary
281
     1
  0
ACDBDICTIONARYWDFLT
  5
E
102
{ACAD_REACTORS
330
C
102
}
330
C
100
AcDbDictionary
281
     1
  3
Normal
350
F
100
AcDbDictionaryWithDefault
340
F
  0
LAYOUT
  5
1E
102
{ACAD_REACTORS
330
1A
102
}
330
1A
100
AcDbPlotSettings
  1

  2

  4

  6

 40
0.0
 41
0.0
 42
0.0
 43
0.0
 44
0.0
 45
0.0
 46
0.0
 47
0.0
 48
0.0
 49
0.0
140
0.0
141
0.0
142
1.0
143
1.0
 70
   688
 72
     0
 73
     0
 74
     5
  7

 75
    16
 76
     0
 77
     2
 78
   300
147
1.0
148
0.0
149
0.0
100
AcDbLayout
  1
Layout1
 70
     1
 71
     1
 10
0.0
 20
0.0
 11
0.0
 21
0.0
 12
0.0
 22
0.0
 32
0.0
 14
0.0
 24
0.0
 34
0.0
 15
0.0
 25
0.0
 35
0.0
146
0.0
 13
0.0
 23
0.0
 33
0.0
 16
1.0
 26
0.0
 36
0.0
 17
0.0
 27
1.0
 37
0.0
 76
     0
330
1B
  0
LAYOUT
  5
26
102
{ACAD_REACTORS
330
1A
102
}
330
1A
100
AcDbPlotSettings
  1

  2

  4

  6

 40
0.0
 41
0.0
 42
0.0
 43
0.0
 44
0.0
 45
0.0
 46
0.0
 47
0.0
 48
0.0
 49
0.0
140
0.0
141
0.0
142
1.0
143
1.0
 70
   688
 72
     0
 73
     0
 74
     5
  7

 75
    16
 76
     0
 77
     2
 78
   300
147
1.0
148
0.0
149
0.0
100
AcDbLayout
  1
Layout2
 70
     1
 71
     2
 10
0.0
 20
0.0
 11
0.0
 21
0.0
 12
0.0
 22
0.0
 32
0.0
 14
0.0
 24
0.0
 34
0.0
 15
0.0
 25
0.0
 35
0.0
146
0.0
 13
0.0
 23
0.0
 33
0.0
 16
1.0
 26
0.0
 36
0.0
 17
0.0
 27
1.0
 37
0.0
 76
     0
330
23
  0
LAYOUT
  5
22
102
{ACAD_REACTORS
330
1A
102
}
330
1A
100
AcDbPlotSettings
  1

  2

  4

  6

 40
0.0
 41
0.0
 42
0.0
 43
0.0
 44
0.0
 45
0.0
 46
0.0
 47
0.0
 48
0.0
 49
0.0
140
0.0
141
0.0
142
1.0
143
1.0
 70
  1712
 72
     0
 73
     0
 74
     0
  7

 75
     0
 76
     0
 77
     2
 78
   300
147
1.0
148
0.0
149
0.0
100
AcDbLayout
  1
Model
 70
     1
 71
     0
 10
0.0
 20
0.0
 11
0.0
 21
0.0
 12
0.0
 22
0.0
 32
0.0
 14
218.510367562813
 24
194.552630618036
 34
0.0
 15
284.460336104006
 25
315.985235000274
 35
0.0
146
0.0
 13
0.0
 23
0.0
 33
0.0
 16
1.0
 26
0.0
 36
0.0
 17
0.0
 27
1.0
 37
0.0
 76
     0
330
1F
  0
MLINESTYLE
  5
18
102
{ACAD_REACTORS
330
17
102
}
330
17
100
AcDbMlineStyle
  2
Standard
 70
     0
  3

 62
   256
 51
90.0
 52
90.0
 71
     2
 49
0.5
 62
   256
  6
BYLAYER
 49
-0.5
 62
   256
  6
BYLAYER
  0
ACDBPLACEHOLDER
  5
F
102
{ACAD_REACTORS
330
E
102
}
330
E
  0
ENDSEC
  0
EOF
