  0
SECTION
  2
HEADER
  9
$ACADVER
  1
AC1018
  9
$ACADMAINTVER
 70
     0
  9
$DWGCODEPAGE
  3
ANSI_1252
  9
$INSBASE
 10
0.0
 20
0.0
 30
0.0
  9
$EXTMIN
 10
109.1690338850065
 20
-83.4155559145449
 30
0.0
  9
$EXTMAX
 10
221.2257842959098
 20
62.4171280891606
 30
0.0
  9
$LIMMIN
 10
0.0
 20
0.0
  9
$LIMMAX
 10
12.0
 20
9.0
  9
$ORTHOMODE
 70
     0
  9
$REGENMODE
 70
     1
  9
$FILLMODE
 70
     1
  9
$QTEXTMODE
 70
     0
  9
$MIRRTEXT
 70
     1
  9
$LTSCALE
 40
1.0
  9
$ATTMODE
 70
     1
  9
$TEXTSIZE
 40
0.2
  9
$TRACEWID
 40
0.05
  9
$TEXTSTYLE
  7
Standard
  9
$CLAYER
  8
0
  9
$CELTYPE
  6
ByLayer
  9
$CECOLOR
 62
   256
  9
$CELTSCALE
 40
1.0
  9
$DISPSILH
 70
     0
  9
$DIMSCALE
 40
1.0
  9
$DIMASZ
 40
0.18
  9
$DIMEXO
 40
0.0625
  9
$DIMDLI
 40
0.38
  9
$DIMRND
 40
0.0
  9
$DIMDLE
 40
0.0
  9
$DIMEXE
 40
0.18
  9
$DIMTP
 40
0.0
  9
$DIMTM
 40
0.0
  9
$DIMTXT
 40
0.18
  9
$DIMCEN
 40
0.09
  9
$DIMTSZ
 40
0.0
  9
$DIMTOL
 70
     0
  9
$DIMLIM
 70
     0
  9
$DIMTIH
 70
     1
  9
$DIMTOH
 70
     1
  9
$DIMSE1
 70
     0
  9
$DIMSE2
 70
     0
  9
$DIMTAD
 70
     0
  9
$DIMZIN
 70
     0
  9
$DIMBLK
  1

  9
$DIMASO
 70
     1
  9
$DIMSHO
 70
     1
  9
$DIMPOST
  1

  9
$DIMAPOST
  1

  9
$DIMALT
 70
     0
  9
$DIMALTD
 70
     2
  9
$DIMALTF
 40
25.4
  9
$DIMLFAC
 40
1.0
  9
$DIMTOFL
 70
     0
  9
$DIMTVP
 40
0.0
  9
$DIMTIX
 70
     0
  9
$DIMSOXD
 70
     0
  9
$DIMSAH
 70
     0
  9
$DIMBLK1
  1

  9
$DIMBLK2
  1

  9
$DIMSTYLE
  2
Standard
  9
$DIMCLRD
 70
     0
  9
$DIMCLRE
 70
     0
  9
$DIMCLRT
 70
     0
  9
$DIMTFAC
 40
1.0
  9
$DIMGAP
 40
0.09
  9
$DIMJUST
 70
     0
  9
$DIMSD1
 70
     0
  9
$DIMSD2
 70
     0
  9
$DIMTOLJ
 70
     1
  9
$DIMTZIN
 70
     0
  9
$DIMALTZ
 70
     0
  9
$DIMALTTZ
 70
     0
  9
$DIMUPT
 70
     0
  9
$DIMDEC
 70
     4
  9
$DIMTDEC
 70
     4
  9
$DIMALTU
 70
     2
  9
$DIMALTTD
 70
     2
  9
$DIMTXSTY
  7
Standard
  9
$DIMAUNIT
 70
     0
  9
$DIMADEC
 70
     0
  9
$DIMALTRND
 40
0.0
  9
$DIMAZIN
 70
     0
  9
$DIMDSEP
 70
    46
  9
$DIMATFIT
 70
     3
  9
$DIMFRAC
 70
     0
  9
$DIMLDRBLK
  1

  9
$DIMLUNIT
 70
     2
  9
$DIMLWD
 70
    -2
  9
$DIMLWE
 70
    -2
  9
$DIMTMOVE
 70
     0
  9
$LUNITS
 70
     2
  9
$LUPREC
 70
     4
  9
$SKETCHINC
 40
0.1
  9
$FILLETRAD
 40
0.5
  9
$AUNITS
 70
     0
  9
$AUPREC
 70
     0
  9
$MENU
  1
.
  9
$ELEVATION
 40
0.0
  9
$PELEVATION
 40
0.0
  9
$THICKNESS
 40
0.0
  9
$LIMCHECK
 70
     0
  9
$CHAMFERA
 40
0.5
  9
$CHAMFERB
 40
0.5
  9
$CHAMFERC
 40
1.0
  9
$CHAMFERD
 40
0.0
  9
$SKPOLY
 70
     0
  9
$TDCREATE
 40
2454421.480608067
  9
$TDUCREATE
 40
2454421.4389414
  9
$TDUPDATE
 40
2454421.480608079
  9
$TDUUPDATE
 40
2454421.438941412
  9
$TDINDWG
 40
0.0000000116
  9
$TDUSRTIMER
 40
0.0000000116
  9
$USRTIMER
 70
     1
  9
$ANGBASE
 50
0.0
  9
$ANGDIR
 70
     0
  9
$PDMODE
 70
     0
  9
$PDSIZE
 40
0.0
  9
$PLINEWID
 40
0.0
  9
$SPLFRAME
 70
     0
  9
$SPLINETYPE
 70
     6
  9
$SPLINESEGS
 70
     8
  9
$HANDSEED
  5
156
  9
$SURFTAB1
 70
     6
  9
$SURFTAB2
 70
     6
  9
$SURFTYPE
 70
     6
  9
$SURFU
 70
     6
  9
$SURFV
 70
     6
  9
$UCSBASE
  2

  9
$UCSNAME
  2

  9
$UCSORG
 10
0.0
 20
0.0
 30
0.0
  9
$UCSXDIR
 10
1.0
 20
0.0
 30
0.0
  9
$UCSYDIR
 10
0.0
 20
1.0
 30
0.0
  9
$UCSORTHOREF
  2

  9
$UCSORTHOVIEW
 70
     0
  9
$UCSORGTOP
 10
0.0
 20
0.0
 30
0.0
  9
$UCSORGBOTTOM
 10
0.0
 20
0.0
 30
0.0
  9
$UCSORGLEFT
 10
0.0
 20
0.0
 30
0.0
  9
$UCSORGRIGHT
 10
0.0
 20
0.0
 30
0.0
  9
$UCSORGFRONT
 10
0.0
 20
0.0
 30
0.0
  9
$UCSORGBACK
 10
0.0
 20
0.0
 30
0.0
  9
$PUCSBASE
  2

  9
$PUCSNAME
  2

  9
$PUCSORG
 10
0.0
 20
0.0
 30
0.0
  9
$PUCSXDIR
 10
1.0
 20
0.0
 30
0.0
  9
$PUCSYDIR
 10
0.0
 20
1.0
 30
0.0
  9
$PUCSORTHOREF
  2

  9
$PUCSORTHOVIEW
 70
     0
  9
$PUCSORGTOP
 10
0.0
 20
0.0
 30
0.0
  9
$PUCSORGBOTTOM
 10
0.0
 20
0.0
 30
0.0
  9
$PUCSORGLEFT
 10
0.0
 20
0.0
 30
0.0
  9
$PUCSORGRIGHT
 10
0.0
 20
0.0
 30
0.0
  9
$PUCSORGFRONT
 10
0.0
 20
0.0
 30
0.0
  9
$PUCSORGBACK
 10
0.0
 20
0.0
 30
0.0
  9
$USERI1
 70
     0
  9
$USERI2
 70
     0
  9
$USERI3
 70
     0
  9
$USERI4
 70
     0
  9
$USERI5
 70
     0
  9
$USERR1
 40
14.5
  9
$USERR2
 40
0.0
  9
$USERR3
 40
0.0
  9
$USERR4
 40
0.0
  9
$USERR5
 40
0.0
  9
$WORLDVIEW
 70
     1
  9
$SHADEDGE
 70
     3
  9
$SHADEDIF
 70
    70
  9
$TILEMODE
 70
     1
  9
$MAXACTVP
 70
    64
  9
$PINSBASE
 10
0.0
 20
0.0
 30
0.0
  9
$PLIMCHECK
 70
     0
  9
$PEXTMIN
 10
1.00000000000000E+20
 20
1.00000000000000E+20
 30
1.00000000000000E+20
  9
$PEXTMAX
 10
-1.00000000000000E+20
 20
-1.00000000000000E+20
 30
-1.00000000000000E+20
  9
$PLIMMIN
 10
0.0
 20
0.0
  9
$PLIMMAX
 10
12.0
 20
9.0
  9
$UNITMODE
 70
     0
  9
$VISRETAIN
 70
     1
  9
$PLINEGEN
 70
     0
  9
$PSLTSCALE
 70
     1
  9
$TREEDEPTH
 70
  3020
  9
$CMLSTYLE
  2
Standard
  9
$CMLJUST
 70
     0
  9
$CMLSCALE
 40
1.0
  9
$PROXYGRAPHICS
 70
     1
  9
$MEASUREMENT
 70
     1
  9
$CELWEIGHT
370
    -1
  9
$ENDCAPS
280
     0
  9
$JOINSTYLE
280
     0
  9
$LWDISPLAY
290
     0
  9
$INSUNITS
 70
     1
  9
$HYPERLINKBASE
  1

  9
$STYLESHEET
  1

  9
$XEDIT
290
     1
  9
$CEPSNTYPE
380
     0
  9
$PSTYLEMODE
290
     1
  9
$FINGERPRINTGUID
  2
{81C8E6CC-B4C5-49DC-A23B-DAFA376CA1F4}
  9
$VERSIONGUID
  2
{FAEB1C32-E019-11D5-929B-00C0DF256EC4}
  9
$EXTNAMES
290
     1
  9
$PSVPSCALE
 40
0.0
  9
$OLESTARTUP
290
     0
  9
$SORTENTS
280
   127
  9
$INDEXCTL
280
     0
  9
$HIDETEXT
280
     1
  9
$XCLIPFRAME
290
     0
  9
$HALOGAP
280
     0
  9
$OBSCOLOR
 70
   257
  9
$OBSLTYPE
280
     0
  9
$INTERSECTIONDISPLAY
280
     0
  9
$INTERSECTIONCOLOR
 70
   257
  9
$DIMASSOC
280
     2
  9
$PROJECTNAME
  1

  0
ENDSEC
  0
SECTION
  2
CLASSES
  0
CLASS
  1
ACDBDICTIONARYWDFLT
  2
AcDbDictionaryWithDefault
  3
ObjectDBX Classes
 90
        0
 91
        3
280
     0
281
     0
  0
CLASS
  1

  2
exOdDbCircle
  3

 90
        0
 91
        3
280
     0
281
     1
  0
ENDSEC
  0
SECTION
  2
TABLES
  0
TABLE
  2
VPORT
  5
8
330
0
100
AcDbSymbolTable
 70
     1
  0
VPORT
  5
29
330
8
100
AcDbSymbolTableRecord
100
AcDbViewportTableRecord
  2
*Active
 70
     0
 10
0.0
 20
0.0
 11
1.0
 21
1.0
 12
165.1974090904581
 22
-10.49921391269215
 13
0.0
 23
0.0
 14
0.5
 24
0.5
 15
0.5
 25
0.5
 16
0.0
 26
0.0
 36
1.0
 17
0.0
 27
0.0
 37
0.0
 40
160.4159524040761
 41
1.60267857142857
 42
50.0
 43
0.0
 44
0.0
 50
0.0
 51
0.0
 71
     0
 72
   100
 73
     1
 74
     3
 75
     0
 76
     0
 77
     0
 78
     0
281
     0
 65
     1
110
0.0
120
0.0
130
0.0
111
1.0
121
0.0
131
0.0
112
0.0
122
1.0
132
0.0
 79
     0
146
0.0
  0
ENDTAB
  0
TABLE
  2
LTYPE
  5
5
330
0
100
AcDbSymbolTable
 70
     8
  0
LTYPE
  5
14
330
5
100
AcDbSymbolTableRecord
100
AcDbLinetypeTableRecord
  2
ByBlock
 70
     0
  3

 72
    65
 73
     0
 40
0.0
  0
LTYPE
  5
15
330
5
100
AcDbSymbolTableRecord
100
AcDbLinetypeTableRecord
  2
ByLayer
 70
     0
  3

 72
    65
 73
     0
 40
0.0
  0
LTYPE
  5
16
330
5
100
AcDbSymbolTableRecord
100
AcDbLinetypeTableRecord
  2
Continuous
 70
     0
  3
Solid line
 72
    65
 73
     0
 40
0.0
  0
LTYPE
  5
2A
330
5
100
AcDbSymbolTableRecord
100
AcDbLinetypeTableRecord
  2
DASHED
 70
     0
  3
Dashed
 72
    65
 73
     2
 40
15.0
 49
7.0
 74
     0
 49
-8.0
 74
     0
  0
LTYPE
  5
2B
330
5
100
AcDbSymbolTableRecord
100
AcDbLinetypeTableRecord
  2
DOTTED
 70
     0
  3
Dotted
 72
    65
 73
     2
 40
1.0
 49
0.0
 74
     0
 49
-1.0
 74
     0
  0
LTYPE
  5
2C
330
5
100
AcDbSymbolTableRecord
100
AcDbLinetypeTableRecord
  2
DOT_CENTER
 70
     0
  3
Dot_Center
 72
    65
 73
     4
 40
14.0
 49
12.0
 74
     0
 49
-1.0
 74
     0
 49
0.0
 74
     0
 49
-1.0
 74
     0
  0
LTYPE
  5
2D
330
5
100
AcDbSymbolTableRecord
100
AcDbLinetypeTableRecord
  2
LONG_DASHED
 70
     0
  3
Long_Dashed
 72
    65
 73
     2
 40
15.0
 49
10.0
 74
     0
 49
-5.0
 74
     0
  0
LTYPE
  5
2E
330
5
100
AcDbSymbolTableRecord
100
AcDbLinetypeTableRecord
  2
DASH_CENTER
 70
     0
  3
Dash_Center
 72
    65
 73
     4
 40
14.0
 49
11.0
 74
     0
 49
-1.0
 74
     0
 49
1.0
 74
     0
 49
-1.0
 74
     0
  0
LTYPE
  5
2F
330
5
100
AcDbSymbolTableRecord
100
AcDbLinetypeTableRecord
  2
PHANTOM
 70
     0
  3
Phantom
 72
    65
 73
     6
 40
13.0
 49
10.0
 74
     0
 49
-1.0
 74
     0
 49
0.0
 74
     0
 49
-1.0
 74
     0
 49
0.0
 74
     0
 49
-1.0
 74
     0
  0
LTYPE
  5
30
330
5
100
AcDbSymbolTableRecord
100
AcDbLinetypeTableRecord
  2
CENTER_DASH_DASH
 70
     0
  3
Center_Dash_Dash
 72
    65
 73
     6
 40
14.0
 49
9.0
 74
     0
 49
-1.0
 74
     0
 49
1.0
 74
     0
 49
-1.0
 74
     0
 49
1.0
 74
     0
 49
-1.0
 74
     0
  0
ENDTAB
  0
TABLE
  2
LAYER
  5
2
330
0
100
AcDbSymbolTable
 70
     2
  0
LAYER
  5
10
330
2
100
AcDbSymbolTableRecord
100
AcDbLayerTableRecord
  2
0
 70
     0
 62
     7
  6
Continuous
370
    -3
390
F
  0
LAYER
  5
31
330
2
100
AcDbSymbolTableRecord
100
AcDbLayerTableRecord
  2
1
 70
     0
 62
     7
  6
Continuous
370
    -3
390
F
  0
ENDTAB
  0
TABLE
  2
STYLE
  5
3
330
0
100
AcDbSymbolTable
 70
     2
  0
STYLE
  5
11
330
3
100
AcDbSymbolTableRecord
100
AcDbTextStyleTableRecord
  2
Standard
 70
     0
 40
0.0
 41
1.0
 50
0.0
 71
     0
 42
0.2
  3
txt
  4

  0
STYLE
  5
108
330
3
100
AcDbSymbolTableRecord
100
AcDbTextStyleTableRecord
  2
CONVERTER_11
 70
     0
 40
0.0
 41
0.9
 50
0.0
 71
     0
 42
0.2
  3
txt.shx
  4

  0
ENDTAB
  0
TABLE
  2
VIEW
  5
6
330
0
100
AcDbSymbolTable
 70
     0
  0
ENDTAB
  0
TABLE
  2
UCS
  5
7
330
0
100
AcDbSymbolTable
 70
     0
  0
ENDTAB
  0
TABLE
  2
APPID
  5
9
330
0
100
AcDbSymbolTable
 70
     1
  0
APPID
  5
12
330
9
100
AcDbSymbolTableRecord
100
AcDbRegAppTableRecord
  2
ACAD
 70
     0
  0
ENDTAB
  0
TABLE
  2
DIMSTYLE
  5
A
330
0
100
AcDbSymbolTable
 70
     8
100
AcDbDimStyleTable
  0
DIMSTYLE
105
27
330
A
100
AcDbSymbolTableRecord
100
AcDbDimStyleTableRecord
  2
Standard
 70
     0
340
11
  0
DIMSTYLE
105
10C
102
{ACAD_REACTORS
330
10D
102
}
330
A
100
AcDbSymbolTableRecord
100
AcDbDimStyleTableRecord
  2
ME10_DIM_10
 70
     0
 41
3.5
 42
0.0
 44
2.0
 73
     0
 74
     0
 77
     1
 78
     8
140
3.5
147
2.0
172
     1
173
     1
176
     2
177
     2
178
     2
271
     2
340
108
  0
DIMSTYLE
105
117
102
{ACAD_REACTORS
330
118
102
}
330
A
100
AcDbSymbolTableRecord
100
AcDbDimStyleTableRecord
  2
ME10_DIM_11
 70
     0
 41
3.5
 42
0.0
 44
2.0
 73
     0
 74
     0
 77
     1
 78
     8
140
3.5
147
2.0
172
     1
173
     1
176
     2
177
     2
178
     2
271
     2
340
108
  0
DIMSTYLE
105
122
102
{ACAD_REACTORS
330
123
102
}
330
A
100
AcDbSymbolTableRecord
100
AcDbDimStyleTableRecord
  2
ME10_DIM_12
 70
     0
 41
3.5
 42
0.0
 44
2.0
 73
     0
 74
     0
 77
     1
 78
     8
140
3.5
147
2.0
172
     1
173
     1
176
     2
177
     2
178
     2
271
     3
340
108
  0
DIMSTYLE
105
12E
102
{ACAD_REACTORS
330
12F
102
}
330
A
100
AcDbSymbolTableRecord
100
AcDbDimStyleTableRecord
  2
ME10_DIM_13
 70
     0
 41
3.5
 42
0.0
 44
2.0
 73
     0
 74
     0
 77
     1
 78
     8
140
3.5
147
2.0
172
     1
173
     1
176
     2
177
     2
178
     2
271
     3
340
108
  0
DIMSTYLE
105
13A
102
{ACAD_REACTORS
330
13B
102
}
330
A
100
AcDbSymbolTableRecord
100
AcDbDimStyleTableRecord
  2
ME10_DIM_14
 70
     0
 41
3.5
 42
0.0
 44
2.0
 73
     0
 74
     0
 77
     1
 78
     8
140
3.5
147
2.0
172
     1
173
     1
176
     2
177
     2
178
     2
271
     3
340
108
  0
DIMSTYLE
105
147
102
{ACAD_REACTORS
330
148
102
}
330
A
100
AcDbSymbolTableRecord
100
AcDbDimStyleTableRecord
  2
ME10_DIM_15
 70
     0
 41
3.5
 42
0.0
 44
2.0
 73
     0
 74
     0
 77
     1
 78
     8
140
3.5
147
2.0
172
     1
173
     1
176
     2
177
     2
178
     2
271
     3
340
108
  0
DIMSTYLE
105
154
102
{ACAD_REACTORS
330
155
102
}
330
A
100
AcDbSymbolTableRecord
100
AcDbDimStyleTableRecord
  2
ME10_DIM_16
 70
     0
 41
3.5
 42
0.0
 44
2.0
 73
     0
 74
     0
 77
     1
 78
     8
140
3.5
147
2.0
172
     1
173
     1
176
     2
177
     2
178
     2
271
     2
340
108
  0
ENDTAB
  0
TABLE
  2
BLOCK_RECORD
  5
1
330
0
100
AcDbSymbolTable
 70
     8
  0
BLOCK_RECORD
  5
1F
330
1
100
AcDbSymbolTableRecord
100
AcDbBlockTableRecord
  2
*Model_Space
340
22
  0
BLOCK_RECORD
  5
1B
330
1
100
AcDbSymbolTableRecord
100
AcDbBlockTableRecord
  2
*Paper_Space
340
1E
  0
BLOCK_RECORD
  5
23
330
1
100
AcDbSymbolTableRecord
100
AcDbBlockTableRecord
  2
*Paper_Space0
340
26
  0
BLOCK_RECORD
  5
102
330
1
100
AcDbSymbolTableRecord
100
AcDbBlockTableRecord
  2
*D1
340
0
  0
BLOCK_RECORD
  5
10E
330
1
100
AcDbSymbolTableRecord
100
AcDbBlockTableRecord
  2
*D2
340
0
  0
BLOCK_RECORD
  5
119
330
1
100
AcDbSymbolTableRecord
100
AcDbBlockTableRecord
  2
*D3
340
0
  0
BLOCK_RECORD
  5
124
330
1
100
AcDbSymbolTableRecord
100
AcDbBlockTableRecord
  2
*D4
340
0
  0
BLOCK_RECORD
  5
130
330
1
100
AcDbSymbolTableRecord
100
AcDbBlockTableRecord
  2
*D5
340
0
  0
BLOCK_RECORD
  5
13C
330
1
100
AcDbSymbolTableRecord
100
AcDbBlockTableRecord
  2
*D6
340
0
  0
BLOCK_RECORD
  5
149
330
1
100
AcDbSymbolTableRecord
100
AcDbBlockTableRecord
  2
*D7
340
0
  0
ENDTAB
  0
ENDSEC
  0
SECTION
  2
BLOCKS
  0
BLOCK
  5
20
330
1F
100
AcDbEntity
  8
0
100
AcDbBlockBegin
  2
*Model_Space
 70
     0
 71
     0
 10
0.0
 20
0.0
 30
0.0
  3
*Model_Space
  1

  0
ENDBLK
  5
21
330
1F
100
AcDbEntity
  8
0
100
AcDbBlockEnd
  0
BLOCK
  5
1C
330
1B
100
AcDbEntity
 67
     1
  8
0
100
AcDbBlockBegin
  2
*Paper_Space
 70
     0
 71
     0
 10
0.0
 20
0.0
 30
0.0
  3
*Paper_Space
  1

  0
ENDBLK
  5
1D
330
1B
100
AcDbEntity
 67
     1
  8
0
100
AcDbBlockEnd
  0
BLOCK
  5
24
330
23
100
AcDbEntity
  8
0
100
AcDbBlockBegin
  2
*Paper_Space0
 70
     0
 71
     0
 10
0.0
 20
0.0
 30
0.0
  3
*Paper_Space0
  1

  0
ENDBLK
  5
25
330
23
100
AcDbEntity
  8
0
100
AcDbBlockEnd
  0
BLOCK
  5
10A
330
102
100
AcDbEntity
  8
0
100
AcDbBlockBegin
  2
*D1
 70
     1
 71
     0
 10
0.0
 20
0.0
 30
0.0
  3
*D1
  1

  0
LINE
  5
103
330
102
100
AcDbEntity
  8
1
  6
Continuous
 62
     2
100
AcDbLine
 10
139.6690338850065
 20
-81.373013386761
 30
0.0
 11
161.6690338850065
 21
-81.373013386761
 31
0.0
  0
LINE
  5
104
330
102
100
AcDbEntity
  8
1
  6
Continuous
 62
     2
100
AcDbLine
 10
161.6690338850065
 20
-32.17357535218622
 30
0.0
 11
161.6690338850065
 21
-83.373013386761
 31
0.0
  0
LINE
  5
105
330
102
100
AcDbEntity
  8
1
  6
Continuous
 62
     2
100
AcDbLine
 10
139.6690338850065
 20
-50.38277743880522
 30
0.0
 11
139.6690338850065
 21
-83.373013386761
 31
0.0
  0
SOLID
  5
106
330
102
100
AcDbEntity
  8
1
 62
     2
100
AcDbTrace
 10
143.1690338850065
 20
-80.91222964520512
 30
0.0
 11
143.1690338850065
 21
-81.83379712831689
 31
0.0
 12
139.6690338850065
 22
-81.373013386761
 32
0.0
 13
139.6690338850065
 23
-81.373013386761
 33
0.0
  0
SOLID
  5
107
330
102
100
AcDbEntity
  8
1
 62
     2
100
AcDbTrace
 10
158.1690338850065
 20
-81.83379712831689
 30
0.0
 11
158.1690338850065
 21
-80.91222964520512
 31
0.0
 12
161.6690338850065
 22
-81.373013386761
 32
0.0
 13
161.6690338850065
 23
-81.373013386761
 33
0.0
  0
MTEXT
  5
109
330
102
100
AcDbEntity
  8
1
 62
     2
100
AcDbMText
 10
148.7212814461655
 20
-79.373013386761
 30
0.0
 40
3.5
 41
0.0
 71
     7
 72
     1
  1
22
  7
CONVERTER_11
 11
0.9999999999970621
 21
2.424068405545307E-6
 31
0.0
 73
     1
 44
0.60024009603842
  0
ENDBLK
  5
10B
330
102
100
AcDbEntity
  8
0
100
AcDbBlockEnd
  0
BLOCK
  5
115
330
10E
100
AcDbEntity
  8
0
100
AcDbBlockBegin
  2
*D2
 70
     1
 71
     0
 10
0.0
 20
0.0
 30
0.0
  3
*D2
  1

  0
LINE
  5
10F
330
10E
100
AcDbEntity
  8
1
  6
Continuous
 62
     2
100
AcDbLine
 10
219.2257842959098
 20
-38.17357535218679
 30
0.0
 11
219.2257842959098
 21
-18.47357535218606
 31
0.0
  0
LINE
  5
110
330
10E
100
AcDbEntity
  8
1
  6
Continuous
 62
     2
100
AcDbLine
 10
172.1690338850064
 20
-18.47357535218606
 30
0.0
 11
221.2257842959098
 21
-18.47357535218606
 31
0.0
  0
LINE
  5
111
330
10E
100
AcDbEntity
  8
1
  6
Continuous
 62
     2
100
AcDbLine
 10
172.1690338850064
 20
-38.17357535218679
 30
0.0
 11
221.2257842959098
 21
-38.17357535218679
 31
0.0
  0
SOLID
  5
112
330
10E
100
AcDbEntity
  8
1
 62
     2
100
AcDbTrace
 10
218.7650005543539
 20
-34.67357535218679
 30
0.0
 11
219.6865680374657
 21
-34.67357535218679
 31
0.0
 12
219.2257842959098
 22
-38.17357535218679
 32
0.0
 13
219.2257842959098
 23
-38.17357535218679
 33
0.0
  0
SOLID
  5
113
330
10E
100
AcDbEntity
  8
1
 62
     2
100
AcDbTrace
 10
219.6865680374657
 20
-21.97357535218606
 30
0.0
 11
218.7650005543539
 21
-21.97357535218606
 31
0.0
 12
219.2257842959098
 22
-18.47357535218606
 32
0.0
 13
219.2257842959098
 23
-18.47357535218606
 33
0.0
  0
MTEXT
  5
114
330
10E
100
AcDbEntity
  8
1
 62
     2
100
AcDbMText
 10
217.2257842959098
 20
-31.71074979273608
 30
0.0
 40
3.5
 41
0.0
 71
     7
 72
     1
  1
20
  7
CONVERTER_11
 11
0.0
 21
1.0
 31
0.0
 73
     1
 44
0.60024009603842
  0
ENDBLK
  5
116
330
10E
100
AcDbEntity
  8
0
100
AcDbBlockEnd
  0
BLOCK
  5
120
330
119
100
AcDbEntity
  8
0
100
AcDbBlockBegin
  2
*D3
 70
     1
 71
     0
 10
0.0
 20
0.0
 30
0.0
  3
*D3
  1

  0
LINE
  5
11A
330
119
100
AcDbEntity
  8
1
  6
Continuous
 62
     2
100
AcDbLine
 10
139.6690338850065
 20
56.9171280891606
 30
0.0
 11
158.1690338850064
 21
56.9171280891606
 31
0.0
  0
LINE
  5
11B
330
119
100
AcDbEntity
  8
1
  6
Continuous
 62
     2
100
AcDbLine
 10
158.1690338850064
 20
-16.17357535218673
 30
0.0
 11
158.1690338850064
 21
58.9171280891606
 31
0.0
  0
LINE
  5
11C
330
119
100
AcDbEntity
  8
1
  6
Continuous
 62
     2
100
AcDbLine
 10
139.6690338850065
 20
44.30320454210566
 30
0.0
 11
139.6690338850065
 21
58.9171280891606
 31
0.0
  0
SOLID
  5
11D
330
119
100
AcDbEntity
  8
1
 62
     2
100
AcDbTrace
 10
143.1690338850065
 20
57.37791183071649
 30
0.0
 11
143.1690338850065
 21
56.45634434760471
 31
0.0
 12
139.6690338850065
 22
56.9171280891606
 32
0.0
 13
139.6690338850065
 23
56.9171280891606
 33
0.0
  0
SOLID
  5
11E
330
119
100
AcDbEntity
  8
1
 62
     2
100
AcDbTrace
 10
154.6690338850064
 20
56.45634434760471
 30
0.0
 11
154.6690338850064
 21
57.37791183071649
 31
0.0
 12
158.1690338850064
 22
56.9171280891606
 32
0.0
 13
158.1690338850064
 23
56.9171280891606
 33
0.0
  0
MTEXT
  5
11F
330
119
100
AcDbEntity
  8
1
 62
     2
100
AcDbMText
 10
144.566756629532
 20
58.9171280891606
 30
0.0
 40
3.5
 41
0.0
 71
     7
 72
     1
  1
18.5
  7
CONVERTER_11
 11
0.9999999999970621
 21
2.424068405545307E-6
 31
0.0
 73
     1
 44
0.60024009603842
  0
ENDBLK
  5
121
330
119
100
AcDbEntity
  8
0
100
AcDbBlockEnd
  0
BLOCK
  5
12C
330
124
100
AcDbEntity
  8
0
100
AcDbBlockBegin
  2
*D4
 70
     1
 71
     0
 10
0.0
 20
0.0
 30
0.0
  3
*D4
  1

  0
LINE
  5
125
330
124
100
AcDbEntity
  8
1
  6
Continuous
 62
     2
100
AcDbLine
 10
148.6690338850064
 20
-70.6602817920311
 30
0.0
 11
161.6690338850064
 21
-70.6602817920311
 31
0.0
  0
LINE
  5
126
330
124
100
AcDbEntity
  8
1
  6
Continuous
 62
     2
100
AcDbLine
 10
161.6690338850064
 20
-32.17357535218622
 30
0.0
 11
161.6690338850064
 21
-72.6602817920311
 31
0.0
  0
LINE
  5
127
330
124
100
AcDbEntity
  8
1
  6
Continuous
 62
     2
100
AcDbLine
 10
148.6690338850064
 20
-50.67357535218674
 30
0.0
 11
148.6690338850064
 21
-53.1224605692645
 31
0.0
  0
LINE
  5
128
330
124
100
AcDbEntity
  8
1
  6
Continuous
 62
     2
100
AcDbLine
 10
148.6690338850064
 20
-63.3542858445563
 30
0.0
 11
148.6690338850064
 21
-72.6602817920311
 31
0.0
  0
SOLID
  5
129
330
124
100
AcDbEntity
  8
1
 62
     2
100
AcDbTrace
 10
152.1690338850064
 20
-70.19949805047521
 30
0.0
 11
152.1690338850064
 21
-71.12106553358699
 31
0.0
 12
148.6690338850064
 22
-70.6602817920311
 32
0.0
 13
148.6690338850064
 23
-70.6602817920311
 33
0.0
  0
SOLID
  5
12A
330
124
100
AcDbEntity
  8
1
 62
     2
100
AcDbTrace
 10
158.1690338850064
 20
-71.12106553358699
 30
0.0
 11
158.1690338850064
 21
-70.19949805047521
 31
0.0
 12
161.6690338850064
 22
-70.6602817920311
 32
0.0
 13
161.6690338850064
 23
-70.6602817920311
 33
0.0
  0
MTEXT
  5
12B
330
124
100
AcDbEntity
  8
1
 62
     2
100
AcDbMText
 10
151.907459242857
 20
-68.6602817920311
 30
0.0
 40
3.5
 41
0.0
 71
     7
 72
     1
  1
13
  7
CONVERTER_11
 11
0.9999999999970621
 21
2.424068405545307E-6
 31
0.0
 73
     1
 44
0.60024009603842
  0
ENDBLK
  5
12D
330
124
100
AcDbEntity
  8
0
100
AcDbBlockEnd
  0
BLOCK
  5
138
330
130
100
AcDbEntity
  8
0
100
AcDbBlockBegin
  2
*D5
 70
     1
 71
     0
 10
0.0
 20
0.0
 30
0.0
  3
*D5
  1

  0
LINE
  5
131
330
130
100
AcDbEntity
  8
1
  6
Continuous
 62
     2
100
AcDbLine
 10
161.6690338850064
 20
-81.4155559145449
 30
0.0
 11
172.1690338850064
 21
-81.4155559145449
 31
0.0
  0
LINE
  5
132
330
130
100
AcDbEntity
  8
1
  6
Continuous
 62
     2
100
AcDbLine
 10
172.1690338850064
 20
-81.4155559145449
 30
0.0
 11
183.054119026541
 21
-81.4155559145449
 31
0.0
  0
LINE
  5
133
330
130
100
AcDbEntity
  8
1
  6
Continuous
 62
     2
100
AcDbLine
 10
172.1690338850064
 20
-35.17357535218677
 30
0.0
 11
172.1690338850064
 21
-83.4155559145449
 31
0.0
  0
LINE
  5
134
330
130
100
AcDbEntity
  8
1
  6
Continuous
 62
     2
100
AcDbLine
 10
161.6690338850064
 20
-32.17357535218622
 30
0.0
 11
161.6690338850064
 21
-83.4155559145449
 31
0.0
  0
SOLID
  5
135
330
130
100
AcDbEntity
  8
1
 62
     2
100
AcDbTrace
 10
165.1690338850064
 20
-80.95477217298901
 30
0.0
 11
165.1690338850064
 21
-81.87633965610078
 31
0.0
 12
161.6690338850064
 22
-81.4155559145449
 32
0.0
 13
161.6690338850064
 23
-81.4155559145449
 33
0.0
  0
SOLID
  5
136
330
130
100
AcDbEntity
  8
1
 62
     2
100
AcDbTrace
 10
168.6690338850064
 20
-81.87633965610078
 30
0.0
 11
168.6690338850064
 21
-80.95477217298901
 31
0.0
 12
172.1690338850064
 22
-81.4155559145449
 32
0.0
 13
172.1690338850064
 23
-81.4155559145449
 33
0.0
  0
MTEXT
  5
137
330
130
100
AcDbEntity
  8
1
 62
     2
100
AcDbMText
 10
174.566619026541
 20
-79.4155559145449
 30
0.0
 40
3.5
 41
0.0
 71
     7
 72
     1
  1
10.5
  7
CONVERTER_11
 11
0.9999999999970621
 21
2.424068405545307E-6
 31
0.0
 73
     1
 44
0.60024009603842
  0
ENDBLK
  5
139
330
130
100
AcDbEntity
  8
0
100
AcDbBlockEnd
  0
BLOCK
  5
145
330
13C
100
AcDbEntity
  8
0
100
AcDbBlockBegin
  2
*D6
 70
     1
 71
     0
 10
0.0
 20
0.0
 30
0.0
  3
*D6
  1

  0
LINE
  5
13D
330
13C
100
AcDbEntity
  8
1
  6
Continuous
 62
     2
100
AcDbLine
 10
162.6690338850064
 20
-70.8046223552797
 30
0.0
 11
169.6690338850064
 21
-70.8046223552797
 31
0.0
  0
LINE
  5
13E
330
13C
100
AcDbEntity
  8
1
  6
Continuous
 62
     2
100
AcDbLine
 10
169.6690338850064
 20
-70.8046223552797
 30
0.0
 11
172.1690338850064
 21
-70.8046223552797
 31
0.0
  0
LINE
  5
13F
330
13C
100
AcDbEntity
  8
1
  6
Continuous
 62
     2
100
AcDbLine
 10
172.1690338850064
 20
-70.8046223552797
 30
0.0
 11
182.041681830727
 21
-70.8046223552797
 31
0.0
  0
LINE
  5
140
330
13C
100
AcDbEntity
  8
1
  6
Continuous
 62
     2
100
AcDbLine
 10
172.1690338850064
 20
-31.47357535218607
 30
0.0
 11
172.1690338850064
 21
-72.8046223552797
 31
0.0
  0
LINE
  5
141
330
13C
100
AcDbEntity
  8
1
  6
Continuous
 62
     2
100
AcDbLine
 10
169.6690338850064
 20
-30.47357535218607
 30
0.0
 11
169.6690338850064
 21
-72.8046223552797
 31
0.0
  0
SOLID
  5
142
330
13C
100
AcDbEntity
  8
1
 62
     2
100
AcDbTrace
 10
166.1690338850064
 20
-71.26540609683559
 30
0.0
 11
166.1690338850064
 21
-70.34383861372382
 31
0.0
 12
169.6690338850064
 22
-70.8046223552797
 32
0.0
 13
169.6690338850064
 23
-70.8046223552797
 33
0.0
  0
SOLID
  5
143
330
13C
100
AcDbEntity
  8
1
 62
     2
100
AcDbTrace
 10
175.6690338850064
 20
-70.34383861372382
 30
0.0
 11
175.6690338850064
 21
-71.26540609683559
 31
0.0
 12
172.1690338850064
 22
-70.8046223552797
 32
0.0
 13
172.1690338850064
 23
-70.8046223552797
 33
0.0
  0
MTEXT
  5
144
330
13C
100
AcDbEntity
  8
1
 62
     2
100
AcDbMText
 10
175.654181830727
 20
-68.8046223552797
 30
0.0
 40
3.5
 41
0.0
 71
     7
 72
     1
  1
2.5
  7
CONVERTER_11
 11
0.9999999999970621
 21
2.424068405545307E-6
 31
0.0
 73
     1
 44
0.60024009603842
  0
ENDBLK
  5
146
330
13C
100
AcDbEntity
  8
0
100
AcDbBlockEnd
  0
BLOCK
  5
152
330
149
100
AcDbEntity
  8
0
100
AcDbBlockBegin
  2
*D7
 70
     1
 71
     0
 10
0.0
 20
0.0
 30
0.0
  3
*D7
  1

  0
LINE
  5
14A
330
149
100
AcDbEntity
  8
1
  6
Continuous
 62
     2
100
AcDbLine
 10
149.5757395807999
 20
-60.44553885039404
 30
0.0
 11
158.1690338850064
 21
-60.44553885039404
 31
0.0
  0
LINE
  5
14B
330
149
100
AcDbEntity
  8
1
  6
Continuous
 62
     2
100
AcDbLine
 10
158.1690338850064
 20
-60.44553885039404
 30
0.0
 11
161.6690338850064
 21
-60.44553885039404
 31
0.0
  0
LINE
  5
14C
330
149
100
AcDbEntity
  8
1
  6
Continuous
 62
     2
100
AcDbLine
 10
161.6690338850064
 20
-60.44553885039404
 30
0.0
 11
168.6690338850064
 21
-60.44553885039404
 31
0.0
  0
LINE
  5
14D
330
149
100
AcDbEntity
  8
1
  6
Continuous
 62
     2
100
AcDbLine
 10
161.6690338850064
 20
-33.87357535218675
 30
0.0
 11
161.6690338850064
 21
-62.44553885039404
 31
0.0
  0
LINE
  5
14E
330
149
100
AcDbEntity
  8
1
  6
Continuous
 62
     2
100
AcDbLine
 10
158.1690338850064
 20
-31.17357535218675
 30
0.0
 11
158.1690338850064
 21
-62.44553885039404
 31
0.0
  0
SOLID
  5
14F
330
149
100
AcDbEntity
  8
1
 62
     2
100
AcDbTrace
 10
154.6690338850064
 20
-60.90632259194992
 30
0.0
 11
154.6690338850064
 21
-59.98475510883815
 31
0.0
 12
158.1690338850064
 22
-60.44553885039404
 32
0.0
 13
158.1690338850064
 23
-60.44553885039404
 33
0.0
  0
SOLID
  5
150
330
149
100
AcDbEntity
  8
1
 62
     2
100
AcDbTrace
 10
165.1690338850064
 20
-59.98475510883815
 30
0.0
 11
165.1690338850064
 21
-60.90632259194992
 31
0.0
 12
161.6690338850064
 22
-60.44553885039404
 32
0.0
 13
161.6690338850064
 23
-60.44553885039404
 33
0.0
  0
MTEXT
  5
151
330
149
100
AcDbEntity
  8
1
 62
     2
100
AcDbMText
 10
149.5757395807999
 20
-58.44553885039404
 30
0.0
 40
3.5
 41
0.0
 71
     7
 72
     1
  1
3.5
  7
CONVERTER_11
 11
0.9999999999970621
 21
2.424068405545307E-6
 31
0.0
 73
     1
 44
0.60024009603842
  0
ENDBLK
  5
153
330
149
100
AcDbEntity
  8
0
100
AcDbBlockEnd
  0
ENDSEC
  0
SECTION
  2
ENTITIES
  0
LINE
  5
32
330
1F
100
AcDbEntity
  8
1
  6
Continuous
 62
     7
100
AcDbLine
 10
109.1690338850065
 20
-31.17357535218676
 30
0.0
 11
109.1690338850065
 21
-16.67357535218677
 31
0.0
  0
LINE
  5
33
330
1F
100
AcDbEntity
  8
1
  6
Continuous
 62
     7
100
AcDbLine
 10
159.1690338850063
 20
-2.40562615975566
 30
0.0
 11
159.1690338850063
 21
-1.67357535218676
 31
0.0
  0
LINE
  5
34
330
1F
100
AcDbEntity
  8
1
  6
Continuous
 62
     7
100
AcDbLine
 10
160.4784349617648
 20
-4.67357535218676
 30
0.0
 11
159.1690338850063
 21
-2.40562615975566
 31
0.0
  0
LINE
  5
35
330
1F
100
AcDbEntity
  8
1
  6
Continuous
 62
     7
100
AcDbLine
 10
167.6096328082479
 20
-4.67357535218676
 30
0.0
 11
160.4784349617648
 21
-4.67357535218676
 31
0.0
  0
LINE
  5
36
330
1F
100
AcDbEntity
  8
1
  6
Continuous
 62
     7
100
AcDbLine
 10
168.9190338850064
 20
-2.40562615975566
 30
0.0
 11
167.6096328082479
 21
-4.67357535218676
 31
0.0
  0
LINE
  5
37
330
1F
100
AcDbEntity
  8
1
  6
Continuous
 62
     7
100
AcDbLine
 10
168.9190338850064
 20
-1.67357535218676
 30
0.0
 11
168.9190338850064
 21
-2.40562615975566
 31
0.0
  0
LINE
  5
38
330
1F
100
AcDbEntity
  8
1
  6
Continuous
 62
     7
100
AcDbLine
 10
159.1690338850063
 20
-1.67357535218676
 30
0.0
 11
168.9190338850064
 21
-1.67357535218676
 31
0.0
  0
LINE
  5
39
330
1F
100
AcDbEntity
  8
1
  6
Continuous
 62
     7
100
AcDbLine
 10
169.9190338850064
 20
-2.67357535218676
 30
0.0
 11
169.9190338850064
 21
-0.67357535218676
 31
0.0
  0
LINE
  5
3A
330
1F
100
AcDbEntity
  8
1
  6
Continuous
 62
     7
100
AcDbLine
 10
168.1869830774375
 20
-5.67357535218676
 30
0.0
 11
169.9190338850064
 21
-2.67357535218676
 31
0.0
  0
LINE
  5
3B
330
1F
100
AcDbEntity
  8
1
  6
Continuous
 62
     7
100
AcDbLine
 10
159.9010846925752
 20
-5.67357535218676
 30
0.0
 11
161.6690338850064
 21
-5.67357535218675
 31
0.0
  0
LINE
  5
3C
330
1F
100
AcDbEntity
  8
1
  6
Continuous
 62
     7
100
AcDbLine
 10
158.1690338850063
 20
-2.67357535218676
 30
0.0
 11
159.9010846925752
 21
-5.67357535218676
 31
0.0
  0
LINE
  5
3D
330
1F
100
AcDbEntity
  8
1
  6
Continuous
 62
     7
100
AcDbLine
 10
136.1190338850066
 20
-29.67357535218669
 30
0.0
 11
136.6190338850066
 21
-29.67357535218669
 31
0.0
  0
LINE
  5
3E
330
1F
100
AcDbEntity
  8
1
  6
Continuous
 62
     7
100
AcDbLine
 10
142.6690338850066
 20
-16.67357535218677
 30
0.0
 11
136.6190338850066
 21
-16.67357535218677
 31
0.0
  0
LINE
  5
3F
330
1F
100
AcDbEntity
  8
1
  6
Continuous
 62
     2
100
AcDbLine
 10
136.6190338850066
 20
-16.67357535218677
 30
0.0
 11
136.6190338850066
 21
-29.67357535218669
 31
0.0
  0
LINE
  5
40
330
1F
100
AcDbEntity
  8
1
  6
Continuous
 62
     7
100
AcDbLine
 10
136.6190338850066
 20
-29.67357535218669
 30
0.0
 11
142.6690338850066
 21
-29.67357535218669
 31
0.0
  0
LINE
  5
41
330
1F
100
AcDbEntity
  8
1
  6
Continuous
 62
     7
100
AcDbLine
 10
143.1690338850066
 20
-16.67357535218677
 30
0.0
 11
142.6690338850066
 21
-16.67357535218677
 31
0.0
  0
LINE
  5
42
330
1F
100
AcDbEntity
  8
1
  6
Continuous
 62
     2
100
AcDbLine
 10
142.6690338850066
 20
-16.67357535218677
 30
0.0
 11
142.6690338850066
 21
-29.67357535218669
 31
0.0
  0
LINE
  5
43
330
1F
100
AcDbEntity
  8
1
  6
Continuous
 62
     7
100
AcDbLine
 10
142.6690338850066
 20
-29.67357535218669
 30
0.0
 11
143.1690338850066
 21
-29.67357535218669
 31
0.0
  0
LINE
  5
44
330
1F
100
AcDbEntity
  8
1
  6
Continuous
 62
     7
100
AcDbLine
 10
136.1190338850066
 20
-34.53858288799314
 30
0.0
 11
136.1190338850066
 21
-29.67357535218669
 31
0.0
  0
LINE
  5
45
330
1F
100
AcDbEntity
  8
1
  6
Continuous
 62
     7
100
AcDbLine
 10
136.1190338850066
 20
-29.67357535218669
 30
0.0
 11
136.1190338850066
 21
-16.67357535218677
 31
0.0
  0
LINE
  5
46
330
1F
100
AcDbEntity
  8
1
  6
Continuous
 62
     7
100
AcDbLine
 10
143.1690338850066
 20
-34.51207214344981
 30
0.0
 11
143.1690338850066
 21
-29.67357535218669
 31
0.0
  0
LINE
  5
47
330
1F
100
AcDbEntity
  8
1
  6
Continuous
 62
     7
100
AcDbLine
 10
143.1690338850066
 20
-29.67357535218669
 30
0.0
 11
143.1690338850066
 21
-16.67357535218677
 31
0.0
  0
LINE
  5
48
330
1F
100
AcDbEntity
  8
1
  6
Continuous
 62
     7
100
AcDbLine
 10
136.1190338850066
 20
-16.67357535218677
 30
0.0
 11
134.1190338850066
 21
-16.67357535218677
 31
0.0
  0
LINE
  5
49
330
1F
100
AcDbEntity
  8
1
  6
Continuous
 62
     7
100
AcDbLine
 10
136.6190338850066
 20
-16.67357535218677
 30
0.0
 11
136.1190338850066
 21
-16.67357535218677
 31
0.0
  0
LINE
  5
4A
330
1F
100
AcDbEntity
  8
1
  6
Continuous
 62
     7
100
AcDbLine
 10
146.3212469974814
 20
-16.67357535218673
 30
0.0
 11
145.1690338850066
 21
-16.67357535218677
 31
0.0
  0
LINE
  5
4B
330
1F
100
AcDbEntity
  8
1
  6
Continuous
 62
     7
100
AcDbLine
 10
146.3212469974814
 20
-12.67357535218673
 30
0.0
 11
146.3212469974814
 21
-16.67357535218673
 31
0.0
  0
LINE
  5
4C
330
1F
100
AcDbEntity
  8
1
  6
Continuous
 62
     7
100
AcDbLine
 10
145.1690338850066
 20
-2.1735753521867
 30
0.0
 11
146.3212469974814
 21
-2.17357535218673
 31
0.0
  0
LINE
  5
4D
330
1F
100
AcDbEntity
  8
1
  6
Continuous
 62
     7
100
AcDbLine
 10
146.3212469974814
 20
-12.67357535218673
 30
0.0
 11
145.1690338850066
 21
-12.67357535218677
 31
0.0
  0
LINE
  5
4E
330
1F
100
AcDbEntity
  8
1
  6
Continuous
 62
     7
100
AcDbLine
 10
146.3212469974814
 20
-4.67357535218673
 30
0.0
 11
146.3212469974814
 21
-12.67357535218673
 31
0.0
  0
LINE
  5
4F
330
1F
100
AcDbEntity
  8
1
  6
Continuous
 62
     7
100
AcDbLine
 10
146.3212469974814
 20
-4.67357535218673
 30
0.0
 11
145.1690338850066
 21
-4.67357535218677
 31
0.0
  0
LINE
  5
50
330
1F
100
AcDbEntity
  8
1
  6
Continuous
 62
     7
100
AcDbLine
 10
146.3212469974814
 20
-2.17357535218673
 30
0.0
 11
146.3212469974814
 21
-4.67357535218673
 31
0.0
  0
LINE
  5
51
330
1F
100
AcDbEntity
  8
1
  6
Continuous
 62
     7
100
AcDbLine
 10
146.3212469974814
 20
-15.67357535218673
 30
0.0
 11
152.3212469974815
 21
-15.67357535218673
 31
0.0
  0
LINE
  5
52
330
1F
100
AcDbEntity
  8
1
  6
Continuous
 62
     7
100
AcDbLine
 10
146.3212469974814
 20
-5.67357535218673
 30
0.0
 11
152.3212469974815
 21
-5.67357535218673
 31
0.0
  0
LINE
  5
53
330
1F
100
AcDbEntity
  8
1
  6
Continuous
 62
     7
100
AcDbLine
 10
152.3212469974815
 20
-5.67357535218673
 30
0.0
 11
152.3212469974815
 21
-15.67357535218673
 31
0.0
  0
LINE
  5
54
330
1F
100
AcDbEntity
  8
1
  6
Continuous
 62
     7
100
AcDbLine
 10
134.1190338850066
 20
41.32642464781317
 30
0.0
 11
136.1190338850066
 21
41.32642464781317
 31
0.0
  0
LINE
  5
55
330
1F
100
AcDbEntity
  8
1
  6
DOT_CENTER
 62
     2
100
AcDbLine
 10
139.6690338850065
 20
1.82642464781323
 30
0.0
 11
139.6690338850065
 21
44.30320454210566
 31
0.0
  0
LINE
  5
56
330
1F
100
AcDbEntity
  8
1
  6
Continuous
 62
     7
100
AcDbLine
 10
145.4690338850065
 20
38.82642464781321
 30
0.0
 11
145.4690338850065
 21
41.32642464781317
 31
0.0
  0
LINE
  5
57
330
1F
100
AcDbEntity
  8
1
  6
DASHED
 62
     2
100
AcDbLine
 10
136.1190338850066
 20
-16.67357535218677
 30
0.0
 11
136.1190338850066
 21
41.32642464781317
 31
0.0
  0
LINE
  5
58
330
1F
100
AcDbEntity
  8
1
  6
Continuous
 62
     7
100
AcDbLine
 10
134.1190338850066
 20
-16.67357535218677
 30
0.0
 11
134.1190338850066
 21
41.32642464781317
 31
0.0
  0
LINE
  5
59
330
1F
100
AcDbEntity
  8
1
  6
Continuous
 62
     7
100
AcDbLine
 10
139.6690338850065
 20
1.82642464781323
 30
0.0
 11
139.6690338850065
 21
-0.67357535218677
 31
0.0
  0
LINE
  5
5A
330
1F
100
AcDbEntity
  8
1
  6
DOT_CENTER
 62
     2
100
AcDbLine
 10
158.4712284146488
 20
-10.67357535218677
 30
0.0
 11
132.410999281002
 21
-10.67357535218677
 31
0.0
  0
LINE
  5
5B
330
1F
100
AcDbEntity
  8
1
  6
DOT_CENTER
 62
     2
100
AcDbLine
 10
139.6690338850065
 20
-0.67357535218677
 30
0.0
 11
139.6690338850063
 21
-34.17357535218676
 31
0.0
  0
LINE
  5
5C
330
1F
100
AcDbEntity
  8
1
  6
Continuous
 62
     7
100
AcDbLine
 10
139.6690338850065
 20
-0.67357535218677
 30
0.0
 11
143.1690338850066
 21
-0.67357535218677
 31
0.0
  0
LINE
  5
5D
330
1F
100
AcDbEntity
  8
1
  6
Continuous
 62
     7
100
AcDbLine
 10
145.1690338850066
 20
-16.67357535218677
 30
0.0
 11
143.1690338850066
 21
-16.67357535218677
 31
0.0
  0
LINE
  5
5E
330
1F
100
AcDbEntity
  8
1
  6
DASHED
 62
     2
100
AcDbLine
 10
143.1690338850066
 20
-0.67357535218677
 30
0.0
 11
143.1690338850066
 21
-16.67357535218677
 31
0.0
  0
LINE
  5
5F
330
1F
100
AcDbEntity
  8
1
  6
Continuous
 62
     7
100
AcDbLine
 10
136.1190338850066
 20
41.32642464781317
 30
0.0
 11
145.4690338850065
 21
41.32642464781317
 31
0.0
  0
LINE
  5
60
330
1F
100
AcDbEntity
  8
1
  6
Continuous
 62
     7
100
AcDbLine
 10
145.4690338850065
 20
1.82642464781323
 30
0.0
 11
143.1690338850066
 21
1.82642464781323
 31
0.0
  0
LINE
  5
61
330
1F
100
AcDbEntity
  8
1
  6
Continuous
 62
     7
100
AcDbLine
 10
143.1690338850066
 20
-0.67357535218677
 30
0.0
 11
145.1690338850066
 21
-0.67357535218677
 31
0.0
  0
LINE
  5
62
330
1F
100
AcDbEntity
  8
1
  6
Continuous
 62
     7
100
AcDbLine
 10
145.1690338850066
 20
-12.67357535218677
 30
0.0
 11
145.1690338850066
 21
-16.67357535218677
 31
0.0
  0
LINE
  5
63
330
1F
100
AcDbEntity
  8
1
  6
Continuous
 62
     7
100
AcDbLine
 10
145.4690338850065
 20
1.82642464781323
 30
0.0
 11
147.4690338850065
 21
1.82642464781323
 31
0.0
  0
LINE
  5
64
330
1F
100
AcDbEntity
  8
1
  6
Continuous
 62
     7
100
AcDbLine
 10
144.4836817852267
 20
-12.67357535218677
 30
0.0
 11
145.1690338850066
 21
-12.67357535218677
 31
0.0
  0
LINE
  5
65
330
1F
100
AcDbEntity
  8
1
  6
Continuous
 62
     7
100
AcDbLine
 10
144.4836817852267
 20
-4.67357535218677
 30
0.0
 11
144.4836817852267
 21
-12.67357535218677
 31
0.0
  0
LINE
  5
66
330
1F
100
AcDbEntity
  8
1
  6
Continuous
 62
     7
100
AcDbLine
 10
145.1690338850066
 20
-4.67357535218677
 30
0.0
 11
144.4836817852267
 21
-4.67357535218677
 31
0.0
  0
LINE
  5
67
330
1F
100
AcDbEntity
  8
1
  6
Continuous
 62
     7
100
AcDbLine
 10
145.1690338850066
 20
-0.67357535218677
 30
0.0
 11
145.1690338850066
 21
-4.67357535218677
 31
0.0
  0
LINE
  5
68
330
1F
100
AcDbEntity
  8
1
  6
Continuous
 62
     7
100
AcDbLine
 10
145.4690338850065
 20
41.32642464781317
 30
0.0
 11
147.4690338850065
 21
41.32642464781317
 31
0.0
  0
LINE
  5
69
330
1F
100
AcDbEntity
  8
1
  6
DOT_CENTER
 62
     2
100
AcDbLine
 10
143.9690338850065
 20
35.3264246478132
 30
0.0
 11
163.1056361620355
 21
35.3264246478132
 31
0.0
  0
LINE
  5
6A
330
1F
100
AcDbEntity
  8
1
  6
DASHED
 62
     2
100
AcDbLine
 10
146.8690338850066
 20
37.42642464781322
 30
0.0
 11
147.4690338850065
 21
37.42642464781322
 31
0.0
  0
LINE
  5
6B
330
1F
100
AcDbEntity
  8
1
  6
DASHED
 62
     2
100
AcDbLine
 10
145.4690338850065
 20
38.82642464781321
 30
0.0
 11
146.8690338850066
 21
37.42642464781322
 31
0.0
  0
LINE
  5
6C
330
1F
100
AcDbEntity
  8
1
  6
Continuous
 62
     7
100
AcDbLine
 10
145.4690338850065
 20
31.8264246478132
 30
0.0
 11
145.4690338850065
 21
38.82642464781321
 31
0.0
  0
LINE
  5
6D
330
1F
100
AcDbEntity
  8
1
  6
DASHED
 62
     2
100
AcDbLine
 10
146.8690338850066
 20
33.22642464781323
 30
0.0
 11
147.4690338850065
 21
33.22642464781323
 31
0.0
  0
LINE
  5
6E
330
1F
100
AcDbEntity
  8
1
  6
DASHED
 62
     2
100
AcDbLine
 10
145.4690338850065
 20
31.8264246478132
 30
0.0
 11
146.8690338850066
 21
33.22642464781323
 31
0.0
  0
LINE
  5
6F
330
1F
100
AcDbEntity
  8
1
  6
Continuous
 62
     7
100
AcDbLine
 10
145.4690338850065
 20
22.8264246478132
 30
0.0
 11
145.4690338850065
 21
31.8264246478132
 31
0.0
  0
LINE
  5
70
330
1F
100
AcDbEntity
  8
1
  6
DASHED
 62
     2
100
AcDbLine
 10
146.8690338850066
 20
33.22642464781323
 30
0.0
 11
146.8690338850066
 21
37.42642464781322
 31
0.0
  0
LINE
  5
71
330
1F
100
AcDbEntity
  8
1
  6
DOT_CENTER
 62
     2
100
AcDbLine
 10
143.9690338850065
 20
19.3264246478132
 30
0.0
 11
163.1056361620355
 21
19.3264246478132
 31
0.0
  0
LINE
  5
72
330
1F
100
AcDbEntity
  8
1
  6
DASHED
 62
     2
100
AcDbLine
 10
146.8690338850066
 20
21.42642464781322
 30
0.0
 11
147.4690338850065
 21
21.42642464781322
 31
0.0
  0
LINE
  5
73
330
1F
100
AcDbEntity
  8
1
  6
DASHED
 62
     2
100
AcDbLine
 10
145.4690338850065
 20
22.8264246478132
 30
0.0
 11
146.8690338850066
 21
21.42642464781322
 31
0.0
  0
LINE
  5
74
330
1F
100
AcDbEntity
  8
1
  6
Continuous
 62
     7
100
AcDbLine
 10
145.4690338850065
 20
15.8264246478132
 30
0.0
 11
145.4690338850065
 21
22.8264246478132
 31
0.0
  0
LINE
  5
75
330
1F
100
AcDbEntity
  8
1
  6
DASHED
 62
     2
100
AcDbLine
 10
146.8690338850066
 20
17.22642464781321
 30
0.0
 11
147.4690338850065
 21
17.22642464781321
 31
0.0
  0
LINE
  5
76
330
1F
100
AcDbEntity
  8
1
  6
DASHED
 62
     2
100
AcDbLine
 10
145.4690338850065
 20
15.8264246478132
 30
0.0
 11
146.8690338850066
 21
17.22642464781321
 31
0.0
  0
LINE
  5
77
330
1F
100
AcDbEntity
  8
1
  6
Continuous
 62
     7
100
AcDbLine
 10
145.4690338850065
 20
1.82642464781323
 30
0.0
 11
145.4690338850065
 21
15.8264246478132
 31
0.0
  0
LINE
  5
78
330
1F
100
AcDbEntity
  8
1
  6
DASHED
 62
     2
100
AcDbLine
 10
146.8690338850066
 20
17.22642464781321
 30
0.0
 11
146.8690338850066
 21
21.42642464781322
 31
0.0
  0
LINE
  5
79
330
1F
100
AcDbEntity
  8
1
  6
DASHED
 62
     2
100
AcDbLine
 10
143.1690338850066
 20
14.32642464781323
 30
0.0
 11
136.1690338850065
 21
14.32642464781323
 31
0.0
  0
LINE
  5
7A
330
1F
100
AcDbEntity
  8
1
  6
DASHED
 62
     2
100
AcDbLine
 10
137.6187813533123
 20
17.82642464781323
 30
0.0
 11
141.7192864167008
 21
17.82642464781323
 31
0.0
  0
LINE
  5
7B
330
1F
100
AcDbEntity
  8
1
  6
DASHED
 62
     2
100
AcDbLine
 10
141.7192864167008
 20
17.82642464781323
 30
0.0
 11
143.1690338850066
 21
14.32642464781323
 31
0.0
  0
LINE
  5
7C
330
1F
100
AcDbEntity
  8
1
  6
DASHED
 62
     2
100
AcDbLine
 10
143.1690338850066
 20
14.32642464781323
 30
0.0
 11
143.1690338850066
 21
1.82642464781323
 31
0.0
  0
LINE
  5
7D
330
1F
100
AcDbEntity
  8
1
  6
Continuous
 62
     7
100
AcDbLine
 10
143.1690338850066
 20
1.82642464781323
 30
0.0
 11
139.6690338850065
 21
1.82642464781323
 31
0.0
  0
LINE
  5
7E
330
1F
100
AcDbEntity
  8
1
  6
Continuous
 62
     7
100
AcDbLine
 10
143.1690338850066
 20
1.82642464781323
 30
0.0
 11
143.1690338850066
 21
-0.67357535218677
 31
0.0
  0
LINE
  5
7F
330
1F
100
AcDbEntity
  8
1
  6
DASHED
 62
     2
100
AcDbLine
 10
136.6190338850066
 20
-16.67357535218677
 30
0.0
 11
136.6190338850066
 21
15.4128207508814
 31
0.0
  0
LINE
  5
80
330
1F
100
AcDbEntity
  8
1
  6
DASHED
 62
     2
100
AcDbLine
 10
142.6690338850066
 20
-16.67357535218677
 30
0.0
 11
142.6690338850066
 21
-0.67357535218677
 31
0.0
  0
LINE
  5
81
330
1F
100
AcDbEntity
  8
1
  6
DASHED
 62
     2
100
AcDbLine
 10
136.1690338850065
 20
14.32642464781323
 30
0.0
 11
137.6187813533123
 21
17.82642464781323
 31
0.0
  0
LINE
  5
82
330
1F
100
AcDbEntity
  8
1
  6
Continuous
 62
     7
100
AcDbLine
 10
146.3212469974814
 20
-16.67357535218673
 30
0.0
 11
147.4690338850065
 21
-16.67357535218677
 31
0.0
  0
LINE
  5
83
330
1F
100
AcDbEntity
  8
1
  6
Continuous
 62
     2
100
AcDbLine
 10
147.4690338850065
 20
-5.67357535218679
 30
0.0
 11
147.4690338850065
 21
-5.17357535218679
 31
0.0
  0
LINE
  5
84
330
1F
100
AcDbEntity
  8
1
  6
DOT_CENTER
 62
     2
100
AcDbLine
 10
172.8455229399994
 20
46.32642464781324
 30
0.0
 11
169.9190338850064
 21
46.32642464781324
 31
0.0
  0
LINE
  5
85
330
1F
100
AcDbEntity
  8
1
  6
Continuous
 62
     7
100
AcDbLine
 10
158.1690338850064
 20
-31.17357535218676
 30
0.0
 11
158.1690338850064
 21
-16.17357535218672
 31
0.0
  0
LINE
  5
86
330
1F
100
AcDbEntity
  8
1
  6
Continuous
 62
     7
100
AcDbLine
 10
147.4690338850065
 20
-16.17357535218675
 30
0.0
 11
158.1690338850064
 21
-16.17357535218672
 31
0.0
  0
LINE
  5
87
330
1F
100
AcDbEntity
  8
1
  6
Continuous
 62
     7
100
AcDbLine
 10
158.1690338850064
 20
-16.17357535218672
 30
0.0
 11
158.1690338850064
 21
-5.17357535218679
 31
0.0
  0
LINE
  5
88
330
1F
100
AcDbEntity
  8
1
  6
Continuous
 62
     7
100
AcDbLine
 10
147.4690338850065
 20
-5.17357535218679
 30
0.0
 11
158.1690338850064
 21
-5.17357535218679
 31
0.0
  0
LINE
  5
89
330
1F
100
AcDbEntity
  8
1
  6
Continuous
 62
     7
100
AcDbLine
 10
158.1690338850064
 20
-5.17357535218679
 30
0.0
 11
158.1690338850064
 21
-0.67357535218676
 31
0.0
  0
LINE
  5
8A
330
1F
100
AcDbEntity
  8
1
  6
Continuous
 62
     7
100
AcDbLine
 10
169.9190338850064
 20
46.32642464781324
 30
0.0
 11
169.9190338850064
 21
-0.67357535218676
 31
0.0
  0
LINE
  5
8B
330
1F
100
AcDbEntity
  8
1
  6
Continuous
 62
     7
100
AcDbLine
 10
147.4690338850065
 20
46.32642464781324
 30
0.0
 11
147.4690338850065
 21
-5.17357535218679
 31
0.0
  0
LINE
  5
8C
330
1F
100
AcDbEntity
  8
1
  6
DOT_CENTER
 62
     2
100
AcDbLine
 10
147.4690338850065
 20
46.32642464781324
 30
0.0
 11
169.9190338850064
 21
46.32642464781324
 31
0.0
  0
LINE
  5
8D
330
1F
100
AcDbEntity
  8
1
  6
DOT_CENTER
 62
     2
100
AcDbLine
 10
142.8468263575005
 20
46.32642464781324
 30
0.0
 11
147.4690338850065
 21
46.32642464781324
 31
0.0
  0
LINE
  5
8E
330
1F
100
AcDbEntity
  8
1
  6
Continuous
 62
     7
100
AcDbLine
 10
109.1690338850065
 20
-16.67357535218677
 30
0.0
 11
134.1190338850066
 21
-16.67357535218677
 31
0.0
  0
LINE
  5
8F
330
1F
100
AcDbEntity
  8
1
  6
Continuous
 62
     7
100
AcDbLine
 10
136.1190338850066
 20
-31.17357535218676
 30
0.0
 11
109.1690338850065
 21
-31.17357535218676
 31
0.0
  0
LINE
  5
90
330
1F
100
AcDbEntity
  8
1
  6
Continuous
 62
     7
100
AcDbLine
 10
158.1690338850064
 20
-31.17357535218676
 30
0.0
 11
143.1690338850066
 21
-31.17357535218676
 31
0.0
  0
LINE
  5
91
330
1F
100
AcDbEntity
  8
1
  6
Continuous
 62
     7
100
AcDbLine
 10
147.4690338850065
 20
-16.17357535218675
 30
0.0
 11
147.4690338850065
 21
-15.67357535218673
 31
0.0
  0
LINE
  5
92
330
1F
100
AcDbEntity
  8
1
  6
Continuous
 62
     7
100
AcDbLine
 10
147.4690338850065
 20
-16.67357535218677
 30
0.0
 11
147.4690338850065
 21
-16.17357535218675
 31
0.0
  0
LINE
  5
93
330
1F
100
AcDbEntity
  8
1
  6
Continuous
 62
     7
100
AcDbLine
 10
158.1690338850064
 20
-0.67357535218676
 30
0.0
 11
169.9190338850064
 21
-0.67357535218676
 31
0.0
  0
LINE
  5
94
330
1F
100
AcDbEntity
  8
1
  6
DASHED
 62
     2
100
AcDbLine
 10
171.6690338850064
 20
-31.47357535218606
 30
0.0
 11
171.6690338850064
 21
-25.47357535218606
 31
0.0
  0
LINE
  5
95
330
1F
100
AcDbEntity
  8
1
  6
Continuous
 62
     7
100
AcDbLine
 10
169.6690338850064
 20
-23.47357535218606
 30
0.0
 11
169.6690338850064
 21
-20.47357535218606
 31
0.0
  0
LINE
  5
96
330
1F
100
AcDbEntity
  8
1
  6
DASHED
 62
     2
100
AcDbLine
 10
171.6690338850064
 20
-25.47357535218606
 30
0.0
 11
169.6690338850064
 21
-23.47357535218606
 31
0.0
  0
LINE
  5
97
330
1F
100
AcDbEntity
  8
1
  6
DASHED
 62
     2
100
AcDbLine
 10
171.6690338850064
 20
-25.47357535218606
 30
0.0
 11
171.6690338850064
 21
-22.47357535218606
 31
0.0
  0
LINE
  5
98
330
1F
100
AcDbEntity
  8
1
  6
Continuous
 62
     7
100
AcDbLine
 10
172.1690338850064
 20
-25.47357535218606
 30
0.0
 11
172.1690338850064
 21
-28.47357535218606
 31
0.0
  0
LINE
  5
99
330
1F
100
AcDbEntity
  8
1
  6
DOT_CENTER
 62
     2
100
AcDbLine
 10
171.6690338850064
 20
-25.47357535218606
 30
0.0
 11
168.1690338850064
 21
-25.47357535218606
 31
0.0
  0
LINE
  5
9A
330
1F
100
AcDbEntity
  8
1
  6
DOT_CENTER
 62
     2
100
AcDbLine
 10
172.1690338850064
 20
-25.47357535218606
 30
0.0
 11
171.6690338850064
 21
-25.47357535218606
 31
0.0
  0
LINE
  5
9B
330
1F
100
AcDbEntity
  8
1
  6
DASHED
 62
     2
100
AcDbLine
 10
172.1690338850064
 20
-25.47357535218606
 30
0.0
 11
171.6690338850064
 21
-25.47357535218606
 31
0.0
  0
LINE
  5
9C
330
1F
100
AcDbEntity
  8
1
  6
Continuous
 62
     7
100
AcDbLine
 10
169.6690338850064
 20
-33.47357535218606
 30
0.0
 11
169.6690338850064
 21
-30.47357535218606
 31
0.0
  0
LINE
  5
9D
330
1F
100
AcDbEntity
  8
1
  6
DASHED
 62
     2
100
AcDbLine
 10
171.6690338850064
 20
-31.47357535218606
 30
0.0
 11
169.6690338850064
 21
-33.47357535218606
 31
0.0
  0
LINE
  5
9E
330
1F
100
AcDbEntity
  8
1
  6
DASHED
 62
     2
100
AcDbLine
 10
172.1690338850064
 20
-31.47357535218606
 30
0.0
 11
171.6690338850064
 21
-31.47357535218606
 31
0.0
  0
LINE
  5
9F
330
1F
100
AcDbEntity
  8
1
  6
DOT_CENTER
 62
     2
100
AcDbLine
 10
193.6690338850064
 20
-28.47357535218606
 30
0.0
 11
168.1690338850064
 21
-28.47357535218606
 31
0.0
  0
LINE
  5
A0
330
1F
100
AcDbEntity
  8
1
  6
DASHED
 62
     2
100
AcDbLine
 10
171.6690338850064
 20
-28.47357535218606
 30
0.0
 11
171.6690338850064
 21
-25.47357535218606
 31
0.0
  0
LINE
  5
A1
330
1F
100
AcDbEntity
  8
1
  6
Continuous
 62
     7
100
AcDbLine
 10
169.6690338850064
 20
-20.47357535218606
 30
0.0
 11
169.6690338850064
 21
-18.47357535218606
 31
0.0
  0
LINE
  5
A2
330
1F
100
AcDbEntity
  8
1
  6
DASHED
 62
     2
100
AcDbLine
 10
171.6690338850064
 20
-22.47357535218606
 30
0.0
 11
169.6690338850064
 21
-20.47357535218606
 31
0.0
  0
LINE
  5
A3
330
1F
100
AcDbEntity
  8
1
  6
Continuous
 62
     7
100
AcDbLine
 10
172.1690338850064
 20
-22.47357535218606
 30
0.0
 11
172.1690338850064
 21
-25.47357535218606
 31
0.0
  0
LINE
  5
A4
330
1F
100
AcDbEntity
  8
1
  6
DASHED
 62
     2
100
AcDbLine
 10
172.1690338850064
 20
-22.47357535218606
 30
0.0
 11
171.6690338850064
 21
-22.47357535218606
 31
0.0
  0
LINE
  5
A5
330
1F
100
AcDbEntity
  8
1
  6
Continuous
 62
     7
100
AcDbLine
 10
169.6690338850064
 20
-30.47357535218606
 30
0.0
 11
169.6690338850064
 21
-23.47357535218606
 31
0.0
  0
LINE
  5
A6
330
1F
100
AcDbEntity
  8
1
  6
DASHED
 62
     2
100
AcDbLine
 10
171.6690338850064
 20
-28.47357535218606
 30
0.0
 11
169.6690338850064
 21
-30.47357535218606
 31
0.0
  0
LINE
  5
A7
330
1F
100
AcDbEntity
  8
1
  6
Continuous
 62
     7
100
AcDbLine
 10
172.1690338850064
 20
-28.47357535218606
 30
0.0
 11
172.1690338850064
 21
-31.47357535218606
 31
0.0
  0
LINE
  5
A8
330
1F
100
AcDbEntity
  8
1
  6
DASHED
 62
     2
100
AcDbLine
 10
172.1690338850064
 20
-28.47357535218606
 30
0.0
 11
171.6690338850064
 21
-28.47357535218606
 31
0.0
  0
LINE
  5
A9
330
1F
100
AcDbEntity
  8
1
  6
DOT_CENTER
 62
     2
100
AcDbLine
 10
193.6690338850064
 20
-25.47357535218606
 30
0.0
 11
172.1690338850064
 21
-25.47357535218606
 31
0.0
  0
LINE
  5
AA
330
1F
100
AcDbEntity
  8
1
  6
Continuous
 62
     7
100
AcDbLine
 10
148.6690338850064
 20
-35.67357535218677
 30
0.0
 11
169.1690338850064
 21
-35.67357535218678
 31
0.0
  0
LINE
  5
AB
330
1F
100
AcDbEntity
  8
1
  6
Continuous
 62
     7
100
AcDbLine
 10
148.6690338850064
 20
-38.17357535218677
 30
0.0
 11
147.6317413565732
 21
-38.17357535218677
 31
0.0
  0
LINE
  5
AC
330
1F
100
AcDbEntity
  8
1
  6
DASHED
 62
     2
100
AcDbLine
 10
148.6690338850064
 20
-38.17357535218677
 30
0.0
 11
148.6690338850064
 21
-35.67357535218677
 31
0.0
  0
LINE
  5
AD
330
1F
100
AcDbEntity
  8
1
  6
Continuous
 62
     7
100
AcDbLine
 10
148.6690338850064
 20
-38.17357535218677
 30
0.0
 11
147.6317413565732
 21
-38.17357535218677
 31
0.0
  0
LINE
  5
AE
330
1F
100
AcDbEntity
  8
1
  6
Continuous
 62
     7
100
AcDbLine
 10
170.6690338850064
 20
-35.17357535218678
 30
0.0
 11
169.6690338850064
 21
-35.17357535218678
 31
0.0
  0
LINE
  5
AF
330
1F
100
AcDbEntity
  8
1
  6
Continuous
 62
     7
100
AcDbLine
 10
170.6690338850064
 20
-35.17357535218678
 30
0.0
 11
170.6690338850064
 21
-35.67357535218678
 31
0.0
  0
LINE
  5
B0
330
1F
100
AcDbEntity
  8
1
  6
Continuous
 62
     7
100
AcDbLine
 10
167.1690338850064
 20
-18.47357535218606
 30
0.0
 11
169.6690338850064
 21
-18.47357535218606
 31
0.0
  0
LINE
  5
B1
330
1F
100
AcDbEntity
  8
1
  6
Continuous
 62
     7
100
AcDbLine
 10
165.1261406661929
 20
-32.17357535218664
 30
0.0
 11
166.1690338850064
 21
-32.17357535218677
 31
0.0
  0
LINE
  5
B2
330
1F
100
AcDbEntity
  8
1
  6
Continuous
 62
     7
100
AcDbLine
 10
163.71192710382
 20
-32.17357535218647
 30
0.0
 11
165.1261406661929
 21
-32.17357535218664
 31
0.0
  0
LINE
  5
B3
330
1F
100
AcDbEntity
  8
1
  6
Continuous
 62
     7
100
AcDbLine
 10
161.6690338850064
 20
-32.17357535218622
 30
0.0
 11
163.71192710382
 21
-32.17357535218647
 31
0.0
  0
LINE
  5
B4
330
1F
100
AcDbEntity
  8
1
  6
Continuous
 62
     7
100
AcDbLine
 10
166.1690338850064
 20
-32.17357535218677
 30
0.0
 11
167.1690338850064
 21
-32.17357535218677
 31
0.0
  0
LINE
  5
B5
330
1F
100
AcDbEntity
  8
1
  6
Continuous
 62
     7
100
AcDbLine
 10
167.1690338850064
 20
-31.67357535218677
 30
0.0
 11
167.1690338850064
 21
-32.17357535218677
 31
0.0
  0
LINE
  5
B6
330
1F
100
AcDbEntity
  8
1
  6
Continuous
 62
     7
100
AcDbLine
 10
161.1690338850064
 20
-29.88900255958119
 30
0.0
 11
161.1690338850064
 21
-32.17357535218611
 31
0.0
  0
LINE
  5
B7
330
1F
100
AcDbEntity
  8
1
  6
Continuous
 62
     7
100
AcDbLine
 10
161.1690338850064
 20
-32.17357535218611
 30
0.0
 11
161.6690338850064
 21
-32.17357535218622
 31
0.0
  0
LINE
  5
B8
330
1F
100
AcDbEntity
  8
1
  6
Continuous
 62
     7
100
AcDbLine
 10
167.1690338850064
 20
-18.47357535218606
 30
0.0
 11
167.1690338850064
 21
-26.83058582204518
 31
0.0
  0
LINE
  5
B9
330
1F
100
AcDbEntity
  8
1
  6
Continuous
 62
     7
100
AcDbLine
 10
161.1690338850064
 20
-17.6735753521861
 30
0.0
 11
161.1690338850064
 21
-29.88900255958119
 31
0.0
  0
LINE
  5
BA
330
1F
100
AcDbEntity
  8
1
  6
Continuous
 62
     7
100
AcDbLine
 10
161.6690338850064
 20
-17.6735753521861
 30
0.0
 11
161.1690338850064
 21
-17.6735753521861
 31
0.0
  0
LINE
  5
BB
330
1F
100
AcDbEntity
  8
1
  6
Continuous
 62
     7
100
AcDbLine
 10
161.6690338850064
 20
-32.17357535218622
 30
0.0
 11
161.6690338850064
 21
-17.6735753521861
 31
0.0
  0
LINE
  5
BC
330
1F
100
AcDbEntity
  8
1
  6
Continuous
 62
     7
100
AcDbLine
 10
167.1690338850064
 20
-18.47357535218606
 30
0.0
 11
161.6690338850064
 21
-18.47357535218606
 31
0.0
  0
LINE
  5
BD
330
1F
100
AcDbEntity
  8
1
  6
Continuous
 62
     7
100
AcDbLine
 10
167.1690338850064
 20
-28.13357535218625
 30
0.0
 11
163.1690338850064
 21
-28.13357535218625
 31
0.0
  0
LINE
  5
BE
330
1F
100
AcDbEntity
  8
1
  6
Continuous
 62
     7
100
AcDbLine
 10
167.1690338850064
 20
-28.13357535218625
 30
0.0
 11
167.1690338850064
 21
-31.67357535218677
 31
0.0
  0
LINE
  5
BF
330
1F
100
AcDbEntity
  8
1
  6
Continuous
 62
     7
100
AcDbLine
 10
163.1690338850064
 20
-26.83058582204506
 30
0.0
 11
167.1690338850064
 21
-26.83058582204518
 31
0.0
  0
LINE
  5
C0
330
1F
100
AcDbEntity
  8
1
  6
Continuous
 62
     7
100
AcDbLine
 10
163.1690338850064
 20
-26.83058582204506
 30
0.0
 11
163.1690338850064
 21
-28.13357535218625
 31
0.0
  0
LINE
  5
C1
330
1F
100
AcDbEntity
  8
1
  6
Continuous
 62
     7
100
AcDbLine
 10
163.6690338850064
 20
-28.13357535218625
 30
0.0
 11
163.6690338850064
 21
-32.17357535218633
 31
0.0
  0
LINE
  5
C2
330
1F
100
AcDbEntity
  8
1
  6
Continuous
 62
     7
100
AcDbLine
 10
146.7745734076563
 20
-38.04851241364728
 30
0.0
 11
146.4726226814434
 21
-37.95848523074589
 31
0.0
  0
LINE
  5
C3
330
1F
100
AcDbEntity
  8
1
  6
Continuous
 62
     7
100
AcDbLine
 10
147.6317413565682
 20
-35.67357535218677
 30
0.0
 11
148.6690338850064
 21
-35.67357535218677
 31
0.0
  0
LINE
  5
C4
330
1F
100
AcDbEntity
  8
1
  6
Continuous
 62
     7
100
AcDbLine
 10
141.8190968235523
 20
-33.96227488969513
 30
0.0
 11
147.4888800317482
 21
-35.65273152909564
 31
0.0
  0
LINE
  5
C5
330
1F
100
AcDbEntity
  8
1
  6
Continuous
 62
     7
100
AcDbLine
 10
156.6690338850064
 20
-38.17357535218677
 30
0.0
 11
148.6690338850064
 21
-38.17357535218677
 31
0.0
  0
LINE
  5
C6
330
1F
100
AcDbEntity
  8
1
  6
Continuous
 62
     7
100
AcDbLine
 10
155.1940338850083
 20
-38.17357535218677
 30
0.0
 11
148.6690338850064
 21
-38.17357535218677
 31
0.0
  0
LINE
  5
C7
330
1F
100
AcDbEntity
  8
1
  6
Continuous
 62
     7
100
AcDbLine
 10
147.6317413565732
 20
-36.67357535218677
 30
0.0
 11
147.6317413565732
 21
-38.17357535218677
 31
0.0
  0
LINE
  5
C8
330
1F
100
AcDbEntity
  8
1
  6
Continuous
 62
     7
100
AcDbLine
 10
169.6690338850064
 20
-36.67357535218678
 30
0.0
 11
147.6317413565732
 21
-36.67357535218677
 31
0.0
  0
LINE
  5
C9
330
1F
100
AcDbEntity
  8
1
  6
Continuous
 62
     7
100
AcDbLine
 10
172.1690338850064
 20
-35.17357535218678
 30
0.0
 11
170.6690338850064
 21
-35.17357535218678
 31
0.0
  0
LINE
  5
CA
330
1F
100
AcDbEntity
  8
1
  6
Continuous
 62
     7
100
AcDbLine
 10
169.6690338850064
 20
-35.17357535218678
 30
0.0
 11
169.6690338850064
 21
-33.47357535218606
 31
0.0
  0
LINE
  5
CB
330
1F
100
AcDbEntity
  8
1
  6
Continuous
 62
     7
100
AcDbLine
 10
172.1690338850064
 20
-18.47357535218606
 30
0.0
 11
172.1690338850064
 21
-22.47357535218606
 31
0.0
  0
LINE
  5
CC
330
1F
100
AcDbEntity
  8
1
  6
Continuous
 62
     7
100
AcDbLine
 10
172.1690338850064
 20
-31.47357535218606
 30
0.0
 11
172.1690338850064
 21
-35.17357535218678
 31
0.0
  0
LINE
  5
CD
330
1F
100
AcDbEntity
  8
1
  6
DOT_CENTER
 62
     2
100
AcDbLine
 10
139.6690338850064
 20
-33.64857535218819
 30
0.0
 11
139.6690338850064
 21
-50.38277743880522
 31
0.0
  0
LINE
  5
CE
330
1F
100
AcDbEntity
  8
1
  6
DOT_CENTER
 62
     2
100
AcDbLine
 10
148.6603451404905
 20
-41.17357535218677
 30
0.0
 11
130.5187023955001
 21
-41.17357535218677
 31
0.0
  0
LINE
  5
CF
330
1F
100
AcDbEntity
  8
1
  6
Continuous
 62
     7
100
AcDbLine
 10
169.1690338850064
 20
-38.17357535218678
 30
0.0
 11
156.6690338850064
 21
-38.17357535218677
 31
0.0
  0
LINE
  5
D0
330
1F
100
AcDbEntity
  8
1
  6
Continuous
 62
     7
100
AcDbLine
 10
169.6690338850064
 20
-18.47357535218606
 30
0.0
 11
172.1690338850064
 21
-18.47357535218606
 31
0.0
  0
LINE
  5
D1
330
1F
100
AcDbEntity
  8
1
  6
Continuous
 62
     7
100
AcDbLine
 10
169.1690338850064
 20
-38.17357535218678
 30
0.0
 11
172.1690338850064
 21
-38.17357535218678
 31
0.0
  0
LINE
  5
D2
330
1F
100
AcDbEntity
  8
1
  6
Continuous
 62
     7
100
AcDbLine
 10
172.1690338850064
 20
-35.17357535218678
 30
0.0
 11
172.1690338850064
 21
-38.17357535218678
 31
0.0
  0
LINE
  5
D3
330
1F
100
AcDbEntity
  8
1
  6
Continuous
 62
     7
100
AcDbLine
 10
163.6690338850064
 20
-32.42357535218677
 30
0.0
 11
163.6690338850064
 21
-33.87357535218675
 31
0.0
  0
LINE
  5
D4
330
1F
100
AcDbEntity
  8
1
  6
Continuous
 62
     7
100
AcDbLine
 10
169.4190338850064
 20
-34.17357535218676
 30
0.0
 11
169.4190338850064
 21
-31.67357535218677
 31
0.0
  0
LINE
  5
D5
330
1F
100
AcDbEntity
  8
1
  6
DOT_CENTER
 62
     2
100
AcDbLine
 10
209.4190338850064
 20
-5.67357535218675
 30
0.0
 11
209.4190338850064
 21
-3.76012211843168
 31
0.0
  0
LINE
  5
D6
330
1F
100
AcDbEntity
  8
1
  6
Continuous
 62
     7
100
AcDbLine
 10
209.4190338850064
 20
-50.67357535218675
 30
0.0
 11
148.6690338850064
 21
-50.67357535218675
 31
0.0
  0
LINE
  5
D7
330
1F
100
AcDbEntity
  8
1
  6
Continuous
 62
     7
100
AcDbLine
 10
152.6690338850064
 20
-32.67357535218676
 30
0.0
 11
158.0499271209707
 21
-32.67357535218676
 31
0.0
  0
LINE
  5
D8
330
1F
100
AcDbEntity
  8
1
  6
Continuous
 62
     7
100
AcDbLine
 10
152.6690338850064
 20
-34.17357535218676
 30
0.0
 11
159.6190338850064
 21
-34.17357535218676
 31
0.0
  0
LINE
  5
D9
330
1F
100
AcDbEntity
  8
1
  6
Continuous
 62
     7
100
AcDbLine
 10
148.6690338850064
 20
-50.67357535218675
 30
0.0
 11
148.6690338850064
 21
-38.17357535218677
 31
0.0
  0
LINE
  5
DA
330
1F
100
AcDbEntity
  8
1
  6
Continuous
 62
     7
100
AcDbLine
 10
161.6690338850064
 20
-5.67357535218675
 30
0.0
 11
209.4190338850064
 21
-5.67357535218675
 31
0.0
  0
LINE
  5
DB
330
1F
100
AcDbEntity
  8
1
  6
Continuous
 62
     7
100
AcDbLine
 10
161.6690338850064
 20
-17.6735753521861
 30
0.0
 11
161.6690338850064
 21
-5.67357535218675
 31
0.0
  0
LINE
  5
DC
330
1F
100
AcDbEntity
  8
1
  6
DOT_CENTER
 62
     2
100
AcDbLine
 10
209.4190338850064
 20
-50.67357535218675
 30
0.0
 11
209.4190338850064
 21
-5.67357535218675
 31
0.0
  0
LINE
  5
DD
330
1F
100
AcDbEntity
  8
1
  6
Continuous
 62
     7
100
AcDbLine
 10
167.1690338850064
 20
-32.17357535218677
 30
0.0
 11
167.1690338850064
 21
-33.87357535218675
 31
0.0
  0
LINE
  5
DE
330
1F
100
AcDbEntity
  8
1
  6
Continuous
 62
     7
100
AcDbLine
 10
166.1690338850064
 20
-32.17357535218677
 30
0.0
 11
166.1690338850064
 21
-33.87357535218675
 31
0.0
  0
LINE
  5
DF
330
1F
100
AcDbEntity
  8
1
  6
Continuous
 62
     7
100
AcDbLine
 10
169.4190338850064
 20
-35.17357535218676
 30
0.0
 11
169.4190338850064
 21
-32.42357535218676
 31
0.0
  0
LINE
  5
E0
330
1F
100
AcDbEntity
  8
1
  6
Continuous
 62
     7
100
AcDbLine
 10
167.1690338850064
 20
-31.67357535218677
 30
0.0
 11
169.4190338850064
 21
-31.67357535218677
 31
0.0
  0
LINE
  5
E1
330
1F
100
AcDbEntity
  8
1
  6
DOT_CENTER
 62
     2
100
AcDbLine
 10
209.4190338850064
 20
-50.67357535218675
 30
0.0
 11
209.4190338850064
 21
-53.67357535218675
 31
0.0
  0
LINE
  5
E2
330
1F
100
AcDbEntity
  8
1
  6
Continuous
 62
     7
100
AcDbLine
 10
159.9190338850064
 20
-33.87357535218675
 30
0.0
 11
159.9190338850064
 21
-30.59610934076773
 31
0.0
  0
LINE
  5
E3
330
1F
100
AcDbEntity
  8
1
  6
Continuous
 62
     7
100
AcDbLine
 10
161.6690338850064
 20
-32.17357535218622
 30
0.0
 11
161.6690338850064
 21
-33.87357535218675
 31
0.0
  0
LINE
  5
E4
330
1F
100
AcDbEntity
  8
1
  6
Continuous
 62
     7
100
AcDbLine
 10
163.3690338850064
 20
-34.17357535218676
 30
0.0
 11
161.9690338850064
 21
-34.17357535218676
 31
0.0
  0
LINE
  5
E5
330
1F
100
AcDbEntity
  8
1
  6
Continuous
 62
     7
100
AcDbLine
 10
167.9190338850064
 20
-32.42357535218677
 30
0.0
 11
167.9190338850064
 21
-33.87357535218675
 31
0.0
  0
LINE
  5
E6
330
1F
100
AcDbEntity
  8
1
  6
Continuous
 62
     7
100
AcDbLine
 10
169.4190338850064
 20
-35.17357535218676
 30
0.0
 11
169.4190338850064
 21
-34.17357535218676
 31
0.0
  0
LINE
  5
E7
330
1F
100
AcDbEntity
  8
1
  6
Continuous
 62
     7
100
AcDbLine
 10
167.6190338850064
 20
-34.17357535218676
 30
0.0
 11
167.4690338850064
 21
-34.17357535218676
 31
0.0
  0
LINE
  5
E8
330
1F
100
AcDbEntity
  8
1
  6
Continuous
 62
     7
100
AcDbLine
 10
165.8690338850064
 20
-34.17357535218676
 30
0.0
 11
165.4690338850064
 21
-34.17357535218676
 31
0.0
  0
LINE
  5
E9
330
1F
100
AcDbEntity
  8
1
  6
Continuous
 62
     7
100
AcDbLine
 10
165.1690338850064
 20
-32.42357535218677
 30
0.0
 11
165.1690338850064
 21
-33.87357535218675
 31
0.0
  0
LINE
  5
EA
330
1F
100
AcDbEntity
  8
1
  6
DASHED
 62
     2
100
AcDbLine
 10
142.6690338850066
 20
1.82642464781323
 30
0.0
 11
142.6690338850066
 21
15.5335314289998
 31
0.0
  0
LINE
  5
EB
330
1F
100
AcDbEntity
  8
1
  6
Continuous
 62
     2
100
AcDbLine
 10
142.6690338850066
 20
-0.67357535218677
 30
0.0
 11
142.6690338850066
 21
1.82642464781323
 31
0.0
  0
ARC
  5
EC
330
1F
100
AcDbEntity
  8
1
  6
Continuous
 62
     7
100
AcDbCircle
 10
164.4190338850064
 20
-32.42357535218677
 30
0.0
 40
0.75
100
AcDbArc
 50
0.0
 51
19.47122063450121
  0
ARC
  5
ED
330
1F
100
AcDbEntity
  8
1
  6
Continuous
 62
     7
100
AcDbCircle
 10
167.9190338850064
 20
-34.17357535218676
 30
0.0
 40
1.5
100
AcDbArc
 50
-90.0
 51
0.0
  0
ARC
  5
EE
330
1F
100
AcDbEntity
  8
1
  6
Continuous
 62
     7
100
AcDbCircle
 10
158.0499271209707
 20
-31.92357535218676
 30
0.0
 40
0.75
100
AcDbArc
 50
-90.0
 51
90.0
  0
ARC
  5
EF
330
1F
100
AcDbEntity
  8
1
  6
Continuous
 62
     7
100
AcDbCircle
 10
152.6690338850064
 20
-33.42357535218676
 30
0.0
 40
2.25
100
AcDbArc
 50
90.0
 51
-90.0
  0
ARC
  5
F0
330
1F
100
AcDbEntity
  8
1
  6
Continuous
 62
     7
100
AcDbCircle
 10
152.6690338850064
 20
-33.42357535218676
 30
0.0
 40
0.75
100
AcDbArc
 50
90.0
 51
-90.0
  0
ARC
  5
F1
330
1F
100
AcDbEntity
  8
1
  6
Continuous
 62
     7
100
AcDbCircle
 10
160.7940338850064
 20
-30.68449768841604
 30
0.0
 40
0.8794529549668796
100
AcDbArc
 50
64.76059817932068
 51
174.2318188138122
  0
ARC
  5
F2
330
1F
100
AcDbEntity
  8
1
  6
Continuous
 62
     7
100
AcDbCircle
 10
168.6690338850064
 20
-32.42357535218677
 30
0.0
 40
0.75
100
AcDbArc
 50
0.00000000000054
 51
180.0
  0
ARC
  5
F3
330
1F
100
AcDbEntity
  8
1
  6
Continuous
 62
     7
100
AcDbCircle
 10
164.4190338850064
 20
-32.42357535218677
 30
0.0
 40
0.7499999999999708
100
AcDbArc
 50
160.5287793654844
 51
180.0
  0
CIRCLE
  5
F4
330
1F
100
AcDbEntity
  8
1
  6
Continuous
 62
     7
100
AcDbCircle
 10
139.6690338850141
 20
-41.17357535217586
 30
0.0
 40
7.524999999987699
  0
ARC
  5
F5
330
1F
100
AcDbEntity
  8
1
  6
Continuous
 62
     7
100
AcDbCircle
 10
169.6690338850064
 20
-35.67357535218678
 30
0.0
 40
1.0
100
AcDbArc
 50
-90.0
 51
0.0
  0
ARC
  5
F6
330
1F
100
AcDbEntity
  8
1
  6
Continuous
 62
     7
100
AcDbCircle
 10
147.6317413565732
 20
-35.17357535218677
 30
0.0
 40
3.000000000001602
100
AcDbArc
 50
-106.6020496624392
 51
-90.0
  0
ARC
  5
F7
330
1F
100
AcDbEntity
  8
1
  6
Continuous
 62
     7
100
AcDbCircle
 10
147.6317413565682
 20
-35.17357535218677
 30
0.0
 40
0.4999999999992498
100
AcDbArc
 50
-106.6020496625345
 51
-90.0
  0
ARC
  5
F8
330
1F
100
AcDbEntity
  8
1
  6
Continuous
 62
     7
100
AcDbCircle
 10
169.1690338850064
 20
-35.17357535218678
 30
0.0
 40
3.0
100
AcDbArc
 50
-90.0
 51
0.0
  0
ARC
  5
F9
330
1F
100
AcDbEntity
  8
1
  6
Continuous
 62
     7
100
AcDbCircle
 10
169.1690338850064
 20
-35.17357535218678
 30
0.0
 40
0.5
100
AcDbArc
 50
-90.0
 51
0.0
  0
ARC
  5
FA
330
1F
100
AcDbEntity
  8
1
  6
Continuous
 62
     7
100
AcDbCircle
 10
167.4690338850064
 20
-33.87357535218675
 30
0.0
 40
0.3000000000000114
100
AcDbArc
 50
180.0
 51
-90.0
  0
ARC
  5
FB
330
1F
100
AcDbEntity
  8
1
  6
Continuous
 62
     7
100
AcDbCircle
 10
165.8690338850064
 20
-33.87357535218675
 30
0.0
 40
0.3000000000000114
100
AcDbArc
 50
-90.0
 51
0.0
  0
ARC
  5
FC
330
1F
100
AcDbEntity
  8
1
  6
Continuous
 62
     7
100
AcDbCircle
 10
168.9190338850064
 20
-35.17357535218676
 30
0.0
 40
0.5
100
AcDbArc
 50
-90.0
 51
0.0
  0
ARC
  5
FD
330
1F
100
AcDbEntity
  8
1
  6
Continuous
 62
     7
100
AcDbCircle
 10
159.6190338850064
 20
-33.87357535218675
 30
0.0
 40
0.3000000000000114
100
AcDbArc
 50
-90.0
 51
0.0
  0
ARC
  5
FE
330
1F
100
AcDbEntity
  8
1
  6
Continuous
 62
     7
100
AcDbCircle
 10
161.9690338850064
 20
-33.87357535218675
 30
0.0
 40
0.3000000000000114
100
AcDbArc
 50
180.0
 51
-90.0
  0
ARC
  5
FF
330
1F
100
AcDbEntity
  8
1
  6
Continuous
 62
     7
100
AcDbCircle
 10
163.3690338850064
 20
-33.87357535218675
 30
0.0
 40
0.3000000000000114
100
AcDbArc
 50
-90.0
 51
0.0
  0
ARC
  5
100
330
1F
100
AcDbEntity
  8
1
  6
Continuous
 62
     7
100
AcDbCircle
 10
165.4690338850064
 20
-33.87357535218675
 30
0.0
 40
0.3000000000000114
100
AcDbArc
 50
180.0
 51
-90.0
  0
ARC
  5
101
330
1F
100
AcDbEntity
  8
1
  6
Continuous
 62
     7
100
AcDbCircle
 10
167.6190338850064
 20
-33.87357535218675
 30
0.0
 40
0.3000000000000114
100
AcDbArc
 50
-90.0
 51
0.0
  0
DIMENSION
  5
10D
330
1F
100
AcDbEntity
  8
1
100
AcDbDimension
  2
*D1
 10
139.6690338850065
 20
-81.373013386761
 30
0.0
 11
151.3462814461655
 21
-77.623013386761
 31
0.0
 70
    32
  1
<>
 71
     5
 42
-1.0
 53
0.00013888888889
  3
ME10_DIM_10
100
AcDbAlignedDimension
 13
161.6690338850064
 23
-32.17357535218622
 33
0.0
 14
139.6690338850064
 24
-50.38277743880522
 34
0.0
100
AcDbRotatedDimension
  0
DIMENSION
  5
118
330
1F
100
AcDbEntity
  8
1
100
AcDbDimension
  2
*D2
 10
219.2257842959098
 20
-38.17357535218679
 30
0.0
 11
215.4757842959098
 21
-29.08574979273608
 31
0.0
 70
    32
  1
20
 71
     5
 42
-1.0
 53
90.0
  3
ME10_DIM_11
100
AcDbAlignedDimension
 13
172.1690338850064
 23
-18.47357535218606
 33
0.0
 14
172.1690338850064
 24
-38.17357535218678
 34
0.0
 50
90.0
100
AcDbRotatedDimension
  0
DIMENSION
  5
123
330
1F
100
AcDbEntity
  8
1
100
AcDbDimension
  2
*D3
 10
139.6690338850065
 20
56.9171280891606
 30
0.0
 11
148.810506629532
 21
60.6671280891606
 31
0.0
 70
    32
  1
<>
 71
     5
 42
-1.0
 53
0.00013888888889
  3
ME10_DIM_12
100
AcDbAlignedDimension
 13
158.1690338850064
 23
-16.17357535218672
 33
0.0
 14
139.6690338850065
 24
44.30320454210566
 34
0.0
100
AcDbRotatedDimension
  0
DIMENSION
  5
12F
330
1F
100
AcDbEntity
  8
1
100
AcDbDimension
  2
*D4
 10
148.6690338850064
 20
-70.6602817920311
 30
0.0
 11
154.007459242857
 21
-66.9102817920311
 31
0.0
 70
    32
  1
<>
 71
     5
 42
-1.0
 53
0.00013888888889
  3
ME10_DIM_13
100
AcDbAlignedDimension
 13
161.6690338850064
 23
-32.17357535218622
 33
0.0
 14
148.6690338850064
 24
-50.67357535218675
 34
0.0
100
AcDbRotatedDimension
  0
DIMENSION
  5
13B
330
1F
100
AcDbEntity
  8
1
100
AcDbDimension
  2
*D5
 10
161.6690338850064
 20
-81.4155559145449
 30
0.0
 11
178.810369026541
 21
-77.6655559145449
 31
0.0
 70
    32
  1
<>
 71
     5
 42
-1.0
 53
0.00013888888889
  3
ME10_DIM_14
100
AcDbAlignedDimension
 13
172.1690338850064
 23
-35.17357535218678
 33
0.0
 14
161.6690338850064
 24
-32.17357535218622
 34
0.0
100
AcDbRotatedDimension
  0
DIMENSION
  5
148
330
1F
100
AcDbEntity
  8
1
100
AcDbDimension
  2
*D6
 10
169.6690338850064
 20
-70.8046223552797
 30
0.0
 11
178.847931830727
 21
-67.0546223552797
 31
0.0
 70
    32
  1
<>
 71
     5
 42
-1.0
 53
0.00013888888889
  3
ME10_DIM_15
100
AcDbAlignedDimension
 13
172.1690338850064
 23
-31.47357535218606
 33
0.0
 14
169.6690338850064
 24
-30.47357535218606
 34
0.0
100
AcDbRotatedDimension
  0
DIMENSION
  5
155
330
1F
100
AcDbEntity
  8
1
100
AcDbDimension
  2
*D7
 10
158.1690338850064
 20
-60.44553885039404
 30
0.0
 11
152.7694895807999
 21
-56.69553885039404
 31
0.0
 70
    32
  1
<>
 71
     5
 42
-1.0
 53
0.00013888888889
  3
ME10_DIM_16
100
AcDbAlignedDimension
 13
161.6690338850064
 23
-33.87357535218675
 33
0.0
 14
158.1690338850064
 24
-31.17357535218676
 34
0.0
100
AcDbRotatedDimension
  0
ENDSEC
  0
SECTION
  2
OBJECTS
  0
DICTIONARY
  5
C
330
0
100
AcDbDictionary
281
     1
  3
ACAD_GROUP
350
D
  3
ACAD_LAYOUT
350
1A
  3
ACAD_MLINESTYLE
350
17
  3
ACAD_PLOTSETTINGS
350
19
  3
ACAD_PLOTSTYLENAME
350
E
  0
DICTIONARY
  5
D
102
{ACAD_REACTORS
330
C
102
}
330
C
100
AcDbDictionary
281
     1
  0
DICTIONARY
  5
1A
102
{ACAD_REACTORS
330
C
102
}
330
C
100
AcDbDictionary
281
     1
  3
Layout1
350
1E
  3
Layout2
350
26
  3
Model
350
22
  0
DICTIONARY
  5
17
102
{ACAD_REACTORS
330
C
102
}
330
C
100
AcDbDictionary
281
     1
  3
Standard
350
18
  0
DICTIONARY
  5
19
102
{ACAD_REACTORS
330
C
102
}
330
C
100
AcDbDictionary
281
     1
  0
ACDBDICTIONARYWDFLT
  5
E
102
{ACAD_REACTORS
330
C
102
}
330
C
100
AcDbDictionary
281
     1
  3
Normal
350
F
100
AcDbDictionaryWithDefault
340
F
  0
LAYOUT
  5
1E
102
{ACAD_REACTORS
330
1A
102
}
330
1A
100
AcDbPlotSettings
  1

  2

  4

  6

 40
0.0
 41
0.0
 42
0.0
 43
0.0
 44
0.0
 45
0.0
 46
0.0
 47
0.0
 48
0.0
 49
0.0
140
0.0
141
0.0
142
1.0
143
1.0
 70
   688
 72
     0
 73
     0
 74
     5
  7

 75
    16
 76
     0
 77
     2
 78
   300
147
1.0
148
0.0
149
0.0
100
AcDbLayout
  1
Layout1
 70
     1
 71
     1
 10
0.0
 20
0.0
 11
0.0
 21
0.0
 12
0.0
 22
0.0
 32
0.0
 14
0.0
 24
0.0
 34
0.0
 15
0.0
 25
0.0
 35
0.0
146
0.0
 13
0.0
 23
0.0
 33
0.0
 16
1.0
 26
0.0
 36
0.0
 17
0.0
 27
1.0
 37
0.0
 76
     0
330
1B
  0
LAYOUT
  5
26
102
{ACAD_REACTORS
330
1A
102
}
330
1A
100
AcDbPlotSettings
  1

  2

  4

  6

 40
0.0
 41
0.0
 42
0.0
 43
0.0
 44
0.0
 45
0.0
 46
0.0
 47
0.0
 48
0.0
 49
0.0
140
0.0
141
0.0
142
1.0
143
1.0
 70
   688
 72
     0
 73
     0
 74
     5
  7

 75
    16
 76
     0
 77
     2
 78
   300
147
1.0
148
0.0
149
0.0
100
AcDbLayout
  1
Layout2
 70
     1
 71
     2
 10
0.0
 20
0.0
 11
0.0
 21
0.0
 12
0.0
 22
0.0
 32
0.0
 14
0.0
 24
0.0
 34
0.0
 15
0.0
 25
0.0
 35
0.0
146
0.0
 13
0.0
 23
0.0
 33
0.0
 16
1.0
 26
0.0
 36
0.0
 17
0.0
 27
1.0
 37
0.0
 76
     0
330
23
  0
LAYOUT
  5
22
102
{ACAD_REACTORS
330
1A
102
}
330
1A
100
AcDbPlotSettings
  1

  2

  4

  6

 40
0.0
 41
0.0
 42
0.0
 43
0.0
 44
0.0
 45
0.0
 46
0.0
 47
0.0
 48
0.0
 49
0.0
140
0.0
141
0.0
142
1.0
143
1.0
 70
  1712
 72
     0
 73
     0
 74
     0
  7

 75
     0
 76
     0
 77
     2
 78
   300
147
1.0
148
0.0
149
0.0
100
AcDbLayout
  1
Model
 70
     1
 71
     0
 10
0.0
 20
0.0
 11
0.0
 21
0.0
 12
0.0
 22
0.0
 32
0.0
 14
109.1690338850065
 24
-83.4155559145449
 34
0.0
 15
221.2257842959098
 25
62.4171280891606
 35
0.0
146
0.0
 13
0.0
 23
0.0
 33
0.0
 16
1.0
 26
0.0
 36
0.0
 17
0.0
 27
1.0
 37
0.0
 76
     0
330
1F
  0
MLINESTYLE
  5
18
102
{ACAD_REACTORS
330
17
102
}
330
17
100
AcDbMlineStyle
  2
Standard
 70
     0
  3

 62
   256
 51
90.0
 52
90.0
 71
     2
 49
0.5
 62
   256
  6
BYLAYER
 49
-0.5
 62
   256
  6
BYLAYER
  0
ACDBPLACEHOLDER
  5
F
102
{ACAD_REACTORS
330
E
102
}
330
E
  0
ENDSEC
  0
EOF
