  0
SECTION
  2
HEADER
  9
$ACADVER
  1
AC1018
  9
$ACADMAINTVER
 70
     0
  9
$DWGCODEPAGE
  3
ANSI_1252
  9
$INSBASE
 10
0.0
 20
0.0
 30
0.0
  9
$EXTMIN
 10
-68.08118109832671
 20
-124.648659610564
 30
0.0
  9
$EXTMAX
 10
45.06004135676099
 20
97.723539967709
 30
0.0
  9
$LIMMIN
 10
0.0
 20
0.0
  9
$LIMMAX
 10
12.0
 20
9.0
  9
$ORTHOMODE
 70
     0
  9
$REGENMODE
 70
     1
  9
$FILLMODE
 70
     1
  9
$QTEXTMODE
 70
     0
  9
$MIRRTEXT
 70
     1
  9
$LTSCALE
 40
1.0
  9
$ATTMODE
 70
     1
  9
$TEXTSIZE
 40
0.2
  9
$TRACEWID
 40
0.05
  9
$TEXTSTYLE
  7
Standard
  9
$CLAYER
  8
0
  9
$CELTYPE
  6
ByLayer
  9
$CECOLOR
 62
   256
  9
$CELTSCALE
 40
1.0
  9
$DISPSILH
 70
     0
  9
$DIMSCALE
 40
1.0
  9
$DIMASZ
 40
0.18
  9
$DIMEXO
 40
0.0625
  9
$DIMDLI
 40
0.38
  9
$DIMRND
 40
0.0
  9
$DIMDLE
 40
0.0
  9
$DIMEXE
 40
0.18
  9
$DIMTP
 40
0.0
  9
$DIMTM
 40
0.0
  9
$DIMTXT
 40
0.18
  9
$DIMCEN
 40
0.09
  9
$DIMTSZ
 40
0.0
  9
$DIMTOL
 70
     0
  9
$DIMLIM
 70
     0
  9
$DIMTIH
 70
     1
  9
$DIMTOH
 70
     1
  9
$DIMSE1
 70
     0
  9
$DIMSE2
 70
     0
  9
$DIMTAD
 70
     0
  9
$DIMZIN
 70
     0
  9
$DIMBLK
  1

  9
$DIMASO
 70
     1
  9
$DIMSHO
 70
     1
  9
$DIMPOST
  1

  9
$DIMAPOST
  1

  9
$DIMALT
 70
     0
  9
$DIMALTD
 70
     2
  9
$DIMALTF
 40
25.4
  9
$DIMLFAC
 40
1.0
  9
$DIMTOFL
 70
     0
  9
$DIMTVP
 40
0.0
  9
$DIMTIX
 70
     0
  9
$DIMSOXD
 70
     0
  9
$DIMSAH
 70
     0
  9
$DIMBLK1
  1

  9
$DIMBLK2
  1

  9
$DIMSTYLE
  2
Standard
  9
$DIMCLRD
 70
     0
  9
$DIMCLRE
 70
     0
  9
$DIMCLRT
 70
     0
  9
$DIMTFAC
 40
1.0
  9
$DIMGAP
 40
0.09
  9
$DIMJUST
 70
     0
  9
$DIMSD1
 70
     0
  9
$DIMSD2
 70
     0
  9
$DIMTOLJ
 70
     1
  9
$DIMTZIN
 70
     0
  9
$DIMALTZ
 70
     0
  9
$DIMALTTZ
 70
     0
  9
$DIMUPT
 70
     0
  9
$DIMDEC
 70
     4
  9
$DIMTDEC
 70
     4
  9
$DIMALTU
 70
     2
  9
$DIMALTTD
 70
     2
  9
$DIMTXSTY
  7
Standard
  9
$DIMAUNIT
 70
     0
  9
$DIMADEC
 70
     0
  9
$DIMALTRND
 40
0.0
  9
$DIMAZIN
 70
     0
  9
$DIMDSEP
 70
    46
  9
$DIMATFIT
 70
     3
  9
$DIMFRAC
 70
     0
  9
$DIMLDRBLK
  1

  9
$DIMLUNIT
 70
     2
  9
$DIMLWD
 70
    -2
  9
$DIMLWE
 70
    -2
  9
$DIMTMOVE
 70
     0
  9
$LUNITS
 70
     2
  9
$LUPREC
 70
     4
  9
$SKETCHINC
 40
0.1
  9
$FILLETRAD
 40
0.5
  9
$AUNITS
 70
     0
  9
$AUPREC
 70
     0
  9
$MENU
  1
.
  9
$ELEVATION
 40
0.0
  9
$PELEVATION
 40
0.0
  9
$THICKNESS
 40
0.0
  9
$LIMCHECK
 70
     0
  9
$CHAMFERA
 40
0.5
  9
$CHAMFERB
 40
0.5
  9
$CHAMFERC
 40
1.0
  9
$CHAMFERD
 40
0.0
  9
$SKPOLY
 70
     0
  9
$TDCREATE
 40
2454726.382278461
  9
$TDUCREATE
 40
2454726.298945128
  9
$TDUPDATE
 40
2454726.382278472
  9
$TDUUPDATE
 40
2454726.298945139
  9
$TDINDWG
 40
0.0000000116
  9
$TDUSRTIMER
 40
0.0000000116
  9
$USRTIMER
 70
     1
  9
$ANGBASE
 50
0.0
  9
$ANGDIR
 70
     0
  9
$PDMODE
 70
     0
  9
$PDSIZE
 40
0.0
  9
$PLINEWID
 40
0.0
  9
$SPLFRAME
 70
     0
  9
$SPLINETYPE
 70
     6
  9
$SPLINESEGS
 70
     8
  9
$HANDSEED
  5
D1
  9
$SURFTAB1
 70
     6
  9
$SURFTAB2
 70
     6
  9
$SURFTYPE
 70
     6
  9
$SURFU
 70
     6
  9
$SURFV
 70
     6
  9
$UCSBASE
  2

  9
$UCSNAME
  2

  9
$UCSORG
 10
0.0
 20
0.0
 30
0.0
  9
$UCSXDIR
 10
1.0
 20
0.0
 30
0.0
  9
$UCSYDIR
 10
0.0
 20
1.0
 30
0.0
  9
$UCSORTHOREF
  2

  9
$UCSORTHOVIEW
 70
     0
  9
$UCSORGTOP
 10
0.0
 20
0.0
 30
0.0
  9
$UCSORGBOTTOM
 10
0.0
 20
0.0
 30
0.0
  9
$UCSORGLEFT
 10
0.0
 20
0.0
 30
0.0
  9
$UCSORGRIGHT
 10
0.0
 20
0.0
 30
0.0
  9
$UCSORGFRONT
 10
0.0
 20
0.0
 30
0.0
  9
$UCSORGBACK
 10
0.0
 20
0.0
 30
0.0
  9
$PUCSBASE
  2

  9
$PUCSNAME
  2

  9
$PUCSORG
 10
0.0
 20
0.0
 30
0.0
  9
$PUCSXDIR
 10
1.0
 20
0.0
 30
0.0
  9
$PUCSYDIR
 10
0.0
 20
1.0
 30
0.0
  9
$PUCSORTHOREF
  2

  9
$PUCSORTHOVIEW
 70
     0
  9
$PUCSORGTOP
 10
0.0
 20
0.0
 30
0.0
  9
$PUCSORGBOTTOM
 10
0.0
 20
0.0
 30
0.0
  9
$PUCSORGLEFT
 10
0.0
 20
0.0
 30
0.0
  9
$PUCSORGRIGHT
 10
0.0
 20
0.0
 30
0.0
  9
$PUCSORGFRONT
 10
0.0
 20
0.0
 30
0.0
  9
$PUCSORGBACK
 10
0.0
 20
0.0
 30
0.0
  9
$USERI1
 70
     0
  9
$USERI2
 70
     0
  9
$USERI3
 70
     0
  9
$USERI4
 70
     0
  9
$USERI5
 70
     0
  9
$USERR1
 40
14.5
  9
$USERR2
 40
0.0
  9
$USERR3
 40
0.0
  9
$USERR4
 40
0.0
  9
$USERR5
 40
0.0
  9
$WORLDVIEW
 70
     1
  9
$SHADEDGE
 70
     3
  9
$SHADEDIF
 70
    70
  9
$TILEMODE
 70
     1
  9
$MAXACTVP
 70
    64
  9
$PINSBASE
 10
0.0
 20
0.0
 30
0.0
  9
$PLIMCHECK
 70
     0
  9
$PEXTMIN
 10
1.00000000000000E+20
 20
1.00000000000000E+20
 30
1.00000000000000E+20
  9
$PEXTMAX
 10
-1.00000000000000E+20
 20
-1.00000000000000E+20
 30
-1.00000000000000E+20
  9
$PLIMMIN
 10
0.0
 20
0.0
  9
$PLIMMAX
 10
12.0
 20
9.0
  9
$UNITMODE
 70
     0
  9
$VISRETAIN
 70
     1
  9
$PLINEGEN
 70
     0
  9
$PSLTSCALE
 70
     1
  9
$TREEDEPTH
 70
  3020
  9
$CMLSTYLE
  2
Standard
  9
$CMLJUST
 70
     0
  9
$CMLSCALE
 40
1.0
  9
$PROXYGRAPHICS
 70
     1
  9
$MEASUREMENT
 70
     1
  9
$CELWEIGHT
370
    -1
  9
$ENDCAPS
280
     0
  9
$JOINSTYLE
280
     0
  9
$LWDISPLAY
290
     0
  9
$INSUNITS
 70
     1
  9
$HYPERLINKBASE
  1

  9
$STYLESHEET
  1

  9
$XEDIT
290
     1
  9
$CEPSNTYPE
380
     0
  9
$PSTYLEMODE
290
     1
  9
$FINGERPRINTGUID
  2
{93FBA00A-6778-450F-B516-55975F6474BD}
  9
$VERSIONGUID
  2
{FAEB1C32-E019-11D5-929B-00C0DF256EC4}
  9
$EXTNAMES
290
     1
  9
$PSVPSCALE
 40
0.0
  9
$OLESTARTUP
290
     0
  9
$SORTENTS
280
   127
  9
$INDEXCTL
280
     0
  9
$HIDETEXT
280
     1
  9
$XCLIPFRAME
290
     0
  9
$HALOGAP
280
     0
  9
$OBSCOLOR
 70
   257
  9
$OBSLTYPE
280
     0
  9
$INTERSECTIONDISPLAY
280
     0
  9
$INTERSECTIONCOLOR
 70
   257
  9
$DIMASSOC
280
     2
  9
$PROJECTNAME
  1

  0
ENDSEC
  0
SECTION
  2
CLASSES
  0
CLASS
  1
ACDBDICTIONARYWDFLT
  2
AcDbDictionaryWithDefault
  3
ObjectDBX Classes
 90
        0
 91
        3
280
     0
281
     0
  0
CLASS
  1

  2
exOdDbCircle
  3

 90
        0
 91
        3
280
     0
281
     1
  0
ENDSEC
  0
SECTION
  2
TABLES
  0
TABLE
  2
VPORT
  5
8
330
0
100
AcDbSymbolTable
 70
     1
  0
VPORT
  5
29
330
8
100
AcDbSymbolTableRecord
100
AcDbViewportTableRecord
  2
*Active
 70
     0
 10
0.0
 20
0.0
 11
1.0
 21
1.0
 12
-11.51056987078286
 22
-13.4625598214275
 13
0.0
 23
0.0
 14
0.5
 24
0.5
 15
0.5
 25
0.5
 16
0.0
 26
0.0
 36
1.0
 17
0.0
 27
0.0
 37
0.0
 40
244.6094195361003
 41
1.60267857142857
 42
50.0
 43
0.0
 44
0.0
 50
0.0
 51
0.0
 71
     0
 72
   100
 73
     1
 74
     3
 75
     0
 76
     0
 77
     0
 78
     0
281
     0
 65
     1
110
0.0
120
0.0
130
0.0
111
1.0
121
0.0
131
0.0
112
0.0
122
1.0
132
0.0
 79
     0
146
0.0
  0
ENDTAB
  0
TABLE
  2
LTYPE
  5
5
330
0
100
AcDbSymbolTable
 70
     8
  0
LTYPE
  5
14
330
5
100
AcDbSymbolTableRecord
100
AcDbLinetypeTableRecord
  2
ByBlock
 70
     0
  3

 72
    65
 73
     0
 40
0.0
  0
LTYPE
  5
15
330
5
100
AcDbSymbolTableRecord
100
AcDbLinetypeTableRecord
  2
ByLayer
 70
     0
  3

 72
    65
 73
     0
 40
0.0
  0
LTYPE
  5
16
330
5
100
AcDbSymbolTableRecord
100
AcDbLinetypeTableRecord
  2
Continuous
 70
     0
  3
Solid line
 72
    65
 73
     0
 40
0.0
  0
LTYPE
  5
2A
330
5
100
AcDbSymbolTableRecord
100
AcDbLinetypeTableRecord
  2
DASHED
 70
     0
  3
Dashed
 72
    65
 73
     2
 40
15.0
 49
7.0
 74
     0
 49
-8.0
 74
     0
  0
LTYPE
  5
2B
330
5
100
AcDbSymbolTableRecord
100
AcDbLinetypeTableRecord
  2
DOTTED
 70
     0
  3
Dotted
 72
    65
 73
     2
 40
1.0
 49
0.0
 74
     0
 49
-1.0
 74
     0
  0
LTYPE
  5
2C
330
5
100
AcDbSymbolTableRecord
100
AcDbLinetypeTableRecord
  2
DOT_CENTER
 70
     0
  3
Dot_Center
 72
    65
 73
     4
 40
14.0
 49
12.0
 74
     0
 49
-1.0
 74
     0
 49
0.0
 74
     0
 49
-1.0
 74
     0
  0
LTYPE
  5
2D
330
5
100
AcDbSymbolTableRecord
100
AcDbLinetypeTableRecord
  2
LONG_DASHED
 70
     0
  3
Long_Dashed
 72
    65
 73
     2
 40
15.0
 49
10.0
 74
     0
 49
-5.0
 74
     0
  0
LTYPE
  5
2E
330
5
100
AcDbSymbolTableRecord
100
AcDbLinetypeTableRecord
  2
DASH_CENTER
 70
     0
  3
Dash_Center
 72
    65
 73
     4
 40
14.0
 49
11.0
 74
     0
 49
-1.0
 74
     0
 49
1.0
 74
     0
 49
-1.0
 74
     0
  0
LTYPE
  5
2F
330
5
100
AcDbSymbolTableRecord
100
AcDbLinetypeTableRecord
  2
PHANTOM
 70
     0
  3
Phantom
 72
    65
 73
     6
 40
13.0
 49
10.0
 74
     0
 49
-1.0
 74
     0
 49
0.0
 74
     0
 49
-1.0
 74
     0
 49
0.0
 74
     0
 49
-1.0
 74
     0
  0
LTYPE
  5
30
330
5
100
AcDbSymbolTableRecord
100
AcDbLinetypeTableRecord
  2
CENTER_DASH_DASH
 70
     0
  3
Center_Dash_Dash
 72
    65
 73
     6
 40
14.0
 49
9.0
 74
     0
 49
-1.0
 74
     0
 49
1.0
 74
     0
 49
-1.0
 74
     0
 49
1.0
 74
     0
 49
-1.0
 74
     0
  0
ENDTAB
  0
TABLE
  2
LAYER
  5
2
330
0
100
AcDbSymbolTable
 70
     2
  0
LAYER
  5
10
330
2
100
AcDbSymbolTableRecord
100
AcDbLayerTableRecord
  2
0
 70
     0
 62
     7
  6
Continuous
370
    -3
390
F
  0
LAYER
  5
31
330
2
100
AcDbSymbolTableRecord
100
AcDbLayerTableRecord
  2
1
 70
     0
 62
     7
  6
Continuous
370
    -3
390
F
  0
ENDTAB
  0
TABLE
  2
STYLE
  5
3
330
0
100
AcDbSymbolTable
 70
     3
  0
STYLE
  5
11
330
3
100
AcDbSymbolTableRecord
100
AcDbTextStyleTableRecord
  2
Standard
 70
     0
 40
0.0
 41
1.0
 50
0.0
 71
     0
 42
0.2
  3
txt
  4

  0
STYLE
  5
62
330
3
100
AcDbSymbolTableRecord
100
AcDbTextStyleTableRecord
  2
CONVERTER_11
 70
     0
 40
0.0
 41
0.891
 50
0.0
 71
     0
 42
0.2
  3
txt.shx
  4

  0
STYLE
  5
6B
330
3
100
AcDbSymbolTableRecord
100
AcDbTextStyleTableRecord
  2
CONVERTER_12
 70
     0
 40
0.0
 41
0.9
 50
0.0
 71
     0
 42
0.2
  3
txt.shx
  4

  0
ENDTAB
  0
TABLE
  2
VIEW
  5
6
330
0
100
AcDbSymbolTable
 70
     0
  0
ENDTAB
  0
TABLE
  2
UCS
  5
7
330
0
100
AcDbSymbolTable
 70
     0
  0
ENDTAB
  0
TABLE
  2
APPID
  5
9
330
0
100
AcDbSymbolTable
 70
     1
  0
APPID
  5
12
330
9
100
AcDbSymbolTableRecord
100
AcDbRegAppTableRecord
  2
ACAD
 70
     0
  0
ENDTAB
  0
TABLE
  2
DIMSTYLE
  5
A
330
0
100
AcDbSymbolTable
 70
    10
100
AcDbDimStyleTable
  0
DIMSTYLE
105
27
330
A
100
AcDbSymbolTableRecord
100
AcDbDimStyleTableRecord
  2
Standard
 70
     0
340
11
  0
DIMSTYLE
105
6F
102
{ACAD_REACTORS
330
70
102
}
330
A
100
AcDbSymbolTableRecord
100
AcDbDimStyleTableRecord
  2
ME10_DIM_10
 70
     0
 41
3.5
 42
0.0
 44
2.0
 73
     0
 74
     0
 77
     1
 78
     8
140
3.5
147
2.0
172
     1
173
     1
176
     2
177
     2
178
     2
271
     2
340
6B
  0
DIMSTYLE
105
7C
102
{ACAD_REACTORS
330
7D
102
}
330
A
100
AcDbSymbolTableRecord
100
AcDbDimStyleTableRecord
  2
ME10_DIM_11
 70
     0
 41
3.5
 42
0.0
 44
2.0
 73
     0
 74
     0
 77
     1
 78
     8
140
3.5
147
2.0
172
     1
173
     1
176
     2
177
     2
178
     2
271
     2
340
6B
  0
DIMSTYLE
105
88
102
{ACAD_REACTORS
330
89
102
}
330
A
100
AcDbSymbolTableRecord
100
AcDbDimStyleTableRecord
  2
ME10_DIM_12
 70
     0
 41
3.5
 42
0.0
 44
0.0
 73
     0
 74
     0
 77
     1
 78
     1
140
3.5
172
     1
173
     1
176
     2
177
     2
178
     2
271
     0
340
62
  0
DIMSTYLE
105
96
102
{ACAD_REACTORS
330
97
102
}
330
A
100
AcDbSymbolTableRecord
100
AcDbDimStyleTableRecord
  2
ME10_DIM_13
 70
     0
 41
3.5
 42
0.0
 44
0.0
 73
     0
 74
     0
 77
     1
 78
     1
140
3.5
172
     1
173
     1
176
     2
177
     2
178
     2
271
     0
340
62
  0
DIMSTYLE
105
A1
102
{ACAD_REACTORS
330
A2
102
}
330
A
100
AcDbSymbolTableRecord
100
AcDbDimStyleTableRecord
  2
ME10_DIM_14
 70
     0
 41
3.5
 42
0.0
 44
0.0
 73
     0
 74
     0
 77
     1
 78
     1
140
3.5
172
     1
173
     1
176
     2
177
     2
178
     2
271
     0
340
62
  0
DIMSTYLE
105
AC
102
{ACAD_REACTORS
330
AD
102
}
330
A
100
AcDbSymbolTableRecord
100
AcDbDimStyleTableRecord
  2
ME10_DIM_15
 70
     0
 41
3.5
 42
0.0
 44
0.0
 73
     0
 74
     0
 77
     1
 78
     1
140
3.5
172
     1
173
     1
176
     2
177
     2
178
     2
271
     0
340
62
  0
DIMSTYLE
105
B8
102
{ACAD_REACTORS
330
B9
102
}
330
A
100
AcDbSymbolTableRecord
100
AcDbDimStyleTableRecord
  2
ME10_DIM_16
 70
     0
 41
3.5
 42
0.0
 44
0.0
 73
     0
 74
     0
 77
     1
 78
     1
140
3.5
172
     1
173
     1
176
     2
177
     2
178
     2
271
     0
340
62
  0
DIMSTYLE
105
C4
102
{ACAD_REACTORS
330
C5
102
}
330
A
100
AcDbSymbolTableRecord
100
AcDbDimStyleTableRecord
  2
ME10_DIM_17
 70
     0
 41
3.5
 42
0.0
 44
0.0
 73
     0
 74
     0
 77
     1
 78
     1
140
3.5
172
     1
173
     1
176
     2
177
     2
178
     2
271
     0
340
62
  0
DIMSTYLE
105
CF
102
{ACAD_REACTORS
330
D0
102
}
330
A
100
AcDbSymbolTableRecord
100
AcDbDimStyleTableRecord
  2
ME10_DIM_18
 70
     0
 41
3.5
 42
0.0
 44
0.0
 73
     0
 74
     0
 77
     1
 78
     1
140
3.5
172
     1
173
     1
176
     2
177
     2
178
     2
271
     0
340
62
  0
ENDTAB
  0
TABLE
  2
BLOCK_RECORD
  5
1
330
0
100
AcDbSymbolTable
 70
    10
  0
BLOCK_RECORD
  5
1F
330
1
100
AcDbSymbolTableRecord
100
AcDbBlockTableRecord
  2
*Model_Space
340
22
  0
BLOCK_RECORD
  5
1B
330
1
100
AcDbSymbolTableRecord
100
AcDbBlockTableRecord
  2
*Paper_Space
340
1E
  0
BLOCK_RECORD
  5
23
330
1
100
AcDbSymbolTableRecord
100
AcDbBlockTableRecord
  2
*Paper_Space0
340
26
  0
BLOCK_RECORD
  5
64
330
1
100
AcDbSymbolTableRecord
100
AcDbBlockTableRecord
  2
*D1
340
0
  0
BLOCK_RECORD
  5
71
330
1
100
AcDbSymbolTableRecord
100
AcDbBlockTableRecord
  2
*D2
340
0
  0
BLOCK_RECORD
  5
7E
330
1
100
AcDbSymbolTableRecord
100
AcDbBlockTableRecord
  2
*D3
340
0
  0
BLOCK_RECORD
  5
8A
330
1
100
AcDbSymbolTableRecord
100
AcDbBlockTableRecord
  2
*D4
340
0
  0
BLOCK_RECORD
  5
98
330
1
100
AcDbSymbolTableRecord
100
AcDbBlockTableRecord
  2
*D5
340
0
  0
BLOCK_RECORD
  5
A3
330
1
100
AcDbSymbolTableRecord
100
AcDbBlockTableRecord
  2
*D6
340
0
  0
BLOCK_RECORD
  5
AE
330
1
100
AcDbSymbolTableRecord
100
AcDbBlockTableRecord
  2
*D7
340
0
  0
BLOCK_RECORD
  5
BA
330
1
100
AcDbSymbolTableRecord
100
AcDbBlockTableRecord
  2
*D8
340
0
  0
BLOCK_RECORD
  5
C6
330
1
100
AcDbSymbolTableRecord
100
AcDbBlockTableRecord
  2
*D9
340
0
  0
ENDTAB
  0
ENDSEC
  0
SECTION
  2
BLOCKS
  0
BLOCK
  5
20
330
1F
100
AcDbEntity
  8
0
100
AcDbBlockBegin
  2
*Model_Space
 70
     0
 71
     0
 10
0.0
 20
0.0
 30
0.0
  3
*Model_Space
  1

  0
ENDBLK
  5
21
330
1F
100
AcDbEntity
  8
0
100
AcDbBlockEnd
  0
BLOCK
  5
1C
330
1B
100
AcDbEntity
 67
     1
  8
0
100
AcDbBlockBegin
  2
*Paper_Space
 70
     0
 71
     0
 10
0.0
 20
0.0
 30
0.0
  3
*Paper_Space
  1

  0
ENDBLK
  5
1D
330
1B
100
AcDbEntity
 67
     1
  8
0
100
AcDbBlockEnd
  0
BLOCK
  5
24
330
23
100
AcDbEntity
  8
0
100
AcDbBlockBegin
  2
*Paper_Space0
 70
     0
 71
     0
 10
0.0
 20
0.0
 30
0.0
  3
*Paper_Space0
  1

  0
ENDBLK
  5
25
330
23
100
AcDbEntity
  8
0
100
AcDbBlockEnd
  0
BLOCK
  5
6D
330
64
100
AcDbEntity
  8
0
100
AcDbBlockBegin
  2
*D1
 70
     1
 71
     0
 10
0.0
 20
0.0
 30
0.0
  3
*D1
  1

  0
LINE
  5
65
330
64
100
AcDbEntity
  8
1
  6
Continuous
 62
     2
100
AcDbLine
 10
24.6562542951718
 20
-91.59501013890099
 30
0.0
 11
24.6562542951718
 21
-81.09501013890099
 31
0.0
  0
LINE
  5
66
330
64
100
AcDbEntity
  8
1
  6
Continuous
 62
     2
100
AcDbLine
 10
24.6562542951718
 20
-91.59501013890099
 30
0.0
 11
24.6562542951718
 21
-103.0504291147251
 31
0.0
  0
LINE
  5
67
330
64
100
AcDbEntity
  8
1
  6
Continuous
 62
     2
100
AcDbLine
 10
15.91110796620322
 20
-91.59501013890099
 30
0.0
 11
26.6562542951718
 21
-91.59501013890099
 31
0.0
  0
LINE
  5
68
330
64
100
AcDbEntity
  8
1
  6
Continuous
 62
     2
100
AcDbLine
 10
6.91110796620328
 20
-81.09501013890099
 30
0.0
 11
26.6562542951718
 21
-81.09501013890099
 31
0.0
  0
SOLID
  5
69
330
64
100
AcDbEntity
  8
1
 62
     2
100
AcDbTrace
 10
25.11703803672768
 20
-84.59501013890099
 30
0.0
 11
24.19547055361591
 21
-84.59501013890099
 31
0.0
 12
24.6562542951718
 22
-81.09501013890099
 32
0.0
 13
24.6562542951718
 23
-81.09501013890099
 33
0.0
  0
SOLID
  5
6A
330
64
100
AcDbEntity
  8
1
 62
     2
100
AcDbTrace
 10
24.19547055361591
 20
-88.09501013890099
 30
0.0
 11
25.11703803672768
 21
-88.09501013890099
 31
0.0
 12
24.6562542951718
 22
-91.59501013890099
 32
0.0
 13
24.6562542951718
 23
-91.59501013890099
 33
0.0
  0
MTEXT
  5
6C
330
64
100
AcDbEntity
  8
1
 62
     2
100
AcDbMText
 10
22.6562542951718
 20
-103.0504291147251
 30
0.0
 40
3.5
 41
0.0
 71
     7
 72
     1
  1
10.5
  7
CONVERTER_12
 11
0.0
 21
1.0
 31
0.0
 73
     1
 44
0.60024009603842
  0
ENDBLK
  5
6E
330
64
100
AcDbEntity
  8
0
100
AcDbBlockEnd
  0
BLOCK
  5
7A
330
71
100
AcDbEntity
  8
0
100
AcDbBlockBegin
  2
*D2
 70
     1
 71
     0
 10
0.0
 20
0.0
 30
0.0
  3
*D2
  1

  0
LINE
  5
72
330
71
100
AcDbEntity
  8
1
  6
Continuous
 62
     2
100
AcDbLine
 10
-2.58889203379681
 20
-112.008788035673
 30
0.0
 11
-9.58889203379681
 21
-112.008788035673
 31
0.0
  0
LINE
  5
73
330
71
100
AcDbEntity
  8
1
  6
Continuous
 62
     2
100
AcDbLine
 10
-13.0888920337967
 20
-112.008788035673
 30
0.0
 11
-9.58889203379681
 21
-112.008788035673
 31
0.0
  0
LINE
  5
74
330
71
100
AcDbEntity
  8
1
  6
Continuous
 62
     2
100
AcDbLine
 10
-13.0888920337967
 20
-112.008788035673
 30
0.0
 11
-23.320768549884
 21
-112.008788035673
 31
0.0
  0
LINE
  5
75
330
71
100
AcDbEntity
  8
1
  6
Continuous
 62
     2
100
AcDbLine
 10
-13.0888920337967
 20
-103.595010138901
 30
0.0
 11
-13.0888920337967
 21
-114.008788035673
 31
0.0
  0
LINE
  5
76
330
71
100
AcDbEntity
  8
1
  6
Continuous
 62
     2
100
AcDbLine
 10
-9.58889203379681
 20
-103.595010138901
 30
0.0
 11
-9.58889203379681
 21
-114.008788035673
 31
0.0
  0
SOLID
  5
77
330
71
100
AcDbEntity
  8
1
 62
     2
100
AcDbTrace
 10
-16.5888920337967
 20
-112.4695717772289
 30
0.0
 11
-16.5888920337967
 21
-111.5480042941171
 31
0.0
 12
-13.0888920337967
 22
-112.008788035673
 32
0.0
 13
-13.0888920337967
 23
-112.008788035673
 33
0.0
  0
SOLID
  5
78
330
71
100
AcDbEntity
  8
1
 62
     2
100
AcDbTrace
 10
-6.08889203379681
 20
-111.5480042941171
 30
0.0
 11
-6.08889203379681
 21
-112.4695717772289
 31
0.0
 12
-9.58889203379681
 22
-112.008788035673
 32
0.0
 13
-9.58889203379681
 23
-112.008788035673
 33
0.0
  0
MTEXT
  5
79
330
71
100
AcDbEntity
  8
1
 62
     2
100
AcDbMText
 10
-23.320768549884
 20
-110.008788035673
 30
0.0
 40
3.5
 41
0.0
 71
     7
 72
     1
  1
3.5
  7
CONVERTER_12
 11
0.9999999999970621
 21
2.424068405545307E-6
 31
0.0
 73
     1
 44
0.60024009603842
  0
ENDBLK
  5
7B
330
71
100
AcDbEntity
  8
0
100
AcDbBlockEnd
  0
BLOCK
  5
86
330
7E
100
AcDbEntity
  8
0
100
AcDbBlockBegin
  2
*D3
 70
     1
 71
     0
 10
0.0
 20
0.0
 30
0.0
  3
*D3
  1

  0
LINE
  5
7F
330
7E
100
AcDbEntity
  8
1
  6
Continuous
 62
     2
100
AcDbLine
 10
-13.0888920337967
 20
-122.648659610564
 30
0.0
 11
6.91110796620328
 21
-122.648659610564
 31
0.0
  0
LINE
  5
80
330
7E
100
AcDbEntity
  8
1
  6
Continuous
 62
     2
100
AcDbLine
 10
-13.0888920337967
 20
-122.648659610564
 30
0.0
 11
6.91110796620328
 21
-122.648659610564
 31
0.0
  0
LINE
  5
81
330
7E
100
AcDbEntity
  8
1
  6
Continuous
 62
     2
100
AcDbLine
 10
-13.0888920337967
 20
-103.595010138901
 30
0.0
 11
-13.0888920337967
 21
-124.648659610564
 31
0.0
  0
LINE
  5
82
330
7E
100
AcDbEntity
  8
1
  6
Continuous
 62
     2
100
AcDbLine
 10
6.91110796620328
 20
-91.59501013890099
 30
0.0
 11
6.91110796620328
 21
-124.648659610564
 31
0.0
  0
SOLID
  5
83
330
7E
100
AcDbEntity
  8
1
 62
     2
100
AcDbTrace
 10
3.41110796620328
 20
-123.1094433521199
 30
0.0
 11
3.41110796620328
 21
-122.1878758690081
 31
0.0
 12
6.91110796620328
 22
-122.648659610564
 32
0.0
 13
6.91110796620328
 23
-122.648659610564
 33
0.0
  0
SOLID
  5
84
330
7E
100
AcDbEntity
  8
1
 62
     2
100
AcDbTrace
 10
-9.5888920337967
 20
-122.1878758690081
 30
0.0
 11
-9.5888920337967
 21
-123.1094433521199
 31
0.0
 12
-13.0888920337967
 22
-122.648659610564
 32
0.0
 13
-13.0888920337967
 23
-122.648659610564
 33
0.0
  0
MTEXT
  5
85
330
7E
100
AcDbEntity
  8
1
 62
     2
100
AcDbMText
 10
-5.6876420337967
 20
-120.648659610564
 30
0.0
 40
3.5
 41
0.0
 71
     7
 72
     1
  1
20
  7
CONVERTER_11
 11
0.9999999999970621
 21
2.424068405545307E-6
 31
0.0
 73
     1
 44
0.60024009603842
  0
ENDBLK
  5
87
330
7E
100
AcDbEntity
  8
0
100
AcDbBlockEnd
  0
BLOCK
  5
94
330
8A
100
AcDbEntity
  8
0
100
AcDbBlockBegin
  2
*D4
 70
     1
 71
     0
 10
0.0
 20
0.0
 30
0.0
  3
*D4
  1

  0
LINE
  5
8B
330
8A
100
AcDbEntity
  8
1
  6
Continuous
 62
     2
100
AcDbLine
 10
-0.0888920337967
 20
54.31661033018199
 30
0.0
 11
6.91110796620328
 21
54.31661033018199
 31
0.0
  0
LINE
  5
8C
330
8A
100
AcDbEntity
  8
1
  6
Continuous
 62
     2
100
AcDbLine
 10
6.91110796620328
 20
54.31661033018199
 30
0.0
 11
13.91110796620328
 21
54.31661033018199
 31
0.0
  0
LINE
  5
8D
330
8A
100
AcDbEntity
  8
1
  6
Continuous
 62
     2
100
AcDbLine
 10
-0.0888920337967
 20
54.31661033018199
 30
0.0
 11
-7.0888920337967
 21
54.31661033018199
 31
0.0
  0
LINE
  5
8E
330
8A
100
AcDbEntity
  8
1
  6
Continuous
 62
     2
100
AcDbLine
 10
6.91110796620328
 20
54.31661033018199
 30
0.0
 11
13.91110796620328
 21
54.31661033018199
 31
0.0
  0
LINE
  5
8F
330
8A
100
AcDbEntity
  8
1
  6
Continuous
 62
     2
100
AcDbLine
 10
-0.0888920337967
 20
63.60981071570498
 30
0.0
 11
-0.0888920337967
 21
52.31661033018199
 31
0.0
  0
LINE
  5
90
330
8A
100
AcDbEntity
  8
1
  6
Continuous
 62
     2
100
AcDbLine
 10
6.91110796620328
 20
66.26702123370589
 30
0.0
 11
6.91110796620328
 21
52.31661033018199
 31
0.0
  0
SOLID
  5
91
330
8A
100
AcDbEntity
  8
1
 62
     2
100
AcDbTrace
 10
10.41110796620328
 20
54.77739407173787
 30
0.0
 11
10.41110796620328
 21
53.8558265886261
 31
0.0
 12
6.91110796620328
 22
54.31661033018199
 32
0.0
 13
6.91110796620328
 23
54.31661033018199
 33
0.0
  0
SOLID
  5
92
330
8A
100
AcDbEntity
  8
1
 62
     2
100
AcDbTrace
 10
-3.5888920337967
 20
53.8558265886261
 30
0.0
 11
-3.5888920337967
 21
54.77739407173787
 31
0.0
 12
-0.0888920337967
 22
54.31661033018199
 32
0.0
 13
-0.0888920337967
 23
54.31661033018199
 33
0.0
  0
MTEXT
  5
93
330
8A
100
AcDbEntity
  8
1
 62
     2
100
AcDbMText
 10
2.94517365477998
 20
56.31661033018199
 30
0.0
 40
3.5
 41
0.0
 71
     7
 72
     1
  1
7
  7
CONVERTER_11
 11
0.9999999999970621
 21
2.424068405545307E-6
 31
0.0
 73
     1
 44
0.60024009603842
  0
ENDBLK
  5
95
330
8A
100
AcDbEntity
  8
0
100
AcDbBlockEnd
  0
BLOCK
  5
9F
330
98
100
AcDbEntity
  8
0
100
AcDbBlockBegin
  2
*D5
 70
     1
 71
     0
 10
0.0
 20
0.0
 30
0.0
  3
*D5
  1

  0
LINE
  5
99
330
98
100
AcDbEntity
  8
1
  6
Continuous
 62
     2
100
AcDbLine
 10
26.16688882859901
 20
-16.73297876629408
 30
0.0
 11
26.16688882859901
 21
66.26702123370589
 31
0.0
  0
LINE
  5
9A
330
98
100
AcDbEntity
  8
1
  6
Continuous
 62
     2
100
AcDbLine
 10
2.56157137755801
 20
66.26702123370589
 30
0.0
 11
28.16688882859901
 21
66.26702123370589
 31
0.0
  0
LINE
  5
9B
330
98
100
AcDbEntity
  8
1
  6
Continuous
 62
     2
100
AcDbLine
 10
2.56157137755801
 20
-16.73297876629408
 30
0.0
 11
28.16688882859901
 21
-16.73297876629408
 31
0.0
  0
SOLID
  5
9C
330
98
100
AcDbEntity
  8
1
 62
     2
100
AcDbTrace
 10
25.70610508704312
 20
-13.23297876629408
 30
0.0
 11
26.6276725701549
 21
-13.23297876629408
 31
0.0
 12
26.16688882859901
 22
-16.73297876629408
 32
0.0
 13
26.16688882859901
 23
-16.73297876629408
 33
0.0
  0
SOLID
  5
9D
330
98
100
AcDbEntity
  8
1
 62
     2
100
AcDbTrace
 10
26.62767257015489
 20
62.76702123370589
 30
0.0
 11
25.70610508704312
 21
62.76702123370589
 31
0.0
 12
26.16688882859901
 22
66.26702123370589
 32
0.0
 13
26.16688882859901
 23
66.26702123370589
 33
0.0
  0
MTEXT
  5
9E
330
98
100
AcDbEntity
  8
1
 62
     2
100
AcDbMText
 10
24.16688882859901
 20
21.99655236031603
 30
0.0
 40
3.5
 41
0.0
 71
     7
 72
     1
  1
83
  7
CONVERTER_11
 11
0.0
 21
1.0
 31
0.0
 73
     1
 44
0.60024009603842
  0
ENDBLK
  5
A0
330
98
100
AcDbEntity
  8
0
100
AcDbBlockEnd
  0
BLOCK
  5
AA
330
A3
100
AcDbEntity
  8
0
100
AcDbBlockBegin
  2
*D6
 70
     1
 71
     0
 10
0.0
 20
0.0
 30
0.0
  3
*D6
  1

  0
LINE
  5
A4
330
A3
100
AcDbEntity
  8
1
  6
Continuous
 62
     2
100
AcDbLine
 10
43.06004135676099
 20
-26.73297876629408
 30
0.0
 11
43.06004135676099
 21
76.26702123370589
 31
0.0
  0
LINE
  5
A5
330
A3
100
AcDbEntity
  8
1
  6
Continuous
 62
     2
100
AcDbLine
 10
-3.0888920337967
 20
76.26702123370589
 30
0.0
 11
45.06004135676099
 21
76.26702123370589
 31
0.0
  0
LINE
  5
A6
330
A3
100
AcDbEntity
  8
1
  6
Continuous
 62
     2
100
AcDbLine
 10
-3.0888920337967
 20
-26.73297876629408
 30
0.0
 11
45.06004135676099
 21
-26.73297876629408
 31
0.0
  0
SOLID
  5
A7
330
A3
100
AcDbEntity
  8
1
 62
     2
100
AcDbTrace
 10
42.5992576152051
 20
-23.23297876629408
 30
0.0
 11
43.52082509831688
 21
-23.23297876629408
 31
0.0
 12
43.06004135676099
 22
-26.73297876629408
 32
0.0
 13
43.06004135676099
 23
-26.73297876629408
 33
0.0
  0
SOLID
  5
A8
330
A3
100
AcDbEntity
  8
1
 62
     2
100
AcDbTrace
 10
43.52082509831688
 20
72.76702123370589
 30
0.0
 11
42.5992576152051
 21
72.76702123370589
 31
0.0
 12
43.06004135676099
 22
76.26702123370589
 32
0.0
 13
43.06004135676099
 23
76.26702123370589
 33
0.0
  0
MTEXT
  5
A9
330
A3
100
AcDbEntity
  8
1
 62
     2
100
AcDbMText
 10
41.06004135676099
 20
20.757095634552
 30
0.0
 40
3.5
 41
0.0
 71
     7
 72
     1
  1
103
  7
CONVERTER_11
 11
0.0
 21
1.0
 31
0.0
 73
     1
 44
0.60024009603842
  0
ENDBLK
  5
AB
330
A3
100
AcDbEntity
  8
0
100
AcDbBlockEnd
  0
BLOCK
  5
B6
330
AE
100
AcDbEntity
  8
0
100
AcDbBlockBegin
  2
*D7
 70
     1
 71
     0
 10
0.0
 20
0.0
 30
0.0
  3
*D7
  1

  0
LINE
  5
AF
330
AE
100
AcDbEntity
  8
1
  6
Continuous
 62
     2
100
AcDbLine
 10
35.71269528457398
 20
42.26702123370589
 30
0.0
 11
35.71269528457398
 21
76.26702123370589
 31
0.0
  0
LINE
  5
B0
330
AE
100
AcDbEntity
  8
1
  6
Continuous
 62
     2
100
AcDbLine
 10
-3.0888920337967
 20
76.26702123370589
 30
0.0
 11
37.71269528457398
 21
76.26702123370589
 31
0.0
  0
LINE
  5
B1
330
AE
100
AcDbEntity
  8
1
  6
Continuous
 62
     2
100
AcDbLine
 10
18.11629380562502
 20
42.26702123370589
 30
0.0
 11
23.4268454440173
 21
42.26702123370589
 31
0.0
  0
LINE
  5
B2
330
AE
100
AcDbEntity
  8
1
  6
Continuous
 62
     2
100
AcDbLine
 10
29.7966740025344
 20
42.26702123370589
 30
0.0
 11
37.71269528457398
 21
42.26702123370589
 31
0.0
  0
SOLID
  5
B3
330
AE
100
AcDbEntity
  8
1
 62
     2
100
AcDbTrace
 10
35.2519115430181
 20
45.76702123370589
 30
0.0
 11
36.17347902612987
 21
45.76702123370589
 31
0.0
 12
35.71269528457398
 22
42.26702123370589
 32
0.0
 13
35.71269528457398
 23
42.26702123370589
 33
0.0
  0
SOLID
  5
B4
330
AE
100
AcDbEntity
  8
1
 62
     2
100
AcDbTrace
 10
36.17347902612987
 20
72.76702123370589
 30
0.0
 11
35.2519115430181
 21
72.76702123370589
 31
0.0
 12
35.71269528457398
 22
76.26702123370589
 32
0.0
 13
35.71269528457398
 23
76.26702123370589
 33
0.0
  0
MTEXT
  5
B5
330
AE
100
AcDbEntity
  8
1
 62
     2
100
AcDbMText
 10
33.71269528457398
 20
56.195534063427
 30
0.0
 40
3.5
 41
0.0
 71
     7
 72
     1
  1
34
  7
CONVERTER_11
 11
0.0
 21
1.0
 31
0.0
 73
     1
 44
0.60024009603842
  0
ENDBLK
  5
B7
330
AE
100
AcDbEntity
  8
0
100
AcDbBlockEnd
  0
BLOCK
  5
C2
330
BA
100
AcDbEntity
  8
0
100
AcDbBlockBegin
  2
*D8
 70
     1
 71
     0
 10
0.0
 20
0.0
 30
0.0
  3
*D8
  1

  0
LINE
  5
BB
330
BA
100
AcDbEntity
  8
1
  6
Continuous
 62
     2
100
AcDbLine
 10
-3.0888920337967
 20
31.29835927946002
 30
0.0
 11
6.91110796620328
 21
31.29835927946002
 31
0.0
  0
LINE
  5
BC
330
BA
100
AcDbEntity
  8
1
  6
Continuous
 62
     2
100
AcDbLine
 10
-3.0888920337967
 20
31.29835927946002
 30
0.0
 11
6.91110796620328
 21
31.29835927946002
 31
0.0
  0
LINE
  5
BD
330
BA
100
AcDbEntity
  8
1
  6
Continuous
 62
     2
100
AcDbLine
 10
-3.0888920337967
 20
39.290790525762
 30
0.0
 11
-3.0888920337967
 21
29.29835927946002
 31
0.0
  0
LINE
  5
BE
330
BA
100
AcDbEntity
  8
1
  6
Continuous
 62
     2
100
AcDbLine
 10
6.91110796620328
 20
66.26702123370589
 30
0.0
 11
6.91110796620328
 21
29.29835927946002
 31
0.0
  0
SOLID
  5
BF
330
BA
100
AcDbEntity
  8
1
 62
     2
100
AcDbTrace
 10
3.41110796620328
 20
30.83757553790414
 30
0.0
 11
3.41110796620328
 21
31.75914302101591
 31
0.0
 12
6.91110796620328
 22
31.29835927946002
 32
0.0
 13
6.91110796620328
 23
31.29835927946002
 33
0.0
  0
SOLID
  5
C0
330
BA
100
AcDbEntity
  8
1
 62
     2
100
AcDbTrace
 10
0.4111079662033
 20
31.75914302101591
 30
0.0
 11
0.4111079662033
 21
30.83757553790414
 31
0.0
 12
-3.0888920337967
 22
31.29835927946002
 32
0.0
 13
-3.0888920337967
 23
31.29835927946002
 33
0.0
  0
MTEXT
  5
C1
330
BA
100
AcDbEntity
  8
1
 62
     2
100
AcDbMText
 10
-0.16618435895401
 20
33.29835927946002
 30
0.0
 40
3.5
 41
0.0
 71
     7
 72
     1
  1
10
  7
CONVERTER_11
 11
0.9999999999970621
 21
2.424068405545307E-6
 31
0.0
 73
     1
 44
0.60024009603842
  0
ENDBLK
  5
C3
330
BA
100
AcDbEntity
  8
0
100
AcDbBlockEnd
  0
BLOCK
  5
CD
330
C6
100
AcDbEntity
  8
0
100
AcDbBlockBegin
  2
*D9
 70
     1
 71
     0
 10
0.0
 20
0.0
 30
0.0
  3
*D9
  1

  0
LINE
  5
C7
330
C6
100
AcDbEntity
  8
1
  6
Continuous
 62
     2
100
AcDbLine
 10
-33.469141030624
 20
6.76702123370591
 30
0.0
 11
-33.469141030624
 21
42.76702123370589
 31
0.0
  0
LINE
  5
C8
330
C6
100
AcDbEntity
  8
1
  6
Continuous
 62
     2
100
AcDbLine
 10
-6.011577251299
 20
6.76702123370591
 30
0.0
 11
-35.469141030624
 21
6.76702123370591
 31
0.0
  0
LINE
  5
C9
330
C6
100
AcDbEntity
  8
1
  6
Continuous
 62
     2
100
AcDbLine
 10
-5.922634506278
 20
42.76702123370589
 30
0.0
 11
-35.469141030624
 21
42.76702123370589
 31
0.0
  0
SOLID
  5
CA
330
C6
100
AcDbEntity
  8
1
 62
     2
100
AcDbTrace
 10
-33.92992477217989
 20
10.26702123370591
 30
0.0
 11
-33.00835728906812
 21
10.26702123370591
 31
0.0
 12
-33.469141030624
 22
6.76702123370591
 32
0.0
 13
-33.469141030624
 23
6.76702123370591
 33
0.0
  0
SOLID
  5
CB
330
C6
100
AcDbEntity
  8
1
 62
     2
100
AcDbTrace
 10
-33.00835728906812
 20
39.26702123370589
 30
0.0
 11
-33.92992477217989
 21
39.26702123370589
 31
0.0
 12
-33.469141030624
 22
42.76702123370589
 32
0.0
 13
-33.469141030624
 23
42.76702123370589
 33
0.0
  0
MTEXT
  5
CC
330
C6
100
AcDbEntity
  8
1
 62
     2
100
AcDbMText
 10
-35.469141030624
 20
22.80063366178799
 30
0.0
 40
3.5
 41
0.0
 71
     7
 72
     1
  1
36
  7
CONVERTER_11
 11
0.0
 21
1.0
 31
0.0
 73
     1
 44
0.60024009603842
  0
ENDBLK
  5
CE
330
C6
100
AcDbEntity
  8
0
100
AcDbBlockEnd
  0
ENDSEC
  0
SECTION
  2
ENTITIES
  0
LINE
  5
32
330
1F
100
AcDbEntity
  8
1
  6
Continuous
 62
     7
100
AcDbLine
 10
6.91110796620328
 20
-91.59501013890099
 30
0.0
 11
-5.58889203379681
 21
-91.59501013890099
 31
0.0
  0
LINE
  5
33
330
1F
100
AcDbEntity
  8
1
  6
Continuous
 62
     7
100
AcDbLine
 10
6.91110796620328
 20
-81.09501013890099
 30
0.0
 11
6.91110796620328
 21
-91.59501013890099
 31
0.0
  0
LINE
  5
34
330
1F
100
AcDbEntity
  8
1
  6
Continuous
 62
     7
100
AcDbLine
 10
-13.0888920337967
 20
-81.095010138901
 30
0.0
 11
-6.8388920337967
 21
-81.09501013890099
 31
0.0
  0
LINE
  5
35
330
1F
100
AcDbEntity
  8
1
  6
Continuous
 62
     7
100
AcDbLine
 10
-13.0888920337967
 20
-103.595010138901
 30
0.0
 11
-9.58889203379681
 21
-103.595010138901
 31
0.0
  0
LINE
  5
36
330
1F
100
AcDbEntity
  8
1
  6
Continuous
 62
     7
100
AcDbLine
 10
-13.0888920337967
 20
-103.595010138901
 30
0.0
 11
-13.0888920337967
 21
-81.095010138901
 31
0.0
  0
LINE
  5
37
330
1F
100
AcDbEntity
  8
1
  6
Continuous
 62
     7
100
AcDbLine
 10
-9.5888920337967
 20
-50.18541525617201
 30
0.0
 11
-9.5888920337967
 21
-24.73297876629408
 31
0.0
  0
LINE
  5
38
330
1F
100
AcDbEntity
  8
1
  6
Continuous
 62
     7
100
AcDbLine
 10
-9.5888920337967
 20
97.723539967709
 30
0.0
 11
-9.5888920337967
 21
74.26702123370589
 31
0.0
  0
LINE
  5
39
330
1F
100
AcDbEntity
  8
1
  6
Continuous
 62
     7
100
AcDbLine
 10
6.91110796620328
 20
-16.73297876629408
 30
0.0
 11
6.91110796620328
 21
66.26702123370589
 31
0.0
  0
LINE
  5
3A
330
1F
100
AcDbEntity
  8
1
  6
Continuous
 62
     7
100
AcDbLine
 10
-13.0888920337967
 20
-16.73297876629408
 30
0.0
 11
-13.0888920337967
 21
-12.48297876629408
 31
0.0
  0
LINE
  5
3B
330
1F
100
AcDbEntity
  8
1
  6
DOT_CENTER
 62
     2
100
AcDbLine
 10
2.56157137755801
 20
66.26702123370589
 30
0.0
 11
-2.51225307314101
 21
66.26702123370589
 31
0.0
  0
LINE
  5
3C
330
1F
100
AcDbEntity
  8
1
  6
DOT_CENTER
 62
     2
100
AcDbLine
 10
-2.86624082551501
 20
-16.73297876629408
 30
0.0
 11
2.56157137755801
 21
-16.73297876629408
 31
0.0
  0
LINE
  5
3D
330
1F
100
AcDbEntity
  8
1
  6
DOT_CENTER
 62
     2
100
AcDbLine
 10
-0.0888920337967
 20
-14.06647053415298
 30
0.0
 11
-0.0888920337967
 21
-20.67424191180601
 31
0.0
  0
LINE
  5
3E
330
1F
100
AcDbEntity
  8
1
  6
DOT_CENTER
 62
     2
100
AcDbLine
 10
-3.0888920337967
 20
46.016557820874
 30
0.0
 11
-3.0888920337967
 21
39.29079052576199
 31
0.0
  0
LINE
  5
3F
330
1F
100
AcDbEntity
  8
1
  6
DOT_CENTER
 62
     2
100
AcDbLine
 10
-0.0888920337967
 20
69.50960658861001
 30
0.0
 11
-0.0888920337967
 21
63.60981071570498
 31
0.0
  0
LINE
  5
40
330
1F
100
AcDbEntity
  8
1
  6
Continuous
 62
     2
100
AcDbLine
 10
-35.91721167943859
 20
61.64396404288598
 30
0.0
 11
-26.7939818796107
 21
42.26702123370589
 31
0.0
  0
LINE
  5
41
330
1F
100
AcDbEntity
  8
1
  6
Continuous
 62
     2
100
AcDbLine
 10
-68.08118109832671
 20
61.64396404288598
 30
0.0
 11
-35.91721167943859
 21
61.64396404288598
 31
0.0
  0
LINE
  5
42
330
1F
100
AcDbEntity
  8
1
  6
DOT_CENTER
 62
     2
100
AcDbLine
 10
-24.0888920337967
 20
-62.59501013890099
 30
0.0
 11
-27.63286184621859
 21
-62.59501013890099
 31
0.0
  0
LINE
  5
43
330
1F
100
AcDbEntity
  8
1
  6
Continuous
 62
     7
100
AcDbLine
 10
15.91110796620322
 20
-91.59501013890099
 30
0.0
 11
6.91110796620328
 21
-91.59501013890099
 31
0.0
  0
LINE
  5
44
330
1F
100
AcDbEntity
  8
1
  6
Continuous
 62
     7
100
AcDbLine
 10
-24.0888920337967
 20
-103.595010138901
 30
0.0
 11
-19.3388920337967
 21
-103.595010138901
 31
0.0
  0
LINE
  5
45
330
1F
100
AcDbEntity
  8
1
  6
DOT_CENTER
 62
     2
100
AcDbLine
 10
-28.23257123301559
 20
97.723539967709
 30
0.0
 11
20.91110796620328
 21
97.723539967709
 31
0.0
  0
LINE
  5
46
330
1F
100
AcDbEntity
  8
1
  6
Continuous
 62
     7
100
AcDbLine
 10
15.91110796620328
 20
-62.59501013890099
 30
0.0
 11
15.91110796620322
 21
-91.59501013890099
 31
0.0
  0
LINE
  5
47
330
1F
100
AcDbEntity
  8
1
  6
Continuous
 62
     7
100
AcDbLine
 10
-24.0888920337967
 20
97.723539967709
 30
0.0
 11
-24.0888920337967
 21
-50.18541525617201
 31
0.0
  0
LINE
  5
48
330
1F
100
AcDbEntity
  8
1
  6
DOT_CENTER
 62
     2
100
AcDbLine
 10
-28.23257123301559
 20
-50.18541525617201
 30
0.0
 11
20.91110796620328
 21
-50.18541525617201
 31
0.0
  0
LINE
  5
49
330
1F
100
AcDbEntity
  8
1
  6
Continuous
 62
     7
100
AcDbLine
 10
15.91110796620328
 20
97.723539967709
 30
0.0
 11
15.91110796620328
 21
-50.18541525617201
 31
0.0
  0
LINE
  5
4A
330
1F
100
AcDbEntity
  8
1
  6
Continuous
 62
     7
100
AcDbLine
 10
-24.0888920337967
 20
-103.595010138901
 30
0.0
 11
-24.0888920337967
 21
-62.59501013890099
 31
0.0
  0
LINE
  5
4B
330
1F
100
AcDbEntity
  8
1
  6
DOT_CENTER
 62
     2
100
AcDbLine
 10
15.91110796620328
 20
-62.59501013890099
 30
0.0
 11
20.52614428112727
 21
-62.59501013890099
 31
0.0
  0
LINE
  5
4C
330
1F
100
AcDbEntity
  8
1
  6
DOT_CENTER
 62
     7
100
AcDbLine
 10
-29.86080304336159
 20
42.26702123370589
 30
0.0
 11
-5.37425978685101
 21
42.26702123370589
 31
0.0
  0
LINE
  5
4D
330
1F
100
AcDbEntity
  8
1
  6
DOT_CENTER
 62
     2
100
AcDbLine
 10
-3.0888920337967
 20
10.24325194164982
 30
0.0
 11
-3.0888920337967
 21
3.51748464653781
 31
0.0
  0
LINE
  5
4E
330
1F
100
AcDbEntity
  8
1
  6
DOT_CENTER
 62
     2
100
AcDbLine
 10
-6.011577251299
 20
6.76702123370592
 30
0.0
 11
-0.46709348047301
 21
6.76702123370592
 31
0.0
  0
LINE
  5
4F
330
1F
100
AcDbEntity
  8
1
  6
DOT_CENTER
 62
     2
100
AcDbLine
 10
-5.922634506278
 20
42.76702123370589
 30
0.0
 11
-0.17963735668499
 21
42.76702123370589
 31
0.0
  0
LINE
  5
50
330
1F
100
AcDbEntity
  8
1
  6
DOT_CENTER
 62
     7
100
AcDbLine
 10
-0.69619419032
 20
42.26702123370589
 30
0.0
 11
18.11629380562502
 21
42.26702123370589
 31
0.0
  0
LINE
  5
51
330
1F
100
AcDbEntity
  8
1
  6
DOT_CENTER
 62
     2
100
AcDbLine
 10
-26.49805701098899
 20
24.76702123370589
 30
0.0
 11
18.11629380562502
 21
24.76702123370589
 31
0.0
  0
LINE
  5
52
330
1F
100
AcDbEntity
  8
1
  6
Continuous
 62
     7
100
AcDbLine
 10
-19.3388920337967
 20
-103.595010138901
 30
0.0
 11
-13.0888920337967
 21
-103.595010138901
 31
0.0
  0
LINE
  5
53
330
1F
100
AcDbEntity
  8
1
  6
Continuous
 62
     7
100
AcDbLine
 10
-6.8388920337967
 20
-81.09501013890099
 30
0.0
 11
6.91110796620328
 21
-81.09501013890099
 31
0.0
  0
LINE
  5
54
330
1F
100
AcDbEntity
  8
1
  6
DOT_CENTER
 62
     2
100
AcDbLine
 10
-24.0888920337967
 20
-62.59501013890099
 30
0.0
 11
15.91110796620328
 21
-62.59501013890099
 31
0.0
  0
LINE
  5
55
330
1F
100
AcDbEntity
  8
1
  6
Continuous
 62
     7
100
AcDbLine
 10
-13.0888920337967
 20
0.01702123370592
 30
0.0
 11
-13.0888920337967
 21
49.51702123370583
 31
0.0
  0
LINE
  5
56
330
1F
100
AcDbEntity
  8
1
  6
Continuous
 62
     7
100
AcDbLine
 10
-13.0888920337967
 20
-12.48297876629408
 30
0.0
 11
-13.0888920337967
 21
66.26702123370589
 31
0.0
  0
LINE
  5
57
330
1F
100
AcDbEntity
  8
1
  6
Continuous
 62
     7
100
AcDbLine
 10
-9.58889203379681
 20
-83.59501013890099
 30
0.0
 11
-9.58889203379681
 21
-103.595010138901
 31
0.0
  0
LINE
  5
58
330
1F
100
AcDbEntity
  8
1
  6
Continuous
 62
     7
100
AcDbLine
 10
-5.58889203379681
 20
-91.59501013890099
 30
0.0
 11
-5.58889203379681
 21
-83.59501013890099
 31
0.0
  0
LINE
  5
59
330
1F
100
AcDbEntity
  8
1
  6
Continuous
 62
     7
100
AcDbLine
 10
-5.58889203379681
 20
-83.59501013890099
 30
0.0
 11
-9.58889203379681
 21
-83.59501013890099
 31
0.0
  0
ARC
  5
5A
330
1F
100
AcDbEntity
  8
1
  6
Continuous
 62
     7
100
AcDbCircle
 10
-3.0888920337967
 20
-16.73297876629408
 30
0.0
 40
10.0
100
AcDbArc
 50
180.0
 51
-90.0
  0
ARC
  5
5B
330
1F
100
AcDbEntity
  8
1
  6
Continuous
 62
     7
100
AcDbCircle
 10
-3.0888920337967
 20
66.26702123370589
 30
0.0
 40
9.999999999999972
100
AcDbArc
 50
0.0
 51
90.0
  0
ARC
  5
5C
330
1F
100
AcDbEntity
  8
1
  6
Continuous
 62
     7
100
AcDbCircle
 10
-3.0888920337967
 20
-16.73297876629408
 30
0.0
 40
10.0
100
AcDbArc
 50
-90.0
 51
0.0
  0
ARC
  5
5D
330
1F
100
AcDbEntity
  8
1
  6
Continuous
 62
     7
100
AcDbCircle
 10
-3.0888920337967
 20
66.26702123370589
 30
0.0
 40
10.0
100
AcDbArc
 50
90.0
 51
180.0
  0
CIRCLE
  5
5E
330
1F
100
AcDbEntity
  8
1
  6
Continuous
 62
     7
100
AcDbCircle
 10
-0.0888920337967
 20
-16.73297876629408
 30
0.0
 40
1.5
  0
CIRCLE
  5
5F
330
1F
100
AcDbEntity
  8
1
  6
Continuous
 62
     7
100
AcDbCircle
 10
-0.0888920337967
 20
66.26702123370589
 30
0.0
 40
1.5
  0
CIRCLE
  5
60
330
1F
100
AcDbEntity
  8
1
  6
Continuous
 62
     7
100
AcDbCircle
 10
-3.0888920337967
 20
42.76702123370589
 30
0.0
 40
1.5
  0
CIRCLE
  5
61
330
1F
100
AcDbEntity
  8
1
  6
Continuous
 62
     7
100
AcDbCircle
 10
-3.0888920337967
 20
6.76702123370592
 30
0.0
 40
1.5
  0
MTEXT
  5
63
330
1F
100
AcDbEntity
  8
1
 62
     2
100
AcDbMText
 10
-51.59925487237959
 20
65.08443894525502
 30
0.0
 40
2.5
 41
0.0
 71
     5
 72
     1
  1
Bandbezugslinie
  7
CONVERTER_11
 73
     1
 44
0.60024009603842
  0
DIMENSION
  5
70
330
1F
100
AcDbEntity
  8
1
100
AcDbDimension
  2
*D1
 10
24.6562542951718
 20
-81.09501013890099
 30
0.0
 11
20.9062542951718
 21
-98.8066791147251
 31
0.0
 70
    32
  1
<>
 71
     5
 42
-1.0
 53
90.0
  3
ME10_DIM_10
100
AcDbAlignedDimension
 13
15.91110796620322
 23
-91.59501013890099
 33
0.0
 14
6.91110796620328
 24
-81.09501013890099
 34
0.0
 50
90.0
100
AcDbRotatedDimension
  0
DIMENSION
  5
7D
330
1F
100
AcDbEntity
  8
1
100
AcDbDimension
  2
*D2
 10
-13.0888920337967
 20
-112.008788035673
 30
0.0
 11
-20.127018549884
 21
-108.258788035673
 31
0.0
 70
    32
  1
<>
 71
     5
 42
-1.0
 53
0.00013888888889
  3
ME10_DIM_11
100
AcDbAlignedDimension
 13
-9.58889203379681
 23
-103.595010138901
 33
0.0
 14
-13.0888920337967
 24
-103.595010138901
 34
0.0
100
AcDbRotatedDimension
  0
DIMENSION
  5
89
330
1F
100
AcDbEntity
  8
1
100
AcDbDimension
  2
*D3
 10
6.91110796620328
 20
-122.648659610564
 30
0.0
 11
-3.0888920337967
 21
-118.898659610564
 31
0.0
 70
    32
  1
<>
 71
     5
 42
-1.0
 53
0.00013888888889
  3
ME10_DIM_12
100
AcDbAlignedDimension
 13
-13.0888920337967
 23
-103.595010138901
 33
0.0
 14
6.91110796620328
 24
-91.59501013890099
 34
0.0
100
AcDbRotatedDimension
  0
DIMENSION
  5
97
330
1F
100
AcDbEntity
  8
1
100
AcDbDimension
  2
*D4
 10
6.91110796620328
 20
54.31661033018199
 30
0.0
 11
3.98467365477998
 21
58.06661033018199
 31
0.0
 70
    32
  1
<>
 71
     5
 42
-1.0
 53
0.00013888888889
  3
ME10_DIM_13
100
AcDbAlignedDimension
 13
-0.0888920337967
 23
63.60981071570498
 33
0.0
 14
6.91110796620328
 24
66.26702123370589
 34
0.0
100
AcDbRotatedDimension
  0
DIMENSION
  5
A2
330
1F
100
AcDbEntity
  8
1
100
AcDbDimension
  2
*D5
 10
26.16688882859901
 20
-16.73297876629408
 30
0.0
 11
22.41688882859901
 21
24.59530236031603
 31
0.0
 70
    32
  1
<>
 71
     5
 42
-1.0
 53
90.0
  3
ME10_DIM_14
100
AcDbAlignedDimension
 13
2.56157137755801
 23
66.26702123370589
 33
0.0
 14
2.56157137755801
 24
-16.73297876629408
 34
0.0
 50
90.0
100
AcDbRotatedDimension
  0
DIMENSION
  5
AD
330
1F
100
AcDbEntity
  8
1
100
AcDbDimension
  2
*D6
 10
43.06004135676099
 20
-26.73297876629408
 30
0.0
 11
39.31004135676099
 21
24.395345634552
 31
0.0
 70
    32
  1
<>
 71
     5
 42
-1.0
 53
90.0
  3
ME10_DIM_15
100
AcDbAlignedDimension
 13
-3.0888920337967
 23
76.26702123370589
 33
0.0
 14
-3.0888920337967
 24
-26.73297876629408
 34
0.0
 50
90.0
100
AcDbRotatedDimension
  0
DIMENSION
  5
B9
330
1F
100
AcDbEntity
  8
1
100
AcDbDimension
  2
*D7
 10
35.71269528457398
 20
42.26702123370589
 30
0.0
 11
31.96269528457398
 21
58.794284063427
 31
0.0
 70
    32
  1
<>
 71
     5
 42
-1.0
 53
90.0
  3
ME10_DIM_16
100
AcDbAlignedDimension
 13
-3.0888920337967
 23
76.26702123370589
 33
0.0
 14
18.11629380562502
 24
42.26702123370589
 34
0.0
 50
90.0
100
AcDbRotatedDimension
  0
DIMENSION
  5
C5
330
1F
100
AcDbEntity
  8
1
100
AcDbDimension
  2
*D8
 10
6.91110796620328
 20
31.29835927946002
 30
0.0
 11
1.912815641046
 21
35.04835927946002
 31
0.0
 70
    32
  1
<>
 71
     5
 42
-1.0
 53
0.00013888888889
  3
ME10_DIM_17
100
AcDbAlignedDimension
 13
-3.0888920337967
 23
39.29079052576199
 33
0.0
 14
6.91110796620328
 24
66.26702123370589
 34
0.0
100
AcDbRotatedDimension
  0
DIMENSION
  5
D0
330
1F
100
AcDbEntity
  8
1
100
AcDbDimension
  2
*D9
 10
-33.469141030624
 20
6.76702123370591
 30
0.0
 11
-37.219141030624
 21
25.39938366178799
 31
0.0
 70
    32
  1
<>
 71
     5
 42
-1.0
 53
90.0
  3
ME10_DIM_18
100
AcDbAlignedDimension
 13
-5.922634506278
 23
42.76702123370589
 33
0.0
 14
-6.011577251299
 24
6.76702123370592
 34
0.0
 50
90.0
100
AcDbRotatedDimension
  0
ENDSEC
  0
SECTION
  2
OBJECTS
  0
DICTIONARY
  5
C
330
0
100
AcDbDictionary
281
     1
  3
ACAD_GROUP
350
D
  3
ACAD_LAYOUT
350
1A
  3
ACAD_MLINESTYLE
350
17
  3
ACAD_PLOTSETTINGS
350
19
  3
ACAD_PLOTSTYLENAME
350
E
  0
DICTIONARY
  5
D
102
{ACAD_REACTORS
330
C
102
}
330
C
100
AcDbDictionary
281
     1
  0
DICTIONARY
  5
1A
102
{ACAD_REACTORS
330
C
102
}
330
C
100
AcDbDictionary
281
     1
  3
Layout1
350
1E
  3
Layout2
350
26
  3
Model
350
22
  0
DICTIONARY
  5
17
102
{ACAD_REACTORS
330
C
102
}
330
C
100
AcDbDictionary
281
     1
  3
Standard
350
18
  0
DICTIONARY
  5
19
102
{ACAD_REACTORS
330
C
102
}
330
C
100
AcDbDictionary
281
     1
  0
ACDBDICTIONARYWDFLT
  5
E
102
{ACAD_REACTORS
330
C
102
}
330
C
100
AcDbDictionary
281
     1
  3
Normal
350
F
100
AcDbDictionaryWithDefault
340
F
  0
LAYOUT
  5
1E
102
{ACAD_REACTORS
330
1A
102
}
330
1A
100
AcDbPlotSettings
  1

  2

  4

  6

 40
0.0
 41
0.0
 42
0.0
 43
0.0
 44
0.0
 45
0.0
 46
0.0
 47
0.0
 48
0.0
 49
0.0
140
0.0
141
0.0
142
1.0
143
1.0
 70
   688
 72
     0
 73
     0
 74
     5
  7

 75
    16
 76
     0
 77
     2
 78
   300
147
1.0
148
0.0
149
0.0
100
AcDbLayout
  1
Layout1
 70
     1
 71
     1
 10
0.0
 20
0.0
 11
0.0
 21
0.0
 12
0.0
 22
0.0
 32
0.0
 14
0.0
 24
0.0
 34
0.0
 15
0.0
 25
0.0
 35
0.0
146
0.0
 13
0.0
 23
0.0
 33
0.0
 16
1.0
 26
0.0
 36
0.0
 17
0.0
 27
1.0
 37
0.0
 76
     0
330
1B
  0
LAYOUT
  5
26
102
{ACAD_REACTORS
330
1A
102
}
330
1A
100
AcDbPlotSettings
  1

  2

  4

  6

 40
0.0
 41
0.0
 42
0.0
 43
0.0
 44
0.0
 45
0.0
 46
0.0
 47
0.0
 48
0.0
 49
0.0
140
0.0
141
0.0
142
1.0
143
1.0
 70
   688
 72
     0
 73
     0
 74
     5
  7

 75
    16
 76
     0
 77
     2
 78
   300
147
1.0
148
0.0
149
0.0
100
AcDbLayout
  1
Layout2
 70
     1
 71
     2
 10
0.0
 20
0.0
 11
0.0
 21
0.0
 12
0.0
 22
0.0
 32
0.0
 14
0.0
 24
0.0
 34
0.0
 15
0.0
 25
0.0
 35
0.0
146
0.0
 13
0.0
 23
0.0
 33
0.0
 16
1.0
 26
0.0
 36
0.0
 17
0.0
 27
1.0
 37
0.0
 76
     0
330
23
  0
LAYOUT
  5
22
102
{ACAD_REACTORS
330
1A
102
}
330
1A
100
AcDbPlotSettings
  1

  2

  4

  6

 40
0.0
 41
0.0
 42
0.0
 43
0.0
 44
0.0
 45
0.0
 46
0.0
 47
0.0
 48
0.0
 49
0.0
140
0.0
141
0.0
142
1.0
143
1.0
 70
  1712
 72
     0
 73
     0
 74
     0
  7

 75
     0
 76
     0
 77
     2
 78
   300
147
1.0
148
0.0
149
0.0
100
AcDbLayout
  1
Model
 70
     1
 71
     0
 10
0.0
 20
0.0
 11
0.0
 21
0.0
 12
0.0
 22
0.0
 32
0.0
 14
-68.08118109832671
 24
-124.648659610564
 34
0.0
 15
45.06004135676099
 25
97.723539967709
 35
0.0
146
0.0
 13
0.0
 23
0.0
 33
0.0
 16
1.0
 26
0.0
 36
0.0
 17
0.0
 27
1.0
 37
0.0
 76
     0
330
1F
  0
MLINESTYLE
  5
18
102
{ACAD_REACTORS
330
17
102
}
330
17
100
AcDbMlineStyle
  2
Standard
 70
     0
  3

 62
   256
 51
90.0
 52
90.0
 71
     2
 49
0.5
 62
   256
  6
BYLAYER
 49
-0.5
 62
   256
  6
BYLAYER
  0
ACDBPLACEHOLDER
  5
F
102
{ACAD_REACTORS
330
E
102
}
330
E
  0
ENDSEC
  0
EOF
