  0
SECTION
  2
HEADER
  9
$ACADVER
  1
AC1018
  9
$ACADMAINTVER
 70
     0
  9
$DWGCODEPAGE
  3
ANSI_1252
  9
$INSBASE
 10
0.0
 20
0.0
 30
0.0
  9
$EXTMIN
 10
92.72937219154599
 20
-31.92498638056709
 30
0.0
  9
$EXTMAX
 10
198.276769164134
 20
83.7445859768342
 30
0.0
  9
$LIMMIN
 10
0.0
 20
0.0
  9
$LIMMAX
 10
12.0
 20
9.0
  9
$ORTHOMODE
 70
     0
  9
$REGENMODE
 70
     1
  9
$FILLMODE
 70
     1
  9
$QTEXTMODE
 70
     0
  9
$MIRRTEXT
 70
     1
  9
$LTSCALE
 40
1.0
  9
$ATTMODE
 70
     1
  9
$TEXTSIZE
 40
0.2
  9
$TRACEWID
 40
0.05
  9
$TEXTSTYLE
  7
Standard
  9
$CLAYER
  8
0
  9
$CELTYPE
  6
ByLayer
  9
$CECOLOR
 62
   256
  9
$CELTSCALE
 40
1.0
  9
$DISPSILH
 70
     0
  9
$DIMSCALE
 40
1.0
  9
$DIMASZ
 40
0.18
  9
$DIMEXO
 40
0.0625
  9
$DIMDLI
 40
0.38
  9
$DIMRND
 40
0.0
  9
$DIMDLE
 40
0.0
  9
$DIMEXE
 40
0.18
  9
$DIMTP
 40
0.0
  9
$DIMTM
 40
0.0
  9
$DIMTXT
 40
0.18
  9
$DIMCEN
 40
0.09
  9
$DIMTSZ
 40
0.0
  9
$DIMTOL
 70
     0
  9
$DIMLIM
 70
     0
  9
$DIMTIH
 70
     1
  9
$DIMTOH
 70
     1
  9
$DIMSE1
 70
     0
  9
$DIMSE2
 70
     0
  9
$DIMTAD
 70
     0
  9
$DIMZIN
 70
     0
  9
$DIMBLK
  1

  9
$DIMASO
 70
     1
  9
$DIMSHO
 70
     1
  9
$DIMPOST
  1

  9
$DIMAPOST
  1

  9
$DIMALT
 70
     0
  9
$DIMALTD
 70
     2
  9
$DIMALTF
 40
25.4
  9
$DIMLFAC
 40
1.0
  9
$DIMTOFL
 70
     0
  9
$DIMTVP
 40
0.0
  9
$DIMTIX
 70
     0
  9
$DIMSOXD
 70
     0
  9
$DIMSAH
 70
     0
  9
$DIMBLK1
  1

  9
$DIMBLK2
  1

  9
$DIMSTYLE
  2
Standard
  9
$DIMCLRD
 70
     0
  9
$DIMCLRE
 70
     0
  9
$DIMCLRT
 70
     0
  9
$DIMTFAC
 40
1.0
  9
$DIMGAP
 40
0.09
  9
$DIMJUST
 70
     0
  9
$DIMSD1
 70
     0
  9
$DIMSD2
 70
     0
  9
$DIMTOLJ
 70
     1
  9
$DIMTZIN
 70
     0
  9
$DIMALTZ
 70
     0
  9
$DIMALTTZ
 70
     0
  9
$DIMUPT
 70
     0
  9
$DIMDEC
 70
     4
  9
$DIMTDEC
 70
     4
  9
$DIMALTU
 70
     2
  9
$DIMALTTD
 70
     2
  9
$DIMTXSTY
  7
Standard
  9
$DIMAUNIT
 70
     0
  9
$DIMADEC
 70
     0
  9
$DIMALTRND
 40
0.0
  9
$DIMAZIN
 70
     0
  9
$DIMDSEP
 70
    46
  9
$DIMATFIT
 70
     3
  9
$DIMFRAC
 70
     0
  9
$DIMLDRBLK
  1

  9
$DIMLUNIT
 70
     2
  9
$DIMLWD
 70
    -2
  9
$DIMLWE
 70
    -2
  9
$DIMTMOVE
 70
     0
  9
$LUNITS
 70
     2
  9
$LUPREC
 70
     4
  9
$SKETCHINC
 40
0.1
  9
$FILLETRAD
 40
0.5
  9
$AUNITS
 70
     0
  9
$AUPREC
 70
     0
  9
$MENU
  1
.
  9
$ELEVATION
 40
0.0
  9
$PELEVATION
 40
0.0
  9
$THICKNESS
 40
0.0
  9
$LIMCHECK
 70
     0
  9
$CHAMFERA
 40
0.5
  9
$CHAMFERB
 40
0.5
  9
$CHAMFERC
 40
1.0
  9
$CHAMFERD
 40
0.0
  9
$SKPOLY
 70
     0
  9
$TDCREATE
 40
2454421.478806123
  9
$TDUCREATE
 40
2454421.437139456
  9
$TDUPDATE
 40
2454421.478806134
  9
$TDUUPDATE
 40
2454421.437139468
  9
$TDINDWG
 40
0.0000000116
  9
$TDUSRTIMER
 40
0.0000000116
  9
$USRTIMER
 70
     1
  9
$ANGBASE
 50
0.0
  9
$ANGDIR
 70
     0
  9
$PDMODE
 70
     0
  9
$PDSIZE
 40
0.0
  9
$PLINEWID
 40
0.0
  9
$SPLFRAME
 70
     0
  9
$SPLINETYPE
 70
     6
  9
$SPLINESEGS
 70
     8
  9
$HANDSEED
  5
9F
  9
$SURFTAB1
 70
     6
  9
$SURFTAB2
 70
     6
  9
$SURFTYPE
 70
     6
  9
$SURFU
 70
     6
  9
$SURFV
 70
     6
  9
$UCSBASE
  2

  9
$UCSNAME
  2

  9
$UCSORG
 10
0.0
 20
0.0
 30
0.0
  9
$UCSXDIR
 10
1.0
 20
0.0
 30
0.0
  9
$UCSYDIR
 10
0.0
 20
1.0
 30
0.0
  9
$UCSORTHOREF
  2

  9
$UCSORTHOVIEW
 70
     0
  9
$UCSORGTOP
 10
0.0
 20
0.0
 30
0.0
  9
$UCSORGBOTTOM
 10
0.0
 20
0.0
 30
0.0
  9
$UCSORGLEFT
 10
0.0
 20
0.0
 30
0.0
  9
$UCSORGRIGHT
 10
0.0
 20
0.0
 30
0.0
  9
$UCSORGFRONT
 10
0.0
 20
0.0
 30
0.0
  9
$UCSORGBACK
 10
0.0
 20
0.0
 30
0.0
  9
$PUCSBASE
  2

  9
$PUCSNAME
  2

  9
$PUCSORG
 10
0.0
 20
0.0
 30
0.0
  9
$PUCSXDIR
 10
1.0
 20
0.0
 30
0.0
  9
$PUCSYDIR
 10
0.0
 20
1.0
 30
0.0
  9
$PUCSORTHOREF
  2

  9
$PUCSORTHOVIEW
 70
     0
  9
$PUCSORGTOP
 10
0.0
 20
0.0
 30
0.0
  9
$PUCSORGBOTTOM
 10
0.0
 20
0.0
 30
0.0
  9
$PUCSORGLEFT
 10
0.0
 20
0.0
 30
0.0
  9
$PUCSORGRIGHT
 10
0.0
 20
0.0
 30
0.0
  9
$PUCSORGFRONT
 10
0.0
 20
0.0
 30
0.0
  9
$PUCSORGBACK
 10
0.0
 20
0.0
 30
0.0
  9
$USERI1
 70
     0
  9
$USERI2
 70
     0
  9
$USERI3
 70
     0
  9
$USERI4
 70
     0
  9
$USERI5
 70
     0
  9
$USERR1
 40
14.5
  9
$USERR2
 40
0.0
  9
$USERR3
 40
0.0
  9
$USERR4
 40
0.0
  9
$USERR5
 40
0.0
  9
$WORLDVIEW
 70
     1
  9
$SHADEDGE
 70
     3
  9
$SHADEDIF
 70
    70
  9
$TILEMODE
 70
     1
  9
$MAXACTVP
 70
    64
  9
$PINSBASE
 10
0.0
 20
0.0
 30
0.0
  9
$PLIMCHECK
 70
     0
  9
$PEXTMIN
 10
1.00000000000000E+20
 20
1.00000000000000E+20
 30
1.00000000000000E+20
  9
$PEXTMAX
 10
-1.00000000000000E+20
 20
-1.00000000000000E+20
 30
-1.00000000000000E+20
  9
$PLIMMIN
 10
0.0
 20
0.0
  9
$PLIMMAX
 10
12.0
 20
9.0
  9
$UNITMODE
 70
     0
  9
$VISRETAIN
 70
     1
  9
$PLINEGEN
 70
     0
  9
$PSLTSCALE
 70
     1
  9
$TREEDEPTH
 70
  3020
  9
$CMLSTYLE
  2
Standard
  9
$CMLJUST
 70
     0
  9
$CMLSCALE
 40
1.0
  9
$PROXYGRAPHICS
 70
     1
  9
$MEASUREMENT
 70
     1
  9
$CELWEIGHT
370
    -1
  9
$ENDCAPS
280
     0
  9
$JOINSTYLE
280
     0
  9
$LWDISPLAY
290
     0
  9
$INSUNITS
 70
     1
  9
$HYPERLINKBASE
  1

  9
$STYLESHEET
  1

  9
$XEDIT
290
     1
  9
$CEPSNTYPE
380
     0
  9
$PSTYLEMODE
290
     1
  9
$FINGERPRINTGUID
  2
{A1702B71-B932-4BD9-A51A-3F127AC58DEA}
  9
$VERSIONGUID
  2
{FAEB1C32-E019-11D5-929B-00C0DF256EC4}
  9
$EXTNAMES
290
     1
  9
$PSVPSCALE
 40
0.0
  9
$OLESTARTUP
290
     0
  9
$SORTENTS
280
   127
  9
$INDEXCTL
280
     0
  9
$HIDETEXT
280
     1
  9
$XCLIPFRAME
290
     0
  9
$HALOGAP
280
     0
  9
$OBSCOLOR
 70
   257
  9
$OBSLTYPE
280
     0
  9
$INTERSECTIONDISPLAY
280
     0
  9
$INTERSECTIONCOLOR
 70
   257
  9
$DIMASSOC
280
     2
  9
$PROJECTNAME
  1

  0
ENDSEC
  0
SECTION
  2
CLASSES
  0
CLASS
  1
ACDBDICTIONARYWDFLT
  2
AcDbDictionaryWithDefault
  3
ObjectDBX Classes
 90
        0
 91
        3
280
     0
281
     0
  0
ENDSEC
  0
SECTION
  2
TABLES
  0
TABLE
  2
VPORT
  5
8
330
0
100
AcDbSymbolTable
 70
     1
  0
VPORT
  5
29
330
8
100
AcDbSymbolTableRecord
100
AcDbViewportTableRecord
  2
*Active
 70
     0
 10
0.0
 20
0.0
 11
1.0
 21
1.0
 12
145.50307067784
 22
25.90979979813356
 13
0.0
 23
0.0
 14
0.5
 24
0.5
 15
0.5
 25
0.5
 16
0.0
 26
0.0
 36
1.0
 17
0.0
 27
0.0
 37
0.0
 40
127.2365295931414
 41
1.60267857142857
 42
50.0
 43
0.0
 44
0.0
 50
0.0
 51
0.0
 71
     0
 72
   100
 73
     1
 74
     3
 75
     0
 76
     0
 77
     0
 78
     0
281
     0
 65
     1
110
0.0
120
0.0
130
0.0
111
1.0
121
0.0
131
0.0
112
0.0
122
1.0
132
0.0
 79
     0
146
0.0
  0
ENDTAB
  0
TABLE
  2
LTYPE
  5
5
330
0
100
AcDbSymbolTable
 70
     8
  0
LTYPE
  5
14
330
5
100
AcDbSymbolTableRecord
100
AcDbLinetypeTableRecord
  2
ByBlock
 70
     0
  3

 72
    65
 73
     0
 40
0.0
  0
LTYPE
  5
15
330
5
100
AcDbSymbolTableRecord
100
AcDbLinetypeTableRecord
  2
ByLayer
 70
     0
  3

 72
    65
 73
     0
 40
0.0
  0
LTYPE
  5
16
330
5
100
AcDbSymbolTableRecord
100
AcDbLinetypeTableRecord
  2
Continuous
 70
     0
  3
Solid line
 72
    65
 73
     0
 40
0.0
  0
LTYPE
  5
2A
330
5
100
AcDbSymbolTableRecord
100
AcDbLinetypeTableRecord
  2
DASHED
 70
     0
  3
Dashed
 72
    65
 73
     2
 40
15.0
 49
7.0
 74
     0
 49
-8.0
 74
     0
  0
LTYPE
  5
2B
330
5
100
AcDbSymbolTableRecord
100
AcDbLinetypeTableRecord
  2
DOTTED
 70
     0
  3
Dotted
 72
    65
 73
     2
 40
1.0
 49
0.0
 74
     0
 49
-1.0
 74
     0
  0
LTYPE
  5
2C
330
5
100
AcDbSymbolTableRecord
100
AcDbLinetypeTableRecord
  2
DOT_CENTER
 70
     0
  3
Dot_Center
 72
    65
 73
     4
 40
14.0
 49
12.0
 74
     0
 49
-1.0
 74
     0
 49
0.0
 74
     0
 49
-1.0
 74
     0
  0
LTYPE
  5
2D
330
5
100
AcDbSymbolTableRecord
100
AcDbLinetypeTableRecord
  2
LONG_DASHED
 70
     0
  3
Long_Dashed
 72
    65
 73
     2
 40
15.0
 49
10.0
 74
     0
 49
-5.0
 74
     0
  0
LTYPE
  5
2E
330
5
100
AcDbSymbolTableRecord
100
AcDbLinetypeTableRecord
  2
DASH_CENTER
 70
     0
  3
Dash_Center
 72
    65
 73
     4
 40
14.0
 49
11.0
 74
     0
 49
-1.0
 74
     0
 49
1.0
 74
     0
 49
-1.0
 74
     0
  0
LTYPE
  5
2F
330
5
100
AcDbSymbolTableRecord
100
AcDbLinetypeTableRecord
  2
PHANTOM
 70
     0
  3
Phantom
 72
    65
 73
     6
 40
13.0
 49
10.0
 74
     0
 49
-1.0
 74
     0
 49
0.0
 74
     0
 49
-1.0
 74
     0
 49
0.0
 74
     0
 49
-1.0
 74
     0
  0
LTYPE
  5
30
330
5
100
AcDbSymbolTableRecord
100
AcDbLinetypeTableRecord
  2
CENTER_DASH_DASH
 70
     0
  3
Center_Dash_Dash
 72
    65
 73
     6
 40
14.0
 49
9.0
 74
     0
 49
-1.0
 74
     0
 49
1.0
 74
     0
 49
-1.0
 74
     0
 49
1.0
 74
     0
 49
-1.0
 74
     0
  0
ENDTAB
  0
TABLE
  2
LAYER
  5
2
330
0
100
AcDbSymbolTable
 70
     2
  0
LAYER
  5
10
330
2
100
AcDbSymbolTableRecord
100
AcDbLayerTableRecord
  2
0
 70
     0
 62
     7
  6
Continuous
370
    -3
390
F
  0
LAYER
  5
31
330
2
100
AcDbSymbolTableRecord
100
AcDbLayerTableRecord
  2
1
 70
     0
 62
     7
  6
Continuous
370
    -3
390
F
  0
ENDTAB
  0
TABLE
  2
STYLE
  5
3
330
0
100
AcDbSymbolTable
 70
     2
  0
STYLE
  5
11
330
3
100
AcDbSymbolTableRecord
100
AcDbTextStyleTableRecord
  2
Standard
 70
     0
 40
0.0
 41
1.0
 50
0.0
 71
     0
 42
0.2
  3
txt
  4

  0
STYLE
  5
6E
330
3
100
AcDbSymbolTableRecord
100
AcDbTextStyleTableRecord
  2
CONVERTER_11
 70
     0
 40
0.0
 41
0.9
 50
0.0
 71
     0
 42
0.2
  3
txt.shx
  4

  0
ENDTAB
  0
TABLE
  2
VIEW
  5
6
330
0
100
AcDbSymbolTable
 70
     0
  0
ENDTAB
  0
TABLE
  2
UCS
  5
7
330
0
100
AcDbSymbolTable
 70
     0
  0
ENDTAB
  0
TABLE
  2
APPID
  5
9
330
0
100
AcDbSymbolTable
 70
     1
  0
APPID
  5
12
330
9
100
AcDbSymbolTableRecord
100
AcDbRegAppTableRecord
  2
ACAD
 70
     0
  0
ENDTAB
  0
TABLE
  2
DIMSTYLE
  5
A
330
0
100
AcDbSymbolTable
 70
     5
100
AcDbDimStyleTable
  0
DIMSTYLE
105
27
330
A
100
AcDbSymbolTableRecord
100
AcDbDimStyleTableRecord
  2
Standard
 70
     0
340
11
  0
DIMSTYLE
105
7A
102
{ACAD_REACTORS
330
7B
102
}
330
A
100
AcDbSymbolTableRecord
100
AcDbDimStyleTableRecord
  2
ME10_DIM_10
 70
     0
 41
3.5
 42
0.0
 44
2.0
 73
     0
 74
     0
 77
     1
 78
     8
140
3.5
147
2.0
172
     1
173
     1
176
     2
177
     2
178
     2
271
     2
340
6E
  0
DIMSTYLE
105
85
102
{ACAD_REACTORS
330
86
102
}
330
A
100
AcDbSymbolTableRecord
100
AcDbDimStyleTableRecord
  2
ME10_DIM_11
 70
     0
 41
3.5
 42
0.0
 44
2.0
 73
     0
 74
     0
 77
     1
 78
     8
140
3.5
147
2.0
172
     1
173
     1
176
     2
177
     2
178
     2
271
     2
340
6E
  0
DIMSTYLE
105
90
102
{ACAD_REACTORS
330
91
102
}
330
A
100
AcDbSymbolTableRecord
100
AcDbDimStyleTableRecord
  2
ME10_DIM_12
 70
     0
  3
ø<>
 41
3.5
 42
0.0
 44
2.0
 73
     0
 74
     0
 77
     1
 78
     8
140
3.5
147
2.0
172
     1
173
     1
176
     2
177
     2
178
     2
271
     2
340
6E
  0
DIMSTYLE
105
9D
102
{ACAD_REACTORS
330
9E
102
}
330
A
100
AcDbSymbolTableRecord
100
AcDbDimStyleTableRecord
  2
ME10_DIM_13
 70
     0
  3
ø<>
 41
3.5
 42
0.0
 44
2.0
 73
     0
 74
     0
 77
     1
 78
     8
140
3.5
147
2.0
172
     1
173
     1
176
     2
177
     2
178
     2
271
     2
340
6E
  0
ENDTAB
  0
TABLE
  2
BLOCK_RECORD
  5
1
330
0
100
AcDbSymbolTable
 70
     5
  0
BLOCK_RECORD
  5
1F
330
1
100
AcDbSymbolTableRecord
100
AcDbBlockTableRecord
  2
*Model_Space
340
22
  0
BLOCK_RECORD
  5
1B
330
1
100
AcDbSymbolTableRecord
100
AcDbBlockTableRecord
  2
*Paper_Space
340
1E
  0
BLOCK_RECORD
  5
23
330
1
100
AcDbSymbolTableRecord
100
AcDbBlockTableRecord
  2
*Paper_Space0
340
26
  0
BLOCK_RECORD
  5
71
330
1
100
AcDbSymbolTableRecord
100
AcDbBlockTableRecord
  2
*D1
340
0
  0
BLOCK_RECORD
  5
7C
330
1
100
AcDbSymbolTableRecord
100
AcDbBlockTableRecord
  2
*D2
340
0
  0
BLOCK_RECORD
  5
87
330
1
100
AcDbSymbolTableRecord
100
AcDbBlockTableRecord
  2
*D3
340
0
  0
BLOCK_RECORD
  5
92
330
1
100
AcDbSymbolTableRecord
100
AcDbBlockTableRecord
  2
*D4
340
0
  0
ENDTAB
  0
ENDSEC
  0
SECTION
  2
BLOCKS
  0
BLOCK
  5
20
330
1F
100
AcDbEntity
  8
0
100
AcDbBlockBegin
  2
*Model_Space
 70
     0
 71
     0
 10
0.0
 20
0.0
 30
0.0
  3
*Model_Space
  1

  0
ENDBLK
  5
21
330
1F
100
AcDbEntity
  8
0
100
AcDbBlockEnd
  0
BLOCK
  5
1C
330
1B
100
AcDbEntity
 67
     1
  8
0
100
AcDbBlockBegin
  2
*Paper_Space
 70
     0
 71
     0
 10
0.0
 20
0.0
 30
0.0
  3
*Paper_Space
  1

  0
ENDBLK
  5
1D
330
1B
100
AcDbEntity
 67
     1
  8
0
100
AcDbBlockEnd
  0
BLOCK
  5
24
330
23
100
AcDbEntity
  8
0
100
AcDbBlockBegin
  2
*Paper_Space0
 70
     0
 71
     0
 10
0.0
 20
0.0
 30
0.0
  3
*Paper_Space0
  1

  0
ENDBLK
  5
25
330
23
100
AcDbEntity
  8
0
100
AcDbBlockEnd
  0
BLOCK
  5
78
330
71
100
AcDbEntity
  8
0
100
AcDbBlockBegin
  2
*D1
 70
     1
 71
     0
 10
0.0
 20
0.0
 30
0.0
  3
*D1
  1

  0
LINE
  5
72
330
71
100
AcDbEntity
  8
1
  6
Continuous
 62
     2
100
AcDbLine
 10
106.963243456551
 20
37.4602041892494
 30
0.0
 11
106.963243456551
 21
55.46020418924941
 31
0.0
  0
LINE
  5
73
330
71
100
AcDbEntity
  8
1
  6
Continuous
 62
     2
100
AcDbLine
 10
115.6461521651419
 20
55.46020418924941
 30
0.0
 11
104.963243456551
 21
55.46020418924941
 31
0.0
  0
LINE
  5
74
330
71
100
AcDbEntity
  8
1
  6
Continuous
 62
     2
100
AcDbLine
 10
110.148482876499
 20
37.4602041892494
 30
0.0
 11
104.963243456551
 21
37.4602041892494
 31
0.0
  0
SOLID
  5
75
330
71
100
AcDbEntity
  8
1
 62
     2
100
AcDbTrace
 10
107.4240271981069
 20
51.96020418924941
 30
0.0
 11
106.5024597149951
 21
51.96020418924941
 31
0.0
 12
106.963243456551
 22
55.46020418924941
 32
0.0
 13
106.963243456551
 23
55.46020418924941
 33
0.0
  0
SOLID
  5
76
330
71
100
AcDbEntity
  8
1
 62
     2
100
AcDbTrace
 10
106.5024597149951
 20
40.9602041892494
 30
0.0
 11
107.4240271981069
 21
40.9602041892494
 31
0.0
 12
106.963243456551
 22
37.4602041892494
 32
0.0
 13
106.963243456551
 23
37.4602041892494
 33
0.0
  0
MTEXT
  5
77
330
71
100
AcDbEntity
  8
1
 62
     2
100
AcDbMText
 10
104.963243456551
 20
44.97930778209301
 30
0.0
 40
3.5
 41
0.0
 71
     7
 72
     1
  1
18
  7
CONVERTER_11
 11
0.0
 21
1.0
 31
0.0
 73
     1
 44
0.60024009603842
  0
ENDBLK
  5
79
330
71
100
AcDbEntity
  8
0
100
AcDbBlockEnd
  0
BLOCK
  5
83
330
7C
100
AcDbEntity
  8
0
100
AcDbBlockBegin
  2
*D2
 70
     1
 71
     0
 10
0.0
 20
0.0
 30
0.0
  3
*D2
  1

  0
LINE
  5
7D
330
7C
100
AcDbEntity
  8
1
  6
Continuous
 62
     2
100
AcDbLine
 10
98.22937219154599
 20
-15.53979581075059
 30
0.0
 11
98.22937219154599
 21
55.4602041892494
 31
0.0
  0
LINE
  5
7E
330
7C
100
AcDbEntity
  8
1
  6
Continuous
 62
     2
100
AcDbLine
 10
115.6461521651419
 20
-15.53979581075059
 30
0.0
 11
96.22937219154599
 21
-15.53979581075059
 31
0.0
  0
LINE
  5
7F
330
7C
100
AcDbEntity
  8
1
  6
Continuous
 62
     2
100
AcDbLine
 10
115.6461521651419
 20
55.4602041892494
 30
0.0
 11
96.22937219154599
 21
55.4602041892494
 31
0.0
  0
SOLID
  5
80
330
7C
100
AcDbEntity
  8
1
 62
     2
100
AcDbTrace
 10
98.69015593310188
 20
51.9602041892494
 30
0.0
 11
97.7685884499901
 21
51.9602041892494
 31
0.0
 12
98.22937219154599
 22
55.4602041892494
 32
0.0
 13
98.22937219154599
 23
55.4602041892494
 33
0.0
  0
SOLID
  5
81
330
7C
100
AcDbEntity
  8
1
 62
     2
100
AcDbTrace
 10
97.7685884499901
 20
-12.03979581075059
 30
0.0
 11
98.69015593310188
 21
-12.03979581075059
 31
0.0
 12
98.22937219154599
 22
-15.53979581075059
 32
0.0
 13
98.22937219154599
 23
-15.53979581075059
 33
0.0
  0
MTEXT
  5
82
330
7C
100
AcDbEntity
  8
1
 62
     2
100
AcDbMText
 10
96.22937219154599
 20
17.7268704196106
 30
0.0
 40
3.5
 41
0.0
 71
     7
 72
     1
  1
71
  7
CONVERTER_11
 11
0.0
 21
1.0
 31
0.0
 73
     1
 44
0.60024009603842
  0
ENDBLK
  5
84
330
7C
100
AcDbEntity
  8
0
100
AcDbBlockEnd
  0
BLOCK
  5
8E
330
87
100
AcDbEntity
  8
0
100
AcDbBlockBegin
  2
*D3
 70
     1
 71
     0
 10
0.0
 20
0.0
 30
0.0
  3
*D3
  1

  0
LINE
  5
88
330
87
100
AcDbEntity
  8
1
  6
Continuous
 62
     2
100
AcDbLine
 10
166.4067344268079
 20
78.2445859768342
 30
0.0
 11
181.4067344268079
 21
78.2445859768342
 31
0.0
  0
LINE
  5
89
330
87
100
AcDbEntity
  8
1
  6
Continuous
 62
     2
100
AcDbLine
 10
166.4067344268079
 20
70.46020418924941
 30
0.0
 11
166.4067344268079
 21
80.2445859768342
 31
0.0
  0
LINE
  5
8A
330
87
100
AcDbEntity
  8
1
  6
Continuous
 62
     2
100
AcDbLine
 10
181.4067344268079
 20
70.46020418924941
 30
0.0
 11
181.4067344268079
 21
80.2445859768342
 31
0.0
  0
SOLID
  5
8B
330
87
100
AcDbEntity
  8
1
 62
     2
100
AcDbTrace
 10
169.9067344268079
 20
78.70536971839009
 30
0.0
 11
169.9067344268079
 21
77.78380223527832
 31
0.0
 12
166.4067344268079
 22
78.2445859768342
 32
0.0
 13
166.4067344268079
 23
78.2445859768342
 33
0.0
  0
SOLID
  5
8C
330
87
100
AcDbEntity
  8
1
 62
     2
100
AcDbTrace
 10
177.9067344268079
 20
77.78380223527832
 30
0.0
 11
177.9067344268079
 21
78.70536971839009
 31
0.0
 12
181.4067344268079
 22
78.2445859768342
 32
0.0
 13
181.4067344268079
 23
78.2445859768342
 33
0.0
  0
MTEXT
  5
8D
330
87
100
AcDbEntity
  8
1
 62
     2
100
AcDbMText
 10
171.8137296872684
 20
80.24457901975788
 30
0.0
 40
3.5
 41
0.0
 71
     7
 72
     1
  1
\C2;ø\C2;15
  7
CONVERTER_11
 11
0.9999999999970621
 21
2.424068405545307E-6
 31
0.0
 73
     1
 44
0.60024009603842
  0
ENDBLK
  5
8F
330
87
100
AcDbEntity
  8
0
100
AcDbBlockEnd
  0
BLOCK
  5
9B
330
92
100
AcDbEntity
  8
0
100
AcDbBlockBegin
  2
*D4
 70
     1
 71
     0
 10
0.0
 20
0.0
 30
0.0
  3
*D4
  1

  0
LINE
  5
93
330
92
100
AcDbEntity
  8
1
  6
Continuous
 62
     2
100
AcDbLine
 10
162.9067344268079
 20
9.5152939778522
 30
0.0
 11
169.9067344268079
 21
9.5152939778522
 31
0.0
  0
LINE
  5
94
330
92
100
AcDbEntity
  8
1
  6
Continuous
 62
     2
100
AcDbLine
 10
169.9067344268079
 20
9.5152939778522
 30
0.0
 11
177.9067344268079
 21
9.5152939778522
 31
0.0
  0
LINE
  5
95
330
92
100
AcDbEntity
  8
1
  6
Continuous
 62
     2
100
AcDbLine
 10
177.9067344268079
 20
9.5152939778522
 30
0.0
 11
189.358652441657
 21
9.5152939778522
 31
0.0
  0
LINE
  5
96
330
92
100
AcDbEntity
  8
1
  6
Continuous
 62
     2
100
AcDbLine
 10
169.9067344268079
 20
-4.53979581075058
 30
0.0
 11
169.9067344268079
 21
11.5152939778522
 31
0.0
  0
LINE
  5
97
330
92
100
AcDbEntity
  8
1
  6
Continuous
 62
     2
100
AcDbLine
 10
177.9067344268079
 20
-4.53979581075059
 30
0.0
 11
177.9067344268079
 21
11.5152939778522
 31
0.0
  0
SOLID
  5
98
330
92
100
AcDbEntity
  8
1
 62
     2
100
AcDbTrace
 10
166.4067344268079
 20
9.05451023629632
 30
0.0
 11
166.4067344268079
 21
9.97607771940809
 31
0.0
 12
169.9067344268079
 22
9.5152939778522
 32
0.0
 13
169.9067344268079
 23
9.5152939778522
 33
0.0
  0
SOLID
  5
99
330
92
100
AcDbEntity
  8
1
 62
     2
100
AcDbTrace
 10
181.4067344268079
 20
9.97607771940809
 30
0.0
 11
181.4067344268079
 21
9.05451023629631
 31
0.0
 12
177.9067344268079
 22
9.5152939778522
 32
0.0
 13
177.9067344268079
 23
9.5152939778522
 33
0.0
  0
MTEXT
  5
9A
330
92
100
AcDbEntity
  8
1
 62
     2
100
AcDbMText
 10
184.3886524416654
 20
11.51528702077588
 30
0.0
 40
3.5
 41
0.0
 71
     7
 72
     1
  1
\C2;ø\C2;8
  7
CONVERTER_11
 11
0.9999999999970621
 21
2.424068405545307E-6
 31
0.0
 73
     1
 44
0.60024009603842
  0
ENDBLK
  5
9C
330
92
100
AcDbEntity
  8
0
100
AcDbBlockEnd
  0
ENDSEC
  0
SECTION
  2
ENTITIES
  0
LINE
  5
32
330
1F
100
AcDbEntity
  8
1
  6
Continuous
 62
     7
100
AcDbLine
 10
166.4067344268079
 20
-4.53979581075059
 30
0.0
 11
166.4067344268079
 21
-11.51479581075073
 31
0.0
  0
LINE
  5
33
330
1F
100
AcDbEntity
  8
1
  6
Continuous
 62
     7
100
AcDbLine
 10
166.4067344268079
 20
-26.53979581075059
 30
0.0
 11
181.4067344268079
 21
-26.53979581075059
 31
0.0
  0
LINE
  5
34
330
1F
100
AcDbEntity
  8
1
  6
Continuous
 62
     7
100
AcDbLine
 10
181.4067344268079
 20
-4.53979581075059
 30
0.0
 11
166.4067344268079
 21
-4.53979581075059
 31
0.0
  0
LINE
  5
35
330
1F
100
AcDbEntity
  8
1
  6
Continuous
 62
     7
100
AcDbLine
 10
181.4067344268079
 20
-26.53979581075059
 30
0.0
 11
181.4067344268079
 21
-4.53979581075059
 31
0.0
  0
LINE
  5
36
330
1F
100
AcDbEntity
  8
1
  6
Continuous
 62
     7
100
AcDbLine
 10
166.4067344268079
 20
-19.56479581075068
 30
0.0
 11
166.4067344268079
 21
-26.53979581075059
 31
0.0
  0
LINE
  5
37
330
1F
100
AcDbEntity
  8
1
  6
Continuous
 62
     7
100
AcDbLine
 10
166.4067344268079
 20
66.46020418924941
 30
0.0
 11
166.4067344268079
 21
59.4852041892495
 31
0.0
  0
LINE
  5
38
330
1F
100
AcDbEntity
  8
1
  6
Continuous
 62
     7
100
AcDbLine
 10
166.4067344268079
 20
44.46020418924941
 30
0.0
 11
181.4067344268079
 21
44.46020418924941
 31
0.0
  0
LINE
  5
39
330
1F
100
AcDbEntity
  8
1
  6
Continuous
 62
     7
100
AcDbLine
 10
181.4067344268079
 20
66.46020418924941
 30
0.0
 11
166.4067344268079
 21
66.46020418924941
 31
0.0
  0
LINE
  5
3A
330
1F
100
AcDbEntity
  8
1
  6
Continuous
 62
     7
100
AcDbLine
 10
181.4067344268079
 20
44.46020418924941
 30
0.0
 11
181.4067344268079
 21
66.46020418924941
 31
0.0
  0
LINE
  5
3B
330
1F
100
AcDbEntity
  8
1
  6
Continuous
 62
     7
100
AcDbLine
 10
166.4067344268079
 20
51.43520418924938
 30
0.0
 11
166.4067344268079
 21
44.46020418924941
 31
0.0
  0
LINE
  5
3C
330
1F
100
AcDbEntity
  8
1
  6
Continuous
 62
     7
100
AcDbLine
 10
181.4067344268079
 20
-30.53979581075059
 30
0.0
 11
166.4067344268079
 21
-30.53979581075059
 31
0.0
  0
LINE
  5
3D
330
1F
100
AcDbEntity
  8
1
  6
Continuous
 62
     7
100
AcDbLine
 10
181.4067344268079
 20
-26.53979581075059
 30
0.0
 11
181.4067344268079
 21
-30.53979581075059
 31
0.0
  0
LINE
  5
3E
330
1F
100
AcDbEntity
  8
1
  6
Continuous
 62
     7
100
AcDbLine
 10
166.4067344268079
 20
-30.53979581075059
 30
0.0
 11
166.4067344268079
 21
-26.53979581075059
 31
0.0
  0
LINE
  5
3F
330
1F
100
AcDbEntity
  8
1
  6
DOT_CENTER
 62
     2
100
AcDbLine
 10
173.9067344268079
 20
-31.92498638056709
 30
0.0
 11
173.9067344268079
 21
71.51121232727033
 31
0.0
  0
LINE
  5
40
330
1F
100
AcDbEntity
  8
1
  6
Continuous
 62
     7
100
AcDbLine
 10
181.4067344268079
 20
70.46020418924941
 30
0.0
 11
166.4067344268079
 21
70.46020418924941
 31
0.0
  0
LINE
  5
41
330
1F
100
AcDbEntity
  8
1
  6
Continuous
 62
     7
100
AcDbLine
 10
181.4067344268079
 20
70.46020418924941
 30
0.0
 11
181.4067344268079
 21
66.46020418924941
 31
0.0
  0
LINE
  5
42
330
1F
100
AcDbEntity
  8
1
  6
Continuous
 62
     7
100
AcDbLine
 10
166.4067344268079
 20
66.46020418924941
 30
0.0
 11
166.4067344268079
 21
70.46020418924941
 31
0.0
  0
LINE
  5
43
330
1F
100
AcDbEntity
  8
1
  6
Continuous
 62
     7
100
AcDbLine
 10
177.9067344268079
 20
44.46020418924941
 30
0.0
 11
177.9067344268079
 21
-4.53979581075059
 31
0.0
  0
LINE
  5
44
330
1F
100
AcDbEntity
  8
1
  6
Continuous
 62
     7
100
AcDbLine
 10
169.9067344268079
 20
-4.53979581075058
 30
0.0
 11
169.9067344268079
 21
44.46020418924941
 31
0.0
  0
LINE
  5
45
330
1F
100
AcDbEntity
  8
1
  6
PHANTOM
 62
     7
100
AcDbLine
 10
198.276769164134
 20
37.4602041892494
 30
0.0
 11
110.148482876499
 21
37.4602041892494
 31
0.0
  0
LINE
  5
46
330
1F
100
AcDbEntity
  8
1
  6
DASH_CENTER
 62
     7
100
AcDbLine
 10
120.1387852343768
 20
-19.53979581075059
 30
0.0
 11
120.1387852343767
 21
-11.53979581075059
 31
0.0
  0
LINE
  5
47
330
1F
100
AcDbEntity
  8
1
  6
DASH_CENTER
 62
     7
100
AcDbLine
 10
120.1387852343769
 20
51.46020418924941
 30
0.0
 11
120.1387852343768
 21
59.46020418924941
 31
0.0
  0
LINE
  5
48
330
1F
100
AcDbEntity
  8
1
  6
Continuous
 62
     7
100
AcDbLine
 10
120.1387852343768
 20
-19.53979581075059
 30
0.0
 11
117.3397471287001
 21
-18.78979581075059
 31
0.0
  0
LINE
  5
49
330
1F
100
AcDbEntity
  8
1
  6
Continuous
 62
     7
100
AcDbLine
 10
116.4067344268079
 20
-12.53979581075059
 30
0.0
 11
117.3397471287001
 21
-12.28979581075059
 31
0.0
  0
LINE
  5
4A
330
1F
100
AcDbEntity
  8
1
  6
Continuous
 62
     7
100
AcDbLine
 10
120.1387852343769
 20
51.46020418924941
 30
0.0
 11
117.3397471287002
 21
52.21020418924941
 31
0.0
  0
LINE
  5
4B
330
1F
100
AcDbEntity
  8
1
  6
Continuous
 62
     7
100
AcDbLine
 10
116.4067344268079
 20
58.46020418924941
 30
0.0
 11
117.3397471287002
 21
58.71020418924941
 31
0.0
  0
LINE
  5
4C
330
1F
100
AcDbEntity
  8
1
  6
Continuous
 62
     7
100
AcDbLine
 10
164.4067344268079
 20
51.46020418924941
 30
0.0
 11
164.4067344268079
 21
52.21020418924941
 31
0.0
  0
LINE
  5
4D
330
1F
100
AcDbEntity
  8
1
  6
Continuous
 62
     2
100
AcDbLine
 10
117.3397471287002
 20
52.21020418924941
 30
0.0
 11
164.4067344268079
 21
52.21020418924941
 31
0.0
  0
LINE
  5
4E
330
1F
100
AcDbEntity
  8
1
  6
Continuous
 62
     7
100
AcDbLine
 10
164.4067344268079
 20
52.21020418924941
 30
0.0
 11
164.4067344268079
 21
58.71020418924941
 31
0.0
  0
LINE
  5
4F
330
1F
100
AcDbEntity
  8
1
  6
Continuous
 62
     2
100
AcDbLine
 10
117.3397471287002
 20
58.71020418924941
 30
0.0
 11
164.4067344268079
 21
58.71020418924941
 31
0.0
  0
LINE
  5
50
330
1F
100
AcDbEntity
  8
1
  6
Continuous
 62
     7
100
AcDbLine
 10
164.4067344268079
 20
51.43520418924938
 30
0.0
 11
164.4067344268079
 21
51.46020418924941
 31
0.0
  0
LINE
  5
51
330
1F
100
AcDbEntity
  8
1
  6
Continuous
 62
     7
100
AcDbLine
 10
164.4067344268079
 20
51.46020418924941
 30
0.0
 11
120.1387852343769
 21
51.46020418924941
 31
0.0
  0
LINE
  5
52
330
1F
100
AcDbEntity
  8
1
  6
Continuous
 62
     7
100
AcDbLine
 10
164.4067344268079
 20
58.71020418924941
 30
0.0
 11
164.4067344268079
 21
59.46020418924941
 31
0.0
  0
LINE
  5
53
330
1F
100
AcDbEntity
  8
1
  6
Continuous
 62
     7
100
AcDbLine
 10
164.4067344268079
 20
59.46020418924941
 30
0.0
 11
120.1387852343768
 21
59.46020418924941
 31
0.0
  0
LINE
  5
54
330
1F
100
AcDbEntity
  8
1
  6
DOT_CENTER
 62
     2
100
AcDbLine
 10
115.6461521651419
 20
55.46020418924941
 30
0.0
 11
167.50920343029
 21
55.46020418924941
 31
0.0
  0
LINE
  5
55
330
1F
100
AcDbEntity
  8
1
  6
Continuous
 62
     7
100
AcDbLine
 10
164.4067344268079
 20
59.46020418924941
 30
0.0
 11
164.4067344268079
 21
59.4852041892495
 31
0.0
  0
LINE
  5
56
330
1F
100
AcDbEntity
  8
1
  6
Continuous
 62
     7
100
AcDbLine
 10
117.3397471287002
 20
52.21020418924941
 30
0.0
 11
116.4067344268079
 21
52.46020418924941
 31
0.0
  0
LINE
  5
57
330
1F
100
AcDbEntity
  8
1
  6
Continuous
 62
     7
100
AcDbLine
 10
116.4067344268079
 20
52.46020418924941
 30
0.0
 11
116.4067344268079
 21
58.46020418924941
 31
0.0
  0
LINE
  5
58
330
1F
100
AcDbEntity
  8
1
  6
Continuous
 62
     7
100
AcDbLine
 10
117.3397471287002
 20
58.71020418924941
 30
0.0
 11
120.1387852343768
 21
59.46020418924941
 31
0.0
  0
LINE
  5
59
330
1F
100
AcDbEntity
  8
1
  6
Continuous
 62
     7
100
AcDbLine
 10
166.4067344268079
 20
59.4852041892495
 30
0.0
 11
164.4067344268079
 21
59.4852041892495
 31
0.0
  0
LINE
  5
5A
330
1F
100
AcDbEntity
  8
1
  6
Continuous
 62
     7
100
AcDbLine
 10
164.4067344268079
 20
51.43520418924938
 30
0.0
 11
166.4067344268079
 21
51.43520418924938
 31
0.0
  0
LINE
  5
5B
330
1F
100
AcDbEntity
  8
1
  6
Continuous
 62
     7
100
AcDbLine
 10
164.4067344268079
 20
-19.53979581075059
 30
0.0
 11
164.4067344268079
 21
-18.78979581075059
 31
0.0
  0
LINE
  5
5C
330
1F
100
AcDbEntity
  8
1
  6
Continuous
 62
     2
100
AcDbLine
 10
117.3397471287001
 20
-18.78979581075059
 30
0.0
 11
164.4067344268079
 21
-18.78979581075059
 31
0.0
  0
LINE
  5
5D
330
1F
100
AcDbEntity
  8
1
  6
Continuous
 62
     7
100
AcDbLine
 10
164.4067344268079
 20
-18.78979581075059
 30
0.0
 11
164.4067344268079
 21
-12.28979581075059
 31
0.0
  0
LINE
  5
5E
330
1F
100
AcDbEntity
  8
1
  6
Continuous
 62
     2
100
AcDbLine
 10
117.3397471287001
 20
-12.28979581075059
 30
0.0
 11
164.4067344268079
 21
-12.28979581075059
 31
0.0
  0
LINE
  5
5F
330
1F
100
AcDbEntity
  8
1
  6
Continuous
 62
     7
100
AcDbLine
 10
164.4067344268079
 20
-19.56479581075068
 30
0.0
 11
164.4067344268079
 21
-19.53979581075059
 31
0.0
  0
LINE
  5
60
330
1F
100
AcDbEntity
  8
1
  6
Continuous
 62
     7
100
AcDbLine
 10
164.4067344268079
 20
-19.53979581075059
 30
0.0
 11
120.1387852343768
 21
-19.53979581075059
 31
0.0
  0
LINE
  5
61
330
1F
100
AcDbEntity
  8
1
  6
Continuous
 62
     7
100
AcDbLine
 10
164.4067344268079
 20
-12.28979581075059
 30
0.0
 11
164.4067344268079
 21
-11.53979581075059
 31
0.0
  0
LINE
  5
62
330
1F
100
AcDbEntity
  8
1
  6
Continuous
 62
     7
100
AcDbLine
 10
164.4067344268079
 20
-11.53979581075059
 30
0.0
 11
120.1387852343767
 21
-11.53979581075059
 31
0.0
  0
LINE
  5
63
330
1F
100
AcDbEntity
  8
1
  6
DOT_CENTER
 62
     2
100
AcDbLine
 10
115.6461521651419
 20
-15.53979581075059
 30
0.0
 11
167.50920343029
 21
-15.53979581075059
 31
0.0
  0
LINE
  5
64
330
1F
100
AcDbEntity
  8
1
  6
Continuous
 62
     7
100
AcDbLine
 10
164.4067344268079
 20
-11.53979581075059
 30
0.0
 11
164.4067344268079
 21
-11.51479581075073
 31
0.0
  0
LINE
  5
65
330
1F
100
AcDbEntity
  8
1
  6
Continuous
 62
     7
100
AcDbLine
 10
117.3397471287001
 20
-18.78979581075059
 30
0.0
 11
116.4067344268079
 21
-18.53979581075059
 31
0.0
  0
LINE
  5
66
330
1F
100
AcDbEntity
  8
1
  6
Continuous
 62
     7
100
AcDbLine
 10
116.4067344268079
 20
-18.53979581075059
 30
0.0
 11
116.4067344268079
 21
-12.53979581075059
 31
0.0
  0
LINE
  5
67
330
1F
100
AcDbEntity
  8
1
  6
Continuous
 62
     7
100
AcDbLine
 10
117.3397471287001
 20
-12.28979581075059
 30
0.0
 11
120.1387852343767
 21
-11.53979581075059
 31
0.0
  0
LINE
  5
68
330
1F
100
AcDbEntity
  8
1
  6
Continuous
 62
     7
100
AcDbLine
 10
166.4067344268079
 20
-11.51479581075073
 30
0.0
 11
164.4067344268079
 21
-11.51479581075073
 31
0.0
  0
LINE
  5
69
330
1F
100
AcDbEntity
  8
1
  6
Continuous
 62
     7
100
AcDbLine
 10
164.4067344268079
 20
-19.56479581075068
 30
0.0
 11
166.4067344268079
 21
-19.56479581075068
 31
0.0
  0
ARC
  5
6A
330
1F
100
AcDbEntity
  8
1
  6
Continuous
 62
     7
100
AcDbCircle
 10
150.4561094268079
 20
55.46020418924941
 30
0.0
 40
16.450625
100
AcDbArc
 50
0.0
 51
14.16242448931773
  0
ARC
  5
6B
330
1F
100
AcDbEntity
  8
1
  6
Continuous
 62
     7
100
AcDbCircle
 10
150.4561094268079
 20
55.46020418924941
 30
0.0
 40
16.45062500000001
100
AcDbArc
 50
-14.16242448931751
 51
0.0
  0
ARC
  5
6C
330
1F
100
AcDbEntity
  8
1
  6
Continuous
 62
     7
100
AcDbCircle
 10
150.4561094268079
 20
-15.53979581075059
 30
0.0
 40
16.450625
100
AcDbArc
 50
0.0
 51
14.16242448931695
  0
ARC
  5
6D
330
1F
100
AcDbEntity
  8
1
  6
Continuous
 62
     7
100
AcDbCircle
 10
150.4561094268079
 20
-15.53979581075059
 30
0.0
 40
16.45062500000002
100
AcDbArc
 50
-14.16242448931773
 51
0.0
  0
MTEXT
  5
6F
330
1F
100
AcDbEntity
  8
1
 62
     2
100
AcDbMText
 10
193.4062720111842
 20
41.20179846750518
 30
0.0
 40
2.5
 41
0.0
 71
     5
 72
     1
  1
BBL
  7
CONVERTER_11
 73
     1
 44
1.32052821128451
  0
MTEXT
  5
70
330
1F
100
AcDbEntity
  8
1
 62
     2
100
AcDbMText
 10
142.081517384435
 20
64.47029386835301
 30
0.0
 40
3.5
 41
0.0
 71
     5
 72
     1
  1
M8x50
  7
CONVERTER_11
 73
     1
 44
1.32052821128451
  0
DIMENSION
  5
7B
330
1F
100
AcDbEntity
  8
1
100
AcDbDimension
  2
*D1
 10
106.963243456551
 20
55.46020418924941
 30
0.0
 11
103.213243456551
 21
47.07930778209301
 31
0.0
 70
    32
  1
<>
 71
     5
 42
-1.0
 53
90.0
  3
ME10_DIM_10
100
AcDbAlignedDimension
 13
110.148482876499
 23
37.4602041892494
 33
0.0
 14
115.6461521651419
 24
55.46020418924941
 34
0.0
 50
90.0
100
AcDbRotatedDimension
  0
DIMENSION
  5
86
330
1F
100
AcDbEntity
  8
1
100
AcDbDimension
  2
*D2
 10
98.22937219154599
 20
55.4602041892494
 30
0.0
 11
94.47937219154599
 21
19.8268704196106
 31
0.0
 70
    32
  1
<>
 71
     5
 42
-1.0
 53
90.0
  3
ME10_DIM_11
100
AcDbAlignedDimension
 13
115.6461521651419
 23
-15.53979581075059
 33
0.0
 14
115.6461521651419
 24
55.46020418924941
 34
0.0
 50
90.0
100
AcDbRotatedDimension
  0
DIMENSION
  5
91
330
1F
100
AcDbEntity
  8
1
100
AcDbDimension
  2
*D3
 10
166.4067344268079
 20
78.2445859768342
 30
0.0
 11
174.68372968726
 21
81.9945859768342
 31
0.0
 70
    32
  1
<>
 71
     5
 42
-1.0
 53
0.00013888888889
  3
ME10_DIM_12
100
AcDbAlignedDimension
 13
181.4067344268079
 23
70.46020418924941
 33
0.0
 14
166.4067344268079
 24
70.46020418924941
 34
0.0
100
AcDbRotatedDimension
  0
DIMENSION
  5
9E
330
1F
100
AcDbEntity
  8
1
100
AcDbDimension
  2
*D4
 10
169.9067344268079
 20
9.5152939778522
 30
0.0
 11
186.208652441657
 21
13.2652939778522
 31
0.0
 70
    33
  1
<>
 71
     5
 42
-1.0
 53
0.00013888888889
  3
ME10_DIM_13
100
AcDbAlignedDimension
 13
177.9067344268079
 23
-4.53979581075059
 33
0.0
 14
169.9067344268079
 24
-4.53979581075058
 34
0.0
  0
ENDSEC
  0
SECTION
  2
OBJECTS
  0
DICTIONARY
  5
C
330
0
100
AcDbDictionary
281
     1
  3
ACAD_GROUP
350
D
  3
ACAD_LAYOUT
350
1A
  3
ACAD_MLINESTYLE
350
17
  3
ACAD_PLOTSETTINGS
350
19
  3
ACAD_PLOTSTYLENAME
350
E
  0
DICTIONARY
  5
D
102
{ACAD_REACTORS
330
C
102
}
330
C
100
AcDbDictionary
281
     1
  0
DICTIONARY
  5
1A
102
{ACAD_REACTORS
330
C
102
}
330
C
100
AcDbDictionary
281
     1
  3
Layout1
350
1E
  3
Layout2
350
26
  3
Model
350
22
  0
DICTIONARY
  5
17
102
{ACAD_REACTORS
330
C
102
}
330
C
100
AcDbDictionary
281
     1
  3
Standard
350
18
  0
DICTIONARY
  5
19
102
{ACAD_REACTORS
330
C
102
}
330
C
100
AcDbDictionary
281
     1
  0
ACDBDICTIONARYWDFLT
  5
E
102
{ACAD_REACTORS
330
C
102
}
330
C
100
AcDbDictionary
281
     1
  3
Normal
350
F
100
AcDbDictionaryWithDefault
340
F
  0
LAYOUT
  5
1E
102
{ACAD_REACTORS
330
1A
102
}
330
1A
100
AcDbPlotSettings
  1

  2

  4

  6

 40
0.0
 41
0.0
 42
0.0
 43
0.0
 44
0.0
 45
0.0
 46
0.0
 47
0.0
 48
0.0
 49
0.0
140
0.0
141
0.0
142
1.0
143
1.0
 70
   688
 72
     0
 73
     0
 74
     5
  7

 75
    16
 76
     0
 77
     2
 78
   300
147
1.0
148
0.0
149
0.0
100
AcDbLayout
  1
Layout1
 70
     1
 71
     1
 10
0.0
 20
0.0
 11
0.0
 21
0.0
 12
0.0
 22
0.0
 32
0.0
 14
0.0
 24
0.0
 34
0.0
 15
0.0
 25
0.0
 35
0.0
146
0.0
 13
0.0
 23
0.0
 33
0.0
 16
1.0
 26
0.0
 36
0.0
 17
0.0
 27
1.0
 37
0.0
 76
     0
330
1B
  0
LAYOUT
  5
26
102
{ACAD_REACTORS
330
1A
102
}
330
1A
100
AcDbPlotSettings
  1

  2

  4

  6

 40
0.0
 41
0.0
 42
0.0
 43
0.0
 44
0.0
 45
0.0
 46
0.0
 47
0.0
 48
0.0
 49
0.0
140
0.0
141
0.0
142
1.0
143
1.0
 70
   688
 72
     0
 73
     0
 74
     5
  7

 75
    16
 76
     0
 77
     2
 78
   300
147
1.0
148
0.0
149
0.0
100
AcDbLayout
  1
Layout2
 70
     1
 71
     2
 10
0.0
 20
0.0
 11
0.0
 21
0.0
 12
0.0
 22
0.0
 32
0.0
 14
0.0
 24
0.0
 34
0.0
 15
0.0
 25
0.0
 35
0.0
146
0.0
 13
0.0
 23
0.0
 33
0.0
 16
1.0
 26
0.0
 36
0.0
 17
0.0
 27
1.0
 37
0.0
 76
     0
330
23
  0
LAYOUT
  5
22
102
{ACAD_REACTORS
330
1A
102
}
330
1A
100
AcDbPlotSettings
  1

  2

  4

  6

 40
0.0
 41
0.0
 42
0.0
 43
0.0
 44
0.0
 45
0.0
 46
0.0
 47
0.0
 48
0.0
 49
0.0
140
0.0
141
0.0
142
1.0
143
1.0
 70
  1712
 72
     0
 73
     0
 74
     0
  7

 75
     0
 76
     0
 77
     2
 78
   300
147
1.0
148
0.0
149
0.0
100
AcDbLayout
  1
Model
 70
     1
 71
     0
 10
0.0
 20
0.0
 11
0.0
 21
0.0
 12
0.0
 22
0.0
 32
0.0
 14
92.72937219154599
 24
-31.92498638056709
 34
0.0
 15
198.276769164134
 25
83.7445859768342
 35
0.0
146
0.0
 13
0.0
 23
0.0
 33
0.0
 16
1.0
 26
0.0
 36
0.0
 17
0.0
 27
1.0
 37
0.0
 76
     0
330
1F
  0
MLINESTYLE
  5
18
102
{ACAD_REACTORS
330
17
102
}
330
17
100
AcDbMlineStyle
  2
Standard
 70
     0
  3

 62
   256
 51
90.0
 52
90.0
 71
     2
 49
0.5
 62
   256
  6
BYLAYER
 49
-0.5
 62
   256
  6
BYLAYER
  0
ACDBPLACEHOLDER
  5
F
102
{ACAD_REACTORS
330
E
102
}
330
E
  0
ENDSEC
  0
EOF
