  0
SECTION
  2
HEADER
  9
$ACADVER
  1
AC1018
  9
$ACADMAINTVER
 70
     0
  9
$DWGCODEPAGE
  3
ANSI_1252
  9
$INSBASE
 10
0.0
 20
0.0
 30
0.0
  9
$EXTMIN
 10
-76.4524973769637
 20
-93.27504290447224
 30
0.0
  9
$EXTMAX
 10
55.27815215459785
 20
127.4070590130019
 30
0.0
  9
$LIMMIN
 10
0.0
 20
0.0
  9
$LIMMAX
 10
12.0
 20
9.0
  9
$ORTHOMODE
 70
     0
  9
$REGENMODE
 70
     1
  9
$FILLMODE
 70
     1
  9
$QTEXTMODE
 70
     0
  9
$MIRRTEXT
 70
     1
  9
$LTSCALE
 40
1.0
  9
$ATTMODE
 70
     1
  9
$TEXTSIZE
 40
0.2
  9
$TRACEWID
 40
0.05
  9
$TEXTSTYLE
  7
Standard
  9
$CLAYER
  8
0
  9
$CELTYPE
  6
ByLayer
  9
$CECOLOR
 62
   256
  9
$CELTSCALE
 40
1.0
  9
$DISPSILH
 70
     0
  9
$DIMSCALE
 40
1.0
  9
$DIMASZ
 40
0.18
  9
$DIMEXO
 40
0.0625
  9
$DIMDLI
 40
0.38
  9
$DIMRND
 40
0.0
  9
$DIMDLE
 40
0.0
  9
$DIMEXE
 40
0.18
  9
$DIMTP
 40
0.0
  9
$DIMTM
 40
0.0
  9
$DIMTXT
 40
0.18
  9
$DIMCEN
 40
0.09
  9
$DIMTSZ
 40
0.0
  9
$DIMTOL
 70
     0
  9
$DIMLIM
 70
     0
  9
$DIMTIH
 70
     1
  9
$DIMTOH
 70
     1
  9
$DIMSE1
 70
     0
  9
$DIMSE2
 70
     0
  9
$DIMTAD
 70
     0
  9
$DIMZIN
 70
     0
  9
$DIMBLK
  1

  9
$DIMASO
 70
     1
  9
$DIMSHO
 70
     1
  9
$DIMPOST
  1

  9
$DIMAPOST
  1

  9
$DIMALT
 70
     0
  9
$DIMALTD
 70
     2
  9
$DIMALTF
 40
25.4
  9
$DIMLFAC
 40
1.0
  9
$DIMTOFL
 70
     0
  9
$DIMTVP
 40
0.0
  9
$DIMTIX
 70
     0
  9
$DIMSOXD
 70
     0
  9
$DIMSAH
 70
     0
  9
$DIMBLK1
  1

  9
$DIMBLK2
  1

  9
$DIMSTYLE
  2
Standard
  9
$DIMCLRD
 70
     0
  9
$DIMCLRE
 70
     0
  9
$DIMCLRT
 70
     0
  9
$DIMTFAC
 40
1.0
  9
$DIMGAP
 40
0.09
  9
$DIMJUST
 70
     0
  9
$DIMSD1
 70
     0
  9
$DIMSD2
 70
     0
  9
$DIMTOLJ
 70
     1
  9
$DIMTZIN
 70
     0
  9
$DIMALTZ
 70
     0
  9
$DIMALTTZ
 70
     0
  9
$DIMUPT
 70
     0
  9
$DIMDEC
 70
     4
  9
$DIMTDEC
 70
     4
  9
$DIMALTU
 70
     2
  9
$DIMALTTD
 70
     2
  9
$DIMTXSTY
  7
Standard
  9
$DIMAUNIT
 70
     0
  9
$DIMADEC
 70
     0
  9
$DIMALTRND
 40
0.0
  9
$DIMAZIN
 70
     0
  9
$DIMDSEP
 70
    46
  9
$DIMATFIT
 70
     3
  9
$DIMFRAC
 70
     0
  9
$DIMLDRBLK
  1

  9
$DIMLUNIT
 70
     2
  9
$DIMLWD
 70
    -2
  9
$DIMLWE
 70
    -2
  9
$DIMTMOVE
 70
     0
  9
$LUNITS
 70
     2
  9
$LUPREC
 70
     4
  9
$SKETCHINC
 40
0.1
  9
$FILLETRAD
 40
0.5
  9
$AUNITS
 70
     0
  9
$AUPREC
 70
     0
  9
$MENU
  1
.
  9
$ELEVATION
 40
0.0
  9
$PELEVATION
 40
0.0
  9
$THICKNESS
 40
0.0
  9
$LIMCHECK
 70
     0
  9
$CHAMFERA
 40
0.5
  9
$CHAMFERB
 40
0.5
  9
$CHAMFERC
 40
1.0
  9
$CHAMFERD
 40
0.0
  9
$SKPOLY
 70
     0
  9
$TDCREATE
 40
2454726.380606192
  9
$TDUCREATE
 40
2454726.297272859
  9
$TDUPDATE
 40
2454726.380606204
  9
$TDUUPDATE
 40
2454726.29727287
  9
$TDINDWG
 40
0.0000000116
  9
$TDUSRTIMER
 40
0.0000000116
  9
$USRTIMER
 70
     1
  9
$ANGBASE
 50
0.0
  9
$ANGDIR
 70
     0
  9
$PDMODE
 70
     0
  9
$PDSIZE
 40
0.0
  9
$PLINEWID
 40
0.0
  9
$SPLFRAME
 70
     0
  9
$SPLINETYPE
 70
     6
  9
$SPLINESEGS
 70
     8
  9
$HANDSEED
  5
C4
  9
$SURFTAB1
 70
     6
  9
$SURFTAB2
 70
     6
  9
$SURFTYPE
 70
     6
  9
$SURFU
 70
     6
  9
$SURFV
 70
     6
  9
$UCSBASE
  2

  9
$UCSNAME
  2

  9
$UCSORG
 10
0.0
 20
0.0
 30
0.0
  9
$UCSXDIR
 10
1.0
 20
0.0
 30
0.0
  9
$UCSYDIR
 10
0.0
 20
1.0
 30
0.0
  9
$UCSORTHOREF
  2

  9
$UCSORTHOVIEW
 70
     0
  9
$UCSORGTOP
 10
0.0
 20
0.0
 30
0.0
  9
$UCSORGBOTTOM
 10
0.0
 20
0.0
 30
0.0
  9
$UCSORGLEFT
 10
0.0
 20
0.0
 30
0.0
  9
$UCSORGRIGHT
 10
0.0
 20
0.0
 30
0.0
  9
$UCSORGFRONT
 10
0.0
 20
0.0
 30
0.0
  9
$UCSORGBACK
 10
0.0
 20
0.0
 30
0.0
  9
$PUCSBASE
  2

  9
$PUCSNAME
  2

  9
$PUCSORG
 10
0.0
 20
0.0
 30
0.0
  9
$PUCSXDIR
 10
1.0
 20
0.0
 30
0.0
  9
$PUCSYDIR
 10
0.0
 20
1.0
 30
0.0
  9
$PUCSORTHOREF
  2

  9
$PUCSORTHOVIEW
 70
     0
  9
$PUCSORGTOP
 10
0.0
 20
0.0
 30
0.0
  9
$PUCSORGBOTTOM
 10
0.0
 20
0.0
 30
0.0
  9
$PUCSORGLEFT
 10
0.0
 20
0.0
 30
0.0
  9
$PUCSORGRIGHT
 10
0.0
 20
0.0
 30
0.0
  9
$PUCSORGFRONT
 10
0.0
 20
0.0
 30
0.0
  9
$PUCSORGBACK
 10
0.0
 20
0.0
 30
0.0
  9
$USERI1
 70
     0
  9
$USERI2
 70
     0
  9
$USERI3
 70
     0
  9
$USERI4
 70
     0
  9
$USERI5
 70
     0
  9
$USERR1
 40
14.5
  9
$USERR2
 40
0.0
  9
$USERR3
 40
0.0
  9
$USERR4
 40
0.0
  9
$USERR5
 40
0.0
  9
$WORLDVIEW
 70
     1
  9
$SHADEDGE
 70
     3
  9
$SHADEDIF
 70
    70
  9
$TILEMODE
 70
     1
  9
$MAXACTVP
 70
    64
  9
$PINSBASE
 10
0.0
 20
0.0
 30
0.0
  9
$PLIMCHECK
 70
     0
  9
$PEXTMIN
 10
1.00000000000000E+20
 20
1.00000000000000E+20
 30
1.00000000000000E+20
  9
$PEXTMAX
 10
-1.00000000000000E+20
 20
-1.00000000000000E+20
 30
-1.00000000000000E+20
  9
$PLIMMIN
 10
0.0
 20
0.0
  9
$PLIMMAX
 10
12.0
 20
9.0
  9
$UNITMODE
 70
     0
  9
$VISRETAIN
 70
     1
  9
$PLINEGEN
 70
     0
  9
$PSLTSCALE
 70
     1
  9
$TREEDEPTH
 70
  3020
  9
$CMLSTYLE
  2
Standard
  9
$CMLJUST
 70
     0
  9
$CMLSCALE
 40
1.0
  9
$PROXYGRAPHICS
 70
     1
  9
$MEASUREMENT
 70
     1
  9
$CELWEIGHT
370
    -1
  9
$ENDCAPS
280
     0
  9
$JOINSTYLE
280
     0
  9
$LWDISPLAY
290
     0
  9
$INSUNITS
 70
     1
  9
$HYPERLINKBASE
  1

  9
$STYLESHEET
  1

  9
$XEDIT
290
     1
  9
$CEPSNTYPE
380
     0
  9
$PSTYLEMODE
290
     1
  9
$FINGERPRINTGUID
  2
{7723B3A2-5B91-4CA1-A749-86561EBBDA77}
  9
$VERSIONGUID
  2
{FAEB1C32-E019-11D5-929B-00C0DF256EC4}
  9
$EXTNAMES
290
     1
  9
$PSVPSCALE
 40
0.0
  9
$OLESTARTUP
290
     0
  9
$SORTENTS
280
   127
  9
$INDEXCTL
280
     0
  9
$HIDETEXT
280
     1
  9
$XCLIPFRAME
290
     0
  9
$HALOGAP
280
     0
  9
$OBSCOLOR
 70
   257
  9
$OBSLTYPE
280
     0
  9
$INTERSECTIONDISPLAY
280
     0
  9
$INTERSECTIONCOLOR
 70
   257
  9
$DIMASSOC
280
     2
  9
$PROJECTNAME
  1

  0
ENDSEC
  0
SECTION
  2
CLASSES
  0
CLASS
  1
ACDBDICTIONARYWDFLT
  2
AcDbDictionaryWithDefault
  3
ObjectDBX Classes
 90
        0
 91
        3
280
     0
281
     0
  0
CLASS
  1

  2
exOdDbCircle
  3

 90
        0
 91
        3
280
     0
281
     1
  0
ENDSEC
  0
SECTION
  2
TABLES
  0
TABLE
  2
VPORT
  5
8
330
0
100
AcDbSymbolTable
 70
     1
  0
VPORT
  5
29
330
8
100
AcDbSymbolTableRecord
100
AcDbViewportTableRecord
  2
*Active
 70
     0
 10
0.0
 20
0.0
 11
1.0
 21
1.0
 12
-10.58717261118293
 22
17.06600805426483
 13
0.0
 23
0.0
 14
0.5
 24
0.5
 15
0.5
 25
0.5
 16
0.0
 26
0.0
 36
1.0
 17
0.0
 27
0.0
 37
0.0
 40
242.7503121092216
 41
1.60267857142857
 42
50.0
 43
0.0
 44
0.0
 50
0.0
 51
0.0
 71
     0
 72
   100
 73
     1
 74
     3
 75
     0
 76
     0
 77
     0
 78
     0
281
     0
 65
     1
110
0.0
120
0.0
130
0.0
111
1.0
121
0.0
131
0.0
112
0.0
122
1.0
132
0.0
 79
     0
146
0.0
  0
ENDTAB
  0
TABLE
  2
LTYPE
  5
5
330
0
100
AcDbSymbolTable
 70
     8
  0
LTYPE
  5
14
330
5
100
AcDbSymbolTableRecord
100
AcDbLinetypeTableRecord
  2
ByBlock
 70
     0
  3

 72
    65
 73
     0
 40
0.0
  0
LTYPE
  5
15
330
5
100
AcDbSymbolTableRecord
100
AcDbLinetypeTableRecord
  2
ByLayer
 70
     0
  3

 72
    65
 73
     0
 40
0.0
  0
LTYPE
  5
16
330
5
100
AcDbSymbolTableRecord
100
AcDbLinetypeTableRecord
  2
Continuous
 70
     0
  3
Solid line
 72
    65
 73
     0
 40
0.0
  0
LTYPE
  5
2A
330
5
100
AcDbSymbolTableRecord
100
AcDbLinetypeTableRecord
  2
DASHED
 70
     0
  3
Dashed
 72
    65
 73
     2
 40
15.0
 49
7.0
 74
     0
 49
-8.0
 74
     0
  0
LTYPE
  5
2B
330
5
100
AcDbSymbolTableRecord
100
AcDbLinetypeTableRecord
  2
DOTTED
 70
     0
  3
Dotted
 72
    65
 73
     2
 40
1.0
 49
0.0
 74
     0
 49
-1.0
 74
     0
  0
LTYPE
  5
2C
330
5
100
AcDbSymbolTableRecord
100
AcDbLinetypeTableRecord
  2
DOT_CENTER
 70
     0
  3
Dot_Center
 72
    65
 73
     4
 40
14.0
 49
12.0
 74
     0
 49
-1.0
 74
     0
 49
0.0
 74
     0
 49
-1.0
 74
     0
  0
LTYPE
  5
2D
330
5
100
AcDbSymbolTableRecord
100
AcDbLinetypeTableRecord
  2
LONG_DASHED
 70
     0
  3
Long_Dashed
 72
    65
 73
     2
 40
15.0
 49
10.0
 74
     0
 49
-5.0
 74
     0
  0
LTYPE
  5
2E
330
5
100
AcDbSymbolTableRecord
100
AcDbLinetypeTableRecord
  2
DASH_CENTER
 70
     0
  3
Dash_Center
 72
    65
 73
     4
 40
14.0
 49
11.0
 74
     0
 49
-1.0
 74
     0
 49
1.0
 74
     0
 49
-1.0
 74
     0
  0
LTYPE
  5
2F
330
5
100
AcDbSymbolTableRecord
100
AcDbLinetypeTableRecord
  2
PHANTOM
 70
     0
  3
Phantom
 72
    65
 73
     6
 40
13.0
 49
10.0
 74
     0
 49
-1.0
 74
     0
 49
0.0
 74
     0
 49
-1.0
 74
     0
 49
0.0
 74
     0
 49
-1.0
 74
     0
  0
LTYPE
  5
30
330
5
100
AcDbSymbolTableRecord
100
AcDbLinetypeTableRecord
  2
CENTER_DASH_DASH
 70
     0
  3
Center_Dash_Dash
 72
    65
 73
     6
 40
14.0
 49
9.0
 74
     0
 49
-1.0
 74
     0
 49
1.0
 74
     0
 49
-1.0
 74
     0
 49
1.0
 74
     0
 49
-1.0
 74
     0
  0
ENDTAB
  0
TABLE
  2
LAYER
  5
2
330
0
100
AcDbSymbolTable
 70
     2
  0
LAYER
  5
10
330
2
100
AcDbSymbolTableRecord
100
AcDbLayerTableRecord
  2
0
 70
     0
 62
     7
  6
Continuous
370
    -3
390
F
  0
LAYER
  5
31
330
2
100
AcDbSymbolTableRecord
100
AcDbLayerTableRecord
  2
1
 70
     0
 62
     7
  6
Continuous
370
    -3
390
F
  0
ENDTAB
  0
TABLE
  2
STYLE
  5
3
330
0
100
AcDbSymbolTable
 70
     2
  0
STYLE
  5
11
330
3
100
AcDbSymbolTableRecord
100
AcDbTextStyleTableRecord
  2
Standard
 70
     0
 40
0.0
 41
1.0
 50
0.0
 71
     0
 42
0.2
  3
txt
  4

  0
STYLE
  5
62
330
3
100
AcDbSymbolTableRecord
100
AcDbTextStyleTableRecord
  2
CONVERTER_11
 70
     0
 40
0.0
 41
0.9
 50
0.0
 71
     0
 42
0.2
  3
txt.shx
  4

  0
ENDTAB
  0
TABLE
  2
VIEW
  5
6
330
0
100
AcDbSymbolTable
 70
     0
  0
ENDTAB
  0
TABLE
  2
UCS
  5
7
330
0
100
AcDbSymbolTable
 70
     0
  0
ENDTAB
  0
TABLE
  2
APPID
  5
9
330
0
100
AcDbSymbolTable
 70
     1
  0
APPID
  5
12
330
9
100
AcDbSymbolTableRecord
100
AcDbRegAppTableRecord
  2
ACAD
 70
     0
  0
ENDTAB
  0
TABLE
  2
DIMSTYLE
  5
A
330
0
100
AcDbSymbolTable
 70
     9
100
AcDbDimStyleTable
  0
DIMSTYLE
105
27
330
A
100
AcDbSymbolTableRecord
100
AcDbDimStyleTableRecord
  2
Standard
 70
     0
340
11
  0
DIMSTYLE
105
6D
102
{ACAD_REACTORS
330
6E
102
}
330
A
100
AcDbSymbolTableRecord
100
AcDbDimStyleTableRecord
  2
ME10_DIM_10
 70
     0
 41
3.5
 42
0.0
 44
2.0
 73
     0
 74
     0
 77
     1
 78
     8
140
3.5
147
2.0
172
     1
173
     1
176
     2
177
     2
178
     2
271
     3
340
62
  0
DIMSTYLE
105
78
102
{ACAD_REACTORS
330
79
102
}
330
A
100
AcDbSymbolTableRecord
100
AcDbDimStyleTableRecord
  2
ME10_DIM_11
 70
     0
 41
3.5
 42
0.0
 44
2.0
 73
     0
 74
     0
 77
     1
 78
     8
140
3.5
147
2.0
172
     1
173
     1
176
     2
177
     2
178
     2
271
     3
340
62
  0
DIMSTYLE
105
85
102
{ACAD_REACTORS
330
86
102
}
330
A
100
AcDbSymbolTableRecord
100
AcDbDimStyleTableRecord
  2
ME10_DIM_12
 70
     0
  3
ø<>
 41
3.5
 42
0.0
 44
2.0
 73
     0
 74
     0
 77
     1
 78
     8
140
3.5
147
2.0
172
     1
173
     1
176
     2
177
     2
178
     2
271
     2
340
62
  0
DIMSTYLE
105
92
102
{ACAD_REACTORS
330
93
102
}
330
A
100
AcDbSymbolTableRecord
100
AcDbDimStyleTableRecord
  2
ME10_DIM_13
 70
     0
  3
ø<>
 41
3.5
 42
0.0
 44
2.0
 73
     0
 74
     0
 77
     1
 78
     8
140
3.5
147
2.0
172
     1
173
     1
176
     2
177
     2
178
     2
271
     2
340
62
  0
DIMSTYLE
105
9D
102
{ACAD_REACTORS
330
9E
102
}
330
A
100
AcDbSymbolTableRecord
100
AcDbDimStyleTableRecord
  2
ME10_DIM_14
 70
     0
 41
3.5
 42
0.0
 44
2.0
 73
     0
 74
     0
 77
     1
 78
     8
140
3.5
147
2.0
172
     1
173
     1
176
     2
177
     2
178
     2
271
     2
340
62
  0
DIMSTYLE
105
A8
102
{ACAD_REACTORS
330
A9
102
}
330
A
100
AcDbSymbolTableRecord
100
AcDbDimStyleTableRecord
  2
ME10_DIM_15
 70
     0
 41
3.5
 42
0.0
 44
2.0
 73
     0
 74
     0
 77
     1
 78
     8
140
3.5
147
2.0
172
     1
173
     1
176
     2
177
     2
178
     2
271
     2
340
62
  0
DIMSTYLE
105
B5
102
{ACAD_REACTORS
330
B6
102
}
330
A
100
AcDbSymbolTableRecord
100
AcDbDimStyleTableRecord
  2
ME10_DIM_16
 70
     0
 41
3.5
 42
0.0
 44
2.0
 73
     0
 74
     0
 77
     1
 78
     8
140
3.5
147
2.0
172
     1
173
     1
176
     2
177
     2
178
     2
271
     2
340
62
  0
DIMSTYLE
105
C2
102
{ACAD_REACTORS
330
C3
102
}
330
A
100
AcDbSymbolTableRecord
100
AcDbDimStyleTableRecord
  2
ME10_DIM_17
 70
     0
 41
3.5
 42
0.0
 44
2.0
 73
     0
 74
     0
 77
     1
 78
     8
140
3.5
147
2.0
172
     1
173
     1
176
     2
177
     2
178
     2
271
     3
340
62
  0
ENDTAB
  0
TABLE
  2
BLOCK_RECORD
  5
1
330
0
100
AcDbSymbolTable
 70
     9
  0
BLOCK_RECORD
  5
1F
330
1
100
AcDbSymbolTableRecord
100
AcDbBlockTableRecord
  2
*Model_Space
340
22
  0
BLOCK_RECORD
  5
1B
330
1
100
AcDbSymbolTableRecord
100
AcDbBlockTableRecord
  2
*Paper_Space
340
1E
  0
BLOCK_RECORD
  5
23
330
1
100
AcDbSymbolTableRecord
100
AcDbBlockTableRecord
  2
*Paper_Space0
340
26
  0
BLOCK_RECORD
  5
64
330
1
100
AcDbSymbolTableRecord
100
AcDbBlockTableRecord
  2
*D1
340
0
  0
BLOCK_RECORD
  5
6F
330
1
100
AcDbSymbolTableRecord
100
AcDbBlockTableRecord
  2
*D2
340
0
  0
BLOCK_RECORD
  5
7A
330
1
100
AcDbSymbolTableRecord
100
AcDbBlockTableRecord
  2
*D3
340
0
  0
BLOCK_RECORD
  5
87
330
1
100
AcDbSymbolTableRecord
100
AcDbBlockTableRecord
  2
*D4
340
0
  0
BLOCK_RECORD
  5
94
330
1
100
AcDbSymbolTableRecord
100
AcDbBlockTableRecord
  2
*D5
340
0
  0
BLOCK_RECORD
  5
9F
330
1
100
AcDbSymbolTableRecord
100
AcDbBlockTableRecord
  2
*D6
340
0
  0
BLOCK_RECORD
  5
AA
330
1
100
AcDbSymbolTableRecord
100
AcDbBlockTableRecord
  2
*D7
340
0
  0
BLOCK_RECORD
  5
B7
330
1
100
AcDbSymbolTableRecord
100
AcDbBlockTableRecord
  2
*D8
340
0
  0
ENDTAB
  0
ENDSEC
  0
SECTION
  2
BLOCKS
  0
BLOCK
  5
20
330
1F
100
AcDbEntity
  8
0
100
AcDbBlockBegin
  2
*Model_Space
 70
     0
 71
     0
 10
0.0
 20
0.0
 30
0.0
  3
*Model_Space
  1

  0
ENDBLK
  5
21
330
1F
100
AcDbEntity
  8
0
100
AcDbBlockEnd
  0
BLOCK
  5
1C
330
1B
100
AcDbEntity
 67
     1
  8
0
100
AcDbBlockBegin
  2
*Paper_Space
 70
     0
 71
     0
 10
0.0
 20
0.0
 30
0.0
  3
*Paper_Space
  1

  0
ENDBLK
  5
1D
330
1B
100
AcDbEntity
 67
     1
  8
0
100
AcDbBlockEnd
  0
BLOCK
  5
24
330
23
100
AcDbEntity
  8
0
100
AcDbBlockBegin
  2
*Paper_Space0
 70
     0
 71
     0
 10
0.0
 20
0.0
 30
0.0
  3
*Paper_Space0
  1

  0
ENDBLK
  5
25
330
23
100
AcDbEntity
  8
0
100
AcDbBlockEnd
  0
BLOCK
  5
6B
330
64
100
AcDbEntity
  8
0
100
AcDbBlockBegin
  2
*D1
 70
     1
 71
     0
 10
0.0
 20
0.0
 30
0.0
  3
*D1
  1

  0
LINE
  5
65
330
64
100
AcDbEntity
  8
1
  6
Continuous
 62
     2
100
AcDbLine
 10
44.3007208051118
 20
36.90705901300188
 30
0.0
 11
44.3007208051118
 21
107.9070590130019
 31
0.0
  0
LINE
  5
66
330
64
100
AcDbEntity
  8
1
  6
Continuous
 62
     2
100
AcDbLine
 10
23.66352117492555
 20
107.9070590130019
 30
0.0
 11
46.3007208051118
 21
107.9070590130019
 31
0.0
  0
LINE
  5
67
330
64
100
AcDbEntity
  8
1
  6
Continuous
 62
     2
100
AcDbLine
 10
23.66352117492555
 20
36.90705901300188
 30
0.0
 11
46.3007208051118
 21
36.90705901300188
 31
0.0
  0
SOLID
  5
68
330
64
100
AcDbEntity
  8
1
 62
     2
100
AcDbTrace
 10
44.76150454666769
 20
104.4070590130019
 30
0.0
 11
43.83993706355592
 21
104.4070590130019
 31
0.0
 12
44.3007208051118
 22
107.9070590130019
 32
0.0
 13
44.3007208051118
 23
107.9070590130019
 33
0.0
  0
SOLID
  5
69
330
64
100
AcDbEntity
  8
1
 62
     2
100
AcDbTrace
 10
43.83993706355592
 20
40.40705901300188
 30
0.0
 11
44.76150454666769
 21
40.40705901300188
 31
0.0
 12
44.3007208051118
 22
36.90705901300188
 32
0.0
 13
44.3007208051118
 23
36.90705901300188
 33
0.0
  0
MTEXT
  5
6A
330
64
100
AcDbEntity
  8
1
 62
     2
100
AcDbMText
 10
42.3007208051118
 20
67.77455225535101
 30
0.0
 40
3.5
 41
0.0
 71
     7
 72
     1
  1
71
  7
CONVERTER_11
 11
0.0
 21
1.0
 31
0.0
 73
     1
 44
0.60024009603842
  0
ENDBLK
  5
6C
330
64
100
AcDbEntity
  8
0
100
AcDbBlockEnd
  0
BLOCK
  5
76
330
6F
100
AcDbEntity
  8
0
100
AcDbBlockBegin
  2
*D2
 70
     1
 71
     0
 10
0.0
 20
0.0
 30
0.0
  3
*D2
  1

  0
LINE
  5
70
330
6F
100
AcDbEntity
  8
1
  6
Continuous
 62
     2
100
AcDbLine
 10
36.0449994176632
 20
89.90705901300188
 30
0.0
 11
36.0449994176632
 21
107.9070590130019
 31
0.0
  0
LINE
  5
71
330
6F
100
AcDbEntity
  8
1
  6
Continuous
 62
     2
100
AcDbLine
 10
23.66352117492556
 20
107.9070590130019
 30
0.0
 11
38.0449994176632
 21
107.9070590130019
 31
0.0
  0
LINE
  5
72
330
6F
100
AcDbEntity
  8
1
  6
Continuous
 62
     2
100
AcDbLine
 10
34.5056795613253
 20
89.90705901300188
 30
0.0
 11
38.0449994176632
 21
89.90705901300188
 31
0.0
  0
SOLID
  5
73
330
6F
100
AcDbEntity
  8
1
 62
     2
100
AcDbTrace
 10
35.58421567610731
 20
93.40705901300188
 30
0.0
 11
36.50578315921909
 21
93.40705901300188
 31
0.0
 12
36.0449994176632
 22
89.90705901300188
 32
0.0
 13
36.0449994176632
 23
89.90705901300188
 33
0.0
  0
SOLID
  5
74
330
6F
100
AcDbEntity
  8
1
 62
     2
100
AcDbTrace
 10
36.50578315921909
 20
104.4070590130019
 30
0.0
 11
35.58421567610731
 21
104.4070590130019
 31
0.0
 12
36.0449994176632
 22
107.9070590130019
 32
0.0
 13
36.0449994176632
 23
107.9070590130019
 33
0.0
  0
MTEXT
  5
75
330
6F
100
AcDbEntity
  8
1
 62
     2
100
AcDbMText
 10
34.0449994176632
 20
97.4618380875532
 30
0.0
 40
3.5
 41
0.0
 71
     7
 72
     1
  1
18
  7
CONVERTER_11
 11
0.0
 21
1.0
 31
0.0
 73
     1
 44
0.60024009603842
  0
ENDBLK
  5
77
330
6F
100
AcDbEntity
  8
0
100
AcDbBlockEnd
  0
BLOCK
  5
83
330
7A
100
AcDbEntity
  8
0
100
AcDbBlockBegin
  2
*D3
 70
     1
 71
     0
 10
0.0
 20
0.0
 30
0.0
  3
*D3
  1

  0
LINE
  5
7B
330
7A
100
AcDbEntity
  8
1
  6
Continuous
 62
     2
100
AcDbLine
 10
9.89873710591623
 20
4.56091903421501
 30
0.0
 11
16.81255549008219
 21
5.65596028949665
 31
0.0
  0
LINE
  5
7C
330
7A
100
AcDbEntity
  8
1
  6
Continuous
 62
     2
100
AcDbLine
 10
3.97260706234541
 20
3.6223122439736
 30
0.0
 11
9.89873710591623
 21
4.56091903421501
 31
0.0
  0
LINE
  5
7D
330
7A
100
AcDbEntity
  8
1
  6
Continuous
 62
     2
100
AcDbLine
 10
-6.432857102351
 20
1.9742486259311
 30
0.0
 11
3.97260706234541
 21
3.6223122439736
 31
0.0
  0
LINE
  5
7E
330
7A
100
AcDbEntity
  8
1
  6
Continuous
 62
     2
100
AcDbLine
 10
13.70486294469946
 20
-19.4700137454458
 30
0.0
 11
9.58586817583576
 21
6.53629571540529
 31
0.0
  0
LINE
  5
7F
330
7A
100
AcDbEntity
  8
1
  6
Continuous
 62
     2
100
AcDbLine
 10
7.77873290112864
 20
-20.40862053568721
 30
0.0
 11
3.65973813226494
 21
5.59768892516388
 31
0.0
  0
SOLID
  5
80
330
7A
100
AcDbEntity
  8
1
 62
     2
100
AcDbTrace
 10
0.58778032837196
 20
2.61968088726223
 30
0.0
 11
0.4436154121529
 21
3.52990234540333
 31
0.0
 12
3.97260706234541
 22
3.6223122439736
 32
0.0
 13
3.97260706234541
 23
3.6223122439736
 33
0.0
  0
SOLID
  5
81
330
7A
100
AcDbEntity
  8
1
 62
     2
100
AcDbTrace
 10
13.28356383988968
 20
5.56355039092638
 30
0.0
 11
13.42772875610874
 21
4.65332893278528
 31
0.0
 12
9.89873710591623
 22
4.56091903421501
 32
0.0
 13
9.89873710591623
 23
4.56091903421501
 33
0.0
  0
MTEXT
  5
82
330
7A
100
AcDbEntity
  8
1
 62
     2
100
AcDbMText
 10
-5.43210053943994
 20
4.15768314562489
 30
0.0
 40
3.5
 41
0.0
 71
     7
 72
     1
  1
\C2;ø\C2;6
  7
CONVERTER_11
 11
0.9876883405951371
 21
0.1564344650402348
 31
0.0
 73
     1
 44
0.60024009603842
  0
ENDBLK
  5
84
330
7A
100
AcDbEntity
  8
0
100
AcDbBlockEnd
  0
BLOCK
  5
90
330
87
100
AcDbEntity
  8
0
100
AcDbBlockBegin
  2
*D4
 70
     1
 71
     0
 10
0.0
 20
0.0
 30
0.0
  3
*D4
  1

  0
LINE
  5
88
330
87
100
AcDbEntity
  8
1
  6
Continuous
 62
     2
100
AcDbLine
 10
17.58282545091009
 20
-41.39752410428606
 30
0.0
 11
24.49664383507605
 21
-40.30248284900443
 31
0.0
  0
LINE
  5
89
330
87
100
AcDbEntity
  8
1
  6
Continuous
 62
     2
100
AcDbLine
 10
10.86654473486308
 20
-42.46127846655965
 30
0.0
 11
17.58282545091009
 21
-41.39752410428606
 31
0.0
  0
LINE
  5
8A
330
87
100
AcDbEntity
  8
1
  6
Continuous
 62
     2
100
AcDbLine
 10
-3.57490162401286
 20
-44.74857886558705
 30
0.0
 11
10.86654473486308
 21
-42.46127846655965
 31
0.0
  0
LINE
  5
8B
330
87
100
AcDbEntity
  8
1
  6
Continuous
 62
     2
100
AcDbLine
 10
15.66428293133986
 20
-29.28432336538114
 30
0.0
 11
17.89569438099056
 21
-43.37290078547634
 31
0.0
  0
LINE
  5
8C
330
87
100
AcDbEntity
  8
1
  6
Continuous
 62
     2
100
AcDbLine
 10
8.94800221529285
 20
-30.34807772765473
 30
0.0
 11
11.17941366494354
 21
-44.43665514774992
 31
0.0
  0
SOLID
  5
8D
330
87
100
AcDbEntity
  8
1
 62
     2
100
AcDbTrace
 10
7.48171800088963
 20
-43.46390982327102
 30
0.0
 11
7.33755308467057
 21
-42.55368836512991
 31
0.0
 12
10.86654473486308
 22
-42.46127846655965
 32
0.0
 13
10.86654473486308
 23
-42.46127846655965
 33
0.0
  0
SOLID
  5
8E
330
87
100
AcDbEntity
  8
1
 62
     2
100
AcDbTrace
 10
20.96765218488354
 20
-40.39489274757469
 30
0.0
 11
21.1118171011026
 21
-41.3051142057158
 31
0.0
 12
17.58282545091009
 22
-41.39752410428606
 32
0.0
 13
17.58282545091009
 23
-41.39752410428606
 33
0.0
  0
MTEXT
  5
8F
330
87
100
AcDbEntity
  8
1
 62
     2
100
AcDbMText
 10
-2.57414506110179
 20
-42.56514434589327
 30
0.0
 40
3.5
 41
0.0
 71
     7
 72
     1
  1
\C2;ø\C2;6.8
  7
CONVERTER_11
 11
0.9876883405951375
 21
0.1564344650402321
 31
0.0
 73
     1
 44
0.60024009603842
  0
ENDBLK
  5
91
330
87
100
AcDbEntity
  8
0
100
AcDbBlockEnd
  0
BLOCK
  5
9B
330
94
100
AcDbEntity
  8
0
100
AcDbBlockBegin
  2
*D5
 70
     1
 71
     0
 10
0.0
 20
0.0
 30
0.0
  3
*D5
  1

  0
LINE
  5
95
330
94
100
AcDbEntity
  8
1
  6
Continuous
 62
     2
100
AcDbLine
 10
45.48105222139606
 20
-14.4371597912097
 30
0.0
 11
53.30277547340757
 21
-63.82157682096664
 31
0.0
  0
LINE
  5
96
330
94
100
AcDbEntity
  8
1
  6
Continuous
 62
     2
100
AcDbLine
 10
18.56352117492556
 20
-69.32373417032343
 30
0.0
 11
55.27815215459785
 21
-63.50870789088619
 31
0.0
  0
LINE
  5
97
330
94
100
AcDbEntity
  8
1
  6
Continuous
 62
     2
100
AcDbLine
 10
13.70486294469946
 20
-19.4700137454458
 30
0.0
 11
47.45642890258634
 21
-14.12429086112925
 31
0.0
  0
SOLID
  5
98
330
94
100
AcDbEntity
  8
1
 62
     2
100
AcDbTrace
 10
52.30014411669622
 20
-60.43675008699319
 30
0.0
 11
53.21036557483733
 21
-60.29258517077412
 31
0.0
 12
53.30277547340757
 22
-63.82157682096664
 32
0.0
 13
53.30277547340757
 23
-63.82157682096664
 33
0.0
  0
SOLID
  5
99
330
94
100
AcDbEntity
  8
1
 62
     2
100
AcDbTrace
 10
46.48368357810741
 20
-17.82198652518316
 30
0.0
 11
45.57346211996631
 21
-17.96615144140221
 31
0.0
 12
45.48105222139606
 22
-14.4371597912097
 32
0.0
 13
45.48105222139606
 23
-14.4371597912097
 33
0.0
  0
MTEXT
  5
9A
330
94
100
AcDbEntity
  8
1
 62
     2
100
AcDbMText
 10
50.85178601592351
 20
-35.56173197832462
 30
0.0
 40
3.5
 41
0.0
 71
     7
 72
     1
  1
50
  7
CONVERTER_11
 11
0.1564344650402298
 21
-0.9876883405951381
 31
0.0
 73
     1
 44
0.60024009603842
  0
ENDBLK
  5
9C
330
94
100
AcDbEntity
  8
0
100
AcDbBlockEnd
  0
BLOCK
  5
A6
330
9F
100
AcDbEntity
  8
0
100
AcDbBlockBegin
  2
*D6
 70
     1
 71
     0
 10
0.0
 20
0.0
 30
0.0
  3
*D6
  1

  0
LINE
  5
A0
330
9F
100
AcDbEntity
  8
1
  6
Continuous
 62
     2
100
AcDbLine
 10
33.34993426716301
 20
-16.35854011890184
 30
0.0
 11
34.91427891756532
 21
-26.23542352485325
 31
0.0
  0
LINE
  5
A1
330
9F
100
AcDbEntity
  8
1
  6
Continuous
 62
     2
100
AcDbLine
 10
15.26920759510175
 20
-29.34689715139722
 30
0.0
 11
36.8896555987556
 21
-25.92255459477279
 31
0.0
  0
LINE
  5
A2
330
9F
100
AcDbEntity
  8
1
  6
Continuous
 62
     2
100
AcDbLine
 10
13.70486294469946
 20
-19.4700137454458
 30
0.0
 11
35.32531094835329
 21
-16.04567118882138
 31
0.0
  0
SOLID
  5
A3
330
9F
100
AcDbEntity
  8
1
 62
     2
100
AcDbTrace
 10
33.91164756085397
 20
-22.85059679087979
 30
0.0
 11
34.82186901899507
 21
-22.70643187466074
 31
0.0
 12
34.91427891756532
 22
-26.23542352485325
 32
0.0
 13
34.91427891756532
 23
-26.23542352485325
 33
0.0
  0
SOLID
  5
A4
330
9F
100
AcDbEntity
  8
1
 62
     2
100
AcDbTrace
 10
34.35256562387436
 20
-19.74336685287529
 30
0.0
 11
33.44234416573325
 21
-19.88753176909435
 31
0.0
 12
33.34993426716301
 22
-16.35854011890184
 32
0.0
 13
33.34993426716301
 23
-16.35854011890184
 33
0.0
  0
MTEXT
  5
A5
330
9F
100
AcDbEntity
  8
1
 62
     2
100
AcDbMText
 10
35.73958913544833
 20
-18.66132072008951
 30
0.0
 40
3.5
 41
0.0
 71
     7
 72
     1
  1
10
  7
CONVERTER_11
 11
0.15643446504023
 21
-0.9876883405951379
 31
0.0
 73
     1
 44
0.60024009603842
  0
ENDBLK
  5
A7
330
9F
100
AcDbEntity
  8
0
100
AcDbBlockEnd
  0
BLOCK
  5
B3
330
AA
100
AcDbEntity
  8
0
100
AcDbBlockBegin
  2
*D7
 70
     1
 71
     0
 10
0.0
 20
0.0
 30
0.0
  3
*D7
  1

  0
LINE
  5
AB
330
AA
100
AcDbEntity
  8
1
  6
Continuous
 62
     2
100
AcDbLine
 10
18.56352117492556
 20
-79.37914001417579
 30
0.0
 11
25.56352117492556
 21
-79.37914001417579
 31
0.0
  0
LINE
  5
AC
330
AA
100
AcDbEntity
  8
1
  6
Continuous
 62
     2
100
AcDbLine
 10
11.06352117492556
 20
-79.37914001417579
 30
0.0
 11
18.56352117492556
 21
-79.37914001417579
 31
0.0
  0
LINE
  5
AD
330
AA
100
AcDbEntity
  8
1
  6
Continuous
 62
     2
100
AcDbLine
 10
0.5072831807824
 20
-79.37914001417579
 30
0.0
 11
11.06352117492556
 21
-79.37914001417579
 31
0.0
  0
LINE
  5
AE
330
AA
100
AcDbEntity
  8
1
  6
Continuous
 62
     2
100
AcDbLine
 10
18.56352117492556
 20
-69.32373417032343
 30
0.0
 11
18.56352117492556
 21
-81.37914001417579
 31
0.0
  0
LINE
  5
AF
330
AA
100
AcDbEntity
  8
1
  6
Continuous
 62
     2
100
AcDbLine
 10
11.06352117492556
 20
-69.32373417032343
 30
0.0
 11
11.06352117492556
 21
-81.37914001417579
 31
0.0
  0
SOLID
  5
B0
330
AA
100
AcDbEntity
  8
1
 62
     2
100
AcDbTrace
 10
7.56352117492556
 20
-79.83992375573168
 30
0.0
 11
7.56352117492556
 21
-78.9183562726199
 31
0.0
 12
11.06352117492556
 22
-79.37914001417579
 32
0.0
 13
11.06352117492556
 23
-79.37914001417579
 33
0.0
  0
SOLID
  5
B1
330
AA
100
AcDbEntity
  8
1
 62
     2
100
AcDbTrace
 10
22.06352117492556
 20
-78.9183562726199
 30
0.0
 11
22.06352117492556
 21
-79.83992375573168
 31
0.0
 12
18.56352117492556
 22
-79.37914001417579
 32
0.0
 13
18.56352117492556
 23
-79.37914001417579
 33
0.0
  0
MTEXT
  5
B2
330
AA
100
AcDbEntity
  8
1
 62
     2
100
AcDbMText
 10
0.5072831807824
 20
-77.37914001417579
 30
0.0
 40
3.5
 41
0.0
 71
     7
 72
     1
  1
7.5
  7
CONVERTER_11
 11
0.9999999999970621
 21
2.424068405545307E-6
 31
0.0
 73
     1
 44
0.60024009603842
  0
ENDBLK
  5
B4
330
AA
100
AcDbEntity
  8
0
100
AcDbBlockEnd
  0
BLOCK
  5
C0
330
B7
100
AcDbEntity
  8
0
100
AcDbBlockBegin
  2
*D8
 70
     1
 71
     0
 10
0.0
 20
0.0
 30
0.0
  3
*D8
  1

  0
LINE
  5
B8
330
B7
100
AcDbEntity
  8
1
  6
Continuous
 62
     2
100
AcDbLine
 10
18.84822711012904
 20
-71.12129669995146
 30
0.0
 11
21.99746241368495
 21
-91.00478586784644
 31
0.0
  0
LINE
  5
B9
330
B7
100
AcDbEntity
  8
1
  6
Continuous
 62
     2
100
AcDbLine
 10
18.56352117492556
 20
-70.25487485513483
 30
0.0
 11
18.56352117492556
 21
-91.27504290447224
 31
0.0
  0
LINE
  5
BA
330
B7
100
AcDbEntity
  8
1
  6
Continuous
 62
     2
100
AcDbLine
 10
21.99746241368495
 20
-91.00478586784644
 30
0.0
 11
22.3103313437654
 21
-92.98016254903672
 31
0.0
  0
LINE
  5
BB
330
B7
100
AcDbEntity
  8
1
  6
Continuous
 62
     2
100
AcDbLine
 10
18.56352117492556
 20
-91.27504290447224
 30
0.0
 11
18.56352117492556
 21
-93.27504290447224
 31
0.0
  0
ARC
  5
BC
330
B7
100
AcDbEntity
  8
1
  6
Continuous
 62
     2
100
AcDbCircle
 10
18.56352117492556
 20
-69.32373417032343
 30
0.0
 40
21.9513087341488
100
AcDbArc
 50
-112.3293170848531
 51
-67.29681509714601
  0
SOLID
  5
BD
330
B7
100
AcDbEntity
  8
1
 62
     2
100
AcDbTrace
 10
15.03794189698508
 20
-91.45563197235545
 30
0.0
 11
15.1113332076278
 21
-90.53699148693632
 31
0.0
 12
18.56352117492556
 22
-91.27504290447224
 32
0.0
 13
18.56352117492556
 23
-91.27504290447224
 33
0.0
  0
SOLID
  5
BE
330
B7
100
AcDbEntity
  8
1
 62
     2
100
AcDbTrace
 10
25.29169153985337
 20
-89.73577991010396
 30
0.0
 11
25.50788631457701
 21
-90.63162947633211
 31
0.0
 12
21.99746241368495
 22
-91.00478586784644
 32
0.0
 13
21.99746241368495
 23
-91.00478586784644
 33
0.0
  0
MTEXT
  5
BF
330
B7
100
AcDbEntity
  8
1
 62
     2
100
AcDbMText
 10
11.37997552219532
 20
-88.07545454634395
 30
0.0
 40
3.5
 41
0.0
 71
     7
 72
     1
  1
9{\Fgdt;~}
  7
CONVERTER_11
 11
0.9683396438815973
 21
-0.2496364037700858
 31
0.0
 73
     1
 44
0.60024009603842
  0
ENDBLK
  5
C1
330
B7
100
AcDbEntity
  8
0
100
AcDbBlockEnd
  0
ENDSEC
  0
SECTION
  2
ENTITIES
  0
POINT
  5
32
330
1F
100
AcDbEntity
  8
1
 62
     3
 60
     1
100
AcDbPoint
 10
-76.4524973769637
 20
112.151874466784
 30
0.0
  0
POINT
  5
33
330
1F
100
AcDbEntity
  8
1
 62
     3
 60
     1
100
AcDbPoint
 10
-32.45249737696371
 20
112.151874466784
 30
0.0
  0
POINT
  5
34
330
1F
100
AcDbEntity
  8
1
 62
     3
 60
     1
100
AcDbPoint
 10
-15.7987649413919
 20
89.90705901300188
 30
0.0
  0
LINE
  5
35
330
1F
100
AcDbEntity
  8
1
  6
DOT_CENTER
 62
     2
100
AcDbLine
 10
13.46352117492556
 20
36.90705901300188
 30
0.0
 11
23.66352117492556
 21
36.90705901300188
 31
0.0
  0
LINE
  5
36
330
1F
100
AcDbEntity
  8
1
  6
DOT_CENTER
 62
     2
100
AcDbLine
 10
18.56352117492556
 20
31.80705901300189
 30
0.0
 11
18.56352117492556
 21
42.00705901300189
 31
0.0
  0
LINE
  5
37
330
1F
100
AcDbEntity
  8
1
  6
PHANTOM
 62
     7
100
AcDbLine
 10
-18.4594702620336
 20
89.90705901300188
 30
0.0
 11
-15.7987649413919
 21
89.90705901300188
 31
0.0
  0
LINE
  5
38
330
1F
100
AcDbEntity
  8
1
  6
DOT_CENTER
 62
     2
100
AcDbLine
 10
18.56352117492556
 20
102.8070590130019
 30
0.0
 11
18.56352117492556
 21
113.0070590130019
 31
0.0
  0
LINE
  5
39
330
1F
100
AcDbEntity
  8
1
  6
DOT_CENTER
 62
     2
100
AcDbLine
 10
13.46352117492556
 20
107.9070590130019
 30
0.0
 11
23.66352117492556
 21
107.9070590130019
 31
0.0
  0
LINE
  5
3A
330
1F
100
AcDbEntity
  8
1
  6
Continuous
 62
     7
100
AcDbLine
 10
25.06352117492557
 20
17.4070590130019
 30
0.0
 11
25.06352117492557
 21
127.4070590130019
 31
0.0
  0
LINE
  5
3B
330
1F
100
AcDbEntity
  8
1
  6
DOT_CENTER
 62
     2
100
AcDbLine
 10
11.06352117492556
 20
127.4070590130019
 30
0.0
 11
-13.93647882507447
 21
127.4070590130019
 31
0.0
  0
LINE
  5
3C
330
1F
100
AcDbEntity
  8
1
  6
DOT_CENTER
 62
     2
100
AcDbLine
 10
11.06352117492556
 20
17.4070590130019
 30
0.0
 11
-13.93647882507447
 21
17.4070590130019
 31
0.0
  0
LINE
  5
3D
330
1F
100
AcDbEntity
  8
1
  6
Continuous
 62
     7
100
AcDbLine
 10
11.06352117492556
 20
127.4070590130019
 30
0.0
 11
11.06352117492556
 21
17.4070590130019
 31
0.0
  0
LINE
  5
3E
330
1F
100
AcDbEntity
  8
1
  6
Continuous
 62
     7
100
AcDbLine
 10
-13.93647882507447
 20
17.4070590130019
 30
0.0
 11
-13.93647882507447
 21
127.4070590130019
 31
0.0
  0
LINE
  5
3F
330
1F
100
AcDbEntity
  8
1
  6
DOT_CENTER
 62
     2
100
AcDbLine
 10
27.83337709651755
 20
127.4070590130019
 30
0.0
 11
25.06352117492557
 21
127.4070590130019
 31
0.0
  0
LINE
  5
40
330
1F
100
AcDbEntity
  8
1
  6
DOT_CENTER
 62
     2
100
AcDbLine
 10
25.06352117492557
 20
127.4070590130019
 30
0.0
 11
11.06352117492556
 21
127.4070590130019
 31
0.0
  0
LINE
  5
41
330
1F
100
AcDbEntity
  8
1
  6
DOT_CENTER
 62
     2
100
AcDbLine
 10
-13.93647882507447
 20
127.4070590130019
 30
0.0
 11
-16.85222700376847
 21
127.4070590130019
 31
0.0
  0
LINE
  5
42
330
1F
100
AcDbEntity
  8
1
  6
DOT_CENTER
 62
     2
100
AcDbLine
 10
-13.93647882507447
 20
17.4070590130019
 30
0.0
 11
-16.85222700376847
 21
17.4070590130019
 31
0.0
  0
LINE
  5
43
330
1F
100
AcDbEntity
  8
1
  6
DOT_CENTER
 62
     2
100
AcDbLine
 10
25.06352117492557
 20
17.4070590130019
 30
0.0
 11
11.06352117492556
 21
17.4070590130019
 31
0.0
  0
LINE
  5
44
330
1F
100
AcDbEntity
  8
1
  6
DOT_CENTER
 62
     2
100
AcDbLine
 10
27.83337709651755
 20
17.4070590130019
 30
0.0
 11
25.06352117492557
 21
17.4070590130019
 31
0.0
  0
LINE
  5
45
330
1F
100
AcDbEntity
  8
1
  6
Continuous
 62
     7
100
AcDbLine
 10
11.06352117492556
 20
-69.32373417032343
 30
0.0
 11
15.12113974724635
 21
-69.32373417032343
 31
0.0
  0
LINE
  5
46
330
1F
100
AcDbEntity
  8
1
  6
Continuous
 62
     7
100
AcDbLine
 10
15.12113974724635
 20
-69.32373417032343
 30
0.0
 11
8.94800221529285
 21
-30.34807772765473
 31
0.0
  0
LINE
  5
47
330
1F
100
AcDbEntity
  8
1
  6
Continuous
 62
     7
100
AcDbLine
 10
8.94800221529285
 20
-30.34807772765473
 30
0.0
 11
9.34307755153096
 21
-30.28550394163863
 31
0.0
  0
LINE
  5
48
330
1F
100
AcDbEntity
  8
1
  6
Continuous
 62
     7
100
AcDbLine
 10
15.66428293133986
 20
-29.28432336538113
 30
0.0
 11
22.00590260260474
 21
-69.32373417032343
 31
0.0
  0
LINE
  5
49
330
1F
100
AcDbEntity
  8
1
  6
Continuous
 62
     7
100
AcDbLine
 10
15.26920759510175
 20
-29.34689715139722
 30
0.0
 11
13.70486294469946
 21
-19.4700137454458
 31
0.0
  0
LINE
  5
4A
330
1F
100
AcDbEntity
  8
1
  6
Continuous
 62
     7
100
AcDbLine
 10
13.70486294469946
 20
-19.4700137454458
 30
0.0
 11
7.77873290112864
 21
-20.40862053568721
 31
0.0
  0
LINE
  5
4B
330
1F
100
AcDbEntity
  8
1
  6
Continuous
 62
     7
100
AcDbLine
 10
7.77873290112864
 20
-20.40862053568721
 30
0.0
 11
9.34307755153096
 21
-30.28550394163863
 31
0.0
  0
LINE
  5
4C
330
1F
100
AcDbEntity
  8
1
  6
DOT_CENTER
 62
     2
100
AcDbLine
 10
9.97552884433525
 20
-15.10128458504116
 30
0.0
 11
10.74179792291405
 21
-19.93931714056654
 31
0.0
  0
LINE
  5
4D
330
1F
100
AcDbEntity
  8
1
  6
Continuous
 62
     7
100
AcDbLine
 10
11.06352117492556
 20
-56.32373417032343
 30
0.0
 11
11.06352117492556
 21
-69.32373417032343
 31
0.0
  0
LINE
  5
4E
330
1F
100
AcDbEntity
  8
1
  6
Continuous
 62
     7
100
AcDbLine
 10
25.06352117492556
 20
-69.32373417032343
 30
0.0
 11
25.06352117492557
 21
-4.32373417032355
 31
0.0
  0
LINE
  5
4F
330
1F
100
AcDbEntity
  8
1
  6
Continuous
 62
     7
100
AcDbLine
 10
11.06352117492556
 20
-56.32373417032343
 30
0.0
 11
-13.93647882507447
 21
-56.32373417032343
 31
0.0
  0
LINE
  5
50
330
1F
100
AcDbEntity
  8
1
  6
Continuous
 62
     7
100
AcDbLine
 10
-13.93647882507447
 20
-4.32373417032355
 30
0.0
 11
-13.93647882507447
 21
-56.32373417032343
 31
0.0
  0
LINE
  5
51
330
1F
100
AcDbEntity
  8
1
  6
DOT_CENTER
 62
     2
100
AcDbLine
 10
27.83337709651755
 20
-4.32373417032355
 30
0.0
 11
25.06352117492557
 21
-4.32373417032355
 31
0.0
  0
LINE
  5
52
330
1F
100
AcDbEntity
  8
1
  6
Continuous
 62
     7
100
AcDbLine
 10
10.47084548140955
 20
-18.22859075261235
 30
0.0
 11
7.77873290112864
 21
-20.40862053568721
 31
0.0
  0
LINE
  5
53
330
1F
100
AcDbEntity
  8
1
  6
Continuous
 62
     7
100
AcDbLine
 10
13.70486294469946
 20
-19.4700137454458
 30
0.0
 11
10.47084548140955
 21
-18.22859075261235
 31
0.0
  0
LINE
  5
54
330
1F
100
AcDbEntity
  8
1
  6
DOT_CENTER
 62
     2
100
AcDbLine
 10
25.06352117492557
 20
-4.32373417032355
 30
0.0
 11
-13.93647882507447
 21
-4.32373417032355
 31
0.0
  0
LINE
  5
55
330
1F
100
AcDbEntity
  8
1
  6
DOT_CENTER
 62
     2
100
AcDbLine
 10
-13.93647882507447
 20
-4.32373417032355
 30
0.0
 11
-16.85222700376847
 21
-4.32373417032355
 31
0.0
  0
LINE
  5
56
330
1F
100
AcDbEntity
  8
1
  6
Continuous
 62
     7
100
AcDbLine
 10
15.12113974724635
 20
-69.32373417032343
 30
0.0
 11
22.00590260260474
 21
-69.32373417032343
 31
0.0
  0
LINE
  5
57
330
1F
100
AcDbEntity
  8
1
  6
Continuous
 62
     7
100
AcDbLine
 10
22.00590260260474
 20
-69.32373417032343
 30
0.0
 11
25.06352117492556
 21
-69.32373417032343
 31
0.0
  0
LINE
  5
58
330
1F
100
AcDbEntity
  8
1
  6
Continuous
 62
     7
100
AcDbLine
 10
9.34307755153096
 20
-30.28550394163863
 30
0.0
 11
15.26920759510175
 21
-29.34689715139722
 31
0.0
  0
LINE
  5
59
330
1F
100
AcDbEntity
  8
1
  6
Continuous
 62
     7
100
AcDbLine
 10
15.26920759510175
 20
-29.34689715139722
 30
0.0
 11
15.66428293133986
 21
-29.28432336538113
 31
0.0
  0
LINE
  5
5A
330
1F
100
AcDbEntity
  8
1
  6
DOT_CENTER
 62
     2
100
AcDbLine
 10
18.56352117492556
 20
-69.32373417032343
 30
0.0
 11
18.84822711012904
 21
-71.12129669995144
 31
0.0
  0
LINE
  5
5B
330
1F
100
AcDbEntity
  8
1
  6
DOT_CENTER
 62
     2
100
AcDbLine
 10
10.74179792291405
 20
-19.93931714056654
 30
0.0
 11
18.56352117492556
 21
-69.32373417032343
 31
0.0
  0
LINE
  5
5C
330
1F
100
AcDbEntity
  8
1
  6
Continuous
 62
     2
100
AcDbLine
 10
18.56352117492556
 20
-69.32373417032343
 30
0.0
 11
18.56352117492556
 21
-70.25487485513483
 31
0.0
  0
LINE
  5
5D
330
1F
100
AcDbEntity
  8
1
  6
Continuous
 62
     2
100
AcDbLine
 10
-76.4524973769637
 20
112.151874466784
 30
0.0
 11
-32.45249737696371
 21
112.151874466784
 31
0.0
  0
LINE
  5
5E
330
1F
100
AcDbEntity
  8
1
  6
Continuous
 62
     2
100
AcDbLine
 10
-32.45249737696371
 20
112.151874466784
 30
0.0
 11
-15.7987649413919
 21
89.90705901300188
 31
0.0
  0
LINE
  5
5F
330
1F
100
AcDbEntity
  8
1
  6
PHANTOM
 62
     7
100
AcDbLine
 10
-15.7987649413919
 20
89.90705901300188
 30
0.0
 11
34.5056795613253
 21
89.90705901300188
 31
0.0
  0
CIRCLE
  5
60
330
1F
100
AcDbEntity
  8
1
  6
Continuous
 62
     7
100
AcDbCircle
 10
18.56352117492556
 20
36.90705901300188
 30
0.0
 40
3.399999999999999
  0
CIRCLE
  5
61
330
1F
100
AcDbEntity
  8
1
  6
Continuous
 62
     7
100
AcDbCircle
 10
18.56352117492556
 20
107.9070590130019
 30
0.0
 40
3.399999999999999
  0
MTEXT
  5
63
330
1F
100
AcDbEntity
  8
1
 62
     2
100
AcDbMText
 10
-54.2936557811218
 20
114.816856037829
 30
0.0
 40
3.5
 41
0.0
 71
     5
 72
     1
  1
Bandbezugslinie
  7
CONVERTER_11
 73
     1
 44
1.32052821128451
  0
DIMENSION
  5
6E
330
1F
100
AcDbEntity
  8
1
100
AcDbDimension
  2
*D1
 10
44.3007208051118
 20
107.9070590130019
 30
0.0
 11
40.5507208051118
 21
69.874552255351
 31
0.0
 70
    32
  1
<>
 71
     5
 42
-1.0
 53
90.0
  3
ME10_DIM_10
100
AcDbAlignedDimension
 13
23.66352117492556
 23
36.90705901300188
 33
0.0
 14
23.66352117492556
 24
107.9070590130019
 34
0.0
 50
90.0
100
AcDbRotatedDimension
  0
DIMENSION
  5
79
330
1F
100
AcDbEntity
  8
1
100
AcDbDimension
  2
*D2
 10
36.0449994176632
 20
89.90705901300188
 30
0.0
 11
32.2949994176632
 21
99.5618380875532
 31
0.0
 70
    32
  1
<>
 71
     5
 42
-1.0
 53
90.0
  3
ME10_DIM_11
100
AcDbAlignedDimension
 13
23.66352117492556
 23
107.9070590130019
 33
0.0
 14
34.5056795613253
 24
89.90705901300188
 34
0.0
 50
90.0
100
AcDbRotatedDimension
  0
DIMENSION
  5
86
330
1F
100
AcDbEntity
  8
1
100
AcDbDimension
  2
*D3
 10
3.97260706234541
 20
3.6223122439736
 30
0.0
 11
-3.9082680733772
 21
6.17084846803961
 31
0.0
 70
    33
  1
<>
 71
     5
 42
-1.0
 53
9.00000000000023
  3
ME10_DIM_12
100
AcDbAlignedDimension
 13
13.70486294469946
 23
-19.4700137454458
 33
0.0
 14
7.77873290112864
 24
-20.40862053568721
 34
0.0
  0
DIMENSION
  5
93
330
1F
100
AcDbEntity
  8
1
100
AcDbDimension
  2
*D4
 10
10.86654473486308
 20
-42.46127846655965
 30
0.0
 11
1.06704428511178
 21
-40.21662263904855
 31
0.0
 70
    33
  1
<>
 71
     5
 42
-1.0
 53
9.00000000000014
  3
ME10_DIM_13
100
AcDbAlignedDimension
 13
15.66428293133986
 23
-29.28432336538113
 33
0.0
 14
8.94800221529285
 24
-30.34807772765473
 34
0.0
  0
DIMENSION
  5
9E
330
1F
100
AcDbEntity
  8
1
100
AcDbDimension
  2
*D5
 10
53.30277547340757
 20
-63.82157682096664
 30
0.0
 11
52.9908810826956
 21
-37.88065355856645
 31
0.0
 70
    32
  1
<>
 71
     5
 42
-1.0
 53
-81.00000000000006
  3
ME10_DIM_14
100
AcDbAlignedDimension
 13
13.70486294469946
 23
-19.4700137454458
 33
0.0
 14
18.56352117492556
 24
-69.32373417032343
 34
0.0
 50
-81.00000000000006
100
AcDbRotatedDimension
  0
DIMENSION
  5
A9
330
1F
100
AcDbEntity
  8
1
100
AcDbDimension
  2
*D6
 10
34.91427891756532
 20
-26.23542352485325
 30
0.0
 11
37.7965561080743
 21
-20.46170592151889
 31
0.0
 70
    32
  1
<>
 71
     5
 42
-1.0
 53
-81.00000000000006
  3
ME10_DIM_15
100
AcDbAlignedDimension
 13
13.70486294469946
 23
-19.4700137454458
 33
0.0
 14
15.26920759510175
 24
-29.34689715139722
 34
0.0
 50
-81.00000000000006
100
AcDbRotatedDimension
  0
DIMENSION
  5
B6
330
1F
100
AcDbEntity
  8
1
100
AcDbDimension
  2
*D7
 10
11.06352117492556
 20
-79.37914001417579
 30
0.0
 11
3.7010331807824
 21
-75.62914001417579
 31
0.0
 70
    32
  1
<>
 71
     5
 42
-1.0
 53
0.00013888888889
  3
ME10_DIM_16
100
AcDbAlignedDimension
 13
18.56352117492556
 23
-69.32373417032343
 33
0.0
 14
11.06352117492556
 24
-69.32373417032343
 34
0.0
100
AcDbRotatedDimension
  0
DIMENSION
  5
C3
330
1F
100
AcDbEntity
  8
1
100
AcDbDimension
  2
*D8
 10
20.28580100824962
 20
-91.20737434552379
 30
0.0
 11
14.0198119186236
 21
-86.9487829881281
 31
0.0
 70
    37
  1
<>
 71
     5
 42
-1.0
  3
ME10_DIM_17
100
AcDb3PointAngularDimension
 13
18.56352117492556
 23
-70.25487485513483
 33
0.0
 14
18.84822711012904
 24
-71.12129669995144
 34
0.0
 15
18.56352117492556
 25
-69.32373417032343
 35
0.0
  0
ENDSEC
  0
SECTION
  2
OBJECTS
  0
DICTIONARY
  5
C
330
0
100
AcDbDictionary
281
     1
  3
ACAD_GROUP
350
D
  3
ACAD_LAYOUT
350
1A
  3
ACAD_MLINESTYLE
350
17
  3
ACAD_PLOTSETTINGS
350
19
  3
ACAD_PLOTSTYLENAME
350
E
  0
DICTIONARY
  5
D
102
{ACAD_REACTORS
330
C
102
}
330
C
100
AcDbDictionary
281
     1
  0
DICTIONARY
  5
1A
102
{ACAD_REACTORS
330
C
102
}
330
C
100
AcDbDictionary
281
     1
  3
Layout1
350
1E
  3
Layout2
350
26
  3
Model
350
22
  0
DICTIONARY
  5
17
102
{ACAD_REACTORS
330
C
102
}
330
C
100
AcDbDictionary
281
     1
  3
Standard
350
18
  0
DICTIONARY
  5
19
102
{ACAD_REACTORS
330
C
102
}
330
C
100
AcDbDictionary
281
     1
  0
ACDBDICTIONARYWDFLT
  5
E
102
{ACAD_REACTORS
330
C
102
}
330
C
100
AcDbDictionary
281
     1
  3
Normal
350
F
100
AcDbDictionaryWithDefault
340
F
  0
LAYOUT
  5
1E
102
{ACAD_REACTORS
330
1A
102
}
330
1A
100
AcDbPlotSettings
  1

  2

  4

  6

 40
0.0
 41
0.0
 42
0.0
 43
0.0
 44
0.0
 45
0.0
 46
0.0
 47
0.0
 48
0.0
 49
0.0
140
0.0
141
0.0
142
1.0
143
1.0
 70
   688
 72
     0
 73
     0
 74
     5
  7

 75
    16
 76
     0
 77
     2
 78
   300
147
1.0
148
0.0
149
0.0
100
AcDbLayout
  1
Layout1
 70
     1
 71
     1
 10
0.0
 20
0.0
 11
0.0
 21
0.0
 12
0.0
 22
0.0
 32
0.0
 14
0.0
 24
0.0
 34
0.0
 15
0.0
 25
0.0
 35
0.0
146
0.0
 13
0.0
 23
0.0
 33
0.0
 16
1.0
 26
0.0
 36
0.0
 17
0.0
 27
1.0
 37
0.0
 76
     0
330
1B
  0
LAYOUT
  5
26
102
{ACAD_REACTORS
330
1A
102
}
330
1A
100
AcDbPlotSettings
  1

  2

  4

  6

 40
0.0
 41
0.0
 42
0.0
 43
0.0
 44
0.0
 45
0.0
 46
0.0
 47
0.0
 48
0.0
 49
0.0
140
0.0
141
0.0
142
1.0
143
1.0
 70
   688
 72
     0
 73
     0
 74
     5
  7

 75
    16
 76
     0
 77
     2
 78
   300
147
1.0
148
0.0
149
0.0
100
AcDbLayout
  1
Layout2
 70
     1
 71
     2
 10
0.0
 20
0.0
 11
0.0
 21
0.0
 12
0.0
 22
0.0
 32
0.0
 14
0.0
 24
0.0
 34
0.0
 15
0.0
 25
0.0
 35
0.0
146
0.0
 13
0.0
 23
0.0
 33
0.0
 16
1.0
 26
0.0
 36
0.0
 17
0.0
 27
1.0
 37
0.0
 76
     0
330
23
  0
LAYOUT
  5
22
102
{ACAD_REACTORS
330
1A
102
}
330
1A
100
AcDbPlotSettings
  1

  2

  4

  6

 40
0.0
 41
0.0
 42
0.0
 43
0.0
 44
0.0
 45
0.0
 46
0.0
 47
0.0
 48
0.0
 49
0.0
140
0.0
141
0.0
142
1.0
143
1.0
 70
  1712
 72
     0
 73
     0
 74
     0
  7

 75
     0
 76
     0
 77
     2
 78
   300
147
1.0
148
0.0
149
0.0
100
AcDbLayout
  1
Model
 70
     1
 71
     0
 10
0.0
 20
0.0
 11
0.0
 21
0.0
 12
0.0
 22
0.0
 32
0.0
 14
-76.4524973769637
 24
-93.27504290447224
 34
0.0
 15
55.27815215459785
 25
127.4070590130019
 35
0.0
146
0.0
 13
0.0
 23
0.0
 33
0.0
 16
1.0
 26
0.0
 36
0.0
 17
0.0
 27
1.0
 37
0.0
 76
     0
330
1F
  0
MLINESTYLE
  5
18
102
{ACAD_REACTORS
330
17
102
}
330
17
100
AcDbMlineStyle
  2
Standard
 70
     0
  3

 62
   256
 51
90.0
 52
90.0
 71
     2
 49
0.5
 62
   256
  6
BYLAYER
 49
-0.5
 62
   256
  6
BYLAYER
  0
ACDBPLACEHOLDER
  5
F
102
{ACAD_REACTORS
330
E
102
}
330
E
  0
ENDSEC
  0
EOF
