999
DXF file: d:\tmp\workingDir\0000040969\te_680_3d_v01_01.dxf
999
Pro/ENGINEER 2013430 by Parametric Technology Corporation
  0
SECTION
  2
HEADER
  9
$ACADVER
  1
AC1014
  9
$DWGCODEPAGE
  3
ANSI_1252
  9
$EXTMAX
 10
160.0
 20
280.0
 30
0.0
  9
$EXTMIN
 10
0.0
 20
0.0
 30
0.0
  9
$LIMMIN
 10
0.0
 20
0.0
  9
$LIMMAX
 10
160.0
 20
280.0
  9
$VIEWCTR
 10
80.0
 20
140.0
  9
$VIEWSIZE
 40
280.0
  9
$CLAYER
  8
0
  9
$LTSCALE
 40
18.2518518519
  9
$CELTYPE
  6
BYLAYER
  9
$DIMSCALE
 40
1.0
  9
$DIMASZ
 40
3.5
  9
$DIMEXO
 40
0.0
  9
$DIMDLI
 40
12.6103703704
  9
$DIMEXE
 40
2.0
  9
$DIMCEN
 40
2.9866666667
  9
$DIMLFAC
 40
1.0
  9
$DIMBLK
  1
_ARROW_FILLED
  9
$DIMTXT
 40
3.5
  9
$DIMTOL
 70
1
  9
$DIMLIM
 70
0
  9
$DIMTFAC
 40
1.0
  9
$DIMTP
 40
0.01
  9
$DIMTM
 40
0.01
  9
$DIMGAP
 40
0.625
  9
$PDMODE
 70
0
  9
$PDSIZE
 40
0.04
  9
$HANDSEED
  5
493
  9
$TILEMODE
 70
1
  9
$MEASUREMENT
 70
1
  0
ENDSEC
  0
SECTION
  2
CLASSES
  0
ENDSEC
  0
SECTION
  2
TABLES
  0
TABLE
  2
VPORT
  5
8
100
AcDbSymbolTable
 70
2
  0
VPORT
  5
1F4
100
AcDbSymbolTableRecord
100
AcDbViewportTableRecord
  2
*ACTIVE
 70
0
 10
0.0
 20
0.0
 11
1.0
 21
1.0
 12
80.0
 22
140.0
 13
0.0
 23
0.0
 14
1.0
 24
1.0
 15
0.0
 25
0.0
 16
0.0
 26
0.0
 36
1.0
 17
0.0
 27
0.0
 37
0.0
 40
280.0
 41
0.5714285714
 42
50.0
 43
0.0
 44
0.0
 50
0.0
 51
0.0
 71
0
 72
100
 73
1
 74
1
 75
0
 76
0
 77
0
 78
0
  0
ENDTAB
  0
TABLE
  2
LTYPE
  5
5
100
AcDbSymbolTable
 70
6
  0
LTYPE
  5
14
100
AcDbSymbolTableRecord
100
AcDbLinetypeTableRecord
  2
BYBLOCK
 70
0
  3

 72
65
 73
0
 40
0.0
  0
LTYPE
  5
15
100
AcDbSymbolTableRecord
100
AcDbLinetypeTableRecord
  2
BYLAYER
 70
0
  3

 72
65
 73
0
 40
0.0
  0
LTYPE
  5
16
100
AcDbSymbolTableRecord
100
AcDbLinetypeTableRecord
  2
CONTINUOUS
 70
64
  3
Solid line
 72
65
 73
0
 40
0.0
  0
LTYPE
  5
1F5
100
AcDbSymbolTableRecord
100
AcDbLinetypeTableRecord
  2
CENTER
 70
64
  3
____ _ ____ _ ____ _ ____ _ ____ _ ____ _ ____
 72
65
 73
4
 40
0.6
 49
0.375
 74
0
 49
-0.075
 74
0
 49
0.075
 74
0
 49
-0.075
 74
0
  0
LTYPE
  5
1F6
100
AcDbSymbolTableRecord
100
AcDbLinetypeTableRecord
  2
HIDDEN
 70
64
  3
- - - - - - - - - - - - - - - - - - - -
 72
65
 73
2
 40
0.2
 49
0.1
 74
0
 49
-0.1
 74
0
  0
LTYPE
  5
1F7
100
AcDbSymbolTableRecord
100
AcDbLinetypeTableRecord
  2
PHANTOM
 70
64
  3
_____ _ _ _____ _ _ _____ _ _ _____
 72
65
 73
6
 40
0.8
 49
0.45
 74
0
 49
-0.05
 74
0
 49
0.1
 74
0
 49
-0.05
 74
0
 49
0.1
 74
0
 49
-0.05
 74
0
  0
LTYPE
  5
1F8
100
AcDbSymbolTableRecord
100
AcDbLinetypeTableRecord
  2
DOT
 70
64
  3
. . . . . . . . . . . . . . . . . . . .
 72
65
 73
2
 40
0.2
 49
0.1
 74
0
 49
-0.1
 74
0
  0
LTYPE
  5
1F9
100
AcDbSymbolTableRecord
100
AcDbLinetypeTableRecord
  2
DASHED
 70
64
  3
- - - - - - - - - - - - - - - - - - - -
 72
65
 73
2
 40
0.2
 49
0.1
 74
0
 49
-0.1
 74
0
  0
ENDTAB
  0
TABLE
  2
LAYER
  5
2
100
AcDbSymbolTable
 70
36
  0
LAYER
  5
10
100
AcDbSymbolTableRecord
100
AcDbLayerTableRecord
  2
0
 70
0
 62
7
  6
CONTINUOUS
  0
LAYER
  5
1FA
100
AcDbSymbolTableRecord
100
AcDbLayerTableRecord
  2
DEFAULT_1
 70
0
 62
7
  6
CENTER
  0
LAYER
  5
1FB
100
AcDbSymbolTableRecord
100
AcDbLayerTableRecord
  2
DEFAULT_2
 70
0
 62
8
  6
HIDDEN
  0
LAYER
  5
1FC
100
AcDbSymbolTableRecord
100
AcDbLayerTableRecord
  2
DEFAULT_3
 70
0
 62
7
  6
PHANTOM
  0
LAYER
  5
1FD
100
AcDbSymbolTableRecord
100
AcDbLayerTableRecord
  2
A_ACHSEN
 70
0
 62
7
  6
CONTINUOUS
  0
LAYER
  5
1FE
100
AcDbSymbolTableRecord
100
AcDbLayerTableRecord
  2
A_BASISEBENEN
 70
0
 62
7
  6
CONTINUOUS
  0
LAYER
  5
1FF
100
AcDbSymbolTableRecord
100
AcDbLayerTableRecord
  2
A_BEMASSUNGEN
 70
0
 62
7
  6
CONTINUOUS
  0
LAYER
  5
200
100
AcDbSymbolTableRecord
100
AcDbLayerTableRecord
  2
A_BOHRUNGEN
 70
0
 62
7
  6
CONTINUOUS
  0
LAYER
  5
201
100
AcDbSymbolTableRecord
100
AcDbLayerTableRecord
  2
A_EBENEN
 70
0
 62
7
  6
CONTINUOUS
  0
LAYER
  5
202
100
AcDbSymbolTableRecord
100
AcDbLayerTableRecord
  2
A_FASEN
 70
0
 62
7
  6
CONTINUOUS
  0
LAYER
  5
203
100
AcDbSymbolTableRecord
100
AcDbLayerTableRecord
  2
A_FLAECHEN
 70
0
 62
7
  6
CONTINUOUS
  0
LAYER
  5
204
100
AcDbSymbolTableRecord
100
AcDbLayerTableRecord
  2
A_FL_VERBAENDE
 70
0
 62
7
  6
CONTINUOUS
  0
LAYER
  5
205
100
AcDbSymbolTableRecord
100
AcDbLayerTableRecord
  2
A_KURVEN
 70
0
 62
7
  6
CONTINUOUS
  0
LAYER
  5
206
100
AcDbSymbolTableRecord
100
AcDbLayerTableRecord
  2
A_NOTIZEN_SYMB
 70
0
 62
7
  6
CONTINUOUS
  0
LAYER
  5
207
100
AcDbSymbolTableRecord
100
AcDbLayerTableRecord
  2
A_PUNKTE
 70
0
 62
7
  6
CONTINUOUS
  0
LAYER
  5
208
100
AcDbSymbolTableRecord
100
AcDbLayerTableRecord
  2
A_RUNDUNGEN
 70
0
 62
7
  6
CONTINUOUS
  0
LAYER
  5
209
100
AcDbSymbolTableRecord
100
AcDbLayerTableRecord
  2
BASISEBENEN
 70
0
 62
7
  6
CONTINUOUS
  0
LAYER
  5
20A
100
AcDbSymbolTableRecord
100
AcDbLayerTableRecord
  2
GRUNDEBENE
 70
0
 62
7
  6
CONTINUOUS
  0
LAYER
  5
20B
100
AcDbSymbolTableRecord
100
AcDbLayerTableRecord
  2
INTFCLR_3
 70
0
 62
7
  6
CONTINUOUS
  0
LAYER
  5
20C
100
AcDbSymbolTableRecord
100
AcDbLayerTableRecord
  2
INTF_YELLOW
 70
0
 62
7
  6
CONTINUOUS
  0
LAYER
  5
20D
100
AcDbSymbolTableRecord
100
AcDbLayerTableRecord
  2
PROFIL
 70
0
 62
7
  6
CONTINUOUS
  0
LAYER
  5
20E
100
AcDbSymbolTableRecord
100
AcDbLayerTableRecord
  2
SCHRAFFUR
 70
0
 62
7
  6
CONTINUOUS
  0
ENDTAB
  0
TABLE
  2
STYLE
  5
3
100
AcDbSymbolTable
 70
1
  0
STYLE
  5
11
100
AcDbSymbolTableRecord
100
AcDbTextStyleTableRecord
  2
STANDARD
 70
0
 40
0.0
 41
1.0
 50
0.0
 71
0
 42
0.2
  3
txt
  4

  0
STYLE
  5
20F
100
AcDbSymbolTableRecord
100
AcDbTextStyleTableRecord
  2
TEXTSTYLE_1
 70
0
 40
0.0
 41
0.8
 50
0.0
 71
0
 42
0.2
  3
gdt
  4

  0
ENDTAB
  0
TABLE
  2
VIEW
  5
6
100
AcDbSymbolTable
 70
0
  0
ENDTAB
  0
TABLE
  2
UCS
  5
7
100
AcDbSymbolTable
 70
0
  0
ENDTAB
  0
TABLE
  2
APPID
  5
9
100
AcDbSymbolTable
 70
1
  0
APPID
  5
210
100
AcDbSymbolTableRecord
100
AcDbRegAppTableRecord
  2
ACAD
 70
0
  0
ENDTAB
  0
TABLE
  2
BLOCK_RECORD
  5
1
100
AcDbSymbolTable
 70
0
  0
BLOCK_RECORD
  5
1F
100
AcDbSymbolTableRecord
100
AcDbBlockTableRecord
  2
*MODEL_SPACE
  0
BLOCK_RECORD
  5
1B
100
AcDbSymbolTableRecord
100
AcDbBlockTableRecord
  2
*PAPER_SPACE
  0
BLOCK_RECORD
  5
211
100
AcDbSymbolTableRecord
100
AcDbBlockTableRecord
  2
_ARROW_FILLED
  0
BLOCK_RECORD
  5
212
100
AcDbSymbolTableRecord
100
AcDbBlockTableRecord
  2
*D0
  0
BLOCK_RECORD
  5
213
100
AcDbSymbolTableRecord
100
AcDbBlockTableRecord
  2
*D1
  0
BLOCK_RECORD
  5
214
100
AcDbSymbolTableRecord
100
AcDbBlockTableRecord
  2
*D2
  0
BLOCK_RECORD
  5
215
100
AcDbSymbolTableRecord
100
AcDbBlockTableRecord
  2
*D3
  0
BLOCK_RECORD
  5
216
100
AcDbSymbolTableRecord
100
AcDbBlockTableRecord
  2
*D4
  0
ENDTAB
  0
TABLE
  2
DIMSTYLE
  5
A
100
AcDbSymbolTable
 70
1
  0
DIMSTYLE
105
217
100
AcDbSymbolTableRecord
100
AcDbDimStyleTableRecord
  2
STANDARD
 70
0
  3

  4

  5
_ARROW_FILLED
  6
_ARROW_FILLED
  7
_ARROW_FILLED
 40
1.0
 41
3.5
 42
0.0
 43
0.38
 44
2.0
 45
0.0
 46
0.0
 47
0.01
 48
0.01
140
3.5
141
0.09
142
0.0
143
25.4
144
1.0
145
0.0
146
1.0
147
0.625
 71
1.0
 72
0.0
 73
0
 74
0
 75
0
 76
0
 77
1
 78
8
170
0
171
2
172
0
173
0
174
0
175
0
176
0
177
0
178
5
270
2
271
2
272
2
273
2
274
2
275
0
280
0
281
0
282
0
283
1
284
8
285
0
286
0
287
3
288
0
340
11
  0
DIMSTYLE
105
218
100
AcDbSymbolTableRecord
100
AcDbDimStyleTableRecord
  2
DIMSTYLE_1
 70
0
  3

  4

  5
_ARROW_FILLED
  6
_ARROW_FILLED
  7
_ARROW_FILLED
 40
1.0
 41
3.5
 42
0.0
 43
0.38
 44
2.0
 45
0.0
 46
0.0
 47
0.5
 48
0.5
140
3.5
141
0.09
142
0.0
143
25.4
144
1.0
145
0.0
146
1.0
147
0.875
 71
0.0
 72
0.0
 73
0
 74
0
 75
0
 76
0
 77
1
 78
8
170
0
171
2
172
0
173
0
174
0
175
0
176
0
177
0
178
5
270
2
271
4
272
4
273
2
274
2
275
0
280
0
281
0
282
0
283
1
284
8
285
0
286
0
287
3
288
0
340
11
  0
DIMSTYLE
105
219
100
AcDbSymbolTableRecord
100
AcDbDimStyleTableRecord
  2
DIMSTYLE_2
 70
0
  3

  4

  5
_ARROW_FILLED
  6
_ARROW_FILLED
  7
_ARROW_FILLED
 40
1.0
 41
3.5
 42
0.0
 43
0.38
 44
2.0
 45
0.0
 46
0.0
 47
0.3
 48
0.3
140
3.5
141
0.09
142
0.0
143
25.4
144
1.0
145
0.0
146
1.0
147
0.875
 71
0.0
 72
0.0
 73
0
 74
0
 75
0
 76
0
 77
1
 78
8
170
0
171
2
172
0
173
0
174
0
175
0
176
0
177
0
178
5
270
2
271
4
272
4
273
2
274
2
275
0
280
0
281
0
282
0
283
1
284
8
285
0
286
0
287
3
288
0
340
11
  0
DIMSTYLE
105
21A
100
AcDbSymbolTableRecord
100
AcDbDimStyleTableRecord
  2
DIMSTYLE_3
 70
0
  3

  4

  5
_ARROW_FILLED
  6
_ARROW_FILLED
  7
_ARROW_FILLED
 40
1.0
 41
3.5
 42
0.0
 43
0.38
 44
2.0
 45
0.0
 46
0.0
 47
0.2
 48
0.2
140
3.5
141
0.09
142
0.0
143
25.4
144
1.0
145
0.0
146
1.0
147
0.875
 71
0.0
 72
0.0
 73
0
 74
0
 75
0
 76
0
 77
1
 78
8
170
0
171
2
172
0
173
0
174
0
175
0
176
0
177
0
178
5
270
2
271
4
272
4
273
2
274
2
275
0
280
0
281
0
282
0
283
1
284
8
285
0
286
0
287
3
288
0
340
11
  0
DIMSTYLE
105
21B
100
AcDbSymbolTableRecord
100
AcDbDimStyleTableRecord
  2
DIMSTYLE_4
 70
0
  3

  4

  5
_ARROW_FILLED
  6
_ARROW_FILLED
  7
_ARROW_FILLED
 40
1.0
 41
3.5
 42
0.0
 43
0.38
 44
2.0
 45
0.0
 46
0.0
 47
0.2
 48
0.2
140
3.5
141
0.09
142
0.0
143
25.4
144
1.0
145
0.0
146
1.0
147
0.875
 71
0.0
 72
0.0
 73
0
 74
0
 75
0
 76
0
 77
1
 78
8
170
0
171
2
172
0
173
0
174
0
175
0
176
0
177
0
178
5
270
2
271
0
272
0
273
2
274
2
275
0
280
0
281
0
282
0
283
1
284
8
285
0
286
0
287
3
288
0
340
11
  0
DIMSTYLE
105
21C
100
AcDbSymbolTableRecord
100
AcDbDimStyleTableRecord
  2
DIMSTYLE_5
 70
0
  3

  4

  5
_ARROW_FILLED
  6
_ARROW_FILLED
  7
_ARROW_FILLED
 40
1.0
 41
3.5
 42
0.0
 43
0.38
 44
2.0
 45
0.0
 46
0.0
 47
0.5
 48
0.5
140
3.5
141
0.09
142
0.0
143
25.4
144
1.0
145
0.0
146
1.0
147
0.875
 71
0.0
 72
0.0
 73
0
 74
0
 75
0
 76
0
 77
1
 78
8
170
0
171
2
172
0
173
0
174
0
175
0
176
0
177
0
178
5
270
2
271
0
272
0
273
2
274
2
275
0
280
0
281
0
282
0
283
1
284
8
285
0
286
0
287
3
288
0
340
11
  0
ENDTAB
  0
ENDSEC
  0
SECTION
  2
BLOCKS
  0
BLOCK
  5
20
100
AcDbEntity
  8
0
100
AcDbBlockBegin
  2
*MODEL_SPACE
 70
0
 10
0.0
 20
0.0
 30
0.0
  3
*MODEL_SPACE
  1

  0
ENDBLK
  5
21
100
AcDbEntity
  8
0
100
AcDbBlockEnd
  0
BLOCK
  5
1C
100
AcDbEntity
  8
0
100
AcDbBlockBegin
  2
*PAPER_SPACE
 70
0
 10
0.0
 20
0.0
 30
0.0
  3
*PAPER_SPACE
  1

  0
ENDBLK
  5
1D
100
AcDbEntity
  8
0
100
AcDbBlockEnd
  0
BLOCK
  5
21D
100
AcDbEntity
  8
0
100
AcDbBlockBegin
  2
_ARROW_FILLED
 70
64
 10
0.0
 20
0.0
  3
_ARROW_FILLED
  1

  0
SOLID
  5
21E
100
AcDbEntity
  8
0
  6
BYBLOCK
 62
0
100
AcDbTrace
 10
0.0
 20
0.0
 11
-1.0
 21
0.1428571429
 12
-1.0
 22
-0.1428571429
 13
-1.0
 23
-0.1428571429
  0
ENDBLK
  5
21F
100
AcDbEntity
  8
0
  6
BYBLOCK
 62
0
100
AcDbBlockEnd
  0
BLOCK
  5
220
100
AcDbEntity
  8
A_BEMASSUNGEN
100
AcDbBlockBegin
 62
2
  6
CONTINUOUS
  2
*D0
 70
65
 10
0.0
 20
0.0
  3
*D0
  1

  0
MTEXT
  5
221
100
AcDbEntity
  8
A_BEMASSUNGEN
100
AcDbMText
 62
5
  6
CONTINUOUS
  7
STANDARD
 71
2
 72
1
 10
15.4554990813
 20
147.1779480928
 30
0.0
 11
0.0
 21
1.0
 31
0.0
  1
140
 40
3.5
 41
11.25
  0
LINE
  5
222
100
AcDbEntity
  8
A_BEMASSUNGEN
100
AcDbLine
 62
2
  6
CONTINUOUS
 10
57.9385865823
 20
217.1779480928
 11
17.8304990813
 21
217.1779480928
  0
LINE
  5
223
100
AcDbEntity
  8
A_BEMASSUNGEN
100
AcDbLine
 62
2
  6
CONTINUOUS
 10
57.9385865823
 20
77.1779480928
 11
38.0887909081
 21
77.1779480928
  0
LINE
  5
224
100
AcDbEntity
  8
A_BEMASSUNGEN
100
AcDbLine
 62
2
  6
CONTINUOUS
 10
34.3545047931
 20
77.1779480928
 11
17.8304990813
 21
77.1779480928
  0
LINE
  5
225
100
AcDbEntity
  8
A_BEMASSUNGEN
100
AcDbLine
 62
2
  6
CONTINUOUS
 10
19.8304990813
 20
217.1779480928
 11
19.8304990813
 21
147.1779480928
  0
LINE
  5
226
100
AcDbEntity
  8
A_BEMASSUNGEN
100
AcDbLine
 62
2
  6
CONTINUOUS
 10
19.8304990813
 20
77.1779480928
 11
19.8304990813
 21
147.1779480928
  0
INSERT
  5
227
100
AcDbEntity
  8
A_BEMASSUNGEN
100
AcDbBlockReference
 62
2
  6
CONTINUOUS
  2
_ARROW_FILLED
 10
19.8304990813
 20
217.1779480928
 41
3.5
 42
3.5
 43
3.5
 50
90.0
  0
INSERT
  5
228
100
AcDbEntity
  8
A_BEMASSUNGEN
100
AcDbBlockReference
 62
2
  6
CONTINUOUS
  2
_ARROW_FILLED
 10
19.8304990813
 20
77.1779480928
 41
3.5
 42
3.5
 43
3.5
 50
270.0
  0
ENDBLK
  5
229
100
AcDbEntity
  8
0
  6
BYBLOCK
 62
0
100
AcDbBlockEnd
  0
BLOCK
  5
22A
100
AcDbEntity
  8
A_BEMASSUNGEN
100
AcDbBlockBegin
 62
2
  6
CONTINUOUS
  2
*D1
 70
65
 10
0.0
 20
0.0
  3
*D1
  1

  0
MTEXT
  5
22B
100
AcDbEntity
  8
A_BEMASSUNGEN
100
AcDbMText
 62
5
  6
CONTINUOUS
  7
STANDARD
 71
2
 72
1
 10
56.5920352534
 20
69.8499799932
 30
0.0
 11
1.0
 21
0.0
 31
0.0
  1
40.5
 40
3.5
 41
15.0
  0
LINE
  5
22C
100
AcDbEntity
  8
A_BEMASSUNGEN
100
AcDbLine
 62
2
  6
CONTINUOUS
 10
36.3891595739
 20
87.2279480928
 11
36.3891595739
 21
66.3499799932
  0
LINE
  5
22D
100
AcDbEntity
  8
A_BEMASSUNGEN
100
AcDbLine
 62
2
  6
CONTINUOUS
 10
36.3891595739
 20
66.3499799932
 11
36.3891595739
 21
63.4749799932
  0
LINE
  5
22E
100
AcDbEntity
  8
A_BEMASSUNGEN
100
AcDbLine
 62
2
  6
CONTINUOUS
 10
76.794910933
 20
87.2279480928
 11
76.794910933
 21
66.3499799932
  0
LINE
  5
22F
100
AcDbEntity
  8
A_BEMASSUNGEN
100
AcDbLine
 62
2
  6
CONTINUOUS
 10
76.794910933
 20
66.3499799932
 11
76.794910933
 21
63.4749799932
  0
LINE
  5
230
100
AcDbEntity
  8
A_BEMASSUNGEN
100
AcDbLine
 62
2
  6
CONTINUOUS
 10
36.3891595739
 20
65.4749799932
 11
56.5920352534
 21
65.4749799932
  0
LINE
  5
231
100
AcDbEntity
  8
A_BEMASSUNGEN
100
AcDbLine
 62
2
  6
CONTINUOUS
 10
76.794910933
 20
65.4749799932
 11
56.5920352534
 21
65.4749799932
  0
INSERT
  5
232
100
AcDbEntity
  8
A_BEMASSUNGEN
100
AcDbBlockReference
 62
2
  6
CONTINUOUS
  2
_ARROW_FILLED
 10
36.3891595739
 20
65.4749799932
 41
3.5
 42
3.5
 43
3.5
 50
180.0
  0
INSERT
  5
233
100
AcDbEntity
  8
A_BEMASSUNGEN
100
AcDbBlockReference
 62
2
  6
CONTINUOUS
  2
_ARROW_FILLED
 10
76.794910933
 20
65.4749799932
 41
3.5
 42
3.5
 43
3.5
  0
ENDBLK
  5
234
100
AcDbEntity
  8
0
  6
BYBLOCK
 62
0
100
AcDbBlockEnd
  0
BLOCK
  5
235
100
AcDbEntity
  8
A_BEMASSUNGEN
100
AcDbBlockBegin
 62
2
  6
CONTINUOUS
  2
*D2
 70
65
 10
0.0
 20
0.0
  3
*D2
  1

  0
MTEXT
  5
236
100
AcDbEntity
  8
A_BEMASSUNGEN
100
AcDbMText
 62
5
  6
CONTINUOUS
  7
STANDARD
 71
2
 72
1
 10
84.794910933
 20
69.7443854521
 30
0.0
 11
1.0
 21
0.0
 31
0.0
  1
16
 40
3.5
 41
7.125
  0
LINE
  5
237
100
AcDbEntity
  8
A_BEMASSUNGEN
100
AcDbLine
 62
2
  6
CONTINUOUS
 10
76.794910933
 20
87.2279480928
 11
76.794910933
 21
63.3693854521
  0
LINE
  5
238
100
AcDbEntity
  8
A_BEMASSUNGEN
100
AcDbLine
 62
2
  6
CONTINUOUS
 10
76.794910933
 20
65.3693854521
 11
84.794910933
 21
65.3693854521
  0
LINE
  5
239
100
AcDbEntity
  8
A_BEMASSUNGEN
100
AcDbLine
 62
2
  6
CONTINUOUS
 10
92.794910933
 20
65.3693854521
 11
84.794910933
 21
65.3693854521
  0
INSERT
  5
23A
100
AcDbEntity
  8
A_BEMASSUNGEN
100
AcDbBlockReference
 62
2
  6
CONTINUOUS
  2
_ARROW_FILLED
 10
76.794910933
 20
65.3693854521
 41
3.5
 42
3.5
 43
3.5
 50
180.0
  0
INSERT
  5
23B
100
AcDbEntity
  8
A_BEMASSUNGEN
100
AcDbBlockReference
 62
2
  6
CONTINUOUS
  2
_ARROW_FILLED
 10
92.794910933
 20
65.3693854521
 41
3.5
 42
3.5
 43
3.5
  0
ENDBLK
  5
23C
100
AcDbEntity
  8
0
  6
BYBLOCK
 62
0
100
AcDbBlockEnd
  0
BLOCK
  5
23D
100
AcDbEntity
  8
A_BEMASSUNGEN
100
AcDbBlockBegin
 62
2
  6
CONTINUOUS
  2
*D3
 70
65
 10
0.0
 20
0.0
  3
*D3
  1

  0
MTEXT
  5
23E
100
AcDbEntity
  8
A_BEMASSUNGEN
100
AcDbMText
 62
5
  6
CONTINUOUS
  7
STANDARD
 71
2
 72
1
 10
107.694910933
 20
18.17636184
 30
0.0
 11
1.0
 21
0.0
 31
0.0
  1
30
 40
3.5
 41
7.875
  0
LINE
  5
23F
100
AcDbEntity
  8
A_BEMASSUNGEN
100
AcDbLine
 62
2
  6
CONTINUOUS
 10
92.794910933
 20
37.1779480928
 11
92.794910933
 21
11.80136184
  0
LINE
  5
240
100
AcDbEntity
  8
A_BEMASSUNGEN
100
AcDbLine
 62
2
  6
CONTINUOUS
 10
122.594910933
 20
37.1779480928
 11
122.594910933
 21
11.80136184
  0
LINE
  5
241
100
AcDbEntity
  8
A_BEMASSUNGEN
100
AcDbLine
 62
2
  6
CONTINUOUS
 10
92.794910933
 20
13.80136184
 11
107.694910933
 21
13.80136184
  0
LINE
  5
242
100
AcDbEntity
  8
A_BEMASSUNGEN
100
AcDbLine
 62
2
  6
CONTINUOUS
 10
122.594910933
 20
13.80136184
 11
107.694910933
 21
13.80136184
  0
INSERT
  5
243
100
AcDbEntity
  8
A_BEMASSUNGEN
100
AcDbBlockReference
 62
2
  6
CONTINUOUS
  2
_ARROW_FILLED
 10
92.794910933
 20
13.80136184
 41
3.5
 42
3.5
 43
3.5
 50
180.0
  0
INSERT
  5
244
100
AcDbEntity
  8
A_BEMASSUNGEN
100
AcDbBlockReference
 62
2
  6
CONTINUOUS
  2
_ARROW_FILLED
 10
122.594910933
 20
13.80136184
 41
3.5
 42
3.5
 43
3.5
  0
ENDBLK
  5
245
100
AcDbEntity
  8
0
  6
BYBLOCK
 62
0
100
AcDbBlockEnd
  0
BLOCK
  5
246
100
AcDbEntity
  8
A_BEMASSUNGEN
100
AcDbBlockBegin
 62
2
  6
CONTINUOUS
  2
*D4
 70
65
 10
0.0
 20
0.0
  3
*D4
  1

  0
MTEXT
  5
247
100
AcDbEntity
  8
A_BEMASSUNGEN
100
AcDbMText
 62
5
  6
CONTINUOUS
  7
STANDARD
 71
2
 72
1
 10
135.5672310597
 20
147.1779480928
 30
0.0
 11
0.0
 21
1.0
 31
0.0
  1
250
 40
3.5
 41
12.0
  0
LINE
  5
248
100
AcDbEntity
  8
A_BEMASSUNGEN
100
AcDbLine
 62
2
  6
CONTINUOUS
 10
107.694910933
 20
272.0779480928
 11
141.9422310597
 21
272.0779480928
  0
LINE
  5
249
100
AcDbEntity
  8
A_BEMASSUNGEN
100
AcDbLine
 62
2
  6
CONTINUOUS
 10
107.694910933
 20
22.2779480928
 11
141.9422310597
 21
22.2779480928
  0
LINE
  5
24A
100
AcDbEntity
  8
A_BEMASSUNGEN
100
AcDbLine
 62
2
  6
CONTINUOUS
 10
139.9422310597
 20
272.0779480928
 11
139.9422310597
 21
147.1779480928
  0
LINE
  5
24B
100
AcDbEntity
  8
A_BEMASSUNGEN
100
AcDbLine
 62
2
  6
CONTINUOUS
 10
139.9422310597
 20
22.2779480928
 11
139.9422310597
 21
147.1779480928
  0
INSERT
  5
24C
100
AcDbEntity
  8
A_BEMASSUNGEN
100
AcDbBlockReference
 62
2
  6
CONTINUOUS
  2
_ARROW_FILLED
 10
139.9422310597
 20
272.0779480928
 41
3.5
 42
3.5
 43
3.5
 50
90.0
  0
INSERT
  5
24D
100
AcDbEntity
  8
A_BEMASSUNGEN
100
AcDbBlockReference
 62
2
  6
CONTINUOUS
  2
_ARROW_FILLED
 10
139.9422310597
 20
22.2779480928
 41
3.5
 42
3.5
 43
3.5
 50
270.0
  0
ENDBLK
  5
24E
100
AcDbEntity
  8
0
  6
BYBLOCK
 62
0
100
AcDbBlockEnd
  0
ENDSEC
  0
SECTION
  2
ENTITIES
  0
DIMENSION
  5
24F
100
AcDbEntity
  8
A_BEMASSUNGEN
100
AcDbDimension
 62
2
  6
CONTINUOUS
  2
*D0
 10
19.8304990813
 20
77.1779480928
 11
19.8304990813
 21
147.1779480928
 70
160
  3
DIMSTYLE_1
100
AcDbAlignedDimension
 13
57.9385865823
 23
217.1779480928
 14
57.9385865823
 24
77.1779480928
 50
270.0
100
AcDbRotatedDimension
  0
DIMENSION
  5
250
100
AcDbEntity
  8
A_BEMASSUNGEN
100
AcDbDimension
 62
2
  6
CONTINUOUS
  2
*D1
 10
76.794910933
 20
65.4749799932
 11
56.5920352534
 21
65.4749799932
 70
160
  1
40.5
  3
DIMSTYLE_2
100
AcDbAlignedDimension
 13
36.3891595739
 23
87.2279480928
 14
76.794910933
 24
87.2279480928
100
AcDbRotatedDimension
  0
DIMENSION
  5
251
100
AcDbEntity
  8
A_BEMASSUNGEN
100
AcDbDimension
 62
2
  6
CONTINUOUS
  2
*D2
 10
92.794910933
 20
65.3693854521
 11
84.794910933
 21
65.3693854521
 70
160
  3
DIMSTYLE_3
100
AcDbAlignedDimension
 13
76.794910933
 23
87.2279480928
 14
92.794910933
 24
93.3779480928
100
AcDbRotatedDimension
  0
DIMENSION
  5
252
100
AcDbEntity
  8
A_BEMASSUNGEN
100
AcDbDimension
 62
2
  6
CONTINUOUS
  2
*D3
 10
122.594910933
 20
13.80136184
 11
107.694910933
 21
13.80136184
 70
160
  3
DIMSTYLE_4
100
AcDbAlignedDimension
 13
92.794910933
 23
37.1779480928
 14
122.594910933
 24
37.1779480928
100
AcDbRotatedDimension
  0
DIMENSION
  5
253
100
AcDbEntity
  8
A_BEMASSUNGEN
100
AcDbDimension
 62
2
  6
CONTINUOUS
  2
*D4
 10
139.9422310597
 20
22.2779480928
 11
139.9422310597
 21
147.1779480928
 70
160
  3
DIMSTYLE_5
100
AcDbAlignedDimension
 13
107.694910933
 23
272.0779480928
 14
107.694910933
 24
22.2779480928
 50
270.0
100
AcDbRotatedDimension
  0
MTEXT
  5
254
100
AcDbEntity
  8
A_NOTIZEN_SYMB
100
AcDbMText
 62
5
  6
CONTINUOUS
  7
STANDARD
 71
1
 72
1
 10
27.0697325013
 20
151.2523455338
 30
0.0
 11
1.0
 21
0.0
 31
0.0
  1
BBL
 40
2.5
 41
9.0178571429
  0
LINE
  5
255
100
AcDbEntity
  8
A_NOTIZEN_SYMB
100
AcDbLine
 62
7
  6
PHANTOM
 10
24.6139539389
 20
147.2870606812
 11
125.7223745038
 21
147.2505740167
  0
LINE
  5
256
100
AcDbEntity
  8
A_ACHSEN
100
AcDbLine
 62
7
  6
CENTER
 10
93.098600349
 20
31.1779480928
 11
122.8806933442
 21
31.1779480928
  0
LINE
  5
257
100
AcDbEntity
  8
0
100
AcDbLine
 62
7
  6
CONTINUOUS
 10
122.644910933
 20
47.1779480928
 11
122.594910933
 21
47.1779480928
  0
LINE
  5
258
100
AcDbEntity
  8
0
100
AcDbLine
 62
7
  6
CONTINUOUS
 10
92.744910933
 20
47.1779480928
 11
92.794910933
 21
47.1779480928
  0
LINE
  5
259
100
AcDbEntity
  8
A_ACHSEN
100
AcDbLine
 62
7
  6
CENTER
 10
122.5738670594
 20
59.1779480928
 11
110.2428654161
 21
59.1779480928
  0
LINE
  5
25A
100
AcDbEntity
  8
A_ACHSEN
100
AcDbLine
 62
7
  6
CENTER
 10
93.4727184864
 20
59.1779480928
 11
104.9171033795
 21
59.1779480928
  0
LINE
  5
25B
100
AcDbEntity
  8
0
100
AcDbLine
 62
7
  6
CONTINUOUS
 10
107.194910933
 20
62.2779480928
 11
108.194910933
 21
62.2779480928
  0
LINE
  5
25C
100
AcDbEntity
  8
0
100
AcDbLine
 62
7
  6
CONTINUOUS
 10
107.6797341343
 20
62.7627712942
 11
107.7100877316
 21
62.7627712942
  0
LINE
  5
25D
100
AcDbEntity
  8
0
100
AcDbLine
 62
7
  6
CONTINUOUS
 10
105.794910933
 20
63.6779480928
 11
106.894910933
 21
63.6779480928
  0
LINE
  5
25E
100
AcDbEntity
  8
0
100
AcDbLine
 62
7
  6
CONTINUOUS
 10
108.494910933
 20
63.6779480928
 11
109.594910933
 21
63.6779480928
  0
LINE
  5
25F
100
AcDbEntity
  8
0
100
AcDbLine
 62
7
  6
CONTINUOUS
 10
106.2797341343
 20
64.1627712942
 11
106.894910933
 21
64.1627712942
  0
LINE
  5
260
100
AcDbEntity
  8
0
100
AcDbLine
 62
7
  6
CONTINUOUS
 10
108.494910933
 20
64.1627712942
 11
109.1100877316
 21
64.1627712942
  0
LINE
  5
261
100
AcDbEntity
  8
0
100
AcDbLine
 62
7
  6
CONTINUOUS
 10
95.194910933
 20
64.1779480928
 11
96.514910933
 21
64.1779480928
  0
LINE
  5
262
100
AcDbEntity
  8
0
100
AcDbLine
 62
7
  6
CONTINUOUS
 10
96.784910933
 20
64.1779480928
 11
97.694910933
 21
64.1779480928
  0
LINE
  5
263
100
AcDbEntity
  8
DEFAULT_1
100
AcDbLine
 62
7
  6
CENTER
 10
101.069055168
 20
64.1779480928
 11
114.3207666979
 21
64.1779480928
  0
LINE
  5
264
100
AcDbEntity
  8
0
100
AcDbLine
 62
7
  6
CONTINUOUS
 10
109.1100877316
 20
64.1931248914
 11
108.494910933
 21
64.1931248914
  0
LINE
  5
265
100
AcDbEntity
  8
0
100
AcDbLine
 62
7
  6
CONTINUOUS
 10
106.894910933
 20
64.1931248914
 11
106.2797341343
 21
64.1931248914
  0
LINE
  5
266
100
AcDbEntity
  8
0
100
AcDbLine
 62
7
  6
CONTINUOUS
 10
109.594910933
 20
64.6779480928
 11
108.494910933
 21
64.6779480928
  0
LINE
  5
267
100
AcDbEntity
  8
0
100
AcDbLine
 62
7
  6
CONTINUOUS
 10
106.894910933
 20
64.6779480928
 11
105.794910933
 21
64.6779480928
  0
LINE
  5
268
100
AcDbEntity
  8
A_ACHSEN
100
AcDbLine
 62
7
  6
CENTER
 10
93.8560944399
 20
65.1779480928
 11
104.5337274261
 21
65.1779480928
  0
LINE
  5
269
100
AcDbEntity
  8
A_ACHSEN
100
AcDbLine
 62
7
  6
CENTER
 10
110.011079671
 20
65.1779480928
 11
122.378742195
 21
65.1779480928
  0
LINE
  5
26A
100
AcDbEntity
  8
0
100
AcDbLine
 62
7
  6
CONTINUOUS
 10
96.514910933
 20
65.2879480928
 11
96.104910933
 21
65.2879480928
  0
LINE
  5
26B
100
AcDbEntity
  8
0
100
AcDbLine
 62
7
  6
CONTINUOUS
 10
96.374910933
 20
65.5679480928
 11
96.784910933
 21
65.5679480928
  0
LINE
  5
26C
100
AcDbEntity
  8
0
100
AcDbLine
 62
7
  6
CONTINUOUS
 10
107.7100877316
 20
65.5931248914
 11
107.6797341343
 21
65.5931248914
  0
LINE
  5
26D
100
AcDbEntity
  8
0
100
AcDbLine
 62
7
  6
CONTINUOUS
 10
108.194910933
 20
66.0779480928
 11
107.194910933
 21
66.0779480928
  0
LINE
  5
26E
100
AcDbEntity
  8
0
100
AcDbLine
 62
7
  6
CONTINUOUS
 10
97.694910933
 20
66.6779480928
 11
96.374910933
 21
66.6779480928
  0
LINE
  5
26F
100
AcDbEntity
  8
0
100
AcDbLine
 62
7
  6
CONTINUOUS
 10
96.104910933
 20
66.6779480928
 11
95.194910933
 21
66.6779480928
  0
LINE
  5
270
100
AcDbEntity
  8
0
100
AcDbLine
 62
7
  6
CONTINUOUS
 10
95.234910933
 20
69.5779480928
 11
97.694910933
 21
69.5779480928
  0
LINE
  5
271
100
AcDbEntity
  8
0
100
AcDbLine
 62
7
  6
CONTINUOUS
 10
97.694910933
 20
70.1179480928
 11
95.234910933
 21
70.1179480928
  0
LINE
  5
272
100
AcDbEntity
  8
0
100
AcDbLine
 62
7
  6
CONTINUOUS
 10
95.234910933
 20
70.5679480928
 11
97.694910933
 21
70.5679480928
  0
LINE
  5
273
100
AcDbEntity
  8
0
100
AcDbLine
 62
7
  6
CONTINUOUS
 10
97.694910933
 20
71.1079480928
 11
96.324910933
 21
71.1079480928
  0
LINE
  5
274
100
AcDbEntity
  8
0
100
AcDbLine
 62
7
  6
CONTINUOUS
 10
96.324910933
 20
72.4279480928
 11
97.694910933
 21
72.4279480928
  0
LINE
  5
275
100
AcDbEntity
  8
0
100
AcDbLine
 62
7
  6
CONTINUOUS
 10
97.694910933
 20
72.9679480928
 11
95.234910933
 21
72.9679480928
  0
LINE
  5
276
100
AcDbEntity
  8
0
100
AcDbLine
 62
7
  6
CONTINUOUS
 10
95.234910933
 20
75.5879480928
 11
97.694910933
 21
75.5879480928
  0
LINE
  5
277
100
AcDbEntity
  8
0
100
AcDbLine
 62
7
  6
CONTINUOUS
 10
97.694910933
 20
76.1279480928
 11
96.074910933
 21
76.1279480928
  0
LINE
  5
278
100
AcDbEntity
  8
0
100
AcDbLine
 62
7
  6
CONTINUOUS
 10
95.234910933
 20
77.0779480928
 11
96.934910933
 21
77.0779480928
  0
LINE
  5
279
100
AcDbEntity
  8
0
100
AcDbLine
 62
7
  6
CONTINUOUS
 10
53.2430234047
 20
77.1779480928
 11
64.794910933
 21
77.1779480928
  0
LINE
  5
27A
100
AcDbEntity
  8
0
100
AcDbLine
 62
7
  6
CONTINUOUS
 10
64.794910933
 20
77.2279480928
 11
66.794910933
 21
77.2279480928
  0
LINE
  5
27B
100
AcDbEntity
  8
0
100
AcDbLine
 62
7
  6
CONTINUOUS
 10
53.2428337648
 20
77.3221967337
 11
46.294910933
 21
77.3221967337
  0
LINE
  5
27C
100
AcDbEntity
  8
0
100
AcDbLine
 62
7
  6
CONTINUOUS
 10
97.694910933
 20
77.6179480928
 11
95.234910933
 21
77.6179480928
  0
LINE
  5
27D
100
AcDbEntity
  8
0
100
AcDbLine
 62
7
  6
CONTINUOUS
 10
95.284910933
 20
69.1779480928
 11
95.744910933
 21
69.1279480928
  0
LINE
  5
27E
100
AcDbEntity
  8
0
100
AcDbLine
 62
7
  6
CONTINUOUS
 10
97.574910933
 20
67.5379480928
 11
97.144910933
 21
67.6279480928
  0
LINE
  5
27F
100
AcDbEntity
  8
0
100
AcDbLine
 62
7
  6
CONTINUOUS
 10
95.234910933
 20
79.7352250488
 11
97.694910933
 21
80.3376382979
  0
LINE
  5
280
100
AcDbEntity
  8
0
100
AcDbLine
 62
7
  6
CONTINUOUS
 10
97.0010620831
 20
80.6963073627
 11
95.234910933
 21
80.2752250488
  0
LINE
  5
281
100
AcDbEntity
  8
0
100
AcDbLine
 62
7
  6
CONTINUOUS
 10
96.994910933
 20
82.2319017227
 11
95.234910933
 21
81.8135842938
  0
LINE
  5
282
100
AcDbEntity
  8
0
100
AcDbLine
 62
7
  6
CONTINUOUS
 10
95.824910933
 20
81.4652901506
 11
97.694910933
 21
81.8791743877
  0
LINE
  5
283
100
AcDbEntity
  8
A_RUNDUNGEN
100
AcDbLine
 62
7
  6
CONTINUOUS
 10
50.795253608
 20
79.2279480928
 11
46.294910933
 21
79.2279480928
  0
LINE
  5
284
100
AcDbEntity
  8
0
100
AcDbLine
 62
7
  6
CONTINUOUS
 10
95.234910933
 20
83.4479480928
 11
97.694910933
 21
83.4479480928
  0
LINE
  5
285
100
AcDbEntity
  8
0
100
AcDbLine
 62
7
  6
CONTINUOUS
 10
97.204910933
 20
84.0079480928
 11
96.664910933
 21
84.0079480928
  0
LINE
  5
286
100
AcDbEntity
  8
0
100
AcDbLine
 62
7
  6
CONTINUOUS
 10
96.174910933
 20
84.0079480928
 11
95.724910933
 21
84.0079480928
  0
LINE
  5
287
100
AcDbEntity
  8
0
100
AcDbLine
 62
7
  6
CONTINUOUS
 10
96.664910933
 20
84.9179480928
 11
96.174910933
 21
84.9179480928
  0
LINE
  5
288
100
AcDbEntity
  8
0
100
AcDbLine
 62
7
  6
CONTINUOUS
 10
97.694910933
 20
84.9979480928
 11
97.204910933
 21
84.9979480928
  0
LINE
  5
289
100
AcDbEntity
  8
0
100
AcDbLine
 62
7
  6
CONTINUOUS
 10
95.724910933
 20
84.9979480928
 11
95.234910933
 21
84.9979480928
  0
LINE
  5
28A
100
AcDbEntity
  8
0
100
AcDbLine
 62
7
  6
CONTINUOUS
 10
97.694910933
 20
85.3479480928
 11
95.234910933
 21
85.3479480928
  0
LINE
  5
28B
100
AcDbEntity
  8
0
100
AcDbLine
 62
7
  6
CONTINUOUS
 10
95.724910933
 20
85.9079480928
 11
96.444910933
 21
85.9079480928
  0
LINE
  5
28C
100
AcDbEntity
  8
0
100
AcDbLine
 62
7
  6
CONTINUOUS
 10
96.924910933
 20
85.9079480928
 11
97.694910933
 21
85.9079480928
  0
LINE
  5
28D
100
AcDbEntity
  8
0
100
AcDbLine
 62
7
  6
CONTINUOUS
 10
95.284910933
 20
79.5179480928
 11
95.744910933
 21
79.4579480928
  0
LINE
  5
28E
100
AcDbEntity
  8
0
100
AcDbLine
 62
7
  6
CONTINUOUS
 10
97.694910933
 20
81.0476382979
 11
95.824910933
 21
81.4652901506
  0
LINE
  5
28F
100
AcDbEntity
  8
0
100
AcDbLine
 62
7
  6
CONTINUOUS
 10
97.574910933
 20
77.8679480928
 11
97.144910933
 21
77.9679480928
  0
LINE
  5
290
100
AcDbEntity
  8
0
100
AcDbLine
 62
7
  6
CONTINUOUS
 10
95.234910933
 20
81.1235842938
 11
97.0010620831
 21
80.6963073627
  0
LINE
  5
291
100
AcDbEntity
  8
0
100
AcDbLine
 62
7
  6
CONTINUOUS
 10
97.374910933
 20
72.0126475993
 11
96.324910933
 21
72.4279480928
  0
LINE
  5
292
100
AcDbEntity
  8
0
100
AcDbLine
 62
7
  6
CONTINUOUS
 10
95.234910933
 20
72.4279480928
 11
96.8212394179
 21
71.7679480928
  0
LINE
  5
293
100
AcDbEntity
  8
A_ACHSEN
100
AcDbLine
 62
7
  6
CENTER
 10
36.8620130689
 20
87.1779480928
 11
53.727808797
 21
87.1779480928
  0
LINE
  5
294
100
AcDbEntity
  8
0
100
AcDbLine
 62
7
  6
CONTINUOUS
 10
95.234910933
 20
87.5879480928
 11
97.694910933
 21
87.5879480928
  0
LINE
  5
295
100
AcDbEntity
  8
0
100
AcDbLine
 62
7
  6
CONTINUOUS
 10
97.694910933
 20
88.1279480928
 11
95.234910933
 21
88.1279480928
  0
LINE
  5
296
100
AcDbEntity
  8
A_RUNDUNGEN
100
AcDbLine
 62
7
  6
CONTINUOUS
 10
108.094910933
 20
93.3779480928
 11
92.794910933
 21
93.3779480928
  0
LINE
  5
297
100
AcDbEntity
  8
0
100
AcDbLine
 62
7
  6
CONTINUOUS
 10
103.794910933
 20
94.4779480928
 11
100.794910933
 21
94.4779480928
  0
LINE
  5
298
100
AcDbEntity
  8
A_RUNDUNGEN
100
AcDbLine
 62
7
  6
CONTINUOUS
 10
38.4435036156
 20
95.1779480928
 11
38.294910933
 21
95.1779480928
  0
LINE
  5
299
100
AcDbEntity
  8
0
100
AcDbLine
 62
7
  6
CONTINUOUS
 10
36.994910933
 20
95.1779480928
 11
38.294910933
 21
95.1779480928
  0
LINE
  5
29A
100
AcDbEntity
  8
0
100
AcDbLine
 62
7
  6
CONTINUOUS
 10
95.234910933
 20
82.6479480928
 11
96.994910933
 21
82.2319017227
  0
LINE
  5
29B
100
AcDbEntity
  8
0
100
AcDbLine
 62
7
  6
CONTINUOUS
 10
97.694910933
 20
82.5891743877
 11
95.234910933
 21
83.1879480928
  0
LINE
  5
29C
100
AcDbEntity
  8
0
100
AcDbLine
 62
7
  6
CONTINUOUS
 10
36.3891595739
 20
207.1279480928
 11
36.3891595739
 21
87.2279480928
  0
LINE
  5
29D
100
AcDbEntity
  8
A_RUNDUNGEN
100
AcDbLine
 62
7
  6
CONTINUOUS
 10
65.794872856
 20
96.0779480928
 11
76.794910933
 21
96.0779480928
  0
LINE
  5
29E
100
AcDbEntity
  8
0
100
AcDbLine
 62
7
  6
CONTINUOUS
 10
94.974840511
 20
96.1779480928
 11
80.0355929926
 21
96.1779480928
  0
LINE
  5
29F
100
AcDbEntity
  8
0
100
AcDbLine
 62
7
  6
CONTINUOUS
 10
80.0332976864
 20
96.1779480928
 11
75.7522943051
 21
96.1779480928
  0
LINE
  5
2A0
100
AcDbEntity
  8
0
100
AcDbLine
 62
7
  6
CONTINUOUS
 10
53.2429794076
 20
96.1779480928
 11
64.794910933
 21
96.1779480928
  0
LINE
  5
2A1
100
AcDbEntity
  8
A_RUNDUNGEN
100
AcDbLine
 62
7
  6
CONTINUOUS
 10
52.7950252131
 20
96.235031713
 11
54.7947966529
 21
96.235031713
  0
LINE
  5
2A2
100
AcDbEntity
  8
A_RUNDUNGEN
100
AcDbLine
 62
7
  6
CONTINUOUS
 10
52.4020078772
 20
96.3660108852
 11
55.1878139888
 21
96.3660108852
  0
LINE
  5
2A3
100
AcDbEntity
  8
A_RUNDUNGEN
100
AcDbLine
 62
7
  6
CONTINUOUS
 10
65.5068100636
 20
96.3660108852
 11
65.794910933
 21
96.3660108852
  0
LINE
  5
2A4
100
AcDbEntity
  8
0
100
AcDbLine
 62
7
  6
CONTINUOUS
 10
65.794910933
 20
97.0779480928
 11
75.7517891008
 21
97.0779480928
  0
LINE
  5
2A5
100
AcDbEntity
  8
0
100
AcDbLine
 62
7
  6
CONTINUOUS
 10
66.294910933
 20
97.1779480928
 11
105.794910933
 21
97.1779480928
  0
LINE
  5
2A6
100
AcDbEntity
  8
A_ACHSEN
100
AcDbLine
 62
7
  6
CENTER
 10
46.1276643366
 20
103.1779480928
 11
66.4621575294
 21
103.1779480928
  0
LINE
  5
2A7
100
AcDbEntity
  8
0
100
AcDbLine
 62
7
  6
CONTINUOUS
 10
95.234910933
 20
88.8679480928
 11
96.4304988705
 21
88.2079480928
  0
LINE
  5
2A8
100
AcDbEntity
  8
0
100
AcDbLine
 62
7
  6
CONTINUOUS
 10
36.994910933
 20
199.1779480928
 11
36.994910933
 21
95.1779480928
  0
LINE
  5
2A9
100
AcDbEntity
  8
0
100
AcDbLine
 62
7
  6
CONTINUOUS
 10
38.294910933
 20
87.2279480928
 11
38.294910933
 21
95.1779480928
  0
LINE
  5
2AA
100
AcDbEntity
  8
0
100
AcDbLine
 62
7
  6
CONTINUOUS
 10
38.294910933
 20
199.1779480928
 11
38.294910933
 21
207.1279480928
  0
LINE
  5
2AB
100
AcDbEntity
  8
0
100
AcDbLine
 62
7
  6
CONTINUOUS
 10
40.294910933
 20
155.1779480928
 11
40.294910933
 21
139.1779480928
  0
LINE
  5
2AC
100
AcDbEntity
  8
0
100
AcDbLine
 62
7
  6
CONTINUOUS
 10
41.294910933
 20
153.6779480928
 11
41.294910933
 21
151.6779480928
  0
LINE
  5
2AD
100
AcDbEntity
  8
0
100
AcDbLine
 62
7
  6
CONTINUOUS
 10
41.294910933
 20
149.6779480928
 11
41.294910933
 21
149.0112811083
  0
LINE
  5
2AE
100
AcDbEntity
  8
0
100
AcDbLine
 62
7
  6
CONTINUOUS
 10
41.294910933
 20
145.6779480928
 11
41.294910933
 21
145.0112815851
  0
LINE
  5
2AF
100
AcDbEntity
  8
0
100
AcDbLine
 62
7
  6
CONTINUOUS
 10
41.294910933
 20
141.6779480928
 11
41.294910933
 21
139.6779480928
  0
LINE
  5
2B0
100
AcDbEntity
  8
0
100
AcDbLine
 62
7
  6
CONTINUOUS
 10
41.7204427971
 20
152.1779480928
 11
41.7204427971
 21
153.7612811083
  0
LINE
  5
2B1
100
AcDbEntity
  8
0
100
AcDbLine
 62
7
  6
CONTINUOUS
 10
41.80554917
 20
140.1779480928
 11
41.80554917
 21
141.6779480928
  0
LINE
  5
2B2
100
AcDbEntity
  8
0
100
AcDbLine
 62
7
  6
CONTINUOUS
 10
41.80554917
 20
145.0112815851
 11
41.80554917
 21
145.6779480928
  0
LINE
  5
2B3
100
AcDbEntity
  8
0
100
AcDbLine
 62
7
  6
CONTINUOUS
 10
41.80554917
 20
149.0112811083
 11
41.80554917
 21
149.6779480928
  0
LINE
  5
2B4
100
AcDbEntity
  8
0
100
AcDbLine
 62
7
  6
CONTINUOUS
 10
42.9970386281
 20
153.7612811083
 11
42.9970386281
 21
152.1779480928
  0
LINE
  5
2B5
100
AcDbEntity
  8
0
100
AcDbLine
 62
7
  6
CONTINUOUS
 10
43.5076768651
 20
152.1779480928
 11
43.5076768651
 21
153.5946150774
  0
LINE
  5
2B6
100
AcDbEntity
  8
0
100
AcDbLine
 62
7
  6
CONTINUOUS
 10
44.7842726364
 20
149.6779480928
 11
44.7842726364
 21
149.0112811083
  0
LINE
  5
2B7
100
AcDbEntity
  8
0
100
AcDbLine
 62
7
  6
CONTINUOUS
 10
44.7842726364
 20
145.6779480928
 11
44.7842726364
 21
145.0112815851
  0
LINE
  5
2B8
100
AcDbEntity
  8
0
100
AcDbLine
 62
7
  6
CONTINUOUS
 10
44.7842726364
 20
141.6779480928
 11
44.7842726364
 21
140.1779480928
  0
LINE
  5
2B9
100
AcDbEntity
  8
A_ACHSEN
100
AcDbLine
 62
7
  6
CENTER
 10
45.294910933
 20
78.7450502287
 11
45.294910933
 21
95.6108459569
  0
LINE
  5
2BA
100
AcDbEntity
  8
0
100
AcDbLine
 62
7
  6
CONTINUOUS
 10
45.294910933
 20
139.6779480928
 11
45.294910933
 21
141.6779480928
  0
LINE
  5
2BB
100
AcDbEntity
  8
0
100
AcDbLine
 62
7
  6
CONTINUOUS
 10
45.294910933
 20
145.0112815851
 11
45.294910933
 21
145.6779480928
  0
LINE
  5
2BC
100
AcDbEntity
  8
0
100
AcDbLine
 62
7
  6
CONTINUOUS
 10
45.294910933
 20
149.0112811083
 11
45.294910933
 21
149.6779480928
  0
LINE
  5
2BD
100
AcDbEntity
  8
0
100
AcDbLine
 62
7
  6
CONTINUOUS
 10
45.294910933
 20
151.6779480928
 11
45.294910933
 21
152.1779480928
  0
LINE
  5
2BE
100
AcDbEntity
  8
0
100
AcDbLine
 62
7
  6
CONTINUOUS
 10
45.294910933
 20
154.2612811083
 11
45.294910933
 21
154.8446150774
  0
LINE
  5
2BF
100
AcDbEntity
  8
A_ACHSEN
100
AcDbLine
 62
7
  6
CENTER
 10
45.294910933
 20
199.2992448097
 11
45.294910933
 21
215.0566513759
  0
LINE
  5
2C0
100
AcDbEntity
  8
0
100
AcDbLine
 62
7
  6
CONTINUOUS
 10
41.3800173058
 20
154.0946150774
 11
41.294910933
 21
153.6779480928
  0
LINE
  5
2C1
100
AcDbEntity
  8
0
100
AcDbLine
 62
7
  6
CONTINUOUS
 10
41.3800173058
 20
150.0946150774
 11
41.294910933
 21
149.6779480928
  0
LINE
  5
2C2
100
AcDbEntity
  8
0
100
AcDbLine
 62
7
  6
CONTINUOUS
 10
41.3800173058
 20
146.0946146005
 11
41.294910933
 21
145.6779480928
  0
LINE
  5
2C3
100
AcDbEntity
  8
0
100
AcDbLine
 62
7
  6
CONTINUOUS
 10
41.3800173058
 20
142.094614839
 11
41.294910933
 21
141.6779480928
  0
LINE
  5
2C4
100
AcDbEntity
  8
0
100
AcDbLine
 62
7
  6
CONTINUOUS
 10
41.80554917
 20
149.6779480928
 11
41.8906555428
 21
150.0112811083
  0
LINE
  5
2C5
100
AcDbEntity
  8
0
100
AcDbLine
 62
7
  6
CONTINUOUS
 10
41.80554917
 20
145.6779480928
 11
41.8906555428
 21
146.0112815851
  0
LINE
  5
2C6
100
AcDbEntity
  8
0
100
AcDbLine
 62
7
  6
CONTINUOUS
 10
41.80554917
 20
141.6779480928
 11
41.8906555428
 21
142.0112813467
  0
LINE
  5
2C7
100
AcDbEntity
  8
0
100
AcDbLine
 62
7
  6
CONTINUOUS
 10
44.7842726364
 20
149.0112811083
 11
44.6991662635
 21
148.6779480928
  0
LINE
  5
2C8
100
AcDbEntity
  8
0
100
AcDbLine
 62
7
  6
CONTINUOUS
 10
41.7204427971
 20
153.7612811083
 11
41.80554917
 21
154.0112811083
  0
LINE
  5
2C9
100
AcDbEntity
  8
0
100
AcDbLine
 62
7
  6
CONTINUOUS
 10
41.5502300515
 20
150.4279480928
 11
41.3800173058
 21
150.0946150774
  0
LINE
  5
2CA
100
AcDbEntity
  8
0
100
AcDbLine
 62
7
  6
CONTINUOUS
 10
41.6353364243
 20
154.4279480928
 11
41.3800173058
 21
154.0946150774
  0
LINE
  5
2CB
100
AcDbEntity
  8
0
100
AcDbLine
 62
7
  6
CONTINUOUS
 10
108.194910933
 20
232.0779480928
 11
107.7100877316
 21
231.5931248914
  0
LINE
  5
2CC
100
AcDbEntity
  8
0
100
AcDbLine
 62
7
  6
CONTINUOUS
 10
105.794910933
 20
229.6779480928
 11
106.2797341343
 21
230.1627712942
  0
LINE
  5
2CD
100
AcDbEntity
  8
0
100
AcDbLine
 62
7
  6
CONTINUOUS
 10
109.594910933
 20
230.6779480928
 11
109.1100877316
 21
230.1931248914
  0
LINE
  5
2CE
100
AcDbEntity
  8
0
100
AcDbLine
 62
7
  6
CONTINUOUS
 10
107.194910933
 20
228.2779480928
 11
107.6797341343
 21
228.7627712942
  0
LINE
  5
2CF
100
AcDbEntity
  8
0
100
AcDbLine
 62
7
  6
CONTINUOUS
 10
96.4308565385
 20
88.8121917545
 11
95.234910933
 21
89.4979480928
  0
LINE
  5
2D0
100
AcDbEntity
  8
0
100
AcDbLine
 62
7
  6
CONTINUOUS
 10
108.194910933
 20
62.2779480928
 11
107.7100877316
 21
62.7627712942
  0
LINE
  5
2D1
100
AcDbEntity
  8
0
100
AcDbLine
 62
7
  6
CONTINUOUS
 10
105.794910933
 20
64.6779480928
 11
106.2797341343
 21
64.1931248914
  0
LINE
  5
2D2
100
AcDbEntity
  8
0
100
AcDbLine
 62
7
  6
CONTINUOUS
 10
109.594910933
 20
63.6779480928
 11
109.1100877316
 21
64.1627712942
  0
LINE
  5
2D3
100
AcDbEntity
  8
0
100
AcDbLine
 62
7
  6
CONTINUOUS
 10
107.194910933
 20
66.0779480928
 11
107.6797341343
 21
65.5931248914
  0
LINE
  5
2D4
100
AcDbEntity
  8
0
100
AcDbLine
 62
7
  6
CONTINUOUS
 10
41.3800173058
 20
144.5946146005
 11
41.5502300515
 21
144.2612815851
  0
LINE
  5
2D5
100
AcDbEntity
  8
0
100
AcDbLine
 62
7
  6
CONTINUOUS
 10
41.8906555428
 20
144.6779480928
 11
41.80554917
 21
145.0112815851
  0
LINE
  5
2D6
100
AcDbEntity
  8
0
100
AcDbLine
 62
7
  6
CONTINUOUS
 10
41.8906555428
 20
148.6779480928
 11
41.80554917
 21
149.0112811083
  0
LINE
  5
2D7
100
AcDbEntity
  8
0
100
AcDbLine
 62
7
  6
CONTINUOUS
 10
44.6991662635
 20
142.0112813467
 11
44.7842726364
 21
141.6779480928
  0
LINE
  5
2D8
100
AcDbEntity
  8
0
100
AcDbLine
 62
7
  6
CONTINUOUS
 10
41.294910933
 20
145.0112815851
 11
41.3800173058
 21
144.5946146005
  0
LINE
  5
2D9
100
AcDbEntity
  8
0
100
AcDbLine
 62
7
  6
CONTINUOUS
 10
41.294910933
 20
149.0112811083
 11
41.3800173058
 21
148.5946150774
  0
LINE
  5
2DA
100
AcDbEntity
  8
0
100
AcDbLine
 62
7
  6
CONTINUOUS
 10
45.294910933
 20
141.6779480928
 11
45.2098045527
 21
142.094614839
  0
LINE
  5
2DB
100
AcDbEntity
  8
0
100
AcDbLine
 62
7
  6
CONTINUOUS
 10
45.794910933
 20
139.1779480928
 11
45.794910933
 21
155.1779480928
  0
LINE
  5
2DC
100
AcDbEntity
  8
A_RUNDUNGEN
100
AcDbLine
 62
7
  6
CONTINUOUS
 10
51.794910933
 20
214.1282907678
 11
51.794910933
 21
199.1206741082
  0
LINE
  5
2DD
100
AcDbEntity
  8
A_RUNDUNGEN
100
AcDbLine
 62
7
  6
CONTINUOUS
 10
51.794910933
 20
95.2352220774
 11
51.794910933
 21
80.2276054178
  0
LINE
  5
2DE
100
AcDbEntity
  8
0
100
AcDbLine
 62
7
  6
CONTINUOUS
 10
53.2428337648
 20
77.1779480928
 11
53.2428337648
 21
96.1779480928
  0
LINE
  5
2DF
100
AcDbEntity
  8
0
100
AcDbLine
 62
7
  6
CONTINUOUS
 10
53.2428337648
 20
198.1779480928
 11
53.2428337648
 21
217.1779480928
  0
LINE
  5
2E0
100
AcDbEntity
  8
0
100
AcDbLine
 62
7
  6
CONTINUOUS
 10
45.2098045527
 20
148.5946150774
 11
45.294910933
 21
149.0112811083
  0
LINE
  5
2E1
100
AcDbEntity
  8
0
100
AcDbLine
 62
7
  6
CONTINUOUS
 10
45.2098045527
 20
144.5946146005
 11
45.294910933
 21
145.0112815851
  0
LINE
  5
2E2
100
AcDbEntity
  8
0
100
AcDbLine
 62
7
  6
CONTINUOUS
 10
44.7842726364
 20
145.0112815851
 11
44.6991662635
 21
144.6779480928
  0
LINE
  5
2E3
100
AcDbEntity
  8
0
100
AcDbLine
 62
7
  6
CONTINUOUS
 10
41.5502300515
 20
146.4279480928
 11
41.3800173058
 21
146.0946146005
  0
LINE
  5
2E4
100
AcDbEntity
  8
0
100
AcDbLine
 62
7
  6
CONTINUOUS
 10
41.5502300515
 20
142.4279480928
 11
41.3800173058
 21
142.094614839
  0
LINE
  5
2E5
100
AcDbEntity
  8
0
100
AcDbLine
 62
7
  6
CONTINUOUS
 10
45.0395917847
 20
148.2612811083
 11
45.2098045527
 21
148.5946150774
  0
LINE
  5
2E6
100
AcDbEntity
  8
0
100
AcDbLine
 62
7
  6
CONTINUOUS
 10
45.0395917847
 20
144.2612815851
 11
45.2098045527
 21
144.5946146005
  0
LINE
  5
2E7
100
AcDbEntity
  8
0
100
AcDbLine
 62
7
  6
CONTINUOUS
 10
41.8906555428
 20
150.0112811083
 11
42.0608682885
 21
150.2612811083
  0
LINE
  5
2E8
100
AcDbEntity
  8
0
100
AcDbLine
 62
7
  6
CONTINUOUS
 10
41.8906555428
 20
146.0112815851
 11
42.0608682885
 21
146.2612815851
  0
LINE
  5
2E9
100
AcDbEntity
  8
0
100
AcDbLine
 62
7
  6
CONTINUOUS
 10
44.6991662635
 20
148.6779480928
 11
44.5289534583
 21
148.4279480928
  0
LINE
  5
2EA
100
AcDbEntity
  8
0
100
AcDbLine
 62
7
  6
CONTINUOUS
 10
41.8906555428
 20
142.0112813467
 11
42.0608682885
 21
142.2612813467
  0
LINE
  5
2EB
100
AcDbEntity
  8
0
100
AcDbLine
 62
7
  6
CONTINUOUS
 10
44.6991662635
 20
144.6779480928
 11
44.5289534583
 21
144.4279480928
  0
LINE
  5
2EC
100
AcDbEntity
  8
0
100
AcDbLine
 62
7
  6
CONTINUOUS
 10
41.80554917
 20
154.0112811083
 11
41.9757619156
 21
154.1779480928
  0
LINE
  5
2ED
100
AcDbEntity
  8
0
100
AcDbLine
 62
7
  6
CONTINUOUS
 10
41.8906555428
 20
150.7612811083
 11
41.5502300515
 21
150.4279480928
  0
LINE
  5
2EE
100
AcDbEntity
  8
0
100
AcDbLine
 62
7
  6
CONTINUOUS
 10
41.8906555428
 20
146.7612815851
 11
41.5502300515
 21
146.4279480928
  0
LINE
  5
2EF
100
AcDbEntity
  8
0
100
AcDbLine
 62
7
  6
CONTINUOUS
 10
41.9757619156
 20
154.6779480928
 11
41.6353364243
 21
154.4279480928
  0
LINE
  5
2F0
100
AcDbEntity
  8
0
100
AcDbLine
 62
7
  6
CONTINUOUS
 10
41.5502300515
 20
144.2612815851
 11
41.8906555428
 21
143.9279480928
  0
LINE
  5
2F1
100
AcDbEntity
  8
0
100
AcDbLine
 62
7
  6
CONTINUOUS
 10
45.0395917847
 20
142.4279480928
 11
44.6991662635
 21
142.7612813467
  0
LINE
  5
2F2
100
AcDbEntity
  8
0
100
AcDbLine
 62
7
  6
CONTINUOUS
 10
41.5502300515
 20
148.2612811083
 11
41.8906555428
 21
147.9279480928
  0
LINE
  5
2F3
100
AcDbEntity
  8
0
100
AcDbLine
 62
7
  6
CONTINUOUS
 10
42.0608682885
 20
144.4279480928
 11
41.8906555428
 21
144.6779480928
  0
LINE
  5
2F4
100
AcDbEntity
  8
0
100
AcDbLine
 62
7
  6
CONTINUOUS
 10
44.5289534583
 20
142.2612813467
 11
44.6991662635
 21
142.0112813467
  0
LINE
  5
2F5
100
AcDbEntity
  8
0
100
AcDbLine
 62
7
  6
CONTINUOUS
 10
42.0608682885
 20
148.4279480928
 11
41.8906555428
 21
148.6779480928
  0
LINE
  5
2F6
100
AcDbEntity
  8
0
100
AcDbLine
 62
7
  6
CONTINUOUS
 10
44.5289534583
 20
146.2612815851
 11
44.6991662635
 21
146.0112815851
  0
LINE
  5
2F7
100
AcDbEntity
  8
0
100
AcDbLine
 62
7
  6
CONTINUOUS
 10
44.5289534583
 20
150.2612811083
 11
44.6991662635
 21
150.0112811083
  0
LINE
  5
2F8
100
AcDbEntity
  8
0
100
AcDbLine
 62
7
  6
CONTINUOUS
 10
41.3800173058
 20
148.5946150774
 11
41.5502300515
 21
148.2612811083
  0
LINE
  5
2F9
100
AcDbEntity
  8
0
100
AcDbLine
 62
7
  6
CONTINUOUS
 10
45.2098045527
 20
142.094614839
 11
45.0395917847
 21
142.4279480928
  0
LINE
  5
2FA
100
AcDbEntity
  8
0
100
AcDbLine
 62
7
  6
CONTINUOUS
 10
45.2098045527
 20
146.0946146005
 11
45.0395917847
 21
146.4279480928
  0
LINE
  5
2FB
100
AcDbEntity
  8
0
100
AcDbLine
 62
7
  6
CONTINUOUS
 10
45.2098045527
 20
150.0946150774
 11
45.0395917847
 21
150.4279480928
  0
LINE
  5
2FC
100
AcDbEntity
  8
0
100
AcDbLine
 62
7
  6
CONTINUOUS
 10
43.3374641194
 20
154.0946150774
 11
43.1672513737
 21
154.4279480928
  0
LINE
  5
2FD
100
AcDbEntity
  8
0
100
AcDbLine
 62
7
  6
CONTINUOUS
 10
42.9119322552
 20
154.0112811083
 11
42.9970386281
 21
153.7612811083
  0
LINE
  5
2FE
100
AcDbEntity
  8
0
100
AcDbLine
 62
7
  6
CONTINUOUS
 10
44.6991662635
 20
146.0112815851
 11
44.7842726364
 21
145.6779480928
  0
LINE
  5
2FF
100
AcDbEntity
  8
0
100
AcDbLine
 62
7
  6
CONTINUOUS
 10
44.6991662635
 20
150.0112811083
 11
44.7842726364
 21
149.6779480928
  0
LINE
  5
300
100
AcDbEntity
  8
0
100
AcDbLine
 62
7
  6
CONTINUOUS
 10
45.294910933
 20
145.6779480928
 11
45.2098045527
 21
146.0946146005
  0
LINE
  5
301
100
AcDbEntity
  8
0
100
AcDbLine
 62
7
  6
CONTINUOUS
 10
45.294910933
 20
149.6779480928
 11
45.2098045527
 21
150.0946150774
  0
LINE
  5
302
100
AcDbEntity
  8
0
100
AcDbLine
 62
7
  6
CONTINUOUS
 10
56.0062877344
 20
77.1779480928
 11
56.0062877344
 21
96.1779480928
  0
LINE
  5
303
100
AcDbEntity
  8
0
100
AcDbLine
 62
7
  6
CONTINUOUS
 10
56.0062877344
 20
198.1779480928
 11
56.0062877344
 21
217.1779480928
  0
LINE
  5
304
100
AcDbEntity
  8
A_ACHSEN
100
AcDbLine
 62
7
  6
CENTER
 10
56.294910933
 20
93.0107014964
 11
56.294910933
 21
113.3451946892
  0
LINE
  5
305
100
AcDbEntity
  8
A_ACHSEN
100
AcDbLine
 62
7
  6
CENTER
 10
56.294910933
 20
182.6458116225
 11
56.294910933
 21
199.7100845631
  0
LINE
  5
306
100
AcDbEntity
  8
0
100
AcDbLine
 62
7
  6
CONTINUOUS
 10
59.0190422229
 20
96.1779480928
 11
59.0190422229
 21
198.1779480928
  0
LINE
  5
307
100
AcDbEntity
  8
0
100
AcDbLine
 62
7
  6
CONTINUOUS
 10
44.6991662635
 20
147.9279480928
 11
45.0395917847
 21
148.2612811083
  0
LINE
  5
308
100
AcDbEntity
  8
0
100
AcDbLine
 62
7
  6
CONTINUOUS
 10
41.8906555428
 20
142.7612813467
 11
41.5502300515
 21
142.4279480928
  0
LINE
  5
309
100
AcDbEntity
  8
0
100
AcDbLine
 62
7
  6
CONTINUOUS
 10
44.6991662635
 20
143.9279480928
 11
45.0395917847
 21
144.2612815851
  0
LINE
  5
30A
100
AcDbEntity
  8
0
100
AcDbLine
 62
7
  6
CONTINUOUS
 10
42.0608682885
 20
150.2612811083
 11
42.3161876454
 21
150.4279480928
  0
LINE
  5
30B
100
AcDbEntity
  8
0
100
AcDbLine
 62
7
  6
CONTINUOUS
 10
44.5289534583
 20
148.4279480928
 11
44.2736343398
 21
148.2612811083
  0
LINE
  5
30C
100
AcDbEntity
  8
0
100
AcDbLine
 62
7
  6
CONTINUOUS
 10
42.0608682885
 20
146.2612815851
 11
42.3161876454
 21
146.4279480928
  0
LINE
  5
30D
100
AcDbEntity
  8
0
100
AcDbLine
 62
7
  6
CONTINUOUS
 10
44.5289534583
 20
144.4279480928
 11
44.2736343398
 21
144.2612815851
  0
LINE
  5
30E
100
AcDbEntity
  8
0
100
AcDbLine
 62
7
  6
CONTINUOUS
 10
42.2310810341
 20
150.9279480928
 11
41.8906555428
 21
150.7612811083
  0
LINE
  5
30F
100
AcDbEntity
  8
0
100
AcDbLine
 62
7
  6
CONTINUOUS
 10
45.294910933
 20
154.8446150774
 11
43.3374641194
 21
154.0946150774
  0
LINE
  5
310
100
AcDbEntity
  8
0
100
AcDbLine
 62
7
  6
CONTINUOUS
 10
43.5076768651
 20
153.5946150774
 11
45.294910933
 21
154.2612811083
  0
LINE
  5
311
100
AcDbEntity
  8
0
100
AcDbLine
 62
7
  6
CONTINUOUS
 10
42.2310810341
 20
154.7612811083
 11
41.9757619156
 21
154.6779480928
  0
LINE
  5
312
100
AcDbEntity
  8
0
100
AcDbLine
 62
7
  6
CONTINUOUS
 10
41.9757619156
 20
154.1779480928
 11
42.2310810341
 21
154.2612811083
  0
LINE
  5
313
100
AcDbEntity
  8
0
100
AcDbLine
 62
7
  6
CONTINUOUS
 10
41.8906555428
 20
143.9279480928
 11
42.2310810341
 21
143.7612815851
  0
LINE
  5
314
100
AcDbEntity
  8
0
100
AcDbLine
 62
7
  6
CONTINUOUS
 10
44.6991662635
 20
142.7612813467
 11
44.3587407126
 21
142.9279480928
  0
LINE
  5
315
100
AcDbEntity
  8
0
100
AcDbLine
 62
7
  6
CONTINUOUS
 10
44.2736343398
 20
142.4279480928
 11
44.5289534583
 21
142.2612813467
  0
LINE
  5
316
100
AcDbEntity
  8
0
100
AcDbLine
 62
7
  6
CONTINUOUS
 10
42.3161876454
 20
144.2612815851
 11
42.0608682885
 21
144.4279480928
  0
LINE
  5
317
100
AcDbEntity
  8
0
100
AcDbLine
 62
7
  6
CONTINUOUS
 10
44.2736343398
 20
146.4279480928
 11
44.5289534583
 21
146.2612815851
  0
LINE
  5
318
100
AcDbEntity
  8
0
100
AcDbLine
 62
7
  6
CONTINUOUS
 10
42.3161876454
 20
148.2612811083
 11
42.0608682885
 21
148.4279480928
  0
LINE
  5
319
100
AcDbEntity
  8
0
100
AcDbLine
 62
7
  6
CONTINUOUS
 10
44.2736343398
 20
150.4279480928
 11
44.5289534583
 21
150.2612811083
  0
LINE
  5
31A
100
AcDbEntity
  8
0
100
AcDbLine
 62
7
  6
CONTINUOUS
 10
45.0395917847
 20
146.4279480928
 11
44.6991662635
 21
146.7612815851
  0
LINE
  5
31B
100
AcDbEntity
  8
0
100
AcDbLine
 62
7
  6
CONTINUOUS
 10
45.0395917847
 20
150.4279480928
 11
44.6991662635
 21
150.7612811083
  0
LINE
  5
31C
100
AcDbEntity
  8
0
100
AcDbLine
 62
7
  6
CONTINUOUS
 10
42.7417195096
 20
154.1779480928
 11
42.9119322552
 21
154.0112811083
  0
LINE
  5
31D
100
AcDbEntity
  8
A_RUNDUNGEN
100
AcDbLine
 62
7
  6
CONTINUOUS
 10
64.794910933
 20
217.1279480928
 11
64.794910933
 21
199.2779100159
  0
LINE
  5
31E
100
AcDbEntity
  8
A_RUNDUNGEN
100
AcDbLine
 62
7
  6
CONTINUOUS
 10
64.794910933
 20
95.0779861697
 11
64.794910933
 21
77.2279480928
  0
LINE
  5
31F
100
AcDbEntity
  8
0
100
AcDbLine
 62
7
  6
CONTINUOUS
 10
64.794910933
 20
77.1779480928
 11
64.794910933
 21
77.2279480928
  0
LINE
  5
320
100
AcDbEntity
  8
0
100
AcDbLine
 62
7
  6
CONTINUOUS
 10
64.794910933
 20
96.1779480928
 11
64.794910933
 21
198.1779480928
  0
LINE
  5
321
100
AcDbEntity
  8
0
100
AcDbLine
 62
7
  6
CONTINUOUS
 10
64.794910933
 20
217.1279480928
 11
64.794910933
 21
217.1779480928
  0
LINE
  5
322
100
AcDbEntity
  8
0
100
AcDbLine
 62
7
  6
CONTINUOUS
 10
65.794910933
 20
97.0779480928
 11
65.794910933
 21
96.0779480928
  0
LINE
  5
323
100
AcDbEntity
  8
0
100
AcDbLine
 62
7
  6
CONTINUOUS
 10
65.794910933
 20
197.2779480928
 11
65.794910933
 21
198.2779480928
  0
LINE
  5
324
100
AcDbEntity
  8
0
100
AcDbLine
 62
7
  6
CONTINUOUS
 10
66.294910933
 20
97.1779480928
 11
66.294910933
 21
197.1779480928
  0
LINE
  5
325
100
AcDbEntity
  8
A_ACHSEN
100
AcDbLine
 62
7
  6
CONTINUOUS
 10
68.844910933
 20
197.2779480928
 11
68.844910933
 21
197.1779480928
  0
LINE
  5
326
100
AcDbEntity
  8
A_ACHSEN
100
AcDbLine
 62
7
  6
CONTINUOUS
 10
68.844910933
 20
97.0779480928
 11
68.844910933
 21
97.1779480928
  0
LINE
  5
327
100
AcDbEntity
  8
A_ACHSEN
100
AcDbLine
 62
7
  6
CENTER
 10
71.294910933
 20
72.7987209187
 11
71.294910933
 21
220.939481591
  0
LINE
  5
328
100
AcDbEntity
  8
0
100
AcDbLine
 62
7
  6
CONTINUOUS
 10
42.0608682885
 20
142.2612813467
 11
42.3161876454
 21
142.4279480928
  0
LINE
  5
329
100
AcDbEntity
  8
0
100
AcDbLine
 62
7
  6
CONTINUOUS
 10
42.2310810341
 20
146.9279480928
 11
41.8906555428
 21
146.7612815851
  0
LINE
  5
32A
100
AcDbEntity
  8
0
100
AcDbLine
 62
7
  6
CONTINUOUS
 10
44.3587407126
 20
147.7612811083
 11
44.6991662635
 21
147.9279480928
  0
LINE
  5
32B
100
AcDbEntity
  8
0
100
AcDbLine
 62
7
  6
CONTINUOUS
 10
42.2310810341
 20
142.9279480928
 11
41.8906555428
 21
142.7612813467
  0
LINE
  5
32C
100
AcDbEntity
  8
0
100
AcDbLine
 62
7
  6
CONTINUOUS
 10
44.3587407126
 20
143.7612815851
 11
44.6991662635
 21
143.9279480928
  0
LINE
  5
32D
100
AcDbEntity
  8
0
100
AcDbLine
 62
7
  6
CONTINUOUS
 10
41.294910933
 20
138.1779480928
 11
44.794910933
 21
138.1779480928
  0
LINE
  5
32E
100
AcDbEntity
  8
0
100
AcDbLine
 62
7
  6
CONTINUOUS
 10
44.3587407126
 20
142.9279480928
 11
43.9332088484
 21
143.0112813467
  0
LINE
  5
32F
100
AcDbEntity
  8
0
100
AcDbLine
 62
7
  6
CONTINUOUS
 10
42.2310810341
 20
143.7612815851
 11
42.6566131367
 21
143.6779480928
  0
LINE
  5
330
100
AcDbEntity
  8
0
100
AcDbLine
 62
7
  6
CONTINUOUS
 10
43.9332088484
 20
142.5112813467
 11
44.2736343398
 21
142.4279480928
  0
LINE
  5
331
100
AcDbEntity
  8
0
100
AcDbLine
 62
7
  6
CONTINUOUS
 10
42.6566131367
 20
144.1779480928
 11
42.3161876454
 21
144.2612815851
  0
LINE
  5
332
100
AcDbEntity
  8
0
100
AcDbLine
 62
7
  6
CONTINUOUS
 10
43.9332088484
 20
146.5112815851
 11
44.2736343398
 21
146.4279480928
  0
LINE
  5
333
100
AcDbEntity
  8
0
100
AcDbLine
 62
7
  6
CONTINUOUS
 10
42.6566131367
 20
148.1779480928
 11
42.3161876454
 21
148.2612811083
  0
LINE
  5
334
100
AcDbEntity
  8
0
100
AcDbLine
 62
7
  6
CONTINUOUS
 10
41.8906555428
 20
147.9279480928
 11
42.2310810341
 21
147.7612811083
  0
LINE
  5
335
100
AcDbEntity
  8
0
100
AcDbLine
 62
7
  6
CONTINUOUS
 10
44.6991662635
 20
146.7612815851
 11
44.3587407126
 21
146.9279480928
  0
LINE
  5
336
100
AcDbEntity
  8
0
100
AcDbLine
 62
7
  6
CONTINUOUS
 10
44.6991662635
 20
150.7612811083
 11
44.3587407126
 21
150.9279480928
  0
LINE
  5
337
100
AcDbEntity
  8
0
100
AcDbLine
 62
7
  6
CONTINUOUS
 10
43.1672513737
 20
154.4279480928
 11
42.8268258824
 21
154.6779480928
  0
LINE
  5
338
100
AcDbEntity
  8
A_ACHSEN
100
AcDbLine
 62
7
  6
CONTINUOUS
 10
73.744910933
 20
197.2779480928
 11
73.744910933
 21
197.1779480928
  0
LINE
  5
339
100
AcDbEntity
  8
A_ACHSEN
100
AcDbLine
 62
7
  6
CONTINUOUS
 10
73.744910933
 20
97.0779480928
 11
73.744910933
 21
97.1779480928
  0
LINE
  5
33A
100
AcDbEntity
  8
0
100
AcDbLine
 62
7
  6
CONTINUOUS
 10
75.7517891008
 20
198.1779480928
 11
75.7517891008
 21
197.1779480928
  0
LINE
  5
33B
100
AcDbEntity
  8
0
100
AcDbLine
 62
7
  6
CONTINUOUS
 10
75.7517891008
 20
97.1779480928
 11
75.7517891008
 21
96.1779480928
  0
LINE
  5
33C
100
AcDbEntity
  8
0
100
AcDbLine
 62
7
  6
CONTINUOUS
 10
76.794910933
 20
87.2279480928
 11
76.794910933
 21
96.1779480928
  0
LINE
  5
33D
100
AcDbEntity
  8
0
100
AcDbLine
 62
7
  6
CONTINUOUS
 10
76.794910933
 20
198.1779480928
 11
76.794910933
 21
207.1279480928
  0
LINE
  5
33E
100
AcDbEntity
  8
0
100
AcDbLine
 62
7
  6
CONTINUOUS
 10
80.0355929926
 20
198.1779480928
 11
80.0355929926
 21
197.1779480928
  0
LINE
  5
33F
100
AcDbEntity
  8
0
100
AcDbLine
 62
7
  6
CONTINUOUS
 10
80.0355929926
 20
97.1779480928
 11
80.0355929926
 21
96.1779480928
  0
LINE
  5
340
100
AcDbEntity
  8
0
100
AcDbLine
 62
7
  6
CONTINUOUS
 10
41.294910933
 20
139.6779480928
 11
45.294910933
 21
139.6779480928
  0
LINE
  5
341
100
AcDbEntity
  8
0
100
AcDbLine
 62
7
  6
CONTINUOUS
 10
44.7842726364
 20
140.1779480928
 11
41.80554917
 21
140.1779480928
  0
LINE
  5
342
100
AcDbEntity
  8
0
100
AcDbLine
 62
7
  6
CONTINUOUS
 10
42.6566131367
 20
142.5112813467
 11
43.9332088484
 21
142.5112813467
  0
LINE
  5
343
100
AcDbEntity
  8
0
100
AcDbLine
 62
7
  6
CONTINUOUS
 10
43.9332088484
 20
143.0112813467
 11
42.6566131367
 21
143.0112813467
  0
LINE
  5
344
100
AcDbEntity
  8
0
100
AcDbLine
 62
7
  6
CONTINUOUS
 10
42.6566131367
 20
143.6779480928
 11
43.9332088484
 21
143.6779480928
  0
LINE
  5
345
100
AcDbEntity
  8
0
100
AcDbLine
 62
7
  6
CONTINUOUS
 10
43.9332088484
 20
144.1779480928
 11
42.6566131367
 21
144.1779480928
  0
LINE
  5
346
100
AcDbEntity
  8
0
100
AcDbLine
 62
7
  6
CONTINUOUS
 10
42.6566131367
 20
146.5112815851
 11
43.9332088484
 21
146.5112815851
  0
LINE
  5
347
100
AcDbEntity
  8
0
100
AcDbLine
 62
7
  6
CONTINUOUS
 10
43.9332088484
 20
147.0112815851
 11
42.6566131367
 21
147.0112815851
  0
LINE
  5
348
100
AcDbEntity
  8
0
100
AcDbLine
 62
7
  6
CONTINUOUS
 10
42.6566131367
 20
147.6779480928
 11
43.9332088484
 21
147.6779480928
  0
LINE
  5
349
100
AcDbEntity
  8
0
100
AcDbLine
 62
7
  6
CONTINUOUS
 10
43.9332088484
 20
148.1779480928
 11
42.6566131367
 21
148.1779480928
  0
LINE
  5
34A
100
AcDbEntity
  8
0
100
AcDbLine
 62
7
  6
CONTINUOUS
 10
44.3587407126
 20
146.9279480928
 11
43.9332088484
 21
147.0112815851
  0
LINE
  5
34B
100
AcDbEntity
  8
0
100
AcDbLine
 62
7
  6
CONTINUOUS
 10
42.2310810341
 20
147.7612811083
 11
42.6566131367
 21
147.6779480928
  0
LINE
  5
34C
100
AcDbEntity
  8
0
100
AcDbLine
 62
7
  6
CONTINUOUS
 10
44.3587407126
 20
150.9279480928
 11
43.9332088484
 21
151.0112811083
  0
LINE
  5
34D
100
AcDbEntity
  8
0
100
AcDbLine
 62
7
  6
CONTINUOUS
 10
43.9332088484
 20
150.5112811083
 11
44.2736343398
 21
150.4279480928
  0
LINE
  5
34E
100
AcDbEntity
  8
0
100
AcDbLine
 62
7
  6
CONTINUOUS
 10
42.4864003911
 20
154.2612811083
 11
42.7417195096
 21
154.1779480928
  0
LINE
  5
34F
100
AcDbEntity
  8
0
100
AcDbLine
 62
7
  6
CONTINUOUS
 10
42.8268258824
 20
154.6779480928
 11
42.5715067639
 21
154.7612811083
  0
LINE
  5
350
100
AcDbEntity
  8
0
100
AcDbLine
 62
7
  6
CONTINUOUS
 10
42.3161876454
 20
142.4279480928
 11
42.6566131367
 21
142.5112813467
  0
LINE
  5
351
100
AcDbEntity
  8
0
100
AcDbLine
 62
7
  6
CONTINUOUS
 10
44.2736343398
 20
144.2612815851
 11
43.9332088484
 21
144.1779480928
  0
LINE
  5
352
100
AcDbEntity
  8
0
100
AcDbLine
 62
7
  6
CONTINUOUS
 10
42.3161876454
 20
146.4279480928
 11
42.6566131367
 21
146.5112815851
  0
LINE
  5
353
100
AcDbEntity
  8
0
100
AcDbLine
 62
7
  6
CONTINUOUS
 10
44.2736343398
 20
148.2612811083
 11
43.9332088484
 21
148.1779480928
  0
LINE
  5
354
100
AcDbEntity
  8
0
100
AcDbLine
 62
7
  6
CONTINUOUS
 10
42.6566131367
 20
143.0112813467
 11
42.2310810341
 21
142.9279480928
  0
LINE
  5
355
100
AcDbEntity
  8
0
100
AcDbLine
 62
7
  6
CONTINUOUS
 10
43.9332088484
 20
143.6779480928
 11
44.3587407126
 21
143.7612815851
  0
LINE
  5
356
100
AcDbEntity
  8
0
100
AcDbLine
 62
7
  6
CONTINUOUS
 10
42.6566131367
 20
147.0112815851
 11
42.2310810341
 21
146.9279480928
  0
LINE
  5
357
100
AcDbEntity
  8
0
100
AcDbLine
 62
7
  6
CONTINUOUS
 10
43.9332088484
 20
147.6779480928
 11
44.3587407126
 21
147.7612811083
  0
LINE
  5
358
100
AcDbEntity
  8
0
100
AcDbLine
 62
7
  6
CONTINUOUS
 10
42.6566131367
 20
150.5112811083
 11
43.9332088484
 21
150.5112811083
  0
LINE
  5
359
100
AcDbEntity
  8
0
100
AcDbLine
 62
7
  6
CONTINUOUS
 10
43.9332088484
 20
151.0112811083
 11
42.6566131367
 21
151.0112811083
  0
LINE
  5
35A
100
AcDbEntity
  8
0
100
AcDbLine
 62
7
  6
CONTINUOUS
 10
41.294910933
 20
151.6779480928
 11
45.294910933
 21
151.6779480928
  0
LINE
  5
35B
100
AcDbEntity
  8
0
100
AcDbLine
 62
7
  6
CONTINUOUS
 10
45.294910933
 20
152.1779480928
 11
43.5076768651
 21
152.1779480928
  0
LINE
  5
35C
100
AcDbEntity
  8
0
100
AcDbLine
 62
7
  6
CONTINUOUS
 10
42.9970386281
 20
152.1779480928
 11
41.7204427971
 21
152.1779480928
  0
LINE
  5
35D
100
AcDbEntity
  8
0
100
AcDbLine
 62
7
  6
CONTINUOUS
 10
42.2310810341
 20
154.2612811083
 11
42.4864003911
 21
154.2612811083
  0
LINE
  5
35E
100
AcDbEntity
  8
0
100
AcDbLine
 62
7
  6
CONTINUOUS
 10
42.5715067639
 20
154.7612811083
 11
42.2310810341
 21
154.7612811083
  0
LINE
  5
35F
100
AcDbEntity
  8
0
100
AcDbLine
 62
7
  6
CONTINUOUS
 10
44.794910933
 20
156.1779480928
 11
41.294910933
 21
156.1779480928
  0
LINE
  5
360
100
AcDbEntity
  8
0
100
AcDbLine
 62
7
  6
CONTINUOUS
 10
92.744910933
 20
257.1779480928
 11
92.744910933
 21
247.1779480928
  0
LINE
  5
361
100
AcDbEntity
  8
0
100
AcDbLine
 62
7
  6
CONTINUOUS
 10
92.744910933
 20
47.1779480928
 11
92.744910933
 21
37.1779480928
  0
LINE
  5
362
100
AcDbEntity
  8
0
100
AcDbLine
 62
7
  6
CONTINUOUS
 10
92.794910933
 20
257.1779480928
 11
92.794910933
 21
200.9779480928
  0
LINE
  5
363
100
AcDbEntity
  8
0
100
AcDbLine
 62
7
  6
CONTINUOUS
 10
92.794910933
 20
93.3779480928
 11
92.794910933
 21
37.1779480928
  0
LINE
  5
364
100
AcDbEntity
  8
A_RUNDUNGEN
100
AcDbLine
 62
7
  6
CONTINUOUS
 10
92.794910933
 20
93.3779480928
 11
92.794910933
 21
96.1779480928
  0
LINE
  5
365
100
AcDbEntity
  8
A_RUNDUNGEN
100
AcDbLine
 62
7
  6
CONTINUOUS
 10
92.794910933
 20
198.1779480928
 11
92.794910933
 21
200.9779480928
  0
LINE
  5
366
100
AcDbEntity
  8
0
100
AcDbLine
 62
7
  6
CONTINUOUS
 10
94.194910933
 20
200.9779480928
 11
94.194910933
 21
198.1779480928
  0
LINE
  5
367
100
AcDbEntity
  8
0
100
AcDbLine
 62
7
  6
CONTINUOUS
 10
94.194910933
 20
96.1779480928
 11
94.194910933
 21
93.3779480928
  0
LINE
  5
368
100
AcDbEntity
  8
A_RUNDUNGEN
100
AcDbLine
 62
7
  6
CONTINUOUS
 10
94.4734527431
 20
200.9779480928
 11
94.4734527431
 21
198.1779480928
  0
LINE
  5
369
100
AcDbEntity
  8
A_RUNDUNGEN
100
AcDbLine
 62
7
  6
CONTINUOUS
 10
94.4734527431
 20
96.1779480928
 11
94.4734527431
 21
93.3779480928
  0
LINE
  5
36A
100
AcDbEntity
  8
DEFAULT_2
100
AcDbLine
 62
8
  6
HIDDEN
 10
94.7029052188
 20
235.1779480928
 11
94.7029052188
 21
229.1779480928
  0
LINE
  5
36B
100
AcDbEntity
  8
DEFAULT_2
100
AcDbLine
 62
8
  6
HIDDEN
 10
94.7029052188
 20
65.1779480928
 11
94.7029052188
 21
59.1779480928
  0
LINE
  5
36C
100
AcDbEntity
  8
0
100
AcDbLine
 62
7
  6
CONTINUOUS
 10
94.9753396141
 20
198.1779480928
 11
94.9753396141
 21
197.1779480928
  0
LINE
  5
36D
100
AcDbEntity
  8
0
100
AcDbLine
 62
7
  6
CONTINUOUS
 10
94.9753396141
 20
97.1779480928
 11
94.9753396141
 21
96.1779480928
  0
LINE
  5
36E
100
AcDbEntity
  8
0
100
AcDbLine
 62
7
  6
CONTINUOUS
 10
95.194910933
 20
66.6779480928
 11
95.194910933
 21
64.1779480928
  0
LINE
  5
36F
100
AcDbEntity
  8
0
100
AcDbLine
 62
7
  6
CONTINUOUS
 10
95.234910933
 20
89.4979480928
 11
95.234910933
 21
88.8679480928
  0
LINE
  5
370
100
AcDbEntity
  8
0
100
AcDbLine
 62
7
  6
CONTINUOUS
 10
95.234910933
 20
88.1279480928
 11
95.234910933
 21
87.5879480928
  0
LINE
  5
371
100
AcDbEntity
  8
0
100
AcDbLine
 62
7
  6
CONTINUOUS
 10
95.234910933
 20
84.9979480928
 11
95.234910933
 21
83.4479480928
  0
LINE
  5
372
100
AcDbEntity
  8
0
100
AcDbLine
 62
7
  6
CONTINUOUS
 10
95.234910933
 20
83.1879480928
 11
95.234910933
 21
82.6479480928
  0
LINE
  5
373
100
AcDbEntity
  8
0
100
AcDbLine
 62
7
  6
CONTINUOUS
 10
95.234910933
 20
81.8135842938
 11
95.234910933
 21
81.1235842938
  0
LINE
  5
374
100
AcDbEntity
  8
0
100
AcDbLine
 62
7
  6
CONTINUOUS
 10
95.234910933
 20
80.2752250488
 11
95.234910933
 21
79.7352250488
  0
LINE
  5
375
100
AcDbEntity
  8
0
100
AcDbLine
 62
7
  6
CONTINUOUS
 10
95.234910933
 20
77.6179480928
 11
95.234910933
 21
77.0779480928
  0
LINE
  5
376
100
AcDbEntity
  8
0
100
AcDbLine
 62
7
  6
CONTINUOUS
 10
95.234910933
 20
76.2779480928
 11
95.234910933
 21
75.5879480928
  0
LINE
  5
377
100
AcDbEntity
  8
0
100
AcDbLine
 62
7
  6
CONTINUOUS
 10
95.234910933
 20
72.9679480928
 11
95.234910933
 21
72.4279480928
  0
LINE
  5
378
100
AcDbEntity
  8
0
100
AcDbLine
 62
7
  6
CONTINUOUS
 10
95.234910933
 20
71.1079480928
 11
95.234910933
 21
70.5679480928
  0
LINE
  5
379
100
AcDbEntity
  8
0
100
AcDbLine
 62
7
  6
CONTINUOUS
 10
95.234910933
 20
70.1179480928
 11
95.234910933
 21
69.5779480928
  0
LINE
  5
37A
100
AcDbEntity
  8
0
100
AcDbLine
 62
7
  6
CONTINUOUS
 10
95.724910933
 20
86.3479480928
 11
95.724910933
 21
85.9079480928
  0
LINE
  5
37B
100
AcDbEntity
  8
0
100
AcDbLine
 62
7
  6
CONTINUOUS
 10
95.724910933
 20
84.0079480928
 11
95.724910933
 21
84.9979480928
  0
LINE
  5
37C
100
AcDbEntity
  8
A_RUNDUNGEN
100
AcDbLine
 62
7
  6
CONTINUOUS
 10
95.794910933
 20
93.3779480928
 11
95.794910933
 21
97.1779480928
  0
LINE
  5
37D
100
AcDbEntity
  8
A_RUNDUNGEN
100
AcDbLine
 62
7
  6
CONTINUOUS
 10
95.794910933
 20
197.1779480928
 11
95.794910933
 21
200.9779480928
  0
LINE
  5
37E
100
AcDbEntity
  8
0
100
AcDbLine
 62
7
  6
CONTINUOUS
 10
96.104910933
 20
65.2879480928
 11
96.104910933
 21
66.6779480928
  0
LINE
  5
37F
100
AcDbEntity
  8
0
100
AcDbLine
 62
7
  6
CONTINUOUS
 10
96.174910933
 20
84.9179480928
 11
96.174910933
 21
84.0079480928
  0
LINE
  5
380
100
AcDbEntity
  8
0
100
AcDbLine
 62
7
  6
CONTINUOUS
 10
96.374910933
 20
66.6779480928
 11
96.374910933
 21
65.5679480928
  0
LINE
  5
381
100
AcDbEntity
  8
0
100
AcDbLine
 62
7
  6
CONTINUOUS
 10
96.514910933
 20
64.1779480928
 11
96.514910933
 21
65.2879480928
  0
LINE
  5
382
100
AcDbEntity
  8
A_ACHSEN
100
AcDbLine
 62
8
  6
HIDDEN
 10
96.594910933
 20
235.1779480928
 11
96.594910933
 21
229.1779480928
  0
LINE
  5
383
100
AcDbEntity
  8
A_ACHSEN
100
AcDbLine
 62
8
  6
HIDDEN
 10
96.594910933
 20
65.1779480928
 11
96.594910933
 21
59.1779480928
  0
LINE
  5
384
100
AcDbEntity
  8
0
100
AcDbLine
 62
7
  6
CONTINUOUS
 10
96.664910933
 20
84.0079480928
 11
96.664910933
 21
84.9179480928
  0
LINE
  5
385
100
AcDbEntity
  8
0
100
AcDbLine
 62
7
  6
CONTINUOUS
 10
96.784910933
 20
65.5679480928
 11
96.784910933
 21
64.1779480928
  0
LINE
  5
386
100
AcDbEntity
  8
0
100
AcDbLine
 62
7
  6
CONTINUOUS
 10
96.924910933
 20
86.2279480928
 11
96.924910933
 21
85.9079480928
  0
LINE
  5
387
100
AcDbEntity
  8
0
100
AcDbLine
 62
7
  6
CONTINUOUS
 10
97.204910933
 20
84.9979480928
 11
97.204910933
 21
84.0079480928
  0
LINE
  5
388
100
AcDbEntity
  8
0
100
AcDbLine
 62
7
  6
CONTINUOUS
 10
97.374910933
 20
71.5226475993
 11
97.374910933
 21
72.0126475993
  0
LINE
  5
389
100
AcDbEntity
  8
0
100
AcDbLine
 62
7
  6
CONTINUOUS
 10
97.694910933
 20
87.4379480928
 11
97.694910933
 21
86.7779480928
  0
LINE
  5
38A
100
AcDbEntity
  8
0
100
AcDbLine
 62
7
  6
CONTINUOUS
 10
97.694910933
 20
85.9079480928
 11
97.694910933
 21
85.3479480928
  0
LINE
  5
38B
100
AcDbEntity
  8
0
100
AcDbLine
 62
7
  6
CONTINUOUS
 10
97.694910933
 20
64.1779480928
 11
97.694910933
 21
66.6779480928
  0
LINE
  5
38C
100
AcDbEntity
  8
0
100
AcDbLine
 62
7
  6
CONTINUOUS
 10
97.694910933
 20
69.5779480928
 11
97.694910933
 21
70.1179480928
  0
LINE
  5
38D
100
AcDbEntity
  8
0
100
AcDbLine
 62
7
  6
CONTINUOUS
 10
97.694910933
 20
70.5679480928
 11
97.694910933
 21
71.1079480928
  0
LINE
  5
38E
100
AcDbEntity
  8
0
100
AcDbLine
 62
7
  6
CONTINUOUS
 10
97.694910933
 20
72.4279480928
 11
97.694910933
 21
72.9679480928
  0
LINE
  5
38F
100
AcDbEntity
  8
0
100
AcDbLine
 62
7
  6
CONTINUOUS
 10
97.694910933
 20
75.5879480928
 11
97.694910933
 21
76.1279480928
  0
LINE
  5
390
100
AcDbEntity
  8
0
100
AcDbLine
 62
7
  6
CONTINUOUS
 10
97.694910933
 20
76.9279480928
 11
97.694910933
 21
77.6179480928
  0
LINE
  5
391
100
AcDbEntity
  8
0
100
AcDbLine
 62
7
  6
CONTINUOUS
 10
97.694910933
 20
80.3376382979
 11
97.694910933
 21
81.0476382979
  0
LINE
  5
392
100
AcDbEntity
  8
0
100
AcDbLine
 62
7
  6
CONTINUOUS
 10
97.694910933
 20
81.8791743877
 11
97.694910933
 21
82.5891743877
  0
LINE
  5
393
100
AcDbEntity
  8
0
100
AcDbLine
 62
7
  6
CONTINUOUS
 10
97.694910933
 20
83.4479480928
 11
97.694910933
 21
84.9979480928
  0
LINE
  5
394
100
AcDbEntity
  8
0
100
AcDbLine
 62
7
  6
CONTINUOUS
 10
97.694910933
 20
87.5879480928
 11
97.694910933
 21
88.1279480928
  0
LINE
  5
395
100
AcDbEntity
  8
0
100
AcDbLine
 62
7
  6
CONTINUOUS
 10
97.694910933
 20
88.9291560002
 11
97.694910933
 21
89.5591560002
  0
LINE
  5
396
100
AcDbEntity
  8
A_RUNDUNGEN
100
AcDbLine
 62
7
  6
CONTINUOUS
 10
122.644910933
 20
247.1779480928
 11
122.594910933
 21
247.0112660241
  0
LINE
  5
397
100
AcDbEntity
  8
0
100
AcDbLine
 62
7
  6
CONTINUOUS
 10
42.3161876454
 20
150.4279480928
 11
42.6566131367
 21
150.5112811083
  0
LINE
  5
398
100
AcDbEntity
  8
0
100
AcDbLine
 62
7
  6
CONTINUOUS
 10
42.6566131367
 20
151.0112811083
 11
42.2310810341
 21
150.9279480928
  0
LINE
  5
399
100
AcDbEntity
  8
A_RUNDUNGEN
100
AcDbLine
 62
7
  6
CONTINUOUS
 10
122.644910933
 20
47.1779480928
 11
122.594910933
 21
47.3446301615
  0
LINE
  5
39A
100
AcDbEntity
  8
A_ACHSEN
100
AcDbLine
 62
7
  6
CENTER
 10
99.194910933
 20
53.4557556463
 11
99.194910933
 21
70.5167645859
  0
LINE
  5
39B
100
AcDbEntity
  8
A_ACHSEN
100
AcDbLine
 62
7
  6
CENTER
 10
99.194910933
 20
223.3026737921
 11
99.194910933
 21
240.4288609572
  0
LINE
  5
39C
100
AcDbEntity
  8
A_ACHSEN
100
AcDbLine
 62
7
  6
CENTER
 10
100.694910933
 20
23.5816375089
 11
100.694910933
 21
38.7742586767
  0
LINE
  5
39D
100
AcDbEntity
  8
A_ACHSEN
100
AcDbLine
 62
7
  6
CENTER
 10
100.694910933
 20
254.6769408578
 11
100.694910933
 21
271.6789553278
  0
LINE
  5
39E
100
AcDbEntity
  8
A_ACHSEN
100
AcDbLine
 62
8
  6
HIDDEN
 10
101.794910933
 20
59.1779480928
 11
101.794910933
 21
65.1779480928
  0
LINE
  5
39F
100
AcDbEntity
  8
A_ACHSEN
100
AcDbLine
 62
8
  6
HIDDEN
 10
101.794910933
 20
229.1779480928
 11
101.794910933
 21
235.1779480928
  0
LINE
  5
3A0
100
AcDbEntity
  8
DEFAULT_2
100
AcDbLine
 62
8
  6
HIDDEN
 10
103.6869166472
 20
59.1779480928
 11
103.6869166472
 21
65.1779480928
  0
LINE
  5
3A1
100
AcDbEntity
  8
DEFAULT_2
100
AcDbLine
 62
8
  6
HIDDEN
 10
103.6869166472
 20
229.1779480928
 11
103.6869166472
 21
235.1779480928
  0
LINE
  5
3A2
100
AcDbEntity
  8
0
100
AcDbLine
 62
7
  6
CONTINUOUS
 10
105.794910933
 20
230.6779480928
 11
105.794910933
 21
229.6779480928
  0
LINE
  5
3A3
100
AcDbEntity
  8
0
100
AcDbLine
 62
7
  6
CONTINUOUS
 10
105.794910933
 20
64.6779480928
 11
105.794910933
 21
63.6779480928
  0
LINE
  5
3A4
100
AcDbEntity
  8
0
100
AcDbLine
 62
7
  6
CONTINUOUS
 10
105.794910933
 20
97.1779480928
 11
105.794910933
 21
197.1779480928
  0
LINE
  5
3A5
100
AcDbEntity
  8
0
100
AcDbLine
 62
7
  6
CONTINUOUS
 10
106.2797341343
 20
230.1931248914
 11
106.2797341343
 21
230.1627712942
  0
LINE
  5
3A6
100
AcDbEntity
  8
0
100
AcDbLine
 62
7
  6
CONTINUOUS
 10
106.2797341343
 20
64.1931248914
 11
106.2797341343
 21
64.1627712942
  0
LINE
  5
3A7
100
AcDbEntity
  8
0
100
AcDbLine
 62
7
  6
CONTINUOUS
 10
107.194910933
 20
232.0779480928
 11
107.194910933
 21
230.9779480928
  0
LINE
  5
3A8
100
AcDbEntity
  8
0
100
AcDbLine
 62
7
  6
CONTINUOUS
 10
107.194910933
 20
229.3779480928
 11
107.194910933
 21
228.2779480928
  0
LINE
  5
3A9
100
AcDbEntity
  8
0
100
AcDbLine
 62
7
  6
CONTINUOUS
 10
107.194910933
 20
66.0779480928
 11
107.194910933
 21
64.9779480928
  0
LINE
  5
3AA
100
AcDbEntity
  8
0
100
AcDbLine
 62
7
  6
CONTINUOUS
 10
107.194910933
 20
63.3779480928
 11
107.194910933
 21
62.2779480928
  0
LINE
  5
3AB
100
AcDbEntity
  8
0
100
AcDbLine
 62
7
  6
CONTINUOUS
 10
107.6797341343
 20
231.5931248914
 11
107.6797341343
 21
230.9779480928
  0
LINE
  5
3AC
100
AcDbEntity
  8
0
100
AcDbLine
 62
7
  6
CONTINUOUS
 10
107.6797341343
 20
229.3779480928
 11
107.6797341343
 21
228.7627712942
  0
LINE
  5
3AD
100
AcDbEntity
  8
0
100
AcDbLine
 62
7
  6
CONTINUOUS
 10
107.6797341343
 20
65.5931248914
 11
107.6797341343
 21
64.9779480928
  0
LINE
  5
3AE
100
AcDbEntity
  8
0
100
AcDbLine
 62
7
  6
CONTINUOUS
 10
107.6797341343
 20
63.3779480928
 11
107.6797341343
 21
62.7627712942
  0
LINE
  5
3AF
100
AcDbEntity
  8
DEFAULT_1
100
AcDbLine
 62
7
  6
CENTER
 10
107.694910933
 20
57.5520923279
 11
107.694910933
 21
70.8038038578
  0
LINE
  5
3B0
100
AcDbEntity
  8
A_ACHSEN
100
AcDbLine
 62
7
  6
CENTER
 10
107.694910933
 20
223.4773365952
 11
107.694910933
 21
236.8785595904
  0
LINE
  5
3B1
100
AcDbEntity
  8
0
100
AcDbLine
 62
7
  6
CONTINUOUS
 10
107.7100877316
 20
62.7627712942
 11
107.7100877316
 21
63.3779480928
  0
LINE
  5
3B2
100
AcDbEntity
  8
0
100
AcDbLine
 62
7
  6
CONTINUOUS
 10
107.7100877316
 20
64.9779480928
 11
107.7100877316
 21
65.5931248914
  0
LINE
  5
3B3
100
AcDbEntity
  8
0
100
AcDbLine
 62
7
  6
CONTINUOUS
 10
107.7100877316
 20
228.7627712942
 11
107.7100877316
 21
229.3779480928
  0
LINE
  5
3B4
100
AcDbEntity
  8
0
100
AcDbLine
 62
7
  6
CONTINUOUS
 10
107.7100877316
 20
230.9779480928
 11
107.7100877316
 21
231.5931248914
  0
LINE
  5
3B5
100
AcDbEntity
  8
0
100
AcDbLine
 62
7
  6
CONTINUOUS
 10
108.194910933
 20
62.2779480928
 11
108.194910933
 21
63.3779480928
  0
LINE
  5
3B6
100
AcDbEntity
  8
0
100
AcDbLine
 62
7
  6
CONTINUOUS
 10
108.194910933
 20
64.9779480928
 11
108.194910933
 21
66.0779480928
  0
LINE
  5
3B7
100
AcDbEntity
  8
0
100
AcDbLine
 62
7
  6
CONTINUOUS
 10
108.194910933
 20
228.2779480928
 11
108.194910933
 21
229.3779480928
  0
LINE
  5
3B8
100
AcDbEntity
  8
0
100
AcDbLine
 62
7
  6
CONTINUOUS
 10
108.194910933
 20
230.9779480928
 11
108.194910933
 21
232.0779480928
  0
LINE
  5
3B9
100
AcDbEntity
  8
A_RUNDUNGEN
100
AcDbLine
 62
7
  6
CONTINUOUS
 10
108.594910933
 20
200.4779480928
 11
108.594910933
 21
93.8779480928
  0
LINE
  5
3BA
100
AcDbEntity
  8
0
100
AcDbLine
 62
7
  6
CONTINUOUS
 10
109.1100877316
 20
64.1627712942
 11
109.1100877316
 21
64.1931248914
  0
LINE
  5
3BB
100
AcDbEntity
  8
0
100
AcDbLine
 62
7
  6
CONTINUOUS
 10
109.1100877316
 20
230.1627712942
 11
109.1100877316
 21
230.1931248914
  0
LINE
  5
3BC
100
AcDbEntity
  8
0
100
AcDbLine
 62
7
  6
CONTINUOUS
 10
109.594910933
 20
63.6779480928
 11
109.594910933
 21
64.6779480928
  0
LINE
  5
3BD
100
AcDbEntity
  8
0
100
AcDbLine
 62
7
  6
CONTINUOUS
 10
109.594910933
 20
229.6779480928
 11
109.594910933
 21
230.6779480928
  0
LINE
  5
3BE
100
AcDbEntity
  8
DEFAULT_2
100
AcDbLine
 62
8
  6
HIDDEN
 10
111.7029052188
 20
235.1779480928
 11
111.7029052188
 21
229.1779480928
  0
LINE
  5
3BF
100
AcDbEntity
  8
DEFAULT_2
100
AcDbLine
 62
8
  6
HIDDEN
 10
111.7029052188
 20
65.1779480928
 11
111.7029052188
 21
59.1779480928
  0
LINE
  5
3C0
100
AcDbEntity
  8
A_ACHSEN
100
AcDbLine
 62
8
  6
HIDDEN
 10
113.594910933
 20
235.1779480928
 11
113.594910933
 21
229.1779480928
  0
LINE
  5
3C1
100
AcDbEntity
  8
A_ACHSEN
100
AcDbLine
 62
8
  6
HIDDEN
 10
113.594910933
 20
65.1779480928
 11
113.594910933
 21
59.1779480928
  0
LINE
  5
3C2
100
AcDbEntity
  8
A_ACHSEN
100
AcDbLine
 62
7
  6
CENTER
 10
114.694910933
 20
22.9921656816
 11
114.694910933
 21
39.3637305041
  0
LINE
  5
3C3
100
AcDbEntity
  8
A_ACHSEN
100
AcDbLine
 62
7
  6
CENTER
 10
114.694910933
 20
255.5668925048
 11
114.694910933
 21
270.7890036808
  0
LINE
  5
3C4
100
AcDbEntity
  8
A_ACHSEN
100
AcDbLine
 62
7
  6
CENTER
 10
116.194910933
 20
53.225902576
 11
116.194910933
 21
71.3617793548
  0
LINE
  5
3C5
100
AcDbEntity
  8
A_ACHSEN
100
AcDbLine
 62
7
  6
CENTER
 10
116.194910933
 20
223.2124626915
 11
116.194910933
 21
241.0914033745
  0
LINE
  5
3C6
100
AcDbEntity
  8
A_ACHSEN
100
AcDbLine
 62
8
  6
HIDDEN
 10
118.794910933
 20
59.1779480928
 11
118.794910933
 21
65.1779480928
  0
LINE
  5
3C7
100
AcDbEntity
  8
A_ACHSEN
100
AcDbLine
 62
8
  6
HIDDEN
 10
118.794910933
 20
229.1779480928
 11
118.794910933
 21
235.1779480928
  0
LINE
  5
3C8
100
AcDbEntity
  8
DEFAULT_2
100
AcDbLine
 62
8
  6
HIDDEN
 10
120.6869166472
 20
59.1779480928
 11
120.6869166472
 21
65.1779480928
  0
LINE
  5
3C9
100
AcDbEntity
  8
DEFAULT_2
100
AcDbLine
 62
8
  6
HIDDEN
 10
120.6869166472
 20
229.1779480928
 11
120.6869166472
 21
235.1779480928
  0
LINE
  5
3CA
100
AcDbEntity
  8
0
100
AcDbLine
 62
7
  6
CONTINUOUS
 10
122.594910933
 20
37.1779480928
 11
122.594910933
 21
257.1779480928
  0
LINE
  5
3CB
100
AcDbEntity
  8
0
100
AcDbLine
 62
7
  6
CONTINUOUS
 10
122.644910933
 20
37.1779480928
 11
122.644910933
 21
47.1779480928
  0
LINE
  5
3CC
100
AcDbEntity
  8
0
100
AcDbLine
 62
7
  6
CONTINUOUS
 10
122.644910933
 20
247.1779480928
 11
122.644910933
 21
257.1779480928
  0
LINE
  5
3CD
100
AcDbEntity
  8
A_RUNDUNGEN
100
AcDbLine
 62
7
  6
CONTINUOUS
 10
92.744910933
 20
47.1779480928
 11
92.794910933
 21
47.3446301615
  0
LINE
  5
3CE
100
AcDbEntity
  8
A_ACHSEN
100
AcDbLine
 62
7
  6
CENTER
 10
47.7627744627
 20
191.1779480928
 11
64.8270474033
 21
191.1779480928
  0
LINE
  5
3CF
100
AcDbEntity
  8
A_RUNDUNGEN
100
AcDbLine
 62
7
  6
CONTINUOUS
 10
92.744910933
 20
247.1779480928
 11
92.794910933
 21
247.0112660241
  0
LINE
  5
3D0
100
AcDbEntity
  8
0
100
AcDbLine
 62
7
  6
CONTINUOUS
 10
66.294910933
 20
197.1779480928
 11
105.794910933
 21
197.1779480928
  0
LINE
  5
3D1
100
AcDbEntity
  8
0
100
AcDbLine
 62
7
  6
CONTINUOUS
 10
65.794910933
 20
197.2779480928
 11
75.7517891008
 21
197.2779480928
  0
LINE
  5
3D2
100
AcDbEntity
  8
A_RUNDUNGEN
100
AcDbLine
 62
7
  6
CONTINUOUS
 10
65.794910933
 20
197.9898853004
 11
65.5068100636
 21
197.9898853004
  0
LINE
  5
3D3
100
AcDbEntity
  8
A_RUNDUNGEN
100
AcDbLine
 62
7
  6
CONTINUOUS
 10
55.1878139888
 20
197.9898853004
 11
52.4020078772
 21
197.9898853004
  0
LINE
  5
3D4
100
AcDbEntity
  8
A_RUNDUNGEN
100
AcDbLine
 62
7
  6
CONTINUOUS
 10
52.7950252131
 20
198.1208644726
 11
54.7947966529
 21
198.1208644726
  0
LINE
  5
3D5
100
AcDbEntity
  8
0
100
AcDbLine
 62
7
  6
CONTINUOUS
 10
94.974840511
 20
198.1779480928
 11
80.0355929926
 21
198.1779480928
  0
LINE
  5
3D6
100
AcDbEntity
  8
0
100
AcDbLine
 62
7
  6
CONTINUOUS
 10
80.0332976864
 20
198.1779480928
 11
75.7522943051
 21
198.1779480928
  0
LINE
  5
3D7
100
AcDbEntity
  8
0
100
AcDbLine
 62
7
  6
CONTINUOUS
 10
53.2429794076
 20
198.1779480928
 11
64.794910933
 21
198.1779480928
  0
LINE
  5
3D8
100
AcDbEntity
  8
A_RUNDUNGEN
100
AcDbLine
 62
7
  6
CONTINUOUS
 10
65.794872856
 20
198.2779480928
 11
76.794910933
 21
198.2779480928
  0
LINE
  5
3D9
100
AcDbEntity
  8
0
100
AcDbLine
 62
7
  6
CONTINUOUS
 10
36.994910933
 20
199.1779480928
 11
38.294910933
 21
199.1779480928
  0
LINE
  5
3DA
100
AcDbEntity
  8
A_RUNDUNGEN
100
AcDbLine
 62
7
  6
CONTINUOUS
 10
38.294910933
 20
199.1779480928
 11
38.4435036156
 21
199.1779480928
  0
LINE
  5
3DB
100
AcDbEntity
  8
0
100
AcDbLine
 62
7
  6
CONTINUOUS
 10
100.794910933
 20
199.8779480928
 11
103.794910933
 21
199.8779480928
  0
LINE
  5
3DC
100
AcDbEntity
  8
A_RUNDUNGEN
100
AcDbLine
 62
7
  6
CONTINUOUS
 10
92.794910933
 20
200.9779480928
 11
108.094910933
 21
200.9779480928
  0
LINE
  5
3DD
100
AcDbEntity
  8
0
100
AcDbLine
 62
7
  6
CONTINUOUS
 10
96.854910933
 20
86.8379480928
 11
97.694910933
 21
87.4379480928
  0
LINE
  5
3DE
100
AcDbEntity
  8
0
100
AcDbLine
 62
7
  6
CONTINUOUS
 10
97.694910933
 20
86.7779480928
 11
96.924910933
 21
86.2279480928
  0
LINE
  5
3DF
100
AcDbEntity
  8
0
100
AcDbLine
 62
7
  6
CONTINUOUS
 10
97.694910933
 20
89.5591560002
 11
96.4308565385
 21
88.8121917545
  0
LINE
  5
3E0
100
AcDbEntity
  8
0
100
AcDbLine
 62
7
  6
CONTINUOUS
 10
96.4304988705
 20
88.2079480928
 11
97.694910933
 21
88.9291560002
  0
LINE
  5
3E1
100
AcDbEntity
  8
A_ACHSEN
100
AcDbLine
 62
7
  6
CENTER
 10
37.4162076499
 20
207.1779480928
 11
53.173614216
 21
207.1779480928
  0
LINE
  5
3E2
100
AcDbEntity
  8
0
100
AcDbLine
 62
7
  6
CONTINUOUS
 10
96.074910933
 20
76.1279480928
 11
97.694910933
 21
76.9279480928
  0
LINE
  5
3E3
100
AcDbEntity
  8
0
100
AcDbLine
 62
7
  6
CONTINUOUS
 10
96.934910933
 20
77.0779480928
 11
95.234910933
 21
76.2779480928
  0
LINE
  5
3E4
100
AcDbEntity
  8
A_RUNDUNGEN
100
AcDbLine
 62
7
  6
CONTINUOUS
 10
46.294910933
 20
215.1279480928
 11
50.795253608
 21
215.1279480928
  0
LINE
  5
3E5
100
AcDbEntity
  8
0
100
AcDbLine
 62
7
  6
CONTINUOUS
 10
46.294910933
 20
217.0336994519
 11
53.2428337648
 21
217.0336994519
  0
LINE
  5
3E6
100
AcDbEntity
  8
0
100
AcDbLine
 62
7
  6
CONTINUOUS
 10
66.794910933
 20
217.1279480928
 11
64.794910933
 21
217.1279480928
  0
LINE
  5
3E7
100
AcDbEntity
  8
0
100
AcDbLine
 62
7
  6
CONTINUOUS
 10
53.2430234047
 20
217.1779480928
 11
64.794910933
 21
217.1779480928
  0
LINE
  5
3E8
100
AcDbEntity
  8
0
100
AcDbLine
 62
7
  6
CONTINUOUS
 10
108.194910933
 20
66.0779480928
 11
107.7100877316
 21
65.5931248914
  0
LINE
  5
3E9
100
AcDbEntity
  8
0
100
AcDbLine
 62
7
  6
CONTINUOUS
 10
105.794910933
 20
63.6779480928
 11
106.2797341343
 21
64.1627712942
  0
LINE
  5
3EA
100
AcDbEntity
  8
0
100
AcDbLine
 62
7
  6
CONTINUOUS
 10
109.594910933
 20
64.6779480928
 11
109.1100877316
 21
64.1931248914
  0
LINE
  5
3EB
100
AcDbEntity
  8
0
100
AcDbLine
 62
7
  6
CONTINUOUS
 10
107.194910933
 20
62.2779480928
 11
107.6797341343
 21
62.7627712942
  0
LINE
  5
3EC
100
AcDbEntity
  8
0
100
AcDbLine
 62
7
  6
CONTINUOUS
 10
96.8212394179
 20
71.7679480928
 11
95.234910933
 21
71.1079480928
  0
LINE
  5
3ED
100
AcDbEntity
  8
0
100
AcDbLine
 62
7
  6
CONTINUOUS
 10
96.324910933
 20
71.1079480928
 11
97.374910933
 21
71.5226475993
  0
LINE
  5
3EE
100
AcDbEntity
  8
0
100
AcDbLine
 62
7
  6
CONTINUOUS
 10
105.794910933
 20
230.6779480928
 11
106.2797341343
 21
230.1931248914
  0
LINE
  5
3EF
100
AcDbEntity
  8
0
100
AcDbLine
 62
7
  6
CONTINUOUS
 10
108.194910933
 20
228.2779480928
 11
107.7100877316
 21
228.7627712942
  0
LINE
  5
3F0
100
AcDbEntity
  8
0
100
AcDbLine
 62
7
  6
CONTINUOUS
 10
107.194910933
 20
232.0779480928
 11
107.6797341343
 21
231.5931248914
  0
LINE
  5
3F1
100
AcDbEntity
  8
0
100
AcDbLine
 62
7
  6
CONTINUOUS
 10
109.594910933
 20
229.6779480928
 11
109.1100877316
 21
230.1627712942
  0
LINE
  5
3F2
100
AcDbEntity
  8
0
100
AcDbLine
 62
7
  6
CONTINUOUS
 10
107.194910933
 20
228.2779480928
 11
108.194910933
 21
228.2779480928
  0
LINE
  5
3F3
100
AcDbEntity
  8
0
100
AcDbLine
 62
7
  6
CONTINUOUS
 10
107.6797341343
 20
228.7627712942
 11
107.7100877316
 21
228.7627712942
  0
LINE
  5
3F4
100
AcDbEntity
  8
A_ACHSEN
100
AcDbLine
 62
7
  6
CENTER
 10
93.3196366323
 20
229.1779480928
 11
105.0701852337
 21
229.1779480928
  0
LINE
  5
3F5
100
AcDbEntity
  8
A_ACHSEN
100
AcDbLine
 62
7
  6
CENTER
 10
110.2294255316
 20
229.1779480928
 11
122.1603963343
 21
229.1779480928
  0
LINE
  5
3F6
100
AcDbEntity
  8
0
100
AcDbLine
 62
7
  6
CONTINUOUS
 10
105.794910933
 20
229.6779480928
 11
106.894910933
 21
229.6779480928
  0
LINE
  5
3F7
100
AcDbEntity
  8
0
100
AcDbLine
 62
7
  6
CONTINUOUS
 10
108.494910933
 20
229.6779480928
 11
109.594910933
 21
229.6779480928
  0
LINE
  5
3F8
100
AcDbEntity
  8
0
100
AcDbLine
 62
7
  6
CONTINUOUS
 10
106.2797341343
 20
230.1627712942
 11
106.894910933
 21
230.1627712942
  0
LINE
  5
3F9
100
AcDbEntity
  8
0
100
AcDbLine
 62
7
  6
CONTINUOUS
 10
108.494910933
 20
230.1627712942
 11
109.1100877316
 21
230.1627712942
  0
LINE
  5
3FA
100
AcDbEntity
  8
A_ACHSEN
100
AcDbLine
 62
7
  6
CENTER
 10
100.9942994353
 20
230.1779480928
 11
114.3955224306
 21
230.1779480928
  0
LINE
  5
3FB
100
AcDbEntity
  8
0
100
AcDbLine
 62
7
  6
CONTINUOUS
 10
109.1100877316
 20
230.1931248914
 11
108.494910933
 21
230.1931248914
  0
LINE
  5
3FC
100
AcDbEntity
  8
0
100
AcDbLine
 62
7
  6
CONTINUOUS
 10
106.894910933
 20
230.1931248914
 11
106.2797341343
 21
230.1931248914
  0
LINE
  5
3FD
100
AcDbEntity
  8
0
100
AcDbLine
 62
7
  6
CONTINUOUS
 10
109.594910933
 20
230.6779480928
 11
108.494910933
 21
230.6779480928
  0
LINE
  5
3FE
100
AcDbEntity
  8
0
100
AcDbLine
 62
7
  6
CONTINUOUS
 10
106.894910933
 20
230.6779480928
 11
105.794910933
 21
230.6779480928
  0
LINE
  5
3FF
100
AcDbEntity
  8
0
100
AcDbLine
 62
7
  6
CONTINUOUS
 10
107.7100877316
 20
231.5931248914
 11
107.6797341343
 21
231.5931248914
  0
LINE
  5
400
100
AcDbEntity
  8
0
100
AcDbLine
 62
7
  6
CONTINUOUS
 10
108.194910933
 20
232.0779480928
 11
107.194910933
 21
232.0779480928
  0
LINE
  5
401
100
AcDbEntity
  8
A_ACHSEN
100
AcDbLine
 62
7
  6
CENTER
 10
93.9439980685
 20
235.1779480928
 11
104.4458237974
 21
235.1779480928
  0
LINE
  5
402
100
AcDbEntity
  8
A_ACHSEN
100
AcDbLine
 62
7
  6
CENTER
 10
110.2814556513
 20
235.1779480928
 11
122.1083662146
 21
235.1779480928
  0
LINE
  5
403
100
AcDbEntity
  8
0
100
AcDbLine
 62
7
  6
CONTINUOUS
 10
122.644910933
 20
247.1779480928
 11
122.594910933
 21
247.1779480928
  0
LINE
  5
404
100
AcDbEntity
  8
0
100
AcDbLine
 62
7
  6
CONTINUOUS
 10
92.744910933
 20
247.1779480928
 11
92.794910933
 21
247.1779480928
  0
LINE
  5
405
100
AcDbEntity
  8
A_ACHSEN
100
AcDbLine
 62
7
  6
CENTER
 10
92.1939036979
 20
263.1779480928
 11
122.305966521
 21
263.1779480928
  0
ARC
  5
406
100
AcDbEntity
  8
0
100
AcDbCircle
 62
7
  6
CONTINUOUS
 10
66.794910933
 20
87.2279480928
 40
10.0
100
AcDbArc
 50
270.0
 51
360.0
  0
ARC
  5
407
100
AcDbEntity
  8
0
100
AcDbCircle
 62
7
  6
CONTINUOUS
 10
46.294910933
 20
87.2279480928
 40
9.9057513591
100
AcDbArc
 50
180.0
 51
270.0
  0
ARC
  5
408
100
AcDbEntity
  8
0
100
AcDbCircle
 62
7
  6
CONTINUOUS
 10
46.294910933
 20
87.2279480928
 40
8.0
100
AcDbArc
 50
180.0
 51
270.0
  0
ARC
  5
409
100
AcDbEntity
  8
A_ACHSEN
100
AcDbCircle
 62
7
  6
CONTINUOUS
 10
56.294910933
 20
103.1779480928
 40
5.25
100
AcDbArc
 50
58.6303785941
 51
301.3696214059
  0
CIRCLE
  5
40A
100
AcDbEntity
  8
A_RUNDUNGEN
100
AcDbCircle
 62
7
  6
CONTINUOUS
 10
45.294910933
 20
87.1779480928
 40
5.25
  0
CIRCLE
  5
40B
100
AcDbEntity
  8
A_ACHSEN
100
AcDbCircle
 62
7
  6
CONTINUOUS
 10
45.294910933
 20
87.1779480928
 40
3.0
  0
ARC
  5
40C
100
AcDbEntity
  8
A_ACHSEN
100
AcDbCircle
 62
7
  6
CONTINUOUS
 10
56.294910933
 20
103.1779480928
 40
3.0
100
AcDbArc
 50
24.1027769272
 51
335.8972230728
  0
ARC
  5
40D
100
AcDbEntity
  8
A_RUNDUNGEN
100
AcDbCircle
 62
7
  6
CONTINUOUS
 10
73.7860044923
 20
97.2889100855
 40
1.008967652
100
AcDbArc
 50
347.7974148525
 51
353.6141853234
  0
ARC
  5
40E
100
AcDbEntity
  8
0
100
AcDbCircle
 62
7
  6
CONTINUOUS
 10
41.294910933
 20
139.1779480928
 40
1.0
100
AcDbArc
 50
180.0
 51
270.0
  0
ARC
  5
40F
100
AcDbEntity
  8
0
100
AcDbCircle
 62
7
  6
CONTINUOUS
 10
44.794910933
 20
139.1779480928
 40
1.0
100
AcDbArc
 50
270.0
 51
360.0
  0
ARC
  5
410
100
AcDbEntity
  8
0
100
AcDbCircle
 62
7
  6
CONTINUOUS
 10
66.794910933
 20
207.1279480928
 40
10.0
100
AcDbArc
 50
0.0
 51
90.0
  0
ARC
  5
411
100
AcDbEntity
  8
0
100
AcDbCircle
 62
7
  6
CONTINUOUS
 10
46.294910933
 20
207.1279480928
 40
9.9057513591
100
AcDbArc
 50
90.0
 51
180.0
  0
ARC
  5
412
100
AcDbEntity
  8
0
100
AcDbCircle
 62
7
  6
CONTINUOUS
 10
46.294910933
 20
207.1279480928
 40
8.0
100
AcDbArc
 50
90.0
 51
180.0
  0
ARC
  5
413
100
AcDbEntity
  8
A_ACHSEN
100
AcDbCircle
 62
7
  6
CONTINUOUS
 10
56.294910933
 20
191.1779480928
 40
5.25
100
AcDbArc
 50
58.6303785941
 51
301.3696214059
  0
CIRCLE
  5
414
100
AcDbEntity
  8
A_RUNDUNGEN
100
AcDbCircle
 62
7
  6
CONTINUOUS
 10
45.294910933
 20
207.1779480928
 40
5.25
  0
CIRCLE
  5
415
100
AcDbEntity
  8
A_ACHSEN
100
AcDbCircle
 62
7
  6
CONTINUOUS
 10
45.294910933
 20
207.1779480928
 40
3.0
  0
ARC
  5
416
100
AcDbEntity
  8
A_ACHSEN
100
AcDbCircle
 62
7
  6
CONTINUOUS
 10
56.294910933
 20
191.1779480928
 40
3.0
100
AcDbArc
 50
24.1027769272
 51
335.8972230728
  0
ARC
  5
417
100
AcDbEntity
  8
A_RUNDUNGEN
100
AcDbCircle
 62
7
  6
CONTINUOUS
 10
73.7931171231
 20
197.0678006446
 40
1.0019077175
100
AcDbArc
 50
6.3836179002
 51
12.2427644591
  0
ARC
  5
418
100
AcDbEntity
  8
0
100
AcDbCircle
 62
7
  6
CONTINUOUS
 10
44.794910933
 20
155.1779480928
 40
1.0
100
AcDbArc
 50
0.0
 51
90.0
  0
ARC
  5
419
100
AcDbEntity
  8
0
100
AcDbCircle
 62
7
  6
CONTINUOUS
 10
41.294910933
 20
155.1779480928
 40
1.0
100
AcDbArc
 50
90.0
 51
180.0
  0
CIRCLE
  5
41A
100
AcDbEntity
  8
DEFAULT_2
100
AcDbCircle
 62
8
  6
HIDDEN
 10
100.694910933
 20
31.1779480928
 40
5.3
  0
CIRCLE
  5
41B
100
AcDbEntity
  8
DEFAULT_2
100
AcDbCircle
 62
8
  6
HIDDEN
 10
100.694910933
 20
31.1779480928
 40
5.2473640402
  0
ARC
  5
41C
100
AcDbEntity
  8
DEFAULT_2
100
AcDbCircle
 62
8
  6
HIDDEN
 10
99.194910933
 20
59.1779480928
 40
4.4920057142
100
AcDbArc
 50
180.0
 51
360.0
  0
CIRCLE
  5
41D
100
AcDbEntity
  8
A_ACHSEN
100
AcDbCircle
 62
8
  6
HIDDEN
 10
100.694910933
 20
31.1779480928
 40
3.0
  0
ARC
  5
41E
100
AcDbEntity
  8
A_ACHSEN
100
AcDbCircle
 62
8
  6
HIDDEN
 10
99.194910933
 20
59.1779480928
 40
2.6
100
AcDbArc
 50
180.0
 51
360.0
  0
ARC
  5
41F
100
AcDbEntity
  8
DEFAULT_2
100
AcDbCircle
 62
8
  6
HIDDEN
 10
99.194910933
 20
65.1779480928
 40
4.4920057142
100
AcDbArc
 50
0.0
 51
180.0
  0
ARC
  5
420
100
AcDbEntity
  8
0
100
AcDbCircle
 62
7
  6
CONTINUOUS
 10
103.794910933
 20
90.1779480928
 40
4.3
100
AcDbArc
 50
48.4401498934
 51
90.0
  0
ARC
  5
421
100
AcDbEntity
  8
0
100
AcDbCircle
 62
7
  6
CONTINUOUS
 10
100.794910933
 20
90.1779480928
 40
4.3
100
AcDbArc
 50
90.0
 51
131.5598501066
  0
ARC
  5
422
100
AcDbEntity
  8
A_RUNDUNGEN
100
AcDbCircle
 62
7
  6
CONTINUOUS
 10
102.294910933
 20
90.1779480928
 40
4.25
100
AcDbArc
 50
49.4375230493
 51
130.5624769556
  0
ARC
  5
423
100
AcDbEntity
  8
A_ACHSEN
100
AcDbCircle
 62
8
  6
HIDDEN
 10
99.194910933
 20
65.1779480928
 40
2.6
100
AcDbArc
 50
0.0
 51
180.0
  0
ARC
  5
424
100
AcDbEntity
  8
0
100
AcDbCircle
 62
7
  6
CONTINUOUS
 10
106.894910933
 20
64.9779480928
 40
0.7848232014
100
AcDbArc
 50
270.0
 51
360.0
  0
ARC
  5
425
100
AcDbEntity
  8
0
100
AcDbCircle
 62
7
  6
CONTINUOUS
 10
106.894910933
 20
63.3779480928
 40
0.7848232014
100
AcDbArc
 50
0.0
 51
90.0
  0
ARC
  5
426
100
AcDbEntity
  8
0
100
AcDbCircle
 62
7
  6
CONTINUOUS
 10
106.894910933
 20
64.9779480928
 40
0.3
100
AcDbArc
 50
270.0
 51
360.0
  0
ARC
  5
427
100
AcDbEntity
  8
0
100
AcDbCircle
 62
7
  6
CONTINUOUS
 10
106.894910933
 20
63.3779480928
 40
0.3
100
AcDbArc
 50
0.0
 51
90.0
  0
ARC
  5
428
100
AcDbEntity
  8
0
100
AcDbCircle
 62
7
  6
CONTINUOUS
 10
107.694910933
 20
37.1779480928
 40
14.95
100
AcDbArc
 50
180.0
 51
360.0
  0
ARC
  5
429
100
AcDbEntity
  8
0
100
AcDbCircle
 62
7
  6
CONTINUOUS
 10
107.694910933
 20
37.1779480928
 40
14.9
100
AcDbArc
 50
180.0
 51
360.0
  0
CIRCLE
  5
42A
100
AcDbEntity
  8
DEFAULT_2
100
AcDbCircle
 62
8
  6
HIDDEN
 10
114.694910933
 20
31.1779480928
 40
5.3
  0
CIRCLE
  5
42B
100
AcDbEntity
  8
DEFAULT_2
100
AcDbCircle
 62
8
  6
HIDDEN
 10
114.694910933
 20
31.1779480928
 40
5.2473640402
  0
ARC
  5
42C
100
AcDbEntity
  8
A_RUNDUNGEN
100
AcDbCircle
 62
8
  6
HIDDEN
 10
116.1925428852
 20
58.6780367531
 40
4.5023659153
100
AcDbArc
 50
354.7139404611
 51
359.9988717351
  0
ARC
  5
42D
100
AcDbEntity
  8
DEFAULT_2
100
AcDbCircle
 62
8
  6
HIDDEN
 10
116.194910933
 20
59.1779480928
 40
4.4920057142
100
AcDbArc
 50
180.0
 51
360.0
  0
CIRCLE
  5
42E
100
AcDbEntity
  8
A_ACHSEN
100
AcDbCircle
 62
8
  6
HIDDEN
 10
114.694910933
 20
31.1779480928
 40
3.0
  0
ARC
  5
42F
100
AcDbEntity
  8
A_ACHSEN
100
AcDbCircle
 62
8
  6
HIDDEN
 10
116.194910933
 20
59.1779480928
 40
2.6
100
AcDbArc
 50
180.0
 51
360.0
  0
ARC
  5
430
100
AcDbEntity
  8
DEFAULT_2
100
AcDbCircle
 62
8
  6
HIDDEN
 10
116.194910933
 20
65.1779480928
 40
4.4920057142
100
AcDbArc
 50
0.0
 51
180.0
  0
CIRCLE
  5
431
100
AcDbEntity
  8
0
100
AcDbCircle
 62
7
  6
CONTINUOUS
 10
107.694910933
 20
64.1779480928
 40
4.0
  0
CIRCLE
  5
432
100
AcDbEntity
  8
0
100
AcDbCircle
 62
7
  6
CONTINUOUS
 10
107.694910933
 20
64.1779480928
 40
3.75
  0
ARC
  5
433
100
AcDbEntity
  8
A_ACHSEN
100
AcDbCircle
 62
8
  6
HIDDEN
 10
116.194910933
 20
65.1779480928
 40
2.6
100
AcDbArc
 50
0.0
 51
180.0
  0
ARC
  5
434
100
AcDbEntity
  8
0
100
AcDbCircle
 62
7
  6
CONTINUOUS
 10
108.494910933
 20
64.9779480928
 40
0.7848232014
100
AcDbArc
 50
180.0
 51
270.0
  0
ARC
  5
435
100
AcDbEntity
  8
0
100
AcDbCircle
 62
7
  6
CONTINUOUS
 10
108.494910933
 20
63.3779480928
 40
0.7848232014
100
AcDbArc
 50
90.0
 51
180.0
  0
ARC
  5
436
100
AcDbEntity
  8
A_RUNDUNGEN
100
AcDbCircle
 62
7
  6
CONTINUOUS
 10
108.094910933
 20
93.8779480928
 40
0.5
100
AcDbArc
 50
270.0
 51
360.0
  0
ARC
  5
437
100
AcDbEntity
  8
0
100
AcDbCircle
 62
7
  6
CONTINUOUS
 10
108.494910933
 20
63.3779480928
 40
0.3
100
AcDbArc
 50
90.0
 51
180.0
  0
ARC
  5
438
100
AcDbEntity
  8
0
100
AcDbCircle
 62
7
  6
CONTINUOUS
 10
108.494910933
 20
64.9779480928
 40
0.3
100
AcDbArc
 50
180.0
 51
270.0
  0
ARC
  5
439
100
AcDbEntity
  8
0
100
AcDbCircle
 62
7
  6
CONTINUOUS
 10
103.794910933
 20
204.1779480928
 40
4.3
100
AcDbArc
 50
270.0
 51
311.5598501066
  0
ARC
  5
43A
100
AcDbEntity
  8
0
100
AcDbCircle
 62
7
  6
CONTINUOUS
 10
100.794910933
 20
204.1779480928
 40
4.3
100
AcDbArc
 50
228.4401498934
 51
270.0
  0
ARC
  5
43B
100
AcDbEntity
  8
A_RUNDUNGEN
100
AcDbCircle
 62
7
  6
CONTINUOUS
 10
102.294910933
 20
204.1779480928
 40
4.25
100
AcDbArc
 50
229.4375230493
 51
310.5624769556
  0
CIRCLE
  5
43C
100
AcDbEntity
  8
DEFAULT_2
100
AcDbCircle
 62
8
  6
HIDDEN
 10
100.694910933
 20
263.1779480928
 40
5.3
  0
CIRCLE
  5
43D
100
AcDbEntity
  8
DEFAULT_2
100
AcDbCircle
 62
8
  6
HIDDEN
 10
100.694910933
 20
263.1779480928
 40
5.2473640402
  0
ARC
  5
43E
100
AcDbEntity
  8
DEFAULT_2
100
AcDbCircle
 62
8
  6
HIDDEN
 10
99.194910933
 20
229.1779480928
 40
4.4920057142
100
AcDbArc
 50
180.0
 51
360.0
  0
ARC
  5
43F
100
AcDbEntity
  8
DEFAULT_2
100
AcDbCircle
 62
8
  6
HIDDEN
 10
99.194910933
 20
235.1779480928
 40
4.4920057142
100
AcDbArc
 50
0.0
 51
180.0
  0
CIRCLE
  5
440
100
AcDbEntity
  8
A_ACHSEN
100
AcDbCircle
 62
8
  6
HIDDEN
 10
100.694910933
 20
263.1779480928
 40
3.0
  0
ARC
  5
441
100
AcDbEntity
  8
A_ACHSEN
100
AcDbCircle
 62
8
  6
HIDDEN
 10
99.194910933
 20
235.1779480928
 40
2.6
100
AcDbArc
 50
0.0
 51
180.0
  0
ARC
  5
442
100
AcDbEntity
  8
A_ACHSEN
100
AcDbCircle
 62
8
  6
HIDDEN
 10
99.194910933
 20
229.1779480928
 40
2.6
100
AcDbArc
 50
180.0
 51
360.0
  0
ARC
  5
443
100
AcDbEntity
  8
0
100
AcDbCircle
 62
7
  6
CONTINUOUS
 10
106.894910933
 20
230.9779480928
 40
0.7848232014
100
AcDbArc
 50
270.0
 51
360.0
  0
ARC
  5
444
100
AcDbEntity
  8
0
100
AcDbCircle
 62
7
  6
CONTINUOUS
 10
106.894910933
 20
229.3779480928
 40
0.7848232014
100
AcDbArc
 50
0.0
 51
90.0
  0
ARC
  5
445
100
AcDbEntity
  8
0
100
AcDbCircle
 62
7
  6
CONTINUOUS
 10
106.894910933
 20
230.9779480928
 40
0.3
100
AcDbArc
 50
270.0
 51
360.0
  0
ARC
  5
446
100
AcDbEntity
  8
0
100
AcDbCircle
 62
7
  6
CONTINUOUS
 10
106.894910933
 20
229.3779480928
 40
0.3
100
AcDbArc
 50
0.0
 51
90.0
  0
ARC
  5
447
100
AcDbEntity
  8
A_RUNDUNGEN
100
AcDbCircle
 62
7
  6
CONTINUOUS
 10
111.294910933
 20
147.1779480928
 40
4.3
100
AcDbArc
 50
129.1216769707
 51
230.8783230293
  0
ARC
  5
448
100
AcDbEntity
  8
A_RUNDUNGEN
100
AcDbCircle
 62
7
  6
CONTINUOUS
 10
112.794910933
 20
147.1779480928
 40
4.25
100
AcDbArc
 50
175.6525698308
 51
184.345069866
  0
ARC
  5
449
100
AcDbEntity
  8
A_RUNDUNGEN
100
AcDbCircle
 62
7
  6
CONTINUOUS
 10
108.094910933
 20
200.4779480928
 40
0.5
100
AcDbArc
 50
0.0
 51
90.0
  0
ARC
  5
44A
100
AcDbEntity
  8
0
100
AcDbCircle
 62
7
  6
CONTINUOUS
 10
107.694910933
 20
257.1779480928
 40
14.95
100
AcDbArc
 50
0.0
 51
180.0
  0
ARC
  5
44B
100
AcDbEntity
  8
0
100
AcDbCircle
 62
7
  6
CONTINUOUS
 10
107.694910933
 20
257.1779480928
 40
14.9
100
AcDbArc
 50
0.0
 51
180.0
  0
CIRCLE
  5
44C
100
AcDbEntity
  8
DEFAULT_2
100
AcDbCircle
 62
8
  6
HIDDEN
 10
114.694910933
 20
263.1779480928
 40
5.3
  0
CIRCLE
  5
44D
100
AcDbEntity
  8
DEFAULT_2
100
AcDbCircle
 62
8
  6
HIDDEN
 10
114.694910933
 20
263.1779480928
 40
5.2473640402
  0
ARC
  5
44E
100
AcDbEntity
  8
DEFAULT_2
100
AcDbCircle
 62
8
  6
HIDDEN
 10
116.194910933
 20
229.1779480928
 40
4.4920057142
100
AcDbArc
 50
180.0
 51
360.0
  0
ARC
  5
44F
100
AcDbEntity
  8
DEFAULT_2
100
AcDbCircle
 62
8
  6
HIDDEN
 10
116.194910933
 20
235.1779480928
 40
4.4920057142
100
AcDbArc
 50
0.0
 51
180.0
  0
CIRCLE
  5
450
100
AcDbEntity
  8
A_ACHSEN
100
AcDbCircle
 62
7
  6
CONTINUOUS
 10
107.694910933
 20
230.1779480928
 40
4.0
  0
CIRCLE
  5
451
100
AcDbEntity
  8
0
100
AcDbCircle
 62
7
  6
CONTINUOUS
 10
107.694910933
 20
230.1779480928
 40
3.75
  0
CIRCLE
  5
452
100
AcDbEntity
  8
A_ACHSEN
100
AcDbCircle
 62
8
  6
HIDDEN
 10
114.694910933
 20
263.1779480928
 40
3.0
  0
ARC
  5
453
100
AcDbEntity
  8
A_ACHSEN
100
AcDbCircle
 62
8
  6
HIDDEN
 10
116.194910933
 20
235.1779480928
 40
2.6
100
AcDbArc
 50
0.0
 51
180.0
  0
ARC
  5
454
100
AcDbEntity
  8
A_ACHSEN
100
AcDbCircle
 62
8
  6
HIDDEN
 10
116.194910933
 20
229.1779480928
 40
2.6
100
AcDbArc
 50
180.0
 51
360.0
  0
ARC
  5
455
100
AcDbEntity
  8
0
100
AcDbCircle
 62
7
  6
CONTINUOUS
 10
108.494910933
 20
230.9779480928
 40
0.7848232014
100
AcDbArc
 50
180.0
 51
270.0
  0
ARC
  5
456
100
AcDbEntity
  8
0
100
AcDbCircle
 62
7
  6
CONTINUOUS
 10
108.494910933
 20
229.3779480928
 40
0.7848232014
100
AcDbArc
 50
90.0
 51
180.0
  0
ARC
  5
457
100
AcDbEntity
  8
0
100
AcDbCircle
 62
7
  6
CONTINUOUS
 10
108.494910933
 20
229.3779480928
 40
0.3
100
AcDbArc
 50
90.0
 51
180.0
  0
ARC
  5
458
100
AcDbEntity
  8
0
100
AcDbCircle
 62
7
  6
CONTINUOUS
 10
108.494910933
 20
230.9779480928
 40
0.3
100
AcDbArc
 50
180.0
 51
270.0
  0
SPLINE
  5
459
100
AcDbEntity
  8
0
100
AcDbSpline
 62
7
  6
CONTINUOUS
 70
0
 71
3
 72
8
 73
4
 74
0
 42
0.0000001
 43
0.0000001
 44
0.0000000001
 40
0.0
 40
0.0
 40
0.0
 40
0.0
 40
1.0
 40
1.0
 40
1.0
 40
1.0
 10
97.734910933
 20
68.3379480928
 30
0.0
 10
97.734910933
 20
69.0807210123
 30
0.0
 10
97.492717117
 20
69.2392251693
 30
0.0
 10
97.004910933
 20
69.2379480928
 30
0.0
  0
SPLINE
  5
45A
100
AcDbEntity
  8
0
100
AcDbSpline
 62
7
  6
CONTINUOUS
 70
0
 71
3
 72
8
 73
4
 74
0
 42
0.0000001
 43
0.0000001
 44
0.0000000001
 40
0.0
 40
0.0
 40
0.0
 40
0.0
 40
1.0
 40
1.0
 40
1.0
 40
1.0
 10
97.574910933
 20
67.5379480928
 30
0.0
 10
97.6716478597
 20
67.7500502042
 30
0.0
 10
97.734910933
 20
68.051447858
 30
0.0
 10
97.734910933
 20
68.3379480928
 30
0.0
  0
SPLINE
  5
45B
100
AcDbEntity
  8
0
100
AcDbSpline
 62
7
  6
CONTINUOUS
 70
0
 71
3
 72
8
 73
4
 74
0
 42
0.0000001
 43
0.0000001
 44
0.0000000001
 40
0.0
 40
0.0
 40
0.0
 40
0.0
 40
1.0
 40
1.0
 40
1.0
 40
1.0
 10
97.264910933
 20
68.3479480928
 30
0.0
 10
97.2685240687
 20
68.0891931228
 30
0.0
 10
97.2161384529
 20
67.8566766987
 30
0.0
 10
97.144910933
 20
67.6279480928
 30
0.0
  0
SPLINE
  5
45C
100
AcDbEntity
  8
0
100
AcDbSpline
 62
7
  6
CONTINUOUS
 70
0
 71
3
 72
8
 73
4
 74
0
 42
0.0000001
 43
0.0000001
 44
0.0000000001
 40
0.0
 40
0.0
 40
0.0
 40
0.0
 40
1.0
 40
1.0
 40
1.0
 40
1.0
 10
96.994910933
 20
68.6879480928
 30
0.0
 10
97.204118254
 20
68.6913441527
 30
0.0
 10
97.2608939642
 20
68.6356235894
 30
0.0
 10
97.264910933
 20
68.3479480928
 30
0.0
  0
SPLINE
  5
45D
100
AcDbEntity
  8
0
100
AcDbSpline
 62
7
  6
CONTINUOUS
 70
0
 71
3
 72
8
 73
4
 74
0
 42
0.0000001
 43
0.0000001
 44
0.0000000001
 40
0.0
 40
0.0
 40
0.0
 40
0.0
 40
1.0
 40
1.0
 40
1.0
 40
1.0
 10
96.664910933
 20
68.2679480928
 30
0.0
 10
96.7471347637
 20
68.6727834319
 30
0.0
 10
96.7728802973
 20
68.6843438722
 30
0.0
 10
96.994910933
 20
68.6879480928
 30
0.0
  0
SPLINE
  5
45E
100
AcDbEntity
  8
0
100
AcDbSpline
 62
7
  6
CONTINUOUS
 70
0
 71
3
 72
8
 73
4
 74
0
 42
0.0000001
 43
0.0000001
 44
0.0000000001
 40
0.0
 40
0.0
 40
0.0
 40
0.0
 40
1.0
 40
1.0
 40
1.0
 40
1.0
 10
95.884910933
 20
67.5779480928
 30
0.0
 10
96.4193551579
 20
67.5758959642
 30
0.0
 10
96.5376932093
 20
67.6698582109
 30
0.0
 10
96.664910933
 20
68.2679480928
 30
0.0
  0
SPLINE
  5
45F
100
AcDbEntity
  8
0
100
AcDbSpline
 62
7
  6
CONTINUOUS
 70
0
 71
3
 72
8
 73
4
 74
0
 42
0.0000001
 43
0.0000001
 44
0.0000000001
 40
0.0
 40
0.0
 40
0.0
 40
0.0
 40
1.0
 40
1.0
 40
1.0
 40
1.0
 10
95.194910933
 20
68.4379480928
 30
0.0
 10
95.1863388962
 20
67.7558429905
 30
0.0
 10
95.3891753139
 20
67.5798515903
 30
0.0
 10
95.884910933
 20
67.5779480928
 30
0.0
  0
SPLINE
  5
460
100
AcDbEntity
  8
0
100
AcDbSpline
 62
7
  6
CONTINUOUS
 70
0
 71
3
 72
8
 73
4
 74
0
 42
0.0000001
 43
0.0000001
 44
0.0000000001
 40
0.0
 40
0.0
 40
0.0
 40
0.0
 40
1.0
 40
1.0
 40
1.0
 40
1.0
 10
95.284910933
 20
69.1779480928
 30
0.0
 10
95.2228334742
 20
68.9071944497
 30
0.0
 10
95.1975847475
 20
68.6507122915
 30
0.0
 10
95.194910933
 20
68.4379480928
 30
0.0
  0
SPLINE
  5
461
100
AcDbEntity
  8
0
100
AcDbSpline
 62
7
  6
CONTINUOUS
 70
0
 71
3
 72
8
 73
4
 74
0
 42
0.0000001
 43
0.0000001
 44
0.0000000001
 40
0.0
 40
0.0
 40
0.0
 40
0.0
 40
1.0
 40
1.0
 40
1.0
 40
1.0
 10
95.674910933
 20
68.4479480928
 30
0.0
 10
95.6751803829
 20
68.6684957758
 30
0.0
 10
95.697075022
 20
68.8485973219
 30
0.0
 10
95.744910933
 20
69.1279480928
 30
0.0
  0
SPLINE
  5
462
100
AcDbEntity
  8
0
100
AcDbSpline
 62
7
  6
CONTINUOUS
 70
0
 71
3
 72
8
 73
4
 74
0
 42
0.0000001
 43
0.0000001
 44
0.0000000001
 40
0.0
 40
0.0
 40
0.0
 40
0.0
 40
1.0
 40
1.0
 40
1.0
 40
1.0
 10
95.904910933
 20
68.1379480928
 30
0.0
 10
95.7198225583
 20
68.1370435732
 30
0.0
 10
95.674601748
 20
68.1948768956
 30
0.0
 10
95.674910933
 20
68.4479480928
 30
0.0
  0
SPLINE
  5
463
100
AcDbEntity
  8
0
100
AcDbSpline
 62
7
  6
CONTINUOUS
 70
0
 71
3
 72
8
 73
4
 74
0
 42
0.0000001
 43
0.0000001
 44
0.0000000001
 40
0.0
 40
0.0
 40
0.0
 40
0.0
 40
1.0
 40
1.0
 40
1.0
 40
1.0
 10
96.234910933
 20
68.5379480928
 30
0.0
 10
96.1445593375
 20
68.150207363
 30
0.0
 10
96.1409284007
 20
68.1391015009
 30
0.0
 10
95.904910933
 20
68.1379480928
 30
0.0
  0
SPLINE
  5
464
100
AcDbEntity
  8
0
100
AcDbSpline
 62
7
  6
CONTINUOUS
 70
0
 71
3
 72
8
 73
4
 74
0
 42
0.0000001
 43
0.0000001
 44
0.0000000001
 40
0.0
 40
0.0
 40
0.0
 40
0.0
 40
1.0
 40
1.0
 40
1.0
 40
1.0
 10
97.004910933
 20
69.2379480928
 30
0.0
 10
96.5211588354
 20
69.2366816299
 30
0.0
 10
96.3919723206
 20
69.2031014372
 30
0.0
 10
96.234910933
 20
68.5379480928
 30
0.0
  0
SPLINE
  5
465
100
AcDbEntity
  8
0
100
AcDbSpline
 62
7
  6
CONTINUOUS
 70
0
 71
3
 72
11
 73
7
 74
0
 42
0.0000001
 43
0.0000001
 44
0.0000000001
 40
0.0
 40
0.0
 40
0.0
 40
0.0
 40
0.0520833333
 40
0.15625
 40
0.71875
 40
1.0
 40
1.0
 40
1.0
 40
1.0
 10
96.974910933
 20
75.2379480928
 30
0.0
 10
96.9572028934
 20
75.2378461007
 30
0.0
 10
96.9040773326
 20
75.2380437104
 30
0.0
 10
96.6597030696
 20
75.2377211604
 30
0.0
 10
96.3374123749
 20
75.2385332726
 30
0.0
 10
96.0505343469
 20
75.2373973354
 30
0.0
 10
95.954910933
 20
75.2379480928
 30
0.0
  0
SPLINE
  5
466
100
AcDbEntity
  8
0
100
AcDbSpline
 62
7
  6
CONTINUOUS
 70
0
 71
3
 72
8
 73
4
 74
0
 42
0.0000001
 43
0.0000001
 44
0.0000000001
 40
0.0
 40
0.0
 40
0.0
 40
0.0
 40
1.0
 40
1.0
 40
1.0
 40
1.0
 10
97.734910933
 20
74.2879480928
 30
0.0
 10
97.7389162703
 20
74.9833613918
 30
0.0
 10
97.3484423395
 20
75.2400995031
 30
0.0
 10
96.974910933
 20
75.2379480928
 30
0.0
  0
SPLINE
  5
467
100
AcDbEntity
  8
0
100
AcDbSpline
 62
7
  6
CONTINUOUS
 70
0
 71
3
 72
8
 73
4
 74
0
 42
0.0000001
 43
0.0000001
 44
0.0000000001
 40
0.0
 40
0.0
 40
0.0
 40
0.0
 40
1.0
 40
1.0
 40
1.0
 40
1.0
 10
96.974910933
 20
73.3379480928
 30
0.0
 10
97.348442361
 20
73.335800411
 30
0.0
 10
97.730905426
 20
73.5925053471
 30
0.0
 10
97.734910933
 20
74.2879480928
 30
0.0
  0
LINE
  5
468
100
AcDbEntity
  8
0
100
AcDbLine
 62
7
  6
CONTINUOUS
 10
95.954910933
 20
73.3379480928
 11
96.974910933
 21
73.3379480928
  0
SPLINE
  5
469
100
AcDbEntity
  8
0
100
AcDbSpline
 62
7
  6
CONTINUOUS
 70
0
 71
3
 72
8
 73
4
 74
0
 42
0.0000001
 43
0.0000001
 44
0.0000000001
 40
0.0
 40
0.0
 40
0.0
 40
0.0
 40
1.0
 40
1.0
 40
1.0
 40
1.0
 10
95.194910933
 20
74.2879480928
 30
0.0
 10
95.1909054561
 20
73.592510567
 30
0.0
 10
95.5813234371
 20
73.3357963595
 30
0.0
 10
95.954910933
 20
73.3379480928
 30
0.0
  0
SPLINE
  5
46A
100
AcDbEntity
  8
0
100
AcDbSpline
 62
7
  6
CONTINUOUS
 70
0
 71
3
 72
8
 73
4
 74
0
 42
0.0000001
 43
0.0000001
 44
0.0000000001
 40
0.0
 40
0.0
 40
0.0
 40
0.0
 40
1.0
 40
1.0
 40
1.0
 40
1.0
 10
95.954910933
 20
75.2379480928
 30
0.0
 10
95.5813234371
 20
75.2400998261
 30
0.0
 10
95.1989162403
 20
74.9833561722
 30
0.0
 10
95.194910933
 20
74.2879480928
 30
0.0
  0
LINE
  5
46B
100
AcDbEntity
  8
0
100
AcDbLine
 62
7
  6
CONTINUOUS
 10
96.004910933
 20
74.6879480928
 11
96.924910933
 21
74.6879480928
  0
SPLINE
  5
46C
100
AcDbEntity
  8
0
100
AcDbSpline
 62
7
  6
CONTINUOUS
 70
0
 71
3
 72
8
 73
4
 74
0
 42
0.0000001
 43
0.0000001
 44
0.0000000001
 40
0.0
 40
0.0
 40
0.0
 40
0.0
 40
1.0
 40
1.0
 40
1.0
 40
1.0
 10
95.694910933
 20
74.2879480928
 30
0.0
 10
95.6953950891
 20
74.5653488187
 30
0.0
 10
95.8125618923
 20
74.6876166954
 30
0.0
 10
96.004910933
 20
74.6879480928
 30
0.0
  0
SPLINE
  5
46D
100
AcDbEntity
  8
0
100
AcDbSpline
 62
7
  6
CONTINUOUS
 70
0
 71
3
 72
8
 73
4
 74
0
 42
0.0000001
 43
0.0000001
 44
0.0000000001
 40
0.0
 40
0.0
 40
0.0
 40
0.0
 40
1.0
 40
1.0
 40
1.0
 40
1.0
 10
96.004910933
 20
73.8879480928
 30
0.0
 10
95.8125618923
 20
73.8882794902
 30
0.0
 10
95.6944267769
 20
74.0105473669
 30
0.0
 10
95.694910933
 20
74.2879480928
 30
0.0
  0
LINE
  5
46E
100
AcDbEntity
  8
0
100
AcDbLine
 62
7
  6
CONTINUOUS
 10
96.924910933
 20
73.8879480928
 11
96.004910933
 21
73.8879480928
  0
SPLINE
  5
46F
100
AcDbEntity
  8
0
100
AcDbSpline
 62
7
  6
CONTINUOUS
 70
0
 71
3
 72
8
 73
4
 74
0
 42
0.0000001
 43
0.0000001
 44
0.0000000001
 40
0.0
 40
0.0
 40
0.0
 40
0.0
 40
1.0
 40
1.0
 40
1.0
 40
1.0
 10
97.234910933
 20
74.2879480928
 30
0.0
 10
97.2344267769
 20
74.0105473669
 30
0.0
 10
97.1172599737
 20
73.8882794902
 30
0.0
 10
96.924910933
 20
73.8879480928
 30
0.0
  0
SPLINE
  5
470
100
AcDbEntity
  8
0
100
AcDbSpline
 62
7
  6
CONTINUOUS
 70
0
 71
3
 72
8
 73
4
 74
0
 42
0.0000001
 43
0.0000001
 44
0.0000000001
 40
0.0
 40
0.0
 40
0.0
 40
0.0
 40
1.0
 40
1.0
 40
1.0
 40
1.0
 10
96.924910933
 20
74.6879480928
 30
0.0
 10
97.1172599737
 20
74.6876166954
 30
0.0
 10
97.2353950891
 20
74.5653488187
 30
0.0
 10
97.234910933
 20
74.2879480928
 30
0.0
  0
SPLINE
  5
471
100
AcDbEntity
  8
0
100
AcDbSpline
 62
7
  6
CONTINUOUS
 70
0
 71
3
 72
8
 73
4
 74
0
 42
0.0000001
 43
0.0000001
 44
0.0000000001
 40
0.0
 40
0.0
 40
0.0
 40
0.0
 40
1.0
 40
1.0
 40
1.0
 40
1.0
 10
97.734910933
 20
78.6679480928
 30
0.0
 10
97.734910933
 20
79.4107136766
 30
0.0
 10
97.4927122994
 20
79.5692251567
 30
0.0
 10
97.004910933
 20
79.5679480928
 30
0.0
  0
SPLINE
  5
472
100
AcDbEntity
  8
0
100
AcDbSpline
 62
7
  6
CONTINUOUS
 70
0
 71
3
 72
8
 73
4
 74
0
 42
0.0000001
 43
0.0000001
 44
0.0000000001
 40
0.0
 40
0.0
 40
0.0
 40
0.0
 40
1.0
 40
1.0
 40
1.0
 40
1.0
 10
97.574910933
 20
77.8679480928
 30
0.0
 10
97.6716488272
 20
78.0800691354
 30
0.0
 10
97.734910933
 20
78.3814427578
 30
0.0
 10
97.734910933
 20
78.6679480928
 30
0.0
  0
SPLINE
  5
473
100
AcDbEntity
  8
0
100
AcDbSpline
 62
7
  6
CONTINUOUS
 70
0
 71
3
 72
8
 73
4
 74
0
 42
0.0000001
 43
0.0000001
 44
0.0000000001
 40
0.0
 40
0.0
 40
0.0
 40
0.0
 40
1.0
 40
1.0
 40
1.0
 40
1.0
 10
97.264910933
 20
78.6779480928
 30
0.0
 10
97.2684748406
 20
78.4227185947
 30
0.0
 10
97.2156910391
 20
78.1934106237
 30
0.0
 10
97.144910933
 20
77.9679480928
 30
0.0
  0
SPLINE
  5
474
100
AcDbEntity
  8
0
100
AcDbSpline
 62
7
  6
CONTINUOUS
 70
0
 71
3
 72
8
 73
4
 74
0
 42
0.0000001
 43
0.0000001
 44
0.0000000001
 40
0.0
 40
0.0
 40
0.0
 40
0.0
 40
1.0
 40
1.0
 40
1.0
 40
1.0
 10
96.994910933
 20
79.0179480928
 30
0.0
 10
97.2041125816
 20
79.0213440606
 30
0.0
 10
97.2608940732
 20
78.9656157894
 30
0.0
 10
97.264910933
 20
78.6779480928
 30
0.0
  0
SPLINE
  5
475
100
AcDbEntity
  8
0
100
AcDbSpline
 62
7
  6
CONTINUOUS
 70
0
 71
3
 72
8
 73
4
 74
0
 42
0.0000001
 43
0.0000001
 44
0.0000000001
 40
0.0
 40
0.0
 40
0.0
 40
0.0
 40
1.0
 40
1.0
 40
1.0
 40
1.0
 10
96.664910933
 20
78.5979480928
 30
0.0
 10
96.7471345235
 20
79.0027981632
 30
0.0
 10
96.7728802973
 20
79.0143438722
 30
0.0
 10
96.994910933
 20
79.0179480928
 30
0.0
  0
SPLINE
  5
476
100
AcDbEntity
  8
0
100
AcDbSpline
 62
7
  6
CONTINUOUS
 70
0
 71
3
 72
8
 73
4
 74
0
 42
0.0000001
 43
0.0000001
 44
0.0000000001
 40
0.0
 40
0.0
 40
0.0
 40
0.0
 40
1.0
 40
1.0
 40
1.0
 40
1.0
 10
95.884910933
 20
77.9179480928
 30
0.0
 10
96.4159716687
 20
77.9189676575
 30
0.0
 10
96.5342009606
 20
78.0045637898
 30
0.0
 10
96.664910933
 20
78.5979480928
 30
0.0
  0
SPLINE
  5
477
100
AcDbEntity
  8
0
100
AcDbSpline
 62
7
  6
CONTINUOUS
 70
0
 71
3
 72
8
 73
4
 74
0
 42
0.0000001
 43
0.0000001
 44
0.0000000001
 40
0.0
 40
0.0
 40
0.0
 40
0.0
 40
1.0
 40
1.0
 40
1.0
 40
1.0
 10
95.194910933
 20
78.7679480928
 30
0.0
 10
95.1874631308
 20
78.0906299484
 30
0.0
 10
95.3926714408
 20
77.9170030597
 30
0.0
 10
95.884910933
 20
77.9179480928
 30
0.0
  0
SPLINE
  5
478
100
AcDbEntity
  8
0
100
AcDbSpline
 62
7
  6
CONTINUOUS
 70
0
 71
3
 72
8
 73
4
 74
0
 42
0.0000001
 43
0.0000001
 44
0.0000000001
 40
0.0
 40
0.0
 40
0.0
 40
0.0
 40
1.0
 40
1.0
 40
1.0
 40
1.0
 10
95.284910933
 20
79.5179480928
 30
0.0
 10
95.2224451615
 20
79.2434736126
 30
0.0
 10
95.1972815308
 20
78.9835350427
 30
0.0
 10
95.194910933
 20
78.7679480928
 30
0.0
  0
SPLINE
  5
479
100
AcDbEntity
  8
0
100
AcDbSpline
 62
7
  6
CONTINUOUS
 70
0
 71
3
 72
8
 73
4
 74
0
 42
0.0000001
 43
0.0000001
 44
0.0000000001
 40
0.0
 40
0.0
 40
0.0
 40
0.0
 40
1.0
 40
1.0
 40
1.0
 40
1.0
 10
95.674910933
 20
78.7779480928
 30
0.0
 10
95.6752188758
 20
78.9984957254
 30
0.0
 10
95.697075022
 20
79.1785973219
 30
0.0
 10
95.744910933
 20
79.4579480928
 30
0.0
  0
SPLINE
  5
47A
100
AcDbEntity
  8
0
100
AcDbSpline
 62
7
  6
CONTINUOUS
 70
0
 71
3
 72
8
 73
4
 74
0
 42
0.0000001
 43
0.0000001
 44
0.0000000001
 40
0.0
 40
0.0
 40
0.0
 40
0.0
 40
1.0
 40
1.0
 40
1.0
 40
1.0
 10
95.904910933
 20
78.4679480928
 30
0.0
 10
95.7198167746
 20
78.4670435449
 30
0.0
 10
95.6745576097
 20
78.524899113
 30
0.0
 10
95.674910933
 20
78.7779480928
 30
0.0
  0
SPLINE
  5
47B
100
AcDbEntity
  8
0
100
AcDbSpline
 62
7
  6
CONTINUOUS
 70
0
 71
3
 72
8
 73
4
 74
0
 42
0.0000001
 43
0.0000001
 44
0.0000000001
 40
0.0
 40
0.0
 40
0.0
 40
0.0
 40
1.0
 40
1.0
 40
1.0
 40
1.0
 10
96.234910933
 20
78.8679480928
 30
0.0
 10
96.1445544185
 20
78.4801880709
 30
0.0
 10
96.1409232669
 20
78.4691014758
 30
0.0
 10
95.904910933
 20
78.4679480928
 30
0.0
  0
SPLINE
  5
47C
100
AcDbEntity
  8
0
100
AcDbSpline
 62
7
  6
CONTINUOUS
 70
0
 71
3
 72
8
 73
4
 74
0
 42
0.0000001
 43
0.0000001
 44
0.0000000001
 40
0.0
 40
0.0
 40
0.0
 40
0.0
 40
1.0
 40
1.0
 40
1.0
 40
1.0
 10
97.004910933
 20
79.5679480928
 30
0.0
 10
96.5211588354
 20
79.5666816299
 30
0.0
 10
96.3919723206
 20
79.5331014372
 30
0.0
 10
96.234910933
 20
78.8679480928
 30
0.0
  0
LINE
  5
47D
100
AcDbEntity
  8
0
100
AcDbLine
 62
7
  6
CONTINUOUS
 10
95.234910933
 20
85.3479480928
 11
95.2349108587
 21
86.3779471333
  0
SPLINE
  5
47E
100
AcDbEntity
  8
0
100
AcDbSpline
 62
7
  6
CONTINUOUS
 70
0
 71
3
 72
8
 73
4
 74
0
 42
0.0000001
 43
0.0000001
 44
0.0000000001
 40
0.0
 40
0.0
 40
0.0
 40
0.0
 40
1.0
 40
1.0
 40
1.0
 40
1.0
 10
95.9349109325
 20
87.1979480928
 30
0.0
 10
95.4726639247
 20
87.1985814306
 30
0.0
 10
95.2357471922
 20
86.9770551991
 30
0.0
 10
95.2349109316
 20
86.3779471332
 30
0.0
  0
LINE
  5
47F
100
AcDbEntity
  8
0
100
AcDbLine
 62
7
  6
CONTINUOUS
 10
95.9349109325
 20
87.1979480928
 11
96.2349109221
 21
87.1979480943
  0
SPLINE
  5
480
100
AcDbEntity
  8
0
100
AcDbSpline
 62
7
  6
CONTINUOUS
 70
0
 71
3
 72
8
 73
4
 74
0
 42
0.0000001
 43
0.0000001
 44
0.0000000001
 40
0.0
 40
0.0
 40
0.0
 40
0.0
 40
1.0
 40
1.0
 40
1.0
 40
1.0
 10
96.854910933
 20
86.8379480928
 30
0.0
 10
96.7509303614
 20
87.0866820423
 30
0.0
 10
96.543043173
 20
87.1980018747
 30
0.0
 10
96.2349109221
 20
87.1979480928
 30
0.0
  0
LINE
  5
481
100
AcDbEntity
  8
0
100
AcDbLine
 62
7
  6
CONTINUOUS
 10
95.984910933
 20
86.6379480928
 11
96.184910933
 21
86.6379480928
  0
SPLINE
  5
482
100
AcDbEntity
  8
0
100
AcDbSpline
 62
7
  6
CONTINUOUS
 70
0
 71
3
 72
8
 73
4
 74
0
 42
0.0000001
 43
0.0000001
 44
0.0000000001
 40
0.0
 40
0.0
 40
0.0
 40
0.0
 40
1.0
 40
1.0
 40
1.0
 40
1.0
 10
95.724910933
 20
86.3479480928
 30
0.0
 10
95.724910933
 20
86.5714392055
 30
0.0
 10
95.8017390827
 20
86.6401540963
 30
0.0
 10
95.984910933
 20
86.6379480928
 30
0.0
  0
LINE
  5
483
100
AcDbEntity
  8
0
100
AcDbLine
 62
7
  6
CONTINUOUS
 10
96.444910933
 20
86.3479480928
 11
96.444910933
 21
85.9079480928
  0
SPLINE
  5
484
100
AcDbEntity
  8
0
100
AcDbSpline
 62
7
  6
CONTINUOUS
 70
0
 71
3
 72
8
 73
4
 74
0
 42
0.0000001
 43
0.0000001
 44
0.0000000001
 40
0.0
 40
0.0
 40
0.0
 40
0.0
 40
1.0
 40
1.0
 40
1.0
 40
1.0
 10
96.184910933
 20
86.6379480928
 30
0.0
 10
96.3647245946
 20
86.6363788828
 30
0.0
 10
96.4469191021
 20
86.5780614843
 30
0.0
 10
96.444910933
 20
86.3479480928
 30
0.0
  0
LINE
  5
485
100
AcDbEntity
  8
A_RUNDUNGEN
100
AcDbLine
 62
7
  6
CONTINUOUS
 10
107.294910933
 20
95.6779480928
 11
105.794910933
 21
97.1779480928
  0
LINE
  5
486
100
AcDbEntity
  8
A_RUNDUNGEN
100
AcDbLine
 62
7
  6
CONTINUOUS
 10
107.294910933
 20
198.6779480928
 11
105.794910933
 21
197.1779480928
  0
ELLIPSE
  5
487
100
AcDbEntity
  8
A_RUNDUNGEN
100
AcDbEllipse
 62
7
  6
CONTINUOUS
 10
50.7945681405
 20
214.1276053003
 30
0.0
 11
0.7075914799
 21
0.7075914799
 31
0.0
 40
0.999315002
 41
-0.7850555471
 42
0.7850555471
  0
ELLIPSE
  5
488
100
AcDbEntity
  8
A_RUNDUNGEN
100
AcDbEllipse
 62
7
  6
CONTINUOUS
 10
65.7949490114
 20
95.0779100144
 30
0.0
 11
0.7071606311
 21
-0.7071606311
 31
0.0
 40
0.9999238505
 41
2.3562325664
 42
3.9269527408
  0
ELLIPSE
  5
489
100
AcDbEntity
  8
A_RUNDUNGEN
100
AcDbEllipse
 62
7
  6
CONTINUOUS
 10
52.7952537255
 20
95.2349936347
 30
0.0
 11
-0.9490638846
 21
0.3162903786
 31
0.0
 40
0.9996192872
 41
-1.2489924673
 42
0.3215754254
  0
ELLIPSE
  5
48A
100
AcDbEntity
  8
A_RUNDUNGEN
100
AcDbEllipse
 62
7
  6
CONTINUOUS
 10
54.7945681405
 20
95.2349936347
 30
0.0
 11
0.9490638846
 21
0.3162903786
 31
0.0
 40
0.9996192872
 41
0.9271852243
 42
1.2489924673
  0
ELLIPSE
  5
48B
100
AcDbEntity
  8
A_RUNDUNGEN
100
AcDbEllipse
 62
7
  6
CONTINUOUS
 10
54.7945681405
 20
199.120902551
 30
0.0
 11
-0.9490638846
 21
0.3162903786
 31
0.0
 40
0.9996192872
 41
1.8926001863
 42
2.2144074293
  0
ELLIPSE
  5
48C
100
AcDbEntity
  8
A_RUNDUNGEN
100
AcDbEllipse
 62
7
  6
CONTINUOUS
 10
52.7952537255
 20
199.120902551
 30
0.0
 11
0.9490638846
 21
0.3162903786
 31
0.0
 40
0.9996192872
 41
2.8200172282
 42
4.3905851209
  0
ELLIPSE
  5
48D
100
AcDbEntity
  8
A_RUNDUNGEN
100
AcDbEllipse
 62
7
  6
CONTINUOUS
 10
50.7945681405
 20
80.2282908853
 30
0.0
 11
0.7075914799
 21
-0.7075914799
 31
0.0
 40
0.999315002
 41
-0.7850555471
 42
0.7850555471
  0
ELLIPSE
  5
48E
100
AcDbEntity
  8
A_RUNDUNGEN
100
AcDbEllipse
 62
7
  6
CONTINUOUS
 10
65.7949490114
 20
199.2779861712
 30
0.0
 11
-0.7071606311
 21
-0.7071606311
 31
0.0
 40
0.9999238505
 41
-0.7853600872
 42
0.7853600872
  0
ENDSEC
  0
SECTION
  2
OBJECTS
  0
DICTIONARY
  5
48F
100
AcDbDictionary
  3
ACAD_GROUP
350
490
  3
ACAD_MLINESTYLE
350
491
  0
DICTIONARY
  5
490
102
{ACAD_REACTORS
330
48F
102
}
100
AcDbDictionary
  0
DICTIONARY
  5
491
102
{ACAD_REACTORS
330
48F
102
}
100
AcDbDictionary
  3
STANDARD
350
492
  0
MLINESTYLE
  5
492
102
{ACAD_REACTORS
330
491
102
}
100
AcDbMlineStyle
  2
STANDARD
 70
0
  3

 62
256
 51
90.0
 52
90.0
 71
2
 49
0.5
 62
256
  6
BYLAYER
 49
-0.5
 62
256
  6
BYLAYER
  0
ENDSEC
  0
EOF
