999
DXF file: d:\tmp\workingDir\0000046762\te_680_3d_fd_q05_01.dxf
999
Pro/ENGINEER 2016130 by Parametric Technology Corporation
  0
SECTION
  2
HEADER
  9
$ACADVER
  1
AC1014
  9
$DWGCODEPAGE
  3
ANSI_1252
  9
$EXTMAX
 10
199.898
 20
199.898
 30
0.0
  9
$EXTMIN
 10
0.0
 20
0.0
 30
0.0
  9
$LIMMIN
 10
0.0
 20
0.0
  9
$LIMMAX
 10
199.898
 20
199.898
  9
$VIEWCTR
 10
99.949
 20
99.949
  9
$VIEWSIZE
 40
199.898
  9
$CLAYER
  8
0
  9
$LTSCALE
 40
13.0303881481
  9
$CELTYPE
  6
BYLAYER
  9
$DIMSCALE
 40
1.0
  9
$DIMASZ
 40
3.5
  9
$DIMEXO
 40
0.0
  9
$DIMDLI
 40
9.0028136296
  9
$DIMEXE
 40
2.0
  9
$DIMCEN
 40
2.1322453333
  9
$DIMLFAC
 40
1.0
  9
$DIMBLK
  1
_ARROW_FILLED
  9
$DIMALT
 70
0
  9
$DIMALTF
 40
0.0393700787
  9
$DIMTXT
 40
3.5
  9
$DIMTOL
 70
1
  9
$DIMLIM
 70
0
  9
$DIMTFAC
 40
1.0
  9
$DIMTP
 40
0.01
  9
$DIMTM
 40
0.01
  9
$DIMGAP
 40
0.625
  9
$AUNITS
 70
0
  9
$PDMODE
 70
0
  9
$PDSIZE
 40
0.04
  9
$HANDSEED
  5
44E
  9
$TILEMODE
 70
1
  9
$MEASUREMENT
 70
1
  0
ENDSEC
  0
SECTION
  2
CLASSES
  0
ENDSEC
  0
SECTION
  2
TABLES
  0
TABLE
  2
VPORT
  5
8
100
AcDbSymbolTable
 70
2
  0
VPORT
  5
1F4
100
AcDbSymbolTableRecord
100
AcDbViewportTableRecord
  2
*ACTIVE
 70
0
 10
0.0
 20
0.0
 11
1.0
 21
1.0
 12
99.949
 22
99.949
 13
0.0
 23
0.0
 14
1.0
 24
1.0
 15
0.0
 25
0.0
 16
0.0
 26
0.0
 36
1.0
 17
0.0
 27
0.0
 37
0.0
 40
199.898
 41
1.0
 42
50.0
 43
0.0
 44
0.0
 50
0.0
 51
0.0
 71
0
 72
100
 73
1
 74
1
 75
0
 76
0
 77
0
 78
0
  0
ENDTAB
  0
TABLE
  2
LTYPE
  5
5
100
AcDbSymbolTable
 70
6
  0
LTYPE
  5
14
100
AcDbSymbolTableRecord
100
AcDbLinetypeTableRecord
  2
BYBLOCK
 70
0
  3

 72
65
 73
0
 40
0.0
  0
LTYPE
  5
15
100
AcDbSymbolTableRecord
100
AcDbLinetypeTableRecord
  2
BYLAYER
 70
0
  3

 72
65
 73
0
 40
0.0
  0
LTYPE
  5
16
100
AcDbSymbolTableRecord
100
AcDbLinetypeTableRecord
  2
CONTINUOUS
 70
64
  3
Solid line
 72
65
 73
0
 40
0.0
  0
LTYPE
  5
1F5
100
AcDbSymbolTableRecord
100
AcDbLinetypeTableRecord
  2
CENTER
 70
64
  3
____ _ ____ _ ____ _ ____ _ ____ _ ____ _ ____
 72
65
 73
4
 40
0.6
 49
0.375
 74
0
 49
-0.075
 74
0
 49
0.075
 74
0
 49
-0.075
 74
0
  0
LTYPE
  5
1F6
100
AcDbSymbolTableRecord
100
AcDbLinetypeTableRecord
  2
HIDDEN
 70
64
  3
- - - - - - - - - - - - - - - - - - - -
 72
65
 73
2
 40
0.2
 49
0.1
 74
0
 49
-0.1
 74
0
  0
LTYPE
  5
1F7
100
AcDbSymbolTableRecord
100
AcDbLinetypeTableRecord
  2
PHANTOM
 70
64
  3
_____ _ _ _____ _ _ _____ _ _ _____
 72
65
 73
6
 40
0.8
 49
0.45
 74
0
 49
-0.05
 74
0
 49
0.1
 74
0
 49
-0.05
 74
0
 49
0.1
 74
0
 49
-0.05
 74
0
  0
LTYPE
  5
1F8
100
AcDbSymbolTableRecord
100
AcDbLinetypeTableRecord
  2
DOT
 70
64
  3
. . . . . . . . . . . . . . . . . . . .
 72
65
 73
2
 40
0.2
 49
0.1
 74
0
 49
-0.1
 74
0
  0
LTYPE
  5
1F9
100
AcDbSymbolTableRecord
100
AcDbLinetypeTableRecord
  2
DASHED
 70
64
  3
- - - - - - - - - - - - - - - - - - - -
 72
65
 73
2
 40
0.2
 49
0.1
 74
0
 49
-0.1
 74
0
  0
ENDTAB
  0
TABLE
  2
LAYER
  5
2
100
AcDbSymbolTable
 70
36
  0
LAYER
  5
10
100
AcDbSymbolTableRecord
100
AcDbLayerTableRecord
  2
0
 70
0
 62
7
  6
CONTINUOUS
  0
LAYER
  5
1FA
100
AcDbSymbolTableRecord
100
AcDbLayerTableRecord
  2
DEFAULT_1
 70
0
 62
7
  6
CENTER
  0
LAYER
  5
1FB
100
AcDbSymbolTableRecord
100
AcDbLayerTableRecord
  2
DEFAULT_2
 70
0
 62
8
  6
HIDDEN
  0
LAYER
  5
1FC
100
AcDbSymbolTableRecord
100
AcDbLayerTableRecord
  2
DEFAULT_3
 70
0
 62
7
  6
PHANTOM
  0
LAYER
  5
1FD
100
AcDbSymbolTableRecord
100
AcDbLayerTableRecord
  2
A_ACHSEN
 70
0
 62
7
  6
CONTINUOUS
  0
LAYER
  5
1FE
100
AcDbSymbolTableRecord
100
AcDbLayerTableRecord
  2
A_BASISEBENEN
 70
0
 62
7
  6
CONTINUOUS
  0
LAYER
  5
1FF
100
AcDbSymbolTableRecord
100
AcDbLayerTableRecord
  2
A_BEMASSUNGEN
 70
0
 62
7
  6
CONTINUOUS
  0
LAYER
  5
200
100
AcDbSymbolTableRecord
100
AcDbLayerTableRecord
  2
A_BOHRUNGEN
 70
0
 62
7
  6
CONTINUOUS
  0
LAYER
  5
201
100
AcDbSymbolTableRecord
100
AcDbLayerTableRecord
  2
A_EBENEN
 70
0
 62
7
  6
CONTINUOUS
  0
LAYER
  5
202
100
AcDbSymbolTableRecord
100
AcDbLayerTableRecord
  2
A_FASEN
 70
0
 62
7
  6
CONTINUOUS
  0
LAYER
  5
203
100
AcDbSymbolTableRecord
100
AcDbLayerTableRecord
  2
A_FLAECHEN
 70
0
 62
7
  6
CONTINUOUS
  0
LAYER
  5
204
100
AcDbSymbolTableRecord
100
AcDbLayerTableRecord
  2
A_FL_VERBAENDE
 70
0
 62
7
  6
CONTINUOUS
  0
LAYER
  5
205
100
AcDbSymbolTableRecord
100
AcDbLayerTableRecord
  2
A_KURVEN
 70
0
 62
7
  6
CONTINUOUS
  0
LAYER
  5
206
100
AcDbSymbolTableRecord
100
AcDbLayerTableRecord
  2
A_NOTIZEN_SYMB
 70
0
 62
7
  6
CONTINUOUS
  0
LAYER
  5
207
100
AcDbSymbolTableRecord
100
AcDbLayerTableRecord
  2
A_PUNKTE
 70
0
 62
7
  6
CONTINUOUS
  0
LAYER
  5
208
100
AcDbSymbolTableRecord
100
AcDbLayerTableRecord
  2
A_RUNDUNGEN
 70
0
 62
7
  6
CONTINUOUS
  0
LAYER
  5
209
100
AcDbSymbolTableRecord
100
AcDbLayerTableRecord
  2
BASISEBENEN
 70
0
 62
7
  6
CONTINUOUS
  0
LAYER
  5
20A
100
AcDbSymbolTableRecord
100
AcDbLayerTableRecord
  2
GRUNDEBENE
 70
0
 62
7
  6
CONTINUOUS
  0
LAYER
  5
20B
100
AcDbSymbolTableRecord
100
AcDbLayerTableRecord
  2
IMPORT_KE
 70
0
 62
7
  6
CONTINUOUS
  0
LAYER
  5
20C
100
AcDbSymbolTableRecord
100
AcDbLayerTableRecord
  2
INTFCLR_3
 70
0
 62
7
  6
CONTINUOUS
  0
LAYER
  5
20D
100
AcDbSymbolTableRecord
100
AcDbLayerTableRecord
  2
INTF_1
 70
0
 62
7
  6
CONTINUOUS
  0
LAYER
  5
20E
100
AcDbSymbolTableRecord
100
AcDbLayerTableRecord
  2
INTF_2
 70
0
 62
7
  6
CONTINUOUS
  0
LAYER
  5
20F
100
AcDbSymbolTableRecord
100
AcDbLayerTableRecord
  2
INTF_3
 70
0
 62
7
  6
CONTINUOUS
  0
LAYER
  5
210
100
AcDbSymbolTableRecord
100
AcDbLayerTableRecord
  2
INTF_4
 70
0
 62
7
  6
CONTINUOUS
  0
LAYER
  5
211
100
AcDbSymbolTableRecord
100
AcDbLayerTableRecord
  2
INTF_MAGENTA
 70
0
 62
7
  6
CONTINUOUS
  0
LAYER
  5
212
100
AcDbSymbolTableRecord
100
AcDbLayerTableRecord
  2
INTF_YELLOW
 70
0
 62
7
  6
CONTINUOUS
  0
LAYER
  5
213
100
AcDbSymbolTableRecord
100
AcDbLayerTableRecord
  2
PROFIL
 70
0
 62
7
  6
CONTINUOUS
  0
LAYER
  5
214
100
AcDbSymbolTableRecord
100
AcDbLayerTableRecord
  2
QUER1
 70
0
 62
7
  6
CONTINUOUS
  0
LAYER
  5
215
100
AcDbSymbolTableRecord
100
AcDbLayerTableRecord
  2
QUER2
 70
0
 62
7
  6
CONTINUOUS
  0
LAYER
  5
216
100
AcDbSymbolTableRecord
100
AcDbLayerTableRecord
  2
QUER3
 70
0
 62
7
  6
CONTINUOUS
  0
LAYER
  5
217
100
AcDbSymbolTableRecord
100
AcDbLayerTableRecord
  2
SCHRAFFUR
 70
0
 62
7
  6
CONTINUOUS
  0
ENDTAB
  0
TABLE
  2
STYLE
  5
3
100
AcDbSymbolTable
 70
1
  0
STYLE
  5
11
100
AcDbSymbolTableRecord
100
AcDbTextStyleTableRecord
  2
STANDARD
 70
0
 40
0.0
 41
1.0
 50
0.0
 71
0
 42
0.2
  3
txt
  4

  0
STYLE
  5
218
100
AcDbSymbolTableRecord
100
AcDbTextStyleTableRecord
  2
TEXTSTYLE_1
 70
0
 40
0.0
 41
0.8
 50
0.0
 71
0
 42
0.2
  3
gdt
  4

  0
STYLE
  5
219
100
AcDbSymbolTableRecord
100
AcDbTextStyleTableRecord
  2
TEXTSTYLE_2
 70
0
 40
0.0
 41
1.0
 50
0.0
 71
0
 42
0.2
  3
txt
  4

  0
ENDTAB
  0
TABLE
  2
VIEW
  5
6
100
AcDbSymbolTable
 70
0
  0
ENDTAB
  0
TABLE
  2
UCS
  5
7
100
AcDbSymbolTable
 70
0
  0
ENDTAB
  0
TABLE
  2
APPID
  5
9
100
AcDbSymbolTable
 70
1
  0
APPID
  5
21A
100
AcDbSymbolTableRecord
100
AcDbRegAppTableRecord
  2
ACAD
 70
0
  0
ENDTAB
  0
TABLE
  2
BLOCK_RECORD
  5
1
100
AcDbSymbolTable
 70
0
  0
BLOCK_RECORD
  5
1F
100
AcDbSymbolTableRecord
100
AcDbBlockTableRecord
  2
*MODEL_SPACE
  0
BLOCK_RECORD
  5
1B
100
AcDbSymbolTableRecord
100
AcDbBlockTableRecord
  2
*PAPER_SPACE
  0
BLOCK_RECORD
  5
21B
100
AcDbSymbolTableRecord
100
AcDbBlockTableRecord
  2
_ARROW_FILLED
  0
BLOCK_RECORD
  5
21C
100
AcDbSymbolTableRecord
100
AcDbBlockTableRecord
  2
*D0
  0
BLOCK_RECORD
  5
21D
100
AcDbSymbolTableRecord
100
AcDbBlockTableRecord
  2
*D1
  0
BLOCK_RECORD
  5
21E
100
AcDbSymbolTableRecord
100
AcDbBlockTableRecord
  2
*D2
  0
BLOCK_RECORD
  5
21F
100
AcDbSymbolTableRecord
100
AcDbBlockTableRecord
  2
*D3
  0
BLOCK_RECORD
  5
220
100
AcDbSymbolTableRecord
100
AcDbBlockTableRecord
  2
*D4
  0
BLOCK_RECORD
  5
221
100
AcDbSymbolTableRecord
100
AcDbBlockTableRecord
  2
*D5
  0
BLOCK_RECORD
  5
222
100
AcDbSymbolTableRecord
100
AcDbBlockTableRecord
  2
*D6
  0
BLOCK_RECORD
  5
223
100
AcDbSymbolTableRecord
100
AcDbBlockTableRecord
  2
*D7
  0
BLOCK_RECORD
  5
224
100
AcDbSymbolTableRecord
100
AcDbBlockTableRecord
  2
*D8
  0
BLOCK_RECORD
  5
225
100
AcDbSymbolTableRecord
100
AcDbBlockTableRecord
  2
*D9
  0
ENDTAB
  0
TABLE
  2
DIMSTYLE
  5
A
100
AcDbSymbolTable
 70
1
  0
DIMSTYLE
105
226
100
AcDbSymbolTableRecord
100
AcDbDimStyleTableRecord
  2
STANDARD
 70
0
  3

  4

  5
_ARROW_FILLED
  6
_ARROW_FILLED
  7
_ARROW_FILLED
 40
1.0
 41
3.5
 42
0.0
 43
0.38
 44
2.0
 45
0.0
 46
0.0
 47
0.01
 48
0.01
140
3.5
141
0.09
142
0.0
143
25.4
144
1.0
145
0.0
146
1.0
147
0.625
 71
1.0
 72
0.0
 73
0
 74
0
 75
0
 76
0
 77
1
 78
8
170
0
171
2
172
0
173
0
174
0
175
0
176
0
177
0
178
5
270
2
271
2
272
2
273
2
274
2
275
0
280
0
281
0
282
0
283
1
284
8
285
0
286
0
287
3
288
0
340
11
  0
DIMSTYLE
105
227
100
AcDbSymbolTableRecord
100
AcDbDimStyleTableRecord
  2
DIMSTYLE_1
 70
0
  3

  4

  5
_ARROW_FILLED
  6
_ARROW_FILLED
  7
_ARROW_FILLED
 40
1.0
 41
3.5
 42
0.0
 43
0.38
 44
2.0
 45
0.0
 46
0.0
 47
0.1
 48
0.1
140
3.5
141
0.09
142
0.0
143
25.4
144
1.0
145
0.0
146
1.0
147
0.875
 71
0.0
 72
0.0
 73
0
 74
0
 75
0
 76
0
 77
1
 78
8
170
0
171
2
172
0
173
0
174
0
175
0
176
0
177
0
178
5
270
2
271
4
272
4
273
2
274
2
275
0
280
0
281
0
282
0
283
1
284
8
285
0
286
0
287
3
288
0
340
219
  0
DIMSTYLE
105
228
100
AcDbSymbolTableRecord
100
AcDbDimStyleTableRecord
  2
DIMSTYLE_2
 70
0
  3

  4

  5
_ARROW_FILLED
  6
_ARROW_FILLED
  7
_ARROW_FILLED
 40
1.0
 41
3.5
 42
0.0
 43
0.38
 44
2.0
 45
0.0
 46
0.0
 47
0.3
 48
0.3
140
3.5
141
0.09
142
0.0
143
25.4
144
1.0
145
0.0
146
1.0
147
0.875
 71
0.0
 72
0.0
 73
0
 74
0
 75
0
 76
0
 77
1
 78
8
170
0
171
2
172
0
173
0
174
0
175
0
176
0
177
0
178
5
270
2
271
4
272
4
273
2
274
2
275
0
280
0
281
0
282
0
283
1
284
8
285
0
286
0
287
3
288
0
340
219
  0
DIMSTYLE
105
229
100
AcDbSymbolTableRecord
100
AcDbDimStyleTableRecord
  2
DIMSTYLE_3
 70
0
  3

  4

  5
_ARROW_FILLED
  6
_ARROW_FILLED
  7
_ARROW_FILLED
 40
1.0
 41
3.5
 42
0.0
 43
0.38
 44
2.0
 45
0.0
 46
0.0
 47
0.2
 48
0.2
140
3.5
141
0.09
142
0.0
143
25.4
144
1.0
145
0.0
146
1.0
147
0.875
 71
0.0
 72
0.0
 73
0
 74
0
 75
0
 76
0
 77
1
 78
8
170
0
171
2
172
0
173
0
174
0
175
0
176
0
177
0
178
5
270
2
271
2
272
2
273
2
274
2
275
0
280
0
281
0
282
0
283
1
284
8
285
0
286
0
287
3
288
0
340
219
  0
DIMSTYLE
105
22A
100
AcDbSymbolTableRecord
100
AcDbDimStyleTableRecord
  2
DIMSTYLE_4
 70
0
  3

  4

  5
_ARROW_FILLED
  6
_ARROW_FILLED
  7
_ARROW_FILLED
 40
1.0
 41
3.5
 42
0.0
 43
0.38
 44
2.0
 45
0.0
 46
0.0
 47
0.2
 48
0.2
140
3.5
141
0.09
142
0.0
143
25.4
144
1.0
145
0.0
146
1.0
147
0.875
 71
0.0
 72
0.0
 73
0
 74
0
 75
0
 76
0
 77
1
 78
8
170
0
171
2
172
0
173
0
174
0
175
0
176
0
177
0
178
5
270
2
271
3
272
3
273
2
274
2
275
0
280
0
281
0
282
0
283
1
284
8
285
0
286
0
287
3
288
0
340
219
  0
DIMSTYLE
105
22B
100
AcDbSymbolTableRecord
100
AcDbDimStyleTableRecord
  2
DIMSTYLE_5
 70
0
  3

  4

  5
_ARROW_FILLED
  6
_ARROW_FILLED
  7
_ARROW_FILLED
 40
1.0
 41
3.5
 42
0.0
 43
0.38
 44
2.0
 45
0.0
 46
0.0
 47
0.2
 48
0.2
140
3.5
141
0.09
142
0.0
143
25.4
144
1.0
145
0.0
146
1.0
147
0.875
 71
0.0
 72
0.0
 73
0
 74
0
 75
0
 76
0
 77
1
 78
8
170
0
171
2
172
0
173
0
174
0
175
0
176
0
177
0
178
5
270
2
271
4
272
4
273
2
274
2
275
0
280
0
281
0
282
0
283
1
284
8
285
0
286
0
287
3
288
0
340
219
  0
DIMSTYLE
105
22C
100
AcDbSymbolTableRecord
100
AcDbDimStyleTableRecord
  2
DIMSTYLE_6
 70
0
  3

  4

  5
_ARROW_FILLED
  6
_ARROW_FILLED
  7
_ARROW_FILLED
 40
1.0
 41
3.5
 42
0.0
 43
0.38
 44
2.0
 45
0.0
 46
0.0
 47
0.1
 48
0.1
140
3.5
141
0.09
142
0.0
143
25.4
144
1.0
145
0.0
146
1.0
147
0.875
 71
0.0
 72
0.0
 73
0
 74
0
 75
0
 76
0
 77
1
 78
8
170
0
171
2
172
0
173
0
174
0
175
0
176
0
177
0
178
5
270
2
271
1
272
1
273
2
274
2
275
0
280
0
281
0
282
0
283
1
284
8
285
0
286
0
287
3
288
0
340
219
  0
ENDTAB
  0
ENDSEC
  0
SECTION
  2
BLOCKS
  0
BLOCK
  5
20
100
AcDbEntity
  8
0
100
AcDbBlockBegin
  2
*MODEL_SPACE
 70
0
 10
0.0
 20
0.0
 30
0.0
  3
*MODEL_SPACE
  1

  0
ENDBLK
  5
21
100
AcDbEntity
  8
0
100
AcDbBlockEnd
  0
BLOCK
  5
1C
100
AcDbEntity
  8
0
100
AcDbBlockBegin
  2
*PAPER_SPACE
 70
0
 10
0.0
 20
0.0
 30
0.0
  3
*PAPER_SPACE
  1

  0
ENDBLK
  5
1D
100
AcDbEntity
  8
0
100
AcDbBlockEnd
  0
BLOCK
  5
22D
100
AcDbEntity
  8
0
100
AcDbBlockBegin
  2
_ARROW_FILLED
 70
64
 10
0.0
 20
0.0
  3
_ARROW_FILLED
  1

  0
SOLID
  5
22E
100
AcDbEntity
  8
0
  6
BYBLOCK
 62
0
100
AcDbTrace
 10
0.0
 20
0.0
 11
-1.0
 21
0.1428571429
 12
-1.0
 22
-0.1428571429
 13
-1.0
 23
-0.1428571429
  0
ENDBLK
  5
22F
100
AcDbEntity
  8
0
  6
BYBLOCK
 62
0
100
AcDbBlockEnd
  0
BLOCK
  5
230
100
AcDbEntity
  8
A_BEMASSUNGEN
100
AcDbBlockBegin
 62
2
  6
CONTINUOUS
  2
*D0
 70
65
 10
0.0
 20
0.0
  3
*D0
  1

  0
MTEXT
  5
231
100
AcDbEntity
  8
A_BEMASSUNGEN
100
AcDbMText
 62
5
  6
CONTINUOUS
  7
TEXTSTYLE_2
 71
1
 72
1
 10
178.0990510731
 20
50.1357435732
 30
0.0
 11
0.0
 21
1.0
 31
0.0
  1
5
 40
3.5
 41
3.75
  0
LINE
  5
232
100
AcDbEntity
  8
A_BEMASSUNGEN
100
AcDbLine
 62
2
  6
CONTINUOUS
 10
164.3880497836
 20
53.3516863975
 11
184.4740510669
 21
53.351686436
  0
LINE
  5
233
100
AcDbEntity
  8
A_BEMASSUNGEN
100
AcDbLine
 62
2
  6
CONTINUOUS
 10
99.3880497741
 20
58.3516862729
 11
184.4740510573
 21
58.351686436
  0
LINE
  5
234
100
AcDbEntity
  8
A_BEMASSUNGEN
100
AcDbLine
 62
2
  6
CONTINUOUS
 10
182.4740510669
 20
53.3516864322
 11
182.4740510731
 21
50.1357435732
  0
LINE
  5
235
100
AcDbEntity
  8
A_BEMASSUNGEN
100
AcDbLine
 62
2
  6
CONTINUOUS
 10
182.4740510731
 20
50.1357435732
 11
182.4740510621
 21
55.8516864322
  0
LINE
  5
236
100
AcDbEntity
  8
A_BEMASSUNGEN
100
AcDbLine
 62
2
  6
CONTINUOUS
 10
182.4740510573
 20
58.3516864322
 11
182.4740510429
 21
65.8516864322
  0
LINE
  5
237
100
AcDbEntity
  8
A_BEMASSUNGEN
100
AcDbLine
 62
2
  6
CONTINUOUS
 10
182.4740510429
 20
65.8516864322
 11
182.4740510621
 21
55.8516864322
  0
INSERT
  5
238
100
AcDbEntity
  8
A_BEMASSUNGEN
100
AcDbBlockReference
 62
2
  6
CONTINUOUS
  2
_ARROW_FILLED
 10
182.4740510669
 20
53.3516864322
 41
3.5
 42
3.5
 43
3.5
 50
90.0000001098
  0
INSERT
  5
239
100
AcDbEntity
  8
A_BEMASSUNGEN
100
AcDbBlockReference
 62
2
  6
CONTINUOUS
  2
_ARROW_FILLED
 10
182.4740510573
 20
58.3516864322
 41
3.5
 42
3.5
 43
3.5
 50
270.0000001098
  0
ENDBLK
  5
23A
100
AcDbEntity
  8
0
  6
BYBLOCK
 62
0
100
AcDbBlockEnd
  0
BLOCK
  5
23B
100
AcDbEntity
  8
A_BEMASSUNGEN
100
AcDbBlockBegin
 62
2
  6
CONTINUOUS
  2
*D1
 70
65
 10
0.0
 20
0.0
  3
*D1
  1

  0
MTEXT
  5
23C
100
AcDbEntity
  8
A_BEMASSUNGEN
100
AcDbMText
 62
5
  6
CONTINUOUS
  7
TEXTSTYLE_2
 71
2
 72
1
 10
178.1027012068
 20
78.7016864322
 30
0.0
 11
0.0
 21
1.0
 31
0.0
  1
40.7
 40
3.5
 41
15.375
  0
LINE
  5
23D
100
AcDbEntity
  8
A_BEMASSUNGEN
100
AcDbLine
 62
2
  6
CONTINUOUS
 10
99.3880497741
 20
58.3516862729
 11
184.4777012458
 21
58.351686436
  0
LINE
  5
23E
100
AcDbEntity
  8
A_BEMASSUNGEN
100
AcDbLine
 62
2
  6
CONTINUOUS
 10
99.388049696
 20
99.0516862729
 11
184.4777011678
 21
99.051686436
  0
LINE
  5
23F
100
AcDbEntity
  8
A_BEMASSUNGEN
100
AcDbLine
 62
2
  6
CONTINUOUS
 10
182.4777012458
 20
58.3516864322
 11
182.4777012068
 21
78.7016864322
  0
LINE
  5
240
100
AcDbEntity
  8
A_BEMASSUNGEN
100
AcDbLine
 62
2
  6
CONTINUOUS
 10
182.4777011678
 20
99.0516864322
 11
182.4777012068
 21
78.7016864322
  0
INSERT
  5
241
100
AcDbEntity
  8
A_BEMASSUNGEN
100
AcDbBlockReference
 62
2
  6
CONTINUOUS
  2
_ARROW_FILLED
 10
182.4777012458
 20
58.3516864322
 41
3.5
 42
3.5
 43
3.5
 50
270.0000001098
  0
INSERT
  5
242
100
AcDbEntity
  8
A_BEMASSUNGEN
100
AcDbBlockReference
 62
2
  6
CONTINUOUS
  2
_ARROW_FILLED
 10
182.4777011678
 20
99.0516864322
 41
3.5
 42
3.5
 43
3.5
 50
90.0000001098
  0
ENDBLK
  5
243
100
AcDbEntity
  8
0
  6
BYBLOCK
 62
0
100
AcDbBlockEnd
  0
BLOCK
  5
244
100
AcDbEntity
  8
A_BEMASSUNGEN
100
AcDbBlockBegin
 62
2
  6
CONTINUOUS
  2
*D2
 70
65
 10
0.0
 20
0.0
  3
*D2
  1

  0
MTEXT
  5
245
100
AcDbEntity
  8
A_BEMASSUNGEN
100
AcDbMText
 62
5
  6
CONTINUOUS
  7
TEXTSTYLE_2
 71
3
 72
1
 10
50.1797251602
 20
67.8356112897
 30
0.0
 11
0.0
 21
1.0
 31
0.0
  1
6
 40
3.5
 41
4.125
  0
LINE
  5
246
100
AcDbEntity
  8
A_BEMASSUNGEN
100
AcDbLine
 62
2
  6
CONTINUOUS
 10
64.8880497472
 20
72.3516862068
 11
52.5547251602
 21
72.3516862068
  0
LINE
  5
247
100
AcDbEntity
  8
A_BEMASSUNGEN
100
AcDbLine
 62
2
  6
CONTINUOUS
 10
54.5547251602
 20
78.3516862116
 11
54.5547251602
 21
85.8516862116
  0
LINE
  5
248
100
AcDbEntity
  8
A_BEMASSUNGEN
100
AcDbLine
 62
2
  6
CONTINUOUS
 10
54.5547251602
 20
85.8516862116
 11
54.5547251602
 21
75.3516862092
  0
LINE
  5
249
100
AcDbEntity
  8
A_BEMASSUNGEN
100
AcDbLine
 62
2
  6
CONTINUOUS
 10
54.5547251602
 20
72.3516862068
 11
54.5547251602
 21
65.0856112897
  0
LINE
  5
24A
100
AcDbEntity
  8
A_BEMASSUNGEN
100
AcDbLine
 62
2
  6
CONTINUOUS
 10
54.5547251602
 20
65.0856112897
 11
54.5547251602
 21
75.3516862092
  0
INSERT
  5
24B
100
AcDbEntity
  8
A_BEMASSUNGEN
100
AcDbBlockReference
 62
2
  6
CONTINUOUS
  2
_ARROW_FILLED
 10
54.5547251602
 20
78.3516862116
 41
3.5
 42
3.5
 43
3.5
 50
270.0
  0
INSERT
  5
24C
100
AcDbEntity
  8
A_BEMASSUNGEN
100
AcDbBlockReference
 62
2
  6
CONTINUOUS
  2
_ARROW_FILLED
 10
54.5547251602
 20
72.3516862068
 41
3.5
 42
3.5
 43
3.5
 50
90.0
  0
ENDBLK
  5
24D
100
AcDbEntity
  8
0
  6
BYBLOCK
 62
0
100
AcDbBlockEnd
  0
BLOCK
  5
24E
100
AcDbEntity
  8
A_BEMASSUNGEN
100
AcDbBlockBegin
 62
2
  6
CONTINUOUS
  2
*D3
 70
65
 10
0.0
 20
0.0
  3
*D3
  1

  0
MTEXT
  5
24F
100
AcDbEntity
  8
A_BEMASSUNGEN
100
AcDbMText
 62
5
  6
CONTINUOUS
  7
TEXTSTYLE_2
 71
2
 72
1
 10
39.7456260415
 20
65.8516862092
 30
0.0
 11
0.0
 21
1.0
 31
0.0
  1
25
 40
3.5
 41
7.875
  0
LINE
  5
250
100
AcDbEntity
  8
A_BEMASSUNGEN
100
AcDbLine
 62
2
  6
CONTINUOUS
 10
64.8880497836
 20
53.3516862068
 11
42.1206260415
 21
53.3516862068
  0
LINE
  5
251
100
AcDbEntity
  8
A_BEMASSUNGEN
100
AcDbLine
 62
2
  6
CONTINUOUS
 10
44.1206260415
 20
78.3516862116
 11
44.1206260415
 21
65.8516862092
  0
LINE
  5
252
100
AcDbEntity
  8
A_BEMASSUNGEN
100
AcDbLine
 62
2
  6
CONTINUOUS
 10
44.1206260415
 20
53.3516862068
 11
44.1206260415
 21
65.8516862092
  0
INSERT
  5
253
100
AcDbEntity
  8
A_BEMASSUNGEN
100
AcDbBlockReference
 62
2
  6
CONTINUOUS
  2
_ARROW_FILLED
 10
44.1206260415
 20
78.3516862116
 41
3.5
 42
3.5
 43
3.5
 50
90.0
  0
INSERT
  5
254
100
AcDbEntity
  8
A_BEMASSUNGEN
100
AcDbBlockReference
 62
2
  6
CONTINUOUS
  2
_ARROW_FILLED
 10
44.1206260415
 20
53.3516862068
 41
3.5
 42
3.5
 43
3.5
 50
270.0
  0
ENDBLK
  5
255
100
AcDbEntity
  8
0
  6
BYBLOCK
 62
0
100
AcDbBlockEnd
  0
BLOCK
  5
256
100
AcDbEntity
  8
A_BEMASSUNGEN
100
AcDbBlockBegin
 62
2
  6
CONTINUOUS
  2
*D4
 70
65
 10
0.0
 20
0.0
  3
*D4
  1

  0
MTEXT
  5
257
100
AcDbEntity
  8
A_BEMASSUNGEN
100
AcDbMText
 62
5
  6
CONTINUOUS
  7
TEXTSTYLE_2
 71
3
 72
1
 10
3.8091998126
 20
72.2266442116
 30
0.0
 11
0.0
 21
1.0
 31
0.0
  1
7
 40
3.5
 41
4.125
  0
LINE
  5
258
100
AcDbEntity
  8
A_BEMASSUNGEN
100
AcDbLine
 62
2
  6
CONTINUOUS
 10
16.8880497633
 20
78.3516862116
 11
6.1841998126
 21
78.3516862116
  0
LINE
  5
259
100
AcDbEntity
  8
A_BEMASSUNGEN
100
AcDbLine
 62
2
  6
CONTINUOUS
 10
41.8880497633
 20
85.3516862116
 11
6.1841998126
 21
85.3516862116
  0
LINE
  5
25A
100
AcDbEntity
  8
A_BEMASSUNGEN
100
AcDbLine
 62
2
  6
CONTINUOUS
 10
8.1841998126
 20
78.3516862116
 11
8.1841998126
 21
69.4766442116
  0
LINE
  5
25B
100
AcDbEntity
  8
A_BEMASSUNGEN
100
AcDbLine
 62
2
  6
CONTINUOUS
 10
8.1841998126
 20
69.4766442116
 11
8.1841998126
 21
81.8516862116
  0
LINE
  5
25C
100
AcDbEntity
  8
A_BEMASSUNGEN
100
AcDbLine
 62
2
  6
CONTINUOUS
 10
8.1841998126
 20
85.3516862116
 11
8.1841998126
 21
92.8516862116
  0
LINE
  5
25D
100
AcDbEntity
  8
A_BEMASSUNGEN
100
AcDbLine
 62
2
  6
CONTINUOUS
 10
8.1841998126
 20
92.8516862116
 11
8.1841998126
 21
81.8516862116
  0
INSERT
  5
25E
100
AcDbEntity
  8
A_BEMASSUNGEN
100
AcDbBlockReference
 62
2
  6
CONTINUOUS
  2
_ARROW_FILLED
 10
8.1841998126
 20
78.3516862116
 41
3.5
 42
3.5
 43
3.5
 50
90.0
  0
INSERT
  5
25F
100
AcDbEntity
  8
A_BEMASSUNGEN
100
AcDbBlockReference
 62
2
  6
CONTINUOUS
  2
_ARROW_FILLED
 10
8.1841998126
 20
85.3516862116
 41
3.5
 42
3.5
 43
3.5
 50
270.0
  0
ENDBLK
  5
260
100
AcDbEntity
  8
0
  6
BYBLOCK
 62
0
100
AcDbBlockEnd
  0
BLOCK
  5
261
100
AcDbEntity
  8
A_BEMASSUNGEN
100
AcDbBlockBegin
 62
2
  6
CONTINUOUS
  2
*D5
 70
65
 10
0.0
 20
0.0
  3
*D5
  1

  0
MTEXT
  5
262
100
AcDbEntity
  8
A_BEMASSUNGEN
100
AcDbMText
 62
5
  6
CONTINUOUS
  7
TEXTSTYLE_2
 71
2
 72
1
 10
3.8091998126
 20
100.3516862116
 30
0.0
 11
0.0
 21
1.0
 31
0.0
  1
30
 40
3.5
 41
7.875
  0
LINE
  5
263
100
AcDbEntity
  8
A_BEMASSUNGEN
100
AcDbLine
 62
2
  6
CONTINUOUS
 10
41.8880497633
 20
85.3516862116
 11
6.1841998126
 21
85.3516862116
  0
LINE
  5
264
100
AcDbEntity
  8
A_BEMASSUNGEN
100
AcDbLine
 62
2
  6
CONTINUOUS
 10
41.8880497633
 20
115.3516862116
 11
6.1841998126
 21
115.3516862116
  0
LINE
  5
265
100
AcDbEntity
  8
A_BEMASSUNGEN
100
AcDbLine
 62
2
  6
CONTINUOUS
 10
8.1841998126
 20
85.3516862116
 11
8.1841998126
 21
100.3516862116
  0
LINE
  5
266
100
AcDbEntity
  8
A_BEMASSUNGEN
100
AcDbLine
 62
2
  6
CONTINUOUS
 10
8.1841998126
 20
115.3516862116
 11
8.1841998126
 21
100.3516862116
  0
INSERT
  5
267
100
AcDbEntity
  8
A_BEMASSUNGEN
100
AcDbBlockReference
 62
2
  6
CONTINUOUS
  2
_ARROW_FILLED
 10
8.1841998126
 20
85.3516862116
 41
3.5
 42
3.5
 43
3.5
 50
270.0
  0
INSERT
  5
268
100
AcDbEntity
  8
A_BEMASSUNGEN
100
AcDbBlockReference
 62
2
  6
CONTINUOUS
  2
_ARROW_FILLED
 10
8.1841998126
 20
115.3516862116
 41
3.5
 42
3.5
 43
3.5
 50
90.0
  0
ENDBLK
  5
269
100
AcDbEntity
  8
0
  6
BYBLOCK
 62
0
100
AcDbBlockEnd
  0
BLOCK
  5
26A
100
AcDbEntity
  8
A_BEMASSUNGEN
100
AcDbBlockBegin
 62
2
  6
CONTINUOUS
  2
*D6
 70
65
 10
0.0
 20
0.0
  3
*D6
  1

  0
MTEXT
  5
26B
100
AcDbEntity
  8
A_BEMASSUNGEN
100
AcDbMText
 62
5
  6
CONTINUOUS
  7
TEXTSTYLE_2
 71
1
 72
1
 10
86.0243886977
 20
167.9397754659
 30
0.0
 11
1.0
 21
0.0
 31
0.0
  1
5
 40
3.5
 41
3.75
  0
LINE
  5
26C
100
AcDbEntity
  8
A_BEMASSUNGEN
100
AcDbLine
 62
2
  6
CONTINUOUS
 10
79.888049684
 20
105.3516862355
 11
79.8880495685
 21
165.5647754541
  0
LINE
  5
26D
100
AcDbEntity
  8
A_BEMASSUNGEN
100
AcDbLine
 62
2
  6
CONTINUOUS
 10
74.8880497633
 20
114.7516862116
 11
74.8880496659
 21
165.5647754445
  0
LINE
  5
26E
100
AcDbEntity
  8
A_BEMASSUNGEN
100
AcDbLine
 62
2
  6
CONTINUOUS
 10
79.8880495724
 20
163.5647754541
 11
88.5243886977
 21
163.5647754659
  0
LINE
  5
26F
100
AcDbEntity
  8
A_BEMASSUNGEN
100
AcDbLine
 62
2
  6
CONTINUOUS
 10
88.5243886977
 20
163.5647754659
 11
77.3880496211
 21
163.5647754493
  0
LINE
  5
270
100
AcDbEntity
  8
A_BEMASSUNGEN
100
AcDbLine
 62
2
  6
CONTINUOUS
 10
74.8880496698
 20
163.5647754445
 11
67.3880496698
 21
163.5647754301
  0
LINE
  5
271
100
AcDbEntity
  8
A_BEMASSUNGEN
100
AcDbLine
 62
2
  6
CONTINUOUS
 10
67.3880496698
 20
163.5647754301
 11
77.3880496211
 21
163.5647754493
  0
INSERT
  5
272
100
AcDbEntity
  8
A_BEMASSUNGEN
100
AcDbBlockReference
 62
2
  6
CONTINUOUS
  2
_ARROW_FILLED
 10
79.8880495724
 20
163.5647754541
 41
3.5
 42
3.5
 43
3.5
 50
180.000000078
  0
INSERT
  5
273
100
AcDbEntity
  8
A_BEMASSUNGEN
100
AcDbBlockReference
 62
2
  6
CONTINUOUS
  2
_ARROW_FILLED
 10
74.8880496698
 20
163.5647754445
 41
3.5
 42
3.5
 43
3.5
 50
0.0000001098
  0
ENDBLK
  5
274
100
AcDbEntity
  8
0
  6
BYBLOCK
 62
0
100
AcDbBlockEnd
  0
BLOCK
  5
275
100
AcDbEntity
  8
A_BEMASSUNGEN
100
AcDbBlockBegin
 62
2
  6
CONTINUOUS
  2
*D7
 70
65
 10
0.0
 20
0.0
  3
*D7
  1

  0
MTEXT
  5
276
100
AcDbEntity
  8
A_BEMASSUNGEN
100
AcDbMText
 62
5
  6
CONTINUOUS
  7
TEXTSTYLE_2
 71
2
 72
1
 10
58.3880497633
 20
167.9408852714
 30
0.0
 11
1.0
 21
0.0
 31
0.0
  1
33
 40
3.5
 41
7.5
  0
LINE
  5
277
100
AcDbEntity
  8
A_BEMASSUNGEN
100
AcDbLine
 62
2
  6
CONTINUOUS
 10
74.8880497633
 20
114.7516862116
 11
74.8880497633
 21
165.5658852714
  0
LINE
  5
278
100
AcDbEntity
  8
A_BEMASSUNGEN
100
AcDbLine
 62
2
  6
CONTINUOUS
 10
41.8880497633
 20
115.3516862116
 11
41.8880497633
 21
165.5658852714
  0
LINE
  5
279
100
AcDbEntity
  8
A_BEMASSUNGEN
100
AcDbLine
 62
2
  6
CONTINUOUS
 10
74.8880497633
 20
163.5658852714
 11
58.3880497633
 21
163.5658852714
  0
LINE
  5
27A
100
AcDbEntity
  8
A_BEMASSUNGEN
100
AcDbLine
 62
2
  6
CONTINUOUS
 10
41.8880497633
 20
163.5658852714
 11
58.3880497633
 21
163.5658852714
  0
INSERT
  5
27B
100
AcDbEntity
  8
A_BEMASSUNGEN
100
AcDbBlockReference
 62
2
  6
CONTINUOUS
  2
_ARROW_FILLED
 10
74.8880497633
 20
163.5658852714
 41
3.5
 42
3.5
 43
3.5
  0
INSERT
  5
27C
100
AcDbEntity
  8
A_BEMASSUNGEN
100
AcDbBlockReference
 62
2
  6
CONTINUOUS
  2
_ARROW_FILLED
 10
41.8880497633
 20
163.5658852714
 41
3.5
 42
3.5
 43
3.5
 50
180.0
  0
ENDBLK
  5
27D
100
AcDbEntity
  8
0
  6
BYBLOCK
 62
0
100
AcDbBlockEnd
  0
BLOCK
  5
27E
100
AcDbEntity
  8
A_BEMASSUNGEN
100
AcDbBlockBegin
 62
2
  6
CONTINUOUS
  2
*D8
 70
65
 10
0.0
 20
0.0
  3
*D8
  1

  0
MTEXT
  5
27F
100
AcDbEntity
  8
A_BEMASSUNGEN
100
AcDbMText
 62
5
  6
CONTINUOUS
  7
TEXTSTYLE_2
 71
2
 72
1
 10
70.8880497974
 20
50.5371044852
 30
0.0
 11
1.0
 21
0.0
 31
0.0
  1
18
 40
3.5
 41
7.125
  0
LINE
  5
280
100
AcDbEntity
  8
A_BEMASSUNGEN
100
AcDbLine
 62
2
  6
CONTINUOUS
 10
61.8880497739
 20
58.451686201
 11
61.8880498013
 21
44.1621044679
  0
LINE
  5
281
100
AcDbEntity
  8
A_BEMASSUNGEN
100
AcDbLine
 62
2
  6
CONTINUOUS
 10
79.8880497317
 20
80.4518005157
 11
79.8880498013
 21
44.1621045024
  0
LINE
  5
282
100
AcDbEntity
  8
A_BEMASSUNGEN
100
AcDbLine
 62
2
  6
CONTINUOUS
 10
61.8880497974
 20
46.1621044679
 11
70.8880497974
 21
46.1621044852
  0
LINE
  5
283
100
AcDbEntity
  8
A_BEMASSUNGEN
100
AcDbLine
 62
2
  6
CONTINUOUS
 10
79.8880497974
 20
46.1621045024
 11
70.8880497974
 21
46.1621044852
  0
INSERT
  5
284
100
AcDbEntity
  8
A_BEMASSUNGEN
100
AcDbBlockReference
 62
2
  6
CONTINUOUS
  2
_ARROW_FILLED
 10
61.8880497974
 20
46.1621044679
 41
3.5
 42
3.5
 43
3.5
 50
180.0000001098
  0
INSERT
  5
285
100
AcDbEntity
  8
A_BEMASSUNGEN
100
AcDbBlockReference
 62
2
  6
CONTINUOUS
  2
_ARROW_FILLED
 10
79.8880497974
 20
46.1621045024
 41
3.5
 42
3.5
 43
3.5
 50
0.0000001098
  0
ENDBLK
  5
286
100
AcDbEntity
  8
0
  6
BYBLOCK
 62
0
100
AcDbBlockEnd
  0
BLOCK
  5
287
100
AcDbEntity
  8
A_BEMASSUNGEN
100
AcDbBlockBegin
 62
2
  6
CONTINUOUS
  2
*D9
 70
65
 10
0.0
 20
0.0
  3
*D9
  1

  0
MTEXT
  5
288
100
AcDbEntity
  8
A_BEMASSUNGEN
100
AcDbMText
 62
5
  6
CONTINUOUS
  7
TEXTSTYLE_2
 71
2
 72
1
 10
78.1386734814
 20
41.8309625228
 30
0.0
 11
1.0
 21
0.0
 31
0.0
  1
37.5
 40
3.5
 41
14.625
  0
LINE
  5
289
100
AcDbEntity
  8
A_BEMASSUNGEN
100
AcDbLine
 62
2
  6
CONTINUOUS
 10
61.8880497739
 20
58.451686201
 11
61.888049818
 21
35.4559624916
  0
LINE
  5
28A
100
AcDbEntity
  8
A_BEMASSUNGEN
100
AcDbLine
 62
2
  6
CONTINUOUS
 10
99.3880497741
 20
58.3516862729
 11
99.388049818
 21
35.4559625635
  0
LINE
  5
28B
100
AcDbEntity
  8
A_BEMASSUNGEN
100
AcDbLine
 62
2
  6
CONTINUOUS
 10
61.8880498141
 20
37.4559624916
 11
80.6380498141
 21
37.4559625276
  0
LINE
  5
28C
100
AcDbEntity
  8
A_BEMASSUNGEN
100
AcDbLine
 62
2
  6
CONTINUOUS
 10
99.3880498141
 20
37.4559625635
 11
80.6380498141
 21
37.4559625276
  0
INSERT
  5
28D
100
AcDbEntity
  8
A_BEMASSUNGEN
100
AcDbBlockReference
 62
2
  6
CONTINUOUS
  2
_ARROW_FILLED
 10
61.8880498141
 20
37.4559624916
 41
3.5
 42
3.5
 43
3.5
 50
180.0000001098
  0
INSERT
  5
28E
100
AcDbEntity
  8
A_BEMASSUNGEN
100
AcDbBlockReference
 62
2
  6
CONTINUOUS
  2
_ARROW_FILLED
 10
99.3880498141
 20
37.4559625635
 41
3.5
 42
3.5
 43
3.5
 50
0.0000001098
  0
ENDBLK
  5
28F
100
AcDbEntity
  8
0
  6
BYBLOCK
 62
0
100
AcDbBlockEnd
  0
ENDSEC
  0
SECTION
  2
ENTITIES
  0
DIMENSION
  5
290
100
AcDbEntity
  8
A_BEMASSUNGEN
100
AcDbDimension
 62
2
  6
CONTINUOUS
  2
*D0
 10
182.4740510573
 20
58.3516864322
 11
182.4740510716
 21
50.8857404982
 70
160
  3
DIMSTYLE_1
100
AcDbAlignedDimension
 13
164.3880497836
 23
53.3516863975
 14
99.3880497741
 24
58.3516862729
 50
90.0000001098
100
AcDbRotatedDimension
  0
DIMENSION
  5
291
100
AcDbEntity
  8
A_BEMASSUNGEN
100
AcDbDimension
 62
2
  6
CONTINUOUS
  2
*D1
 10
182.4777011678
 20
99.0516864322
 11
182.4777012078
 21
78.2016892268
 70
160
  3
DIMSTYLE_2
100
AcDbAlignedDimension
 13
99.3880497741
 23
58.3516862729
 14
99.388049696
 24
99.0516862729
 50
90.0000001098
100
AcDbRotatedDimension
  0
DIMENSION
  5
292
100
AcDbEntity
  8
A_BEMASSUNGEN
100
AcDbDimension
 62
2
  6
CONTINUOUS
  2
*D2
 10
54.5547251602
 20
72.3516862068
 11
54.5547251602
 21
65.9606119564
 70
160
  3
DIMSTYLE_3
100
AcDbAlignedDimension
 13
72.8880497633
 23
78.3516862116
 14
64.8880497472
 24
72.3516862068
 50
270.0
100
AcDbRotatedDimension
  0
DIMENSION
  5
293
100
AcDbEntity
  8
A_BEMASSUNGEN
100
AcDbDimension
 62
2
  6
CONTINUOUS
  2
*D3
 10
44.1206260415
 20
53.3516862068
 11
44.1206260415
 21
65.3516882756
 70
160
  3
DIMSTYLE_4
100
AcDbAlignedDimension
 13
72.8880497633
 23
78.3516862116
 14
64.8880497836
 24
53.3516862068
 50
270.0
100
AcDbRotatedDimension
  0
DIMENSION
  5
294
100
AcDbEntity
  8
A_BEMASSUNGEN
100
AcDbDimension
 62
2
  6
CONTINUOUS
  2
*D4
 10
8.1841998126
 20
85.3516862116
 11
8.1841998126
 21
70.351643617
 70
160
  3
DIMSTYLE_5
100
AcDbAlignedDimension
 13
16.8880497633
 23
78.3516862116
 14
41.8880497633
 24
85.3516862116
 50
90.0
100
AcDbRotatedDimension
  0
DIMENSION
  5
295
100
AcDbEntity
  8
A_BEMASSUNGEN
100
AcDbDimension
 62
2
  6
CONTINUOUS
  2
*D5
 10
8.1841998126
 20
115.3516862116
 11
8.1841998126
 21
99.8516861739
 70
160
  3
DIMSTYLE_5
100
AcDbAlignedDimension
 13
41.8880497633
 23
85.3516862116
 14
41.8880497633
 24
115.3516862116
 50
90.0
100
AcDbRotatedDimension
  0
DIMENSION
  5
296
100
AcDbEntity
  8
A_BEMASSUNGEN
100
AcDbDimension
 62
2
  6
CONTINUOUS
  2
*D6
 10
74.8880496698
 20
163.5647754445
 11
86.7743892948
 21
163.5647754635
 70
160
  3
DIMSTYLE_6
100
AcDbAlignedDimension
 13
79.888049684
 23
105.3516862355
 14
74.8880497633
 24
114.7516862116
 50
180.0000001098
100
AcDbRotatedDimension
  0
DIMENSION
  5
297
100
AcDbEntity
  8
A_BEMASSUNGEN
100
AcDbDimension
 62
2
  6
CONTINUOUS
  2
*D7
 10
41.8880497633
 20
163.5658852714
 11
57.8880473903
 21
163.5658852714
 70
160
  3
DIMSTYLE_2
100
AcDbAlignedDimension
 13
74.8880497633
 23
114.7516862116
 14
41.8880497633
 24
115.3516862116
 50
180.0
100
AcDbRotatedDimension
  0
DIMENSION
  5
298
100
AcDbEntity
  8
A_BEMASSUNGEN
100
AcDbDimension
 62
2
  6
CONTINUOUS
  2
*D8
 10
79.8880497974
 20
46.1621045024
 11
70.3880493497
 21
46.1621044842
 70
160
  3
DIMSTYLE_5
100
AcDbAlignedDimension
 13
61.8880497739
 23
58.451686201
 14
79.8880497317
 24
80.4518005157
 50
0.0000001098
100
AcDbRotatedDimension
  0
DIMENSION
  5
299
100
AcDbEntity
  8
A_BEMASSUNGEN
100
AcDbDimension
 62
2
  6
CONTINUOUS
  2
*D9
 10
99.3880498141
 20
37.4559625635
 11
77.6386718387
 21
37.4559625218
 70
160
  3
DIMSTYLE_2
100
AcDbAlignedDimension
 13
61.8880497739
 23
58.451686201
 14
99.3880497741
 24
58.3516862729
 50
0.0000001098
100
AcDbRotatedDimension
  0
LINE
  5
29A
100
AcDbEntity
  8
IMPORT_KE
100
AcDbLine
 62
2
  6
CONTINUOUS
 10
14.8880497633
 20
154.3516862116
 11
14.8880497633
 21
152.1907852116
  0
LINE
  5
29B
100
AcDbEntity
  8
IMPORT_KE
100
AcDbLine
 62
2
  6
CONTINUOUS
 10
14.8880497633
 20
98.6774502116
 11
14.8880497633
 21
80.3516862116
  0
LINE
  5
29C
100
AcDbEntity
  8
0
100
AcDbLine
 62
7
  6
CONTINUOUS
 10
14.8880497633
 20
80.3516862116
 11
14.8880497633
 21
98.6774502116
  0
LINE
  5
29D
100
AcDbEntity
  8
0
100
AcDbLine
 62
7
  6
CONTINUOUS
 10
14.8880497633
 20
152.1907852116
 11
14.8880497633
 21
154.3516862116
  0
LINE
  5
29E
100
AcDbEntity
  8
IMPORT_KE
100
AcDbLine
 62
2
  6
CONTINUOUS
 10
15.3880497633
 20
129.6818142116
 11
15.3880497633
 21
115.0215582116
  0
LINE
  5
29F
100
AcDbEntity
  8
0
100
AcDbLine
 62
7
  6
CONTINUOUS
 10
15.3880497633
 20
115.0215582116
 11
15.3880497633
 21
129.6818142116
  0
LINE
  5
2A0
100
AcDbEntity
  8
IMPORT_KE
100
AcDbLine
 62
2
  6
CONTINUOUS
 10
18.8880497633
 20
149.8072782116
 11
18.8880497633
 21
144.9997032116
  0
LINE
  5
2A1
100
AcDbEntity
  8
0
100
AcDbLine
 62
7
  6
CONTINUOUS
 10
18.8880497633
 20
144.9997032116
 11
18.8880497633
 21
149.8072782116
  0
LINE
  5
2A2
100
AcDbEntity
  8
IMPORT_KE
100
AcDbLine
 62
2
  6
CONTINUOUS
 10
24.8880497633
 20
144.1542922116
 11
24.8880497633
 21
131.5490792116
  0
LINE
  5
2A3
100
AcDbEntity
  8
IMPORT_KE
100
AcDbLine
 62
2
  6
CONTINUOUS
 10
24.8880497633
 20
113.1542922116
 11
24.8880497633
 21
100.5490792116
  0
LINE
  5
2A4
100
AcDbEntity
  8
0
100
AcDbLine
 62
7
  6
CONTINUOUS
 10
24.8880497633
 20
100.5490792116
 11
24.8880497633
 21
113.1542922116
  0
LINE
  5
2A5
100
AcDbEntity
  8
0
100
AcDbLine
 62
7
  6
CONTINUOUS
 10
24.8880497633
 20
131.5490792116
 11
24.8880497633
 21
144.1542922116
  0
LINE
  5
2A6
100
AcDbEntity
  8
0
100
AcDbLine
 62
7
  6
CONTINUOUS
 10
41.8880497633
 20
85.3516862116
 11
41.8880497633
 21
115.3516862116
  0
LINE
  5
2A7
100
AcDbEntity
  8
0
100
AcDbLine
 62
7
  6
CONTINUOUS
 10
42.3880497633
 20
112.8516862116
 11
42.3880497633
 21
106.8516862116
  0
LINE
  5
2A8
100
AcDbEntity
  8
0
100
AcDbLine
 62
7
  6
CONTINUOUS
 10
42.3880497633
 20
97.0016862116
 11
42.3880497633
 21
90.0016862116
  0
LINE
  5
2A9
100
AcDbEntity
  8
0
100
AcDbLine
 62
7
  6
CONTINUOUS
 10
44.6380497633
 20
100.3516862116
 11
44.6380497633
 21
106.3516862116
  0
LINE
  5
2AA
100
AcDbEntity
  8
0
100
AcDbLine
 62
7
  6
CONTINUOUS
 10
46.8880497633
 20
98.1016862116
 11
46.8880497633
 21
108.6016862116
  0
LINE
  5
2AB
100
AcDbEntity
  8
0
100
AcDbLine
 62
7
  6
CONTINUOUS
 10
47.8880497633
 20
85.5341579124
 11
47.8880497633
 21
115.1692145108
  0
LINE
  5
2AC
100
AcDbEntity
  8
A_FASEN
100
AcDbLine
 62
7
  6
CONTINUOUS
 10
48.3880497633
 20
90.0516862116
 11
48.3880497633
 21
97.0516862116
  0
LINE
  5
2AD
100
AcDbEntity
  8
0
100
AcDbLine
 62
7
  6
CONTINUOUS
 10
50.6880497633
 20
88.5367529263
 11
50.6880497633
 21
112.1666194968
  0
LINE
  5
2AE
100
AcDbEntity
  8
0
100
AcDbLine
 62
7
  6
CONTINUOUS
 10
52.3880497633
 20
107.4516862116
 11
52.3880497633
 21
103.4516862116
  0
LINE
  5
2AF
100
AcDbEntity
  8
0
100
AcDbLine
 62
7
  6
CONTINUOUS
 10
52.3880497633
 20
96.9516862116
 11
52.3880497633
 21
92.9516862116
  0
LINE
  5
2B0
100
AcDbEntity
  8
0
100
AcDbLine
 62
7
  6
CONTINUOUS
 10
52.8880497633
 20
92.4516862116
 11
52.8880497633
 21
97.4516862116
  0
LINE
  5
2B1
100
AcDbEntity
  8
0
100
AcDbLine
 62
7
  6
CONTINUOUS
 10
52.8880497633
 20
102.9516862116
 11
52.8880497633
 21
107.9516862116
  0
LINE
  5
2B2
100
AcDbEntity
  8
0
100
AcDbLine
 62
7
  6
CONTINUOUS
 10
53.8880497633
 20
88.682646346
 11
53.8880497633
 21
102.9516862116
  0
LINE
  5
2B3
100
AcDbEntity
  8
0
100
AcDbLine
 62
7
  6
CONTINUOUS
 10
53.8880497633
 20
107.9516862116
 11
53.8880497633
 21
112.0207260771
  0
LINE
  5
2B4
100
AcDbEntity
  8
0
100
AcDbLine
 62
7
  6
CONTINUOUS
 10
164.3880497836
 20
53.3516863975
 11
64.8880497836
 21
53.3516862068
  0
LINE
  5
2B5
100
AcDbEntity
  8
0
100
AcDbLine
 62
7
  6
CONTINUOUS
 10
171.8880497779
 20
56.3516864119
 11
167.3880497779
 21
56.3516864033
  0
LINE
  5
2B6
100
AcDbEntity
  8
0
100
AcDbLine
 62
7
  6
CONTINUOUS
 10
41.8880497633
 20
97.5016862116
 11
42.3880497633
 21
97.0016862116
  0
LINE
  5
2B7
100
AcDbEntity
  8
0
100
AcDbLine
 62
7
  6
CONTINUOUS
 10
58.8880497633
 20
89.4891295292
 11
58.8880497633
 21
101.014242894
  0
LINE
  5
2B8
100
AcDbEntity
  8
A_FASEN
100
AcDbLine
 62
7
  6
CONTINUOUS
 10
60.8880497633
 20
97.0516862116
 11
60.8880497633
 21
90.0516862116
  0
LINE
  5
2B9
100
AcDbEntity
  8
QUER2
100
AcDbLine
 62
7
  6
CONTINUOUS
 10
61.3880497633
 20
111.7516862116
 11
61.3880497633
 21
109.5516862116
  0
LINE
  5
2BA
100
AcDbEntity
  8
QUER2
100
AcDbLine
 62
7
  6
CONTINUOUS
 10
61.3880497633
 20
101.3516862116
 11
61.3880497633
 21
88.7516862116
  0
LINE
  5
2BB
100
AcDbEntity
  8
0
100
AcDbLine
 62
7
  6
CONTINUOUS
 10
61.3880497633
 20
87.1302280217
 11
61.3880497633
 21
89.5516862116
  0
LINE
  5
2BC
100
AcDbEntity
  8
0
100
AcDbLine
 62
7
  6
CONTINUOUS
 10
61.3880497633
 20
97.5516862116
 11
61.3880497633
 21
102.9516862116
  0
LINE
  5
2BD
100
AcDbEntity
  8
0
100
AcDbLine
 62
7
  6
CONTINUOUS
 10
61.3880497633
 20
107.9516862116
 11
61.3880497633
 21
113.5731444015
  0
LINE
  5
2BE
100
AcDbEntity
  8
0
100
AcDbLine
 62
7
  6
CONTINUOUS
 10
61.8880497739
 20
58.451686201
 11
61.8880497779
 21
56.351686201
  0
LINE
  5
2BF
100
AcDbEntity
  8
A_RUNDUNGEN
100
AcDbLine
 62
7
  6
CONTINUOUS
 10
61.8880497739
 20
58.451686201
 11
61.8880497509
 21
70.451686201
  0
LINE
  5
2C0
100
AcDbEntity
  8
0
100
AcDbLine
 62
7
  6
CONTINUOUS
 10
46.8880497633
 20
108.6016862116
 11
44.6380497633
 21
106.3516862116
  0
LINE
  5
2C1
100
AcDbEntity
  8
0
100
AcDbLine
 62
7
  6
CONTINUOUS
 10
97.3985217012
 20
58.6376203645
 11
78.8880497737
 21
58.5406988389
  0
LINE
  5
2C2
100
AcDbEntity
  8
A_RUNDUNGEN
100
AcDbLine
 62
7
  6
CONTINUOUS
 10
61.8880497739
 20
58.451686201
 11
67.0128653859
 21
58.4785199279
  0
LINE
  5
2C3
100
AcDbEntity
  8
A_RUNDUNGEN
100
AcDbLine
 62
7
  6
CONTINUOUS
 10
67.8225075319
 20
58.4827592445
 11
78.8880497737
 21
58.5406988389
  0
LINE
  5
2C4
100
AcDbEntity
  8
0
100
AcDbLine
 62
7
  6
CONTINUOUS
 10
99.3880497741
 20
58.3516862729
 11
61.8880497741
 21
58.351686201
  0
LINE
  5
2C5
100
AcDbEntity
  8
QUER2
100
AcDbLine
 62
7
  6
CONTINUOUS
 10
67.3880497633
 20
58.9516862116
 11
74.3880497633
 21
58.9516862116
  0
LINE
  5
2C6
100
AcDbEntity
  8
0
100
AcDbLine
 62
7
  6
CONTINUOUS
 10
90.88804977
 20
60.4516862566
 11
85.88804977
 21
60.4516862471
  0
LINE
  5
2C7
100
AcDbEntity
  8
A_ACHSEN
100
AcDbLine
 62
7
  6
CENTER
 10
59.6265655905
 20
63.9516862116
 11
75.1495339362
 21
63.9516862116
  0
LINE
  5
2C8
100
AcDbEntity
  8
0
100
AcDbLine
 62
7
  6
CONTINUOUS
 10
46.8880497633
 20
98.1016862116
 11
44.6380497633
 21
100.3516862116
  0
LINE
  5
2C9
100
AcDbEntity
  8
0
100
AcDbLine
 62
7
  6
CONTINUOUS
 10
52.8880497633
 20
92.4516862116
 11
52.3880497633
 21
92.9516862116
  0
LINE
  5
2CA
100
AcDbEntity
  8
0
100
AcDbLine
 62
7
  6
CONTINUOUS
 10
47.8880497633
 20
97.5516862116
 11
48.3880497633
 21
97.0516862116
  0
LINE
  5
2CB
100
AcDbEntity
  8
0
100
AcDbLine
 62
7
  6
CONTINUOUS
 10
61.3880497633
 20
89.5516862116
 11
60.8880497633
 21
90.0516862116
  0
LINE
  5
2CC
100
AcDbEntity
  8
QUER2
100
AcDbLine
 62
7
  6
CONTINUOUS
 10
65.5633912073
 20
75.3221943107
 11
65.4585973337
 21
76.6264410478
  0
LINE
  5
2CD
100
AcDbEntity
  8
DEFAULT_2
100
AcDbLine
 62
8
  6
HIDDEN
 10
64.3880497633
 20
107.9516862116
 11
64.3880497633
 21
102.9516862116
  0
LINE
  5
2CE
100
AcDbEntity
  8
A_RUNDUNGEN
100
AcDbLine
 62
7
  6
CONTINUOUS
 10
64.3880497633
 20
109.4016861706
 11
64.3880497633
 21
101.5016862526
  0
LINE
  5
2CF
100
AcDbEntity
  8
QUER2
100
AcDbLine
 62
7
  6
CONTINUOUS
 10
64.3880497633
 20
99.6516862116
 11
64.3880497633
 21
101.608992225
  0
LINE
  5
2D0
100
AcDbEntity
  8
QUER2
100
AcDbLine
 62
7
  6
CONTINUOUS
 10
64.3880497633
 20
109.4016861713
 11
64.3880497633
 21
111.2516862116
  0
LINE
  5
2D1
100
AcDbEntity
  8
0
100
AcDbLine
 62
7
  6
CONTINUOUS
 10
65.2880497633
 20
113.7809985825
 11
65.2880497633
 21
113.6516862116
  0
LINE
  5
2D2
100
AcDbEntity
  8
0
100
AcDbLine
 62
7
  6
CONTINUOUS
 10
65.2880497633
 20
87.0516862116
 11
65.2880497633
 21
86.9223738407
  0
LINE
  5
2D3
100
AcDbEntity
  8
0
100
AcDbLine
 62
7
  6
CONTINUOUS
 10
66.3066523436
 20
113.6160683959
 11
66.3066523436
 21
112.0516862116
  0
LINE
  5
2D4
100
AcDbEntity
  8
0
100
AcDbLine
 62
7
  6
CONTINUOUS
 10
66.3066523436
 20
88.4516862116
 11
66.3066523436
 21
87.0873040273
  0
LINE
  5
2D5
100
AcDbEntity
  8
0
100
AcDbLine
 62
7
  6
CONTINUOUS
 10
66.3880497633
 20
123.3516862116
 11
66.3880497633
 21
118.3516862116
  0
LINE
  5
2D6
100
AcDbEntity
  8
IMPORT_KE
100
AcDbLine
 62
2
  6
CONTINUOUS
 10
66.3880497633
 20
123.3516862116
 11
66.3880497633
 21
118.3516862116
  0
LINE
  5
2D7
100
AcDbEntity
  8
A_ACHSEN
100
AcDbLine
 62
7
  6
CENTER
 10
67.3880497633
 20
56.1902020388
 11
67.3880497633
 21
71.7131703844
  0
LINE
  5
2D8
100
AcDbEntity
  8
A_RUNDUNGEN
100
AcDbLine
 62
7
  6
CONTINUOUS
 10
69.3880497633
 20
109.4016852604
 11
69.3880497633
 21
101.5016871628
  0
LINE
  5
2D9
100
AcDbEntity
  8
0
100
AcDbLine
 62
7
  6
CONTINUOUS
 10
52.8880497633
 20
107.9516862116
 11
52.3880497633
 21
107.4516862116
  0
LINE
  5
2DA
100
AcDbEntity
  8
0
100
AcDbLine
 62
7
  6
CONTINUOUS
 10
85.88804977
 20
60.4516862471
 11
78.8880497729
 21
58.9516862336
  0
LINE
  5
2DB
100
AcDbEntity
  8
A_RUNDUNGEN
100
AcDbLine
 62
7
  6
CONTINUOUS
 10
78.6277202101
 20
58.8959013268
 11
78.8880497729
 21
58.9516862336
  0
LINE
  5
2DC
100
AcDbEntity
  8
A_RUNDUNGEN
100
AcDbLine
 62
7
  6
CONTINUOUS
 10
92.9142293568
 20
70.722447628
 11
92.4357223658
 21
70.7182717598
  0
LINE
  5
2DD
100
AcDbEntity
  8
A_RUNDUNGEN
100
AcDbLine
 62
7
  6
CONTINUOUS
 10
76.5983938606
 20
70.5800614574
 11
61.8880497509
 21
70.451686201
  0
LINE
  5
2DE
100
AcDbEntity
  8
QUER2
100
AcDbLine
 62
7
  6
CONTINUOUS
 10
74.3880497633
 20
68.9516862116
 11
67.3880497633
 21
68.9516862116
  0
LINE
  5
2DF
100
AcDbEntity
  8
0
100
AcDbLine
 62
7
  6
CONTINUOUS
 10
52.8880497633
 20
102.9516862116
 11
52.3880497633
 21
103.4516862116
  0
LINE
  5
2E0
100
AcDbEntity
  8
0
100
AcDbLine
 62
7
  6
CONTINUOUS
 10
70.3880497633
 20
113.6516862116
 11
70.3880497633
 21
111.7516862116
  0
LINE
  5
2E1
100
AcDbEntity
  8
0
100
AcDbLine
 62
7
  6
CONTINUOUS
 10
70.3880497633
 20
88.4516862116
 11
70.3880497633
 21
87.0516862116
  0
LINE
  5
2E2
100
AcDbEntity
  8
QUER2
100
AcDbLine
 62
7
  6
CONTINUOUS
 10
70.3880497633
 20
99.9516862116
 11
70.3880497633
 21
111.7516862116
  0
LINE
  5
2E3
100
AcDbEntity
  8
0
100
AcDbLine
 62
7
  6
CONTINUOUS
 10
73.1880497633
 20
115.3016862116
 11
73.1880497633
 21
115.2481951986
  0
LINE
  5
2E4
100
AcDbEntity
  8
0
100
AcDbLine
 62
7
  6
CONTINUOUS
 10
73.1880497633
 20
85.4016862116
 11
73.1880497633
 21
85.4551772246
  0
LINE
  5
2E5
100
AcDbEntity
  8
A_RUNDUNGEN
100
AcDbLine
 62
7
  6
CONTINUOUS
 10
73.1880497633
 20
99.8116684013
 11
73.1880497633
 21
100.8913165503
  0
LINE
  5
2E6
100
AcDbEntity
  8
A_RUNDUNGEN
100
AcDbLine
 62
7
  6
CONTINUOUS
 10
73.3880497633
 20
113.8516862116
 11
73.3880497633
 21
98.4516862116
  0
LINE
  5
2E7
100
AcDbEntity
  8
A_RUNDUNGEN
100
AcDbLine
 62
7
  6
CONTINUOUS
 10
73.3880497633
 20
88.4516862116
 11
73.3880497633
 21
86.8516862116
  0
LINE
  5
2E8
100
AcDbEntity
  8
0
100
AcDbLine
 62
7
  6
CONTINUOUS
 10
73.3880497633
 20
85.4516862116
 11
73.3880497633
 21
86.8516862116
  0
LINE
  5
2E9
100
AcDbEntity
  8
0
100
AcDbLine
 62
7
  6
CONTINUOUS
 10
73.3880497633
 20
113.8516862116
 11
73.3880497633
 21
115.2516862116
  0
LINE
  5
2EA
100
AcDbEntity
  8
A_RUNDUNGEN
100
AcDbLine
 62
7
  6
CONTINUOUS
 10
74.8880497633
 20
115.2516862116
 11
74.8880497633
 21
98.4159255058
  0
LINE
  5
2EB
100
AcDbEntity
  8
A_RUNDUNGEN
100
AcDbLine
 62
7
  6
CONTINUOUS
 10
74.8880497633
 20
88.4106725993
 11
74.8880497633
 21
85.4516862116
  0
LINE
  5
2EC
100
AcDbEntity
  8
IMPORT_KE
100
AcDbLine
 62
6
  6
CONTINUOUS
 10
74.8880497633
 20
120.2689832116
 11
74.8880497633
 21
80.3516862116
  0
LINE
  5
2ED
100
AcDbEntity
  8
0
100
AcDbLine
 62
7
  6
CONTINUOUS
 10
74.8880497633
 20
80.3516862116
 11
74.8880497633
 21
85.4699656919
  0
LINE
  5
2EE
100
AcDbEntity
  8
0
100
AcDbLine
 62
7
  6
CONTINUOUS
 10
74.8880497633
 20
115.2334067313
 11
74.8880497633
 21
118.3516862116
  0
LINE
  5
2EF
100
AcDbEntity
  8
IMPORT_KE
100
AcDbLine
 62
6
  6
CONTINUOUS
 10
75.8880497633
 20
118.3516862116
 11
75.8880497633
 21
120.3516862116
  0
LINE
  5
2F0
100
AcDbEntity
  8
QUER2
100
AcDbLine
 62
7
  6
CONTINUOUS
 10
71.9775875281
 20
77.6798038674
 11
71.8892656973
 21
76.1979504719
  0
LINE
  5
2F1
100
AcDbEntity
  8
A_FLAECHEN
100
AcDbLine
 62
8
  6
HIDDEN
 10
66.85705825
 20
107.0740327396
 11
65.9203960453
 21
105.4516862116
  0
LINE
  5
2F2
100
AcDbEntity
  8
0
100
AcDbLine
 62
7
  6
CONTINUOUS
 10
41.8880497633
 20
89.5016862116
 11
42.3880497633
 21
90.0016862116
  0
LINE
  5
2F3
100
AcDbEntity
  8
0
100
AcDbLine
 62
7
  6
CONTINUOUS
 10
52.8880497633
 20
97.4516862116
 11
52.3880497633
 21
96.9516862116
  0
LINE
  5
2F4
100
AcDbEntity
  8
0
100
AcDbLine
 62
7
  6
CONTINUOUS
 10
47.8880497633
 20
89.5516862116
 11
48.3880497633
 21
90.0516862116
  0
LINE
  5
2F5
100
AcDbEntity
  8
IMPORT_KE
100
AcDbLine
 62
6
  6
CONTINUOUS
 10
80.8880497633
 20
121.1516862116
 11
82.4880497633
 21
122.7516862116
  0
LINE
  5
2F6
100
AcDbEntity
  8
IMPORT_KE
100
AcDbLine
 62
6
  6
CONTINUOUS
 10
83.6194207633
 20
122.7516862116
 11
81.6880497633
 21
120.8203152116
  0
LINE
  5
2F7
100
AcDbEntity
  8
IMPORT_KE
100
AcDbLine
 62
6
  6
CONTINUOUS
 10
69.9681057633
 20
118.5516862116
 11
70.6234277633
 21
119.0105472116
  0
LINE
  5
2F8
100
AcDbEntity
  8
QUER2
100
AcDbLine
 62
7
  6
CONTINUOUS
 10
83.2813514782
 20
72.6450906231
 11
84.2202125137
 21
72.8106371548
  0
LINE
  5
2F9
100
AcDbEntity
  8
0
100
AcDbLine
 62
7
  6
CONTINUOUS
 10
64.8880497472
 20
72.3516862068
 11
74.9700424049
 21
72.3516862261
  0
LINE
  5
2FA
100
AcDbEntity
  8
0
100
AcDbLine
 62
7
  6
CONTINUOUS
 10
77.6752608198
 20
72.3516862313
 11
79.8229356986
 21
72.3516862354
  0
LINE
  5
2FB
100
AcDbEntity
  8
0
100
AcDbLine
 62
7
  6
CONTINUOUS
 10
84.650187969
 20
72.3516862447
 11
84.7983788858
 21
72.351686245
  0
LINE
  5
2FC
100
AcDbEntity
  8
0
100
AcDbLine
 62
7
  6
CONTINUOUS
 10
82.9856091538
 20
77.3516862415
 11
79.8880497376
 21
77.3516862355
  0
LINE
  5
2FD
100
AcDbEntity
  8
0
100
AcDbLine
 62
7
  6
CONTINUOUS
 10
99.3880497652
 20
62.9516862729
 11
98.8880497643
 21
63.451686272
  0
LINE
  5
2FE
100
AcDbEntity
  8
A_FLAECHEN
100
AcDbLine
 62
8
  6
HIDDEN
 10
66.85705825
 20
103.8293396836
 11
65.9203960453
 21
105.4516862116
  0
LINE
  5
2FF
100
AcDbEntity
  8
0
100
AcDbLine
 62
7
  6
CONTINUOUS
 10
78.8880497729
 20
58.9516862336
 11
78.8880497737
 21
58.5406988389
  0
LINE
  5
300
100
AcDbEntity
  8
0
100
AcDbLine
 62
7
  6
CONTINUOUS
 10
79.8880497336
 20
79.4516862355
 11
79.8880497376
 21
77.3516862355
  0
LINE
  5
301
100
AcDbEntity
  8
A_RUNDUNGEN
100
AcDbLine
 62
7
  6
CONTINUOUS
 10
79.8880497336
 20
79.4516862355
 11
79.8880497282
 21
82.3010571476
  0
LINE
  5
302
100
AcDbEntity
  8
A_RUNDUNGEN
100
AcDbLine
 62
7
  6
CONTINUOUS
 10
79.8880497259
 20
83.4516862355
 11
79.8880497197
 21
86.7175865764
  0
LINE
  5
303
100
AcDbEntity
  8
0
100
AcDbLine
 62
7
  6
CONTINUOUS
 10
79.8880496987
 20
97.6656422248
 11
79.888049684
 21
105.3516862355
  0
LINE
  5
304
100
AcDbEntity
  8
IMPORT_KE
100
AcDbLine
 62
6
  6
CONTINUOUS
 10
80.8880497633
 20
120.3516862116
 11
80.8880497633
 21
119.3516862116
  0
LINE
  5
305
100
AcDbEntity
  8
IMPORT_KE
100
AcDbLine
 62
6
  6
CONTINUOUS
 10
81.6880497633
 20
120.8203152116
 11
81.6880497633
 21
119.6516862116
  0
LINE
  5
306
100
AcDbEntity
  8
0
100
AcDbLine
 62
7
  6
CONTINUOUS
 10
79.888049684
 20
105.3516862355
 11
80.7781867058
 21
115.5259977096
  0
LINE
  5
307
100
AcDbEntity
  8
0
100
AcDbLine
 62
7
  6
CONTINUOUS
 10
61.3880497633
 20
97.5516862116
 11
60.8880497633
 21
97.0516862116
  0
LINE
  5
308
100
AcDbEntity
  8
IMPORT_KE
100
AcDbLine
 62
6
  6
CONTINUOUS
 10
89.8173397633
 20
121.7052392116
 11
90.8637857633
 21
122.7516862116
  0
LINE
  5
309
100
AcDbEntity
  8
IMPORT_KE
100
AcDbLine
 62
6
  6
CONTINUOUS
 10
90.5951567633
 20
121.3516862116
 11
92.2416037633
 21
122.9981322116
  0
LINE
  5
30A
100
AcDbEntity
  8
IMPORT_KE
100
AcDbLine
 62
6
  6
CONTINUOUS
 10
87.4080187633
 20
119.6516862116
 11
88.2901027633
 21
120.3918422116
  0
LINE
  5
30B
100
AcDbEntity
  8
IMPORT_KE
100
AcDbLine
 62
6
  6
CONTINUOUS
 10
87.5274587633
 20
118.9686642116
 11
88.7036567633
 21
119.9556112116
  0
LINE
  5
30C
100
AcDbEntity
  8
0
100
AcDbLine
 62
7
  6
CONTINUOUS
 10
79.8880497259
 20
83.4516862355
 11
82.8227619302
 21
83.5285343848
  0
LINE
  5
30D
100
AcDbEntity
  8
A_RUNDUNGEN
100
AcDbLine
 62
7
  6
CONTINUOUS
 10
79.8880497259
 20
83.4516862355
 11
82.8227619302
 21
83.5285343848
  0
LINE
  5
30E
100
AcDbEntity
  8
0
100
AcDbLine
 62
7
  6
CONTINUOUS
 10
93.4379725045
 20
83.8065034767
 11
94.9142266735
 21
83.8451605554
  0
LINE
  5
30F
100
AcDbEntity
  8
A_RUNDUNGEN
100
AcDbLine
 62
7
  6
CONTINUOUS
 10
93.4379725045
 20
83.8065034767
 11
94.9142266735
 21
83.8451605554
  0
LINE
  5
310
100
AcDbEntity
  8
0
100
AcDbLine
 62
7
  6
CONTINUOUS
 10
72.8880497633
 20
78.3516862116
 11
16.8880497633
 21
78.3516862116
  0
LINE
  5
311
100
AcDbEntity
  8
IMPORT_KE
100
AcDbLine
 62
2
  6
CONTINUOUS
 10
72.8880497633
 20
78.3516862116
 11
16.8880497633
 21
78.3516862116
  0
LINE
  5
312
100
AcDbEntity
  8
0
100
AcDbLine
 62
7
  6
CONTINUOUS
 10
98.8880497346
 20
78.951686272
 11
99.3880497346
 21
78.9516862729
  0
LINE
  5
313
100
AcDbEntity
  8
0
100
AcDbLine
 62
7
  6
CONTINUOUS
 10
98.8880497327
 20
79.951686272
 11
99.3880497327
 21
79.9516862729
  0
LINE
  5
314
100
AcDbEntity
  8
0
100
AcDbLine
 62
7
  6
CONTINUOUS
 10
98.8880497279
 20
82.448671865
 11
99.3880497279
 21
82.4486718659
  0
LINE
  5
315
100
AcDbEntity
  8
0
100
AcDbLine
 62
7
  6
CONTINUOUS
 10
98.8880497257
 20
83.6010926531
 11
99.3880497257
 21
83.6010926541
  0
LINE
  5
316
100
AcDbEntity
  8
0
100
AcDbLine
 62
7
  6
CONTINUOUS
 10
98.8880497242
 20
84.3693546435
 11
99.3880497242
 21
84.3693546445
  0
LINE
  5
317
100
AcDbEntity
  8
A_RUNDUNGEN
100
AcDbLine
 62
7
  6
CONTINUOUS
 10
79.8880497336
 20
79.4516862355
 11
82.6071068887
 21
79.3804852234
  0
LINE
  5
318
100
AcDbEntity
  8
A_RUNDUNGEN
100
AcDbLine
 62
7
  6
CONTINUOUS
 10
83.6908035888
 20
79.3521076286
 11
84.0962952053
 21
79.3414894578
  0
LINE
  5
319
100
AcDbEntity
  8
QUER2
100
AcDbLine
 62
7
  6
CONTINUOUS
 10
80.4036154739
 20
68.9873599096
 11
80.5290623229
 21
69.773440811
  0
LINE
  5
31A
100
AcDbEntity
  8
QUER2
100
AcDbLine
 62
7
  6
CONTINUOUS
 10
80.2790988201
 20
68.8695234612
 11
80.4446453518
 21
69.8083844967
  0
LINE
  5
31B
100
AcDbEntity
  8
0
100
AcDbLine
 62
7
  6
CONTINUOUS
 10
41.8880497633
 20
85.3516862116
 11
74.8880497633
 21
85.3516862116
  0
LINE
  5
31C
100
AcDbEntity
  8
A_RUNDUNGEN
100
AcDbLine
 62
7
  6
CONTINUOUS
 10
74.8880497633
 20
85.4516862116
 11
73.3880497633
 21
85.4516862116
  0
LINE
  5
31D
100
AcDbEntity
  8
0
100
AcDbLine
 62
7
  6
CONTINUOUS
 10
98.8880497194
 20
86.8663402365
 11
99.3880497194
 21
86.8663402375
  0
LINE
  5
31E
100
AcDbEntity
  8
A_RUNDUNGEN
100
AcDbLine
 62
7
  6
CONTINUOUS
 10
56.4607024362
 20
87.0516862116
 11
65.2880497633
 21
87.0516862116
  0
LINE
  5
31F
100
AcDbEntity
  8
0
100
AcDbLine
 62
7
  6
CONTINUOUS
 10
98.8880497173
 20
87.951686272
 11
99.3880497173
 21
87.9516862729
  0
LINE
  5
320
100
AcDbEntity
  8
QUER2
100
AcDbLine
 62
7
  6
CONTINUOUS
 10
61.6880497633
 20
88.4516862116
 11
74.3880497633
 21
88.4516862116
  0
LINE
  5
321
100
AcDbEntity
  8
0
100
AcDbLine
 62
7
  6
CONTINUOUS
 10
96.3880497144
 20
89.4516862672
 11
95.8880497144
 21
89.4516862662
  0
LINE
  5
322
100
AcDbEntity
  8
0
100
AcDbLine
 62
7
  6
CONTINUOUS
 10
96.3880497135
 20
89.9516862672
 11
95.8880497135
 21
89.9516862662
  0
LINE
  5
323
100
AcDbEntity
  8
0
100
AcDbLine
 62
7
  6
CONTINUOUS
 10
96.3880497133
 20
90.0367926475
 11
95.8880497133
 21
90.0367926465
  0
LINE
  5
324
100
AcDbEntity
  8
0
100
AcDbLine
 62
7
  6
CONTINUOUS
 10
50.6880497633
 20
90.0516862116
 11
48.3880497633
 21
90.0516862116
  0
LINE
  5
325
100
AcDbEntity
  8
0
100
AcDbLine
 62
7
  6
CONTINUOUS
 10
58.8880497633
 20
90.0516862116
 11
60.8880497633
 21
90.0516862116
  0
LINE
  5
326
100
AcDbEntity
  8
0
100
AcDbLine
 62
7
  6
CONTINUOUS
 10
96.388049713
 20
90.2070054155
 11
95.888049713
 21
90.2070054145
  0
LINE
  5
327
100
AcDbEntity
  8
0
100
AcDbLine
 62
7
  6
CONTINUOUS
 10
96.3880497123
 20
90.5474309366
 11
95.8880497123
 21
90.5474309357
  0
LINE
  5
328
100
AcDbEntity
  8
0
100
AcDbLine
 62
7
  6
CONTINUOUS
 10
96.3880497117
 20
90.8878564876
 11
95.8880497117
 21
90.8878564866
  0
LINE
  5
329
100
AcDbEntity
  8
0
100
AcDbLine
 62
7
  6
CONTINUOUS
 10
96.3880497109
 20
91.3133883517
 11
95.8880497109
 21
91.3133883508
  0
LINE
  5
32A
100
AcDbEntity
  8
A_RUNDUNGEN
100
AcDbLine
 62
7
  6
CONTINUOUS
 10
73.1880497633
 20
85.4016862116
 11
47.8880497633
 21
85.5341579124
  0
LINE
  5
32B
100
AcDbEntity
  8
0
100
AcDbLine
 62
7
  6
CONTINUOUS
 10
43.8775778357
 20
85.5551568862
 11
47.8880497633
 21
85.5341579124
  0
LINE
  5
32C
100
AcDbEntity
  8
0
100
AcDbLine
 62
7
  6
CONTINUOUS
 10
73.3880497633
 20
86.8516862116
 11
52.1749599601
 21
87.0368100417
  0
LINE
  5
32D
100
AcDbEntity
  8
0
100
AcDbLine
 62
7
  6
CONTINUOUS
 10
70.3880497633
 20
87.0516862116
 11
66.3066523436
 21
87.0873040273
  0
LINE
  5
32E
100
AcDbEntity
  8
A_RUNDUNGEN
100
AcDbLine
 62
7
  6
CONTINUOUS
 10
66.3066523436
 20
87.0873040273
 11
61.3880497633
 21
87.1302280217
  0
LINE
  5
32F
100
AcDbEntity
  8
0
100
AcDbLine
 62
7
  6
CONTINUOUS
 10
55.3749599601
 20
87.1827034614
 11
61.3880497633
 21
87.1302280217
  0
LINE
  5
330
100
AcDbEntity
  8
0
100
AcDbLine
 62
7
  6
CONTINUOUS
 10
49.3618711537
 20
85.8710647192
 11
73.3880497633
 21
85.4516862116
  0
LINE
  5
331
100
AcDbEntity
  8
0
100
AcDbLine
 62
7
  6
CONTINUOUS
 10
58.8880497633
 20
90.514242894
 11
53.8880497633
 21
90.9516862116
  0
LINE
  5
332
100
AcDbEntity
  8
IMPORT_KE
100
AcDbLine
 62
6
  6
CONTINUOUS
 10
67.5688977633
 20
121.9781092116
 11
69.9681057633
 21
118.5516862116
  0
LINE
  5
333
100
AcDbEntity
  8
IMPORT_KE
100
AcDbLine
 62
6
  6
CONTINUOUS
 10
70.6234277633
 20
119.0105472116
 11
68.4744437633
 21
122.0796132116
  0
LINE
  5
334
100
AcDbEntity
  8
0
100
AcDbLine
 62
7
  6
CONTINUOUS
 10
92.8880497633
 20
141.9398492116
 11
92.8880497633
 21
125.3516862116
  0
LINE
  5
335
100
AcDbEntity
  8
IMPORT_KE
100
AcDbLine
 62
2
  6
CONTINUOUS
 10
92.8880497633
 20
141.9398492116
 11
92.8880497633
 21
125.3516862116
  0
LINE
  5
336
100
AcDbEntity
  8
0
100
AcDbLine
 62
7
  6
CONTINUOUS
 10
95.8880497605
 20
65.4516862662
 11
95.8880497037
 21
95.0714762147
  0
LINE
  5
337
100
AcDbEntity
  8
0
100
AcDbLine
 62
7
  6
CONTINUOUS
 10
96.3880497144
 20
89.4516862672
 11
96.3880497039
 21
94.9516862672
  0
LINE
  5
338
100
AcDbEntity
  8
0
100
AcDbLine
 62
7
  6
CONTINUOUS
 10
98.033757798
 20
118.1780380565
 11
99.7431757078
 21
127.8726306538
  0
LINE
  5
339
100
AcDbEntity
  8
QUER2
100
AcDbLine
 62
7
  6
CONTINUOUS
 10
83.9687721274
 20
76.5084703234
 11
83.6608056889
 21
75.2053082004
  0
LINE
  5
33A
100
AcDbEntity
  8
0
100
AcDbLine
 62
7
  6
CONTINUOUS
 10
53.8880497633
 20
89.0516862116
 11
58.8880497633
 21
89.4891295292
  0
LINE
  5
33B
100
AcDbEntity
  8
0
100
AcDbLine
 62
7
  6
CONTINUOUS
 10
53.8880497633
 20
92.4516862116
 11
52.8880497633
 21
92.4516862116
  0
LINE
  5
33C
100
AcDbEntity
  8
0
100
AcDbLine
 62
7
  6
CONTINUOUS
 10
96.3880497084
 20
92.5899840634
 11
95.8880497084
 21
92.5899840625
  0
LINE
  5
33D
100
AcDbEntity
  8
0
100
AcDbLine
 62
2
  6
CONTINUOUS
 10
52.3880497633
 20
92.9516862116
 11
53.8880497633
 21
92.9516862116
  0
LINE
  5
33E
100
AcDbEntity
  8
0
100
AcDbLine
 62
7
  6
CONTINUOUS
 10
96.3880497076
 20
93.015516166
 11
95.8880497076
 21
93.0155161651
  0
LINE
  5
33F
100
AcDbEntity
  8
0
100
AcDbLine
 62
7
  6
CONTINUOUS
 10
96.388049707
 20
93.3559416573
 11
95.888049707
 21
93.3559416564
  0
LINE
  5
340
100
AcDbEntity
  8
0
100
AcDbLine
 62
7
  6
CONTINUOUS
 10
96.3880497063
 20
93.6963671487
 11
95.8880497063
 21
93.6963671477
  0
LINE
  5
341
100
AcDbEntity
  8
0
100
AcDbLine
 62
7
  6
CONTINUOUS
 10
96.388049706
 20
93.8665798943
 11
95.888049706
 21
93.8665798934
  0
LINE
  5
342
100
AcDbEntity
  8
0
100
AcDbLine
 62
7
  6
CONTINUOUS
 10
96.3880497058
 20
93.9516862672
 11
95.8880497058
 21
93.9516862662
  0
LINE
  5
343
100
AcDbEntity
  8
0
100
AcDbLine
 62
7
  6
CONTINUOUS
 10
96.3880497039
 20
94.9516862672
 11
95.8880497039
 21
94.9516862662
  0
LINE
  5
344
100
AcDbEntity
  8
0
100
AcDbLine
 62
2
  6
CONTINUOUS
 10
52.3880497633
 20
96.9516862116
 11
53.8880497633
 21
96.9516862116
  0
LINE
  5
345
100
AcDbEntity
  8
0
100
AcDbLine
 62
7
  6
CONTINUOUS
 10
50.6880497633
 20
97.0516862116
 11
48.3880497633
 21
97.0516862116
  0
LINE
  5
346
100
AcDbEntity
  8
0
100
AcDbLine
 62
7
  6
CONTINUOUS
 10
58.8880497633
 20
97.0516862116
 11
60.8880497633
 21
97.0516862116
  0
LINE
  5
347
100
AcDbEntity
  8
0
100
AcDbLine
 62
7
  6
CONTINUOUS
 10
169.3880496993
 20
97.3516864071
 11
171.8880496993
 21
97.3516864119
  0
LINE
  5
348
100
AcDbEntity
  8
0
100
AcDbLine
 62
7
  6
CONTINUOUS
 10
53.8880497633
 20
97.4516862116
 11
52.8880497633
 21
97.4516862116
  0
LINE
  5
349
100
AcDbEntity
  8
0
100
AcDbLine
 62
7
  6
CONTINUOUS
 10
47.8880497633
 20
98.1016862116
 11
46.8880497633
 21
98.1016862116
  0
LINE
  5
34A
100
AcDbEntity
  8
0
100
AcDbLine
 62
7
  6
CONTINUOUS
 10
94.4273151233
 20
96.5709621994
 11
85.5625753132
 21
96.8030935638
  0
LINE
  5
34B
100
AcDbEntity
  8
A_RUNDUNGEN
100
AcDbLine
 62
7
  6
CONTINUOUS
 10
85.3364398474
 20
96.8090151289
 11
81.9755617106
 21
96.8970228138
  0
LINE
  5
34C
100
AcDbEntity
  8
0
100
AcDbLine
 62
7
  6
CONTINUOUS
 10
53.8880497633
 20
96.8516862116
 11
58.8880497633
 21
96.414242894
  0
LINE
  5
34D
100
AcDbEntity
  8
0
100
AcDbLine
 62
7
  6
CONTINUOUS
 10
58.8880497633
 20
101.014242894
 11
53.8880497633
 21
101.4516862116
  0
LINE
  5
34E
100
AcDbEntity
  8
0
100
AcDbLine
 62
7
  6
CONTINUOUS
 10
79.8880496976
 20
98.2516862355
 11
85.3371184097
 21
96.8349283815
  0
LINE
  5
34F
100
AcDbEntity
  8
0
100
AcDbLine
 62
7
  6
CONTINUOUS
 10
98.8880497509
 20
70.451686272
 11
98.8880497643
 21
63.451686272
  0
LINE
  5
350
100
AcDbEntity
  8
0
100
AcDbLine
 62
7
  6
CONTINUOUS
 10
98.8880497346
 20
78.951686272
 11
98.8880497327
 21
79.951686272
  0
LINE
  5
351
100
AcDbEntity
  8
0
100
AcDbLine
 62
7
  6
CONTINUOUS
 10
98.8880497279
 20
82.448671865
 11
98.8880497242
 21
84.3693546435
  0
LINE
  5
352
100
AcDbEntity
  8
0
100
AcDbLine
 62
7
  6
CONTINUOUS
 10
98.8880497194
 20
86.8663402365
 11
98.8880497173
 21
87.951686272
  0
LINE
  5
353
100
AcDbEntity
  8
0
100
AcDbLine
 62
7
  6
CONTINUOUS
 10
99.3880497741
 20
58.3516862729
 11
99.388049696
 21
99.0516862729
  0
LINE
  5
354
100
AcDbEntity
  8
IMPORT_KE
100
AcDbLine
 62
2
  6
CONTINUOUS
 10
24.5906677633
 20
100.2490912116
 11
16.3749607633
 21
100.1773932116
  0
LINE
  5
355
100
AcDbEntity
  8
0
100
AcDbLine
 62
7
  6
CONTINUOUS
 10
16.3749598476
 20
100.1773932036
 11
24.5906677413
 21
100.2490912114
  0
LINE
  5
356
100
AcDbEntity
  8
QUER2
100
AcDbLine
 62
7
  6
CONTINUOUS
 10
74.3880497633
 20
98.4516862116
 11
71.8880497633
 21
98.4516862116
  0
LINE
  5
357
100
AcDbEntity
  8
0
100
AcDbLine
 62
7
  6
CONTINUOUS
 10
99.388049696
 20
99.0516862729
 11
79.888049696
 21
99.0516862355
  0
LINE
  5
358
100
AcDbEntity
  8
QUER2
100
AcDbLine
 62
7
  6
CONTINUOUS
 10
64.3880497633
 20
99.6516862116
 11
70.4183559177
 21
99.6516862116
  0
LINE
  5
359
100
AcDbEntity
  8
0
100
AcDbLine
 62
7
  6
CONTINUOUS
 10
44.6380497633
 20
100.3516862116
 11
41.8880497633
 21
100.3516862116
  0
LINE
  5
35A
100
AcDbEntity
  8
0
100
AcDbLine
 62
7
  6
CONTINUOUS
 10
69.0880497633
 20
101.2016862116
 11
64.6880497633
 21
101.2016862116
  0
LINE
  5
35B
100
AcDbEntity
  8
QUER2
100
AcDbLine
 62
7
  6
CONTINUOUS
 10
61.3880497633
 20
101.3516862116
 11
64.3880497633
 21
101.3516862116
  0
LINE
  5
35C
100
AcDbEntity
  8
0
100
AcDbLine
 62
7
  6
CONTINUOUS
 10
47.8880497633
 20
102.4516862116
 11
50.6880497633
 21
102.4516862116
  0
LINE
  5
35D
100
AcDbEntity
  8
0
100
AcDbLine
 62
7
  6
CONTINUOUS
 10
64.0880497633
 20
102.9516862116
 11
52.8880497633
 21
102.9516862116
  0
LINE
  5
35E
100
AcDbEntity
  8
A_ACHSEN
100
AcDbLine
 62
7
  6
CENTER
 10
40.8880497633
 20
103.3516862116
 11
50.8880497633
 21
103.3516862116
  0
LINE
  5
35F
100
AcDbEntity
  8
A_FLAECHEN
100
AcDbLine
 62
8
  6
HIDDEN
 10
67.1834342091
 20
103.4446454843
 11
69.1880497633
 21
103.4446454843
  0
LINE
  5
360
100
AcDbEntity
  8
0
100
AcDbLine
 62
2
  6
CONTINUOUS
 10
52.3880497633
 20
103.4516862116
 11
64.3880497633
 21
103.4516862116
  0
LINE
  5
361
100
AcDbEntity
  8
A_FLAECHEN
100
AcDbLine
 62
8
  6
HIDDEN
 10
66.8569694979
 20
103.8316862116
 11
69.1880497633
 21
103.8316862116
  0
LINE
  5
362
100
AcDbEntity
  8
0
100
AcDbLine
 62
7
  6
CONTINUOUS
 10
97.3985216243
 20
98.7657521737
 11
79.8880496964
 21
98.8574375946
  0
LINE
  5
363
100
AcDbEntity
  8
0
100
AcDbLine
 62
7
  6
CONTINUOUS
 10
171.888049684
 20
105.3516864119
 11
169.388049684
 21
105.3516864071
  0
LINE
  5
364
100
AcDbEntity
  8
A_ACHSEN
100
AcDbLine
 62
7
  6
CENTER
 10
49.3880497633
 20
105.4516862116
 11
72.3880497633
 21
105.4516862116
  0
LINE
  5
365
100
AcDbEntity
  8
0
100
AcDbLine
 62
7
  6
CONTINUOUS
 10
44.6380497633
 20
106.3516862116
 11
41.8880497633
 21
106.3516862116
  0
LINE
  5
366
100
AcDbEntity
  8
0
100
AcDbLine
 62
7
  6
CONTINUOUS
 10
42.3880497633
 20
106.8516862116
 11
41.8880497633
 21
106.8516862116
  0
LINE
  5
367
100
AcDbEntity
  8
A_FLAECHEN
100
AcDbLine
 62
8
  6
HIDDEN
 10
66.8569694979
 20
107.0716862116
 11
69.1880497633
 21
107.0716862116
  0
LINE
  5
368
100
AcDbEntity
  8
0
100
AcDbLine
 62
2
  6
CONTINUOUS
 10
52.3880497633
 20
107.4516862116
 11
64.3880497633
 21
107.4516862116
  0
LINE
  5
369
100
AcDbEntity
  8
A_FLAECHEN
100
AcDbLine
 62
8
  6
HIDDEN
 10
67.1834342091
 20
107.4587269389
 11
69.1880497633
 21
107.4587269389
  0
LINE
  5
36A
100
AcDbEntity
  8
0
100
AcDbLine
 62
7
  6
CONTINUOUS
 10
42.3880497633
 20
107.9083862116
 11
41.8880497633
 21
107.9083862116
  0
LINE
  5
36B
100
AcDbEntity
  8
0
100
AcDbLine
 62
7
  6
CONTINUOUS
 10
64.0880497633
 20
107.9516862116
 11
52.8880497633
 21
107.9516862116
  0
LINE
  5
36C
100
AcDbEntity
  8
0
100
AcDbLine
 62
7
  6
CONTINUOUS
 10
42.3880497633
 20
107.981647905
 11
41.8880497633
 21
107.981647905
  0
LINE
  5
36D
100
AcDbEntity
  8
0
100
AcDbLine
 62
7
  6
CONTINUOUS
 10
42.3880497633
 20
108.1281712918
 11
41.8880497633
 21
108.1281712918
  0
LINE
  5
36E
100
AcDbEntity
  8
0
100
AcDbLine
 62
7
  6
CONTINUOUS
 10
42.3880497633
 20
108.4212180653
 11
41.8880497633
 21
108.4212180653
  0
LINE
  5
36F
100
AcDbEntity
  8
0
100
AcDbLine
 62
7
  6
CONTINUOUS
 10
47.8880497633
 20
108.4516862116
 11
50.6880497633
 21
108.4516862116
  0
LINE
  5
370
100
AcDbEntity
  8
0
100
AcDbLine
 62
7
  6
CONTINUOUS
 10
47.8880497633
 20
108.6016862116
 11
46.8880497633
 21
108.6016862116
  0
LINE
  5
371
100
AcDbEntity
  8
0
100
AcDbLine
 62
7
  6
CONTINUOUS
 10
42.3880497633
 20
108.7142648389
 11
41.8880497633
 21
108.7142648389
  0
LINE
  5
372
100
AcDbEntity
  8
0
100
AcDbLine
 62
7
  6
CONTINUOUS
 10
42.3880497633
 20
109.0805735111
 11
41.8880497633
 21
109.0805735111
  0
LINE
  5
373
100
AcDbEntity
  8
QUER2
100
AcDbLine
 62
7
  6
CONTINUOUS
 10
61.3880497633
 20
109.5516862116
 11
64.3880497633
 21
109.5516862116
  0
LINE
  5
374
100
AcDbEntity
  8
0
100
AcDbLine
 62
7
  6
CONTINUOUS
 10
69.0880497633
 20
109.7016862116
 11
64.6880497633
 21
109.7016862116
  0
LINE
  5
375
100
AcDbEntity
  8
0
100
AcDbLine
 62
7
  6
CONTINUOUS
 10
42.3880497633
 20
110.1794990147
 11
41.8880497633
 21
110.1794990147
  0
LINE
  5
376
100
AcDbEntity
  8
0
100
AcDbLine
 62
7
  6
CONTINUOUS
 10
186.8880496744
 20
110.3516864407
 11
171.8880496744
 21
110.3516864119
  0
LINE
  5
377
100
AcDbEntity
  8
0
100
AcDbLine
 62
7
  6
CONTINUOUS
 10
42.3880497633
 20
110.5458074816
 11
41.8880497633
 21
110.5458074816
  0
LINE
  5
378
100
AcDbEntity
  8
0
100
AcDbLine
 62
7
  6
CONTINUOUS
 10
42.3880497633
 20
110.8388543065
 11
41.8880497633
 21
110.8388543065
  0
LINE
  5
379
100
AcDbEntity
  8
0
100
AcDbLine
 62
7
  6
CONTINUOUS
 10
42.3880497633
 20
111.1319011057
 11
41.8880497633
 21
111.1319011057
  0
LINE
  5
37A
100
AcDbEntity
  8
QUER2
100
AcDbLine
 62
7
  6
CONTINUOUS
 10
64.3880497633
 20
111.2516862116
 11
70.3880497633
 21
111.2516862116
  0
LINE
  5
37B
100
AcDbEntity
  8
0
100
AcDbLine
 62
7
  6
CONTINUOUS
 10
42.3880497633
 20
111.2784245118
 11
41.8880497633
 21
111.2784245118
  0
LINE
  5
37C
100
AcDbEntity
  8
0
100
AcDbLine
 62
7
  6
CONTINUOUS
 10
42.3880497633
 20
111.3516862116
 11
41.8880497633
 21
111.3516862116
  0
LINE
  5
37D
100
AcDbEntity
  8
QUER2
100
AcDbLine
 62
7
  6
CONTINUOUS
 10
70.0880497633
 20
112.0516862116
 11
61.6880497633
 21
112.0516862116
  0
LINE
  5
37E
100
AcDbEntity
  8
IMPORT_KE
100
AcDbLine
 62
6
  6
CONTINUOUS
 10
69.9927787633
 20
122.5516862116
 11
74.8880497633
 21
120.2689832116
  0
LINE
  5
37F
100
AcDbEntity
  8
IMPORT_KE
100
AcDbLine
 62
6
  6
CONTINUOUS
 10
71.8857407633
 20
122.5516862116
 11
74.8880497633
 21
121.1516862116
  0
LINE
  5
380
100
AcDbEntity
  8
IMPORT_KE
100
AcDbLine
 62
6
  6
CONTINUOUS
 10
89.2750507633
 20
120.0056012116
 11
89.8880497633
 21
119.6516862116
  0
LINE
  5
381
100
AcDbEntity
  8
IMPORT_KE
100
AcDbLine
 62
6
  6
CONTINUOUS
 10
89.4328897633
 20
120.4918232116
 11
90.8880497633
 21
119.6516862116
  0
LINE
  5
382
100
AcDbEntity
  8
IMPORT_KE
100
AcDbLine
 62
6
  6
CONTINUOUS
 10
91.1637857633
 20
119.6516862116
 11
89.8173397633
 21
120.9981322116
  0
LINE
  5
383
100
AcDbEntity
  8
IMPORT_KE
100
AcDbLine
 62
6
  6
CONTINUOUS
 10
90.5951567633
 20
121.3516862116
 11
92.2416037633
 21
119.7052392116
  0
LINE
  5
384
100
AcDbEntity
  8
0
100
AcDbLine
 62
7
  6
CONTINUOUS
 10
88.664688524
 20
153.7197668693
 11
92.8277426742
 21
142.2818694564
  0
LINE
  5
385
100
AcDbEntity
  8
IMPORT_KE
100
AcDbLine
 62
2
  6
CONTINUOUS
 10
92.8277427633
 20
142.2818692116
 11
88.6646887633
 21
153.7197662116
  0
LINE
  5
386
100
AcDbEntity
  8
QUER2
100
AcDbLine
 62
7
  6
CONTINUOUS
 10
84.6605899932
 20
71.9646798877
 11
81.1250560872
 21
68.4291459818
  0
LINE
  5
387
100
AcDbEntity
  8
0
100
AcDbLine
 62
7
  6
CONTINUOUS
 10
49.3618711537
 20
114.832307704
 11
73.3880497633
 21
115.2516862116
  0
LINE
  5
388
100
AcDbEntity
  8
0
100
AcDbLine
 62
7
  6
CONTINUOUS
 10
55.3749599601
 20
113.5206689617
 11
61.3880497633
 21
113.5731444015
  0
LINE
  5
389
100
AcDbEntity
  8
A_RUNDUNGEN
100
AcDbLine
 62
7
  6
CONTINUOUS
 10
61.3880497633
 20
113.5731444015
 11
66.3066523436
 21
113.6160683959
  0
LINE
  5
38A
100
AcDbEntity
  8
0
100
AcDbLine
 62
7
  6
CONTINUOUS
 10
66.3066523436
 20
113.6160683959
 11
70.3880497633
 21
113.6516862116
  0
LINE
  5
38B
100
AcDbEntity
  8
0
100
AcDbLine
 62
7
  6
CONTINUOUS
 10
73.3880497633
 20
113.8516862116
 11
52.1749599601
 21
113.6665623814
  0
LINE
  5
38C
100
AcDbEntity
  8
0
100
AcDbLine
 62
7
  6
CONTINUOUS
 10
43.8775778357
 20
115.148215537
 11
47.8880497633
 21
115.1692145108
  0
LINE
  5
38D
100
AcDbEntity
  8
A_RUNDUNGEN
100
AcDbLine
 62
7
  6
CONTINUOUS
 10
47.8880497633
 20
115.1692145108
 11
73.1880497633
 21
115.3016862116
  0
LINE
  5
38E
100
AcDbEntity
  8
0
100
AcDbLine
 62
7
  6
CONTINUOUS
 10
42.3880497633
 20
112.5238734085
 11
41.8880497633
 21
112.5238734085
  0
LINE
  5
38F
100
AcDbEntity
  8
0
100
AcDbLine
 62
7
  6
CONTINUOUS
 10
42.3880497633
 20
112.8516862116
 11
41.8880497633
 21
112.8516862116
  0
LINE
  5
390
100
AcDbEntity
  8
A_RUNDUNGEN
100
AcDbLine
 62
7
  6
CONTINUOUS
 10
56.4607024362
 20
113.6516862116
 11
65.2880497633
 21
113.6516862116
  0
LINE
  5
391
100
AcDbEntity
  8
A_RUNDUNGEN
100
AcDbLine
 62
7
  6
CONTINUOUS
 10
74.8880497633
 20
115.2516862116
 11
73.3880497633
 21
115.2516862116
  0
LINE
  5
392
100
AcDbEntity
  8
0
100
AcDbLine
 62
7
  6
CONTINUOUS
 10
41.8880497633
 20
115.3516862116
 11
74.8880497633
 21
115.3516862116
  0
LINE
  5
393
100
AcDbEntity
  8
0
100
AcDbLine
 62
7
  6
CONTINUOUS
 10
82.770575661
 20
117.3516862411
 11
97.048949661
 21
117.3516862684
  0
LINE
  5
394
100
AcDbEntity
  8
IMPORT_KE
100
AcDbLine
 62
2
  6
CONTINUOUS
 10
74.8880497633
 20
118.3516862116
 11
66.3880497633
 21
118.3516862116
  0
LINE
  5
395
100
AcDbEntity
  8
0
100
AcDbLine
 62
7
  6
CONTINUOUS
 10
66.3880497633
 20
118.3516862116
 11
74.8880497633
 21
118.3516862116
  0
LINE
  5
396
100
AcDbEntity
  8
IMPORT_KE
100
AcDbLine
 62
6
  6
CONTINUOUS
 10
81.3880497633
 20
118.8516862116
 11
87.2060647633
 21
118.8516862116
  0
LINE
  5
397
100
AcDbEntity
  8
IMPORT_KE
100
AcDbLine
 62
6
  6
CONTINUOUS
 10
89.7880497633
 20
118.8516862116
 11
91.8880497633
 21
118.8516862116
  0
LINE
  5
398
100
AcDbEntity
  8
0
100
AcDbLine
 62
7
  6
CONTINUOUS
 10
24.5906677294
 20
113.4542812119
 11
16.8749599504
 21
113.5216152187
  0
LINE
  5
399
100
AcDbEntity
  8
IMPORT_KE
100
AcDbLine
 62
2
  6
CONTINUOUS
 10
24.5906677633
 20
113.4542812116
 11
16.8749607633
 21
113.5216152116
  0
LINE
  5
39A
100
AcDbEntity
  8
0
100
AcDbLine
 62
7
  6
CONTINUOUS
 10
99.3880497499
 20
70.9516862729
 11
98.8880497509
 21
70.451686272
  0
LINE
  5
39B
100
AcDbEntity
  8
QUER2
100
AcDbLine
 62
7
  6
CONTINUOUS
 10
83.5219546465
 20
72.436659319
 11
83.9698624646
 21
72.6455221647
  0
LINE
  5
39C
100
AcDbEntity
  8
QUER2
100
AcDbLine
 62
7
  6
CONTINUOUS
 10
78.1458873276
 20
71.5896534739
 11
79.7540684371
 21
72.3115479748
  0
LINE
  5
39D
100
AcDbEntity
  8
0
100
AcDbLine
 62
7
  6
CONTINUOUS
 10
191.2300695234
 20
115.0001563973
 11
189.3619902975
 21
114.3202320389
  0
LINE
  5
39E
100
AcDbEntity
  8
IMPORT_KE
100
AcDbLine
 62
6
  6
CONTINUOUS
 10
81.6880497633
 20
119.6516862116
 11
87.4080187633
 21
119.6516862116
  0
LINE
  5
39F
100
AcDbEntity
  8
IMPORT_KE
100
AcDbLine
 62
6
  6
CONTINUOUS
 10
90.8880497633
 20
119.6516862116
 11
91.1637857633
 21
119.6516862116
  0
LINE
  5
3A0
100
AcDbEntity
  8
IMPORT_KE
100
AcDbLine
 62
6
  6
CONTINUOUS
 10
75.8880497633
 20
120.3516862116
 11
80.8880497633
 21
120.3516862116
  0
LINE
  5
3A1
100
AcDbEntity
  8
IMPORT_KE
100
AcDbLine
 62
6
  6
CONTINUOUS
 10
74.8880497633
 20
121.1516862116
 11
80.8880497633
 21
121.1516862116
  0
LINE
  5
3A2
100
AcDbEntity
  8
IMPORT_KE
100
AcDbLine
 62
6
  6
CONTINUOUS
 10
75.2537937633
 20
122.5516862116
 11
71.8857407633
 21
122.5516862116
  0
LINE
  5
3A3
100
AcDbEntity
  8
IMPORT_KE
100
AcDbLine
 62
6
  6
CONTINUOUS
 10
68.7201897633
 20
122.5516862116
 11
69.9927787633
 21
122.5516862116
  0
LINE
  5
3A4
100
AcDbEntity
  8
IMPORT_KE
100
AcDbLine
 62
6
  6
CONTINUOUS
 10
90.8637857633
 20
122.7516862116
 11
83.6194207633
 21
122.7516862116
  0
LINE
  5
3A5
100
AcDbEntity
  8
IMPORT_KE
100
AcDbLine
 62
6
  6
CONTINUOUS
 10
82.4880497633
 20
122.7516862116
 11
76.3880497633
 21
122.7516862116
  0
LINE
  5
3A6
100
AcDbEntity
  8
0
100
AcDbLine
 62
7
  6
CONTINUOUS
 10
75.0220247633
 20
123.3516862116
 11
66.3880497633
 21
123.3516862116
  0
LINE
  5
3A7
100
AcDbEntity
  8
IMPORT_KE
100
AcDbLine
 62
2
  6
CONTINUOUS
 10
75.0220247633
 20
123.3516862116
 11
66.3880497633
 21
123.3516862116
  0
LINE
  5
3A8
100
AcDbEntity
  8
IMPORT_KE
100
AcDbLine
 62
6
  6
CONTINUOUS
 10
75.1739077633
 20
123.5516862116
 11
68.3880497633
 21
123.5516862116
  0
LINE
  5
3A9
100
AcDbEntity
  8
0
100
AcDbLine
 62
7
  6
CONTINUOUS
 10
91.3880497633
 20
123.8516862116
 11
75.8880497633
 21
123.8516862116
  0
LINE
  5
3AA
100
AcDbEntity
  8
IMPORT_KE
100
AcDbLine
 62
6
  6
CONTINUOUS
 10
91.8880497633
 20
123.8516862116
 11
75.8880497633
 21
123.8516862116
  0
LINE
  5
3AB
100
AcDbEntity
  8
IMPORT_KE
100
AcDbLine
 62
6
  6
CONTINUOUS
 10
76.3880497633
 20
122.7516862116
 11
75.2537937633
 21
122.5516862116
  0
LINE
  5
3AC
100
AcDbEntity
  8
IMPORT_KE
100
AcDbLine
 62
2
  6
CONTINUOUS
 10
24.5906677633
 20
131.2490912116
 11
16.8749607633
 21
131.1817572116
  0
LINE
  5
3AD
100
AcDbEntity
  8
0
100
AcDbLine
 62
7
  6
CONTINUOUS
 10
16.8749599504
 20
131.1817572045
 11
24.5906677207
 21
131.2490912112
  0
LINE
  5
3AE
100
AcDbEntity
  8
0
100
AcDbLine
 62
7
  6
CONTINUOUS
 10
102.697598636
 20
130.3516862793
 11
183.905917636
 21
130.351686435
  0
LINE
  5
3AF
100
AcDbEntity
  8
0
100
AcDbLine
 62
7
  6
CONTINUOUS
 10
18.0616980923
 20
150.7920863299
 11
15.7144016355
 21
151.2059782341
  0
LINE
  5
3B0
100
AcDbEntity
  8
IMPORT_KE
100
AcDbLine
 62
2
  6
CONTINUOUS
 10
15.7144017633
 20
151.2059782116
 11
18.0616987633
 21
150.7920862116
  0
LINE
  5
3B1
100
AcDbEntity
  8
0
100
AcDbLine
 62
7
  6
CONTINUOUS
 10
24.5906677487
 20
144.4542812117
 11
19.3836864602
 21
144.4997222142
  0
LINE
  5
3B2
100
AcDbEntity
  8
IMPORT_KE
100
AcDbLine
 62
2
  6
CONTINUOUS
 10
24.5906677633
 20
144.4542812116
 11
19.3836867633
 21
144.4997222116
  0
LINE
  5
3B3
100
AcDbEntity
  8
0
100
AcDbLine
 62
7
  6
CONTINUOUS
 10
187.3880496734
 20
110.8516864416
 11
186.8880496744
 21
110.3516864407
  0
LINE
  5
3B4
100
AcDbEntity
  8
IMPORT_KE
100
AcDbLine
 62
2
  6
CONTINUOUS
 10
84.9059177633
 20
156.3516862116
 11
16.8880497633
 21
156.3516862116
  0
LINE
  5
3B5
100
AcDbEntity
  8
0
100
AcDbLine
 62
7
  6
CONTINUOUS
 10
16.8880497633
 20
156.3516862116
 11
84.9059177633
 21
156.3516862116
  0
LINE
  5
3B6
100
AcDbEntity
  8
0
100
AcDbLine
 62
7
  6
CONTINUOUS
 10
169.388049684
 20
105.3516864071
 11
169.3880496993
 21
97.3516864071
  0
LINE
  5
3B7
100
AcDbEntity
  8
0
100
AcDbLine
 62
7
  6
CONTINUOUS
 10
171.8880496744
 20
110.3516864119
 11
171.888049684
 21
105.3516864119
  0
LINE
  5
3B8
100
AcDbEntity
  8
0
100
AcDbLine
 62
7
  6
CONTINUOUS
 10
171.8880496993
 20
97.3516864119
 11
171.8880497779
 21
56.3516864119
  0
LINE
  5
3B9
100
AcDbEntity
  8
0
100
AcDbLine
 62
7
  6
CONTINUOUS
 10
187.3880496722
 20
111.5011534416
 11
187.3880496734
 21
110.8516864416
  0
LINE
  5
3BA
100
AcDbEntity
  8
0
100
AcDbLine
 62
7
  6
CONTINUOUS
 10
187.6646875187
 20
127.7197667784
 11
191.8277416909
 21
116.2818693735
  0
ARC
  5
3BB
100
AcDbEntity
  8
0
100
AcDbCircle
 62
7
  6
CONTINUOUS
 10
43.8880497633
 20
87.5551294707
 40
2.0
100
AcDbArc
 50
180.0
 51
269.7
  0
ARC
  5
3BC
100
AcDbEntity
  8
0
100
AcDbCircle
 62
7
  6
CONTINUOUS
 10
16.8880497633
 20
80.3516862116
 40
2.0
100
AcDbArc
 50
180.0
 51
270.0
  0
ARC
  5
3BD
100
AcDbEntity
  8
IMPORT_KE
100
AcDbCircle
 62
2
  6
CONTINUOUS
 10
16.8880497633
 20
80.3516862116
 40
2.0
100
AcDbArc
 50
180.0
 51
270.0
  0
ARC
  5
3BE
100
AcDbEntity
  8
0
100
AcDbCircle
 62
7
  6
CONTINUOUS
 10
55.3880497633
 20
88.682646346
 40
1.5
100
AcDbArc
 50
180.0
 51
269.5
  0
ARC
  5
3BF
100
AcDbEntity
  8
0
100
AcDbCircle
 62
7
  6
CONTINUOUS
 10
49.3880497633
 20
87.3708362619
 40
1.5
100
AcDbArc
 50
180.0
 51
269.0
  0
ARC
  5
3C0
100
AcDbEntity
  8
0
100
AcDbCircle
 62
7
  6
CONTINUOUS
 10
52.1880497633
 20
88.5367529263
 40
1.5
100
AcDbArc
 50
180.0
 51
269.5
  0
ARC
  5
3C1
100
AcDbEntity
  8
0
100
AcDbCircle
 62
7
  6
CONTINUOUS
 10
16.3880497633
 20
98.6774502116
 40
1.5
100
AcDbArc
 50
90.5000042622
 51
180.0
  0
ARC
  5
3C2
100
AcDbEntity
  8
IMPORT_KE
100
AcDbCircle
 62
2
  6
CONTINUOUS
 10
16.3880497633
 20
98.6774502116
 40
1.5
100
AcDbArc
 50
90.4999692809
 51
180.0
  0
ARC
  5
3C3
100
AcDbEntity
  8
A_RUNDUNGEN
100
AcDbCircle
 62
7
  6
CONTINUOUS
 10
56.7880497633
 20
87.9965902953
 40
1.0
100
AcDbArc
 50
235.7510301834
 51
269.5
  0
ARC
  5
3C4
100
AcDbEntity
  8
0
100
AcDbCircle
 62
7
  6
CONTINUOUS
 10
24.5880497633
 20
100.5490792116
 40
0.3
100
AcDbArc
 50
270.5000042622
 51
360.0
  0
ARC
  5
3C5
100
AcDbEntity
  8
IMPORT_KE
100
AcDbCircle
 62
2
  6
CONTINUOUS
 10
24.5880497633
 20
100.5490792116
 40
0.3
100
AcDbArc
 50
270.5000084766
 51
360.0
  0
ARC
  5
3C6
100
AcDbEntity
  8
QUER2
100
AcDbCircle
 62
7
  6
CONTINUOUS
 10
67.4747485039
 20
63.6744138174
 40
13.3928774596
100
AcDbArc
 50
62.727386009
 51
67.20682206
  0
ARC
  5
3C7
100
AcDbEntity
  8
QUER2
100
AcDbCircle
 62
7
  6
CONTINUOUS
 10
67.4747485039
 20
63.6744138174
 40
13.3928774596
100
AcDbArc
 50
55.2845037669
 51
59.2844205334
  0
ARC
  5
3C8
100
AcDbEntity
  8
QUER2
100
AcDbCircle
 62
7
  6
CONTINUOUS
 10
67.4747485039
 20
63.6744138174
 40
13.3928774596
100
AcDbArc
 50
47.7810361635
 51
51.8421451123
  0
ARC
  5
3C9
100
AcDbEntity
  8
QUER2
100
AcDbCircle
 62
7
  6
CONTINUOUS
 10
67.4747485039
 20
63.6744138174
 40
13.3928774596
100
AcDbArc
 50
39.9704349704
 51
44.3393766357
  0
ARC
  5
3CA
100
AcDbEntity
  8
QUER2
100
AcDbCircle
 62
7
  6
CONTINUOUS
 10
67.4747485039
 20
63.6744138174
 40
13.3928774596
100
AcDbArc
 50
77.598515657
 51
97.5210600325
  0
ARC
  5
3CB
100
AcDbEntity
  8
QUER2
100
AcDbCircle
 62
7
  6
CONTINUOUS
 10
67.4747485039
 20
63.6744138174
 40
11.478516903
100
AcDbArc
 50
30.8333048429
 51
97.8460018237
  0
ARC
  5
3CC
100
AcDbEntity
  8
0
100
AcDbCircle
 62
7
  6
CONTINUOUS
 10
67.3880497633
 20
63.9516862116
 40
5.5
100
AcDbArc
 50
65.3900164906
 51
294.6099835387
  0
ARC
  5
3CD
100
AcDbEntity
  8
QUER2
100
AcDbCircle
 62
7
  6
CONTINUOUS
 10
67.3880497633
 20
63.9516862116
 40
5.0
100
AcDbArc
 50
90.0
 51
270.0
  0
ARC
  5
3CE
100
AcDbEntity
  8
0
100
AcDbCircle
 62
7
  6
CONTINUOUS
 10
64.8880497779
 20
56.3516862068
 40
3.0
100
AcDbArc
 50
180.0000001098
 51
270.0000001098
  0
CIRCLE
  5
3CF
100
AcDbEntity
  8
QUER2
100
AcDbCircle
 62
7
  6
CONTINUOUS
 10
67.3880497633
 20
63.9516862116
 40
2.5
  0
CIRCLE
  5
3D0
100
AcDbEntity
  8
A_ACHSEN
100
AcDbCircle
 62
7
  6
CONTINUOUS
 10
67.3880497633
 20
63.9516862116
 40
2.45
  0
CIRCLE
  5
3D1
100
AcDbEntity
  8
A_ACHSEN
100
AcDbCircle
 62
7
  6
CONTINUOUS
 10
67.3880497633
 20
63.9516862116
 40
1.6215728753
  0
ARC
  5
3D2
100
AcDbEntity
  8
0
100
AcDbCircle
 62
7
  6
CONTINUOUS
 10
64.888049753
 20
69.3516862068
 40
3.0
100
AcDbArc
 50
90.0000001098
 51
158.4047140718
  0
ARC
  5
3D3
100
AcDbEntity
  8
QUER2
100
AcDbCircle
 62
7
  6
CONTINUOUS
 10
70.4588773958
 20
77.2453340069
 40
0.5022619795
100
AcDbArc
 50
257.598515657
 51
0.8619182248
  0
ARC
  5
3D4
100
AcDbEntity
  8
QUER2
100
AcDbCircle
 62
7
  6
CONTINUOUS
 10
72.290915999
 20
76.1740112009
 40
0.4023630867
100
AcDbArc
 50
176.5890765054
 51
337.7153682265
  0
ARC
  5
3D5
100
AcDbEntity
  8
QUER2
100
AcDbCircle
 62
7
  6
CONTINUOUS
 10
65.8663186767
 20
75.3465339867
 40
0.3039037208
100
AcDbArc
 50
184.5937440552
 51
277.8460018237
  0
ARC
  5
3D6
100
AcDbEntity
  8
QUER2
100
AcDbCircle
 62
7
  6
CONTINUOUS
 10
65.761524803
 20
76.6507807237
 40
0.3039037208
100
AcDbArc
 50
97.5210600325
 51
184.5937440552
  0
ARC
  5
3D7
100
AcDbEntity
  8
QUER2
100
AcDbCircle
 62
7
  6
CONTINUOUS
 10
79.8537607
 20
69.9125734033
 40
0.6
100
AcDbArc
 50
350.0
 51
121.8763603803
  0
ARC
  5
3D8
100
AcDbEntity
  8
QUER2
100
AcDbCircle
 62
7
  6
CONTINUOUS
 10
79.9516346939
 20
69.68810018
 40
0.5837
100
AcDbArc
 50
8.4071409463
 51
121.8587620103
  0
ARC
  5
3D9
100
AcDbEntity
  8
QUER2
100
AcDbCircle
 62
7
  6
CONTINUOUS
 10
77.7621894023
 20
69.815067072
 40
0.5022619795
100
AcDbArc
 50
210.8333048429
 51
290.547271683
  0
ARC
  5
3DA
100
AcDbEntity
  8
QUER2
100
AcDbCircle
 62
7
  6
CONTINUOUS
 10
80.8973677037
 20
68.9085643794
 40
0.5
100
AcDbArc
 50
170.9328996899
 51
315.0
  0
ARC
  5
3DB
100
AcDbEntity
  8
QUER2
100
AcDbCircle
 62
7
  6
CONTINUOUS
 10
80.7715026966
 20
68.7826993723
 40
0.5
100
AcDbArc
 50
170.0
 51
315.0
  0
ARC
  5
3DC
100
AcDbEntity
  8
QUER2
100
AcDbCircle
 62
7
  6
CONTINUOUS
 10
76.7555542963
 20
73.3052014277
 40
0.4023630867
100
AcDbArc
 50
134.3466524339
 51
317.7737603653
  0
ARC
  5
3DD
100
AcDbEntity
  8
QUER2
100
AcDbCircle
 62
7
  6
CONTINUOUS
 10
77.9811110033
 20
71.9567295103
 40
0.4023630867
100
AcDbArc
 50
127.0417644818
 51
294.1747780881
  0
ARC
  5
3DE
100
AcDbEntity
  8
QUER2
100
AcDbCircle
 62
7
  6
CONTINUOUS
 10
74.3880497633
 20
78.7016862116
 40
19.75
100
AcDbArc
 50
270.0
 51
90.0
  0
ARC
  5
3DF
100
AcDbEntity
  8
QUER2
100
AcDbCircle
 62
7
  6
CONTINUOUS
 10
74.3880497633
 20
78.7016862116
 40
9.75
100
AcDbArc
 50
270.0
 51
301.8763603803
  0
ARC
  5
3E0
100
AcDbEntity
  8
QUER2
100
AcDbCircle
 62
7
  6
CONTINUOUS
 10
74.3880497633
 20
78.7016862116
 40
9.75
100
AcDbArc
 50
328.1236396197
 51
90.0
  0
ARC
  5
3E1
100
AcDbEntity
  8
QUER2
100
AcDbCircle
 62
7
  6
CONTINUOUS
 10
74.5545044045
 20
78.3728794043
 40
9.6414848656
100
AcDbArc
 50
290.547271683
 51
301.8587620103
  0
ARC
  5
3E2
100
AcDbEntity
  8
QUER2
100
AcDbCircle
 62
7
  6
CONTINUOUS
 10
74.5545044045
 20
78.3728794043
 40
9.6414848656
100
AcDbArc
 50
328.2593605105
 51
340.8200823557
  0
ARC
  5
3E3
100
AcDbEntity
  8
QUER2
100
AcDbCircle
 62
7
  6
CONTINUOUS
 10
77.4918514411
 20
77.3511412036
 40
6.5315079261
100
AcDbArc
 50
352.5872491716
 51
180.8619182248
  0
ARC
  5
3E4
100
AcDbEntity
  8
QUER2
100
AcDbCircle
 62
7
  6
CONTINUOUS
 10
77.4918514411
 20
77.3511412036
 40
5.5240497507
100
AcDbArc
 50
294.1747780881
 51
176.5890765054
  0
ARC
  5
3E5
100
AcDbEntity
  8
QUER2
100
AcDbCircle
 62
7
  6
CONTINUOUS
 10
73.9658821639
 20
75.3875748869
 40
0.4023630867
100
AcDbArc
 50
151.6741664759
 51
330.3376400666
  0
ARC
  5
3E6
100
AcDbEntity
  8
QUER2
100
AcDbCircle
 62
7
  6
CONTINUOUS
 10
75.4309257542
 20
74.4514604122
 40
0.4023630867
100
AcDbArc
 50
144.829576765
 51
322.2970721142
  0
ARC
  5
3E7
100
AcDbEntity
  8
0
100
AcDbCircle
 62
7
  6
CONTINUOUS
 10
90.8880497605
 20
65.4516862566
 40
5.0
100
AcDbArc
 50
270.0000001098
 51
0.0000001098
  0
ARC
  5
3E8
100
AcDbEntity
  8
0
100
AcDbCircle
 62
7
  6
CONTINUOUS
 10
97.3880497697
 20
60.637592949
 40
2.0
100
AcDbArc
 50
270.3000001098
 51
0.0000001098
  0
ARC
  5
3E9
100
AcDbEntity
  8
A_RUNDUNGEN
100
AcDbCircle
 62
7
  6
CONTINUOUS
 10
90.888049777
 20
74.1619272088
 40
4.9999999497
100
AcDbArc
 50
359.9999995154
 51
50.0137372836
  0
ARC
  5
3EA
100
AcDbEntity
  8
A_RUNDUNGEN
100
AcDbCircle
 62
7
  6
CONTINUOUS
 10
92.8880498099
 20
73.7223333016
 40
2.999999909
100
AcDbArc
 50
270.499998879
 51
359.6073084031
  0
ARC
  5
3EB
100
AcDbEntity
  8
QUER2
100
AcDbCircle
 62
7
  6
CONTINUOUS
 10
83.2670128093
 20
72.9833838532
 40
0.6032437788
100
AcDbArc
 50
148.2593605105
 51
295.0
  0
ARC
  5
3EC
100
AcDbEntity
  8
QUER2
100
AcDbCircle
 62
7
  6
CONTINUOUS
 10
83.1771625716
 20
73.2359752749
 40
0.6
100
AcDbArc
 50
148.1236396197
 51
280.0
  0
ARC
  5
3ED
100
AcDbEntity
  8
QUER2
100
AcDbCircle
 62
7
  6
CONTINUOUS
 10
84.1811715955
 20
72.1923682712
 40
0.5
100
AcDbArc
 50
315.0
 51
115.0
  0
ARC
  5
3EE
100
AcDbEntity
  8
QUER2
100
AcDbCircle
 62
7
  6
CONTINUOUS
 10
84.3070366026
 20
72.3182332783
 40
0.5
100
AcDbArc
 50
315.0
 51
100.0
  0
ARC
  5
3EF
100
AcDbEntity
  8
0
100
AcDbCircle
 62
7
  6
CONTINUOUS
 10
76.6950191995
 20
100.3516862116
 40
3.5547736725
100
AcDbArc
 50
175.9671753207
 51
184.0328246793
  0
ARC
  5
3F0
100
AcDbEntity
  8
0
100
AcDbCircle
 62
7
  6
CONTINUOUS
 10
97.3880497004
 20
96.7657795892
 40
2.0
100
AcDbArc
 50
0.0000001098
 51
89.7000001098
  0
ARC
  5
3F1
100
AcDbEntity
  8
0
100
AcDbCircle
 62
7
  6
CONTINUOUS
 10
72.8880497633
 20
80.3516862116
 40
2.0
100
AcDbArc
 50
270.0
 51
360.0
  0
ARC
  5
3F2
100
AcDbEntity
  8
IMPORT_KE
100
AcDbCircle
 62
2
  6
CONTINUOUS
 10
72.8880497633
 20
80.3516862116
 40
2.0
100
AcDbArc
 50
270.0
 51
360.0
  0
ARC
  5
3F3
100
AcDbEntity
  8
0
100
AcDbCircle
 62
7
  6
CONTINUOUS
 10
94.3880497037
 20
95.0714762119
 40
1.5
100
AcDbArc
 50
0.0000001098
 51
88.5000001098
  0
ARC
  5
3F4
100
AcDbEntity
  8
QUER2
100
AcDbCircle
 62
7
  6
CONTINUOUS
 10
71.8880497633
 20
99.9516862116
 40
1.5
100
AcDbArc
 50
180.0
 51
270.0
  0
ARC
  5
3F5
100
AcDbEntity
  8
0
100
AcDbCircle
 62
7
  6
CONTINUOUS
 10
85.5887522596
 20
97.8027508888
 40
1.0
100
AcDbArc
 50
255.4257839118
 51
268.5000001098
  0
ARC
  5
3F6
100
AcDbEntity
  8
A_RUNDUNGEN
100
AcDbCircle
 62
7
  6
CONTINUOUS
 10
94.8880497233
 20
84.844790025
 40
0.9999860771
100
AcDbArc
 50
271.5000418892
 51
0.0015961019
  0
ARC
  5
3F7
100
AcDbEntity
  8
A_RUNDUNGEN
100
AcDbCircle
 62
7
  6
CONTINUOUS
 10
64.0880497633
 20
102.6516862116
 40
0.3
100
AcDbArc
 50
0.0007005519
 51
90.0
  0
ARC
  5
3F8
100
AcDbEntity
  8
A_RUNDUNGEN
100
AcDbCircle
 62
7
  6
CONTINUOUS
 10
64.6880497633
 20
101.5016862116
 40
0.3
100
AcDbArc
 50
179.9999923139
 51
270.0
  0
ARC
  5
3F9
100
AcDbEntity
  8
A_RUNDUNGEN
100
AcDbCircle
 62
7
  6
CONTINUOUS
 10
69.0880497633
 20
101.5016862116
 40
0.3
100
AcDbArc
 50
270.0
 51
0.0001801248
  0
ARC
  5
3FA
100
AcDbEntity
  8
QUER2
100
AcDbCircle
 62
7
  6
CONTINUOUS
 10
61.6880497633
 20
88.7516862116
 40
0.3
100
AcDbArc
 50
180.0
 51
270.0
  0
ARC
  5
3FB
100
AcDbEntity
  8
A_RUNDUNGEN
100
AcDbCircle
 62
8
  6
HIDDEN
 10
69.1880497633
 20
103.2446454843
 40
0.2
100
AcDbArc
 50
0.0000004502
 51
90.0
  0
ARC
  5
3FC
100
AcDbEntity
  8
A_RUNDUNGEN
100
AcDbCircle
 62
8
  6
HIDDEN
 10
69.1880497633
 20
103.6316862116
 40
0.2
100
AcDbArc
 50
359.9980360846
 51
90.0
  0
ARC
  5
3FD
100
AcDbEntity
  8
0
100
AcDbCircle
 62
7
  6
CONTINUOUS
 10
43.8880497633
 20
113.1482429525
 40
2.0
100
AcDbArc
 50
90.3
 51
180.0
  0
ARC
  5
3FE
100
AcDbEntity
  8
0
100
AcDbCircle
 62
7
  6
CONTINUOUS
 10
16.8880497633
 20
115.0215582116
 40
1.5000001084
100
AcDbArc
 50
180.0
 51
269.4999996651
  0
ARC
  5
3FF
100
AcDbEntity
  8
IMPORT_KE
100
AcDbCircle
 62
2
  6
CONTINUOUS
 10
16.8880497633
 20
115.0215582116
 40
1.5000001084
100
AcDbArc
 50
180.0
 51
269.5000307191
  0
ARC
  5
400
100
AcDbEntity
  8
0
100
AcDbCircle
 62
7
  6
CONTINUOUS
 10
55.3880497633
 20
112.0207260771
 40
1.5
100
AcDbArc
 50
90.5
 51
180.0
  0
ARC
  5
401
100
AcDbEntity
  8
0
100
AcDbCircle
 62
7
  6
CONTINUOUS
 10
49.3880497633
 20
113.3325361612
 40
1.5
100
AcDbArc
 50
91.0
 51
180.0
  0
ARC
  5
402
100
AcDbEntity
  8
0
100
AcDbCircle
 62
7
  6
CONTINUOUS
 10
52.1880497633
 20
112.1666194968
 40
1.5
100
AcDbArc
 50
90.5
 51
180.0
  0
ARC
  5
403
100
AcDbEntity
  8
0
100
AcDbCircle
 62
7
  6
CONTINUOUS
 10
16.8880497633
 20
129.6818142116
 40
1.5
100
AcDbArc
 50
90.5000003349
 51
180.0
  0
ARC
  5
404
100
AcDbEntity
  8
IMPORT_KE
100
AcDbCircle
 62
2
  6
CONTINUOUS
 10
16.8880497633
 20
129.6818142116
 40
1.5
100
AcDbArc
 50
90.4999692809
 51
180.0
  0
ARC
  5
405
100
AcDbEntity
  8
A_RUNDUNGEN
100
AcDbCircle
 62
7
  6
CONTINUOUS
 10
56.7880269272
 20
112.7067819286
 40
0.999992388
100
AcDbArc
 50
90.4986915378
 51
124.247925682
  0
ARC
  5
406
100
AcDbEntity
  8
0
100
AcDbCircle
 62
7
  6
CONTINUOUS
 10
24.5880497633
 20
113.1542922116
 40
0.3000004234
100
AcDbArc
 50
0.0
 51
89.4999996651
  0
ARC
  5
407
100
AcDbEntity
  8
IMPORT_KE
100
AcDbCircle
 62
2
  6
CONTINUOUS
 10
24.5880497633
 20
113.1542922116
 40
0.3000004234
100
AcDbArc
 50
0.0
 51
89.49999319
  0
ARC
  5
408
100
AcDbEntity
  8
0
100
AcDbCircle
 62
7
  6
CONTINUOUS
 10
16.8880497633
 20
154.3516862116
 40
2.0
100
AcDbArc
 50
90.0
 51
180.0
  0
ARC
  5
409
100
AcDbEntity
  8
IMPORT_KE
100
AcDbCircle
 62
2
  6
CONTINUOUS
 10
16.8880497633
 20
154.3516862116
 40
2.0
100
AcDbArc
 50
90.0
 51
180.0
  0
ARC
  5
40A
100
AcDbEntity
  8
0
100
AcDbCircle
 62
7
  6
CONTINUOUS
 10
17.8880497633
 20
149.8072782116
 40
1.000000386
100
AcDbArc
 50
0.0
 51
79.9999950958
  0
ARC
  5
40B
100
AcDbEntity
  8
IMPORT_KE
100
AcDbCircle
 62
2
  6
CONTINUOUS
 10
17.8880497633
 20
149.8072782116
 40
1.000000386
100
AcDbArc
 50
0.0
 51
79.999956057
  0
ARC
  5
40C
100
AcDbEntity
  8
0
100
AcDbCircle
 62
7
  6
CONTINUOUS
 10
15.8880497633
 20
152.1907852116
 40
0.9999992276
100
AcDbArc
 50
180.0
 51
259.9999950958
  0
ARC
  5
40D
100
AcDbEntity
  8
IMPORT_KE
100
AcDbCircle
 62
2
  6
CONTINUOUS
 10
15.8880497633
 20
152.1907852116
 40
0.9999992276
100
AcDbArc
 50
180.0
 51
260.000002533
  0
ARC
  5
40E
100
AcDbEntity
  8
0
100
AcDbCircle
 62
7
  6
CONTINUOUS
 10
19.3880497633
 20
144.9997032116
 40
0.5000000361
100
AcDbArc
 50
180.0
 51
269.4999959815
  0
ARC
  5
40F
100
AcDbEntity
  8
IMPORT_KE
100
AcDbCircle
 62
2
  6
CONTINUOUS
 10
19.3880497633
 20
144.9997032116
 40
0.5000000361
100
AcDbArc
 50
180.0
 51
269.5000307191
  0
ARC
  5
410
100
AcDbEntity
  8
0
100
AcDbCircle
 62
7
  6
CONTINUOUS
 10
24.5880497633
 20
131.5490792116
 40
0.3
100
AcDbArc
 50
270.5000003349
 51
360.0
  0
ARC
  5
411
100
AcDbEntity
  8
IMPORT_KE
100
AcDbCircle
 62
2
  6
CONTINUOUS
 10
24.5880497633
 20
131.5490792116
 40
0.3
100
AcDbArc
 50
270.5000084766
 51
360.0
  0
ARC
  5
412
100
AcDbEntity
  8
0
100
AcDbCircle
 62
7
  6
CONTINUOUS
 10
24.5880497633
 20
144.1542922116
 40
0.3000004234
100
AcDbArc
 50
0.0
 51
89.4999959815
  0
ARC
  5
413
100
AcDbEntity
  8
IMPORT_KE
100
AcDbCircle
 62
2
  6
CONTINUOUS
 10
24.5880497633
 20
144.1542922116
 40
0.3000004234
100
AcDbArc
 50
0.0
 51
89.49999319
  0
ARC
  5
414
100
AcDbEntity
  8
A_RUNDUNGEN
100
AcDbCircle
 62
7
  6
CONTINUOUS
 10
64.0880497633
 20
108.2516862116
 40
0.3
100
AcDbArc
 50
270.0
 51
359.9992994481
  0
ARC
  5
415
100
AcDbEntity
  8
A_RUNDUNGEN
100
AcDbCircle
 62
7
  6
CONTINUOUS
 10
64.6880497633
 20
109.4016862116
 40
0.3
100
AcDbArc
 50
90.0
 51
180.0000076861
  0
ARC
  5
416
100
AcDbEntity
  8
A_RUNDUNGEN
100
AcDbCircle
 62
7
  6
CONTINUOUS
 10
69.0880497633
 20
109.4016862116
 40
0.3
100
AcDbArc
 50
359.9998198752
 51
90.0
  0
ARC
  5
417
100
AcDbEntity
  8
QUER2
100
AcDbCircle
 62
7
  6
CONTINUOUS
 10
61.6880497633
 20
111.7516862116
 40
0.3
100
AcDbArc
 50
90.0
 51
180.0
  0
ARC
  5
418
100
AcDbEntity
  8
QUER2
100
AcDbCircle
 62
7
  6
CONTINUOUS
 10
70.0880497633
 20
111.7516862116
 40
0.3
100
AcDbArc
 50
0.0
 51
90.0
  0
ARC
  5
419
100
AcDbEntity
  8
A_RUNDUNGEN
100
AcDbCircle
 62
8
  6
HIDDEN
 10
69.1880497633
 20
107.6587269389
 40
0.2
100
AcDbArc
 50
270.0
 51
359.9999995498
  0
ARC
  5
41A
100
AcDbEntity
  8
A_RUNDUNGEN
100
AcDbCircle
 62
8
  6
HIDDEN
 10
69.1880497633
 20
107.2716862116
 40
0.2
100
AcDbArc
 50
270.0
 51
0.0019639154
  0
ARC
  5
41B
100
AcDbEntity
  8
IMPORT_KE
100
AcDbCircle
 62
6
  6
CONTINUOUS
 10
68.3880497633
 20
122.5516862116
 40
1.000000287
100
AcDbArc
 50
90.0
 51
215.0000279098
  0
ARC
  5
41C
100
AcDbEntity
  8
IMPORT_KE
100
AcDbCircle
 62
6
  6
CONTINUOUS
 10
74.8880497633
 20
118.3516862116
 40
1.0
100
AcDbArc
 50
270.0
 51
360.0
  0
ARC
  5
41D
100
AcDbEntity
  8
IMPORT_KE
100
AcDbCircle
 62
2
  6
CONTINUOUS
 10
75.8880497633
 20
122.8516862116
 40
0.9999996503
100
AcDbArc
 50
135.5729621948
 51
149.9999884324
  0
ARC
  5
41E
100
AcDbEntity
  8
0
100
AcDbCircle
 62
7
  6
CONTINUOUS
 10
75.8880497633
 20
122.8516862116
 40
0.9999993981
100
AcDbArc
 50
90.0
 51
149.9999884324
  0
ARC
  5
41F
100
AcDbEntity
  8
IMPORT_KE
100
AcDbCircle
 62
6
  6
CONTINUOUS
 10
75.8880497633
 20
122.8516862116
 40
0.9999993981
100
AcDbArc
 50
90.0
 51
135.5729621948
  0
ARC
  5
420
100
AcDbEntity
  8
IMPORT_KE
100
AcDbCircle
 62
6
  6
CONTINUOUS
 10
81.3880497633
 20
119.3516862116
 40
0.5
100
AcDbArc
 50
180.0
 51
270.0
  0
ARC
  5
421
100
AcDbEntity
  8
IMPORT_KE
100
AcDbCircle
 62
6
  6
CONTINUOUS
 10
68.7201897633
 20
122.2516862116
 40
0.3000003564
100
AcDbArc
 50
90.0
 51
214.9999684471
  0
ARC
  5
422
100
AcDbEntity
  8
0
100
AcDbCircle
 62
7
  6
CONTINUOUS
 10
82.7705756648
 20
115.3516862411
 40
1.999999563
100
AcDbArc
 50
90.0000001098
 51
174.9999993927
  0
ARC
  5
423
100
AcDbEntity
  8
0
100
AcDbCircle
 62
7
  6
CONTINUOUS
 10
102.6975986418
 20
127.3516862793
 40
2.9999996523
100
AcDbArc
 50
90.0000001098
 51
170.0000019033
  0
ARC
  5
424
100
AcDbEntity
  8
0
100
AcDbCircle
 62
7
  6
CONTINUOUS
 10
91.3880497633
 20
125.3516862116
 40
1.5
100
AcDbArc
 50
270.0
 51
360.0
  0
ARC
  5
425
100
AcDbEntity
  8
IMPORT_KE
100
AcDbCircle
 62
2
  6
CONTINUOUS
 10
91.3880497633
 20
125.3516862116
 40
1.5
100
AcDbArc
 50
270.0
 51
360.0
  0
ARC
  5
426
100
AcDbEntity
  8
0
100
AcDbCircle
 62
7
  6
CONTINUOUS
 10
97.048949659
 20
118.3516862684
 40
1.000000386
100
AcDbArc
 50
270.0000001098
 51
350.0000019033
  0
ARC
  5
427
100
AcDbEntity
  8
IMPORT_KE
100
AcDbCircle
 62
6
  6
CONTINUOUS
 10
88.9328897633
 20
119.6257972116
 40
1.0000000347
100
AcDbArc
 50
60.0000170803
 51
129.9999527308
  0
ARC
  5
428
100
AcDbEntity
  8
IMPORT_KE
100
AcDbCircle
 62
6
  6
CONTINUOUS
 10
91.8880497633
 20
119.3516862116
 40
0.5000001547
100
AcDbArc
 50
270.0
 51
44.9999189716
  0
ARC
  5
429
100
AcDbEntity
  8
IMPORT_KE
100
AcDbCircle
 62
6
  6
CONTINUOUS
 10
90.1708927633
 20
121.3516862116
 40
0.5000001547
100
AcDbArc
 50
135.0
 51
225.0000810284
  0
ARC
  5
42A
100
AcDbEntity
  8
IMPORT_KE
100
AcDbCircle
 62
6
  6
CONTINUOUS
 10
91.8880497633
 20
123.3516862116
 40
0.5
100
AcDbArc
 50
315.0
 51
90.0
  0
ARC
  5
42B
100
AcDbEntity
  8
IMPORT_KE
100
AcDbCircle
 62
6
  6
CONTINUOUS
 10
87.2060647633
 20
119.3516862116
 40
0.4999999557
100
AcDbArc
 50
270.0
 51
310.0000334509
  0
ARC
  5
42C
100
AcDbEntity
  8
IMPORT_KE
100
AcDbCircle
 62
6
  6
CONTINUOUS
 10
89.0250507633
 20
119.5725892116
 40
0.4999999557
100
AcDbArc
 50
59.9999597845
 51
130.0000334509
  0
ARC
  5
42D
100
AcDbEntity
  8
IMPORT_KE
100
AcDbCircle
 62
6
  6
CONTINUOUS
 10
89.8380497633
 20
119.2516862116
 40
0.4031128874
100
AcDbArc
 50
82.8749836511
 51
262.8749836511
  0
ARC
  5
42E
100
AcDbEntity
  8
0
100
AcDbCircle
 62
7
  6
CONTINUOUS
 10
84.9059177633
 20
152.3516862116
 40
4.0
100
AcDbArc
 50
19.9999997762
 51
90.0
  0
ARC
  5
42F
100
AcDbEntity
  8
IMPORT_KE
100
AcDbCircle
 62
2
  6
CONTINUOUS
 10
84.9059177633
 20
152.3516862116
 40
4.0
100
AcDbArc
 50
19.9999897512
 51
90.0
  0
ARC
  5
430
100
AcDbEntity
  8
0
100
AcDbCircle
 62
7
  6
CONTINUOUS
 10
91.8880497633
 20
141.9398492116
 40
1.0000003073
100
AcDbArc
 50
0.0
 51
19.9999997762
  0
ARC
  5
431
100
AcDbEntity
  8
IMPORT_KE
100
AcDbCircle
 62
2
  6
CONTINUOUS
 10
91.8880497633
 20
141.9398492116
 40
1.0000003073
100
AcDbArc
 50
0.0
 51
19.9999848521
  0
ARC
  5
432
100
AcDbEntity
  8
0
100
AcDbCircle
 62
7
  6
CONTINUOUS
 10
164.3880497779
 20
56.3516863975
 40
3.0
100
AcDbArc
 50
270.0000001098
 51
0.0000001098
  0
ARC
  5
433
100
AcDbEntity
  8
0
100
AcDbCircle
 62
7
  6
CONTINUOUS
 10
183.9059176437
 20
126.351686435
 40
4.0
100
AcDbArc
 50
19.999999886
 51
90.0000001098
  0
ARC
  5
434
100
AcDbEntity
  8
0
100
AcDbCircle
 62
7
  6
CONTINUOUS
 10
190.3880496722
 20
111.5011534474
 40
3.0
100
AcDbArc
 50
109.9999762984
 51
180.0000001098
  0
ARC
  5
435
100
AcDbEntity
  8
0
100
AcDbCircle
 62
7
  6
CONTINUOUS
 10
190.8880496637
 20
115.9398494483
 40
0.9999993676
100
AcDbArc
 50
289.9999762984
 51
19.999999886
  0
SPLINE
  5
436
100
AcDbEntity
  8
DEFAULT_2
100
AcDbSpline
 62
8
  6
HIDDEN
 70
0
 71
3
 72
14
 73
10
 74
0
 42
0.0000001
 43
0.0000001
 44
0.0000000001
 40
0.0
 40
0.0
 40
0.0
 40
0.0
 40
0.3952466228
 40
0.5656913327
 40
0.7129850789
 40
0.8333670463
 40
0.9234448995
 40
0.9800489379
 40
1.0
 40
1.0
 40
1.0
 40
1.0
 10
67.0473873162
 20
107.3179848562
 30
0.0
 10
67.0235298487
 20
107.28448061
 30
0.0
 10
66.9885743631
 20
107.2370964969
 30
0.0
 10
66.9431804112
 20
107.1784095945
 30
0.0
 10
66.9148561373
 20
107.1426756787
 30
0.0
 10
66.891268482
 20
107.1138860316
 30
0.0
 10
66.8736747686
 20
107.0923392097
 30
0.0
 10
66.8620743783
 20
107.0794929274
 30
0.0
 10
66.8572531906
 20
107.0730794448
 30
0.0
 10
66.8557096587
 20
107.0716909356
 30
0.0
  0
SPLINE
  5
437
100
AcDbEntity
  8
DEFAULT_2
100
AcDbSpline
 62
8
  6
HIDDEN
 70
0
 71
3
 72
11
 73
7
 74
0
 42
0.0000001
 43
0.0000001
 44
0.0000000001
 40
0.0
 40
0.0
 40
0.0
 40
0.0
 40
0.3530470657
 40
0.6448732653
 40
0.861337275
 40
1.0
 40
1.0
 40
1.0
 40
1.0
 10
67.0473873162
 20
107.3179848562
 30
0.0
 10
67.0613211217
 20
107.3375528029
 30
0.0
 10
67.0874445151
 20
107.3727548053
 30
0.0
 10
67.1258702426
 20
107.4174239485
 30
0.0
 10
67.157869256
 20
107.4470340158
 30
0.0
 10
67.1808812893
 20
107.4587091256
 30
0.0
 10
67.1903158857
 20
107.4586373128
 30
0.0
  0
SPLINE
  5
438
100
AcDbEntity
  8
DEFAULT_2
100
AcDbSpline
 62
8
  6
HIDDEN
 70
0
 71
3
 72
10
 73
6
 74
0
 42
0.0000001
 43
0.0000001
 44
0.0000000001
 40
0.0
 40
0.0
 40
0.0
 40
0.0
 40
0.3177774129
 40
0.6005475257
 40
1.0
 40
1.0
 40
1.0
 40
1.0
 10
67.2182308955
 20
105.4516869981
 30
0.0
 10
67.2182309475
 20
105.4001716682
 30
0.0
 10
67.2102434308
 20
105.3019431635
 30
0.0
 10
67.1719756577
 20
105.1469569263
 30
0.0
 10
67.1064745268
 20
105.0404544725
 30
0.0
 10
67.0473873162
 20
105.0139589389
 30
0.0
  0
SPLINE
  5
439
100
AcDbEntity
  8
DEFAULT_2
100
AcDbSpline
 62
8
  6
HIDDEN
 70
0
 71
3
 72
18
 73
14
 74
0
 42
0.0000001
 43
0.0000001
 44
0.0000000001
 40
0.0
 40
0.0
 40
0.0
 40
0.0
 40
0.1710567901
 40
0.3453539309
 40
0.514402822
 40
0.6690275211
 40
0.7994335553
 40
0.8529283029
 40
0.897798482
 40
0.9337373034
 40
0.9609575977
 40
0.9813847112
 40
1.0
 40
1.0
 40
1.0
 40
1.0
 10
67.0473873162
 20
104.0231148397
 30
0.0
 10
67.0642378596
 20
103.9918947508
 30
0.0
 10
67.0960728934
 20
103.927668606
 30
0.0
 10
67.1378481249
 20
103.8294431165
 30
0.0
 10
67.172608713
 20
103.7321116228
 30
0.0
 10
67.1985335504
 20
103.641519716
 30
0.0
 10
67.2127658567
 20
103.5726261992
 30
0.0
 10
67.2178320918
 20
103.5254125897
 30
0.0
 10
67.2185153322
 20
103.4975209205
 30
0.0
 10
67.2163450189
 20
103.4751444814
 30
0.0
 10
67.2114351321
 20
103.458346802
 30
0.0
 10
67.2025533038
 20
103.4470310474
 30
0.0
 10
67.1941764505
 20
103.444764486
 30
0.0
 10
67.1903157442
 20
103.4447351245
 30
0.0
  0
SPLINE
  5
43A
100
AcDbEntity
  8
DEFAULT_2
100
AcDbSpline
 62
8
  6
HIDDEN
 70
0
 71
3
 72
14
 73
10
 74
0
 42
0.0000001
 43
0.0000001
 44
0.0000000001
 40
0.0
 40
0.0
 40
0.0
 40
0.0
 40
0.3952466228
 40
0.5656913327
 40
0.7129850789
 40
0.8333670463
 40
0.9234448995
 40
0.9800489379
 40
1.0
 40
1.0
 40
1.0
 40
1.0
 10
67.0473873162
 20
103.5853875669
 30
0.0
 10
67.0235298487
 20
103.6188918132
 30
0.0
 10
66.9885743631
 20
103.6662759263
 30
0.0
 10
66.9431804112
 20
103.7249628286
 30
0.0
 10
66.9148561373
 20
103.7606967444
 30
0.0
 10
66.891268482
 20
103.7894863916
 30
0.0
 10
66.8736747686
 20
103.8110332134
 30
0.0
 10
66.8620743783
 20
103.8238794958
 30
0.0
 10
66.8572531906
 20
103.8302929783
 30
0.0
 10
66.8557096587
 20
103.8316814876
 30
0.0
  0
SPLINE
  5
43B
100
AcDbEntity
  8
DEFAULT_2
100
AcDbSpline
 62
8
  6
HIDDEN
 70
0
 71
3
 72
11
 73
7
 74
0
 42
0.0000001
 43
0.0000001
 44
0.0000000001
 40
0.0
 40
0.0
 40
0.0
 40
0.0
 40
0.3530470657
 40
0.6448732653
 40
0.861337275
 40
1.0
 40
1.0
 40
1.0
 40
1.0
 10
67.0473873162
 20
103.5853875669
 30
0.0
 10
67.0613211217
 20
103.5658196203
 30
0.0
 10
67.0874445151
 20
103.5306176178
 30
0.0
 10
67.1258702426
 20
103.4859484747
 30
0.0
 10
67.157869256
 20
103.4563384074
 30
0.0
 10
67.1808812893
 20
103.4446632976
 30
0.0
 10
67.1903158857
 20
103.4447351104
 30
0.0
  0
SPLINE
  5
43C
100
AcDbEntity
  8
DEFAULT_2
100
AcDbSpline
 62
8
  6
HIDDEN
 70
0
 71
3
 72
15
 73
11
 74
0
 42
0.0000001
 43
0.0000001
 44
0.0000000001
 40
0.0
 40
0.0
 40
0.0
 40
0.0
 40
0.0193905661
 40
0.0432267016
 40
0.0759186539
 40
0.1661593374
 40
0.2867011206
 40
0.4340525756
 40
0.6045207503
 40
1.0
 40
1.0
 40
1.0
 40
1.0
 10
66.8557089639
 20
103.8316820682
 30
0.0
 10
66.8540761614
 20
103.832867667
 30
0.0
 10
66.8616490774
 20
103.825213606
 30
0.0
 10
66.864439503
 20
103.8213737985
 30
0.0
 10
66.8756115655
 20
103.8085478924
 30
0.0
 10
66.8909259249
 20
103.7899388814
 30
0.0
 10
66.9148930578
 20
103.7606661471
 30
0.0
 10
66.9431143711
 20
103.7250835358
 30
0.0
 10
66.9885760695
 20
103.6662926664
 30
0.0
 10
67.0235157209
 20
103.6189116535
 30
0.0
 10
67.0473873162
 20
103.5853875669
 30
0.0
  0
SPLINE
  5
43D
100
AcDbEntity
  8
DEFAULT_2
100
AcDbSpline
 62
8
  6
HIDDEN
 70
0
 71
3
 72
18
 73
14
 74
0
 42
0.0000001
 43
0.0000001
 44
0.0000000001
 40
0.0
 40
0.0
 40
0.0
 40
0.0
 40
0.0186152665
 40
0.0390424149
 40
0.0662627538
 40
0.1022016468
 40
0.1470719053
 40
0.2005667204
 40
0.3309728372
 40
0.4855975863
 40
0.6546464113
 40
0.828943352
 40
1.0
 40
1.0
 40
1.0
 40
1.0
 10
67.1903158857
 20
107.4586373128
 30
0.0
 10
67.1941765864
 20
107.4586079265
 30
0.0
 10
67.2025534192
 20
107.456341293
 30
0.0
 10
67.2114351912
 20
107.4450254949
 30
0.0
 10
67.2163450586
 20
107.4282277831
 30
0.0
 10
67.2185153379
 20
107.4058513039
 30
0.0
 10
67.217832072
 20
107.3779595969
 30
0.0
 10
67.2127658071
 20
107.3307459525
 30
0.0
 10
67.1985334746
 20
107.261852414
 30
0.0
 10
67.1726086088
 20
107.1712605217
 30
0.0
 10
67.1378480561
 20
107.0739290862
 30
0.0
 10
67.0960728503
 20
106.975703701
 30
0.0
 10
67.0642378421
 20
106.91147764
 30
0.0
 10
67.0473873162
 20
106.8802575835
 30
0.0
  0
SPLINE
  5
43E
100
AcDbEntity
  8
DEFAULT_2
100
AcDbSpline
 62
8
  6
HIDDEN
 70
0
 71
3
 72
15
 73
11
 74
0
 42
0.0000001
 43
0.0000001
 44
0.0000000001
 40
0.0
 40
0.0
 40
0.0
 40
0.0
 40
0.0193905661
 40
0.0432267016
 40
0.0759186539
 40
0.1661593374
 40
0.2867011206
 40
0.4340525756
 40
0.6045207503
 40
1.0
 40
1.0
 40
1.0
 40
1.0
 10
66.8557089639
 20
107.071690355
 30
0.0
 10
66.8540761614
 20
107.0705047562
 30
0.0
 10
66.8616490774
 20
107.0781588172
 30
0.0
 10
66.864439503
 20
107.0819986247
 30
0.0
 10
66.8756115655
 20
107.0948245308
 30
0.0
 10
66.8909259249
 20
107.1134335418
 30
0.0
 10
66.9148930578
 20
107.1427062761
 30
0.0
 10
66.9431143711
 20
107.1782888874
 30
0.0
 10
66.9885760695
 20
107.2370797568
 30
0.0
 10
67.0235157209
 20
107.2844607697
 30
0.0
 10
67.0473873162
 20
107.3179848562
 30
0.0
  0
SPLINE
  5
43F
100
AcDbEntity
  8
DEFAULT_2
100
AcDbSpline
 62
8
  6
HIDDEN
 70
0
 71
3
 72
17
 73
13
 74
0
 42
0.0000001
 43
0.0000001
 44
0.0000000001
 40
0.0
 40
0.0
 40
0.0
 40
0.0
 40
0.0214851375
 40
0.0432290658
 40
0.0690459369
 40
0.1014671337
 40
0.1889769828
 40
0.306766113
 40
0.4522824728
 40
0.620547553
 40
0.805246921
 40
1.0
 40
1.0
 40
1.0
 40
1.0
 10
67.1903158857
 20
103.4447351104
 30
0.0
 10
67.1932606561
 20
103.4447575249
 30
0.0
 10
67.1993047735
 20
103.4459177103
 30
0.0
 10
67.2069576343
 20
103.4519924365
 30
0.0
 10
67.2124163872
 20
103.4617063486
 30
0.0
 10
67.2177362501
 20
103.4810714176
 30
0.0
 10
67.2189170855
 20
103.5139387671
 30
0.0
 10
67.2142828114
 20
103.5618174677
 30
0.0
 10
67.2031777817
 20
103.6200048126
 30
0.0
 10
67.1861058973
 20
103.6861883254
 30
0.0
 10
67.1636054044
 20
103.7578439161
 30
0.0
 10
67.1456608935
 20
103.8066826075
 30
0.0
 10
67.1358999246
 20
103.8315277643
 30
0.0
  0
SPLINE
  5
440
100
AcDbEntity
  8
DEFAULT_2
100
AcDbSpline
 62
8
  6
HIDDEN
 70
0
 71
3
 72
9
 73
5
 74
0
 42
0.0000001
 43
0.0000001
 44
0.0000000001
 40
0.0
 40
0.0
 40
0.0
 40
0.0
 40
0.2521920203
 40
1.0
 40
1.0
 40
1.0
 40
1.0
 10
67.1358999246
 20
103.8315277643
 30
0.0
 10
67.1294104562
 20
103.8480457824
 30
0.0
 10
67.1027048805
 20
103.9131534667
 30
0.0
 10
67.0723820899
 20
103.97680541
 30
0.0
 10
67.0473873162
 20
104.0231148397
 30
0.0
  0
SPLINE
  5
441
100
AcDbEntity
  8
DEFAULT_2
100
AcDbSpline
 62
8
  6
HIDDEN
 70
0
 71
3
 72
14
 73
10
 74
0
 42
0.0000001
 43
0.0000001
 44
0.0000000001
 40
0.0
 40
0.0
 40
0.0
 40
0.0
 40
0.0805617912
 40
0.1718295938
 40
0.2789178472
 40
0.4032481423
 40
0.5438450656
 40
0.6951010366
 40
1.0
 40
1.0
 40
1.0
 40
1.0
 10
67.0473873162
 20
105.0139589389
 30
0.0
 10
67.020581354
 20
105.0019387696
 30
0.0
 10
66.9675819069
 20
104.966053054
 30
0.0
 10
66.9052744583
 20
104.8835992886
 30
0.0
 10
66.8646766104
 20
104.7715938489
 30
0.0
 10
66.8503572319
 20
104.6354752076
 30
0.0
 10
66.8680436733
 20
104.4838208744
 30
0.0
 10
66.9245990719
 20
104.2731964443
 30
0.0
 10
66.9945783857
 20
104.1209573521
 30
0.0
 10
67.0473873162
 20
104.0231148397
 30
0.0
  0
SPLINE
  5
442
100
AcDbEntity
  8
DEFAULT_2
100
AcDbSpline
 62
8
  6
HIDDEN
 70
0
 71
3
 72
10
 73
6
 74
0
 42
0.0000001
 43
0.0000001
 44
0.0000000001
 40
0.0
 40
0.0
 40
0.0
 40
0.0
 40
0.3177774129
 40
0.6005475257
 40
1.0
 40
1.0
 40
1.0
 40
1.0
 10
67.2182308955
 20
105.451685425
 30
0.0
 10
67.2182309475
 20
105.5032007549
 30
0.0
 10
67.2102434308
 20
105.6014292596
 30
0.0
 10
67.1719756577
 20
105.7564154969
 30
0.0
 10
67.1064745268
 20
105.8629179506
 30
0.0
 10
67.0473873162
 20
105.8894134843
 30
0.0
  0
SPLINE
  5
443
100
AcDbEntity
  8
DEFAULT_2
100
AcDbSpline
 62
8
  6
HIDDEN
 70
0
 71
3
 72
14
 73
10
 74
0
 42
0.0000001
 43
0.0000001
 44
0.0000000001
 40
0.0
 40
0.0
 40
0.0
 40
0.0
 40
0.3050259422
 40
0.4563281837
 40
0.5970549242
 40
0.7212668187
 40
0.828252979
 40
0.9194814589
 40
1.0
 40
1.0
 40
1.0
 40
1.0
 10
67.0473873162
 20
106.8802575835
 30
0.0
 10
66.9945565114
 20
106.7823745432
 30
0.0
 10
66.9244232355
 20
106.6301170979
 30
0.0
 10
66.8681203659
 20
106.4193066378
 30
0.0
 10
66.8503729118
 20
106.2676617071
 30
0.0
 10
66.8645682506
 20
106.1315339898
 30
0.0
 10
66.9054079466
 20
106.0197211321
 30
0.0
 10
66.9676241762
 20
105.9373106959
 30
0.0
 10
67.0205958051
 20
105.9014271735
 30
0.0
 10
67.0473873162
 20
105.8894134843
 30
0.0
  0
SPLINE
  5
444
100
AcDbEntity
  8
DEFAULT_2
100
AcDbSpline
 62
8
  6
HIDDEN
 70
0
 71
3
 72
9
 73
5
 74
0
 42
0.0000001
 43
0.0000001
 44
0.0000000001
 40
0.0
 40
0.0
 40
0.0
 40
0.0
 40
0.2449691492
 40
1.0
 40
1.0
 40
1.0
 40
1.0
 10
67.0473873162
 20
106.8802575835
 30
0.0
 10
67.055575292
 20
106.8954279745
 30
0.0
 10
67.0879273238
 20
106.957930107
 30
0.0
 10
67.116471002
 20
107.0223911475
 30
0.0
 10
67.1358999199
 20
107.0718446804
 30
0.0
  0
SPLINE
  5
445
100
AcDbEntity
  8
0
100
AcDbSpline
 62
7
  6
CONTINUOUS
 70
0
 71
3
 72
15
 73
11
 74
0
 42
0.0000001
 43
0.0000001
 44
0.0000000001
 40
0.0
 40
0.0
 40
0.0
 40
0.0
 40
0.1250245363
 40
0.2500293709
 40
0.3750074733
 40
0.4999666607
 40
0.6249397407
 40
0.7499416157
 40
0.8749633898
 40
1.0
 40
1.0
 40
1.0
 40
1.0
 10
73.1492171611
 20
98.4507627765
 30
0.0
 10
73.0608969556
 20
98.6150866841
 30
0.0
 10
72.8966474493
 20
98.9507015283
 30
0.0
 10
72.7057752733
 20
99.4782644455
 30
0.0
 10
72.5949928539
 20
100.0293971287
 30
0.0
 10
72.5870559992
 20
100.592216398
 30
0.0
 10
72.6839999901
 20
101.1461078836
 30
0.0
 10
72.8648631282
 20
101.6773630656
 30
0.0
 10
73.1044023991
 20
102.1840486785
 30
0.0
 10
73.2905230645
 20
102.5077999201
 30
0.0
 10
73.3880497633
 20
102.6668535921
 30
0.0
  0
SPLINE
  5
446
100
AcDbEntity
  8
0
100
AcDbSpline
 62
7
  6
CONTINUOUS
 70
0
 71
3
 72
9
 73
5
 74
0
 42
0.0000001
 43
0.0000001
 44
0.0000000001
 40
0.0
 40
0.0
 40
0.0
 40
0.0
 40
0.5009299054
 40
1.0
 40
1.0
 40
1.0
 40
1.0
 10
73.1490474197
 20
100.6016862116
 30
0.0
 10
73.1602019608
 20
100.7597041133
 30
0.0
 10
73.2153766992
 20
101.073448361
 30
0.0
 10
73.3242618379
 20
101.3717350011
 30
0.0
 10
73.3880497633
 20
101.5160928658
 30
0.0
  0
SPLINE
  5
447
100
AcDbEntity
  8
0
100
AcDbSpline
 62
7
  6
CONTINUOUS
 70
0
 71
3
 72
9
 73
5
 74
0
 42
0.0000001
 43
0.0000001
 44
0.0000000001
 40
0.0
 40
0.0
 40
0.0
 40
0.0
 40
0.4990716142
 40
1.0
 40
1.0
 40
1.0
 40
1.0
 10
73.3880497633
 20
99.1872795574
 30
0.0
 10
73.3242616443
 20
99.3316378601
 30
0.0
 10
73.2153766895
 20
99.6299245714
 30
0.0
 10
73.1602019269
 20
99.9436687908
 30
0.0
 10
73.1490474197
 20
100.1016862116
 30
0.0
  0
SPLINE
  5
448
100
AcDbEntity
  8
A_RUNDUNGEN
100
AcDbSpline
 62
7
  6
CONTINUOUS
 70
0
 71
3
 72
12
 73
8
 74
0
 42
0.0000001
 43
0.0000001
 44
0.0000000001
 40
0.0
 40
0.0
 40
0.0
 40
0.0
 40
0.3016107602
 40
0.5768876566
 40
0.8129482285
 40
0.9127827061
 40
1.0
 40
1.0
 40
1.0
 40
1.0
 10
77.5510341148
 20
59.2251714908
 30
0.0
 10
77.6543537239
 20
59.1756830069
 30
0.0
 10
77.8532652326
 20
59.0834920111
 30
0.0
 10
78.1397247099
 20
58.968316231
 30
0.0
 10
78.363585489
 20
58.9022515854
 30
0.0
 10
78.5236957452
 20
58.8841785749
 30
0.0
 10
78.5953279801
 20
58.8889601346
 30
0.0
 10
78.6277202101
 20
58.8959013268
 30
0.0
  0
SPLINE
  5
449
100
AcDbEntity
  8
A_RUNDUNGEN
100
AcDbSpline
 62
7
  6
CONTINUOUS
 70
0
 71
3
 72
14
 73
10
 74
0
 42
0.0000001
 43
0.0000001
 44
0.0000000001
 40
0.0
 40
0.0
 40
0.0
 40
0.0
 40
0.3820312629
 40
0.5547774445
 40
0.7063658421
 40
0.831008064
 40
0.9236945867
 40
0.9807312587
 40
1.0
 40
1.0
 40
1.0
 40
1.0
 10
85.7908359492
 20
61.4516862469
 30
0.0
 10
85.8043149082
 20
61.3244450839
 30
0.0
 10
85.8235943923
 20
61.1396369858
 30
0.0
 10
85.8474865375
 20
60.9042639699
 30
0.0
 10
85.8622435745
 20
60.7546154584
 30
0.0
 10
85.8740281224
 20
60.6316151569
 30
0.0
 10
85.8825945638
 20
60.5401287682
 30
0.0
 10
85.8869491278
 20
60.4836787478
 30
0.0
 10
85.8878937991
 20
60.4581393039
 30
0.0
 10
85.88804977
 20
60.4516862471
 30
0.0
  0
ENDSEC
  0
SECTION
  2
OBJECTS
  0
DICTIONARY
  5
44A
100
AcDbDictionary
  3
ACAD_GROUP
350
44B
  3
ACAD_MLINESTYLE
350
44C
  0
DICTIONARY
  5
44B
102
{ACAD_REACTORS
330
44A
102
}
100
AcDbDictionary
  0
DICTIONARY
  5
44C
102
{ACAD_REACTORS
330
44A
102
}
100
AcDbDictionary
  3
STANDARD
350
44D
  0
MLINESTYLE
  5
44D
102
{ACAD_REACTORS
330
44C
102
}
100
AcDbMlineStyle
  2
STANDARD
 70
0
  3

 62
256
 51
90.0
 52
90.0
 71
2
 49
0.5
 62
256
  6
BYLAYER
 49
-0.5
 62
256
  6
BYLAYER
  0
ENDSEC
  0
EOF
