999
DXF file: d:\tmp\workingDir\0000049970\te_680_3d_fd_q01_01.dxf
999
Pro/ENGINEER 2016130 by Parametric Technology Corporation
  0
SECTION
  2
HEADER
  9
$ACADVER
  1
AC1014
  9
$DWGCODEPAGE
  3
ANSI_1252
  9
$EXTMAX
 10
199.898
 20
200.0
 30
0.0
  9
$EXTMIN
 10
0.0
 20
0.0
 30
0.0
  9
$LIMMIN
 10
0.0
 20
0.0
  9
$LIMMAX
 10
199.898
 20
200.0
  9
$VIEWCTR
 10
99.949
 20
100.0
  9
$VIEWSIZE
 40
200.0
  9
$CLAYER
  8
0
  9
$LTSCALE
 40
13.037037037
  9
$CELTYPE
  6
BYLAYER
  9
$DIMSCALE
 40
1.0
  9
$DIMASZ
 40
3.5
  9
$DIMEXO
 40
0.0
  9
$DIMDLI
 40
9.0074074074
  9
$DIMEXE
 40
2.0
  9
$DIMCEN
 40
2.1333333333
  9
$DIMLFAC
 40
1.0
  9
$DIMBLK
  1
_ARROW_FILLED
  9
$DIMALT
 70
0
  9
$DIMALTF
 40
0.0393700787
  9
$DIMTXT
 40
3.5
  9
$DIMTOL
 70
1
  9
$DIMLIM
 70
0
  9
$DIMTFAC
 40
1.0
  9
$DIMTP
 40
0.01
  9
$DIMTM
 40
0.01
  9
$DIMGAP
 40
0.625
  9
$AUNITS
 70
0
  9
$PDMODE
 70
0
  9
$PDSIZE
 40
0.04
  9
$HANDSEED
  5
452
  9
$TILEMODE
 70
1
  9
$MEASUREMENT
 70
1
  0
ENDSEC
  0
SECTION
  2
CLASSES
  0
ENDSEC
  0
SECTION
  2
TABLES
  0
TABLE
  2
VPORT
  5
8
100
AcDbSymbolTable
 70
2
  0
VPORT
  5
1F4
100
AcDbSymbolTableRecord
100
AcDbViewportTableRecord
  2
*ACTIVE
 70
0
 10
0.0
 20
0.0
 11
1.0
 21
1.0
 12
99.949
 22
100.0
 13
0.0
 23
0.0
 14
1.0
 24
1.0
 15
0.0
 25
0.0
 16
0.0
 26
0.0
 36
1.0
 17
0.0
 27
0.0
 37
0.0
 40
200.0
 41
0.99949
 42
50.0
 43
0.0
 44
0.0
 50
0.0
 51
0.0
 71
0
 72
100
 73
1
 74
1
 75
0
 76
0
 77
0
 78
0
  0
ENDTAB
  0
TABLE
  2
LTYPE
  5
5
100
AcDbSymbolTable
 70
6
  0
LTYPE
  5
14
100
AcDbSymbolTableRecord
100
AcDbLinetypeTableRecord
  2
BYBLOCK
 70
0
  3

 72
65
 73
0
 40
0.0
  0
LTYPE
  5
15
100
AcDbSymbolTableRecord
100
AcDbLinetypeTableRecord
  2
BYLAYER
 70
0
  3

 72
65
 73
0
 40
0.0
  0
LTYPE
  5
16
100
AcDbSymbolTableRecord
100
AcDbLinetypeTableRecord
  2
CONTINUOUS
 70
64
  3
Solid line
 72
65
 73
0
 40
0.0
  0
LTYPE
  5
1F5
100
AcDbSymbolTableRecord
100
AcDbLinetypeTableRecord
  2
CENTER
 70
64
  3
____ _ ____ _ ____ _ ____ _ ____ _ ____ _ ____
 72
65
 73
4
 40
0.6
 49
0.375
 74
0
 49
-0.075
 74
0
 49
0.075
 74
0
 49
-0.075
 74
0
  0
LTYPE
  5
1F6
100
AcDbSymbolTableRecord
100
AcDbLinetypeTableRecord
  2
HIDDEN
 70
64
  3
- - - - - - - - - - - - - - - - - - - -
 72
65
 73
2
 40
0.2
 49
0.1
 74
0
 49
-0.1
 74
0
  0
LTYPE
  5
1F7
100
AcDbSymbolTableRecord
100
AcDbLinetypeTableRecord
  2
PHANTOM
 70
64
  3
_____ _ _ _____ _ _ _____ _ _ _____
 72
65
 73
6
 40
0.8
 49
0.45
 74
0
 49
-0.05
 74
0
 49
0.1
 74
0
 49
-0.05
 74
0
 49
0.1
 74
0
 49
-0.05
 74
0
  0
LTYPE
  5
1F8
100
AcDbSymbolTableRecord
100
AcDbLinetypeTableRecord
  2
DOT
 70
64
  3
. . . . . . . . . . . . . . . . . . . .
 72
65
 73
2
 40
0.2
 49
0.1
 74
0
 49
-0.1
 74
0
  0
LTYPE
  5
1F9
100
AcDbSymbolTableRecord
100
AcDbLinetypeTableRecord
  2
DASHED
 70
64
  3
- - - - - - - - - - - - - - - - - - - -
 72
65
 73
2
 40
0.2
 49
0.1
 74
0
 49
-0.1
 74
0
  0
ENDTAB
  0
TABLE
  2
LAYER
  5
2
100
AcDbSymbolTable
 70
36
  0
LAYER
  5
10
100
AcDbSymbolTableRecord
100
AcDbLayerTableRecord
  2
0
 70
0
 62
7
  6
CONTINUOUS
  0
LAYER
  5
1FA
100
AcDbSymbolTableRecord
100
AcDbLayerTableRecord
  2
DEFAULT_1
 70
0
 62
7
  6
CENTER
  0
LAYER
  5
1FB
100
AcDbSymbolTableRecord
100
AcDbLayerTableRecord
  2
DEFAULT_2
 70
0
 62
8
  6
HIDDEN
  0
LAYER
  5
1FC
100
AcDbSymbolTableRecord
100
AcDbLayerTableRecord
  2
DEFAULT_3
 70
0
 62
7
  6
PHANTOM
  0
LAYER
  5
1FD
100
AcDbSymbolTableRecord
100
AcDbLayerTableRecord
  2
A_ACHSEN
 70
0
 62
7
  6
CONTINUOUS
  0
LAYER
  5
1FE
100
AcDbSymbolTableRecord
100
AcDbLayerTableRecord
  2
A_BASISEBENEN
 70
0
 62
7
  6
CONTINUOUS
  0
LAYER
  5
1FF
100
AcDbSymbolTableRecord
100
AcDbLayerTableRecord
  2
A_BEMASSUNGEN
 70
0
 62
7
  6
CONTINUOUS
  0
LAYER
  5
200
100
AcDbSymbolTableRecord
100
AcDbLayerTableRecord
  2
A_BOHRUNGEN
 70
0
 62
7
  6
CONTINUOUS
  0
LAYER
  5
201
100
AcDbSymbolTableRecord
100
AcDbLayerTableRecord
  2
A_EBENEN
 70
0
 62
7
  6
CONTINUOUS
  0
LAYER
  5
202
100
AcDbSymbolTableRecord
100
AcDbLayerTableRecord
  2
A_FASEN
 70
0
 62
7
  6
CONTINUOUS
  0
LAYER
  5
203
100
AcDbSymbolTableRecord
100
AcDbLayerTableRecord
  2
A_FLAECHEN
 70
0
 62
7
  6
CONTINUOUS
  0
LAYER
  5
204
100
AcDbSymbolTableRecord
100
AcDbLayerTableRecord
  2
A_FL_VERBAENDE
 70
0
 62
7
  6
CONTINUOUS
  0
LAYER
  5
205
100
AcDbSymbolTableRecord
100
AcDbLayerTableRecord
  2
A_KURVEN
 70
0
 62
7
  6
CONTINUOUS
  0
LAYER
  5
206
100
AcDbSymbolTableRecord
100
AcDbLayerTableRecord
  2
A_NOTIZEN_SYMB
 70
0
 62
7
  6
CONTINUOUS
  0
LAYER
  5
207
100
AcDbSymbolTableRecord
100
AcDbLayerTableRecord
  2
A_PUNKTE
 70
0
 62
7
  6
CONTINUOUS
  0
LAYER
  5
208
100
AcDbSymbolTableRecord
100
AcDbLayerTableRecord
  2
A_RUNDUNGEN
 70
0
 62
7
  6
CONTINUOUS
  0
LAYER
  5
209
100
AcDbSymbolTableRecord
100
AcDbLayerTableRecord
  2
BASISEBENEN
 70
0
 62
7
  6
CONTINUOUS
  0
LAYER
  5
20A
100
AcDbSymbolTableRecord
100
AcDbLayerTableRecord
  2
GRUNDEBENE
 70
0
 62
7
  6
CONTINUOUS
  0
LAYER
  5
20B
100
AcDbSymbolTableRecord
100
AcDbLayerTableRecord
  2
IMPORT_KE
 70
0
 62
7
  6
CONTINUOUS
  0
LAYER
  5
20C
100
AcDbSymbolTableRecord
100
AcDbLayerTableRecord
  2
INTFCLR_3
 70
0
 62
7
  6
CONTINUOUS
  0
LAYER
  5
20D
100
AcDbSymbolTableRecord
100
AcDbLayerTableRecord
  2
INTF_1
 70
0
 62
7
  6
CONTINUOUS
  0
LAYER
  5
20E
100
AcDbSymbolTableRecord
100
AcDbLayerTableRecord
  2
INTF_2
 70
0
 62
7
  6
CONTINUOUS
  0
LAYER
  5
20F
100
AcDbSymbolTableRecord
100
AcDbLayerTableRecord
  2
INTF_3
 70
0
 62
7
  6
CONTINUOUS
  0
LAYER
  5
210
100
AcDbSymbolTableRecord
100
AcDbLayerTableRecord
  2
INTF_4
 70
0
 62
7
  6
CONTINUOUS
  0
LAYER
  5
211
100
AcDbSymbolTableRecord
100
AcDbLayerTableRecord
  2
INTF_MAGENTA
 70
0
 62
7
  6
CONTINUOUS
  0
LAYER
  5
212
100
AcDbSymbolTableRecord
100
AcDbLayerTableRecord
  2
INTF_YELLOW
 70
0
 62
7
  6
CONTINUOUS
  0
LAYER
  5
213
100
AcDbSymbolTableRecord
100
AcDbLayerTableRecord
  2
PROFIL
 70
0
 62
7
  6
CONTINUOUS
  0
LAYER
  5
214
100
AcDbSymbolTableRecord
100
AcDbLayerTableRecord
  2
QUER1
 70
0
 62
7
  6
CONTINUOUS
  0
LAYER
  5
215
100
AcDbSymbolTableRecord
100
AcDbLayerTableRecord
  2
QUER2
 70
0
 62
7
  6
CONTINUOUS
  0
LAYER
  5
216
100
AcDbSymbolTableRecord
100
AcDbLayerTableRecord
  2
QUER3
 70
0
 62
7
  6
CONTINUOUS
  0
LAYER
  5
217
100
AcDbSymbolTableRecord
100
AcDbLayerTableRecord
  2
SCHRAFFUR
 70
0
 62
7
  6
CONTINUOUS
  0
ENDTAB
  0
TABLE
  2
STYLE
  5
3
100
AcDbSymbolTable
 70
1
  0
STYLE
  5
11
100
AcDbSymbolTableRecord
100
AcDbTextStyleTableRecord
  2
STANDARD
 70
0
 40
0.0
 41
1.0
 50
0.0
 71
0
 42
0.2
  3
txt
  4

  0
STYLE
  5
218
100
AcDbSymbolTableRecord
100
AcDbTextStyleTableRecord
  2
TEXTSTYLE_1
 70
0
 40
0.0
 41
0.8
 50
0.0
 71
0
 42
0.2
  3
gdt
  4

  0
STYLE
  5
219
100
AcDbSymbolTableRecord
100
AcDbTextStyleTableRecord
  2
TEXTSTYLE_2
 70
0
 40
0.0
 41
1.0
 50
0.0
 71
0
 42
0.2
  3
txt
  4

  0
ENDTAB
  0
TABLE
  2
VIEW
  5
6
100
AcDbSymbolTable
 70
0
  0
ENDTAB
  0
TABLE
  2
UCS
  5
7
100
AcDbSymbolTable
 70
0
  0
ENDTAB
  0
TABLE
  2
APPID
  5
9
100
AcDbSymbolTable
 70
1
  0
APPID
  5
21A
100
AcDbSymbolTableRecord
100
AcDbRegAppTableRecord
  2
ACAD
 70
0
  0
ENDTAB
  0
TABLE
  2
BLOCK_RECORD
  5
1
100
AcDbSymbolTable
 70
0
  0
BLOCK_RECORD
  5
1F
100
AcDbSymbolTableRecord
100
AcDbBlockTableRecord
  2
*MODEL_SPACE
  0
BLOCK_RECORD
  5
1B
100
AcDbSymbolTableRecord
100
AcDbBlockTableRecord
  2
*PAPER_SPACE
  0
BLOCK_RECORD
  5
21B
100
AcDbSymbolTableRecord
100
AcDbBlockTableRecord
  2
_ARROW_FILLED
  0
BLOCK_RECORD
  5
21C
100
AcDbSymbolTableRecord
100
AcDbBlockTableRecord
  2
*D0
  0
BLOCK_RECORD
  5
21D
100
AcDbSymbolTableRecord
100
AcDbBlockTableRecord
  2
*D1
  0
BLOCK_RECORD
  5
21E
100
AcDbSymbolTableRecord
100
AcDbBlockTableRecord
  2
*D2
  0
BLOCK_RECORD
  5
21F
100
AcDbSymbolTableRecord
100
AcDbBlockTableRecord
  2
*D3
  0
BLOCK_RECORD
  5
220
100
AcDbSymbolTableRecord
100
AcDbBlockTableRecord
  2
*D4
  0
BLOCK_RECORD
  5
221
100
AcDbSymbolTableRecord
100
AcDbBlockTableRecord
  2
*D5
  0
BLOCK_RECORD
  5
222
100
AcDbSymbolTableRecord
100
AcDbBlockTableRecord
  2
*D6
  0
BLOCK_RECORD
  5
223
100
AcDbSymbolTableRecord
100
AcDbBlockTableRecord
  2
*D7
  0
BLOCK_RECORD
  5
224
100
AcDbSymbolTableRecord
100
AcDbBlockTableRecord
  2
*D8
  0
BLOCK_RECORD
  5
225
100
AcDbSymbolTableRecord
100
AcDbBlockTableRecord
  2
*D9
  0
ENDTAB
  0
TABLE
  2
DIMSTYLE
  5
A
100
AcDbSymbolTable
 70
1
  0
DIMSTYLE
105
226
100
AcDbSymbolTableRecord
100
AcDbDimStyleTableRecord
  2
STANDARD
 70
0
  3

  4

  5
_ARROW_FILLED
  6
_ARROW_FILLED
  7
_ARROW_FILLED
 40
1.0
 41
3.5
 42
0.0
 43
0.38
 44
2.0
 45
0.0
 46
0.0
 47
0.01
 48
0.01
140
3.5
141
0.09
142
0.0
143
25.4
144
1.0
145
0.0
146
1.0
147
0.625
 71
1.0
 72
0.0
 73
0
 74
0
 75
0
 76
0
 77
1
 78
8
170
0
171
2
172
0
173
0
174
0
175
0
176
0
177
0
178
5
270
2
271
2
272
2
273
2
274
2
275
0
280
0
281
0
282
0
283
1
284
8
285
0
286
0
287
3
288
0
340
11
  0
DIMSTYLE
105
227
100
AcDbSymbolTableRecord
100
AcDbDimStyleTableRecord
  2
DIMSTYLE_1
 70
0
  3

  4

  5
_ARROW_FILLED
  6
_ARROW_FILLED
  7
_ARROW_FILLED
 40
1.0
 41
3.5
 42
0.0
 43
0.38
 44
2.0
 45
0.0
 46
0.0
 47
0.2
 48
0.2
140
3.5
141
0.09
142
0.0
143
25.4
144
1.0
145
0.0
146
1.0
147
0.875
 71
0.0
 72
0.0
 73
0
 74
0
 75
0
 76
0
 77
1
 78
8
170
0
171
2
172
0
173
0
174
0
175
0
176
0
177
0
178
5
270
2
271
4
272
4
273
2
274
2
275
0
280
0
281
0
282
0
283
1
284
8
285
0
286
0
287
3
288
0
340
219
  0
DIMSTYLE
105
228
100
AcDbSymbolTableRecord
100
AcDbDimStyleTableRecord
  2
DIMSTYLE_2
 70
0
  3

  4

  5
_ARROW_FILLED
  6
_ARROW_FILLED
  7
_ARROW_FILLED
 40
1.0
 41
3.5
 42
0.0
 43
0.38
 44
2.0
 45
0.0
 46
0.0
 47
0.3
 48
0.3
140
3.5
141
0.09
142
0.0
143
25.4
144
1.0
145
0.0
146
1.0
147
0.875
 71
0.0
 72
0.0
 73
0
 74
0
 75
0
 76
0
 77
1
 78
8
170
0
171
2
172
0
173
0
174
0
175
0
176
0
177
0
178
5
270
2
271
4
272
4
273
2
274
2
275
0
280
0
281
0
282
0
283
1
284
8
285
0
286
0
287
3
288
0
340
219
  0
DIMSTYLE
105
229
100
AcDbSymbolTableRecord
100
AcDbDimStyleTableRecord
  2
DIMSTYLE_3
 70
0
  3

  4

  5
_ARROW_FILLED
  6
_ARROW_FILLED
  7
_ARROW_FILLED
 40
1.0
 41
3.5
 42
0.0
 43
0.38
 44
2.0
 45
0.0
 46
0.0
 47
0.1
 48
0.1
140
3.5
141
0.09
142
0.0
143
25.4
144
1.0
145
0.0
146
1.0
147
0.875
 71
0.0
 72
0.0
 73
0
 74
0
 75
0
 76
0
 77
1
 78
8
170
0
171
2
172
0
173
0
174
0
175
0
176
0
177
0
178
5
270
2
271
0
272
0
273
2
274
2
275
0
280
0
281
0
282
0
283
1
284
8
285
0
286
0
287
3
288
0
340
219
  0
DIMSTYLE
105
22A
100
AcDbSymbolTableRecord
100
AcDbDimStyleTableRecord
  2
DIMSTYLE_4
 70
0
  3

  4

  5
_ARROW_FILLED
  6
_ARROW_FILLED
  7
_ARROW_FILLED
 40
1.0
 41
3.5
 42
0.0
 43
0.38
 44
2.0
 45
0.0
 46
0.0
 47
0.1
 48
0.1
140
3.5
141
0.09
142
0.0
143
25.4
144
1.0
145
0.0
146
1.0
147
0.875
 71
0.0
 72
0.0
 73
0
 74
0
 75
0
 76
0
 77
1
 78
8
170
0
171
2
172
0
173
0
174
0
175
0
176
0
177
0
178
5
270
2
271
4
272
4
273
2
274
2
275
0
280
0
281
0
282
0
283
1
284
8
285
0
286
0
287
3
288
0
340
219
  0
ENDTAB
  0
ENDSEC
  0
SECTION
  2
BLOCKS
  0
BLOCK
  5
20
100
AcDbEntity
  8
0
100
AcDbBlockBegin
  2
*MODEL_SPACE
 70
0
 10
0.0
 20
0.0
 30
0.0
  3
*MODEL_SPACE
  1

  0
ENDBLK
  5
21
100
AcDbEntity
  8
0
100
AcDbBlockEnd
  0
BLOCK
  5
1C
100
AcDbEntity
  8
0
100
AcDbBlockBegin
  2
*PAPER_SPACE
 70
0
 10
0.0
 20
0.0
 30
0.0
  3
*PAPER_SPACE
  1

  0
ENDBLK
  5
1D
100
AcDbEntity
  8
0
100
AcDbBlockEnd
  0
BLOCK
  5
22B
100
AcDbEntity
  8
0
100
AcDbBlockBegin
  2
_ARROW_FILLED
 70
64
 10
0.0
 20
0.0
  3
_ARROW_FILLED
  1

  0
SOLID
  5
22C
100
AcDbEntity
  8
0
  6
BYBLOCK
 62
0
100
AcDbTrace
 10
0.0
 20
0.0
 11
-1.0
 21
0.1428571429
 12
-1.0
 22
-0.1428571429
 13
-1.0
 23
-0.1428571429
  0
ENDBLK
  5
22D
100
AcDbEntity
  8
0
  6
BYBLOCK
 62
0
100
AcDbBlockEnd
  0
BLOCK
  5
22E
100
AcDbEntity
  8
A_BEMASSUNGEN
100
AcDbBlockBegin
 62
2
  6
CONTINUOUS
  2
*D0
 70
65
 10
0.0
 20
0.0
  3
*D0
  1

  0
MTEXT
  5
22F
100
AcDbEntity
  8
A_BEMASSUNGEN
100
AcDbMText
 62
5
  6
CONTINUOUS
  7
TEXTSTYLE_2
 71
2
 72
1
 10
73.5932003797
 20
54.3590718141
 30
0.0
 11
1.0
 21
0.0
 31
0.0
  1
18
 40
3.5
 41
7.125
  0
LINE
  5
230
100
AcDbEntity
  8
A_BEMASSUNGEN
100
AcDbLine
 62
2
  6
CONTINUOUS
 10
64.5932003797
 20
61.1802505402
 11
64.5932003797
 21
47.9840718141
  0
LINE
  5
231
100
AcDbEntity
  8
A_BEMASSUNGEN
100
AcDbLine
 62
2
  6
CONTINUOUS
 10
82.5932003797
 20
83.1803648203
 11
82.5932003797
 21
47.9840718141
  0
LINE
  5
232
100
AcDbEntity
  8
A_BEMASSUNGEN
100
AcDbLine
 62
2
  6
CONTINUOUS
 10
64.5932003797
 20
49.9840718141
 11
73.5932003797
 21
49.9840718141
  0
LINE
  5
233
100
AcDbEntity
  8
A_BEMASSUNGEN
100
AcDbLine
 62
2
  6
CONTINUOUS
 10
82.5932003797
 20
49.9840718141
 11
73.5932003797
 21
49.9840718141
  0
INSERT
  5
234
100
AcDbEntity
  8
A_BEMASSUNGEN
100
AcDbBlockReference
 62
2
  6
CONTINUOUS
  2
_ARROW_FILLED
 10
64.5932003797
 20
49.9840718141
 41
3.5
 42
3.5
 43
3.5
 50
180.0
  0
INSERT
  5
235
100
AcDbEntity
  8
A_BEMASSUNGEN
100
AcDbBlockReference
 62
2
  6
CONTINUOUS
  2
_ARROW_FILLED
 10
82.5932003797
 20
49.9840718141
 41
3.5
 42
3.5
 43
3.5
  0
ENDBLK
  5
236
100
AcDbEntity
  8
0
  6
BYBLOCK
 62
0
100
AcDbBlockEnd
  0
BLOCK
  5
237
100
AcDbEntity
  8
A_BEMASSUNGEN
100
AcDbBlockBegin
 62
2
  6
CONTINUOUS
  2
*D1
 70
65
 10
0.0
 20
0.0
  3
*D1
  1

  0
MTEXT
  5
238
100
AcDbEntity
  8
A_BEMASSUNGEN
100
AcDbMText
 62
5
  6
CONTINUOUS
  7
TEXTSTYLE_2
 71
2
 72
1
 10
83.3432003797
 20
44.7806346738
 30
0.0
 11
1.0
 21
0.0
 31
0.0
  1
37.5
 40
3.5
 41
14.625
  0
LINE
  5
239
100
AcDbEntity
  8
A_BEMASSUNGEN
100
AcDbLine
 62
2
  6
CONTINUOUS
 10
64.5932003797
 20
61.1802505402
 11
64.5932003797
 21
38.4056346738
  0
LINE
  5
23A
100
AcDbEntity
  8
A_BEMASSUNGEN
100
AcDbLine
 62
2
  6
CONTINUOUS
 10
102.0932003797
 20
61.0802505402
 11
102.0932003797
 21
38.4056346738
  0
LINE
  5
23B
100
AcDbEntity
  8
A_BEMASSUNGEN
100
AcDbLine
 62
2
  6
CONTINUOUS
 10
64.5932003797
 20
40.4056346738
 11
83.3432003797
 21
40.4056346738
  0
LINE
  5
23C
100
AcDbEntity
  8
A_BEMASSUNGEN
100
AcDbLine
 62
2
  6
CONTINUOUS
 10
102.0932003797
 20
40.4056346738
 11
83.3432003797
 21
40.4056346738
  0
INSERT
  5
23D
100
AcDbEntity
  8
A_BEMASSUNGEN
100
AcDbBlockReference
 62
2
  6
CONTINUOUS
  2
_ARROW_FILLED
 10
64.5932003797
 20
40.4056346738
 41
3.5
 42
3.5
 43
3.5
 50
180.0
  0
INSERT
  5
23E
100
AcDbEntity
  8
A_BEMASSUNGEN
100
AcDbBlockReference
 62
2
  6
CONTINUOUS
  2
_ARROW_FILLED
 10
102.0932003797
 20
40.4056346738
 41
3.5
 42
3.5
 43
3.5
  0
ENDBLK
  5
23F
100
AcDbEntity
  8
0
  6
BYBLOCK
 62
0
100
AcDbBlockEnd
  0
BLOCK
  5
240
100
AcDbEntity
  8
A_BEMASSUNGEN
100
AcDbBlockBegin
 62
2
  6
CONTINUOUS
  2
*D2
 70
65
 10
0.0
 20
0.0
  3
*D2
  1

  0
MTEXT
  5
241
100
AcDbEntity
  8
A_BEMASSUNGEN
100
AcDbMText
 62
5
  6
CONTINUOUS
  7
TEXTSTYLE_2
 71
3
 72
1
 10
50.4581117845
 20
69.8470347847
 30
0.0
 11
0.0
 21
1.0
 31
0.0
  1
6
 40
3.5
 41
4.125
  0
LINE
  5
242
100
AcDbEntity
  8
A_BEMASSUNGEN
100
AcDbLine
 62
2
  6
CONTINUOUS
 10
64.5932003797
 20
73.1802505402
 11
52.8331117845
 21
73.1802505402
  0
LINE
  5
243
100
AcDbEntity
  8
A_BEMASSUNGEN
100
AcDbLine
 62
2
  6
CONTINUOUS
 10
54.8331117845
 20
79.0802505402
 11
54.8331117845
 21
86.5802505402
  0
LINE
  5
244
100
AcDbEntity
  8
A_BEMASSUNGEN
100
AcDbLine
 62
2
  6
CONTINUOUS
 10
54.8331117845
 20
86.5802505402
 11
54.8331117845
 21
76.1302505402
  0
LINE
  5
245
100
AcDbEntity
  8
A_BEMASSUNGEN
100
AcDbLine
 62
2
  6
CONTINUOUS
 10
54.8331117845
 20
73.1802505402
 11
54.8331117845
 21
67.0970347847
  0
LINE
  5
246
100
AcDbEntity
  8
A_BEMASSUNGEN
100
AcDbLine
 62
2
  6
CONTINUOUS
 10
54.8331117845
 20
67.0970347847
 11
54.8331117845
 21
76.1302505402
  0
INSERT
  5
247
100
AcDbEntity
  8
A_BEMASSUNGEN
100
AcDbBlockReference
 62
2
  6
CONTINUOUS
  2
_ARROW_FILLED
 10
54.8331117845
 20
79.0802505402
 41
3.5
 42
3.5
 43
3.5
 50
270.0
  0
INSERT
  5
248
100
AcDbEntity
  8
A_BEMASSUNGEN
100
AcDbBlockReference
 62
2
  6
CONTINUOUS
  2
_ARROW_FILLED
 10
54.8331117845
 20
73.1802505402
 41
3.5
 42
3.5
 43
3.5
 50
90.0
  0
ENDBLK
  5
249
100
AcDbEntity
  8
0
  6
BYBLOCK
 62
0
100
AcDbBlockEnd
  0
BLOCK
  5
24A
100
AcDbEntity
  8
A_BEMASSUNGEN
100
AcDbBlockBegin
 62
2
  6
CONTINUOUS
  2
*D3
 70
65
 10
0.0
 20
0.0
  3
*D3
  1

  0
MTEXT
  5
24B
100
AcDbEntity
  8
A_BEMASSUNGEN
100
AcDbMText
 62
5
  6
CONTINUOUS
  7
TEXTSTYLE_2
 71
2
 72
1
 10
37.4843839572
 20
68.5802505402
 30
0.0
 11
0.0
 21
1.0
 31
0.0
  1
21
 40
3.5
 41
7.125
  0
LINE
  5
24C
100
AcDbEntity
  8
A_BEMASSUNGEN
100
AcDbLine
 62
2
  6
CONTINUOUS
 10
67.5932003797
 20
58.0802505402
 11
39.8593839572
 21
58.0802505402
  0
LINE
  5
24D
100
AcDbEntity
  8
A_BEMASSUNGEN
100
AcDbLine
 62
2
  6
CONTINUOUS
 10
41.8593839572
 20
79.0802505402
 11
41.8593839572
 21
68.5802505402
  0
LINE
  5
24E
100
AcDbEntity
  8
A_BEMASSUNGEN
100
AcDbLine
 62
2
  6
CONTINUOUS
 10
41.8593839572
 20
58.0802505402
 11
41.8593839572
 21
68.5802505402
  0
INSERT
  5
24F
100
AcDbEntity
  8
A_BEMASSUNGEN
100
AcDbBlockReference
 62
2
  6
CONTINUOUS
  2
_ARROW_FILLED
 10
41.8593839572
 20
79.0802505402
 41
3.5
 42
3.5
 43
3.5
 50
90.0
  0
INSERT
  5
250
100
AcDbEntity
  8
A_BEMASSUNGEN
100
AcDbBlockReference
 62
2
  6
CONTINUOUS
  2
_ARROW_FILLED
 10
41.8593839572
 20
58.0802505402
 41
3.5
 42
3.5
 43
3.5
 50
270.0
  0
ENDBLK
  5
251
100
AcDbEntity
  8
0
  6
BYBLOCK
 62
0
100
AcDbBlockEnd
  0
BLOCK
  5
252
100
AcDbEntity
  8
A_BEMASSUNGEN
100
AcDbBlockBegin
 62
2
  6
CONTINUOUS
  2
*D4
 70
65
 10
0.0
 20
0.0
  3
*D4
  1

  0
MTEXT
  5
253
100
AcDbEntity
  8
A_BEMASSUNGEN
100
AcDbMText
 62
5
  6
CONTINUOUS
  7
TEXTSTYLE_2
 71
2
 72
1
 10
5.2945801524
 20
83.5802505402
 30
0.0
 11
0.0
 21
1.0
 31
0.0
  1
9
 40
3.5
 41
4.125
  0
LINE
  5
254
100
AcDbEntity
  8
A_BEMASSUNGEN
100
AcDbLine
 62
2
  6
CONTINUOUS
 10
19.5932003797
 20
79.0802505402
 11
7.6695801524
 21
79.0802505402
  0
LINE
  5
255
100
AcDbEntity
  8
A_BEMASSUNGEN
100
AcDbLine
 62
2
  6
CONTINUOUS
 10
44.5932003797
 20
88.0802505402
 11
7.6695801524
 21
88.0802505402
  0
LINE
  5
256
100
AcDbEntity
  8
A_BEMASSUNGEN
100
AcDbLine
 62
2
  6
CONTINUOUS
 10
9.6695801524
 20
79.0802505402
 11
9.6695801524
 21
71.5802505402
  0
LINE
  5
257
100
AcDbEntity
  8
A_BEMASSUNGEN
100
AcDbLine
 62
2
  6
CONTINUOUS
 10
9.6695801524
 20
71.5802505402
 11
9.6695801524
 21
83.5802505402
  0
LINE
  5
258
100
AcDbEntity
  8
A_BEMASSUNGEN
100
AcDbLine
 62
2
  6
CONTINUOUS
 10
9.6695801524
 20
88.0802505402
 11
9.6695801524
 21
95.5802505402
  0
LINE
  5
259
100
AcDbEntity
  8
A_BEMASSUNGEN
100
AcDbLine
 62
2
  6
CONTINUOUS
 10
9.6695801524
 20
95.5802505402
 11
9.6695801524
 21
83.5802505402
  0
INSERT
  5
25A
100
AcDbEntity
  8
A_BEMASSUNGEN
100
AcDbBlockReference
 62
2
  6
CONTINUOUS
  2
_ARROW_FILLED
 10
9.6695801524
 20
79.0802505402
 41
3.5
 42
3.5
 43
3.5
 50
90.0
  0
INSERT
  5
25B
100
AcDbEntity
  8
A_BEMASSUNGEN
100
AcDbBlockReference
 62
2
  6
CONTINUOUS
  2
_ARROW_FILLED
 10
9.6695801524
 20
88.0802505402
 41
3.5
 42
3.5
 43
3.5
 50
270.0
  0
ENDBLK
  5
25C
100
AcDbEntity
  8
0
  6
BYBLOCK
 62
0
100
AcDbBlockEnd
  0
BLOCK
  5
25D
100
AcDbEntity
  8
A_BEMASSUNGEN
100
AcDbBlockBegin
 62
2
  6
CONTINUOUS
  2
*D5
 70
65
 10
0.0
 20
0.0
  3
*D5
  1

  0
MTEXT
  5
25E
100
AcDbEntity
  8
A_BEMASSUNGEN
100
AcDbMText
 62
5
  6
CONTINUOUS
  7
TEXTSTYLE_2
 71
2
 72
1
 10
5.2945801524
 20
103.0802505402
 30
0.0
 11
0.0
 21
1.0
 31
0.0
  1
30
 40
3.5
 41
7.875
  0
LINE
  5
25F
100
AcDbEntity
  8
A_BEMASSUNGEN
100
AcDbLine
 62
2
  6
CONTINUOUS
 10
44.5932003797
 20
88.0802505402
 11
7.6695801524
 21
88.0802505402
  0
LINE
  5
260
100
AcDbEntity
  8
A_BEMASSUNGEN
100
AcDbLine
 62
2
  6
CONTINUOUS
 10
44.5932003797
 20
118.0802505402
 11
7.6695801524
 21
118.0802505402
  0
LINE
  5
261
100
AcDbEntity
  8
A_BEMASSUNGEN
100
AcDbLine
 62
2
  6
CONTINUOUS
 10
9.6695801524
 20
88.0802505402
 11
9.6695801524
 21
103.0802505402
  0
LINE
  5
262
100
AcDbEntity
  8
A_BEMASSUNGEN
100
AcDbLine
 62
2
  6
CONTINUOUS
 10
9.6695801524
 20
118.0802505402
 11
9.6695801524
 21
103.0802505402
  0
INSERT
  5
263
100
AcDbEntity
  8
A_BEMASSUNGEN
100
AcDbBlockReference
 62
2
  6
CONTINUOUS
  2
_ARROW_FILLED
 10
9.6695801524
 20
88.0802505402
 41
3.5
 42
3.5
 43
3.5
 50
270.0
  0
INSERT
  5
264
100
AcDbEntity
  8
A_BEMASSUNGEN
100
AcDbBlockReference
 62
2
  6
CONTINUOUS
  2
_ARROW_FILLED
 10
9.6695801524
 20
118.0802505402
 41
3.5
 42
3.5
 43
3.5
 50
90.0
  0
ENDBLK
  5
265
100
AcDbEntity
  8
0
  6
BYBLOCK
 62
0
100
AcDbBlockEnd
  0
BLOCK
  5
266
100
AcDbEntity
  8
A_BEMASSUNGEN
100
AcDbBlockBegin
 62
2
  6
CONTINUOUS
  2
*D6
 70
65
 10
0.0
 20
0.0
  3
*D6
  1

  0
MTEXT
  5
267
100
AcDbEntity
  8
A_BEMASSUNGEN
100
AcDbMText
 62
5
  6
CONTINUOUS
  7
TEXTSTYLE_2
 71
1
 72
1
 10
87.7955962957
 20
168.6879919927
 30
0.0
 11
1.0
 21
0.0
 31
0.0
  1
5
 40
3.5
 41
3.75
  0
LINE
  5
268
100
AcDbEntity
  8
A_BEMASSUNGEN
100
AcDbLine
 62
2
  6
CONTINUOUS
 10
82.5932003797
 20
106.0802505402
 11
82.5932003797
 21
166.3129919927
  0
LINE
  5
269
100
AcDbEntity
  8
A_BEMASSUNGEN
100
AcDbLine
 62
2
  6
CONTINUOUS
 10
77.5932003797
 20
117.4802505402
 11
77.5932003797
 21
166.3129919927
  0
LINE
  5
26A
100
AcDbEntity
  8
A_BEMASSUNGEN
100
AcDbLine
 62
2
  6
CONTINUOUS
 10
82.5932003797
 20
164.3129919927
 11
90.2955962957
 21
164.3129919927
  0
LINE
  5
26B
100
AcDbEntity
  8
A_BEMASSUNGEN
100
AcDbLine
 62
2
  6
CONTINUOUS
 10
90.2955962957
 20
164.3129919927
 11
80.0932003797
 21
164.3129919927
  0
LINE
  5
26C
100
AcDbEntity
  8
A_BEMASSUNGEN
100
AcDbLine
 62
2
  6
CONTINUOUS
 10
77.5932003797
 20
164.3129919927
 11
70.0932003797
 21
164.3129919927
  0
LINE
  5
26D
100
AcDbEntity
  8
A_BEMASSUNGEN
100
AcDbLine
 62
2
  6
CONTINUOUS
 10
70.0932003797
 20
164.3129919927
 11
80.0932003797
 21
164.3129919927
  0
INSERT
  5
26E
100
AcDbEntity
  8
A_BEMASSUNGEN
100
AcDbBlockReference
 62
2
  6
CONTINUOUS
  2
_ARROW_FILLED
 10
82.5932003797
 20
164.3129919927
 41
3.5
 42
3.5
 43
3.5
 50
180.0
  0
INSERT
  5
26F
100
AcDbEntity
  8
A_BEMASSUNGEN
100
AcDbBlockReference
 62
2
  6
CONTINUOUS
  2
_ARROW_FILLED
 10
77.5932003797
 20
164.3129919927
 41
3.5
 42
3.5
 43
3.5
  0
ENDBLK
  5
270
100
AcDbEntity
  8
0
  6
BYBLOCK
 62
0
100
AcDbBlockEnd
  0
BLOCK
  5
271
100
AcDbEntity
  8
A_BEMASSUNGEN
100
AcDbBlockBegin
 62
2
  6
CONTINUOUS
  2
*D7
 70
65
 10
0.0
 20
0.0
  3
*D7
  1

  0
MTEXT
  5
272
100
AcDbEntity
  8
A_BEMASSUNGEN
100
AcDbMText
 62
5
  6
CONTINUOUS
  7
TEXTSTYLE_2
 71
2
 72
1
 10
61.0932003797
 20
168.6879919927
 30
0.0
 11
1.0
 21
0.0
 31
0.0
  1
33
 40
3.5
 41
7.5
  0
LINE
  5
273
100
AcDbEntity
  8
A_BEMASSUNGEN
100
AcDbLine
 62
2
  6
CONTINUOUS
 10
77.5932003797
 20
118.2874577474
 11
77.5932003797
 21
166.3129919927
  0
LINE
  5
274
100
AcDbEntity
  8
A_BEMASSUNGEN
100
AcDbLine
 62
2
  6
CONTINUOUS
 10
44.5932003797
 20
118.0802505402
 11
44.5932003797
 21
166.3129919927
  0
LINE
  5
275
100
AcDbEntity
  8
A_BEMASSUNGEN
100
AcDbLine
 62
2
  6
CONTINUOUS
 10
77.5932003797
 20
164.3129919927
 11
61.0932003797
 21
164.3129919927
  0
LINE
  5
276
100
AcDbEntity
  8
A_BEMASSUNGEN
100
AcDbLine
 62
2
  6
CONTINUOUS
 10
44.5932003797
 20
164.3129919927
 11
61.0932003797
 21
164.3129919927
  0
INSERT
  5
277
100
AcDbEntity
  8
A_BEMASSUNGEN
100
AcDbBlockReference
 62
2
  6
CONTINUOUS
  2
_ARROW_FILLED
 10
77.5932003797
 20
164.3129919927
 41
3.5
 42
3.5
 43
3.5
  0
INSERT
  5
278
100
AcDbEntity
  8
A_BEMASSUNGEN
100
AcDbBlockReference
 62
2
  6
CONTINUOUS
  2
_ARROW_FILLED
 10
44.5932003797
 20
164.3129919927
 41
3.5
 42
3.5
 43
3.5
 50
180.0
  0
ENDBLK
  5
279
100
AcDbEntity
  8
0
  6
BYBLOCK
 62
0
100
AcDbBlockEnd
  0
BLOCK
  5
27A
100
AcDbEntity
  8
A_BEMASSUNGEN
100
AcDbBlockBegin
 62
2
  6
CONTINUOUS
  2
*D8
 70
65
 10
0.0
 20
0.0
  3
*D8
  1

  0
MTEXT
  5
27B
100
AcDbEntity
  8
A_BEMASSUNGEN
100
AcDbMText
 62
5
  6
CONTINUOUS
  7
TEXTSTYLE_2
 71
3
 72
1
 10
183.4060124583
 20
53.1279248943
 30
0.0
 11
0.0
 21
1.0
 31
0.0
  1
3
 40
3.5
 41
3.75
  0
LINE
  5
27C
100
AcDbEntity
  8
A_BEMASSUNGEN
100
AcDbLine
 62
2
  6
CONTINUOUS
 10
167.0932003797
 20
58.0802505402
 11
189.7810124583
 21
58.0802505402
  0
LINE
  5
27D
100
AcDbEntity
  8
A_BEMASSUNGEN
100
AcDbLine
 62
2
  6
CONTINUOUS
 10
102.0932003797
 20
61.0802505402
 11
189.7810124583
 21
61.0802505402
  0
LINE
  5
27E
100
AcDbEntity
  8
A_BEMASSUNGEN
100
AcDbLine
 62
2
  6
CONTINUOUS
 10
187.7810124583
 20
58.0802505402
 11
187.7810124583
 21
50.6279248943
  0
LINE
  5
27F
100
AcDbEntity
  8
A_BEMASSUNGEN
100
AcDbLine
 62
2
  6
CONTINUOUS
 10
187.7810124583
 20
50.6279248943
 11
187.7810124583
 21
59.5802505402
  0
LINE
  5
280
100
AcDbEntity
  8
A_BEMASSUNGEN
100
AcDbLine
 62
2
  6
CONTINUOUS
 10
187.7810124583
 20
61.0802505402
 11
187.7810124583
 21
68.5802505402
  0
LINE
  5
281
100
AcDbEntity
  8
A_BEMASSUNGEN
100
AcDbLine
 62
2
  6
CONTINUOUS
 10
187.7810124583
 20
68.5802505402
 11
187.7810124583
 21
59.5802505402
  0
INSERT
  5
282
100
AcDbEntity
  8
A_BEMASSUNGEN
100
AcDbBlockReference
 62
2
  6
CONTINUOUS
  2
_ARROW_FILLED
 10
187.7810124583
 20
58.0802505402
 41
3.5
 42
3.5
 43
3.5
 50
90.0
  0
INSERT
  5
283
100
AcDbEntity
  8
A_BEMASSUNGEN
100
AcDbBlockReference
 62
2
  6
CONTINUOUS
  2
_ARROW_FILLED
 10
187.7810124583
 20
61.0802505402
 41
3.5
 42
3.5
 43
3.5
 50
270.0
  0
ENDBLK
  5
284
100
AcDbEntity
  8
0
  6
BYBLOCK
 62
0
100
AcDbBlockEnd
  0
BLOCK
  5
285
100
AcDbEntity
  8
A_BEMASSUNGEN
100
AcDbBlockBegin
 62
2
  6
CONTINUOUS
  2
*D9
 70
65
 10
0.0
 20
0.0
  3
*D9
  1

  0
MTEXT
  5
286
100
AcDbEntity
  8
A_BEMASSUNGEN
100
AcDbMText
 62
5
  6
CONTINUOUS
  7
TEXTSTYLE_2
 71
2
 72
1
 10
183.4060124583
 20
81.4302505402
 30
0.0
 11
0.0
 21
1.0
 31
0.0
  1
40.7
 40
3.5
 41
15.375
  0
LINE
  5
287
100
AcDbEntity
  8
A_BEMASSUNGEN
100
AcDbLine
 62
2
  6
CONTINUOUS
 10
102.0932003797
 20
61.0802505402
 11
189.7810124583
 21
61.0802505402
  0
LINE
  5
288
100
AcDbEntity
  8
A_BEMASSUNGEN
100
AcDbLine
 62
2
  6
CONTINUOUS
 10
102.0932003797
 20
101.7802505402
 11
189.7810124583
 21
101.7802505402
  0
LINE
  5
289
100
AcDbEntity
  8
A_BEMASSUNGEN
100
AcDbLine
 62
2
  6
CONTINUOUS
 10
187.7810124583
 20
61.0802505402
 11
187.7810124583
 21
81.4302505402
  0
LINE
  5
28A
100
AcDbEntity
  8
A_BEMASSUNGEN
100
AcDbLine
 62
2
  6
CONTINUOUS
 10
187.7810124583
 20
101.7802505402
 11
187.7810124583
 21
81.4302505402
  0
INSERT
  5
28B
100
AcDbEntity
  8
A_BEMASSUNGEN
100
AcDbBlockReference
 62
2
  6
CONTINUOUS
  2
_ARROW_FILLED
 10
187.7810124583
 20
61.0802505402
 41
3.5
 42
3.5
 43
3.5
 50
270.0
  0
INSERT
  5
28C
100
AcDbEntity
  8
A_BEMASSUNGEN
100
AcDbBlockReference
 62
2
  6
CONTINUOUS
  2
_ARROW_FILLED
 10
187.7810124583
 20
101.7802505402
 41
3.5
 42
3.5
 43
3.5
 50
90.0
  0
ENDBLK
  5
28D
100
AcDbEntity
  8
0
  6
BYBLOCK
 62
0
100
AcDbBlockEnd
  0
ENDSEC
  0
SECTION
  2
ENTITIES
  0
DIMENSION
  5
28E
100
AcDbEntity
  8
A_BEMASSUNGEN
100
AcDbDimension
 62
2
  6
CONTINUOUS
  2
*D0
 10
82.5932003797
 20
49.9840718141
 11
73.0931984954
 21
49.9840718141
 70
160
  3
DIMSTYLE_1
100
AcDbAlignedDimension
 13
64.5932003797
 23
61.1802505402
 14
82.5932003797
 24
83.1803648203
100
AcDbRotatedDimension
  0
DIMENSION
  5
28F
100
AcDbEntity
  8
A_BEMASSUNGEN
100
AcDbDimension
 62
2
  6
CONTINUOUS
  2
*D1
 10
102.0932003797
 20
40.4056346738
 11
82.8431984954
 21
40.4056346738
 70
160
  3
DIMSTYLE_2
100
AcDbAlignedDimension
 13
64.5932003797
 23
61.1802505402
 14
102.0932003797
 24
61.0802505402
100
AcDbRotatedDimension
  0
DIMENSION
  5
290
100
AcDbEntity
  8
A_BEMASSUNGEN
100
AcDbDimension
 62
2
  6
CONTINUOUS
  2
*D2
 10
54.8331117845
 20
73.1802505402
 11
54.8331117845
 21
67.9720375834
 70
160
  3
DIMSTYLE_3
100
AcDbAlignedDimension
 13
75.5932003797
 23
79.0802505402
 14
64.5932003797
 24
73.1802505402
 50
270.0
100
AcDbRotatedDimension
  0
DIMENSION
  5
291
100
AcDbEntity
  8
A_BEMASSUNGEN
100
AcDbDimension
 62
2
  6
CONTINUOUS
  2
*D3
 10
41.8593839572
 20
58.0802505402
 11
41.8593839572
 21
68.0802488891
 70
160
  3
DIMSTYLE_1
100
AcDbAlignedDimension
 13
19.5932003797
 23
79.0802505402
 14
67.5932003797
 24
58.0802505402
 50
270.0
100
AcDbRotatedDimension
  0
DIMENSION
  5
292
100
AcDbEntity
  8
A_BEMASSUNGEN
100
AcDbDimension
 62
2
  6
CONTINUOUS
  2
*D4
 10
9.6695801524
 20
88.0802505402
 11
9.6695801524
 21
83.0802505382
 70
160
  3
DIMSTYLE_1
100
AcDbAlignedDimension
 13
19.5932003797
 23
79.0802505402
 14
44.5932003797
 24
88.0802505402
 50
90.0
100
AcDbRotatedDimension
  0
DIMENSION
  5
293
100
AcDbEntity
  8
A_BEMASSUNGEN
100
AcDbDimension
 62
2
  6
CONTINUOUS
  2
*D5
 10
9.6695801524
 20
118.0802505402
 11
9.6695801524
 21
102.5802505382
 70
160
  3
DIMSTYLE_1
100
AcDbAlignedDimension
 13
44.5932003797
 23
88.0802505402
 14
44.5932003797
 24
118.0802505402
 50
90.0
100
AcDbRotatedDimension
  0
DIMENSION
  5
294
100
AcDbEntity
  8
A_BEMASSUNGEN
100
AcDbDimension
 62
2
  6
CONTINUOUS
  2
*D6
 10
77.5932003797
 20
164.3129919927
 11
88.5455928819
 21
164.3129919927
 70
160
  3
DIMSTYLE_4
100
AcDbAlignedDimension
 13
82.5932003797
 23
106.0802505402
 14
77.5932003797
 24
117.4802505402
 50
180.0
100
AcDbRotatedDimension
  0
DIMENSION
  5
295
100
AcDbEntity
  8
A_BEMASSUNGEN
100
AcDbDimension
 62
2
  6
CONTINUOUS
  2
*D7
 10
44.5932003797
 20
164.3129919927
 11
60.5931984954
 21
164.3129919927
 70
160
  3
DIMSTYLE_2
100
AcDbAlignedDimension
 13
77.5932003797
 23
118.2874577474
 14
44.5932003797
 24
118.0802505402
 50
180.0
100
AcDbRotatedDimension
  0
DIMENSION
  5
296
100
AcDbEntity
  8
A_BEMASSUNGEN
100
AcDbDimension
 62
2
  6
CONTINUOUS
  2
*D8
 10
187.7810124583
 20
61.0802505402
 11
187.7810124583
 21
51.3779292184
 70
160
  3
DIMSTYLE_4
100
AcDbAlignedDimension
 13
167.0932003797
 23
58.0802505402
 14
102.0932003797
 24
61.0802505402
 50
90.0
100
AcDbRotatedDimension
  0
DIMENSION
  5
297
100
AcDbEntity
  8
A_BEMASSUNGEN
100
AcDbDimension
 62
2
  6
CONTINUOUS
  2
*D9
 10
187.7810124583
 20
101.7802505402
 11
187.7810124583
 21
80.9302548643
 70
160
  3
DIMSTYLE_2
100
AcDbAlignedDimension
 13
102.0932003797
 23
61.0802505402
 14
102.0932003797
 24
101.7802505402
 50
90.0
100
AcDbRotatedDimension
  0
LINE
  5
298
100
AcDbEntity
  8
A_NOTIZEN_SYMB
100
AcDbLine
 62
7
  6
CONTINUOUS
 10
84.4267573544
 20
120.4018872032
 11
86.329260732
 21
123.4665892969
  0
LINE
  5
299
100
AcDbEntity
  8
A_NOTIZEN_SYMB
100
AcDbLine
 62
7
  6
CONTINUOUS
 10
83.5761128452
 20
121.077032741
 11
83.5920333755
 21
120.050158533
  0
LINE
  5
29A
100
AcDbEntity
  8
A_NOTIZEN_SYMB
100
AcDbLine
 62
7
  6
CONTINUOUS
 10
93.5759197319
 20
123.4779981532
 11
92.5162492314
 21
122.4183276527
  0
LINE
  5
29B
100
AcDbEntity
  8
A_NOTIZEN_SYMB
100
AcDbLine
 62
7
  6
CONTINUOUS
 10
93.3110021068
 20
122.0668023424
 11
94.9589272101
 21
123.7147274456
  0
LINE
  5
29C
100
AcDbEntity
  8
A_NOTIZEN_SYMB
100
AcDbLine
 62
7
  6
CONTINUOUS
 10
90.1263072222
 20
120.3780064076
 11
90.9939761266
 21
121.1262713344
  0
LINE
  5
29D
100
AcDbEntity
  8
A_NOTIZEN_SYMB
100
AcDbLine
 62
7
  6
CONTINUOUS
 10
91.3999496507
 20
120.6964170148
 11
90.2342486024
 21
119.6911335419
  0
LINE
  5
29E
100
AcDbEntity
  8
0
100
AcDbLine
 62
7
  6
CONTINUOUS
 10
17.5932003797
 20
155.0802505402
 11
17.5932003797
 21
152.9193495402
  0
LINE
  5
29F
100
AcDbEntity
  8
IMPORT_KE
100
AcDbLine
 62
2
  6
CONTINUOUS
 10
17.5932003797
 20
155.0802505402
 11
17.5932003797
 21
152.9193495402
  0
LINE
  5
2A0
100
AcDbEntity
  8
0
100
AcDbLine
 62
7
  6
CONTINUOUS
 10
17.5932003797
 20
99.4060145402
 11
17.5932003797
 21
81.0802505402
  0
LINE
  5
2A1
100
AcDbEntity
  8
IMPORT_KE
100
AcDbLine
 62
2
  6
CONTINUOUS
 10
17.5932003797
 20
99.4060145402
 11
17.5932003797
 21
81.0802505402
  0
LINE
  5
2A2
100
AcDbEntity
  8
0
100
AcDbLine
 62
7
  6
CONTINUOUS
 10
18.0932003797
 20
130.4103785402
 11
18.0932003797
 21
115.7501225402
  0
LINE
  5
2A3
100
AcDbEntity
  8
IMPORT_KE
100
AcDbLine
 62
2
  6
CONTINUOUS
 10
18.0932003797
 20
130.4103785402
 11
18.0932003797
 21
115.7501225402
  0
LINE
  5
2A4
100
AcDbEntity
  8
0
100
AcDbLine
 62
7
  6
CONTINUOUS
 10
21.5932003797
 20
150.5358425402
 11
21.5932003797
 21
145.7282675402
  0
LINE
  5
2A5
100
AcDbEntity
  8
IMPORT_KE
100
AcDbLine
 62
2
  6
CONTINUOUS
 10
21.5932003797
 20
150.5358425402
 11
21.5932003797
 21
145.7282675402
  0
LINE
  5
2A6
100
AcDbEntity
  8
0
100
AcDbLine
 62
7
  6
CONTINUOUS
 10
27.5932003797
 20
144.8828565402
 11
27.5932003797
 21
132.2776435402
  0
LINE
  5
2A7
100
AcDbEntity
  8
IMPORT_KE
100
AcDbLine
 62
2
  6
CONTINUOUS
 10
27.5932003797
 20
144.8828565402
 11
27.5932003797
 21
132.2776435402
  0
LINE
  5
2A8
100
AcDbEntity
  8
0
100
AcDbLine
 62
7
  6
CONTINUOUS
 10
27.5932003797
 20
113.8828565402
 11
27.5932003797
 21
101.2776435402
  0
LINE
  5
2A9
100
AcDbEntity
  8
0
100
AcDbLine
 62
7
  6
CONTINUOUS
 10
44.5932003797
 20
118.0802505402
 11
44.5932003797
 21
88.0802505402
  0
LINE
  5
2AA
100
AcDbEntity
  8
0
100
AcDbLine
 62
7
  6
CONTINUOUS
 10
45.0932003797
 20
92.7302505402
 11
45.0932003797
 21
99.7302505402
  0
LINE
  5
2AB
100
AcDbEntity
  8
0
100
AcDbLine
 62
7
  6
CONTINUOUS
 10
45.0932003797
 20
109.5802505402
 11
45.0932003797
 21
115.5802505402
  0
LINE
  5
2AC
100
AcDbEntity
  8
0
100
AcDbLine
 62
7
  6
CONTINUOUS
 10
47.3432003797
 20
103.0802505402
 11
47.3432003797
 21
109.0802505402
  0
LINE
  5
2AD
100
AcDbEntity
  8
0
100
AcDbLine
 62
7
  6
CONTINUOUS
 10
49.5932003797
 20
100.8302505402
 11
49.5932003797
 21
111.3302505402
  0
LINE
  5
2AE
100
AcDbEntity
  8
0
100
AcDbLine
 62
7
  6
CONTINUOUS
 10
50.5932003797
 20
117.8977788393
 11
50.5932003797
 21
88.262722241
  0
LINE
  5
2AF
100
AcDbEntity
  8
A_FASEN
100
AcDbLine
 62
7
  6
CONTINUOUS
 10
51.0932003797
 20
92.7802505402
 11
51.0932003797
 21
99.7802505402
  0
LINE
  5
2B0
100
AcDbEntity
  8
0
100
AcDbLine
 62
7
  6
CONTINUOUS
 10
52.0932003797
 20
99.7802505402
 11
52.0932003797
 21
92.7802505402
  0
LINE
  5
2B1
100
AcDbEntity
  8
0
100
AcDbLine
 62
7
  6
CONTINUOUS
 10
53.3932003797
 20
91.2653172549
 11
53.3932003797
 21
114.8951838254
  0
LINE
  5
2B2
100
AcDbEntity
  8
0
100
AcDbLine
 62
7
  6
CONTINUOUS
 10
55.0932003797
 20
110.1802505402
 11
55.0932003797
 21
106.1802505402
  0
LINE
  5
2B3
100
AcDbEntity
  8
0
100
AcDbLine
 62
7
  6
CONTINUOUS
 10
55.0932003797
 20
99.6802505402
 11
55.0932003797
 21
95.6802505402
  0
LINE
  5
2B4
100
AcDbEntity
  8
0
100
AcDbLine
 62
7
  6
CONTINUOUS
 10
55.5932003797
 20
110.6802505402
 11
55.5932003797
 21
105.6802505402
  0
LINE
  5
2B5
100
AcDbEntity
  8
0
100
AcDbLine
 62
7
  6
CONTINUOUS
 10
55.5932003797
 20
100.1802505402
 11
55.5932003797
 21
95.1802505402
  0
LINE
  5
2B6
100
AcDbEntity
  8
0
100
AcDbLine
 62
7
  6
CONTINUOUS
 10
56.5932003797
 20
114.7492904057
 11
56.5932003797
 21
110.6802505402
  0
LINE
  5
2B7
100
AcDbEntity
  8
0
100
AcDbLine
 62
7
  6
CONTINUOUS
 10
56.5932003797
 20
91.4112106746
 11
56.5932003797
 21
105.6802505402
  0
LINE
  5
2B8
100
AcDbEntity
  8
0
100
AcDbLine
 62
7
  6
CONTINUOUS
 10
67.5932003797
 20
58.0802505402
 11
167.0932003797
 21
58.0802505402
  0
LINE
  5
2B9
100
AcDbEntity
  8
0
100
AcDbLine
 62
7
  6
CONTINUOUS
 10
61.5932003797
 20
92.2176938578
 11
61.5932003797
 21
103.7428072225
  0
LINE
  5
2BA
100
AcDbEntity
  8
A_FASEN
100
AcDbLine
 62
7
  6
CONTINUOUS
 10
63.5932003797
 20
99.7802505402
 11
63.5932003797
 21
92.7802505402
  0
LINE
  5
2BB
100
AcDbEntity
  8
0
100
AcDbLine
 62
7
  6
CONTINUOUS
 10
64.0932003797
 20
116.30170873
 11
64.0932003797
 21
110.6802505402
  0
LINE
  5
2BC
100
AcDbEntity
  8
0
100
AcDbLine
 62
7
  6
CONTINUOUS
 10
64.0932003797
 20
105.6802505402
 11
64.0932003797
 21
100.2802505402
  0
LINE
  5
2BD
100
AcDbEntity
  8
0
100
AcDbLine
 62
7
  6
CONTINUOUS
 10
64.0932003797
 20
92.2802505402
 11
64.0932003797
 21
89.8587923503
  0
LINE
  5
2BE
100
AcDbEntity
  8
QUER2
100
AcDbLine
 62
7
  6
CONTINUOUS
 10
64.0932003797
 20
91.4802505402
 11
64.0932003797
 21
104.0802505402
  0
LINE
  5
2BF
100
AcDbEntity
  8
QUER2
100
AcDbLine
 62
7
  6
CONTINUOUS
 10
64.0932003797
 20
112.2802505402
 11
64.0932003797
 21
114.4802505402
  0
LINE
  5
2C0
100
AcDbEntity
  8
0
100
AcDbLine
 62
7
  6
CONTINUOUS
 10
64.5932003797
 20
61.1552894992
 11
64.5932003797
 21
61.0802505402
  0
LINE
  5
2C1
100
AcDbEntity
  8
A_RUNDUNGEN
100
AcDbLine
 62
7
  6
CONTINUOUS
 10
64.5932003797
 20
61.1802505402
 11
64.5932003797
 21
73.1802505402
  0
LINE
  5
2C2
100
AcDbEntity
  8
0
100
AcDbLine
 62
7
  6
CONTINUOUS
 10
47.3432003797
 20
109.0802505402
 11
49.5932003797
 21
111.3302505402
  0
LINE
  5
2C3
100
AcDbEntity
  8
A_RUNDUNGEN
100
AcDbLine
 62
7
  6
CONTINUOUS
 10
64.5932003797
 20
61.1802505402
 11
69.7180159918
 21
61.2070842572
  0
LINE
  5
2C4
100
AcDbEntity
  8
A_RUNDUNGEN
100
AcDbLine
 62
7
  6
CONTINUOUS
 10
70.5276581378
 20
61.2113235723
 11
81.5932003797
 21
61.2692631455
  0
LINE
  5
2C5
100
AcDbEntity
  8
0
100
AcDbLine
 62
7
  6
CONTINUOUS
 10
81.5932003797
 20
61.2692631455
 11
100.1036723073
 21
61.3661846355
  0
LINE
  5
2C6
100
AcDbEntity
  8
0
100
AcDbLine
 62
7
  6
CONTINUOUS
 10
64.5932003797
 20
61.0802505402
 11
102.0932003797
 21
61.0802505402
  0
LINE
  5
2C7
100
AcDbEntity
  8
0
100
AcDbLine
 62
7
  6
CONTINUOUS
 10
170.0932003797
 20
61.0802505402
 11
174.5932003797
 21
61.0802505402
  0
LINE
  5
2C8
100
AcDbEntity
  8
QUER2
100
AcDbLine
 62
7
  6
CONTINUOUS
 10
77.0932003797
 20
61.6802505402
 11
70.0932003797
 21
61.6802505402
  0
LINE
  5
2C9
100
AcDbEntity
  8
0
100
AcDbLine
 62
7
  6
CONTINUOUS
 10
88.5932003797
 20
63.1802505402
 11
93.5932003797
 21
63.1802505402
  0
LINE
  5
2CA
100
AcDbEntity
  8
0
100
AcDbLine
 62
7
  6
CONTINUOUS
 10
45.0932003797
 20
99.7302505402
 11
44.5932003797
 21
100.2302505402
  0
LINE
  5
2CB
100
AcDbEntity
  8
0
100
AcDbLine
 62
7
  6
CONTINUOUS
 10
47.3432003797
 20
103.0802505402
 11
49.5932003797
 21
100.8302505402
  0
LINE
  5
2CC
100
AcDbEntity
  8
0
100
AcDbLine
 62
7
  6
CONTINUOUS
 10
55.0932003797
 20
95.6802505402
 11
55.5932003797
 21
95.1802505402
  0
LINE
  5
2CD
100
AcDbEntity
  8
0
100
AcDbLine
 62
7
  6
CONTINUOUS
 10
51.0932003797
 20
99.7802505402
 11
50.5932003797
 21
100.2802505402
  0
LINE
  5
2CE
100
AcDbEntity
  8
QUER2
100
AcDbLine
 62
7
  6
CONTINUOUS
 10
68.16374795
 20
79.3550053763
 11
68.2685418237
 21
78.0507586393
  0
LINE
  5
2CF
100
AcDbEntity
  8
QUER2
100
AcDbLine
 62
7
  6
CONTINUOUS
 10
67.0932003797
 20
113.9802505402
 11
67.0932003797
 21
112.1302505402
  0
LINE
  5
2D0
100
AcDbEntity
  8
DEFAULT_2
100
AcDbLine
 62
8
  6
HIDDEN
 10
67.0932003797
 20
110.6802505402
 11
67.0932003797
 21
105.6802505402
  0
LINE
  5
2D1
100
AcDbEntity
  8
A_RUNDUNGEN
100
AcDbLine
 62
7
  6
CONTINUOUS
 10
67.0932003797
 20
112.1302505402
 11
67.0932003797
 21
104.2302505402
  0
LINE
  5
2D2
100
AcDbEntity
  8
QUER2
100
AcDbLine
 62
7
  6
CONTINUOUS
 10
67.0932003797
 20
104.3375565536
 11
67.0932003797
 21
102.3802505402
  0
LINE
  5
2D3
100
AcDbEntity
  8
0
100
AcDbLine
 62
7
  6
CONTINUOUS
 10
67.9932003797
 20
116.5095629111
 11
67.9932003797
 21
116.3357435144
  0
LINE
  5
2D4
100
AcDbEntity
  8
0
100
AcDbLine
 62
7
  6
CONTINUOUS
 10
67.9932003797
 20
89.8247575659
 11
67.9932003797
 21
89.6509381693
  0
LINE
  5
2D5
100
AcDbEntity
  8
0
100
AcDbLine
 62
7
  6
CONTINUOUS
 10
69.01180296
 20
116.3446327245
 11
69.01180296
 21
114.7802505402
  0
LINE
  5
2D6
100
AcDbEntity
  8
0
100
AcDbLine
 62
7
  6
CONTINUOUS
 10
69.01180296
 20
91.1802505402
 11
69.01180296
 21
89.8158683558
  0
LINE
  5
2D7
100
AcDbEntity
  8
IMPORT_KE
100
AcDbLine
 62
2
  6
CONTINUOUS
 10
69.0932003797
 20
124.0802505402
 11
69.0932003797
 21
119.0802505402
  0
LINE
  5
2D8
100
AcDbEntity
  8
0
100
AcDbLine
 62
7
  6
CONTINUOUS
 10
69.0932003797
 20
119.0802505402
 11
69.0932003797
 21
124.0802505402
  0
LINE
  5
2D9
100
AcDbEntity
  8
A_ACHSEN
100
AcDbLine
 62
7
  6
CENTER
 10
70.0932003797
 20
59.2778082527
 11
70.0932003797
 21
74.0826928276
  0
LINE
  5
2DA
100
AcDbEntity
  8
A_RUNDUNGEN
100
AcDbLine
 62
7
  6
CONTINUOUS
 10
72.0932003797
 20
112.1302505402
 11
72.0932003797
 21
104.2302505402
  0
LINE
  5
2DB
100
AcDbEntity
  8
DEFAULT_2
100
AcDbLine
 62
8
  6
HIDDEN
 10
68.6255466616
 20
108.1802505402
 11
69.9233814343
 21
110.4281663063
  0
LINE
  5
2DC
100
AcDbEntity
  8
0
100
AcDbLine
 62
7
  6
CONTINUOUS
 10
55.5932003797
 20
110.6802505402
 11
55.0932003797
 21
110.1802505402
  0
LINE
  5
2DD
100
AcDbEntity
  8
0
100
AcDbLine
 62
7
  6
CONTINUOUS
 10
45.0932003797
 20
92.7302505402
 11
44.5932003797
 21
92.2302505402
  0
LINE
  5
2DE
100
AcDbEntity
  8
A_RUNDUNGEN
100
AcDbLine
 62
7
  6
CONTINUOUS
 10
81.3328708167
 20
61.6244656338
 11
81.5932003797
 21
61.6802505402
  0
LINE
  5
2DF
100
AcDbEntity
  8
0
100
AcDbLine
 62
7
  6
CONTINUOUS
 10
81.5932003797
 20
61.6802505402
 11
88.5932003797
 21
63.1802505402
  0
LINE
  5
2E0
100
AcDbEntity
  8
A_ACHSEN
100
AcDbLine
 62
7
  6
CENTER
 10
62.6907580922
 20
66.6802505402
 11
77.4956426671
 21
66.6802505402
  0
LINE
  5
2E1
100
AcDbEntity
  8
QUER2
100
AcDbLine
 62
7
  6
CONTINUOUS
 10
70.0932003797
 20
71.6802505402
 11
77.0932003797
 21
71.6802505402
  0
LINE
  5
2E2
100
AcDbEntity
  8
0
100
AcDbLine
 62
7
  6
CONTINUOUS
 10
63.5932003797
 20
92.7802505402
 11
64.0932003797
 21
92.2802505402
  0
LINE
  5
2E3
100
AcDbEntity
  8
0
100
AcDbLine
 62
7
  6
CONTINUOUS
 10
55.0932003797
 20
106.1802505402
 11
55.5932003797
 21
105.6802505402
  0
LINE
  5
2E4
100
AcDbEntity
  8
0
100
AcDbLine
 62
7
  6
CONTINUOUS
 10
73.0932003797
 20
116.3802505402
 11
73.0932003797
 21
114.4802505402
  0
LINE
  5
2E5
100
AcDbEntity
  8
0
100
AcDbLine
 62
7
  6
CONTINUOUS
 10
73.0932003797
 20
91.1802505402
 11
73.0932003797
 21
89.7802505402
  0
LINE
  5
2E6
100
AcDbEntity
  8
QUER2
100
AcDbLine
 62
7
  6
CONTINUOUS
 10
73.0932003797
 20
102.6802505402
 11
73.0932003797
 21
114.4802505402
  0
LINE
  5
2E7
100
AcDbEntity
  8
0
100
AcDbLine
 62
7
  6
CONTINUOUS
 10
75.8932003797
 20
118.0302505402
 11
75.8932003797
 21
117.9767595272
  0
LINE
  5
2E8
100
AcDbEntity
  8
0
100
AcDbLine
 62
7
  6
CONTINUOUS
 10
75.8932003797
 20
88.1302505402
 11
75.8932003797
 21
88.1837415531
  0
LINE
  5
2E9
100
AcDbEntity
  8
A_RUNDUNGEN
100
AcDbLine
 62
7
  6
CONTINUOUS
 10
75.8932003797
 20
102.5402327299
 11
75.8932003797
 21
103.6198808788
  0
LINE
  5
2EA
100
AcDbEntity
  8
0
100
AcDbLine
 62
7
  6
CONTINUOUS
 10
76.0932003797
 20
117.9802505402
 11
76.0932003797
 21
116.5802505402
  0
LINE
  5
2EB
100
AcDbEntity
  8
A_RUNDUNGEN
100
AcDbLine
 62
7
  6
CONTINUOUS
 10
76.0932003797
 20
116.5802505402
 11
76.0932003797
 21
101.1802505402
  0
LINE
  5
2EC
100
AcDbEntity
  8
A_RUNDUNGEN
100
AcDbLine
 62
7
  6
CONTINUOUS
 10
76.0932003797
 20
91.1802505402
 11
76.0932003797
 21
89.5802505402
  0
LINE
  5
2ED
100
AcDbEntity
  8
0
100
AcDbLine
 62
7
  6
CONTINUOUS
 10
76.0932003797
 20
89.5802505402
 11
76.0932003797
 21
88.1802505402
  0
LINE
  5
2EE
100
AcDbEntity
  8
A_RUNDUNGEN
100
AcDbLine
 62
7
  6
CONTINUOUS
 10
77.5932003797
 20
117.9802505402
 11
77.5932003797
 21
117.4802505402
  0
LINE
  5
2EF
100
AcDbEntity
  8
A_RUNDUNGEN
100
AcDbLine
 62
7
  6
CONTINUOUS
 10
77.5932003797
 20
88.6802505402
 11
77.5932003797
 21
88.1802505402
  0
LINE
  5
2F0
100
AcDbEntity
  8
IMPORT_KE
100
AcDbLine
 62
6
  6
CONTINUOUS
 10
77.5932003797
 20
120.9975475402
 11
77.5932003797
 21
81.0802505402
  0
LINE
  5
2F1
100
AcDbEntity
  8
0
100
AcDbLine
 62
7
  6
CONTINUOUS
 10
77.5932003797
 20
81.0802505402
 11
77.5932003797
 21
88.1985300204
  0
LINE
  5
2F2
100
AcDbEntity
  8
0
100
AcDbLine
 62
7
  6
CONTINUOUS
 10
77.5932003797
 20
117.9619710599
 11
77.5932003797
 21
119.0802505402
  0
LINE
  5
2F3
100
AcDbEntity
  8
IMPORT_KE
100
AcDbLine
 62
6
  6
CONTINUOUS
 10
78.5932003797
 20
119.0802505402
 11
78.5932003797
 21
121.0802505402
  0
LINE
  5
2F4
100
AcDbEntity
  8
QUER2
100
AcDbLine
 62
7
  6
CONTINUOUS
 10
74.5944163137
 20
78.9265148005
 11
74.6827381445
 21
80.408368196
  0
LINE
  5
2F5
100
AcDbEntity
  8
QUER2
100
AcDbLine
 62
7
  6
CONTINUOUS
 10
73.7834441089
 20
81.3153714373
 11
73.6662331615
 21
79.9814537336
  0
LINE
  5
2F6
100
AcDbEntity
  8
0
100
AcDbLine
 62
7
  6
CONTINUOUS
 10
55.5932003797
 20
100.1802505402
 11
55.0932003797
 21
99.6802505402
  0
LINE
  5
2F7
100
AcDbEntity
  8
0
100
AcDbLine
 62
7
  6
CONTINUOUS
 10
51.0932003797
 20
92.7802505402
 11
50.5932003797
 21
92.2802505402
  0
LINE
  5
2F8
100
AcDbEntity
  8
IMPORT_KE
100
AcDbLine
 62
6
  6
CONTINUOUS
 10
83.5932003797
 20
121.8802505402
 11
85.1932003797
 21
123.4802505402
  0
LINE
  5
2F9
100
AcDbEntity
  8
IMPORT_KE
100
AcDbLine
 62
6
  6
CONTINUOUS
 10
72.6732563797
 20
119.2802505402
 11
73.3285783797
 21
119.7391115402
  0
LINE
  5
2FA
100
AcDbEntity
  8
A_RUNDUNGEN
100
AcDbLine
 62
7
  6
CONTINUOUS
 10
95.6193799862
 20
73.4510119076
 11
95.1408729641
 21
73.4468360401
  0
LINE
  5
2FB
100
AcDbEntity
  8
A_RUNDUNGEN
100
AcDbLine
 62
7
  6
CONTINUOUS
 10
79.3035444896
 20
73.3086257684
 11
64.5932003797
 21
73.1802505402
  0
LINE
  5
2FC
100
AcDbEntity
  8
0
100
AcDbLine
 62
7
  6
CONTINUOUS
 10
85.3172238114
 20
78.0802505402
 11
82.5932003797
 21
78.0802505402
  0
LINE
  5
2FD
100
AcDbEntity
  8
0
100
AcDbLine
 62
7
  6
CONTINUOUS
 10
101.5932003797
 20
66.1802505402
 11
102.0932003797
 21
65.6802505402
  0
LINE
  5
2FE
100
AcDbEntity
  8
DEFAULT_2
100
AcDbLine
 62
8
  6
HIDDEN
 10
68.6255466616
 20
108.1802505402
 11
69.9233815911
 21
105.9323345024
  0
LINE
  5
2FF
100
AcDbEntity
  8
0
100
AcDbLine
 62
7
  6
CONTINUOUS
 10
81.5932003797
 20
61.2692631455
 11
81.5932003797
 21
61.6802505402
  0
LINE
  5
300
100
AcDbEntity
  8
0
100
AcDbLine
 62
7
  6
CONTINUOUS
 10
82.5932003797
 20
82.1802505402
 11
82.5932003797
 21
78.0802505402
  0
LINE
  5
301
100
AcDbEntity
  8
A_RUNDUNGEN
100
AcDbLine
 62
7
  6
CONTINUOUS
 10
82.5932003797
 20
82.1802505402
 11
82.5932003797
 21
85.029621457
  0
LINE
  5
302
100
AcDbEntity
  8
A_RUNDUNGEN
100
AcDbLine
 62
7
  6
CONTINUOUS
 10
82.5932003797
 20
86.1802505402
 11
82.5932003797
 21
89.4461508769
  0
LINE
  5
303
100
AcDbEntity
  8
0
100
AcDbLine
 62
7
  6
CONTINUOUS
 10
82.5932003797
 20
100.3942065393
 11
82.5932003797
 21
106.0802505402
  0
LINE
  5
304
100
AcDbEntity
  8
0
100
AcDbLine
 62
7
  6
CONTINUOUS
 10
83.483337421
 20
116.2545620125
 11
82.5932003797
 21
106.0802505402
  0
LINE
  5
305
100
AcDbEntity
  8
0
100
AcDbLine
 62
7
  6
CONTINUOUS
 10
63.5932003797
 20
99.7802505402
 11
64.0932003797
 21
100.2802505402
  0
LINE
  5
306
100
AcDbEntity
  8
QUER2
100
AcDbLine
 62
7
  6
CONTINUOUS
 10
86.9253631301
 20
75.5392014834
 11
85.9865020945
 21
75.3736549517
  0
LINE
  5
307
100
AcDbEntity
  8
IMPORT_KE
100
AcDbLine
 62
2
  6
CONTINUOUS
 10
75.5932003797
 20
79.0802505402
 11
19.5932003797
 21
79.0802505402
  0
LINE
  5
308
100
AcDbEntity
  8
0
100
AcDbLine
 62
7
  6
CONTINUOUS
 10
19.5932003797
 20
79.0802505402
 11
75.5932003797
 21
79.0802505402
  0
LINE
  5
309
100
AcDbEntity
  8
0
100
AcDbLine
 62
7
  6
CONTINUOUS
 10
102.0932003797
 20
81.6802505402
 11
101.5932003797
 21
81.6802505402
  0
LINE
  5
30A
100
AcDbEntity
  8
0
100
AcDbLine
 62
7
  6
CONTINUOUS
 10
102.0932003797
 20
82.6802505402
 11
101.5932003797
 21
82.6802505402
  0
LINE
  5
30B
100
AcDbEntity
  8
0
100
AcDbLine
 62
7
  6
CONTINUOUS
 10
102.0932003797
 20
85.1772361332
 11
101.5932003797
 21
85.1772361332
  0
LINE
  5
30C
100
AcDbEntity
  8
0
100
AcDbLine
 62
7
  6
CONTINUOUS
 10
82.5932003797
 20
82.1802505402
 11
85.3122575185
 21
82.1090495232
  0
LINE
  5
30D
100
AcDbEntity
  8
A_RUNDUNGEN
100
AcDbLine
 62
7
  6
CONTINUOUS
 10
82.5932003797
 20
82.1802505402
 11
85.3122575185
 21
82.1090495232
  0
LINE
  5
30E
100
AcDbEntity
  8
0
100
AcDbLine
 62
7
  6
CONTINUOUS
 10
86.3959542176
 20
82.0806719264
 11
86.8014458221
 21
82.0700537551
  0
LINE
  5
30F
100
AcDbEntity
  8
A_RUNDUNGEN
100
AcDbLine
 62
7
  6
CONTINUOUS
 10
86.3959542176
 20
82.0806719264
 11
86.8014458221
 21
82.0700537551
  0
LINE
  5
310
100
AcDbEntity
  8
QUER2
100
AcDbLine
 62
7
  6
CONTINUOUS
 10
83.2342129392
 20
72.5020051396
 11
83.1087660902
 21
71.7159242382
  0
LINE
  5
311
100
AcDbEntity
  8
QUER2
100
AcDbLine
 62
7
  6
CONTINUOUS
 10
83.1497959682
 20
72.5369488253
 11
82.9842494365
 21
71.5980877898
  0
LINE
  5
312
100
AcDbEntity
  8
DEFAULT_2
100
AcDbLine
 62
8
  6
HIDDEN
 10
69.6453796359
 20
109.4777085589
 11
69.7525379325
 21
109.5104805238
  0
LINE
  5
313
100
AcDbEntity
  8
DEFAULT_2
100
AcDbLine
 62
8
  6
HIDDEN
 10
69.8161452397
 20
109.5292058575
 11
69.7525379325
 21
109.5104805238
  0
LINE
  5
314
100
AcDbEntity
  8
0
100
AcDbLine
 62
7
  6
CONTINUOUS
 10
82.5932003797
 20
86.1802505402
 11
85.5279125633
 21
86.2570986832
  0
LINE
  5
315
100
AcDbEntity
  8
A_RUNDUNGEN
100
AcDbLine
 62
7
  6
CONTINUOUS
 10
82.5932003797
 20
86.1802505402
 11
85.5279125633
 21
86.2570986832
  0
LINE
  5
316
100
AcDbEntity
  8
0
100
AcDbLine
 62
7
  6
CONTINUOUS
 10
96.1431231318
 20
86.5350677546
 11
97.619377328
 21
86.5737248312
  0
LINE
  5
317
100
AcDbEntity
  8
A_RUNDUNGEN
100
AcDbLine
 62
7
  6
CONTINUOUS
 10
96.1431231318
 20
86.5350677546
 11
97.619377328
 21
86.5737248312
  0
LINE
  5
318
100
AcDbEntity
  8
0
100
AcDbLine
 62
7
  6
CONTINUOUS
 10
101.5932003797
 20
86.3296569213
 11
102.0932003797
 21
86.3296569213
  0
LINE
  5
319
100
AcDbEntity
  8
0
100
AcDbLine
 62
7
  6
CONTINUOUS
 10
102.0932003797
 20
87.0979189117
 11
101.5932003797
 21
87.0979189117
  0
LINE
  5
31A
100
AcDbEntity
  8
0
100
AcDbLine
 62
7
  6
CONTINUOUS
 10
77.5932003797
 20
88.0802505402
 11
44.5932003797
 21
88.0802505402
  0
LINE
  5
31B
100
AcDbEntity
  8
A_RUNDUNGEN
100
AcDbLine
 62
7
  6
CONTINUOUS
 10
77.5932003797
 20
88.1802505402
 11
76.0932003797
 21
88.1802505402
  0
LINE
  5
31C
100
AcDbEntity
  8
0
100
AcDbLine
 62
7
  6
CONTINUOUS
 10
102.0932003797
 20
89.5949045047
 11
101.5932003797
 21
89.5949045047
  0
LINE
  5
31D
100
AcDbEntity
  8
A_RUNDUNGEN
100
AcDbLine
 62
7
  6
CONTINUOUS
 10
58.9999794503
 20
89.8552505402
 11
63.0801105764
 21
89.8552505402
  0
LINE
  5
31E
100
AcDbEntity
  8
0
100
AcDbLine
 62
7
  6
CONTINUOUS
 10
102.0932003797
 20
90.6802505402
 11
101.5932003797
 21
90.6802505402
  0
LINE
  5
31F
100
AcDbEntity
  8
QUER2
100
AcDbLine
 62
7
  6
CONTINUOUS
 10
77.0932003797
 20
91.1802505402
 11
64.3932003797
 21
91.1802505402
  0
LINE
  5
320
100
AcDbEntity
  8
0
100
AcDbLine
 62
7
  6
CONTINUOUS
 10
98.5932003797
 20
92.1802505402
 11
99.0932003797
 21
92.1802505402
  0
LINE
  5
321
100
AcDbEntity
  8
A_RUNDUNGEN
100
AcDbLine
 62
7
  6
CONTINUOUS
 10
75.8932003797
 20
88.1302505402
 11
50.5932003797
 21
88.262722241
  0
LINE
  5
322
100
AcDbEntity
  8
0
100
AcDbLine
 62
7
  6
CONTINUOUS
 10
50.5932003797
 20
88.262722241
 11
46.582728452
 21
88.2837212148
  0
LINE
  5
323
100
AcDbEntity
  8
0
100
AcDbLine
 62
7
  6
CONTINUOUS
 10
54.8801105764
 20
89.7653743703
 11
76.0932003797
 21
89.5802505402
  0
LINE
  5
324
100
AcDbEntity
  8
0
100
AcDbLine
 62
7
  6
CONTINUOUS
 10
73.0932003797
 20
89.7802505402
 11
69.01180296
 21
89.8158683558
  0
LINE
  5
325
100
AcDbEntity
  8
A_RUNDUNGEN
100
AcDbLine
 62
7
  6
CONTINUOUS
 10
69.01180296
 20
89.8158683558
 11
64.0932003797
 21
89.8587923503
  0
LINE
  5
326
100
AcDbEntity
  8
0
100
AcDbLine
 62
7
  6
CONTINUOUS
 10
64.0932003797
 20
89.8587923503
 11
58.0801105764
 21
89.91126779
  0
LINE
  5
327
100
AcDbEntity
  8
0
100
AcDbLine
 62
7
  6
CONTINUOUS
 10
76.0932003797
 20
88.1802505402
 11
52.06702177
 21
88.5996290478
  0
LINE
  5
328
100
AcDbEntity
  8
0
100
AcDbLine
 62
7
  6
CONTINUOUS
 10
61.5932003797
 20
93.2428072225
 11
56.5932003797
 21
93.6802505402
  0
LINE
  5
329
100
AcDbEntity
  8
IMPORT_KE
100
AcDbLine
 62
6
  6
CONTINUOUS
 10
70.2740483797
 20
122.7066735402
 11
72.6732563797
 21
119.2802505402
  0
LINE
  5
32A
100
AcDbEntity
  8
IMPORT_KE
100
AcDbLine
 62
6
  6
CONTINUOUS
 10
73.3285783797
 20
119.7391115402
 11
71.1795943797
 21
122.8081775402
  0
LINE
  5
32B
100
AcDbEntity
  8
IMPORT_KE
100
AcDbLine
 62
2
  6
CONTINUOUS
 10
95.5932003797
 20
142.6684135402
 11
95.5932003797
 21
126.0802505402
  0
LINE
  5
32C
100
AcDbEntity
  8
0
100
AcDbLine
 62
7
  6
CONTINUOUS
 10
95.5932003797
 20
126.0802505402
 11
95.5932003797
 21
142.6684135402
  0
LINE
  5
32D
100
AcDbEntity
  8
0
100
AcDbLine
 62
7
  6
CONTINUOUS
 10
98.5932003797
 20
68.1802505402
 11
98.5932003797
 21
97.8000404887
  0
LINE
  5
32E
100
AcDbEntity
  8
0
100
AcDbLine
 62
7
  6
CONTINUOUS
 10
99.0932003797
 20
97.6802505402
 11
99.0932003797
 21
92.1802505402
  0
LINE
  5
32F
100
AcDbEntity
  8
0
100
AcDbLine
 62
7
  6
CONTINUOUS
 10
102.4483264467
 20
128.6011949203
 11
100.7389085183
 21
118.9066023263
  0
LINE
  5
330
100
AcDbEntity
  8
0
100
AcDbLine
 62
7
  6
CONTINUOUS
 10
61.5932003797
 20
92.2176938578
 11
56.5932003797
 21
91.7802505402
  0
LINE
  5
331
100
AcDbEntity
  8
0
100
AcDbLine
 62
7
  6
CONTINUOUS
 10
99.0932003797
 20
92.6802505402
 11
98.5932003797
 21
92.6802505402
  0
LINE
  5
332
100
AcDbEntity
  8
0
100
AcDbLine
 62
7
  6
CONTINUOUS
 10
99.0932003797
 20
92.7653569204
 11
98.5932003797
 21
92.7653569204
  0
LINE
  5
333
100
AcDbEntity
  8
0
100
AcDbLine
 62
7
  6
CONTINUOUS
 10
53.3932003797
 20
92.7802505402
 11
51.0932003797
 21
92.7802505402
  0
LINE
  5
334
100
AcDbEntity
  8
0
100
AcDbLine
 62
7
  6
CONTINUOUS
 10
61.5932003797
 20
92.7802505402
 11
63.5932003797
 21
92.7802505402
  0
LINE
  5
335
100
AcDbEntity
  8
0
100
AcDbLine
 62
7
  6
CONTINUOUS
 10
99.0932003797
 20
92.9355696885
 11
98.5932003797
 21
92.9355696885
  0
LINE
  5
336
100
AcDbEntity
  8
0
100
AcDbLine
 62
7
  6
CONTINUOUS
 10
99.0932003797
 20
93.2759952096
 11
98.5932003797
 21
93.2759952096
  0
LINE
  5
337
100
AcDbEntity
  8
0
100
AcDbLine
 62
7
  6
CONTINUOUS
 10
99.0932003797
 20
93.6164207605
 11
98.5932003797
 21
93.6164207605
  0
LINE
  5
338
100
AcDbEntity
  8
0
100
AcDbLine
 62
7
  6
CONTINUOUS
 10
99.0932003797
 20
94.0419526247
 11
98.5932003797
 21
94.0419526247
  0
LINE
  5
339
100
AcDbEntity
  8
0
100
AcDbLine
 62
7
  6
CONTINUOUS
 10
56.5932003797
 20
95.1802505402
 11
55.5932003797
 21
95.1802505402
  0
LINE
  5
33A
100
AcDbEntity
  8
A_RUNDUNGEN
100
AcDbLine
 62
7
  6
CONTINUOUS
 10
55.5932003797
 20
95.1802505402
 11
56.5932003797
 21
95.1802505402
  0
LINE
  5
33B
100
AcDbEntity
  8
0
100
AcDbLine
 62
7
  6
CONTINUOUS
 10
99.0932003797
 20
95.3185483364
 11
98.5932003797
 21
95.3185483364
  0
LINE
  5
33C
100
AcDbEntity
  8
0
100
AcDbLine
 62
2
  6
CONTINUOUS
 10
55.0932003797
 20
95.6802505402
 11
56.5932003797
 21
95.6802505402
  0
LINE
  5
33D
100
AcDbEntity
  8
0
100
AcDbLine
 62
7
  6
CONTINUOUS
 10
99.0932003797
 20
95.744080439
 11
98.5932003797
 21
95.744080439
  0
LINE
  5
33E
100
AcDbEntity
  8
0
100
AcDbLine
 62
7
  6
CONTINUOUS
 10
99.0932003797
 20
96.0845059303
 11
98.5932003797
 21
96.0845059303
  0
LINE
  5
33F
100
AcDbEntity
  8
0
100
AcDbLine
 62
7
  6
CONTINUOUS
 10
99.0932003797
 20
96.4249314217
 11
98.5932003797
 21
96.4249314217
  0
LINE
  5
340
100
AcDbEntity
  8
0
100
AcDbLine
 62
7
  6
CONTINUOUS
 10
99.0932003797
 20
96.5951441673
 11
98.5932003797
 21
96.5951441673
  0
LINE
  5
341
100
AcDbEntity
  8
0
100
AcDbLine
 62
7
  6
CONTINUOUS
 10
99.0932003797
 20
96.6802505402
 11
98.5932003797
 21
96.6802505402
  0
LINE
  5
342
100
AcDbEntity
  8
0
100
AcDbLine
 62
7
  6
CONTINUOUS
 10
98.5932003797
 20
97.6802505402
 11
99.0932003797
 21
97.6802505402
  0
LINE
  5
343
100
AcDbEntity
  8
0
100
AcDbLine
 62
7
  6
CONTINUOUS
 10
174.5932003797
 20
98.0802505402
 11
172.0932003797
 21
98.0802505402
  0
LINE
  5
344
100
AcDbEntity
  8
A_RUNDUNGEN
100
AcDbLine
 62
7
  6
CONTINUOUS
 10
88.0415905267
 20
99.5375794231
 11
84.6807124028
 21
99.625587114
  0
LINE
  5
345
100
AcDbEntity
  8
0
100
AcDbLine
 62
7
  6
CONTINUOUS
 10
88.2677259926
 20
99.5316578575
 11
97.1324658021
 21
99.2995264761
  0
LINE
  5
346
100
AcDbEntity
  8
0
100
AcDbLine
 62
7
  6
CONTINUOUS
 10
56.5932003797
 20
99.5802505402
 11
61.5932003797
 21
99.1428072225
  0
LINE
  5
347
100
AcDbEntity
  8
0
100
AcDbLine
 62
7
  6
CONTINUOUS
 10
88.0422690891
 20
99.5634926757
 11
82.5932003797
 21
100.9802505402
  0
LINE
  5
348
100
AcDbEntity
  8
DEFAULT_2
100
AcDbLine
 62
8
  6
HIDDEN
 10
69.8161452397
 20
106.8312952228
 11
69.7525379325
 21
106.8500205565
  0
LINE
  5
349
100
AcDbEntity
  8
DEFAULT_2
100
AcDbLine
 62
8
  6
HIDDEN
 10
69.7525379325
 20
106.8500205565
 11
69.6451548842
 21
106.8827914959
  0
LINE
  5
34A
100
AcDbEntity
  8
0
100
AcDbLine
 62
7
  6
CONTINUOUS
 10
101.5932003797
 20
90.6802505402
 11
101.5932003797
 21
89.5949045047
  0
LINE
  5
34B
100
AcDbEntity
  8
0
100
AcDbLine
 62
7
  6
CONTINUOUS
 10
101.5932003797
 20
87.0979189117
 11
101.5932003797
 21
85.1772361332
  0
LINE
  5
34C
100
AcDbEntity
  8
0
100
AcDbLine
 62
7
  6
CONTINUOUS
 10
101.5932003797
 20
82.6802505402
 11
101.5932003797
 21
81.6802505402
  0
LINE
  5
34D
100
AcDbEntity
  8
0
100
AcDbLine
 62
7
  6
CONTINUOUS
 10
101.5932003797
 20
66.1802505402
 11
101.5932003797
 21
73.1802505402
  0
LINE
  5
34E
100
AcDbEntity
  8
0
100
AcDbLine
 62
7
  6
CONTINUOUS
 10
102.0932003797
 20
101.7802505402
 11
102.0932003797
 21
61.0802505402
  0
LINE
  5
34F
100
AcDbEntity
  8
0
100
AcDbLine
 62
7
  6
CONTINUOUS
 10
27.2958183576
 20
100.97765554
 11
19.0801104639
 21
100.9059575322
  0
LINE
  5
350
100
AcDbEntity
  8
IMPORT_KE
100
AcDbLine
 62
2
  6
CONTINUOUS
 10
27.2958183797
 20
100.9776555402
 11
19.0801113797
 21
100.9059575402
  0
LINE
  5
351
100
AcDbEntity
  8
0
100
AcDbLine
 62
2
  6
CONTINUOUS
 10
55.0932003797
 20
99.6802505402
 11
56.5932003797
 21
99.6802505402
  0
LINE
  5
352
100
AcDbEntity
  8
0
100
AcDbLine
 62
7
  6
CONTINUOUS
 10
53.3932003797
 20
99.7802505402
 11
51.0932003797
 21
99.7802505402
  0
LINE
  5
353
100
AcDbEntity
  8
0
100
AcDbLine
 62
7
  6
CONTINUOUS
 10
61.5932003797
 20
99.7802505402
 11
63.5932003797
 21
99.7802505402
  0
LINE
  5
354
100
AcDbEntity
  8
0
100
AcDbLine
 62
7
  6
CONTINUOUS
 10
56.5932003797
 20
100.1802505402
 11
55.5932003797
 21
100.1802505402
  0
LINE
  5
355
100
AcDbEntity
  8
A_RUNDUNGEN
100
AcDbLine
 62
7
  6
CONTINUOUS
 10
55.5932003797
 20
100.1802505402
 11
56.5932003797
 21
100.1802505402
  0
LINE
  5
356
100
AcDbEntity
  8
0
100
AcDbLine
 62
7
  6
CONTINUOUS
 10
49.5932003797
 20
100.8302505402
 11
50.5932003797
 21
100.8302505402
  0
LINE
  5
357
100
AcDbEntity
  8
QUER2
100
AcDbLine
 62
7
  6
CONTINUOUS
 10
74.5932003797
 20
101.1802505402
 11
77.0932003797
 21
101.1802505402
  0
LINE
  5
358
100
AcDbEntity
  8
0
100
AcDbLine
 62
7
  6
CONTINUOUS
 10
82.5932003797
 20
101.7802505402
 11
102.0932003797
 21
101.7802505402
  0
LINE
  5
359
100
AcDbEntity
  8
QUER2
100
AcDbLine
 62
7
  6
CONTINUOUS
 10
73.123506534
 20
102.3802505402
 11
67.0932003797
 21
102.3802505402
  0
LINE
  5
35A
100
AcDbEntity
  8
0
100
AcDbLine
 62
7
  6
CONTINUOUS
 10
44.5932003797
 20
103.0802505402
 11
47.3432003797
 21
103.0802505402
  0
LINE
  5
35B
100
AcDbEntity
  8
0
100
AcDbLine
 62
7
  6
CONTINUOUS
 10
71.7932003797
 20
103.9302505402
 11
67.3932003797
 21
103.9302505402
  0
LINE
  5
35C
100
AcDbEntity
  8
QUER2
100
AcDbLine
 62
7
  6
CONTINUOUS
 10
67.0932003797
 20
104.0802505402
 11
64.0932003797
 21
104.0802505402
  0
LINE
  5
35D
100
AcDbEntity
  8
0
100
AcDbLine
 62
7
  6
CONTINUOUS
 10
53.3932003797
 20
105.1802505402
 11
50.5932003797
 21
105.1802505402
  0
LINE
  5
35E
100
AcDbEntity
  8
0
100
AcDbLine
 62
7
  6
CONTINUOUS
 10
66.7932003797
 20
105.6802505402
 11
55.5932003797
 21
105.6802505402
  0
LINE
  5
35F
100
AcDbEntity
  8
A_RUNDUNGEN
100
AcDbLine
 62
7
  6
CONTINUOUS
 10
55.5932003797
 20
105.6802505402
 11
66.7932003797
 21
105.6802505402
  0
LINE
  5
360
100
AcDbEntity
  8
A_FLAECHEN
100
AcDbLine
 62
8
  6
HIDDEN
 10
69.9233814343
 20
105.932334774
 11
71.8932003797
 21
105.932334774
  0
LINE
  5
361
100
AcDbEntity
  8
0
100
AcDbLine
 62
7
  6
CONTINUOUS
 10
82.5932003797
 20
101.5860018993
 11
100.1036723073
 21
101.4943164448
  0
LINE
  5
362
100
AcDbEntity
  8
0
100
AcDbLine
 62
7
  6
CONTINUOUS
 10
56.5932003797
 20
104.1802505402
 11
61.5932003797
 21
103.7428072225
  0
LINE
  5
363
100
AcDbEntity
  8
A_ACHSEN
100
AcDbLine
 62
7
  6
CENTER
 10
43.5932003797
 20
106.0802505402
 11
53.5932003797
 21
106.0802505402
  0
LINE
  5
364
100
AcDbEntity
  8
0
100
AcDbLine
 62
7
  6
CONTINUOUS
 10
172.0932003797
 20
106.0802505402
 11
174.5932003797
 21
106.0802505402
  0
LINE
  5
365
100
AcDbEntity
  8
0
100
AcDbLine
 62
2
  6
CONTINUOUS
 10
55.0932003797
 20
106.1802505402
 11
67.0932003797
 21
106.1802505402
  0
LINE
  5
366
100
AcDbEntity
  8
A_FLAECHEN
100
AcDbLine
 62
8
  6
HIDDEN
 10
69.8094644137
 20
106.8312926571
 11
71.8932003797
 21
106.8312926571
  0
LINE
  5
367
100
AcDbEntity
  8
A_FLAECHEN
100
AcDbLine
 62
8
  6
HIDDEN
 10
69.654502115
 20
106.8827943805
 11
71.8932003797
 21
106.8827943805
  0
LINE
  5
368
100
AcDbEntity
  8
A_ACHSEN
100
AcDbLine
 62
7
  6
CENTER
 10
52.0932003797
 20
108.1802505402
 11
75.0932003797
 21
108.1802505402
  0
LINE
  5
369
100
AcDbEntity
  8
0
100
AcDbLine
 62
7
  6
CONTINUOUS
 10
44.5932003797
 20
109.0802505402
 11
47.3432003797
 21
109.0802505402
  0
LINE
  5
36A
100
AcDbEntity
  8
A_FLAECHEN
100
AcDbLine
 62
8
  6
HIDDEN
 10
69.654502115
 20
109.4777066998
 11
71.8932003797
 21
109.4777066998
  0
LINE
  5
36B
100
AcDbEntity
  8
A_FLAECHEN
100
AcDbLine
 62
8
  6
HIDDEN
 10
69.8094640327
 20
109.5292084232
 11
71.8932003797
 21
109.5292084232
  0
LINE
  5
36C
100
AcDbEntity
  8
0
100
AcDbLine
 62
7
  6
CONTINUOUS
 10
44.5932003797
 20
109.5802505402
 11
45.0932003797
 21
109.5802505402
  0
LINE
  5
36D
100
AcDbEntity
  8
0
100
AcDbLine
 62
2
  6
CONTINUOUS
 10
55.0932003797
 20
110.1802505402
 11
67.0932003797
 21
110.1802505402
  0
LINE
  5
36E
100
AcDbEntity
  8
A_FLAECHEN
100
AcDbLine
 62
8
  6
HIDDEN
 10
69.9233814343
 20
110.4281663063
 11
71.8932003797
 21
110.4281663063
  0
LINE
  5
36F
100
AcDbEntity
  8
0
100
AcDbLine
 62
7
  6
CONTINUOUS
 10
45.0932003797
 20
110.6369505402
 11
44.5932003797
 21
110.6369505402
  0
LINE
  5
370
100
AcDbEntity
  8
0
100
AcDbLine
 62
7
  6
CONTINUOUS
 10
66.7932003797
 20
110.6802505402
 11
55.5932003797
 21
110.6802505402
  0
LINE
  5
371
100
AcDbEntity
  8
A_RUNDUNGEN
100
AcDbLine
 62
7
  6
CONTINUOUS
 10
55.5932003797
 20
110.6802505402
 11
66.7932003797
 21
110.6802505402
  0
LINE
  5
372
100
AcDbEntity
  8
0
100
AcDbLine
 62
7
  6
CONTINUOUS
 10
45.0932003797
 20
110.7102122336
 11
44.5932003797
 21
110.7102122336
  0
LINE
  5
373
100
AcDbEntity
  8
0
100
AcDbLine
 62
7
  6
CONTINUOUS
 10
45.0932003797
 20
110.8567356203
 11
44.5932003797
 21
110.8567356203
  0
LINE
  5
374
100
AcDbEntity
  8
0
100
AcDbLine
 62
7
  6
CONTINUOUS
 10
174.5932003797
 20
111.0802505402
 11
189.5932003797
 21
111.0802505402
  0
LINE
  5
375
100
AcDbEntity
  8
0
100
AcDbLine
 62
7
  6
CONTINUOUS
 10
45.0932003797
 20
111.1497823939
 11
44.5932003797
 21
111.1497823939
  0
LINE
  5
376
100
AcDbEntity
  8
0
100
AcDbLine
 62
7
  6
CONTINUOUS
 10
53.3932003797
 20
111.1802505402
 11
50.5932003797
 21
111.1802505402
  0
LINE
  5
377
100
AcDbEntity
  8
0
100
AcDbLine
 62
7
  6
CONTINUOUS
 10
49.5932003797
 20
111.3302505402
 11
50.5932003797
 21
111.3302505402
  0
LINE
  5
378
100
AcDbEntity
  8
0
100
AcDbLine
 62
7
  6
CONTINUOUS
 10
45.0932003797
 20
111.4428291675
 11
44.5932003797
 21
111.4428291675
  0
LINE
  5
379
100
AcDbEntity
  8
0
100
AcDbLine
 62
7
  6
CONTINUOUS
 10
45.0932003797
 20
111.8091378397
 11
44.5932003797
 21
111.8091378397
  0
LINE
  5
37A
100
AcDbEntity
  8
QUER2
100
AcDbLine
 62
7
  6
CONTINUOUS
 10
67.0932003797
 20
112.2802505402
 11
64.0932003797
 21
112.2802505402
  0
LINE
  5
37B
100
AcDbEntity
  8
0
100
AcDbLine
 62
7
  6
CONTINUOUS
 10
71.7932003797
 20
112.4302505402
 11
67.3932003797
 21
112.4302505402
  0
LINE
  5
37C
100
AcDbEntity
  8
A_RUNDUNGEN
100
AcDbLine
 62
7
  6
CONTINUOUS
 10
67.3932003797
 20
112.4302505402
 11
71.7932003797
 21
112.4302505402
  0
LINE
  5
37D
100
AcDbEntity
  8
IMPORT_KE
100
AcDbLine
 62
6
  6
CONTINUOUS
 10
72.6979293797
 20
123.2802505402
 11
77.5932003797
 21
120.9975475402
  0
LINE
  5
37E
100
AcDbEntity
  8
IMPORT_KE
100
AcDbLine
 62
6
  6
CONTINUOUS
 10
74.5908913797
 20
123.2802505402
 11
77.5932003797
 21
121.8802505402
  0
LINE
  5
37F
100
AcDbEntity
  8
IMPORT_KE
100
AcDbLine
 62
6
  6
CONTINUOUS
 10
91.9802013797
 20
120.7341655402
 11
92.5932003797
 21
120.3802505402
  0
LINE
  5
380
100
AcDbEntity
  8
IMPORT_KE
100
AcDbLine
 62
6
  6
CONTINUOUS
 10
92.1380403797
 20
121.2203875402
 11
93.5932003797
 21
120.3802505402
  0
LINE
  5
381
100
AcDbEntity
  8
IMPORT_KE
100
AcDbLine
 62
6
  6
CONTINUOUS
 10
93.8689363797
 20
120.3802505402
 11
92.5224903797
 21
121.7266965402
  0
LINE
  5
382
100
AcDbEntity
  8
IMPORT_KE
100
AcDbLine
 62
6
  6
CONTINUOUS
 10
93.3003073797
 20
122.0802505402
 11
94.9467543797
 21
120.4338035402
  0
LINE
  5
383
100
AcDbEntity
  8
0
100
AcDbLine
 62
7
  6
CONTINUOUS
 10
95.5328932906
 20
143.0104337849
 11
91.3698391403
 21
154.4483311978
  0
LINE
  5
384
100
AcDbEntity
  8
IMPORT_KE
100
AcDbLine
 62
2
  6
CONTINUOUS
 10
95.5328933797
 20
143.0104335402
 11
91.3698393797
 21
154.4483305402
  0
LINE
  5
385
100
AcDbEntity
  8
QUER2
100
AcDbLine
 62
7
  6
CONTINUOUS
 10
83.8302067036
 20
71.1577103103
 11
87.3657406095
 21
74.6932442163
  0
LINE
  5
386
100
AcDbEntity
  8
0
100
AcDbLine
 62
7
  6
CONTINUOUS
 10
76.0932003797
 20
117.9802505402
 11
52.06702177
 21
117.5608720326
  0
LINE
  5
387
100
AcDbEntity
  8
0
100
AcDbLine
 62
7
  6
CONTINUOUS
 10
64.0932003797
 20
116.30170873
 11
58.0801105764
 21
116.2492332903
  0
LINE
  5
388
100
AcDbEntity
  8
A_RUNDUNGEN
100
AcDbLine
 62
7
  6
CONTINUOUS
 10
64.0932003797
 20
116.30170873
 11
69.01180296
 21
116.3446327245
  0
LINE
  5
389
100
AcDbEntity
  8
0
100
AcDbLine
 62
7
  6
CONTINUOUS
 10
69.01180296
 20
116.3446327245
 11
73.0932003797
 21
116.3802505402
  0
LINE
  5
38A
100
AcDbEntity
  8
0
100
AcDbLine
 62
7
  6
CONTINUOUS
 10
54.8801105764
 20
116.39512671
 11
76.0932003797
 21
116.5802505402
  0
LINE
  5
38B
100
AcDbEntity
  8
0
100
AcDbLine
 62
7
  6
CONTINUOUS
 10
50.5932003797
 20
117.8977788393
 11
46.582728452
 21
117.8767798655
  0
LINE
  5
38C
100
AcDbEntity
  8
A_RUNDUNGEN
100
AcDbLine
 62
7
  6
CONTINUOUS
 10
50.5932003797
 20
117.8977788393
 11
75.8932003797
 21
118.0302505402
  0
LINE
  5
38D
100
AcDbEntity
  8
0
100
AcDbLine
 62
7
  6
CONTINUOUS
 10
45.0932003797
 20
112.9080633432
 11
44.5932003797
 21
112.9080633432
  0
LINE
  5
38E
100
AcDbEntity
  8
0
100
AcDbLine
 62
7
  6
CONTINUOUS
 10
45.0932003797
 20
113.2743718102
 11
44.5932003797
 21
113.2743718102
  0
LINE
  5
38F
100
AcDbEntity
  8
0
100
AcDbLine
 62
7
  6
CONTINUOUS
 10
45.0932003797
 20
113.5674186351
 11
44.5932003797
 21
113.5674186351
  0
LINE
  5
390
100
AcDbEntity
  8
0
100
AcDbLine
 62
7
  6
CONTINUOUS
 10
45.0932003797
 20
113.8604654343
 11
44.5932003797
 21
113.8604654343
  0
LINE
  5
391
100
AcDbEntity
  8
QUER2
100
AcDbLine
 62
7
  6
CONTINUOUS
 10
73.0932003797
 20
113.9802505402
 11
67.0932003797
 21
113.9802505402
  0
LINE
  5
392
100
AcDbEntity
  8
0
100
AcDbLine
 62
7
  6
CONTINUOUS
 10
45.0932003797
 20
114.0069888404
 11
44.5932003797
 21
114.0069888404
  0
LINE
  5
393
100
AcDbEntity
  8
0
100
AcDbLine
 62
7
  6
CONTINUOUS
 10
45.0932003797
 20
114.0802505402
 11
44.5932003797
 21
114.0802505402
  0
LINE
  5
394
100
AcDbEntity
  8
QUER2
100
AcDbLine
 62
7
  6
CONTINUOUS
 10
64.3932003797
 20
114.7802505402
 11
72.7932003797
 21
114.7802505402
  0
LINE
  5
395
100
AcDbEntity
  8
0
100
AcDbLine
 62
7
  6
CONTINUOUS
 10
45.0932003797
 20
115.2524377371
 11
44.5932003797
 21
115.2524377371
  0
LINE
  5
396
100
AcDbEntity
  8
0
100
AcDbLine
 62
7
  6
CONTINUOUS
 10
44.5932003797
 20
115.5802505402
 11
45.0932003797
 21
115.5802505402
  0
LINE
  5
397
100
AcDbEntity
  8
A_RUNDUNGEN
100
AcDbLine
 62
7
  6
CONTINUOUS
 10
58.9999794503
 20
116.3052505402
 11
63.0801105764
 21
116.3052505402
  0
LINE
  5
398
100
AcDbEntity
  8
A_RUNDUNGEN
100
AcDbLine
 62
7
  6
CONTINUOUS
 10
77.5932003797
 20
117.9802505402
 11
76.0932003797
 21
117.9802505402
  0
LINE
  5
399
100
AcDbEntity
  8
0
100
AcDbLine
 62
7
  6
CONTINUOUS
 10
99.7541003797
 20
118.0802505402
 11
85.4757263797
 21
118.0802505402
  0
LINE
  5
39A
100
AcDbEntity
  8
0
100
AcDbLine
 62
7
  6
CONTINUOUS
 10
77.5932003797
 20
118.0802505402
 11
44.5932003797
 21
118.0802505402
  0
LINE
  5
39B
100
AcDbEntity
  8
0
100
AcDbLine
 62
7
  6
CONTINUOUS
 10
77.5932003797
 20
119.0802505402
 11
69.0932003797
 21
119.0802505402
  0
LINE
  5
39C
100
AcDbEntity
  8
IMPORT_KE
100
AcDbLine
 62
2
  6
CONTINUOUS
 10
77.5932003797
 20
119.0802505402
 11
69.0932003797
 21
119.0802505402
  0
LINE
  5
39D
100
AcDbEntity
  8
IMPORT_KE
100
AcDbLine
 62
6
  6
CONTINUOUS
 10
84.0932003797
 20
119.5802505402
 11
89.9112153797
 21
119.5802505402
  0
LINE
  5
39E
100
AcDbEntity
  8
IMPORT_KE
100
AcDbLine
 62
6
  6
CONTINUOUS
 10
92.4932003797
 20
119.5802505402
 11
94.5932003797
 21
119.5802505402
  0
LINE
  5
39F
100
AcDbEntity
  8
IMPORT_KE
100
AcDbLine
 62
2
  6
CONTINUOUS
 10
27.2958183797
 20
114.1828455402
 11
19.5801113797
 21
114.2501795402
  0
LINE
  5
3A0
100
AcDbEntity
  8
0
100
AcDbLine
 62
7
  6
CONTINUOUS
 10
19.5801105667
 20
114.2501795473
 11
27.2958183458
 21
114.1828455405
  0
LINE
  5
3A1
100
AcDbEntity
  8
0
100
AcDbLine
 62
7
  6
CONTINUOUS
 10
101.5932003797
 20
73.1802505402
 11
102.0932003797
 21
73.6802505402
  0
LINE
  5
3A2
100
AcDbEntity
  8
QUER2
100
AcDbLine
 62
7
  6
CONTINUOUS
 10
86.675013081
 20
75.3740864933
 11
86.2271052628
 21
75.1652236476
  0
LINE
  5
3A3
100
AcDbEntity
  8
QUER2
100
AcDbLine
 62
7
  6
CONTINUOUS
 10
82.4592190535
 20
75.0401123034
 11
80.8510379439
 21
74.3182178025
  0
LINE
  5
3A4
100
AcDbEntity
  8
0
100
AcDbLine
 62
7
  6
CONTINUOUS
 10
192.0671410104
 20
115.0487961337
 11
193.9352202376
 21
115.7287204884
  0
LINE
  5
3A5
100
AcDbEntity
  8
IMPORT_KE
100
AcDbLine
 62
6
  6
CONTINUOUS
 10
84.3932003797
 20
120.3802505402
 11
90.1131693797
 21
120.3802505402
  0
LINE
  5
3A6
100
AcDbEntity
  8
IMPORT_KE
100
AcDbLine
 62
6
  6
CONTINUOUS
 10
93.5932003797
 20
120.3802505402
 11
93.8689363797
 21
120.3802505402
  0
LINE
  5
3A7
100
AcDbEntity
  8
IMPORT_KE
100
AcDbLine
 62
6
  6
CONTINUOUS
 10
78.5932003797
 20
121.0802505402
 11
83.5932003797
 21
121.0802505402
  0
LINE
  5
3A8
100
AcDbEntity
  8
IMPORT_KE
100
AcDbLine
 62
6
  6
CONTINUOUS
 10
77.5932003797
 20
121.8802505402
 11
83.5932003797
 21
121.8802505402
  0
LINE
  5
3A9
100
AcDbEntity
  8
IMPORT_KE
100
AcDbLine
 62
6
  6
CONTINUOUS
 10
77.9589443797
 20
123.2802505402
 11
74.5908913797
 21
123.2802505402
  0
LINE
  5
3AA
100
AcDbEntity
  8
IMPORT_KE
100
AcDbLine
 62
6
  6
CONTINUOUS
 10
71.4253403797
 20
123.2802505402
 11
72.6979293797
 21
123.2802505402
  0
LINE
  5
3AB
100
AcDbEntity
  8
IMPORT_KE
100
AcDbLine
 62
6
  6
CONTINUOUS
 10
93.5689363797
 20
123.4802505402
 11
86.3245713797
 21
123.4802505402
  0
LINE
  5
3AC
100
AcDbEntity
  8
IMPORT_KE
100
AcDbLine
 62
6
  6
CONTINUOUS
 10
85.1932003797
 20
123.4802505402
 11
79.0932003797
 21
123.4802505402
  0
LINE
  5
3AD
100
AcDbEntity
  8
IMPORT_KE
100
AcDbLine
 62
2
  6
CONTINUOUS
 10
77.7271753797
 20
124.0802505402
 11
69.0932003797
 21
124.0802505402
  0
LINE
  5
3AE
100
AcDbEntity
  8
0
100
AcDbLine
 62
7
  6
CONTINUOUS
 10
69.0932003797
 20
124.0802505402
 11
77.7271753797
 21
124.0802505402
  0
LINE
  5
3AF
100
AcDbEntity
  8
IMPORT_KE
100
AcDbLine
 62
6
  6
CONTINUOUS
 10
77.8790583797
 20
124.2802505402
 11
71.0932003797
 21
124.2802505402
  0
LINE
  5
3B0
100
AcDbEntity
  8
IMPORT_KE
100
AcDbLine
 62
6
  6
CONTINUOUS
 10
94.5932003797
 20
124.5802505402
 11
78.5932003797
 21
124.5802505402
  0
LINE
  5
3B1
100
AcDbEntity
  8
0
100
AcDbLine
 62
7
  6
CONTINUOUS
 10
78.5932003797
 20
124.5802505402
 11
94.0932003797
 21
124.5802505402
  0
LINE
  5
3B2
100
AcDbEntity
  8
IMPORT_KE
100
AcDbLine
 62
6
  6
CONTINUOUS
 10
79.0932003797
 20
123.4802505402
 11
77.9589443797
 21
123.2802505402
  0
LINE
  5
3B3
100
AcDbEntity
  8
0
100
AcDbLine
 62
7
  6
CONTINUOUS
 10
27.295818337
 20
131.9776555398
 11
19.5801105667
 21
131.9103215331
  0
LINE
  5
3B4
100
AcDbEntity
  8
IMPORT_KE
100
AcDbLine
 62
2
  6
CONTINUOUS
 10
27.2958183797
 20
131.9776555402
 11
19.5801113797
 21
131.9103215402
  0
LINE
  5
3B5
100
AcDbEntity
  8
0
100
AcDbLine
 62
7
  6
CONTINUOUS
 10
186.6110683797
 20
131.0802505402
 11
105.4027493797
 21
131.0802505402
  0
LINE
  5
3B6
100
AcDbEntity
  8
0
100
AcDbLine
 62
7
  6
CONTINUOUS
 10
18.4195522518
 20
151.9345425627
 11
20.7668487087
 21
151.5206506585
  0
LINE
  5
3B7
100
AcDbEntity
  8
IMPORT_KE
100
AcDbLine
 62
2
  6
CONTINUOUS
 10
18.4195523797
 20
151.9345425402
 11
20.7668493797
 21
151.5206505402
  0
LINE
  5
3B8
100
AcDbEntity
  8
IMPORT_KE
100
AcDbLine
 62
2
  6
CONTINUOUS
 10
27.2958183797
 20
145.1828455402
 11
22.0888373797
 21
145.2282865402
  0
LINE
  5
3B9
100
AcDbEntity
  8
0
100
AcDbLine
 62
7
  6
CONTINUOUS
 10
22.0888370765
 20
145.2282865428
 11
27.2958183651
 21
145.1828455403
  0
LINE
  5
3BA
100
AcDbEntity
  8
0
100
AcDbLine
 62
7
  6
CONTINUOUS
 10
189.5932003797
 20
111.0802505402
 11
190.0932003797
 21
111.5802505402
  0
LINE
  5
3BB
100
AcDbEntity
  8
0
100
AcDbLine
 62
7
  6
CONTINUOUS
 10
87.6110683797
 20
157.0802505402
 11
19.5932003797
 21
157.0802505402
  0
LINE
  5
3BC
100
AcDbEntity
  8
IMPORT_KE
100
AcDbLine
 62
2
  6
CONTINUOUS
 10
87.6110683797
 20
157.0802505402
 11
19.5932003797
 21
157.0802505402
  0
LINE
  5
3BD
100
AcDbEntity
  8
0
100
AcDbLine
 62
7
  6
CONTINUOUS
 10
172.0932003797
 20
98.0802505402
 11
172.0932003797
 21
106.0802505402
  0
LINE
  5
3BE
100
AcDbEntity
  8
0
100
AcDbLine
 62
7
  6
CONTINUOUS
 10
174.5932003797
 20
61.0802505402
 11
174.5932003797
 21
98.0802505402
  0
LINE
  5
3BF
100
AcDbEntity
  8
0
100
AcDbLine
 62
7
  6
CONTINUOUS
 10
174.5932003797
 20
106.0802505402
 11
174.5932003797
 21
111.0802505402
  0
LINE
  5
3C0
100
AcDbEntity
  8
0
100
AcDbLine
 62
7
  6
CONTINUOUS
 10
190.0932003797
 20
111.5802505402
 11
190.0932003797
 21
112.2297175402
  0
LINE
  5
3C1
100
AcDbEntity
  8
0
100
AcDbLine
 62
7
  6
CONTINUOUS
 10
194.5328924076
 20
117.0104334635
 11
190.3698382573
 21
128.4483308764
  0
ARC
  5
3C2
100
AcDbEntity
  8
0
100
AcDbCircle
 62
7
  6
CONTINUOUS
 10
19.5932003797
 20
81.0802505402
 40
2.0
100
AcDbArc
 50
180.0
 51
270.0
  0
ARC
  5
3C3
100
AcDbEntity
  8
IMPORT_KE
100
AcDbCircle
 62
2
  6
CONTINUOUS
 10
19.5932003797
 20
81.0802505402
 40
2.0
100
AcDbArc
 50
180.0
 51
270.0
  0
ARC
  5
3C4
100
AcDbEntity
  8
0
100
AcDbCircle
 62
7
  6
CONTINUOUS
 10
46.5932003797
 20
90.2836937993
 40
2.0
100
AcDbArc
 50
180.0
 51
269.7
  0
ARC
  5
3C5
100
AcDbEntity
  8
0
100
AcDbCircle
 62
7
  6
CONTINUOUS
 10
58.0932003797
 20
91.4112106746
 40
1.5
100
AcDbArc
 50
180.0
 51
269.5
  0
ARC
  5
3C6
100
AcDbEntity
  8
0
100
AcDbCircle
 62
7
  6
CONTINUOUS
 10
52.0932003797
 20
90.0994005905
 40
1.5
100
AcDbArc
 50
180.0
 51
269.0
  0
ARC
  5
3C7
100
AcDbEntity
  8
0
100
AcDbCircle
 62
7
  6
CONTINUOUS
 10
54.8932003797
 20
91.2653172549
 40
1.5
100
AcDbArc
 50
180.0
 51
269.5
  0
ARC
  5
3C8
100
AcDbEntity
  8
0
100
AcDbCircle
 62
7
  6
CONTINUOUS
 10
19.0932003797
 20
99.4060145402
 40
1.5
100
AcDbArc
 50
90.5000042622
 51
180.0
  0
ARC
  5
3C9
100
AcDbEntity
  8
IMPORT_KE
100
AcDbCircle
 62
2
  6
CONTINUOUS
 10
19.0932003797
 20
99.4060145402
 40
1.5
100
AcDbArc
 50
90.4999692809
 51
180.0
  0
ARC
  5
3CA
100
AcDbEntity
  8
A_RUNDUNGEN
100
AcDbCircle
 62
7
  6
CONTINUOUS
 10
59.4932003797
 20
90.7251546239
 40
1.0
100
AcDbArc
 50
235.7510301834
 51
269.5
  0
ARC
  5
3CB
100
AcDbEntity
  8
0
100
AcDbCircle
 62
7
  6
CONTINUOUS
 10
27.2932003797
 20
101.2776435402
 40
0.3
100
AcDbArc
 50
270.5000042622
 51
360.0
  0
ARC
  5
3CC
100
AcDbEntity
  8
IMPORT_KE
100
AcDbCircle
 62
2
  6
CONTINUOUS
 10
27.2932003797
 20
101.2776435402
 40
0.3
100
AcDbArc
 50
270.5000084766
 51
360.0
  0
ARC
  5
3CD
100
AcDbEntity
  8
QUER2
100
AcDbCircle
 62
7
  6
CONTINUOUS
 10
70.1798991202
 20
66.402978146
 40
13.3928774596
100
AcDbArc
 50
62.727386009
 51
67.20682206
  0
ARC
  5
3CE
100
AcDbEntity
  8
QUER2
100
AcDbCircle
 62
7
  6
CONTINUOUS
 10
70.1798991202
 20
66.402978146
 40
13.3928774596
100
AcDbArc
 50
55.2845037669
 51
59.2844205334
  0
ARC
  5
3CF
100
AcDbEntity
  8
QUER2
100
AcDbCircle
 62
7
  6
CONTINUOUS
 10
70.1798991202
 20
66.402978146
 40
13.3928774596
100
AcDbArc
 50
47.7810361635
 51
51.8421451123
  0
ARC
  5
3D0
100
AcDbEntity
  8
QUER2
100
AcDbCircle
 62
7
  6
CONTINUOUS
 10
70.1798991202
 20
66.402978146
 40
13.3928774596
100
AcDbArc
 50
39.9704349704
 51
44.3393766357
  0
ARC
  5
3D1
100
AcDbEntity
  8
QUER2
100
AcDbCircle
 62
7
  6
CONTINUOUS
 10
70.1798991202
 20
66.402978146
 40
13.3928774596
100
AcDbArc
 50
77.598515657
 51
97.5210600325
  0
ARC
  5
3D2
100
AcDbEntity
  8
QUER2
100
AcDbCircle
 62
7
  6
CONTINUOUS
 10
70.1798991202
 20
66.402978146
 40
11.478516903
100
AcDbArc
 50
30.8333048429
 51
97.8460018237
  0
ARC
  5
3D3
100
AcDbEntity
  8
0
100
AcDbCircle
 62
7
  6
CONTINUOUS
 10
70.0932003797
 20
66.6802505402
 40
5.5
100
AcDbArc
 50
65.390016476
 51
294.609983524
  0
ARC
  5
3D4
100
AcDbEntity
  8
QUER2
100
AcDbCircle
 62
7
  6
CONTINUOUS
 10
70.0932003797
 20
66.6802505402
 40
5.0
100
AcDbArc
 50
90.0
 51
270.0
  0
ARC
  5
3D5
100
AcDbEntity
  8
0
100
AcDbCircle
 62
7
  6
CONTINUOUS
 10
67.5932003797
 20
61.0802505402
 40
3.0
100
AcDbArc
 50
180.0
 51
270.0
  0
CIRCLE
  5
3D6
100
AcDbEntity
  8
QUER2
100
AcDbCircle
 62
7
  6
CONTINUOUS
 10
70.0932003797
 20
66.6802505402
 40
2.5
  0
CIRCLE
  5
3D7
100
AcDbEntity
  8
A_ACHSEN
100
AcDbCircle
 62
7
  6
CONTINUOUS
 10
70.0932003797
 20
66.6802505402
 40
2.45
  0
CIRCLE
  5
3D8
100
AcDbEntity
  8
A_ACHSEN
100
AcDbCircle
 62
7
  6
CONTINUOUS
 10
70.0932003797
 20
66.6802505402
 40
1.6215728753
  0
ARC
  5
3D9
100
AcDbEntity
  8
0
100
AcDbCircle
 62
7
  6
CONTINUOUS
 10
75.5932003797
 20
81.0802505402
 40
2.0
100
AcDbArc
 50
270.0
 51
360.0
  0
ARC
  5
3DA
100
AcDbEntity
  8
IMPORT_KE
100
AcDbCircle
 62
2
  6
CONTINUOUS
 10
75.5932003797
 20
81.0802505402
 40
2.0
100
AcDbArc
 50
270.0
 51
360.0
  0
ARC
  5
3DB
100
AcDbEntity
  8
QUER2
100
AcDbCircle
 62
7
  6
CONTINUOUS
 10
73.1640280121
 20
79.9738983355
 40
0.5022619795
100
AcDbArc
 50
257.598515657
 51
0.8619182248
  0
ARC
  5
3DC
100
AcDbEntity
  8
QUER2
100
AcDbCircle
 62
7
  6
CONTINUOUS
 10
74.9960666153
 20
78.9025755295
 40
0.4023630867
100
AcDbArc
 50
176.5890765054
 51
337.7153682265
  0
ARC
  5
3DD
100
AcDbEntity
  8
QUER2
100
AcDbCircle
 62
7
  6
CONTINUOUS
 10
68.571469293
 20
78.0750983153
 40
0.3039037208
100
AcDbArc
 50
184.5937440552
 51
277.8460018237
  0
ARC
  5
3DE
100
AcDbEntity
  8
QUER2
100
AcDbCircle
 62
7
  6
CONTINUOUS
 10
68.4666754193
 20
79.3793450523
 40
0.3039037208
100
AcDbArc
 50
97.5210600325
 51
184.5937440552
  0
ARC
  5
3DF
100
AcDbEntity
  8
QUER2
100
AcDbCircle
 62
7
  6
CONTINUOUS
 10
82.5589113164
 20
72.6411377319
 40
0.6
100
AcDbArc
 50
350.0
 51
121.8763603803
  0
ARC
  5
3E0
100
AcDbEntity
  8
QUER2
100
AcDbCircle
 62
7
  6
CONTINUOUS
 10
82.6567853102
 20
72.4166645086
 40
0.5837
100
AcDbArc
 50
8.4071409463
 51
121.8587620103
  0
ARC
  5
3E1
100
AcDbEntity
  8
QUER2
100
AcDbCircle
 62
7
  6
CONTINUOUS
 10
80.4673400187
 20
72.5436314005
 40
0.5022619795
100
AcDbArc
 50
210.8333048429
 51
290.547271683
  0
ARC
  5
3E2
100
AcDbEntity
  8
QUER2
100
AcDbCircle
 62
7
  6
CONTINUOUS
 10
83.60251832
 20
71.637128708
 40
0.5
100
AcDbArc
 50
170.9328996899
 51
315.0
  0
ARC
  5
3E3
100
AcDbEntity
  8
QUER2
100
AcDbCircle
 62
7
  6
CONTINUOUS
 10
83.476653313
 20
71.5112637009
 40
0.5
100
AcDbArc
 50
170.0
 51
315.0
  0
ARC
  5
3E4
100
AcDbEntity
  8
QUER2
100
AcDbCircle
 62
7
  6
CONTINUOUS
 10
79.4607049126
 20
76.0337657563
 40
0.4023630867
100
AcDbArc
 50
134.3466524339
 51
317.7737603653
  0
ARC
  5
3E5
100
AcDbEntity
  8
QUER2
100
AcDbCircle
 62
7
  6
CONTINUOUS
 10
80.6862616196
 20
74.6852938389
 40
0.4023630867
100
AcDbArc
 50
127.0417644818
 51
294.1747780881
  0
ARC
  5
3E6
100
AcDbEntity
  8
QUER2
100
AcDbCircle
 62
7
  6
CONTINUOUS
 10
77.0932003797
 20
81.4302505402
 40
19.75
100
AcDbArc
 50
270.0
 51
90.0
  0
ARC
  5
3E7
100
AcDbEntity
  8
QUER2
100
AcDbCircle
 62
7
  6
CONTINUOUS
 10
77.0932003797
 20
81.4302505402
 40
9.75
100
AcDbArc
 50
270.0
 51
301.8763603803
  0
ARC
  5
3E8
100
AcDbEntity
  8
QUER2
100
AcDbCircle
 62
7
  6
CONTINUOUS
 10
77.0932003797
 20
81.4302505402
 40
9.75
100
AcDbArc
 50
328.1236396197
 51
90.0
  0
ARC
  5
3E9
100
AcDbEntity
  8
QUER2
100
AcDbCircle
 62
7
  6
CONTINUOUS
 10
77.2596550209
 20
81.1014437329
 40
9.6414848656
100
AcDbArc
 50
290.547271683
 51
301.8587620103
  0
ARC
  5
3EA
100
AcDbEntity
  8
QUER2
100
AcDbCircle
 62
7
  6
CONTINUOUS
 10
77.2596550209
 20
81.1014437329
 40
9.6414848656
100
AcDbArc
 50
328.2593605105
 51
340.8200823557
  0
ARC
  5
3EB
100
AcDbEntity
  8
QUER2
100
AcDbCircle
 62
7
  6
CONTINUOUS
 10
80.1970020575
 20
80.0797055322
 40
6.5315079261
100
AcDbArc
 50
340.8200823557
 51
169.0947514089
  0
ARC
  5
3EC
100
AcDbEntity
  8
QUER2
100
AcDbCircle
 62
7
  6
CONTINUOUS
 10
80.1970020575
 20
80.0797055322
 40
5.5240497507
100
AcDbArc
 50
294.1747780881
 51
176.5890765054
  0
ARC
  5
3ED
100
AcDbEntity
  8
QUER2
100
AcDbCircle
 62
7
  6
CONTINUOUS
 10
76.6710327803
 20
78.1161392155
 40
0.4023630867
100
AcDbArc
 50
151.6741664759
 51
330.3376400666
  0
ARC
  5
3EE
100
AcDbEntity
  8
QUER2
100
AcDbCircle
 62
7
  6
CONTINUOUS
 10
78.1360763706
 20
77.1800247407
 40
0.4023630867
100
AcDbArc
 50
144.829576765
 51
322.2970721142
  0
ARC
  5
3EF
100
AcDbEntity
  8
0
100
AcDbCircle
 62
7
  6
CONTINUOUS
 10
93.5932003797
 20
68.1802505402
 40
5.0
100
AcDbArc
 50
270.0
 51
360.0
  0
ARC
  5
3F0
100
AcDbEntity
  8
0
100
AcDbCircle
 62
7
  6
CONTINUOUS
 10
100.0932003797
 20
63.36615722
 40
2.0
100
AcDbArc
 50
270.3
 51
360.0
  0
ARC
  5
3F1
100
AcDbEntity
  8
A_RUNDUNGEN
100
AcDbCircle
 62
7
  6
CONTINUOUS
 10
93.5932004129
 20
76.8904914923
 40
4.9999999497
100
AcDbArc
 50
359.9999994056
 51
50.0137376067
  0
ARC
  5
3F2
100
AcDbEntity
  8
A_RUNDUNGEN
100
AcDbCircle
 62
7
  6
CONTINUOUS
 10
95.593200445
 20
76.4508975813
 40
2.999999909
100
AcDbArc
 50
270.4999987692
 51
359.6073082932
  0
ARC
  5
3F3
100
AcDbEntity
  8
QUER2
100
AcDbCircle
 62
7
  6
CONTINUOUS
 10
85.9721634256
 20
75.7119481818
 40
0.6032437788
100
AcDbArc
 50
148.2593605105
 51
295.0
  0
ARC
  5
3F4
100
AcDbEntity
  8
QUER2
100
AcDbCircle
 62
7
  6
CONTINUOUS
 10
85.8823131879
 20
75.9645396035
 40
0.6
100
AcDbArc
 50
148.1236396197
 51
280.0
  0
ARC
  5
3F5
100
AcDbEntity
  8
QUER2
100
AcDbCircle
 62
7
  6
CONTINUOUS
 10
86.8863222119
 20
74.9209325998
 40
0.5
100
AcDbArc
 50
315.0
 51
115.0
  0
ARC
  5
3F6
100
AcDbEntity
  8
QUER2
100
AcDbCircle
 62
7
  6
CONTINUOUS
 10
87.0121872189
 20
75.0467976069
 40
0.5
100
AcDbArc
 50
315.0
 51
100.0
  0
ARC
  5
3F7
100
AcDbEntity
  8
QUER2
100
AcDbCircle
 62
7
  6
CONTINUOUS
 10
64.3932003797
 20
91.4802505402
 40
0.3
100
AcDbArc
 50
180.0
 51
270.0
  0
ARC
  5
3F8
100
AcDbEntity
  8
0
100
AcDbCircle
 62
7
  6
CONTINUOUS
 10
79.4001698158
 20
103.0802505402
 40
3.5547736725
100
AcDbArc
 50
175.9671753207
 51
184.0328246793
  0
ARC
  5
3F9
100
AcDbEntity
  8
QUER2
100
AcDbCircle
 62
7
  6
CONTINUOUS
 10
74.5932003797
 20
102.6802505402
 40
1.5
100
AcDbArc
 50
180.0
 51
270.0
  0
ARC
  5
3FA
100
AcDbEntity
  8
A_RUNDUNGEN
100
AcDbCircle
 62
7
  6
CONTINUOUS
 10
66.7932003797
 20
105.3802505402
 40
0.3
100
AcDbArc
 50
0.0000013184
 51
90.0
  0
ARC
  5
3FB
100
AcDbEntity
  8
A_RUNDUNGEN
100
AcDbCircle
 62
7
  6
CONTINUOUS
 10
67.3932003797
 20
104.2302505402
 40
0.3
100
AcDbArc
 50
179.9999999998
 51
270.0
  0
ARC
  5
3FC
100
AcDbEntity
  8
A_RUNDUNGEN
100
AcDbCircle
 62
7
  6
CONTINUOUS
 10
71.7932003797
 20
104.2302505402
 40
0.3
100
AcDbArc
 50
270.0
 51
360.0
  0
ARC
  5
3FD
100
AcDbEntity
  8
A_RUNDUNGEN
100
AcDbCircle
 62
8
  6
HIDDEN
 10
71.8932003797
 20
105.732334774
 40
0.2
100
AcDbArc
 50
0.0000115848
 51
90.0
  0
ARC
  5
3FE
100
AcDbEntity
  8
A_RUNDUNGEN
100
AcDbCircle
 62
8
  6
HIDDEN
 10
71.8932003797
 20
106.6312926571
 40
0.2
100
AcDbArc
 50
0.000075962
 51
90.0
  0
ARC
  5
3FF
100
AcDbEntity
  8
A_RUNDUNGEN
100
AcDbCircle
 62
8
  6
HIDDEN
 10
71.8932003797
 20
106.6827943805
 40
0.2
100
AcDbArc
 50
359.9949851454
 51
90.0
  0
ARC
  5
400
100
AcDbEntity
  8
A_RUNDUNGEN
100
AcDbCircle
 62
7
  6
CONTINUOUS
 10
97.5932003797
 20
87.5733543009
 40
0.9999860771
100
AcDbArc
 50
271.5000417794
 51
0.001595992
  0
ARC
  5
401
100
AcDbEntity
  8
0
100
AcDbCircle
 62
7
  6
CONTINUOUS
 10
100.0932003797
 20
99.4943438603
 40
2.0
100
AcDbArc
 50
0.0
 51
89.7
  0
ARC
  5
402
100
AcDbEntity
  8
0
100
AcDbCircle
 62
7
  6
CONTINUOUS
 10
97.0932003797
 20
97.8000404887
 40
1.5
100
AcDbArc
 50
0.0
 51
88.5
  0
ARC
  5
403
100
AcDbEntity
  8
0
100
AcDbCircle
 62
7
  6
CONTINUOUS
 10
88.2939029409
 20
100.5313151825
 40
1.0
100
AcDbArc
 50
255.425783802
 51
268.5
  0
ARC
  5
404
100
AcDbEntity
  8
0
100
AcDbCircle
 62
7
  6
CONTINUOUS
 10
46.5932003797
 20
115.876807281
 40
2.0
100
AcDbArc
 50
90.3
 51
180.0
  0
ARC
  5
405
100
AcDbEntity
  8
0
100
AcDbCircle
 62
7
  6
CONTINUOUS
 10
19.5932003797
 20
115.7501225402
 40
1.5000001084
100
AcDbArc
 50
180.0
 51
269.4999996651
  0
ARC
  5
406
100
AcDbEntity
  8
IMPORT_KE
100
AcDbCircle
 62
2
  6
CONTINUOUS
 10
19.5932003797
 20
115.7501225402
 40
1.5000001084
100
AcDbArc
 50
180.0
 51
269.5000307191
  0
ARC
  5
407
100
AcDbEntity
  8
0
100
AcDbCircle
 62
7
  6
CONTINUOUS
 10
58.0932003797
 20
114.7492904057
 40
1.5
100
AcDbArc
 50
90.5
 51
180.0
  0
ARC
  5
408
100
AcDbEntity
  8
0
100
AcDbCircle
 62
7
  6
CONTINUOUS
 10
52.0932003797
 20
116.0611004898
 40
1.5
100
AcDbArc
 50
91.0
 51
180.0
  0
ARC
  5
409
100
AcDbEntity
  8
0
100
AcDbCircle
 62
7
  6
CONTINUOUS
 10
54.8932003797
 20
114.8951838254
 40
1.5
100
AcDbArc
 50
90.5
 51
180.0
  0
ARC
  5
40A
100
AcDbEntity
  8
0
100
AcDbCircle
 62
7
  6
CONTINUOUS
 10
19.5932003797
 20
130.4103785402
 40
1.5
100
AcDbArc
 50
90.5000003349
 51
180.0
  0
ARC
  5
40B
100
AcDbEntity
  8
IMPORT_KE
100
AcDbCircle
 62
2
  6
CONTINUOUS
 10
19.5932003797
 20
130.4103785402
 40
1.5
100
AcDbArc
 50
90.4999692809
 51
180.0
  0
ARC
  5
40C
100
AcDbEntity
  8
A_RUNDUNGEN
100
AcDbCircle
 62
7
  6
CONTINUOUS
 10
59.4931775436
 20
115.4353462572
 40
0.999992388
100
AcDbArc
 50
90.4986915378
 51
124.247925682
  0
ARC
  5
40D
100
AcDbEntity
  8
0
100
AcDbCircle
 62
7
  6
CONTINUOUS
 10
27.2932003797
 20
113.8828565402
 40
0.3000004234
100
AcDbArc
 50
0.0
 51
89.4999996651
  0
ARC
  5
40E
100
AcDbEntity
  8
IMPORT_KE
100
AcDbCircle
 62
2
  6
CONTINUOUS
 10
27.2932003797
 20
113.8828565402
 40
0.3000004234
100
AcDbArc
 50
0.0
 51
89.49999319
  0
ARC
  5
40F
100
AcDbEntity
  8
0
100
AcDbCircle
 62
7
  6
CONTINUOUS
 10
27.2932003797
 20
132.2776435402
 40
0.3
100
AcDbArc
 50
270.5000003349
 51
360.0
  0
ARC
  5
410
100
AcDbEntity
  8
IMPORT_KE
100
AcDbCircle
 62
2
  6
CONTINUOUS
 10
27.2932003797
 20
132.2776435402
 40
0.3
100
AcDbArc
 50
270.5000084766
 51
360.0
  0
ARC
  5
411
100
AcDbEntity
  8
0
100
AcDbCircle
 62
7
  6
CONTINUOUS
 10
19.5932003797
 20
155.0802505402
 40
2.0
100
AcDbArc
 50
90.0
 51
180.0
  0
ARC
  5
412
100
AcDbEntity
  8
IMPORT_KE
100
AcDbCircle
 62
2
  6
CONTINUOUS
 10
19.5932003797
 20
155.0802505402
 40
2.0
100
AcDbArc
 50
90.0
 51
180.0
  0
ARC
  5
413
100
AcDbEntity
  8
0
100
AcDbCircle
 62
7
  6
CONTINUOUS
 10
20.5932003797
 20
150.5358425402
 40
1.000000386
100
AcDbArc
 50
0.0
 51
79.9999950958
  0
ARC
  5
414
100
AcDbEntity
  8
IMPORT_KE
100
AcDbCircle
 62
2
  6
CONTINUOUS
 10
20.5932003797
 20
150.5358425402
 40
1.000000386
100
AcDbArc
 50
0.0
 51
79.999956057
  0
ARC
  5
415
100
AcDbEntity
  8
0
100
AcDbCircle
 62
7
  6
CONTINUOUS
 10
18.5932003797
 20
152.9193495402
 40
0.9999992276
100
AcDbArc
 50
180.0
 51
259.9999950958
  0
ARC
  5
416
100
AcDbEntity
  8
IMPORT_KE
100
AcDbCircle
 62
2
  6
CONTINUOUS
 10
18.5932003797
 20
152.9193495402
 40
0.9999992276
100
AcDbArc
 50
180.0
 51
260.000002533
  0
ARC
  5
417
100
AcDbEntity
  8
0
100
AcDbCircle
 62
7
  6
CONTINUOUS
 10
22.0932003797
 20
145.7282675402
 40
0.5000000361
100
AcDbArc
 50
180.0
 51
269.4999959815
  0
ARC
  5
418
100
AcDbEntity
  8
IMPORT_KE
100
AcDbCircle
 62
2
  6
CONTINUOUS
 10
22.0932003797
 20
145.7282675402
 40
0.5000000361
100
AcDbArc
 50
180.0
 51
269.5000307191
  0
ARC
  5
419
100
AcDbEntity
  8
0
100
AcDbCircle
 62
7
  6
CONTINUOUS
 10
27.2932003797
 20
144.8828565402
 40
0.3000004234
100
AcDbArc
 50
0.0
 51
89.4999959815
  0
ARC
  5
41A
100
AcDbEntity
  8
IMPORT_KE
100
AcDbCircle
 62
2
  6
CONTINUOUS
 10
27.2932003797
 20
144.8828565402
 40
0.3000004234
100
AcDbArc
 50
0.0
 51
89.49999319
  0
ARC
  5
41B
100
AcDbEntity
  8
A_RUNDUNGEN
100
AcDbCircle
 62
7
  6
CONTINUOUS
 10
66.7932003797
 20
110.9802505402
 40
0.3
100
AcDbArc
 50
270.0
 51
359.9999966848
  0
ARC
  5
41C
100
AcDbEntity
  8
A_RUNDUNGEN
100
AcDbCircle
 62
7
  6
CONTINUOUS
 10
67.3932003797
 20
112.1302505402
 40
0.3
100
AcDbArc
 50
90.0
 51
180.0000000002
  0
ARC
  5
41D
100
AcDbEntity
  8
A_RUNDUNGEN
100
AcDbCircle
 62
7
  6
CONTINUOUS
 10
71.7932003797
 20
112.1302505402
 40
0.3
100
AcDbArc
 50
0.0
 51
90.0
  0
ARC
  5
41E
100
AcDbEntity
  8
QUER2
100
AcDbCircle
 62
7
  6
CONTINUOUS
 10
64.3932003797
 20
114.4802505402
 40
0.3
100
AcDbArc
 50
90.0
 51
180.0
  0
ARC
  5
41F
100
AcDbEntity
  8
QUER2
100
AcDbCircle
 62
7
  6
CONTINUOUS
 10
72.7932003797
 20
114.4802505402
 40
0.3
100
AcDbArc
 50
0.0
 51
90.0
  0
ARC
  5
420
100
AcDbEntity
  8
A_RUNDUNGEN
100
AcDbCircle
 62
8
  6
HIDDEN
 10
71.8932003797
 20
110.6281663063
 40
0.2
100
AcDbArc
 50
270.0
 51
359.9999884152
  0
ARC
  5
421
100
AcDbEntity
  8
A_RUNDUNGEN
100
AcDbCircle
 62
8
  6
HIDDEN
 10
71.8932003797
 20
109.7292084232
 40
0.2
100
AcDbArc
 50
270.0
 51
359.9999832711
  0
ARC
  5
422
100
AcDbEntity
  8
A_RUNDUNGEN
100
AcDbCircle
 62
8
  6
HIDDEN
 10
71.8932003797
 20
109.6777066998
 40
0.2
100
AcDbArc
 50
270.0
 51
0.0050148546
  0
ARC
  5
423
100
AcDbEntity
  8
IMPORT_KE
100
AcDbCircle
 62
6
  6
CONTINUOUS
 10
71.0932003797
 20
123.2802505402
 40
1.000000287
100
AcDbArc
 50
90.0
 51
215.0000279098
  0
ARC
  5
424
100
AcDbEntity
  8
IMPORT_KE
100
AcDbCircle
 62
6
  6
CONTINUOUS
 10
77.5932003797
 20
119.0802505402
 40
1.0
100
AcDbArc
 50
270.0
 51
360.0
  0
ARC
  5
425
100
AcDbEntity
  8
IMPORT_KE
100
AcDbCircle
 62
2
  6
CONTINUOUS
 10
78.5932003797
 20
123.5802505402
 40
0.9999996503
100
AcDbArc
 50
135.5729621948
 51
149.9999884324
  0
ARC
  5
426
100
AcDbEntity
  8
0
100
AcDbCircle
 62
7
  6
CONTINUOUS
 10
78.5932003797
 20
123.5802505402
 40
0.9999993981
100
AcDbArc
 50
90.0
 51
149.9999884324
  0
ARC
  5
427
100
AcDbEntity
  8
IMPORT_KE
100
AcDbCircle
 62
6
  6
CONTINUOUS
 10
78.5932003797
 20
123.5802505402
 40
0.9999993981
100
AcDbArc
 50
90.0
 51
135.5729621948
  0
ARC
  5
428
100
AcDbEntity
  8
IMPORT_KE
100
AcDbCircle
 62
6
  6
CONTINUOUS
 10
84.0932003797
 20
120.0802505402
 40
0.5
100
AcDbArc
 50
180.0
 51
270.0
  0
ARC
  5
429
100
AcDbEntity
  8
IMPORT_KE
100
AcDbCircle
 62
6
  6
CONTINUOUS
 10
71.4253403797
 20
122.9802505402
 40
0.3000003564
100
AcDbArc
 50
90.0
 51
214.9999684471
  0
ARC
  5
42A
100
AcDbEntity
  8
0
100
AcDbCircle
 62
7
  6
CONTINUOUS
 10
85.4757263797
 20
116.0802505402
 40
1.999999563
100
AcDbArc
 50
90.0
 51
174.9999992829
  0
ARC
  5
42B
100
AcDbEntity
  8
0
100
AcDbCircle
 62
7
  6
CONTINUOUS
 10
105.4027493797
 20
128.0802505402
 40
2.9999996523
100
AcDbArc
 50
90.0
 51
170.0000017934
  0
ARC
  5
42C
100
AcDbEntity
  8
0
100
AcDbCircle
 62
7
  6
CONTINUOUS
 10
94.0932003797
 20
126.0802505402
 40
1.5
100
AcDbArc
 50
270.0
 51
360.0
  0
ARC
  5
42D
100
AcDbEntity
  8
IMPORT_KE
100
AcDbCircle
 62
2
  6
CONTINUOUS
 10
94.0932003797
 20
126.0802505402
 40
1.5
100
AcDbArc
 50
270.0
 51
360.0
  0
ARC
  5
42E
100
AcDbEntity
  8
0
100
AcDbCircle
 62
7
  6
CONTINUOUS
 10
99.7541003797
 20
119.0802505402
 40
1.000000386
100
AcDbArc
 50
270.0
 51
350.0000017934
  0
ARC
  5
42F
100
AcDbEntity
  8
IMPORT_KE
100
AcDbCircle
 62
6
  6
CONTINUOUS
 10
91.6380403797
 20
120.3543615402
 40
1.0000000347
100
AcDbArc
 50
60.0000170803
 51
129.9999527308
  0
ARC
  5
430
100
AcDbEntity
  8
IMPORT_KE
100
AcDbCircle
 62
6
  6
CONTINUOUS
 10
94.5932003797
 20
120.0802505402
 40
0.5000001547
100
AcDbArc
 50
270.0
 51
44.9999189716
  0
ARC
  5
431
100
AcDbEntity
  8
IMPORT_KE
100
AcDbCircle
 62
6
  6
CONTINUOUS
 10
92.8760433797
 20
122.0802505402
 40
0.5000001547
100
AcDbArc
 50
135.0
 51
225.0000810284
  0
ARC
  5
432
100
AcDbEntity
  8
IMPORT_KE
100
AcDbCircle
 62
6
  6
CONTINUOUS
 10
94.5932003797
 20
124.0802505402
 40
0.5
100
AcDbArc
 50
315.0
 51
90.0
  0
ARC
  5
433
100
AcDbEntity
  8
IMPORT_KE
100
AcDbCircle
 62
6
  6
CONTINUOUS
 10
89.9112153797
 20
120.0802505402
 40
0.4999999557
100
AcDbArc
 50
270.0
 51
310.0000334509
  0
ARC
  5
434
100
AcDbEntity
  8
IMPORT_KE
100
AcDbCircle
 62
6
  6
CONTINUOUS
 10
91.7302013797
 20
120.3011535402
 40
0.4999999557
100
AcDbArc
 50
59.9999597845
 51
130.0000334509
  0
ARC
  5
435
100
AcDbEntity
  8
IMPORT_KE
100
AcDbCircle
 62
6
  6
CONTINUOUS
 10
92.5432003797
 20
119.9802505402
 40
0.4031128874
100
AcDbArc
 50
82.8749836511
 51
262.8749836511
  0
ARC
  5
436
100
AcDbEntity
  8
0
100
AcDbCircle
 62
7
  6
CONTINUOUS
 10
87.6110683797
 20
153.0802505402
 40
4.0
100
AcDbArc
 50
19.9999997762
 51
90.0
  0
ARC
  5
437
100
AcDbEntity
  8
IMPORT_KE
100
AcDbCircle
 62
2
  6
CONTINUOUS
 10
87.6110683797
 20
153.0802505402
 40
4.0
100
AcDbArc
 50
19.9999897512
 51
90.0
  0
ARC
  5
438
100
AcDbEntity
  8
0
100
AcDbCircle
 62
7
  6
CONTINUOUS
 10
94.5932003797
 20
142.6684135402
 40
1.0000003073
100
AcDbArc
 50
0.0
 51
19.9999997762
  0
ARC
  5
439
100
AcDbEntity
  8
IMPORT_KE
100
AcDbCircle
 62
2
  6
CONTINUOUS
 10
94.5932003797
 20
142.6684135402
 40
1.0000003073
100
AcDbArc
 50
0.0
 51
19.9999848521
  0
ARC
  5
43A
100
AcDbEntity
  8
0
100
AcDbCircle
 62
7
  6
CONTINUOUS
 10
167.0932003797
 20
61.0802505402
 40
3.0
100
AcDbArc
 50
270.0
 51
360.0
  0
ARC
  5
43B
100
AcDbEntity
  8
0
100
AcDbCircle
 62
7
  6
CONTINUOUS
 10
186.6110683797
 20
127.0802505402
 40
4.0
100
AcDbArc
 50
19.9999997762
 51
90.0
  0
ARC
  5
43C
100
AcDbEntity
  8
0
100
AcDbCircle
 62
7
  6
CONTINUOUS
 10
193.0932003797
 20
112.2297175402
 40
3.0
100
AcDbArc
 50
109.9999761886
 51
180.0
  0
ARC
  5
43D
100
AcDbEntity
  8
0
100
AcDbCircle
 62
7
  6
CONTINUOUS
 10
193.5932003797
 20
116.6684135402
 40
0.9999993676
100
AcDbArc
 50
289.9999761886
 51
19.9999997762
  0
SPLINE
  5
43E
100
AcDbEntity
  8
DEFAULT_2
100
AcDbSpline
 62
8
  6
HIDDEN
 70
0
 71
3
 72
13
 73
9
 74
0
 42
0.0000001
 43
0.0000001
 44
0.0000000001
 40
0.0
 40
0.0
 40
0.0
 40
0.0
 40
0.3823170071
 40
0.7042352416
 40
0.8287639021
 40
0.9220602524
 40
0.9800639013
 40
1.0
 40
1.0
 40
1.0
 40
1.0
 10
69.7525379325
 20
106.2779564491
 30
0.0
 10
69.7756093562
 20
106.2345707239
 30
0.0
 10
69.8170957419
 20
106.1541122461
 30
0.0
 10
69.8639173312
 20
106.0584263261
 30
0.0
 10
69.8938499217
 20
105.9958489065
 30
0.0
 10
69.9086500055
 20
105.963620457
 30
0.0
 10
69.9184077834
 20
105.9439106052
 30
0.0
 10
69.9221003317
 20
105.9345538432
 30
0.0
 10
69.9233815118
 20
105.932334774
 30
0.0
  0
SPLINE
  5
43F
100
AcDbEntity
  8
DEFAULT_2
100
AcDbSpline
 62
8
  6
HIDDEN
 70
0
 71
3
 72
17
 73
13
 74
0
 42
0.0000001
 43
0.0000001
 44
0.0000000001
 40
0.0
 40
0.0
 40
0.0
 40
0.0
 40
0.1335747062
 40
0.2852050946
 40
0.4465642499
 40
0.6046379831
 40
0.7454736112
 40
0.8564080718
 40
0.8997829534
 40
0.9363696965
 40
0.96854054
 40
1.0
 40
1.0
 40
1.0
 40
1.0
 10
69.7525379325
 20
107.6081864328
 30
0.0
 10
69.7755401121
 20
107.577626058
 30
0.0
 10
69.8177133195
 20
107.5071286929
 30
0.0
 10
69.8671536775
 20
107.3888459384
 30
0.0
 10
69.9031176707
 20
107.2584969552
 30
0.0
 10
69.9230462522
 20
107.1278092134
 30
0.0
 10
69.9249939651
 20
107.0102349507
 30
0.0
 10
69.9112031189
 20
106.9256644793
 30
0.0
 10
69.8882082195
 20
106.8756899035
 30
0.0
 10
69.8679803994
 20
106.8501677187
 30
0.0
 10
69.8430845596
 20
106.834609855
 30
0.0
 10
69.824647958
 20
106.8314978336
 30
0.0
 10
69.8156396753
 20
106.8314290809
 30
0.0
  0
SPLINE
  5
440
100
AcDbEntity
  8
DEFAULT_2
100
AcDbSpline
 62
8
  6
HIDDEN
 70
0
 71
3
 72
14
 73
10
 74
0
 42
0.0000001
 43
0.0000001
 44
0.0000000001
 40
0.0
 40
0.0
 40
0.0
 40
0.0
 40
0.3699102718
 40
0.5337721927
 40
0.6747766993
 40
0.7867414405
 40
0.8692868462
 40
0.9342781783
 40
1.0
 40
1.0
 40
1.0
 40
1.0
 10
69.7525379325
 20
106.2779564491
 30
0.0
 10
69.7125532286
 20
106.3531475339
 30
0.0
 10
69.6563096932
 20
106.4625901288
 30
0.0
 10
69.59732296
 20
106.6064406562
 30
0.0
 10
69.5692175783
 20
106.6984166
 30
0.0
 10
69.5574613657
 20
106.7751613321
 30
0.0
 10
69.566400181
 20
106.8360723115
 30
0.0
 10
69.5998007805
 20
106.8763096391
 30
0.0
 10
69.6312555202
 20
106.8827829521
 30
0.0
 10
69.6463857422
 20
106.882890864
 30
0.0
  0
SPLINE
  5
441
100
AcDbEntity
  8
DEFAULT_2
100
AcDbSpline
 62
8
  6
HIDDEN
 70
0
 71
3
 72
17
 73
13
 74
0
 42
0.0000001
 43
0.0000001
 44
0.0000000001
 40
0.0
 40
0.0
 40
0.0
 40
0.0
 40
0.0314594513
 40
0.063630326
 40
0.1002171407
 40
0.1435921279
 40
0.2545267375
 40
0.3953624568
 40
0.5534361924
 40
0.7147952759
 40
0.8664254743
 40
1.0
 40
1.0
 40
1.0
 40
1.0
 10
69.8156401698
 20
109.5290719566
 30
0.0
 10
69.8246484445
 20
109.5290031478
 30
0.0
 10
69.8430850179
 20
109.5258910041
 30
0.0
 10
69.8679807918
 20
109.5103330235
 30
0.0
 10
69.8882085212
 20
109.4848107132
 30
0.0
 10
69.9112032676
 20
109.4348360054
 30
0.0
 10
69.9249940115
 20
109.350265481
 30
0.0
 10
69.9230461819
 20
109.2326912151
 30
0.0
 10
69.9031175392
 20
109.1020035559
 30
0.0
 10
69.8671535217
 20
108.9716547396
 30
0.0
 10
69.817713242
 20
108.8533721678
 30
0.0
 10
69.7755400677
 20
108.7828749634
 30
0.0
 10
69.7525379325
 20
108.7523146476
 30
0.0
  0
SPLINE
  5
442
100
AcDbEntity
  8
DEFAULT_2
100
AcDbSpline
 62
8
  6
HIDDEN
 70
0
 71
3
 72
21
 73
17
 74
0
 42
0.0000001
 43
0.0000001
 44
0.0000000001
 40
0.0
 40
0.0
 40
0.0
 40
0.0
 40
0.0012682531
 40
0.0050444688
 40
0.0112858327
 40
0.0199495358
 40
0.0443727477
 40
0.0779717415
 40
0.1204042326
 40
0.1712653136
 40
0.2299438463
 40
0.2957866999
 40
0.4463552272
 40
0.6176886778
 40
0.8041513214
 40
1.0
 40
1.0
 40
1.0
 40
1.0
 10
69.9233815118
 20
110.4281663063
 30
0.0
 10
69.9235347452
 20
110.4281107068
 30
0.0
 10
69.9227279419
 20
110.4272971302
 30
0.0
 10
69.9226357072
 20
110.4261945052
 30
0.0
 10
69.9213420777
 20
110.4238933601
 30
0.0
 10
69.9193944757
 20
110.4193768721
 30
0.0
 10
69.9156623235
 20
110.411548159
 30
0.0
 10
69.9102704906
 20
110.3998690672
 30
0.0
 10
69.903335183
 20
110.3850874186
 30
0.0
 10
69.8950303388
 20
110.3674149472
 30
0.0
 10
69.8853795059
 20
110.3470410335
 30
0.0
 10
69.8701449059
 20
110.3151351118
 30
0.0
 10
69.8484106096
 20
110.2702860204
 30
0.0
 10
69.8193819453
 20
110.2117473761
 30
0.0
 10
69.7871310814
 20
110.1483139236
 30
0.0
 10
69.7643567978
 20
110.1047699627
 30
0.0
 10
69.7525379325
 20
110.0825446312
 30
0.0
  0
SPLINE
  5
443
100
AcDbEntity
  8
DEFAULT_2
100
AcDbSpline
 62
8
  6
HIDDEN
 70
0
 71
3
 72
21
 73
17
 74
0
 42
0.0000001
 43
0.0000001
 44
0.0000000001
 40
0.0
 40
0.0
 40
0.0
 40
0.0
 40
0.0012682531
 40
0.0050444688
 40
0.0112858327
 40
0.0199495358
 40
0.0443727477
 40
0.0779717416
 40
0.1204042326
 40
0.1712653136
 40
0.2299438463
 40
0.2957867
 40
0.4463552272
 40
0.6176886778
 40
0.8041513214
 40
1.0
 40
1.0
 40
1.0
 40
1.0
 10
69.9233815118
 20
105.932334774
 30
0.0
 10
69.9235347453
 20
105.9323903735
 30
0.0
 10
69.9227279419
 20
105.9332039501
 30
0.0
 10
69.9226357072
 20
105.9343065751
 30
0.0
 10
69.9213420777
 20
105.9366077202
 30
0.0
 10
69.9193944757
 20
105.9411242082
 30
0.0
 10
69.9156623235
 20
105.9489529214
 30
0.0
 10
69.9102704906
 20
105.9606320132
 30
0.0
 10
69.903335183
 20
105.9754136617
 30
0.0
 10
69.8950303388
 20
105.9930861331
 30
0.0
 10
69.8853795059
 20
106.0134600468
 30
0.0
 10
69.8701449059
 20
106.0453659686
 30
0.0
 10
69.8484106096
 20
106.0902150599
 30
0.0
 10
69.8193819453
 20
106.1487537043
 30
0.0
 10
69.7871310814
 20
106.2121871567
 30
0.0
 10
69.7643567978
 20
106.2557311176
 30
0.0
 10
69.7525379325
 20
106.2779564491
 30
0.0
  0
SPLINE
  5
444
100
AcDbEntity
  8
DEFAULT_2
100
AcDbSpline
 62
8
  6
HIDDEN
 70
0
 71
3
 72
9
 73
5
 74
0
 42
0.0000001
 43
0.0000001
 44
0.0000000001
 40
0.0
 40
0.0
 40
0.0
 40
0.0
 40
0.4748835616
 40
1.0
 40
1.0
 40
1.0
 40
1.0
 10
69.8156401698
 20
106.8314291238
 30
0.0
 10
69.8283770499
 20
106.8315264131
 30
0.0
 10
69.8558206835
 20
106.8384074912
 30
0.0
 10
69.8751406908
 20
106.8587229781
 30
0.0
 10
69.8831046243
 20
106.870339838
 30
0.0
  0
SPLINE
  5
445
100
AcDbEntity
  8
DEFAULT_2
100
AcDbSpline
 62
8
  6
HIDDEN
 70
0
 71
3
 72
9
 73
5
 74
0
 42
0.0000001
 43
0.0000001
 44
0.0000000001
 40
0.0
 40
0.0
 40
0.0
 40
0.0
 40
0.5001537578
 40
1.0
 40
1.0
 40
1.0
 40
1.0
 10
69.7525379325
 20
108.7523146476
 30
0.0
 10
69.6315608437
 20
108.5915861755
 30
0.0
 10
69.4901208944
 20
108.1801616287
 30
0.0
 10
69.6316352256
 20
107.7688160821
 30
0.0
 10
69.7525379325
 20
107.6081864328
 30
0.0
  0
SPLINE
  5
446
100
AcDbEntity
  8
DEFAULT_2
100
AcDbSpline
 62
8
  6
HIDDEN
 70
0
 71
3
 72
9
 73
5
 74
0
 42
0.0000001
 43
0.0000001
 44
0.0000000001
 40
0.0
 40
0.0
 40
0.0
 40
0.0
 40
0.5251157286
 40
1.0
 40
1.0
 40
1.0
 40
1.0
 10
69.8831040728
 20
109.4901620091
 30
0.0
 10
69.8751401062
 20
109.5017787324
 30
0.0
 10
69.8558200437
 20
109.5220939625
 30
0.0
 10
69.8283765072
 20
109.5289747899
 30
0.0
 10
69.8156396753
 20
109.5290719995
 30
0.0
  0
SPLINE
  5
447
100
AcDbEntity
  8
DEFAULT_2
100
AcDbSpline
 62
8
  6
HIDDEN
 70
0
 71
3
 72
14
 73
10
 74
0
 42
0.0000001
 43
0.0000001
 44
0.0000000001
 40
0.0
 40
0.0
 40
0.0
 40
0.0
 40
0.3699102718
 40
0.5337721927
 40
0.6747766993
 40
0.7867414405
 40
0.8692868462
 40
0.9342781783
 40
1.0
 40
1.0
 40
1.0
 40
1.0
 10
69.7525379325
 20
110.0825446312
 30
0.0
 10
69.7125532286
 20
110.0073535464
 30
0.0
 10
69.6563096932
 20
109.8979109515
 30
0.0
 10
69.59732296
 20
109.7540604241
 30
0.0
 10
69.5692175783
 20
109.6620844803
 30
0.0
 10
69.5574613657
 20
109.5853397482
 30
0.0
 10
69.566400181
 20
109.5244287688
 30
0.0
 10
69.5998007805
 20
109.4841914412
 30
0.0
 10
69.6312555202
 20
109.4777181282
 30
0.0
 10
69.6463857422
 20
109.4776102163
 30
0.0
  0
SPLINE
  5
448
100
AcDbEntity
  8
DEFAULT_2
100
AcDbSpline
 62
8
  6
HIDDEN
 70
0
 71
3
 72
13
 73
9
 74
0
 42
0.0000001
 43
0.0000001
 44
0.0000000001
 40
0.0
 40
0.0
 40
0.0
 40
0.0
 40
0.3823170072
 40
0.7042352417
 40
0.8287639022
 40
0.9220602525
 40
0.9800639014
 40
1.0
 40
1.0
 40
1.0
 40
1.0
 10
69.7525379325
 20
110.0825446312
 30
0.0
 10
69.7756093562
 20
110.1259303564
 30
0.0
 10
69.8170957419
 20
110.2063888342
 30
0.0
 10
69.8639173312
 20
110.3020747542
 30
0.0
 10
69.8938499217
 20
110.3646521738
 30
0.0
 10
69.9086500055
 20
110.3968806233
 30
0.0
 10
69.9184077834
 20
110.4165904751
 30
0.0
 10
69.9221003316
 20
110.4259472371
 30
0.0
 10
69.9233815118
 20
110.4281663063
 30
0.0
  0
SPLINE
  5
449
100
AcDbEntity
  8
0
100
AcDbSpline
 62
7
  6
CONTINUOUS
 70
0
 71
3
 72
15
 73
11
 74
0
 42
0.0000001
 43
0.0000001
 44
0.0000000001
 40
0.0
 40
0.0
 40
0.0
 40
0.0
 40
0.1250245363
 40
0.2500293709
 40
0.3750074733
 40
0.4999666607
 40
0.6249397407
 40
0.7499416157
 40
0.8749633898
 40
1.0
 40
1.0
 40
1.0
 40
1.0
 10
75.8543677774
 20
101.1793271051
 30
0.0
 10
75.7660475719
 20
101.3436510127
 30
0.0
 10
75.6017980657
 20
101.6792658569
 30
0.0
 10
75.4109258896
 20
102.2068287741
 30
0.0
 10
75.3001434703
 20
102.7579614572
 30
0.0
 10
75.2922066156
 20
103.3207807265
 30
0.0
 10
75.3891506064
 20
103.8746722121
 30
0.0
 10
75.5700137445
 20
104.4059273942
 30
0.0
 10
75.8095530154
 20
104.912613007
 30
0.0
 10
75.9956736808
 20
105.2363642486
 30
0.0
 10
76.0932003797
 20
105.3954179207
 30
0.0
  0
SPLINE
  5
44A
100
AcDbEntity
  8
0
100
AcDbSpline
 62
7
  6
CONTINUOUS
 70
0
 71
3
 72
9
 73
5
 74
0
 42
0.0000001
 43
0.0000001
 44
0.0000000001
 40
0.0
 40
0.0
 40
0.0
 40
0.0
 40
0.5009299054
 40
1.0
 40
1.0
 40
1.0
 40
1.0
 10
75.8541980361
 20
103.3302505402
 30
0.0
 10
75.8653525772
 20
103.4882684419
 30
0.0
 10
75.9205273156
 20
103.8020126896
 30
0.0
 10
76.0294124542
 20
104.1002993296
 30
0.0
 10
76.0932003797
 20
104.2446571944
 30
0.0
  0
SPLINE
  5
44B
100
AcDbEntity
  8
0
100
AcDbSpline
 62
7
  6
CONTINUOUS
 70
0
 71
3
 72
9
 73
5
 74
0
 42
0.0000001
 43
0.0000001
 44
0.0000000001
 40
0.0
 40
0.0
 40
0.0
 40
0.0
 40
0.4990716142
 40
1.0
 40
1.0
 40
1.0
 40
1.0
 10
76.0932003797
 20
101.9158438859
 30
0.0
 10
76.0294122607
 20
102.0602021887
 30
0.0
 10
75.9205273058
 20
102.3584889
 30
0.0
 10
75.8653525432
 20
102.6722331194
 30
0.0
 10
75.8541980361
 20
102.8302505402
 30
0.0
  0
SPLINE
  5
44C
100
AcDbEntity
  8
A_RUNDUNGEN
100
AcDbSpline
 62
7
  6
CONTINUOUS
 70
0
 71
3
 72
12
 73
8
 74
0
 42
0.0000001
 43
0.0000001
 44
0.0000000001
 40
0.0
 40
0.0
 40
0.0
 40
0.0
 40
0.3016107602
 40
0.5768876568
 40
0.8129482289
 40
0.9127827064
 40
1.0
 40
1.0
 40
1.0
 40
1.0
 10
80.2561846964
 20
61.9537358122
 30
0.0
 10
80.3595043079
 20
61.9042473267
 30
0.0
 10
80.5584158211
 20
61.8120563275
 30
0.0
 10
80.8448753051
 20
61.6968805429
 30
0.0
 10
81.0687360895
 20
61.6308158941
 30
0.0
 10
81.2288463495
 20
61.6127428821
 30
0.0
 10
81.3004785861
 20
61.6175244415
 30
0.0
 10
81.3328708167
 20
61.6244656338
 30
0.0
  0
SPLINE
  5
44D
100
AcDbEntity
  8
A_RUNDUNGEN
100
AcDbSpline
 62
7
  6
CONTINUOUS
 70
0
 71
3
 72
14
 73
10
 74
0
 42
0.0000001
 43
0.0000001
 44
0.0000000001
 40
0.0
 40
0.0
 40
0.0
 40
0.0
 40
0.3820312629
 40
0.5547774445
 40
0.7063658421
 40
0.831008064
 40
0.9236945867
 40
0.9807312587
 40
1.0
 40
1.0
 40
1.0
 40
1.0
 10
88.4959865607
 20
64.1802505402
 30
0.0
 10
88.5094655195
 20
64.0530093771
 30
0.0
 10
88.5287450032
 20
63.8682012791
 30
0.0
 10
88.552637148
 20
63.6328282631
 30
0.0
 10
88.5673941847
 20
63.4831797515
 30
0.0
 10
88.5791787324
 20
63.36017945
 30
0.0
 10
88.5877451736
 20
63.2686930613
 30
0.0
 10
88.5920997375
 20
63.2122430409
 30
0.0
 10
88.5930444087
 20
63.186703597
 30
0.0
 10
88.5932003797
 20
63.1802505402
 30
0.0
  0
ENDSEC
  0
SECTION
  2
OBJECTS
  0
DICTIONARY
  5
44E
100
AcDbDictionary
  3
ACAD_GROUP
350
44F
  3
ACAD_MLINESTYLE
350
450
  0
DICTIONARY
  5
44F
102
{ACAD_REACTORS
330
44E
102
}
100
AcDbDictionary
  0
DICTIONARY
  5
450
102
{ACAD_REACTORS
330
44E
102
}
100
AcDbDictionary
  3
STANDARD
350
451
  0
MLINESTYLE
  5
451
102
{ACAD_REACTORS
330
450
102
}
100
AcDbMlineStyle
  2
STANDARD
 70
0
  3

 62
256
 51
90.0
 52
90.0
 71
2
 49
0.5
 62
256
  6
BYLAYER
 49
-0.5
 62
256
  6
BYLAYER
  0
ENDSEC
  0
EOF
