  0
SECTION
  2
HEADER
  9
$ACADVER
  1
AC1018
  9
$ACADMAINTVER
 70
     0
  9
$DWGCODEPAGE
  3
ANSI_1252
  9
$INSBASE
 10
0.0
 20
0.0
 30
0.0
  9
$EXTMIN
 10
37.9396151648227
 20
-4.74422219353048
 30
0.0
  9
$EXTMAX
 10
175.167276031231
 20
287.5293249813001
 30
0.0
  9
$LIMMIN
 10
0.0
 20
0.0
  9
$LIMMAX
 10
12.0
 20
9.0
  9
$ORTHOMODE
 70
     0
  9
$REGENMODE
 70
     1
  9
$FILLMODE
 70
     1
  9
$QTEXTMODE
 70
     0
  9
$MIRRTEXT
 70
     1
  9
$LTSCALE
 40
1.0
  9
$ATTMODE
 70
     1
  9
$TEXTSIZE
 40
0.2
  9
$TRACEWID
 40
0.05
  9
$TEXTSTYLE
  7
Standard
  9
$CLAYER
  8
0
  9
$CELTYPE
  6
ByLayer
  9
$CECOLOR
 62
   256
  9
$CELTSCALE
 40
1.0
  9
$DISPSILH
 70
     0
  9
$DIMSCALE
 40
1.0
  9
$DIMASZ
 40
0.18
  9
$DIMEXO
 40
0.0625
  9
$DIMDLI
 40
0.38
  9
$DIMRND
 40
0.0
  9
$DIMDLE
 40
0.0
  9
$DIMEXE
 40
0.18
  9
$DIMTP
 40
0.0
  9
$DIMTM
 40
0.0
  9
$DIMTXT
 40
0.18
  9
$DIMCEN
 40
0.09
  9
$DIMTSZ
 40
0.0
  9
$DIMTOL
 70
     0
  9
$DIMLIM
 70
     0
  9
$DIMTIH
 70
     1
  9
$DIMTOH
 70
     1
  9
$DIMSE1
 70
     0
  9
$DIMSE2
 70
     0
  9
$DIMTAD
 70
     0
  9
$DIMZIN
 70
     0
  9
$DIMBLK
  1

  9
$DIMASO
 70
     1
  9
$DIMSHO
 70
     1
  9
$DIMPOST
  1

  9
$DIMAPOST
  1

  9
$DIMALT
 70
     0
  9
$DIMALTD
 70
     2
  9
$DIMALTF
 40
25.4
  9
$DIMLFAC
 40
1.0
  9
$DIMTOFL
 70
     0
  9
$DIMTVP
 40
0.0
  9
$DIMTIX
 70
     0
  9
$DIMSOXD
 70
     0
  9
$DIMSAH
 70
     0
  9
$DIMBLK1
  1

  9
$DIMBLK2
  1

  9
$DIMSTYLE
  2
Standard
  9
$DIMCLRD
 70
     0
  9
$DIMCLRE
 70
     0
  9
$DIMCLRT
 70
     0
  9
$DIMTFAC
 40
1.0
  9
$DIMGAP
 40
0.09
  9
$DIMJUST
 70
     0
  9
$DIMSD1
 70
     0
  9
$DIMSD2
 70
     0
  9
$DIMTOLJ
 70
     1
  9
$DIMTZIN
 70
     0
  9
$DIMALTZ
 70
     0
  9
$DIMALTTZ
 70
     0
  9
$DIMUPT
 70
     0
  9
$DIMDEC
 70
     4
  9
$DIMTDEC
 70
     4
  9
$DIMALTU
 70
     2
  9
$DIMALTTD
 70
     2
  9
$DIMTXSTY
  7
Standard
  9
$DIMAUNIT
 70
     0
  9
$DIMADEC
 70
     0
  9
$DIMALTRND
 40
0.0
  9
$DIMAZIN
 70
     0
  9
$DIMDSEP
 70
    46
  9
$DIMATFIT
 70
     3
  9
$DIMFRAC
 70
     0
  9
$DIMLDRBLK
  1

  9
$DIMLUNIT
 70
     2
  9
$DIMLWD
 70
    -2
  9
$DIMLWE
 70
    -2
  9
$DIMTMOVE
 70
     0
  9
$LUNITS
 70
     2
  9
$LUPREC
 70
     4
  9
$SKETCHINC
 40
0.1
  9
$FILLETRAD
 40
0.5
  9
$AUNITS
 70
     0
  9
$AUPREC
 70
     0
  9
$MENU
  1
.
  9
$ELEVATION
 40
0.0
  9
$PELEVATION
 40
0.0
  9
$THICKNESS
 40
0.0
  9
$LIMCHECK
 70
     0
  9
$CHAMFERA
 40
0.5
  9
$CHAMFERB
 40
0.5
  9
$CHAMFERC
 40
1.0
  9
$CHAMFERD
 40
0.0
  9
$SKPOLY
 70
     0
  9
$TDCREATE
 40
2456966.498635
  9
$TDUCREATE
 40
2456966.456968333
  9
$TDUPDATE
 40
2456966.498635012
  9
$TDUUPDATE
 40
2456966.456968345
  9
$TDINDWG
 40
0.0000000116
  9
$TDUSRTIMER
 40
0.0000000116
  9
$USRTIMER
 70
     1
  9
$ANGBASE
 50
0.0
  9
$ANGDIR
 70
     0
  9
$PDMODE
 70
     0
  9
$PDSIZE
 40
0.0
  9
$PLINEWID
 40
0.0
  9
$SPLFRAME
 70
     0
  9
$SPLINETYPE
 70
     6
  9
$SPLINESEGS
 70
     8
  9
$HANDSEED
  5
22A
  9
$SURFTAB1
 70
     6
  9
$SURFTAB2
 70
     6
  9
$SURFTYPE
 70
     6
  9
$SURFU
 70
     6
  9
$SURFV
 70
     6
  9
$UCSBASE
  2

  9
$UCSNAME
  2

  9
$UCSORG
 10
0.0
 20
0.0
 30
0.0
  9
$UCSXDIR
 10
1.0
 20
0.0
 30
0.0
  9
$UCSYDIR
 10
0.0
 20
1.0
 30
0.0
  9
$UCSORTHOREF
  2

  9
$UCSORTHOVIEW
 70
     0
  9
$UCSORGTOP
 10
0.0
 20
0.0
 30
0.0
  9
$UCSORGBOTTOM
 10
0.0
 20
0.0
 30
0.0
  9
$UCSORGLEFT
 10
0.0
 20
0.0
 30
0.0
  9
$UCSORGRIGHT
 10
0.0
 20
0.0
 30
0.0
  9
$UCSORGFRONT
 10
0.0
 20
0.0
 30
0.0
  9
$UCSORGBACK
 10
0.0
 20
0.0
 30
0.0
  9
$PUCSBASE
  2

  9
$PUCSNAME
  2

  9
$PUCSORG
 10
0.0
 20
0.0
 30
0.0
  9
$PUCSXDIR
 10
1.0
 20
0.0
 30
0.0
  9
$PUCSYDIR
 10
0.0
 20
1.0
 30
0.0
  9
$PUCSORTHOREF
  2

  9
$PUCSORTHOVIEW
 70
     0
  9
$PUCSORGTOP
 10
0.0
 20
0.0
 30
0.0
  9
$PUCSORGBOTTOM
 10
0.0
 20
0.0
 30
0.0
  9
$PUCSORGLEFT
 10
0.0
 20
0.0
 30
0.0
  9
$PUCSORGRIGHT
 10
0.0
 20
0.0
 30
0.0
  9
$PUCSORGFRONT
 10
0.0
 20
0.0
 30
0.0
  9
$PUCSORGBACK
 10
0.0
 20
0.0
 30
0.0
  9
$USERI1
 70
     0
  9
$USERI2
 70
     0
  9
$USERI3
 70
     0
  9
$USERI4
 70
     0
  9
$USERI5
 70
     0
  9
$USERR1
 40
14.5
  9
$USERR2
 40
0.0
  9
$USERR3
 40
0.0
  9
$USERR4
 40
0.0
  9
$USERR5
 40
0.0
  9
$WORLDVIEW
 70
     1
  9
$SHADEDGE
 70
     3
  9
$SHADEDIF
 70
    70
  9
$TILEMODE
 70
     1
  9
$MAXACTVP
 70
    64
  9
$PINSBASE
 10
0.0
 20
0.0
 30
0.0
  9
$PLIMCHECK
 70
     0
  9
$PEXTMIN
 10
1.00000000000000E+20
 20
1.00000000000000E+20
 30
1.00000000000000E+20
  9
$PEXTMAX
 10
-1.00000000000000E+20
 20
-1.00000000000000E+20
 30
-1.00000000000000E+20
  9
$PLIMMIN
 10
0.0
 20
0.0
  9
$PLIMMAX
 10
12.0
 20
9.0
  9
$UNITMODE
 70
     0
  9
$VISRETAIN
 70
     1
  9
$PLINEGEN
 70
     0
  9
$PSLTSCALE
 70
     1
  9
$TREEDEPTH
 70
  3020
  9
$CMLSTYLE
  2
Standard
  9
$CMLJUST
 70
     0
  9
$CMLSCALE
 40
1.0
  9
$PROXYGRAPHICS
 70
     1
  9
$MEASUREMENT
 70
     1
  9
$CELWEIGHT
370
    -1
  9
$ENDCAPS
280
     0
  9
$JOINSTYLE
280
     0
  9
$LWDISPLAY
290
     0
  9
$INSUNITS
 70
     1
  9
$HYPERLINKBASE
  1

  9
$STYLESHEET
  1

  9
$XEDIT
290
     1
  9
$CEPSNTYPE
380
     0
  9
$PSTYLEMODE
290
     1
  9
$FINGERPRINTGUID
  2
{F1815B2D-2F28-416A-9DDE-9E2F532B638D}
  9
$VERSIONGUID
  2
{FAEB1C32-E019-11D5-929B-00C0DF256EC4}
  9
$EXTNAMES
290
     1
  9
$PSVPSCALE
 40
0.0
  9
$OLESTARTUP
290
     0
  9
$SORTENTS
280
   127
  9
$INDEXCTL
280
     0
  9
$HIDETEXT
280
     1
  9
$XCLIPFRAME
290
     0
  9
$HALOGAP
280
     0
  9
$OBSCOLOR
 70
   257
  9
$OBSLTYPE
280
     0
  9
$INTERSECTIONDISPLAY
280
     0
  9
$INTERSECTIONCOLOR
 70
   257
  9
$DIMASSOC
280
     2
  9
$PROJECTNAME
  1

  0
ENDSEC
  0
SECTION
  2
CLASSES
  0
CLASS
  1
ACDBDICTIONARYWDFLT
  2
AcDbDictionaryWithDefault
  3
ObjectDBX Classes
 90
        0
 91
        3
280
     0
281
     0
  0
CLASS
  1

  2
exOdDbCircle
  3

 90
        0
 91
        3
280
     0
281
     1
  0
CLASS
  1

  2
exOdDbSpline
  3

 90
        0
 91
        3
280
     0
281
     1
  0
ENDSEC
  0
SECTION
  2
TABLES
  0
TABLE
  2
VPORT
  5
8
330
0
100
AcDbSymbolTable
 70
     1
  0
VPORT
  5
29
330
8
100
AcDbSymbolTableRecord
100
AcDbViewportTableRecord
  2
*Active
 70
     0
 10
0.0
 20
0.0
 11
1.0
 21
1.0
 12
106.5534455980269
 22
141.3925513938848
 13
0.0
 23
0.0
 14
0.5
 24
0.5
 15
0.5
 25
0.5
 16
0.0
 26
0.0
 36
1.0
 17
0.0
 27
0.0
 37
0.0
 40
321.5009018923137
 41
1.60267857142857
 42
50.0
 43
0.0
 44
0.0
 50
0.0
 51
0.0
 71
     0
 72
   100
 73
     1
 74
     3
 75
     0
 76
     0
 77
     0
 78
     0
281
     0
 65
     1
110
0.0
120
0.0
130
0.0
111
1.0
121
0.0
131
0.0
112
0.0
122
1.0
132
0.0
 79
     0
146
0.0
  0
ENDTAB
  0
TABLE
  2
LTYPE
  5
5
330
0
100
AcDbSymbolTable
 70
     8
  0
LTYPE
  5
14
330
5
100
AcDbSymbolTableRecord
100
AcDbLinetypeTableRecord
  2
ByBlock
 70
     0
  3

 72
    65
 73
     0
 40
0.0
  0
LTYPE
  5
15
330
5
100
AcDbSymbolTableRecord
100
AcDbLinetypeTableRecord
  2
ByLayer
 70
     0
  3

 72
    65
 73
     0
 40
0.0
  0
LTYPE
  5
16
330
5
100
AcDbSymbolTableRecord
100
AcDbLinetypeTableRecord
  2
Continuous
 70
     0
  3
Solid line
 72
    65
 73
     0
 40
0.0
  0
LTYPE
  5
2A
330
5
100
AcDbSymbolTableRecord
100
AcDbLinetypeTableRecord
  2
DASHED
 70
     0
  3
Dashed
 72
    65
 73
     2
 40
15.0
 49
7.0
 74
     0
 49
-8.0
 74
     0
  0
LTYPE
  5
2B
330
5
100
AcDbSymbolTableRecord
100
AcDbLinetypeTableRecord
  2
DOTTED
 70
     0
  3
Dotted
 72
    65
 73
     2
 40
1.0
 49
0.0
 74
     0
 49
-1.0
 74
     0
  0
LTYPE
  5
2C
330
5
100
AcDbSymbolTableRecord
100
AcDbLinetypeTableRecord
  2
DOT_CENTER
 70
     0
  3
Dot_Center
 72
    65
 73
     4
 40
14.0
 49
12.0
 74
     0
 49
-1.0
 74
     0
 49
0.0
 74
     0
 49
-1.0
 74
     0
  0
LTYPE
  5
2D
330
5
100
AcDbSymbolTableRecord
100
AcDbLinetypeTableRecord
  2
LONG_DASHED
 70
     0
  3
Long_Dashed
 72
    65
 73
     2
 40
15.0
 49
10.0
 74
     0
 49
-5.0
 74
     0
  0
LTYPE
  5
2E
330
5
100
AcDbSymbolTableRecord
100
AcDbLinetypeTableRecord
  2
DASH_CENTER
 70
     0
  3
Dash_Center
 72
    65
 73
     4
 40
14.0
 49
11.0
 74
     0
 49
-1.0
 74
     0
 49
1.0
 74
     0
 49
-1.0
 74
     0
  0
LTYPE
  5
2F
330
5
100
AcDbSymbolTableRecord
100
AcDbLinetypeTableRecord
  2
PHANTOM
 70
     0
  3
Phantom
 72
    65
 73
     6
 40
13.0
 49
10.0
 74
     0
 49
-1.0
 74
     0
 49
0.0
 74
     0
 49
-1.0
 74
     0
 49
0.0
 74
     0
 49
-1.0
 74
     0
  0
LTYPE
  5
30
330
5
100
AcDbSymbolTableRecord
100
AcDbLinetypeTableRecord
  2
CENTER_DASH_DASH
 70
     0
  3
Center_Dash_Dash
 72
    65
 73
     6
 40
14.0
 49
9.0
 74
     0
 49
-1.0
 74
     0
 49
1.0
 74
     0
 49
-1.0
 74
     0
 49
1.0
 74
     0
 49
-1.0
 74
     0
  0
ENDTAB
  0
TABLE
  2
LAYER
  5
2
330
0
100
AcDbSymbolTable
 70
     6
  0
LAYER
  5
10
330
2
100
AcDbSymbolTableRecord
100
AcDbLayerTableRecord
  2
0
 70
     0
 62
     7
  6
Continuous
370
    -3
390
F
  0
LAYER
  5
31
330
2
100
AcDbSymbolTableRecord
100
AcDbLayerTableRecord
  2
1
 70
     0
 62
     7
  6
Continuous
370
    -3
390
F
  0
LAYER
  5
32
330
2
100
AcDbSymbolTableRecord
100
AcDbLayerTableRecord
  2
A_ACHSEN
 70
     0
 62
     7
  6
Continuous
370
    -3
390
F
  0
LAYER
  5
33
330
2
100
AcDbSymbolTableRecord
100
AcDbLayerTableRecord
  2
A_BEMASSUNGEN
 70
     0
 62
     7
  6
Continuous
370
    -3
390
F
  0
LAYER
  5
34
330
2
100
AcDbSymbolTableRecord
100
AcDbLayerTableRecord
  2
A_FASEN
 70
     0
 62
     7
  6
Continuous
370
    -3
390
F
  0
LAYER
  5
35
330
2
100
AcDbSymbolTableRecord
100
AcDbLayerTableRecord
  2
A_RUNDUNGEN
 70
     0
 62
     7
  6
Continuous
370
    -3
390
F
  0
ENDTAB
  0
TABLE
  2
STYLE
  5
3
330
0
100
AcDbSymbolTable
 70
     2
  0
STYLE
  5
11
330
3
100
AcDbSymbolTableRecord
100
AcDbTextStyleTableRecord
  2
Standard
 70
     0
 40
0.0
 41
1.0
 50
0.0
 71
     0
 42
0.2
  3
txt
  4

  0
STYLE
  5
1EF
330
3
100
AcDbSymbolTableRecord
100
AcDbTextStyleTableRecord
  2
CONVERTER_11
 70
     0
 40
0.0
 41
0.9
 50
0.0
 71
     0
 42
0.2
  3
txt.shx
  4

  0
ENDTAB
  0
TABLE
  2
VIEW
  5
6
330
0
100
AcDbSymbolTable
 70
     0
  0
ENDTAB
  0
TABLE
  2
UCS
  5
7
330
0
100
AcDbSymbolTable
 70
     0
  0
ENDTAB
  0
TABLE
  2
APPID
  5
9
330
0
100
AcDbSymbolTable
 70
     1
  0
APPID
  5
12
330
9
100
AcDbSymbolTableRecord
100
AcDbRegAppTableRecord
  2
ACAD
 70
     0
  0
ENDTAB
  0
TABLE
  2
DIMSTYLE
  5
A
330
0
100
AcDbSymbolTable
 70
     6
100
AcDbDimStyleTable
  0
DIMSTYLE
105
27
330
A
100
AcDbSymbolTableRecord
100
AcDbDimStyleTableRecord
  2
Standard
 70
     0
340
11
  0
DIMSTYLE
105
1FB
102
{ACAD_REACTORS
330
1FC
102
}
330
A
100
AcDbSymbolTableRecord
100
AcDbDimStyleTableRecord
  2
ME10_DIM_10
 70
     0
 41
3.5
 42
0.0
 44
2.0
 73
     0
 74
     0
 77
     1
 78
     8
140
3.5
147
2.0
172
     1
173
     1
176
     2
177
     2
178
     2
271
     3
340
1EF
  0
DIMSTYLE
105
207
102
{ACAD_REACTORS
330
208
102
}
330
A
100
AcDbSymbolTableRecord
100
AcDbDimStyleTableRecord
  2
ME10_DIM_11
 70
     0
 41
3.5
 42
0.0
 44
2.0
 73
     0
 74
     0
 77
     1
 78
     8
140
3.5
147
2.0
172
     1
173
     1
176
     2
177
     2
178
     2
271
     3
340
1EF
  0
DIMSTYLE
105
212
102
{ACAD_REACTORS
330
213
102
}
330
A
100
AcDbSymbolTableRecord
100
AcDbDimStyleTableRecord
  2
ME10_DIM_12
 70
     0
 41
3.5
 42
0.0
 44
2.0
 73
     0
 74
     0
 77
     1
 78
     8
140
3.5
147
2.0
172
     1
173
     1
176
     2
177
     2
178
     2
271
     3
340
1EF
  0
DIMSTYLE
105
21D
102
{ACAD_REACTORS
330
21E
102
}
330
A
100
AcDbSymbolTableRecord
100
AcDbDimStyleTableRecord
  2
ME10_DIM_13
 70
     0
 41
3.5
 42
0.0
 44
2.0
 73
     0
 74
     0
 77
     1
 78
     8
140
3.5
147
2.0
172
     1
173
     1
176
     2
177
     2
178
     2
271
     3
340
1EF
  0
DIMSTYLE
105
228
102
{ACAD_REACTORS
330
229
102
}
330
A
100
AcDbSymbolTableRecord
100
AcDbDimStyleTableRecord
  2
ME10_DIM_14
 70
     0
 41
3.5
 42
0.0
 44
2.0
 73
     0
 74
     0
 77
     1
 78
     8
140
3.5
147
2.0
172
     1
173
     1
176
     2
177
     2
178
     2
271
     3
340
1EF
  0
ENDTAB
  0
TABLE
  2
BLOCK_RECORD
  5
1
330
0
100
AcDbSymbolTable
 70
    10
  0
BLOCK_RECORD
  5
1F
330
1
100
AcDbSymbolTableRecord
100
AcDbBlockTableRecord
  2
*Model_Space
340
22
  0
BLOCK_RECORD
  5
1B
330
1
100
AcDbSymbolTableRecord
100
AcDbBlockTableRecord
  2
*Paper_Space
340
1E
  0
BLOCK_RECORD
  5
23
330
1
100
AcDbSymbolTableRecord
100
AcDbBlockTableRecord
  2
*Paper_Space0
340
26
  0
BLOCK_RECORD
  5
36
330
1
100
AcDbSymbolTableRecord
100
AcDbBlockTableRecord
  2
TOP__1
340
0
102
{BLKREFS
331
42
102
}
  0
BLOCK_RECORD
  5
39
330
1
100
AcDbSymbolTableRecord
100
AcDbBlockTableRecord
  2
TOP__2
340
0
102
{BLKREFS
331
43
102
}
  0
BLOCK_RECORD
  5
3C
330
1
100
AcDbSymbolTableRecord
100
AcDbBlockTableRecord
  2
TOP__3
340
0
102
{BLKREFS
331
44
102
}
  0
BLOCK_RECORD
  5
3F
330
1
100
AcDbSymbolTableRecord
100
AcDbBlockTableRecord
  2
TOP__4
340
0
102
{BLKREFS
331
45
102
}
  0
BLOCK_RECORD
  5
1F1
330
1
100
AcDbSymbolTableRecord
100
AcDbBlockTableRecord
  2
*D5
340
0
  0
BLOCK_RECORD
  5
1FD
330
1
100
AcDbSymbolTableRecord
100
AcDbBlockTableRecord
  2
*D6
340
0
  0
BLOCK_RECORD
  5
209
330
1
100
AcDbSymbolTableRecord
100
AcDbBlockTableRecord
  2
*D7
340
0
  0
BLOCK_RECORD
  5
214
330
1
100
AcDbSymbolTableRecord
100
AcDbBlockTableRecord
  2
*D8
340
0
  0
BLOCK_RECORD
  5
21F
330
1
100
AcDbSymbolTableRecord
100
AcDbBlockTableRecord
  2
*D9
340
0
  0
ENDTAB
  0
ENDSEC
  0
SECTION
  2
BLOCKS
  0
BLOCK
  5
20
330
1F
100
AcDbEntity
  8
0
100
AcDbBlockBegin
  2
*Model_Space
 70
     0
 71
     0
 10
0.0
 20
0.0
 30
0.0
  3
*Model_Space
  1

  0
ENDBLK
  5
21
330
1F
100
AcDbEntity
  8
0
100
AcDbBlockEnd
  0
BLOCK
  5
1C
330
1B
100
AcDbEntity
 67
     1
  8
0
100
AcDbBlockBegin
  2
*Paper_Space
 70
     0
 71
     0
 10
0.0
 20
0.0
 30
0.0
  3
*Paper_Space
  1

  0
ENDBLK
  5
1D
330
1B
100
AcDbEntity
 67
     1
  8
0
100
AcDbBlockEnd
  0
BLOCK
  5
24
330
23
100
AcDbEntity
  8
0
100
AcDbBlockBegin
  2
*Paper_Space0
 70
     0
 71
     0
 10
0.0
 20
0.0
 30
0.0
  3
*Paper_Space0
  1

  0
ENDBLK
  5
25
330
23
100
AcDbEntity
  8
0
100
AcDbBlockEnd
  0
BLOCK
  5
37
330
36
100
AcDbEntity
  8
0
100
AcDbBlockBegin
  2
TOP__1
 70
     0
 71
     0
 10
175.358905312603
 20
199.751652694879
 30
0.0
  3
TOP__1
  1

  0
POINT
  5
46
330
36
100
AcDbEntity
  8
A_BEMASSUNGEN
 62
     7
100
AcDbPoint
 10
119.8891246913
 20
213.0293309012
 30
0.0
  0
POINT
  5
47
330
36
100
AcDbEntity
  8
A_BEMASSUNGEN
 62
     7
100
AcDbPoint
 10
155.6891246913
 20
213.0293309012
 30
0.0
  0
POINT
  5
48
330
36
100
AcDbEntity
  8
A_BEMASSUNGEN
 62
     7
100
AcDbPoint
 10
119.8891246913
 20
213.0293309012
 30
0.0
  0
POINT
  5
49
330
36
100
AcDbEntity
  8
A_BEMASSUNGEN
 62
     7
100
AcDbPoint
 10
120.1315330862
 20
213.0293309012
 30
0.0
  0
ENDBLK
  5
38
330
36
100
AcDbEntity
  8
0
100
AcDbBlockEnd
  0
BLOCK
  5
3A
330
39
100
AcDbEntity
  8
0
100
AcDbBlockBegin
  2
TOP__2
 70
     0
 71
     0
 10
191.61436353192
 20
160.209941816958
 30
0.0
  3
TOP__2
  1

  0
POINT
  5
4A
330
39
100
AcDbEntity
  8
A_BEMASSUNGEN
 62
     7
100
AcDbPoint
 10
64.09679290859998
 20
216.5293145734001
 30
0.0
  0
POINT
  5
4B
330
39
100
AcDbEntity
  8
A_BEMASSUNGEN
 62
     7
100
AcDbPoint
 10
97.89679290859993
 20
216.5293145734001
 30
0.0
  0
POINT
  5
4C
330
39
100
AcDbEntity
  8
A_BEMASSUNGEN
 62
     7
100
AcDbPoint
 10
64.09679290859998
 20
216.5293145734001
 30
0.0
  0
LINE
  5
4D
330
39
100
AcDbEntity
  8
0
  6
Continuous
 62
     7
100
AcDbLine
 10
64.09679290859998
 20
216.5293145734001
 30
0.0
 11
97.89679290859993
 21
216.5293145734001
 31
0.0
  0
ENDBLK
  5
3B
330
39
100
AcDbEntity
  8
0
100
AcDbBlockEnd
  0
BLOCK
  5
3D
330
3C
100
AcDbEntity
  8
0
100
AcDbBlockBegin
  2
TOP__3
 70
     0
 71
     0
 10
175.358905312603
 20
95.30694550552113
 30
0.0
  3
TOP__3
  1

  0
POINT
  5
4E
330
3C
100
AcDbEntity
  8
A_BEMASSUNGEN
 62
     7
100
AcDbPoint
 10
120.1315330862
 20
82.02926729920011
 30
0.0
  0
POINT
  5
4F
330
3C
100
AcDbEntity
  8
A_BEMASSUNGEN
 62
     7
100
AcDbPoint
 10
119.8891246913
 20
82.02926729920011
 30
0.0
  0
POINT
  5
50
330
3C
100
AcDbEntity
  8
A_BEMASSUNGEN
 62
     7
100
AcDbPoint
 10
155.6891246913
 20
82.02926729920011
 30
0.0
  0
POINT
  5
51
330
3C
100
AcDbEntity
  8
A_BEMASSUNGEN
 62
     7
100
AcDbPoint
 10
119.8891246913
 20
82.02926729920011
 30
0.0
  0
ENDBLK
  5
3E
330
3C
100
AcDbEntity
  8
0
100
AcDbBlockEnd
  0
BLOCK
  5
40
330
3F
100
AcDbEntity
  8
0
100
AcDbBlockBegin
  2
TOP__4
 70
     0
 71
     0
 10
191.61436353192
 20
134.8486563834421
 30
0.0
  3
TOP__4
  1

  0
POINT
  5
52
330
3F
100
AcDbEntity
  8
A_BEMASSUNGEN
 62
     7
100
AcDbPoint
 10
64.09679290859998
 20
78.52928362700007
 30
0.0
  0
POINT
  5
53
330
3F
100
AcDbEntity
  8
A_BEMASSUNGEN
 62
     7
100
AcDbPoint
 10
97.89679290859993
 20
78.52928362700007
 30
0.0
  0
POINT
  5
54
330
3F
100
AcDbEntity
  8
A_BEMASSUNGEN
 62
     7
100
AcDbPoint
 10
64.09679290859998
 20
78.52928362700007
 30
0.0
  0
LINE
  5
55
330
3F
100
AcDbEntity
  8
0
  6
Continuous
 62
     7
100
AcDbLine
 10
97.89679290859993
 20
78.52928362700007
 30
0.0
 11
64.09679290859998
 21
78.52928362700007
 31
0.0
  0
ENDBLK
  5
41
330
3F
100
AcDbEntity
  8
0
100
AcDbBlockEnd
  0
BLOCK
  5
1F9
330
1F1
100
AcDbEntity
  8
0
100
AcDbBlockBegin
  2
*D5
 70
     1
 71
     0
 10
0.0
 20
0.0
 30
0.0
  3
*D5
  1

  0
LINE
  5
1F2
330
1F1
100
AcDbEntity
  8
1
  6
Continuous
 62
     2
100
AcDbLine
 10
173.167276031231
 20
287.5293249804486
 30
0.0
 11
173.167276031231
 21
7.52927321995159
 31
0.0
  0
LINE
  5
1F3
330
1F1
100
AcDbEntity
  8
1
  6
Continuous
 62
     2
100
AcDbLine
 10
137.7889866603
 20
287.5293249804486
 30
0.0
 11
175.167276031231
 21
287.5293249804486
 31
0.0
  0
LINE
  5
1F4
330
1F1
100
AcDbEntity
  8
1
  6
Continuous
 62
     2
100
AcDbLine
 10
158.714241274465
 20
7.52927321995159
 30
0.0
 11
175.167276031231
 21
7.52927321995159
 31
0.0
  0
LINE
  5
1F5
330
1F1
100
AcDbEntity
  8
1
  6
Continuous
 62
     2
100
AcDbLine
 10
137.7889866603
 20
7.52927321995159
 30
0.0
 11
153.863814037351
 21
7.52927321995159
 31
0.0
  0
SOLID
  5
1F6
330
1F1
100
AcDbEntity
  8
1
 62
     2
100
AcDbTrace
 10
173.6280597727869
 20
284.0293249804486
 30
0.0
 11
172.7064922896751
 21
284.0293249804486
 31
0.0
 12
173.167276031231
 22
287.5293249804486
 32
0.0
 13
173.167276031231
 23
287.5293249804486
 33
0.0
  0
SOLID
  5
1F7
330
1F1
100
AcDbEntity
  8
1
 62
     2
100
AcDbTrace
 10
172.7064922896751
 20
11.02927321995159
 30
0.0
 11
173.6280597727869
 21
11.02927321995159
 31
0.0
 12
173.167276031231
 22
7.52927321995159
 32
0.0
 13
173.167276031231
 23
7.52927321995159
 33
0.0
  0
MTEXT
  5
1F8
330
1F1
100
AcDbEntity
  8
1
 62
     2
100
AcDbMText
 10
171.167276031231
 20
142.574267997762
 30
0.0
 40
3.5
 41
0.0
 71
     7
 72
     1
  1
280
  7
CONVERTER_11
 11
0.0
 21
1.0
 31
0.0
 73
     1
 44
0.60024009603842
  0
ENDBLK
  5
1FA
330
1F1
100
AcDbEntity
  8
0
100
AcDbBlockEnd
  0
BLOCK
  5
205
330
1FD
100
AcDbEntity
  8
0
100
AcDbBlockBegin
  2
*D6
 70
     1
 71
     0
 10
0.0
 20
0.0
 30
0.0
  3
*D6
  1

  0
LINE
  5
1FE
330
1FD
100
AcDbEntity
  8
1
  6
Continuous
 62
     2
100
AcDbLine
 10
43.4396151648227
 20
277.5293053726982
 30
0.0
 11
43.4396151648227
 21
17.52929282770188
 31
0.0
  0
LINE
  5
1FF
330
1FD
100
AcDbEntity
  8
1
  6
Continuous
 62
     2
100
AcDbLine
 10
80.99672210969996
 20
277.5293053726982
 30
0.0
 11
41.4396151648227
 21
277.5293053726982
 31
0.0
  0
LINE
  5
200
330
1FD
100
AcDbEntity
  8
1
  6
Continuous
 62
     2
100
AcDbLine
 10
62.4860434682944
 20
17.52929282770188
 30
0.0
 11
41.4396151648227
 21
17.52929282770188
 31
0.0
  0
LINE
  5
201
330
1FD
100
AcDbEntity
  8
1
  6
Continuous
 62
     2
100
AcDbLine
 10
80.99672210969996
 20
17.52929282770188
 30
0.0
 11
66.0301443825143
 21
17.52929282770188
 31
0.0
  0
SOLID
  5
202
330
1FD
100
AcDbEntity
  8
1
 62
     2
100
AcDbTrace
 10
43.90039890637858
 20
274.0293053726982
 30
0.0
 11
42.97883142326681
 21
274.0293053726982
 31
0.0
 12
43.4396151648227
 22
277.5293053726982
 32
0.0
 13
43.4396151648227
 23
277.5293053726982
 33
0.0
  0
SOLID
  5
203
330
1FD
100
AcDbEntity
  8
1
 62
     2
100
AcDbTrace
 10
42.97883142326681
 20
21.02929282770188
 30
0.0
 11
43.90039890637858
 21
21.02929282770188
 31
0.0
 12
43.4396151648227
 22
17.52929282770188
 32
0.0
 13
43.4396151648227
 23
17.52929282770188
 33
0.0
  0
MTEXT
  5
204
330
1FD
100
AcDbEntity
  8
1
 62
     2
100
AcDbMText
 10
41.4396151648227
 20
142.301197357679
 30
0.0
 40
3.5
 41
0.0
 71
     7
 72
     1
  1
260
  7
CONVERTER_11
 11
0.0
 21
1.0
 31
0.0
 73
     1
 44
0.60024009603842
  0
ENDBLK
  5
206
330
1FD
100
AcDbEntity
  8
0
100
AcDbBlockEnd
  0
BLOCK
  5
210
330
209
100
AcDbEntity
  8
0
100
AcDbBlockBegin
  2
*D7
 70
     1
 71
     0
 10
0.0
 20
0.0
 30
0.0
  3
*D7
  1

  0
LINE
  5
20A
330
209
100
AcDbEntity
  8
1
  6
Continuous
 62
     2
100
AcDbLine
 10
63.99679378269075
 20
-2.74422219353048
 30
0.0
 11
97.99683289136313
 21
-2.74422219353048
 31
0.0
  0
LINE
  5
20B
330
209
100
AcDbEntity
  8
1
  6
Continuous
 62
     2
100
AcDbLine
 10
63.99679378269075
 20
34.42927725133012
 30
0.0
 11
63.99679378269075
 21
-4.74422219353048
 31
0.0
  0
LINE
  5
20C
330
209
100
AcDbEntity
  8
1
  6
Continuous
 62
     2
100
AcDbLine
 10
97.99683289136313
 20
34.42930840407013
 30
0.0
 11
97.99683289136313
 21
-4.74422219353048
 31
0.0
  0
SOLID
  5
20D
330
209
100
AcDbEntity
  8
1
 62
     2
100
AcDbTrace
 10
67.49679378269076
 20
-2.2834384519746
 30
0.0
 11
67.49679378269076
 21
-3.20500593508637
 31
0.0
 12
63.99679378269075
 22
-2.74422219353048
 32
0.0
 13
63.99679378269075
 23
-2.74422219353048
 33
0.0
  0
SOLID
  5
20E
330
209
100
AcDbEntity
  8
1
 62
     2
100
AcDbTrace
 10
94.49683289136313
 20
-3.20500593508637
 30
0.0
 11
94.49683289136313
 21
-2.2834384519746
 31
0.0
 12
97.99683289136313
 22
-2.74422219353048
 32
0.0
 13
97.99683289136313
 23
-2.74422219353048
 33
0.0
  0
MTEXT
  5
20F
330
209
100
AcDbEntity
  8
1
 62
     2
100
AcDbMText
 10
78.37182158686481
 20
-0.74422219353048
 30
0.0
 40
3.5
 41
0.0
 71
     7
 72
     1
  1
34
  7
CONVERTER_11
 11
0.9999999999970621
 21
2.424068405545307E-6
 31
0.0
 73
     1
 44
0.60024009603842
  0
ENDBLK
  5
211
330
209
100
AcDbEntity
  8
0
100
AcDbBlockEnd
  0
BLOCK
  5
21B
330
214
100
AcDbEntity
  8
0
100
AcDbBlockBegin
  2
*D8
 70
     1
 71
     0
 10
0.0
 20
0.0
 30
0.0
  3
*D8
  1

  0
LINE
  5
215
330
214
100
AcDbEntity
  8
1
  6
Continuous
 62
     2
100
AcDbLine
 10
119.7891617602
 20
-2.74422219353048
 30
0.0
 11
155.7891617275
 21
-2.74422219353048
 31
0.0
  0
LINE
  5
216
330
214
100
AcDbEntity
  8
1
  6
Continuous
 62
     2
100
AcDbLine
 10
119.7891617602
 20
25.52929278870011
 30
0.0
 11
119.7891617602
 21
-4.74422219353048
 31
0.0
  0
LINE
  5
217
330
214
100
AcDbEntity
  8
1
  6
Continuous
 62
     2
100
AcDbLine
 10
155.7891617275
 20
25.52925364940012
 30
0.0
 11
155.7891617275
 21
-4.74422219353048
 31
0.0
  0
SOLID
  5
218
330
214
100
AcDbEntity
  8
1
 62
     2
100
AcDbTrace
 10
123.2891617602
 20
-2.2834384519746
 30
0.0
 11
123.2891617602
 21
-3.20500593508637
 31
0.0
 12
119.7891617602
 22
-2.74422219353048
 32
0.0
 13
119.7891617602
 23
-2.74422219353048
 33
0.0
  0
SOLID
  5
219
330
214
100
AcDbEntity
  8
1
 62
     2
100
AcDbTrace
 10
152.2891617275
 20
-3.20500593508637
 30
0.0
 11
152.2891617275
 21
-2.2834384519746
 31
0.0
 12
155.7891617275
 22
-2.74422219353048
 32
0.0
 13
155.7891617275
 23
-2.74422219353048
 33
0.0
  0
MTEXT
  5
21A
330
214
100
AcDbEntity
  8
1
 62
     2
100
AcDbMText
 10
135.16416174385
 20
-0.74422219353048
 30
0.0
 40
3.5
 41
0.0
 71
     7
 72
     1
  1
36
  7
CONVERTER_11
 11
0.9999999999970621
 21
2.424068405545307E-6
 31
0.0
 73
     1
 44
0.60024009603842
  0
ENDBLK
  5
21C
330
214
100
AcDbEntity
  8
0
100
AcDbBlockEnd
  0
BLOCK
  5
226
330
21F
100
AcDbEntity
  8
0
100
AcDbBlockBegin
  2
*D9
 70
     1
 71
     0
 10
0.0
 20
0.0
 30
0.0
  3
*D9
  1

  0
LINE
  5
220
330
21F
100
AcDbEntity
  8
1
  6
Continuous
 62
     2
100
AcDbLine
 10
97.99683289136317
 20
-2.74422219353048
 30
0.0
 11
119.7891617602
 21
-2.74422219353048
 31
0.0
  0
LINE
  5
221
330
21F
100
AcDbEntity
  8
1
  6
Continuous
 62
     2
100
AcDbLine
 10
97.99683289136317
 20
34.42930840407013
 30
0.0
 11
97.99683289136317
 21
-4.74422219353048
 31
0.0
  0
LINE
  5
222
330
21F
100
AcDbEntity
  8
1
  6
Continuous
 62
     2
100
AcDbLine
 10
119.7891617602
 20
25.52929278870011
 30
0.0
 11
119.7891617602
 21
-4.74422219353048
 31
0.0
  0
SOLID
  5
223
330
21F
100
AcDbEntity
  8
1
 62
     2
100
AcDbTrace
 10
101.4968328913632
 20
-2.2834384519746
 30
0.0
 11
101.4968328913632
 21
-3.20500593508637
 31
0.0
 12
97.99683289136317
 22
-2.74422219353048
 32
0.0
 13
97.99683289136317
 23
-2.74422219353048
 33
0.0
  0
SOLID
  5
224
330
21F
100
AcDbEntity
  8
1
 62
     2
100
AcDbTrace
 10
116.2891617602
 20
-3.20500593508637
 30
0.0
 11
116.2891617602
 21
-2.2834384519746
 31
0.0
 12
119.7891617602
 22
-2.74422219353048
 32
0.0
 13
119.7891617602
 23
-2.74422219353048
 33
0.0
  0
MTEXT
  5
225
330
21F
100
AcDbEntity
  8
1
 62
     2
100
AcDbMText
 10
104.6492473257816
 20
-0.74422219353048
 30
0.0
 40
3.5
 41
0.0
 71
     7
 72
     1
  1
21.8
  7
CONVERTER_11
 11
0.9999999999970621
 21
2.424068405545307E-6
 31
0.0
 73
     1
 44
0.60024009603842
  0
ENDBLK
  5
227
330
21F
100
AcDbEntity
  8
0
100
AcDbBlockEnd
  0
ENDSEC
  0
SECTION
  2
ENTITIES
  0
INSERT
  5
42
330
1F
100
AcDbEntity
  8
0
100
AcDbBlockReference
  2
TOP__1
 10
175.358905312603
 20
199.751652694879
 30
0.0
  0
INSERT
  5
43
330
1F
100
AcDbEntity
  8
0
100
AcDbBlockReference
  2
TOP__2
 10
191.61436353192
 20
160.209941816958
 30
0.0
  0
INSERT
  5
44
330
1F
100
AcDbEntity
  8
0
100
AcDbBlockReference
  2
TOP__3
 10
175.358905312603
 20
95.30694550552113
 30
0.0
  0
INSERT
  5
45
330
1F
100
AcDbEntity
  8
0
100
AcDbBlockReference
  2
TOP__4
 10
191.61436353192
 20
134.8486563834421
 30
0.0
  0
POINT
  5
56
330
1F
100
AcDbEntity
  8
1
 62
     3
 60
     1
100
AcDbPoint
 10
126.7889357773775
 20
94.04156772543044
 30
0.0
  0
POINT
  5
57
330
1F
100
AcDbEntity
  8
1
 62
     3
 60
     1
100
AcDbPoint
 10
126.7889357773775
 20
201.0415677254304
 30
0.0
  0
POINT
  5
58
330
1F
100
AcDbEntity
  8
1
 62
     3
 60
     1
100
AcDbPoint
 10
91.99691491462255
 20
94.04156772543044
 30
0.0
  0
POINT
  5
59
330
1F
100
AcDbEntity
  8
1
 62
     3
 60
     1
100
AcDbPoint
 10
91.99691491462255
 20
201.0415677254304
 30
0.0
  0
POINT
  5
5A
330
1F
100
AcDbEntity
  8
1
 62
     3
 60
     1
100
AcDbPoint
 10
147.7889703463
 20
264.5293331018
 30
0.0
  0
POINT
  5
5B
330
1F
100
AcDbEntity
  8
1
 62
     3
 60
     1
100
AcDbPoint
 10
139.7889703463
 20
264.5293331018
 30
0.0
  0
POINT
  5
5C
330
1F
100
AcDbEntity
  8
1
 62
     3
 60
     1
100
AcDbPoint
 10
127.7888028899
 20
261.5293358535
 30
0.0
  0
POINT
  5
5D
330
1F
100
AcDbEntity
  8
1
 62
     3
 60
     1
100
AcDbPoint
 10
120.7888028899
 20
261.5293358535
 30
0.0
  0
POINT
  5
5E
330
1F
100
AcDbEntity
  8
1
 62
     3
 60
     1
100
AcDbPoint
 10
137.7889866603
 20
279.5293439736
 30
0.0
  0
POINT
  5
5F
330
1F
100
AcDbEntity
  8
1
 62
     3
 60
     1
100
AcDbPoint
 10
145.7889866603
 20
279.5293439736
 30
0.0
  0
POINT
  5
60
330
1F
100
AcDbEntity
  8
1
 62
     3
 60
     1
100
AcDbPoint
 10
129.7889866603
 20
279.5293439736
 30
0.0
  0
POINT
  5
61
330
1F
100
AcDbEntity
  8
1
 62
     3
 60
     1
100
AcDbPoint
 10
127.7889671035
 20
261.5293548459
 30
0.0
  0
POINT
  5
62
330
1F
100
AcDbEntity
  8
1
 62
     3
 60
     1
100
AcDbPoint
 10
135.7889671035
 20
261.5293548459
 30
0.0
  0
POINT
  5
63
330
1F
100
AcDbEntity
  8
1
 62
     3
 60
     1
100
AcDbPoint
 10
147.7888061327
 20
264.5293141094
 30
0.0
  0
POINT
  5
64
330
1F
100
AcDbEntity
  8
1
 62
     3
 60
     1
100
AcDbPoint
 10
147.7888061327
 20
271.5293141094
 30
0.0
  0
POINT
  5
65
330
1F
100
AcDbEntity
  8
1
 62
     3
 60
     1
100
AcDbPoint
 10
127.7888028899
 20
268.5293358535
 30
0.0
  0
POINT
  5
66
330
1F
100
AcDbEntity
  8
1
 62
     3
 60
     1
100
AcDbPoint
 10
127.7888028899
 20
254.5293358535
 30
0.0
  0
POINT
  5
67
330
1F
100
AcDbEntity
  8
1
 62
     3
 60
     1
100
AcDbPoint
 10
137.7891508739
 20
279.5293249812
 30
0.0
  0
POINT
  5
68
330
1F
100
AcDbEntity
  8
1
 62
     3
 60
     1
100
AcDbPoint
 10
137.7891508739
 20
286.5293249812
 30
0.0
  0
POINT
  5
69
330
1F
100
AcDbEntity
  8
1
 62
     3
 60
     1
100
AcDbPoint
 10
137.7889866603
 20
271.5293439736
 30
0.0
  0
POINT
  5
6A
330
1F
100
AcDbEntity
  8
1
 62
     3
 60
     1
100
AcDbPoint
 10
50.6515806355387
 20
147.5292991002
 30
0.0
  0
POINT
  5
6B
330
1F
100
AcDbEntity
  8
1
 62
     3
 60
     1
100
AcDbPoint
 10
63.99771905704996
 20
147.5292991002
 30
0.0
  0
POINT
  5
6C
330
1F
100
AcDbEntity
  8
1
 62
     3
 60
     1
100
AcDbPoint
 10
66.99771905435026
 20
147.5292991002
 30
0.0
  0
POINT
  5
6D
330
1F
100
AcDbEntity
  8
1
 62
     3
 60
     1
100
AcDbPoint
 10
79.21487861209997
 20
147.5292991002
 30
0.0
  0
POINT
  5
6E
330
1F
100
AcDbEntity
  8
1
 62
     3
 60
     1
100
AcDbPoint
 10
90.52596804309997
 20
147.5292991002
 30
0.0
  0
POINT
  5
6F
330
1F
100
AcDbEntity
  8
1
 62
     3
 60
     1
100
AcDbPoint
 10
139.57097208
 20
147.5292991002
 30
0.0
  0
POINT
  5
70
330
1F
100
AcDbEntity
  8
1
 62
     3
 60
     1
100
AcDbPoint
 10
151.7881685395745
 20
147.5292991002
 30
0.0
  0
POINT
  5
71
330
1F
100
AcDbEntity
  8
1
 62
     3
 60
     1
100
AcDbPoint
 10
154.7881685368768
 20
147.5292991002
 30
0.0
  0
POINT
  5
72
330
1F
100
AcDbEntity
  8
1
 62
     3
 60
     1
100
AcDbPoint
 10
161.7881685368768
 20
147.5292991002
 30
0.0
  0
POINT
  5
73
330
1F
100
AcDbEntity
  8
1
 62
     3
 60
     1
100
AcDbPoint
 10
155.7892003157
 20
234.0293445514
 30
0.0
  0
POINT
  5
74
330
1F
100
AcDbEntity
  8
1
 62
     3
 60
     1
100
AcDbPoint
 10
155.7892003157
 20
233.0293445514
 30
0.0
  0
POINT
  5
75
330
1F
100
AcDbEntity
  8
1
 62
     3
 60
     1
100
AcDbPoint
 10
80.99672210969996
 20
269.5293053727
 30
0.0
  0
POINT
  5
76
330
1F
100
AcDbEntity
  8
1
 62
     3
 60
     1
100
AcDbPoint
 10
88.99672210969996
 20
269.5293053727
 30
0.0
  0
POINT
  5
77
330
1F
100
AcDbEntity
  8
1
 62
     3
 60
     1
100
AcDbPoint
 10
80.99688632329998
 20
269.5292863802999
 30
0.0
  0
POINT
  5
78
330
1F
100
AcDbEntity
  8
1
 62
     3
 60
     1
100
AcDbPoint
 10
80.99688632329998
 20
276.5292863802999
 30
0.0
  0
POINT
  5
79
330
1F
100
AcDbEntity
  8
1
 62
     3
 60
     1
100
AcDbPoint
 10
72.99672210969996
 20
269.5293053727
 30
0.0
  0
POINT
  5
7A
330
1F
100
AcDbEntity
  8
1
 62
     3
 60
     1
100
AcDbPoint
 10
80.99672210969996
 20
261.5293053727
 30
0.0
  0
POINT
  5
7B
330
1F
100
AcDbEntity
  8
1
 62
     3
 60
     1
100
AcDbPoint
 10
70.99670368879998
 20
249.5293145896
 30
0.0
  0
POINT
  5
7C
330
1F
100
AcDbEntity
  8
1
 62
     3
 60
     1
100
AcDbPoint
 10
70.99670368879998
 20
256.5293145896
 30
0.0
  0
POINT
  5
7D
330
1F
100
AcDbEntity
  8
1
 62
     3
 60
     1
100
AcDbPoint
 10
70.99653947519998
 20
249.529333582
 30
0.0
  0
POINT
  5
7E
330
1F
100
AcDbEntity
  8
1
 62
     3
 60
     1
100
AcDbPoint
 10
78.99653947519998
 20
249.529333582
 30
0.0
  0
POINT
  5
7F
330
1F
100
AcDbEntity
  8
1
 62
     3
 60
     1
100
AcDbPoint
 10
90.99686788419999
 20
249.5292771637
 30
0.0
  0
POINT
  5
80
330
1F
100
AcDbEntity
  8
1
 62
     3
 60
     1
100
AcDbPoint
 10
90.99686788419999
 20
256.5292771637
 30
0.0
  0
POINT
  5
81
330
1F
100
AcDbEntity
  8
1
 62
     3
 60
     1
100
AcDbPoint
 10
97.99686788419999
 20
249.5292771637
 30
0.0
  0
POINT
  5
82
330
1F
100
AcDbEntity
  8
1
 62
     3
 60
     1
100
AcDbPoint
 10
90.99686788419999
 20
242.5292771637
 30
0.0
  0
POINT
  5
83
330
1F
100
AcDbEntity
  8
1
 62
     3
 60
     1
100
AcDbPoint
 10
90.99670367059997
 20
249.5292961561
 30
0.0
  0
POINT
  5
84
330
1F
100
AcDbEntity
  8
1
 62
     3
 60
     1
100
AcDbPoint
 10
82.99670367059997
 20
249.5292961561
 30
0.0
  0
POINT
  5
85
330
1F
100
AcDbEntity
  8
1
 62
     3
 60
     1
100
AcDbPoint
 10
145.7889866603
 20
15.52925422680011
 30
0.0
  0
POINT
  5
86
330
1F
100
AcDbEntity
  8
1
 62
     3
 60
     1
100
AcDbPoint
 10
129.7889866603
 20
15.52925422680011
 30
0.0
  0
POINT
  5
87
330
1F
100
AcDbEntity
  8
1
 62
     3
 60
     1
100
AcDbPoint
 10
137.7891508739
 20
15.52927321920015
 30
0.0
  0
POINT
  5
88
330
1F
100
AcDbEntity
  8
1
 62
     3
 60
     1
100
AcDbPoint
 10
137.7891508739
 20
8.52927321920015
 30
0.0
  0
POINT
  5
89
330
1F
100
AcDbEntity
  8
1
 62
     3
 60
     1
100
AcDbPoint
 10
137.7889866603
 20
15.52925422680011
 30
0.0
  0
POINT
  5
8A
330
1F
100
AcDbEntity
  8
1
 62
     3
 60
     1
100
AcDbPoint
 10
137.7889866603
 20
23.52925422680011
 30
0.0
  0
POINT
  5
8B
330
1F
100
AcDbEntity
  8
1
 62
     3
 60
     1
100
AcDbPoint
 10
155.7892003157
 20
61.02925364900014
 30
0.0
  0
POINT
  5
8C
330
1F
100
AcDbEntity
  8
1
 62
     3
 60
     1
100
AcDbPoint
 10
155.7892003157
 20
62.02925364900014
 30
0.0
  0
POINT
  5
8D
330
1F
100
AcDbEntity
  8
1
 62
     3
 60
     1
100
AcDbPoint
 10
88.99672210969996
 20
25.52929282770015
 30
0.0
  0
POINT
  5
8E
330
1F
100
AcDbEntity
  8
1
 62
     3
 60
     1
100
AcDbPoint
 10
80.99688632329998
 20
25.52931182010019
 30
0.0
  0
POINT
  5
8F
330
1F
100
AcDbEntity
  8
1
 62
     3
 60
     1
100
AcDbPoint
 10
80.99688632329998
 20
18.52931182010019
 30
0.0
  0
POINT
  5
90
330
1F
100
AcDbEntity
  8
1
 62
     3
 60
     1
100
AcDbPoint
 10
72.99672210969996
 20
25.52929282770015
 30
0.0
  0
POINT
  5
91
330
1F
100
AcDbEntity
  8
1
 62
     3
 60
     1
100
AcDbPoint
 10
80.99672210969996
 20
25.52929282770015
 30
0.0
  0
POINT
  5
92
330
1F
100
AcDbEntity
  8
1
 62
     3
 60
     1
100
AcDbPoint
 10
80.99672210969996
 20
33.52929282770015
 30
0.0
  0
POINT
  5
93
330
1F
100
AcDbEntity
  8
1
 62
     3
 60
     1
100
AcDbPoint
 10
70.99670368879998
 20
38.52928361080012
 30
0.0
  0
POINT
  5
94
330
1F
100
AcDbEntity
  8
1
 62
     3
 60
     1
100
AcDbPoint
 10
78.99653947519998
 20
45.52926461840013
 30
0.0
  0
POINT
  5
95
330
1F
100
AcDbEntity
  8
1
 62
     3
 60
     1
100
AcDbPoint
 10
70.99670368879998
 20
45.52928361080012
 30
0.0
  0
POINT
  5
96
330
1F
100
AcDbEntity
  8
1
 62
     3
 60
     1
100
AcDbPoint
 10
70.99653947519998
 20
45.52926461840013
 30
0.0
  0
POINT
  5
97
330
1F
100
AcDbEntity
  8
1
 62
     3
 60
     1
100
AcDbPoint
 10
90.99686788419999
 20
38.52932103670008
 30
0.0
  0
POINT
  5
98
330
1F
100
AcDbEntity
  8
1
 62
     3
 60
     1
100
AcDbPoint
 10
97.99686788419999
 20
45.52932103670011
 30
0.0
  0
POINT
  5
99
330
1F
100
AcDbEntity
  8
1
 62
     3
 60
     1
100
AcDbPoint
 10
90.99686788419999
 20
45.52932103670011
 30
0.0
  0
POINT
  5
9A
330
1F
100
AcDbEntity
  8
1
 62
     3
 60
     1
100
AcDbPoint
 10
90.99686788419999
 20
52.52932103670011
 30
0.0
  0
POINT
  5
9B
330
1F
100
AcDbEntity
  8
1
 62
     3
 60
     1
100
AcDbPoint
 10
90.99670367059997
 20
45.52930204430012
 30
0.0
  0
POINT
  5
9C
330
1F
100
AcDbEntity
  8
1
 62
     3
 60
     1
100
AcDbPoint
 10
82.99670367059997
 20
45.52930204430012
 30
0.0
  0
POINT
  5
9D
330
1F
100
AcDbEntity
  8
1
 62
     3
 60
     1
100
AcDbPoint
 10
63.99771905704996
 20
147.5292991002
 30
0.0
  0
POINT
  5
9E
330
1F
100
AcDbEntity
  8
1
 62
     3
 60
     1
100
AcDbPoint
 10
66.99771905435026
 20
147.5292991002
 30
0.0
  0
POINT
  5
9F
330
1F
100
AcDbEntity
  8
1
 62
     3
 60
     1
100
AcDbPoint
 10
79.21487861209997
 20
147.5292991002
 30
0.0
  0
POINT
  5
A0
330
1F
100
AcDbEntity
  8
1
 62
     3
 60
     1
100
AcDbPoint
 10
90.52596804309997
 20
147.5292991002
 30
0.0
  0
POINT
  5
A1
330
1F
100
AcDbEntity
  8
1
 62
     3
 60
     1
100
AcDbPoint
 10
139.57097208
 20
147.5292991002
 30
0.0
  0
POINT
  5
A2
330
1F
100
AcDbEntity
  8
1
 62
     3
 60
     1
100
AcDbPoint
 10
151.7881685395745
 20
147.5292991002
 30
0.0
  0
POINT
  5
A3
330
1F
100
AcDbEntity
  8
1
 62
     3
 60
     1
100
AcDbPoint
 10
154.7881685368768
 20
147.5292991002
 30
0.0
  0
POINT
  5
A4
330
1F
100
AcDbEntity
  8
A_BEMASSUNGEN
 62
     7
100
AcDbPoint
 10
78.1967929086
 20
50.52928362700007
 30
0.0
  0
POINT
  5
A5
330
1F
100
AcDbEntity
  8
A_BEMASSUNGEN
 62
     7
100
AcDbPoint
 10
83.79679290859997
 20
50.52928362700013
 30
0.0
  0
POINT
  5
A6
330
1F
100
AcDbEntity
  8
A_BEMASSUNGEN
 62
     7
100
AcDbPoint
 10
83.79679290859997
 20
244.5293145734
 30
0.0
  0
POINT
  5
A7
330
1F
100
AcDbEntity
  8
A_BEMASSUNGEN
 62
     7
100
AcDbPoint
 10
78.1967929086
 20
244.5293145734001
 30
0.0
  0
LINE
  5
A8
330
1F
100
AcDbEntity
  8
1
  6
DOT_CENTER
 62
     2
100
AcDbLine
 10
126.7889357773775
 20
94.04156772543044
 30
0.0
 11
126.7889357773775
 21
201.0415677254304
 31
0.0
  0
LINE
  5
A9
330
1F
100
AcDbEntity
  8
1
  6
DOT_CENTER
 62
     2
100
AcDbLine
 10
91.99691491462255
 20
201.0415677254304
 30
0.0
 11
91.99691491462255
 21
94.04156772543044
 31
0.0
  0
LINE
  5
AA
330
1F
100
AcDbEntity
  8
0
  6
Continuous
 62
     7
100
AcDbLine
 10
63.99660930629997
 20
216.5293147686
 30
0.0
 11
97.99660927539996
 21
216.5292834316
 31
0.0
  0
LINE
  5
AB
330
1F
100
AcDbEntity
  8
A_FASEN
  6
Continuous
 62
     7
100
AcDbLine
 10
155.7888784021794
 20
212.5294480379
 30
0.0
 11
154.788878632
 21
212.52944706
 31
0.0
  0
LINE
  5
AC
330
1F
100
AcDbEntity
  8
A_FASEN
  6
Continuous
 62
     7
100
AcDbLine
 10
120.7877948462
 20
212.5294100939
 30
0.0
 11
119.7888758104851
 21
212.529409116
 31
0.0
  0
LINE
  5
AD
330
1F
100
AcDbEntity
  8
0
  6
Continuous
 62
     7
100
AcDbLine
 10
154.7892903837
 20
210.0293360649
 30
0.0
 11
120.7892904147
 21
210.0292991
 31
0.0
  0
LINE
  5
AE
330
1F
100
AcDbEntity
  8
0
  6
Continuous
 62
     7
100
AcDbLine
 10
154.7893028841
 20
198.5293360651
 30
0.0
 11
120.7893029151
 21
198.5292991002
 31
0.0
  0
LINE
  5
AF
330
1F
100
AcDbEntity
  8
0
  6
Continuous
 62
     7
100
AcDbLine
 10
63.99659271929997
 20
198.5293147688
 30
0.0
 11
97.99659268839997
 21
198.5292834317
 31
0.0
  0
LINE
  5
B0
330
1F
100
AcDbEntity
  8
A_ACHSEN
  6
Continuous
 62
     7
100
AcDbLine
 10
107.192925346
 20
198.0292991002
 30
0.0
 11
111.592925346
 21
198.0292991002
 31
0.0
  0
LINE
  5
B1
330
1F
100
AcDbEntity
  8
A_ACHSEN
  6
Continuous
 62
     7
100
AcDbLine
 10
106.892925346
 20
197.7292991002
 30
0.0
 11
111.892925346
 21
197.7292991002
 31
0.0
  0
LINE
  5
B2
330
1F
100
AcDbEntity
  8
A_ACHSEN
  6
Continuous
 62
     7
100
AcDbLine
 10
132.0206405646
 20
197.5292991002
 30
0.0
 11
79.21499803789996
 21
197.5292991002
 31
0.0
  0
LINE
  5
B3
330
1F
100
AcDbEntity
  8
0
  6
Continuous
 62
     7
100
AcDbLine
 10
132.788941447
 20
197.5293540766
 30
0.0
 11
130.2886991907
 21
197.5293274038
 31
0.0
  0
LINE
  5
B4
330
1F
100
AcDbEntity
  8
0
  6
Continuous
 62
     7
100
AcDbLine
 10
63.99660930629997
 20
216.5293147686
 30
0.0
 11
63.99659271929997
 21
198.5293147688
 31
0.0
  0
LINE
  5
B5
330
1F
100
AcDbEntity
  8
A_RUNDUNGEN
  6
Continuous
 62
     7
100
AcDbLine
 10
63.99773420189996
 20
196.5292991002
 30
0.0
 11
63.99764951619997
 21
198.5292991002
 31
0.0
  0
LINE
  5
B6
330
1F
100
AcDbEntity
  8
0
  6
Continuous
 62
     7
100
AcDbLine
 10
63.99679379798377
 20
260.6293209491
 30
0.0
 11
63.99675315988377
 21
216.5293209495
 31
0.0
  0
LINE
  5
B7
330
1F
100
AcDbEntity
  8
A_RUNDUNGEN
  6
Continuous
 62
     7
100
AcDbLine
 10
66.99764951349997
 20
198.5292981729
 30
0.0
 11
66.99773419919998
 21
196.5292981729
 31
0.0
  0
LINE
  5
B8
330
1F
100
AcDbEntity
  8
A_ACHSEN
  6
Continuous
 62
     7
100
AcDbLine
 10
106.892925346
 20
197.7292991002
 30
0.0
 11
107.192925346
 21
198.0292991002
 31
0.0
  0
LINE
  5
B9
330
1F
100
AcDbEntity
  8
A_RUNDUNGEN
  6
Continuous
 62
     7
100
AcDbLine
 10
93.92552403559996
 20
176.5292991002
 30
0.0
 11
106.9041461739
 21
176.5292991002
 31
0.0
  0
LINE
  5
BA
330
1F
100
AcDbEntity
  8
0
  6
Continuous
 62
     7
100
AcDbLine
 10
106.9041461739
 20
176.5292991002
 30
0.0
 11
129.8651111197
 21
176.5292991002
 31
0.0
  0
LINE
  5
BB
330
1F
100
AcDbEntity
  8
0
  6
Continuous
 62
     7
100
AcDbLine
 10
151.7886875509
 20
176.0294068001
 30
0.0
 11
134.1828258443
 21
176.0293876589
 31
0.0
  0
LINE
  5
BC
330
1F
100
AcDbEntity
  8
A_RUNDUNGEN
  6
Continuous
 62
     7
100
AcDbLine
 10
151.7890389684
 20
176.0293919847
 30
0.0
 11
154.7890389656
 21
176.0293946456
 31
0.0
  0
LINE
  5
BD
330
1F
100
AcDbEntity
  8
A_RUNDUNGEN
  6
Continuous
 62
     7
100
AcDbLine
 10
134.1828258438
 20
176.0294047084
 30
0.0
 11
132.5387225505
 21
176.0293877204
 31
0.0
  0
LINE
  5
BE
330
1F
100
AcDbEntity
  8
0
  6
Continuous
 62
     7
100
AcDbLine
 10
90.81826250129997
 20
175.0292991002
 30
0.0
 11
139.5707593234
 21
175.0292991002
 31
0.0
  0
LINE
  5
BF
330
1F
100
AcDbEntity
  8
0
  6
Continuous
 62
     7
100
AcDbLine
 10
85.99691261229998
 20
198.5293258582
 30
0.0
 11
85.99691169079998
 21
197.5293258582
 31
0.0
  0
LINE
  5
C0
330
1F
100
AcDbEntity
  8
0
  6
Continuous
 62
     7
100
AcDbLine
 10
97.99679223777012
 20
216.5292897968
 30
0.0
 11
97.99683287597014
 21
260.6292897963999
 31
0.0
  0
LINE
  5
C1
330
1F
100
AcDbEntity
  8
0
  6
Continuous
 62
     7
100
AcDbLine
 10
97.99660927539996
 20
216.5292834316
 30
0.0
 11
97.99691166349997
 21
197.529314797
 31
0.0
  0
LINE
  5
C2
330
1F
100
AcDbEntity
  8
A_RUNDUNGEN
  6
Continuous
 62
     7
100
AcDbLine
 10
97.99809053089997
 20
176.5292991002
 30
0.0
 11
97.99809015879997
 21
175.3255899618
 31
0.0
  0
LINE
  5
C3
330
1F
100
AcDbEntity
  8
0
  6
Continuous
 62
     7
100
AcDbLine
 10
99.35532025929997
 20
175.1170394289
 30
0.0
 11
99.35532025929997
 21
175.0292991002
 31
0.0
  0
LINE
  5
C4
330
1F
100
AcDbEntity
  8
A_ACHSEN
  6
Continuous
 62
     7
100
AcDbLine
 10
104.3927225505
 20
176.5292991002
 30
0.0
 11
104.3927225505
 21
175.0292991002
 31
0.0
  0
LINE
  5
C5
330
1F
100
AcDbEntity
  8
A_ACHSEN
  6
Continuous
 62
     7
100
AcDbLine
 10
106.892925346
 20
197.5292991002
 30
0.0
 11
106.892925346
 21
197.7292991002
 31
0.0
  0
LINE
  5
C6
330
1F
100
AcDbEntity
  8
A_ACHSEN
  6
Continuous
 62
     7
100
AcDbLine
 10
111.892925346
 20
197.5292991002
 30
0.0
 11
111.892925346
 21
197.7292991002
 31
0.0
  0
LINE
  5
C7
330
1F
100
AcDbEntity
  8
A_ACHSEN
  6
Continuous
 62
     7
100
AcDbLine
 10
114.3927225505
 20
176.5292991002
 30
0.0
 11
114.3927225505
 21
175.0292991002
 31
0.0
  0
LINE
  5
C8
330
1F
100
AcDbEntity
  8
0
  6
Continuous
 62
     7
100
AcDbLine
 10
119.7891617602
 20
269.5293054117
 30
0.0
 11
119.7892003484
 21
233.4014312648
 31
0.0
  0
LINE
  5
C9
330
1F
100
AcDbEntity
  8
A_FASEN
  6
Continuous
 62
     7
100
AcDbLine
 10
119.7888758104851
 20
212.529409116
 30
0.0
 11
119.7889173763851
 21
213.5294041829
 31
0.0
  0
LINE
  5
CA
330
1F
100
AcDbEntity
  8
A_FASEN
  6
Continuous
 62
     7
100
AcDbLine
 10
119.7888999844851
 20
229.5294041827
 30
0.0
 11
119.7889173763851
 21
213.5294041829
 31
0.0
  0
LINE
  5
CB
330
1F
100
AcDbEntity
  8
0
  6
Continuous
 62
     7
100
AcDbLine
 10
119.7891985546851
 20
229.5293696511
 30
0.0
 11
119.7891943457851
 21
233.4014312648
 31
0.0
  0
LINE
  5
CC
330
1F
100
AcDbEntity
  8
A_RUNDUNGEN
  6
Continuous
 62
     7
100
AcDbLine
 10
120.7878532496
 20
176.0293730961
 30
0.0
 11
120.7878541366
 21
175.0292991002
 31
0.0
  0
LINE
  5
CD
330
1F
100
AcDbEntity
  8
0
  6
Continuous
 62
     7
100
AcDbLine
 10
120.7886875791
 20
176.0293730968
 30
0.0
 11
120.7886873659
 21
176.2255328082
 31
0.0
  0
LINE
  5
CE
330
1F
100
AcDbEntity
  8
A_ACHSEN
  6
Continuous
 62
     7
100
AcDbLine
 10
132.5387225505
 20
175.0292991002
 30
0.0
 11
132.5387225505
 21
197.5292991002
 31
0.0
  0
LINE
  5
CF
330
1F
100
AcDbEntity
  8
0
  6
Continuous
 62
     7
100
AcDbLine
 10
132.7889403601
 20
198.5293540766
 30
0.0
 11
132.7889414471
 21
197.5293540766
 31
0.0
  0
LINE
  5
D0
330
1F
100
AcDbEntity
  8
A_ACHSEN
  6
Continuous
 62
     7
100
AcDbLine
 10
111.892925346
 20
197.7292991002
 30
0.0
 11
111.592925346
 21
198.0292991002
 31
0.0
  0
LINE
  5
D1
330
1F
100
AcDbEntity
  8
A_ACHSEN
  6
Continuous
 62
     7
100
AcDbLine
 10
139.57097208
 20
175.0292991002
 30
0.0
 11
139.57097208
 21
147.5292991002
 31
0.0
  0
LINE
  5
D2
330
1F
100
AcDbEntity
  8
A_RUNDUNGEN
  6
Continuous
 62
     7
100
AcDbLine
 10
151.7890389684
 20
176.0293919847
 30
0.0
 11
151.7891043166
 21
198.5293328032
 31
0.0
  0
LINE
  5
D3
330
1F
100
AcDbEntity
  8
0
  6
Continuous
 62
     7
100
AcDbLine
 10
151.7881432602
 20
176.0293830759
 30
0.0
 11
151.7881685395745
 21
147.5292991002
 31
0.0
  0
LINE
  5
D4
330
1F
100
AcDbEntity
  8
A_RUNDUNGEN
  6
Continuous
 62
     7
100
AcDbLine
 10
154.7891043139
 20
198.5293360649
 30
0.0
 11
154.7890389656
 21
176.0293946456
 31
0.0
  0
LINE
  5
D5
330
1F
100
AcDbEntity
  8
0
  6
Continuous
 62
     7
100
AcDbLine
 10
154.7881432575
 20
176.0293857369
 30
0.0
 11
154.7881685368768
 21
147.5292991002
 31
0.0
  0
LINE
  5
D6
330
1F
100
AcDbEntity
  8
0
  6
Continuous
 62
     7
100
AcDbLine
 10
154.7893028841
 20
198.5293360651
 30
0.0
 11
154.7892202615275
 21
213.0293309012
 31
0.0
  0
LINE
  5
D7
330
1F
100
AcDbEntity
  8
A_FASEN
  6
Continuous
 62
     7
100
AcDbLine
 10
155.7889199680793
 20
213.5294431048
 30
0.0
 11
155.7888784021794
 21
212.5294480379
 31
0.0
  0
LINE
  5
D8
330
1F
100
AcDbEntity
  8
A_FASEN
  6
Continuous
 62
     7
100
AcDbLine
 10
155.7889025761794
 20
229.5294431046
 30
0.0
 11
155.7889199680793
 21
213.5294431048
 31
0.0
  0
LINE
  5
D9
330
1F
100
AcDbEntity
  8
0
  6
Continuous
 62
     7
100
AcDbLine
 10
155.7892011463794
 20
229.5294085729
 30
0.0
 11
155.7891969450794
 21
233.3944683947
 31
0.0
  0
LINE
  5
DA
330
1F
100
AcDbEntity
  8
0
  6
Continuous
 62
     7
100
AcDbLine
 10
155.7892003157
 20
234.0293445514
 30
0.0
 11
155.7891617275
 21
269.529344551
 31
0.0
  0
LINE
  5
DB
330
1F
100
AcDbEntity
  8
1
  6
DOT_CENTER
 62
     2
100
AcDbLine
 10
139.7889703463
 20
264.5293331018
 30
0.0
 11
147.7889703463
 21
264.5293331018
 31
0.0
  0
LINE
  5
DC
330
1F
100
AcDbEntity
  8
1
  6
DOT_CENTER
 62
     2
100
AcDbLine
 10
120.7888028899
 20
261.5293358535
 30
0.0
 11
127.7888028899
 21
261.5293358535
 31
0.0
  0
LINE
  5
DD
330
1F
100
AcDbEntity
  8
1
  6
DOT_CENTER
 62
     2
100
AcDbLine
 10
137.7889866603
 20
279.5293439736
 30
0.0
 11
145.7889866603
 21
279.5293439736
 31
0.0
  0
LINE
  5
DE
330
1F
100
AcDbEntity
  8
1
  6
DOT_CENTER
 62
     2
100
AcDbLine
 10
137.7889866603
 20
279.5293439736
 30
0.0
 11
129.7889866603
 21
279.5293439736
 31
0.0
  0
LINE
  5
DF
330
1F
100
AcDbEntity
  8
1
  6
DOT_CENTER
 62
     2
100
AcDbLine
 10
155.097886538638
 20
264.5293331018
 30
0.0
 11
147.7889703463
 21
264.5293331018
 31
0.0
  0
LINE
  5
E0
330
1F
100
AcDbEntity
  8
1
  6
DOT_CENTER
 62
     2
100
AcDbLine
 10
135.7889671035
 20
261.5293548459
 30
0.0
 11
127.7889671035
 21
261.5293548459
 31
0.0
  0
LINE
  5
E1
330
1F
100
AcDbEntity
  8
1
  6
DOT_CENTER
 62
     2
100
AcDbLine
 10
147.7888061327
 20
271.5293141094
 30
0.0
 11
147.7888061327
 21
264.5293141094
 31
0.0
  0
LINE
  5
E2
330
1F
100
AcDbEntity
  8
1
  6
DOT_CENTER
 62
     2
100
AcDbLine
 10
147.7888061327
 20
257.230302050391
 30
0.0
 11
147.7888061327
 21
264.5293141094
 31
0.0
  0
LINE
  5
E3
330
1F
100
AcDbEntity
  8
1
  6
DOT_CENTER
 62
     2
100
AcDbLine
 10
127.7888028899
 20
268.5293358535
 30
0.0
 11
127.7888028899
 21
261.5293358535
 31
0.0
  0
LINE
  5
E4
330
1F
100
AcDbEntity
  8
1
  6
DOT_CENTER
 62
     2
100
AcDbLine
 10
127.7888028899
 20
254.5293358535
 30
0.0
 11
127.7888028899
 21
261.5293358535
 31
0.0
  0
LINE
  5
E5
330
1F
100
AcDbEntity
  8
1
  6
DOT_CENTER
 62
     2
100
AcDbLine
 10
137.7891508739
 20
279.5293249812
 30
0.0
 11
137.7891508739
 21
286.5293249812
 31
0.0
  0
LINE
  5
E6
330
1F
100
AcDbEntity
  8
1
  6
DOT_CENTER
 62
     2
100
AcDbLine
 10
137.7889866603
 20
279.5293439736
 30
0.0
 11
137.7889866603
 21
271.5293439736
 31
0.0
  0
LINE
  5
E7
330
1F
100
AcDbEntity
  8
1
  6
DOT_CENTER
 62
     7
100
AcDbLine
 10
50.6515806355387
 20
147.5292991002
 30
0.0
 11
63.99771905704996
 21
147.5292991002
 31
0.0
  0
LINE
  5
E8
330
1F
100
AcDbEntity
  8
A_RUNDUNGEN
  6
Continuous
 62
     7
100
AcDbLine
 10
63.99771905704996
 20
147.5292991002
 30
0.0
 11
63.99773420189996
 21
196.5292991002
 31
0.0
  0
LINE
  5
E9
330
1F
100
AcDbEntity
  8
1
  6
DOT_CENTER
 62
     7
100
AcDbLine
 10
63.99771905704996
 20
147.5292991002
 30
0.0
 11
66.99771905435026
 21
147.5292991002
 31
0.0
  0
LINE
  5
EA
330
1F
100
AcDbEntity
  8
A_RUNDUNGEN
  6
Continuous
 62
     7
100
AcDbLine
 10
66.99771905435026
 20
147.5292991002
 30
0.0
 11
66.99773419919998
 21
196.5292981729
 31
0.0
  0
LINE
  5
EB
330
1F
100
AcDbEntity
  8
1
  6
DOT_CENTER
 62
     7
100
AcDbLine
 10
66.99771905435026
 20
147.5292991002
 30
0.0
 11
79.21487861209997
 21
147.5292991002
 31
0.0
  0
LINE
  5
EC
330
1F
100
AcDbEntity
  8
A_ACHSEN
  6
Continuous
 62
     7
100
AcDbLine
 10
79.21487861209997
 20
147.5292991002
 30
0.0
 11
79.21487861209997
 21
197.5292991002
 31
0.0
  0
LINE
  5
ED
330
1F
100
AcDbEntity
  8
1
  6
DOT_CENTER
 62
     7
100
AcDbLine
 10
79.21487861209997
 20
147.5292991002
 30
0.0
 11
90.52596804309997
 21
147.5292991002
 31
0.0
  0
LINE
  5
EE
330
1F
100
AcDbEntity
  8
A_RUNDUNGEN
  6
Continuous
 62
     7
100
AcDbLine
 10
90.52596804309997
 20
147.5292991002
 30
0.0
 11
90.52596804309997
 21
174.0292991002
 31
0.0
  0
LINE
  5
EF
330
1F
100
AcDbEntity
  8
1
  6
DOT_CENTER
 62
     7
100
AcDbLine
 10
90.52596804309997
 20
147.5292991002
 30
0.0
 11
109.392925346
 21
147.5292991002
 31
0.0
  0
LINE
  5
F0
330
1F
100
AcDbEntity
  8
1
  6
DOT_CENTER
 62
     2
100
AcDbLine
 10
109.392925346
 20
147.5292991002
 30
0.0
 11
109.392925346
 21
199.313946356982
 31
0.0
  0
LINE
  5
F1
330
1F
100
AcDbEntity
  8
1
  6
DOT_CENTER
 62
     7
100
AcDbLine
 10
109.392925346
 20
147.5292991002
 30
0.0
 11
139.57097208
 21
147.5292991002
 31
0.0
  0
LINE
  5
F2
330
1F
100
AcDbEntity
  8
1
  6
DOT_CENTER
 62
     7
100
AcDbLine
 10
139.57097208
 20
147.5292991002
 30
0.0
 11
151.7881685395745
 21
147.5292991002
 31
0.0
  0
LINE
  5
F3
330
1F
100
AcDbEntity
  8
1
  6
DOT_CENTER
 62
     7
100
AcDbLine
 10
151.7881685395745
 20
147.5292991002
 30
0.0
 11
154.7881685368768
 21
147.5292991002
 31
0.0
  0
LINE
  5
F4
330
1F
100
AcDbEntity
  8
1
  6
DOT_CENTER
 62
     7
100
AcDbLine
 10
154.7881685368768
 20
147.5292991002
 30
0.0
 11
161.7881685368768
 21
147.5292991002
 31
0.0
  0
LINE
  5
F5
330
1F
100
AcDbEntity
  8
0
  6
Continuous
 62
     7
100
AcDbLine
 10
119.7896724936851
 20
213.0293309012
 30
0.0
 11
155.7896751179794
 21
213.0293309012
 31
0.0
  0
LINE
  5
F6
330
1F
100
AcDbEntity
  8
0
  6
Continuous
 62
     7
100
AcDbLine
 10
120.7891449765298
 20
213.0293309012
 30
0.0
 11
120.7889414471
 21
197.5293410327
 31
0.0
  0
LINE
  5
F7
330
1F
100
AcDbEntity
  8
1
  6
Continuous
 62
     7
100
AcDbLine
 10
155.7892003157
 20
234.0293445514
 30
0.0
 11
155.7892003157
 21
233.0293445514
 31
0.0
  0
LINE
  5
F8
330
1F
100
AcDbEntity
  8
1
  6
DOT_CENTER
 62
     2
100
AcDbLine
 10
80.99672210969996
 20
269.5293053727
 30
0.0
 11
88.99672210969996
 21
269.5293053727
 31
0.0
  0
LINE
  5
F9
330
1F
100
AcDbEntity
  8
1
  6
DOT_CENTER
 62
     2
100
AcDbLine
 10
80.99688632329998
 20
269.5292863802999
 30
0.0
 11
80.99688632329998
 21
276.5292863802999
 31
0.0
  0
LINE
  5
FA
330
1F
100
AcDbEntity
  8
1
  6
DOT_CENTER
 62
     2
100
AcDbLine
 10
80.99672210969996
 20
269.5293053727
 30
0.0
 11
72.99672210969996
 21
269.5293053727
 31
0.0
  0
LINE
  5
FB
330
1F
100
AcDbEntity
  8
1
  6
DOT_CENTER
 62
     2
100
AcDbLine
 10
80.99672210969996
 20
269.5293053727
 30
0.0
 11
80.99672210969996
 21
261.5293053727
 31
0.0
  0
LINE
  5
FC
330
1F
100
AcDbEntity
  8
1
  6
DOT_CENTER
 62
     2
100
AcDbLine
 10
70.99670368879998
 20
249.5293145896
 30
0.0
 11
70.99670368879998
 21
256.5293145896
 31
0.0
  0
LINE
  5
FD
330
1F
100
AcDbEntity
  8
1
  6
DOT_CENTER
 62
     2
100
AcDbLine
 10
70.99653947519998
 20
249.529333582
 30
0.0
 11
78.99653947519998
 21
249.529333582
 31
0.0
  0
LINE
  5
FE
330
1F
100
AcDbEntity
  8
1
  6
DOT_CENTER
 62
     2
100
AcDbLine
 10
70.99670368879998
 20
249.5293145896
 30
0.0
 11
70.99670368879998
 21
242.230302530591
 31
0.0
  0
LINE
  5
FF
330
1F
100
AcDbEntity
  8
1
  6
DOT_CENTER
 62
     2
100
AcDbLine
 10
70.99653947519998
 20
249.529333582
 30
0.0
 11
63.68762328286202
 21
249.529333582
 31
0.0
  0
LINE
  5
100
330
1F
100
AcDbEntity
  8
1
  6
DOT_CENTER
 62
     2
100
AcDbLine
 10
90.99686788419999
 20
249.5292771637
 30
0.0
 11
90.99686788419999
 21
256.5292771637
 31
0.0
  0
LINE
  5
101
330
1F
100
AcDbEntity
  8
1
  6
DOT_CENTER
 62
     2
100
AcDbLine
 10
90.99686788419999
 20
249.5292771637
 30
0.0
 11
97.99686788419999
 21
249.5292771637
 31
0.0
  0
LINE
  5
102
330
1F
100
AcDbEntity
  8
1
  6
DOT_CENTER
 62
     2
100
AcDbLine
 10
90.99686788419999
 20
249.5292771637
 30
0.0
 11
90.99686788419999
 21
242.5292771637
 31
0.0
  0
LINE
  5
103
330
1F
100
AcDbEntity
  8
1
  6
DOT_CENTER
 62
     2
100
AcDbLine
 10
90.99670367059997
 20
249.5292961561
 30
0.0
 11
82.99670367059997
 21
249.5292961561
 31
0.0
  0
LINE
  5
104
330
1F
100
AcDbEntity
  8
1
  6
DOT_CENTER
 62
     2
100
AcDbLine
 10
82.99670367059997
 20
45.52930204430012
 30
0.0
 11
90.99670367059997
 21
45.52930204430012
 31
0.0
  0
LINE
  5
105
330
1F
100
AcDbEntity
  8
1
  6
DOT_CENTER
 62
     2
100
AcDbLine
 10
90.99686788419999
 20
52.52932103670011
 30
0.0
 11
90.99686788419999
 21
45.52932103670011
 31
0.0
  0
LINE
  5
106
330
1F
100
AcDbEntity
  8
1
  6
DOT_CENTER
 62
     2
100
AcDbLine
 10
97.99686788419999
 20
45.52932103670011
 30
0.0
 11
90.99686788419999
 21
45.52932103670011
 31
0.0
  0
LINE
  5
107
330
1F
100
AcDbEntity
  8
1
  6
DOT_CENTER
 62
     2
100
AcDbLine
 10
90.99686788419999
 20
38.52932103670008
 30
0.0
 11
90.99686788419999
 21
45.52932103670011
 31
0.0
  0
LINE
  5
108
330
1F
100
AcDbEntity
  8
1
  6
DOT_CENTER
 62
     2
100
AcDbLine
 10
63.68762328286202
 20
45.52926461840013
 30
0.0
 11
70.99653947519998
 21
45.52926461840013
 31
0.0
  0
LINE
  5
109
330
1F
100
AcDbEntity
  8
1
  6
DOT_CENTER
 62
     2
100
AcDbLine
 10
70.99670368879998
 20
52.82829566980911
 30
0.0
 11
70.99670368879998
 21
45.52928361080012
 31
0.0
  0
LINE
  5
10A
330
1F
100
AcDbEntity
  8
1
  6
DOT_CENTER
 62
     2
100
AcDbLine
 10
78.99653947519998
 20
45.52926461840013
 30
0.0
 11
70.99653947519998
 21
45.52926461840013
 31
0.0
  0
LINE
  5
10B
330
1F
100
AcDbEntity
  8
1
  6
DOT_CENTER
 62
     2
100
AcDbLine
 10
70.99670368879998
 20
38.52928361080012
 30
0.0
 11
70.99670368879998
 21
45.52928361080012
 31
0.0
  0
LINE
  5
10C
330
1F
100
AcDbEntity
  8
1
  6
DOT_CENTER
 62
     2
100
AcDbLine
 10
80.99672210969996
 20
33.52929282770015
 30
0.0
 11
80.99672210969996
 21
25.52929282770015
 31
0.0
  0
LINE
  5
10D
330
1F
100
AcDbEntity
  8
1
  6
DOT_CENTER
 62
     2
100
AcDbLine
 10
72.99672210969996
 20
25.52929282770015
 30
0.0
 11
80.99672210969996
 21
25.52929282770015
 31
0.0
  0
LINE
  5
10E
330
1F
100
AcDbEntity
  8
1
  6
DOT_CENTER
 62
     2
100
AcDbLine
 10
80.99688632329998
 20
18.52931182010019
 30
0.0
 11
80.99688632329998
 21
25.52931182010019
 31
0.0
  0
LINE
  5
10F
330
1F
100
AcDbEntity
  8
1
  6
DOT_CENTER
 62
     2
100
AcDbLine
 10
88.99672210969996
 20
25.52929282770015
 30
0.0
 11
80.99672210969996
 21
25.52929282770015
 31
0.0
  0
LINE
  5
110
330
1F
100
AcDbEntity
  8
1
  6
Continuous
 62
     7
100
AcDbLine
 10
155.7892003157
 20
62.02925364900014
 30
0.0
 11
155.7892003157
 21
61.02925364900014
 31
0.0
  0
LINE
  5
111
330
1F
100
AcDbEntity
  8
0
  6
Continuous
 62
     7
100
AcDbLine
 10
120.7889414471
 20
97.52925716770014
 30
0.0
 11
120.7891449765298
 21
82.02926729920011
 31
0.0
  0
LINE
  5
112
330
1F
100
AcDbEntity
  8
0
  6
Continuous
 62
     7
100
AcDbLine
 10
155.7896751179794
 20
82.02926729920011
 30
0.0
 11
119.7896724936851
 21
82.02926729920011
 31
0.0
  0
LINE
  5
113
330
1F
100
AcDbEntity
  8
1
  6
DOT_CENTER
 62
     2
100
AcDbLine
 10
137.7889866603
 20
23.52925422680011
 30
0.0
 11
137.7889866603
 21
15.52925422680011
 31
0.0
  0
LINE
  5
114
330
1F
100
AcDbEntity
  8
1
  6
DOT_CENTER
 62
     2
100
AcDbLine
 10
137.7891508739
 20
8.52927321920015
 30
0.0
 11
137.7891508739
 21
15.52927321920015
 31
0.0
  0
LINE
  5
115
330
1F
100
AcDbEntity
  8
1
  6
DOT_CENTER
 62
     2
100
AcDbLine
 10
147.7891704307
 20
40.52926234690011
 30
0.0
 11
147.7891704307
 21
33.52926234690011
 31
0.0
  0
LINE
  5
116
330
1F
100
AcDbEntity
  8
1
  6
DOT_CENTER
 62
     2
100
AcDbLine
 10
147.7891704307
 20
26.52926234690011
 30
0.0
 11
147.7891704307
 21
33.52926234690011
 31
0.0
  0
LINE
  5
117
330
1F
100
AcDbEntity
  8
1
  6
DOT_CENTER
 62
     2
100
AcDbLine
 10
127.7891671879
 20
37.82829615000912
 30
0.0
 11
127.7891671879
 21
30.52928409100014
 31
0.0
  0
LINE
  5
118
330
1F
100
AcDbEntity
  8
1
  6
DOT_CENTER
 62
     2
100
AcDbLine
 10
127.7891671879
 20
23.52928409100014
 30
0.0
 11
127.7891671879
 21
30.52928409100014
 31
0.0
  0
LINE
  5
119
330
1F
100
AcDbEntity
  8
1
  6
DOT_CENTER
 62
     2
100
AcDbLine
 10
139.7890062171
 20
33.52924335450012
 30
0.0
 11
147.7890062171
 21
33.52924335450012
 31
0.0
  0
LINE
  5
11A
330
1F
100
AcDbEntity
  8
1
  6
DOT_CENTER
 62
     2
100
AcDbLine
 10
120.480086781962
 20
30.52926509860015
 30
0.0
 11
127.7890029743
 21
30.52926509860015
 31
0.0
  0
LINE
  5
11B
330
1F
100
AcDbEntity
  8
1
  6
DOT_CENTER
 62
     2
100
AcDbLine
 10
129.7889866603
 20
15.52925422680011
 30
0.0
 11
137.7889866603
 21
15.52925422680011
 31
0.0
  0
LINE
  5
11C
330
1F
100
AcDbEntity
  8
1
  6
DOT_CENTER
 62
     2
100
AcDbLine
 10
145.7889866603
 20
15.52925422680011
 30
0.0
 11
137.7889866603
 21
15.52925422680011
 31
0.0
  0
LINE
  5
11D
330
1F
100
AcDbEntity
  8
1
  6
DOT_CENTER
 62
     2
100
AcDbLine
 10
154.7891704307
 20
33.52926234690011
 30
0.0
 11
147.7891704307
 21
33.52926234690011
 31
0.0
  0
LINE
  5
11E
330
1F
100
AcDbEntity
  8
1
  6
DOT_CENTER
 62
     2
100
AcDbLine
 10
135.7890029743
 20
30.52926509860015
 30
0.0
 11
127.7890029743
 21
30.52926509860015
 31
0.0
  0
LINE
  5
11F
330
1F
100
AcDbEntity
  8
0
  6
Continuous
 62
     7
100
AcDbLine
 10
155.7891617275
 20
25.52925364940012
 30
0.0
 11
155.7892003157
 21
61.02925364900014
 31
0.0
  0
LINE
  5
120
330
1F
100
AcDbEntity
  8
0
  6
Continuous
 62
     7
100
AcDbLine
 10
155.7891969450794
 20
61.66412980570016
 30
0.0
 11
155.7892011463794
 21
65.52918962750013
 31
0.0
  0
LINE
  5
121
330
1F
100
AcDbEntity
  8
A_FASEN
  6
Continuous
 62
     7
100
AcDbLine
 10
155.7889199680793
 20
81.52915509560012
 30
0.0
 11
155.7889025761794
 21
65.52915509580012
 31
0.0
  0
LINE
  5
122
330
1F
100
AcDbEntity
  8
A_FASEN
  6
Continuous
 62
     7
100
AcDbLine
 10
155.7888784021794
 20
82.52915016250012
 30
0.0
 11
155.7889199680793
 21
81.52915509560012
 31
0.0
  0
LINE
  5
123
330
1F
100
AcDbEntity
  8
0
  6
Continuous
 62
     7
100
AcDbLine
 10
154.7892202615275
 20
82.02926729920011
 30
0.0
 11
154.7893028841
 21
96.52926213530012
 31
0.0
  0
LINE
  5
124
330
1F
100
AcDbEntity
  8
A_RUNDUNGEN
  6
Continuous
 62
     7
100
AcDbLine
 10
154.7890389656
 20
119.0292035548001
 30
0.0
 11
154.7891043139
 21
96.52926213550012
 31
0.0
  0
LINE
  5
125
330
1F
100
AcDbEntity
  8
A_RUNDUNGEN
  6
Continuous
 62
     7
100
AcDbLine
 10
151.7891043166
 20
96.52926539720013
 30
0.0
 11
151.7890389684
 21
119.0292062157001
 31
0.0
  0
LINE
  5
126
330
1F
100
AcDbEntity
  8
A_ACHSEN
  6
Continuous
 62
     7
100
AcDbLine
 10
111.592925346
 20
97.02929910020012
 30
0.0
 11
111.892925346
 21
97.32929910020013
 31
0.0
  0
LINE
  5
127
330
1F
100
AcDbEntity
  8
0
  6
Continuous
 62
     7
100
AcDbLine
 10
132.7889414471
 20
97.52924412380014
 30
0.0
 11
132.7889403601
 21
96.52924412380014
 31
0.0
  0
LINE
  5
128
330
1F
100
AcDbEntity
  8
A_ACHSEN
  6
Continuous
 62
     7
100
AcDbLine
 10
132.5387225505
 20
97.52929910020012
 30
0.0
 11
132.5387225505
 21
120.0292991002001
 31
0.0
  0
LINE
  5
129
330
1F
100
AcDbEntity
  8
0
  6
Continuous
 62
     7
100
AcDbLine
 10
120.7886873659
 20
118.8330653922001
 30
0.0
 11
120.7886875791
 21
119.0292251036001
 31
0.0
  0
LINE
  5
12A
330
1F
100
AcDbEntity
  8
A_RUNDUNGEN
  6
Continuous
 62
     7
100
AcDbLine
 10
120.7878541366
 20
120.0292991002001
 30
0.0
 11
120.7878532496
 21
119.0292251043001
 31
0.0
  0
LINE
  5
12B
330
1F
100
AcDbEntity
  8
0
  6
Continuous
 62
     7
100
AcDbLine
 10
119.7891943457851
 20
61.65716693560009
 30
0.0
 11
119.7891985546851
 21
65.52922854930011
 31
0.0
  0
LINE
  5
12C
330
1F
100
AcDbEntity
  8
A_FASEN
  6
Continuous
 62
     7
100
AcDbLine
 10
119.7889173763851
 20
81.52919401750009
 30
0.0
 11
119.7888999844851
 21
65.52919401770012
 31
0.0
  0
LINE
  5
12D
330
1F
100
AcDbEntity
  8
A_FASEN
  6
Continuous
 62
     7
100
AcDbLine
 10
119.7889173763851
 20
81.52919401750009
 30
0.0
 11
119.7888758104851
 21
82.52918908440014
 31
0.0
  0
LINE
  5
12E
330
1F
100
AcDbEntity
  8
0
  6
Continuous
 62
     7
100
AcDbLine
 10
119.7892003484
 20
61.65716693560009
 30
0.0
 11
119.7891617602
 21
25.5292927887001
 31
0.0
  0
LINE
  5
12F
330
1F
100
AcDbEntity
  8
A_ACHSEN
  6
Continuous
 62
     7
100
AcDbLine
 10
114.3927225505
 20
120.0292991002001
 30
0.0
 11
114.3927225505
 21
118.5292991002001
 31
0.0
  0
LINE
  5
130
330
1F
100
AcDbEntity
  8
A_ACHSEN
  6
Continuous
 62
     7
100
AcDbLine
 10
111.892925346
 20
97.32929910020013
 30
0.0
 11
111.892925346
 21
97.52929910020012
 31
0.0
  0
LINE
  5
131
330
1F
100
AcDbEntity
  8
A_ACHSEN
  6
Continuous
 62
     7
100
AcDbLine
 10
106.892925346
 20
97.32929910020013
 30
0.0
 11
106.892925346
 21
97.52929910020012
 31
0.0
  0
LINE
  5
132
330
1F
100
AcDbEntity
  8
A_ACHSEN
  6
Continuous
 62
     7
100
AcDbLine
 10
104.3927225505
 20
120.0292991002001
 30
0.0
 11
104.3927225505
 21
118.5292991002001
 31
0.0
  0
LINE
  5
133
330
1F
100
AcDbEntity
  8
0
  6
Continuous
 62
     7
100
AcDbLine
 10
99.35532025929997
 20
120.0292991002001
 30
0.0
 11
99.35532025929997
 21
119.9415587715001
 31
0.0
  0
LINE
  5
134
330
1F
100
AcDbEntity
  8
A_RUNDUNGEN
  6
Continuous
 62
     7
100
AcDbLine
 10
97.99809015879997
 20
119.7330082386001
 30
0.0
 11
97.99809053089997
 21
118.5292991002001
 31
0.0
  0
LINE
  5
135
330
1F
100
AcDbEntity
  8
0
  6
Continuous
 62
     7
100
AcDbLine
 10
97.99691166349997
 20
97.52928340340011
 30
0.0
 11
97.99660927539996
 21
78.52931476880013
 31
0.0
  0
LINE
  5
136
330
1F
100
AcDbEntity
  8
0
  6
Continuous
 62
     7
100
AcDbLine
 10
97.99683287597013
 20
34.42930840400015
 30
0.0
 11
97.99679223777012
 21
78.52930840360014
 31
0.0
  0
LINE
  5
137
330
1F
100
AcDbEntity
  8
0
  6
Continuous
 62
     7
100
AcDbLine
 10
85.99691169079998
 20
97.52927234220013
 30
0.0
 11
85.99691261229998
 21
96.52927234220013
 31
0.0
  0
LINE
  5
138
330
1F
100
AcDbEntity
  8
0
  6
Continuous
 62
     7
100
AcDbLine
 10
139.5707593234
 20
120.0292991002001
 30
0.0
 11
90.81826250129997
 21
120.0292991002001
 31
0.0
  0
LINE
  5
139
330
1F
100
AcDbEntity
  8
A_RUNDUNGEN
  6
Continuous
 62
     7
100
AcDbLine
 10
132.5387225505
 20
119.0292104800001
 30
0.0
 11
134.1828258438
 21
119.0291934920001
 31
0.0
  0
LINE
  5
13A
330
1F
100
AcDbEntity
  8
A_RUNDUNGEN
  6
Continuous
 62
     7
100
AcDbLine
 10
154.7890389656
 20
119.0292035548001
 30
0.0
 11
151.7890389684
 21
119.0292062157001
 31
0.0
  0
LINE
  5
13B
330
1F
100
AcDbEntity
  8
0
  6
Continuous
 62
     7
100
AcDbLine
 10
134.1828258443
 20
119.0292105415001
 30
0.0
 11
151.7886875509
 21
119.0291914003001
 31
0.0
  0
LINE
  5
13C
330
1F
100
AcDbEntity
  8
0
  6
Continuous
 62
     7
100
AcDbLine
 10
129.8651111197
 20
118.5292991002001
 30
0.0
 11
106.9041461739
 21
118.5292991002001
 31
0.0
  0
LINE
  5
13D
330
1F
100
AcDbEntity
  8
A_RUNDUNGEN
  6
Continuous
 62
     7
100
AcDbLine
 10
106.9041461739
 20
118.5292991002001
 30
0.0
 11
93.92552403559996
 21
118.5292991002001
 31
0.0
  0
LINE
  5
13E
330
1F
100
AcDbEntity
  8
A_ACHSEN
  6
Continuous
 62
     7
100
AcDbLine
 10
107.192925346
 20
97.02929910020012
 30
0.0
 11
106.892925346
 21
97.32929910020013
 31
0.0
  0
LINE
  5
13F
330
1F
100
AcDbEntity
  8
A_RUNDUNGEN
  6
Continuous
 62
     7
100
AcDbLine
 10
66.99773419919998
 20
98.52930002750011
 30
0.0
 11
66.99764951349997
 21
96.52930002750011
 31
0.0
  0
LINE
  5
140
330
1F
100
AcDbEntity
  8
0
  6
Continuous
 62
     7
100
AcDbLine
 10
63.99675315988375
 20
78.52927725090012
 30
0.0
 11
63.99679379798377
 21
34.42927725130011
 31
0.0
  0
LINE
  5
141
330
1F
100
AcDbEntity
  8
A_RUNDUNGEN
  6
Continuous
 62
     7
100
AcDbLine
 10
63.99764951619997
 20
96.52929910020012
 30
0.0
 11
63.99773420189996
 21
98.52929910020012
 31
0.0
  0
LINE
  5
142
330
1F
100
AcDbEntity
  8
0
  6
Continuous
 62
     7
100
AcDbLine
 10
63.99659271929997
 20
96.52928343160013
 30
0.0
 11
63.99660930629997
 21
78.52928343180014
 31
0.0
  0
LINE
  5
143
330
1F
100
AcDbEntity
  8
0
  6
Continuous
 62
     7
100
AcDbLine
 10
130.2886991907
 20
97.52927079660012
 30
0.0
 11
132.788941447
 21
97.52924412380014
 31
0.0
  0
LINE
  5
144
330
1F
100
AcDbEntity
  8
A_ACHSEN
  6
Continuous
 62
     7
100
AcDbLine
 10
79.21499803789996
 20
97.52929910020012
 30
0.0
 11
132.0206405646
 21
97.52929910020012
 31
0.0
  0
LINE
  5
145
330
1F
100
AcDbEntity
  8
A_ACHSEN
  6
Continuous
 62
     7
100
AcDbLine
 10
111.892925346
 20
97.32929910020013
 30
0.0
 11
106.892925346
 21
97.32929910020013
 31
0.0
  0
LINE
  5
146
330
1F
100
AcDbEntity
  8
A_ACHSEN
  6
Continuous
 62
     7
100
AcDbLine
 10
111.592925346
 20
97.02929910020012
 30
0.0
 11
107.192925346
 21
97.02929910020012
 31
0.0
  0
LINE
  5
147
330
1F
100
AcDbEntity
  8
0
  6
Continuous
 62
     7
100
AcDbLine
 10
97.99659268839997
 20
96.52931476870012
 30
0.0
 11
63.99659271929997
 21
96.52928343160013
 31
0.0
  0
LINE
  5
148
330
1F
100
AcDbEntity
  8
0
  6
Continuous
 62
     7
100
AcDbLine
 10
120.7893029151
 20
96.52929910020012
 30
0.0
 11
154.7893028841
 21
96.52926213530012
 31
0.0
  0
LINE
  5
149
330
1F
100
AcDbEntity
  8
0
  6
Continuous
 62
     7
100
AcDbLine
 10
120.7892904147
 20
85.02929910040012
 30
0.0
 11
154.7892903837
 21
85.02926213550012
 31
0.0
  0
LINE
  5
14A
330
1F
100
AcDbEntity
  8
A_FASEN
  6
Continuous
 62
     7
100
AcDbLine
 10
119.7888758104851
 20
82.52918908440014
 30
0.0
 11
120.7877948462
 21
82.52918810650013
 31
0.0
  0
LINE
  5
14B
330
1F
100
AcDbEntity
  8
A_FASEN
  6
Continuous
 62
     7
100
AcDbLine
 10
154.788878632
 20
82.52915114040013
 30
0.0
 11
155.7888784021794
 21
82.52915016250012
 31
0.0
  0
LINE
  5
14C
330
1F
100
AcDbEntity
  8
0
  6
Continuous
 62
     7
100
AcDbLine
 10
97.99660927539996
 20
78.52931476880013
 30
0.0
 11
63.99660930629997
 21
78.52928343180014
 31
0.0
  0
LINE
  5
14D
330
1F
100
AcDbEntity
  8
A_RUNDUNGEN
  6
Continuous
 62
     7
100
AcDbLine
 10
63.99773420189996
 20
98.52929910020012
 30
0.0
 11
63.99771905704996
 21
147.5292991002
 31
0.0
  0
LINE
  5
14E
330
1F
100
AcDbEntity
  8
A_RUNDUNGEN
  6
Continuous
 62
     7
100
AcDbLine
 10
66.99773419919998
 20
98.52930002750011
 30
0.0
 11
66.99771905435026
 21
147.5292991002
 31
0.0
  0
LINE
  5
14F
330
1F
100
AcDbEntity
  8
A_ACHSEN
  6
Continuous
 62
     7
100
AcDbLine
 10
79.21487861209997
 20
97.52929910020012
 30
0.0
 11
79.21487861209997
 21
147.5292991002
 31
0.0
  0
LINE
  5
150
330
1F
100
AcDbEntity
  8
A_RUNDUNGEN
  6
Continuous
 62
     7
100
AcDbLine
 10
90.52596804309997
 20
121.0292991002001
 30
0.0
 11
90.52596804309997
 21
147.5292991002
 31
0.0
  0
LINE
  5
151
330
1F
100
AcDbEntity
  8
1
  6
DOT_CENTER
 62
     2
100
AcDbLine
 10
109.392925346
 20
95.74465184341813
 30
0.0
 11
109.392925346
 21
147.5292991002
 31
0.0
  0
LINE
  5
152
330
1F
100
AcDbEntity
  8
A_ACHSEN
  6
Continuous
 62
     7
100
AcDbLine
 10
139.57097208
 20
147.5292991002
 30
0.0
 11
139.57097208
 21
120.0292991002001
 31
0.0
  0
LINE
  5
153
330
1F
100
AcDbEntity
  8
0
  6
Continuous
 62
     7
100
AcDbLine
 10
151.7881685395745
 20
147.5292991002
 30
0.0
 11
151.7881432602
 21
119.0292151245001
 31
0.0
  0
LINE
  5
154
330
1F
100
AcDbEntity
  8
0
  6
Continuous
 62
     7
100
AcDbLine
 10
154.7881685368768
 20
147.5292991002
 30
0.0
 11
154.7881432575
 21
119.0292124635001
 31
0.0
  0
LINE
  5
155
330
1F
100
AcDbEntity
  8
1
  6
Continuous
 62
     7
100
AcDbLine
 10
80.49679290859996
 20
52.77928362700007
 30
0.0
 11
81.49679290859996
 21
52.77928362700007
 31
0.0
  0
LINE
  5
156
330
1F
100
AcDbEntity
  8
1
  6
Continuous
 62
     7
100
AcDbLine
 10
81.49679290859996
 20
52.77928362700007
 30
0.0
 11
81.49679290859996
 21
51.52928362700007
 31
0.0
  0
LINE
  5
157
330
1F
100
AcDbEntity
  8
1
  6
Continuous
 62
     7
100
AcDbLine
 10
81.99679290859996
 20
51.02928362700007
 30
0.0
 11
83.24679290859996
 21
51.02928362700007
 31
0.0
  0
LINE
  5
158
330
1F
100
AcDbEntity
  8
1
  6
Continuous
 62
     7
100
AcDbLine
 10
83.24679290859996
 20
51.02928362700007
 30
0.0
 11
83.24679290859996
 21
50.02928362700007
 31
0.0
  0
LINE
  5
159
330
1F
100
AcDbEntity
  8
1
  6
Continuous
 62
     7
100
AcDbLine
 10
83.24679290859996
 20
50.02928362700007
 30
0.0
 11
81.99679290859996
 21
50.02928362700007
 31
0.0
  0
LINE
  5
15A
330
1F
100
AcDbEntity
  8
1
  6
Continuous
 62
     7
100
AcDbLine
 10
81.49679290859996
 20
49.52928362700007
 30
0.0
 11
81.49679290859996
 21
48.27928362700007
 31
0.0
  0
LINE
  5
15B
330
1F
100
AcDbEntity
  8
1
  6
Continuous
 62
     7
100
AcDbLine
 10
81.49679290859996
 20
48.27928362700007
 30
0.0
 11
80.49679290859996
 21
48.27928362700007
 31
0.0
  0
LINE
  5
15C
330
1F
100
AcDbEntity
  8
1
  6
Continuous
 62
     7
100
AcDbLine
 10
80.49679290859996
 20
48.27928362700007
 30
0.0
 11
80.49679290859996
 21
49.52928362700007
 31
0.0
  0
LINE
  5
15D
330
1F
100
AcDbEntity
  8
1
  6
Continuous
 62
     7
100
AcDbLine
 10
79.99679290859996
 20
50.02928362700007
 30
0.0
 11
78.74679290859996
 21
50.02928362700007
 31
0.0
  0
LINE
  5
15E
330
1F
100
AcDbEntity
  8
1
  6
Continuous
 62
     7
100
AcDbLine
 10
78.74679290859996
 20
50.02928362700007
 30
0.0
 11
78.74679290859996
 21
51.02928362700007
 31
0.0
  0
LINE
  5
15F
330
1F
100
AcDbEntity
  8
1
  6
Continuous
 62
     7
100
AcDbLine
 10
78.74679290859996
 20
51.02928362700007
 30
0.0
 11
79.99679290859996
 21
51.02928362700007
 31
0.0
  0
LINE
  5
160
330
1F
100
AcDbEntity
  8
1
  6
Continuous
 62
     7
100
AcDbLine
 10
80.49679290859996
 20
51.52928362700007
 30
0.0
 11
80.49679290859996
 21
52.77928362700007
 31
0.0
  0
LINE
  5
161
330
1F
100
AcDbEntity
  8
1
  6
Continuous
 62
     7
100
AcDbLine
 10
80.49679290859996
 20
51.52928362700007
 30
0.0
 11
80.24679290859996
 21
51.27928362700007
 31
0.0
  0
LINE
  5
162
330
1F
100
AcDbEntity
  8
1
  6
Continuous
 62
     7
100
AcDbLine
 10
81.49679290859996
 20
51.52928362700007
 30
0.0
 11
81.74679290859996
 21
51.27928362700007
 31
0.0
  0
LINE
  5
163
330
1F
100
AcDbEntity
  8
1
  6
Continuous
 62
     7
100
AcDbLine
 10
81.99679290859996
 20
50.02928362700007
 30
0.0
 11
81.74679290859996
 21
49.77928362700007
 31
0.0
  0
LINE
  5
164
330
1F
100
AcDbEntity
  8
1
  6
Continuous
 62
     7
100
AcDbLine
 10
80.49679290859996
 20
49.52928362700007
 30
0.0
 11
80.24679290859996
 21
49.77928362700007
 31
0.0
  0
LINE
  5
165
330
1F
100
AcDbEntity
  8
1
  6
Continuous
 62
     2
100
AcDbLine
 10
81.74679290859996
 20
51.27928362700007
 30
0.0
 11
82.58778316626965
 21
52.12027388466973
 31
0.0
  0
LINE
  5
166
330
1F
100
AcDbEntity
  8
1
  6
Continuous
 62
     7
100
AcDbLine
 10
81.74679290859996
 20
51.27928362700007
 30
0.0
 11
81.99679290859996
 21
51.02928362700007
 31
0.0
  0
LINE
  5
167
330
1F
100
AcDbEntity
  8
1
  6
Continuous
 62
     2
100
AcDbLine
 10
80.24679290859996
 20
51.27928362700007
 30
0.0
 11
79.40580265093027
 21
52.12027388466973
 31
0.0
  0
LINE
  5
168
330
1F
100
AcDbEntity
  8
1
  6
Continuous
 62
     7
100
AcDbLine
 10
80.24679290859996
 20
51.27928362700007
 30
0.0
 11
79.99679290859996
 21
51.02928362700007
 31
0.0
  0
LINE
  5
169
330
1F
100
AcDbEntity
  8
1
  6
Continuous
 62
     2
100
AcDbLine
 10
80.24679290859996
 20
49.77928362700007
 30
0.0
 11
79.40580265093027
 21
48.93829336933035
 31
0.0
  0
LINE
  5
16A
330
1F
100
AcDbEntity
  8
1
  6
Continuous
 62
     7
100
AcDbLine
 10
80.24679290859996
 20
49.77928362700007
 30
0.0
 11
79.99679290859996
 21
50.02928362700007
 31
0.0
  0
LINE
  5
16B
330
1F
100
AcDbEntity
  8
1
  6
Continuous
 62
     2
100
AcDbLine
 10
81.74679290859996
 20
49.77928362700007
 30
0.0
 11
82.58778316626965
 21
48.93829336933035
 31
0.0
  0
LINE
  5
16C
330
1F
100
AcDbEntity
  8
1
  6
Continuous
 62
     7
100
AcDbLine
 10
81.74679290859996
 20
49.77928362700007
 30
0.0
 11
81.49679290859996
 21
49.52928362700007
 31
0.0
  0
LINE
  5
16D
330
1F
100
AcDbEntity
  8
1
  6
DOT_CENTER
 62
     2
100
AcDbLine
 10
80.99679290859996
 20
44.38391239423405
 30
0.0
 11
80.99679290859996
 21
56.88778005070518
 31
0.0
  0
LINE
  5
16E
330
1F
100
AcDbEntity
  8
1
  6
DOT_CENTER
 62
     2
100
AcDbLine
 10
75.29961431271064
 20
50.52928362700013
 30
0.0
 11
87.42298965581486
 21
50.52928362700007
 31
0.0
  0
LINE
  5
16F
330
1F
100
AcDbEntity
  8
1
  6
Continuous
 62
     7
100
AcDbLine
 10
137.2891246913
 20
40.77926729920006
 30
0.0
 11
138.2891246913
 21
40.77926729920006
 31
0.0
  0
LINE
  5
170
330
1F
100
AcDbEntity
  8
1
  6
Continuous
 62
     7
100
AcDbLine
 10
138.2891246913
 20
40.77926729920006
 30
0.0
 11
138.2891246913
 21
39.52926729920006
 31
0.0
  0
LINE
  5
171
330
1F
100
AcDbEntity
  8
1
  6
Continuous
 62
     7
100
AcDbLine
 10
138.7891246913
 20
39.02926729920006
 30
0.0
 11
140.0391246913
 21
39.02926729920006
 31
0.0
  0
LINE
  5
172
330
1F
100
AcDbEntity
  8
1
  6
Continuous
 62
     7
100
AcDbLine
 10
140.0391246913
 20
39.02926729920006
 30
0.0
 11
140.0391246913
 21
38.02926729920006
 31
0.0
  0
LINE
  5
173
330
1F
100
AcDbEntity
  8
1
  6
Continuous
 62
     7
100
AcDbLine
 10
140.0391246913
 20
38.02926729920006
 30
0.0
 11
138.7891246913
 21
38.02926729920006
 31
0.0
  0
LINE
  5
174
330
1F
100
AcDbEntity
  8
1
  6
Continuous
 62
     7
100
AcDbLine
 10
138.2891246913
 20
37.52926729920006
 30
0.0
 11
138.2891246913
 21
36.27926729920006
 31
0.0
  0
LINE
  5
175
330
1F
100
AcDbEntity
  8
1
  6
Continuous
 62
     7
100
AcDbLine
 10
138.2891246913
 20
36.27926729920006
 30
0.0
 11
137.2891246913
 21
36.27926729920006
 31
0.0
  0
LINE
  5
176
330
1F
100
AcDbEntity
  8
1
  6
Continuous
 62
     7
100
AcDbLine
 10
137.2891246913
 20
36.27926729920006
 30
0.0
 11
137.2891246913
 21
37.52926729920006
 31
0.0
  0
LINE
  5
177
330
1F
100
AcDbEntity
  8
1
  6
Continuous
 62
     7
100
AcDbLine
 10
136.7891246913
 20
38.02926729920006
 30
0.0
 11
135.5391246913
 21
38.02926729920006
 31
0.0
  0
LINE
  5
178
330
1F
100
AcDbEntity
  8
1
  6
Continuous
 62
     7
100
AcDbLine
 10
135.5391246913
 20
38.02926729920006
 30
0.0
 11
135.5391246913
 21
39.02926729920006
 31
0.0
  0
LINE
  5
179
330
1F
100
AcDbEntity
  8
1
  6
Continuous
 62
     7
100
AcDbLine
 10
135.5391246913
 20
39.02926729920006
 30
0.0
 11
136.7891246913
 21
39.02926729920006
 31
0.0
  0
LINE
  5
17A
330
1F
100
AcDbEntity
  8
1
  6
Continuous
 62
     7
100
AcDbLine
 10
137.2891246913
 20
39.52926729920006
 30
0.0
 11
137.2891246913
 21
40.77926729920006
 31
0.0
  0
LINE
  5
17B
330
1F
100
AcDbEntity
  8
1
  6
Continuous
 62
     7
100
AcDbLine
 10
137.2891246913
 20
39.52926729920006
 30
0.0
 11
137.0391246913
 21
39.27926729920006
 31
0.0
  0
LINE
  5
17C
330
1F
100
AcDbEntity
  8
1
  6
Continuous
 62
     7
100
AcDbLine
 10
138.2891246913
 20
39.52926729920006
 30
0.0
 11
138.5391246913
 21
39.27926729920006
 31
0.0
  0
LINE
  5
17D
330
1F
100
AcDbEntity
  8
1
  6
Continuous
 62
     7
100
AcDbLine
 10
138.7891246913
 20
38.02926729920006
 30
0.0
 11
138.5391246913
 21
37.77926729920006
 31
0.0
  0
LINE
  5
17E
330
1F
100
AcDbEntity
  8
1
  6
Continuous
 62
     7
100
AcDbLine
 10
137.2891246913
 20
37.52926729920006
 30
0.0
 11
137.0391246913
 21
37.77926729920006
 31
0.0
  0
LINE
  5
17F
330
1F
100
AcDbEntity
  8
1
  6
Continuous
 62
     2
100
AcDbLine
 10
138.5391246913
 20
39.27926729920006
 30
0.0
 11
139.3801149489697
 21
40.12025755686972
 31
0.0
  0
LINE
  5
180
330
1F
100
AcDbEntity
  8
1
  6
Continuous
 62
     7
100
AcDbLine
 10
138.5391246913
 20
39.27926729920006
 30
0.0
 11
138.7891246913
 21
39.02926729920006
 31
0.0
  0
LINE
  5
181
330
1F
100
AcDbEntity
  8
1
  6
Continuous
 62
     2
100
AcDbLine
 10
137.0391246913
 20
39.27926729920006
 30
0.0
 11
136.1981344336303
 21
40.12025755686972
 31
0.0
  0
LINE
  5
182
330
1F
100
AcDbEntity
  8
1
  6
Continuous
 62
     7
100
AcDbLine
 10
137.0391246913
 20
39.27926729920006
 30
0.0
 11
136.7891246913
 21
39.02926729920006
 31
0.0
  0
LINE
  5
183
330
1F
100
AcDbEntity
  8
1
  6
Continuous
 62
     2
100
AcDbLine
 10
137.0391246913
 20
37.77926729920006
 30
0.0
 11
136.1981344336303
 21
36.93827704153034
 31
0.0
  0
LINE
  5
184
330
1F
100
AcDbEntity
  8
1
  6
Continuous
 62
     7
100
AcDbLine
 10
137.0391246913
 20
37.77926729920006
 30
0.0
 11
136.7891246913
 21
38.02926729920006
 31
0.0
  0
LINE
  5
185
330
1F
100
AcDbEntity
  8
1
  6
Continuous
 62
     2
100
AcDbLine
 10
138.5391246913
 20
37.77926729920006
 30
0.0
 11
139.3801149489697
 21
36.93827704153034
 31
0.0
  0
LINE
  5
186
330
1F
100
AcDbEntity
  8
1
  6
Continuous
 62
     7
100
AcDbLine
 10
138.5391246913
 20
37.77926729920006
 30
0.0
 11
138.2891246913
 21
37.52926729920006
 31
0.0
  0
LINE
  5
187
330
1F
100
AcDbEntity
  8
1
  6
DOT_CENTER
 62
     2
100
AcDbLine
 10
137.7891246913
 20
32.38389606643403
 30
0.0
 11
137.7891246913
 21
44.88776372290516
 31
0.0
  0
LINE
  5
188
330
1F
100
AcDbEntity
  8
1
  6
DOT_CENTER
 62
     2
100
AcDbLine
 10
132.0919460954107
 20
38.52926729920011
 30
0.0
 11
144.2153214385149
 21
38.52926729920006
 31
0.0
  0
LINE
  5
189
330
1F
100
AcDbEntity
  8
1
  6
Continuous
 62
     7
100
AcDbLine
 10
80.49679290859996
 20
246.7793145733999
 30
0.0
 11
81.49679290859996
 21
246.7793145733999
 31
0.0
  0
LINE
  5
18A
330
1F
100
AcDbEntity
  8
1
  6
Continuous
 62
     7
100
AcDbLine
 10
81.49679290859996
 20
246.7793145733999
 30
0.0
 11
81.49679290859996
 21
245.5293145733999
 31
0.0
  0
LINE
  5
18B
330
1F
100
AcDbEntity
  8
1
  6
Continuous
 62
     7
100
AcDbLine
 10
81.99679290859996
 20
245.0293145733999
 30
0.0
 11
83.24679290859996
 21
245.0293145733999
 31
0.0
  0
LINE
  5
18C
330
1F
100
AcDbEntity
  8
1
  6
Continuous
 62
     7
100
AcDbLine
 10
83.24679290859996
 20
245.0293145733999
 30
0.0
 11
83.24679290859996
 21
244.0293145733999
 31
0.0
  0
LINE
  5
18D
330
1F
100
AcDbEntity
  8
1
  6
Continuous
 62
     7
100
AcDbLine
 10
83.24679290859996
 20
244.0293145733999
 30
0.0
 11
81.99679290859996
 21
244.0293145733999
 31
0.0
  0
LINE
  5
18E
330
1F
100
AcDbEntity
  8
1
  6
Continuous
 62
     7
100
AcDbLine
 10
81.49679290859996
 20
243.5293145733999
 30
0.0
 11
81.49679290859996
 21
242.2793145733999
 31
0.0
  0
LINE
  5
18F
330
1F
100
AcDbEntity
  8
1
  6
Continuous
 62
     7
100
AcDbLine
 10
81.49679290859996
 20
242.2793145733999
 30
0.0
 11
80.49679290859996
 21
242.2793145733999
 31
0.0
  0
LINE
  5
190
330
1F
100
AcDbEntity
  8
1
  6
Continuous
 62
     7
100
AcDbLine
 10
80.49679290859996
 20
242.2793145733999
 30
0.0
 11
80.49679290859996
 21
243.5293145733999
 31
0.0
  0
LINE
  5
191
330
1F
100
AcDbEntity
  8
1
  6
Continuous
 62
     7
100
AcDbLine
 10
79.99679290859996
 20
244.0293145733999
 30
0.0
 11
78.74679290859996
 21
244.0293145733999
 31
0.0
  0
LINE
  5
192
330
1F
100
AcDbEntity
  8
1
  6
Continuous
 62
     7
100
AcDbLine
 10
78.74679290859996
 20
244.0293145733999
 30
0.0
 11
78.74679290859996
 21
245.0293145733999
 31
0.0
  0
LINE
  5
193
330
1F
100
AcDbEntity
  8
1
  6
Continuous
 62
     7
100
AcDbLine
 10
78.74679290859996
 20
245.0293145733999
 30
0.0
 11
79.99679290859996
 21
245.0293145733999
 31
0.0
  0
LINE
  5
194
330
1F
100
AcDbEntity
  8
1
  6
Continuous
 62
     7
100
AcDbLine
 10
80.49679290859996
 20
245.5293145733999
 30
0.0
 11
80.49679290859996
 21
246.7793145733999
 31
0.0
  0
LINE
  5
195
330
1F
100
AcDbEntity
  8
1
  6
Continuous
 62
     7
100
AcDbLine
 10
80.49679290859996
 20
245.5293145733999
 30
0.0
 11
80.24679290859996
 21
245.2793145733999
 31
0.0
  0
LINE
  5
196
330
1F
100
AcDbEntity
  8
1
  6
Continuous
 62
     7
100
AcDbLine
 10
81.49679290859996
 20
245.5293145733999
 30
0.0
 11
81.74679290859996
 21
245.2793145733999
 31
0.0
  0
LINE
  5
197
330
1F
100
AcDbEntity
  8
1
  6
Continuous
 62
     7
100
AcDbLine
 10
81.99679290859996
 20
244.0293145733999
 30
0.0
 11
81.74679290859996
 21
243.7793145733999
 31
0.0
  0
LINE
  5
198
330
1F
100
AcDbEntity
  8
1
  6
Continuous
 62
     7
100
AcDbLine
 10
80.49679290859996
 20
243.5293145733999
 30
0.0
 11
80.24679290859996
 21
243.7793145733999
 31
0.0
  0
LINE
  5
199
330
1F
100
AcDbEntity
  8
1
  6
Continuous
 62
     2
100
AcDbLine
 10
81.74679290859996
 20
245.2793145733999
 30
0.0
 11
82.58778316626965
 21
246.1203048310696
 31
0.0
  0
LINE
  5
19A
330
1F
100
AcDbEntity
  8
1
  6
Continuous
 62
     7
100
AcDbLine
 10
81.74679290859996
 20
245.2793145733999
 30
0.0
 11
81.99679290859996
 21
245.0293145733999
 31
0.0
  0
LINE
  5
19B
330
1F
100
AcDbEntity
  8
1
  6
Continuous
 62
     2
100
AcDbLine
 10
80.24679290859996
 20
245.2793145733999
 30
0.0
 11
79.40580265093027
 21
246.1203048310696
 31
0.0
  0
LINE
  5
19C
330
1F
100
AcDbEntity
  8
1
  6
Continuous
 62
     7
100
AcDbLine
 10
80.24679290859996
 20
245.2793145733999
 30
0.0
 11
79.99679290859996
 21
245.0293145733999
 31
0.0
  0
LINE
  5
19D
330
1F
100
AcDbEntity
  8
1
  6
Continuous
 62
     2
100
AcDbLine
 10
80.24679290859996
 20
243.7793145733999
 30
0.0
 11
79.40580265093027
 21
242.9383243157302
 31
0.0
  0
LINE
  5
19E
330
1F
100
AcDbEntity
  8
1
  6
Continuous
 62
     7
100
AcDbLine
 10
80.24679290859996
 20
243.7793145733999
 30
0.0
 11
79.99679290859996
 21
244.0293145733999
 31
0.0
  0
LINE
  5
19F
330
1F
100
AcDbEntity
  8
1
  6
Continuous
 62
     2
100
AcDbLine
 10
81.74679290859996
 20
243.7793145733999
 30
0.0
 11
82.58778316626965
 21
242.9383243157302
 31
0.0
  0
LINE
  5
1A0
330
1F
100
AcDbEntity
  8
1
  6
Continuous
 62
     7
100
AcDbLine
 10
81.74679290859996
 20
243.7793145733999
 30
0.0
 11
81.49679290859996
 21
243.5293145733999
 31
0.0
  0
LINE
  5
1A1
330
1F
100
AcDbEntity
  8
1
  6
DOT_CENTER
 62
     2
100
AcDbLine
 10
80.99679290859996
 20
238.3839433406339
 30
0.0
 11
80.99679290859996
 21
250.8878109971051
 31
0.0
  0
LINE
  5
1A2
330
1F
100
AcDbEntity
  8
1
  6
DOT_CENTER
 62
     2
100
AcDbLine
 10
75.29961431271064
 20
244.5293145734
 30
0.0
 11
87.42298965581486
 21
244.5293145733999
 31
0.0
  0
LINE
  5
1A3
330
1F
100
AcDbEntity
  8
1
  6
Continuous
 62
     7
100
AcDbLine
 10
137.2891246913
 20
258.7793309012
 30
0.0
 11
138.2891246913
 21
258.7793309012
 31
0.0
  0
LINE
  5
1A4
330
1F
100
AcDbEntity
  8
1
  6
Continuous
 62
     7
100
AcDbLine
 10
138.2891246913
 20
258.7793309012
 30
0.0
 11
138.2891246913
 21
257.5293309012
 31
0.0
  0
LINE
  5
1A5
330
1F
100
AcDbEntity
  8
1
  6
Continuous
 62
     7
100
AcDbLine
 10
138.7891246913
 20
257.0293309012
 30
0.0
 11
140.0391246913
 21
257.0293309012
 31
0.0
  0
LINE
  5
1A6
330
1F
100
AcDbEntity
  8
1
  6
Continuous
 62
     7
100
AcDbLine
 10
140.0391246913
 20
257.0293309012
 30
0.0
 11
140.0391246913
 21
256.0293309012
 31
0.0
  0
LINE
  5
1A7
330
1F
100
AcDbEntity
  8
1
  6
Continuous
 62
     7
100
AcDbLine
 10
140.0391246913
 20
256.0293309012
 30
0.0
 11
138.7891246913
 21
256.0293309012
 31
0.0
  0
LINE
  5
1A8
330
1F
100
AcDbEntity
  8
1
  6
Continuous
 62
     7
100
AcDbLine
 10
138.2891246913
 20
255.5293309012
 30
0.0
 11
138.2891246913
 21
254.2793309012
 31
0.0
  0
LINE
  5
1A9
330
1F
100
AcDbEntity
  8
1
  6
Continuous
 62
     7
100
AcDbLine
 10
138.2891246913
 20
254.2793309012
 30
0.0
 11
137.2891246913
 21
254.2793309012
 31
0.0
  0
LINE
  5
1AA
330
1F
100
AcDbEntity
  8
1
  6
Continuous
 62
     7
100
AcDbLine
 10
137.2891246913
 20
254.2793309012
 30
0.0
 11
137.2891246913
 21
255.5293309012
 31
0.0
  0
LINE
  5
1AB
330
1F
100
AcDbEntity
  8
1
  6
Continuous
 62
     7
100
AcDbLine
 10
136.7891246913
 20
256.0293309012
 30
0.0
 11
135.5391246913
 21
256.0293309012
 31
0.0
  0
LINE
  5
1AC
330
1F
100
AcDbEntity
  8
1
  6
Continuous
 62
     7
100
AcDbLine
 10
135.5391246913
 20
256.0293309012
 30
0.0
 11
135.5391246913
 21
257.0293309012
 31
0.0
  0
LINE
  5
1AD
330
1F
100
AcDbEntity
  8
1
  6
Continuous
 62
     7
100
AcDbLine
 10
135.5391246913
 20
257.0293309012
 30
0.0
 11
136.7891246913
 21
257.0293309012
 31
0.0
  0
LINE
  5
1AE
330
1F
100
AcDbEntity
  8
1
  6
Continuous
 62
     7
100
AcDbLine
 10
137.2891246913
 20
257.5293309012
 30
0.0
 11
137.2891246913
 21
258.7793309012
 31
0.0
  0
LINE
  5
1AF
330
1F
100
AcDbEntity
  8
1
  6
Continuous
 62
     7
100
AcDbLine
 10
137.2891246913
 20
257.5293309012
 30
0.0
 11
137.0391246913
 21
257.2793309012
 31
0.0
  0
LINE
  5
1B0
330
1F
100
AcDbEntity
  8
1
  6
Continuous
 62
     7
100
AcDbLine
 10
138.2891246913
 20
257.5293309012
 30
0.0
 11
138.5391246913
 21
257.2793309012
 31
0.0
  0
LINE
  5
1B1
330
1F
100
AcDbEntity
  8
1
  6
Continuous
 62
     7
100
AcDbLine
 10
138.7891246913
 20
256.0293309012
 30
0.0
 11
138.5391246913
 21
255.7793309012
 31
0.0
  0
LINE
  5
1B2
330
1F
100
AcDbEntity
  8
1
  6
Continuous
 62
     7
100
AcDbLine
 10
137.2891246913
 20
255.5293309012
 30
0.0
 11
137.0391246913
 21
255.7793309012
 31
0.0
  0
LINE
  5
1B3
330
1F
100
AcDbEntity
  8
1
  6
Continuous
 62
     2
100
AcDbLine
 10
138.5391246913
 20
257.2793309012
 30
0.0
 11
139.3801149489697
 21
258.1203211588696
 31
0.0
  0
LINE
  5
1B4
330
1F
100
AcDbEntity
  8
1
  6
Continuous
 62
     7
100
AcDbLine
 10
138.5391246913
 20
257.2793309012
 30
0.0
 11
138.7891246913
 21
257.0293309012
 31
0.0
  0
LINE
  5
1B5
330
1F
100
AcDbEntity
  8
1
  6
Continuous
 62
     2
100
AcDbLine
 10
137.0391246913
 20
257.2793309012
 30
0.0
 11
136.1981344336303
 21
258.1203211588696
 31
0.0
  0
LINE
  5
1B6
330
1F
100
AcDbEntity
  8
1
  6
Continuous
 62
     7
100
AcDbLine
 10
137.0391246913
 20
257.2793309012
 30
0.0
 11
136.7891246913
 21
257.0293309012
 31
0.0
  0
LINE
  5
1B7
330
1F
100
AcDbEntity
  8
1
  6
Continuous
 62
     2
100
AcDbLine
 10
137.0391246913
 20
255.7793309012
 30
0.0
 11
136.1981344336303
 21
254.9383406435302
 31
0.0
  0
LINE
  5
1B8
330
1F
100
AcDbEntity
  8
1
  6
Continuous
 62
     7
100
AcDbLine
 10
137.0391246913
 20
255.7793309012
 30
0.0
 11
136.7891246913
 21
256.0293309012
 31
0.0
  0
LINE
  5
1B9
330
1F
100
AcDbEntity
  8
1
  6
Continuous
 62
     2
100
AcDbLine
 10
138.5391246913
 20
255.7793309012
 30
0.0
 11
139.3801149489697
 21
254.9383406435302
 31
0.0
  0
LINE
  5
1BA
330
1F
100
AcDbEntity
  8
1
  6
Continuous
 62
     7
100
AcDbLine
 10
138.5391246913
 20
255.7793309012
 30
0.0
 11
138.2891246913
 21
255.5293309012
 31
0.0
  0
LINE
  5
1BB
330
1F
100
AcDbEntity
  8
1
  6
DOT_CENTER
 62
     2
100
AcDbLine
 10
137.7891246913
 20
250.3839596684339
 30
0.0
 11
137.7891246913
 21
262.8878273249051
 31
0.0
  0
LINE
  5
1BC
330
1F
100
AcDbEntity
  8
1
  6
DOT_CENTER
 62
     2
100
AcDbLine
 10
132.0919460954107
 20
256.5293309012
 30
0.0
 11
144.2153214385149
 21
256.5293309012
 31
0.0
  0
ARC
  5
1BD
330
1F
100
AcDbEntity
  8
0
  6
Continuous
 62
     7
100
AcDbCircle
 10
80.94675384554188
 20
260.5793452880396
 30
0.0
 40
16.95003373739841
100
AcDbArc
 50
89.83109326877907
 51
179.8310682652059
  0
ARC
  5
1BE
330
1F
100
AcDbEntity
  8
0
  6
Continuous
 62
     7
100
AcDbCircle
 10
137.7891617438
 20
269.5293249813
 30
0.0
 40
18.00000000000011
100
AcDbArc
 50
90.00055730808963
 51
-179.9999377079012
  0
ARC
  5
1BF
330
1F
100
AcDbEntity
  8
0
  6
Continuous
 62
     7
100
AcDbCircle
 10
137.7891617438
 20
25.52927321910011
 30
0.0
 40
18.00000000000005
100
AcDbArc
 50
-90.00055730808963
 51
-0.00006229209868
  0
ARC
  5
1C0
330
1F
100
AcDbEntity
  8
0
  6
Continuous
 62
     7
100
AcDbCircle
 10
81.04677339988505
 20
34.47935229733952
 30
0.0
 40
16.95013336690601
100
AcDbArc
 50
-90.169186388814
 51
-0.16916138524089
  0
ARC
  5
1C1
330
1F
100
AcDbEntity
  8
0
  6
Continuous
 62
     7
100
AcDbCircle
 10
80.94675384554186
 20
34.47925291236054
 30
0.0
 40
16.95003373739837
100
AcDbArc
 50
-179.8310682652059
 51
-89.83109326877901
  0
ARC
  5
1C2
330
1F
100
AcDbEntity
  8
0
  6
Continuous
 62
     7
100
AcDbCircle
 10
81.04677339988505
 20
260.5792459030606
 30
0.0
 40
16.95013336690598
100
AcDbArc
 50
0.16916138524089
 51
90.169186388814
  0
ARC
  5
1C3
330
1F
100
AcDbEntity
  8
0
  6
Continuous
 62
     7
100
AcDbCircle
 10
137.7891617438
 20
269.5293249813
 30
0.0
 40
18.00000000000004
100
AcDbArc
 50
0.00006229209868
 51
90.00055730808963
  0
ARC
  5
1C4
330
1F
100
AcDbEntity
  8
0
  6
Continuous
 62
     7
100
AcDbCircle
 10
137.7891617438
 20
25.52927321910011
 30
0.0
 40
18.00000000000005
100
AcDbArc
 50
179.9999377079012
 51
-90.00055730808963
  0
CIRCLE
  5
1C5
330
1F
100
AcDbEntity
  8
A_ACHSEN
  6
DASHED
 62
     2
100
AcDbCircle
 10
80.99688205799995
 20
269.5293210553
 30
0.0
 40
3.25
  0
CIRCLE
  5
1C6
330
1F
100
AcDbEntity
  8
A_ACHSEN
  6
DASHED
 62
     2
100
AcDbCircle
 10
90.99686361889997
 20
249.5293118387
 30
0.0
 40
3.25
  0
CIRCLE
  5
1C7
330
1F
100
AcDbEntity
  8
A_ACHSEN
  6
DASHED
 62
     2
100
AcDbCircle
 10
70.99686363709998
 20
249.5293302723
 30
0.0
 40
3.25
  0
CIRCLE
  5
1C8
330
1F
100
AcDbEntity
  8
A_ACHSEN
  6
DASHED
 62
     2
100
AcDbCircle
 10
80.99672210969996
 20
269.5293053727
 30
0.0
 40
6.0
  0
CIRCLE
  5
1C9
330
1F
100
AcDbEntity
  8
A_ACHSEN
  6
DASHED
 62
     2
100
AcDbCircle
 10
90.99670367059997
 20
249.5292961561
 30
0.0
 40
6.0
  0
CIRCLE
  5
1CA
330
1F
100
AcDbEntity
  8
A_ACHSEN
  6
DASHED
 62
     2
100
AcDbCircle
 10
70.99670368879998
 20
249.5293145896
 30
0.0
 40
6.0
  0
CIRCLE
  5
1CB
330
1F
100
AcDbEntity
  8
A_ACHSEN
  6
DASHED
 62
     2
100
AcDbCircle
 10
137.7889866603
 20
279.5293439736
 30
0.0
 40
3.25
  0
CIRCLE
  5
1CC
330
1F
100
AcDbEntity
  8
A_ACHSEN
  6
DASHED
 62
     2
100
AcDbCircle
 10
147.7889703463
 20
264.5293331018
 30
0.0
 40
3.25
  0
CIRCLE
  5
1CD
330
1F
100
AcDbEntity
  8
A_ACHSEN
  6
DASHED
 62
     2
100
AcDbCircle
 10
137.7891508739
 20
279.5293249812
 30
0.0
 40
6.100000000000023
  0
CIRCLE
  5
1CE
330
1F
100
AcDbEntity
  8
A_ACHSEN
  6
DASHED
 62
     2
100
AcDbCircle
 10
147.7888061327
 20
264.5293141094
 30
0.0
 40
6.100000000000023
  0
CIRCLE
  5
1CF
330
1F
100
AcDbEntity
  8
A_ACHSEN
  6
DASHED
 62
     2
100
AcDbCircle
 10
127.7889671035
 20
261.5293548459
 30
0.0
 40
3.25
  0
CIRCLE
  5
1D0
330
1F
100
AcDbEntity
  8
A_ACHSEN
  6
DASHED
 62
     2
100
AcDbCircle
 10
127.7888028899
 20
261.5293358535
 30
0.0
 40
6.100000000000009
  0
CIRCLE
  5
1D1
330
1F
100
AcDbEntity
  8
A_ACHSEN
  6
DASHED
 62
     2
100
AcDbCircle
 10
147.7891704307
 20
33.52926234690011
 30
0.0
 40
6.100000000000023
  0
CIRCLE
  5
1D2
330
1F
100
AcDbEntity
  8
A_ACHSEN
  6
DASHED
 62
     2
100
AcDbCircle
 10
147.7890062171
 20
33.52924335450012
 30
0.0
 40
3.25
  0
CIRCLE
  5
1D3
330
1F
100
AcDbEntity
  8
A_ACHSEN
  6
DASHED
 62
     2
100
AcDbCircle
 10
127.7891671879
 20
30.52928409100014
 30
0.0
 40
6.100000000000009
  0
CIRCLE
  5
1D4
330
1F
100
AcDbEntity
  8
A_ACHSEN
  6
DASHED
 62
     2
100
AcDbCircle
 10
137.7891508739
 20
15.52927321920015
 30
0.0
 40
6.100000000000023
  0
CIRCLE
  5
1D5
330
1F
100
AcDbEntity
  8
A_ACHSEN
  6
DASHED
 62
     2
100
AcDbCircle
 10
127.7890029743
 20
30.52926509860015
 30
0.0
 40
3.25
  0
CIRCLE
  5
1D6
330
1F
100
AcDbEntity
  8
A_ACHSEN
  6
DASHED
 62
     2
100
AcDbCircle
 10
137.7889866603
 20
15.52925422680011
 30
0.0
 40
3.25
  0
CIRCLE
  5
1D7
330
1F
100
AcDbEntity
  8
A_ACHSEN
  6
DASHED
 62
     2
100
AcDbCircle
 10
70.99670368879998
 20
45.52928361080012
 30
0.0
 40
6.0
  0
CIRCLE
  5
1D8
330
1F
100
AcDbEntity
  8
A_ACHSEN
  6
DASHED
 62
     2
100
AcDbCircle
 10
90.99670367059997
 20
45.52930204430012
 30
0.0
 40
6.0
  0
CIRCLE
  5
1D9
330
1F
100
AcDbEntity
  8
A_ACHSEN
  6
DASHED
 62
     2
100
AcDbCircle
 10
80.99672210969996
 20
25.52929282770015
 30
0.0
 40
6.0
  0
CIRCLE
  5
1DA
330
1F
100
AcDbEntity
  8
A_ACHSEN
  6
DASHED
 62
     2
100
AcDbCircle
 10
70.99686363709998
 20
45.52926792810013
 30
0.0
 40
3.25
  0
CIRCLE
  5
1DB
330
1F
100
AcDbEntity
  8
A_ACHSEN
  6
DASHED
 62
     2
100
AcDbCircle
 10
90.99686361889997
 20
45.52928636170012
 30
0.0
 40
3.25
  0
CIRCLE
  5
1DC
330
1F
100
AcDbEntity
  8
A_ACHSEN
  6
DASHED
 62
     2
100
AcDbCircle
 10
80.99688205799995
 20
25.52927714510014
 30
0.0
 40
3.25
  0
CIRCLE
  5
1DD
330
1F
100
AcDbEntity
  8
1
  6
Continuous
 62
     7
100
AcDbCircle
 10
80.99679290859996
 20
50.52928362700013
 30
0.0
 40
3.999999999999936
  0
CIRCLE
  5
1DE
330
1F
100
AcDbEntity
  8
1
  6
Continuous
 62
     7
100
AcDbCircle
 10
137.7891246913
 20
38.52926729920006
 30
0.0
 40
4.0
  0
CIRCLE
  5
1DF
330
1F
100
AcDbEntity
  8
1
  6
Continuous
 62
     7
100
AcDbCircle
 10
80.99679290859996
 20
244.5293145733999
 30
0.0
 40
4.0
  0
CIRCLE
  5
1E0
330
1F
100
AcDbEntity
  8
1
  6
Continuous
 62
     7
100
AcDbCircle
 10
137.7891246913
 20
256.5293309012
 30
0.0
 40
4.0
  0
SPLINE
  5
1E1
330
1F
100
AcDbEntity
  8
0
  6
Continuous
 62
     7
100
AcDbSpline
210
0.0
220
0.0
230
1.0
 70
     8
 71
     3
 72
    17
 73
    13
 74
    11
 42
0.0000000001
 43
0.0000000001
 44
0.00000001
 40
0.0
 40
0.0
 40
0.0
 40
0.0
 40
0.2779921682204491
 40
0.5560790321496074
 40
0.7094932271872141
 40
0.8629239010955382
 40
1.030013419038721
 40
1.197122908671639
 40
1.378532734238359
 40
1.559955018411078
 40
1.88346233756548
 40
2.206886213250749
 40
2.206886213250749
 40
2.206886213250749
 40
2.206886213250749
 10
129.8651111197
 20
176.5292991002
 30
0.0
 10
129.9580546205833
 20
176.5213696075858
 30
0.0
 10
130.1439732827768
 20
176.505507921242
 30
0.0
 10
130.3623424153248
 20
176.4039334480099
 30
0.0
 10
130.5243861531386
 20
176.2955367287548
 30
0.0
 10
130.6452119016797
 20
176.1931662335658
 30
0.0
 10
130.7584028912255
 20
176.0761925431339
 30
0.0
 10
130.8661502675027
 20
175.9420171939639
 30
0.0
 10
130.9649640953216
 20
175.7953267986755
 30
0.0
 10
131.0773847360135
 20
175.5959242914563
 30
0.0
 10
131.1912188803801
 20
175.3433655124418
 30
0.0
 10
131.2534052725684
 20
175.1367077736451
 30
0.0
 10
131.2844944581523
 20
175.033392231969
 30
0.0
 11
129.8651111197
 21
176.5292991002
 31
0.0
 11
130.14025097134
 21
176.4895787322332
 31
0.0
 11
130.3952031782398
 21
176.3785306521647
 31
0.0
 11
130.5226873543552
 21
176.2931860560897
 31
0.0
 11
130.640053866325
 21
176.1943626096612
 31
0.0
 11
130.7564639975775
 21
176.0744977342879
 31
0.0
 11
130.861358311194
 21
175.9444102079977
 31
0.0
 11
130.9629060802442
 21
175.7940853084864
 31
0.0
 11
131.0523922892749
 21
175.6362681244165
 31
0.0
 11
131.1845495478644
 21
175.3409861497743
 31
0.0
 11
131.2844944581523
 21
175.033392231969
 31
0.0
  0
SPLINE
  5
1E2
330
1F
100
AcDbEntity
  8
0
  6
Continuous
 62
     7
100
AcDbSpline
210
0.0
220
0.0
230
1.0
 70
     8
 71
     3
 72
     9
 73
     5
 74
     3
 42
0.0000000001
 43
0.0000000001
 44
0.00000001
 40
0.0
 40
0.0
 40
0.0
 40
0.0
 40
0.7344482167904289
 40
1.468659353712353
 40
1.468659353712353
 40
1.468659353712353
 40
1.468659353712353
 10
117.074582198923
 20
176.529299100074
 30
0.0
 10
117.3196634599341
 20
176.5239951041578
 30
0.0
 10
117.8097468697305
 20
176.5133888244553
 30
0.0
 10
118.2937348007957
 20
176.4356091387294
 30
0.0
 10
118.5356897022
 20
176.3967255737
 30
0.0
 11
117.074582198923
 21
176.529299100074
 31
0.0
 11
117.8083016202492
 21
176.4965883386135
 31
0.0
 11
118.5356897022
 21
176.3967255737
 31
0.0
  0
SPLINE
  5
1E3
330
1F
100
AcDbEntity
  8
A_RUNDUNGEN
  6
Continuous
 62
     7
100
AcDbSpline
210
0.0
220
0.0
230
1.0
 70
     8
 71
     3
 72
    23
 73
    19
 74
    17
 42
0.0000000001
 43
0.0000000001
 44
0.00000001
 40
0.0
 40
0.0
 40
0.0
 40
0.0
 40
0.4425616377910863
 40
0.8851785763994318
 40
1.119307766200293
 40
1.353458749024115
 40
1.600164574138257
 40
1.846890776366748
 40
2.107169887475389
 40
2.367465928289329
 40
2.640649429163692
 40
2.91384539187904
 40
3.197901514259244
 40
3.481953482206053
 40
3.773783648286715
 40
4.065672661168356
 40
4.361717491538522
 40
4.657519209725671
 40
4.657519209725671
 40
4.657519209725671
 40
4.657519209725671
 10
90.52596804309997
 20
174.0292991002
 30
0.0
 10
90.53635232474122
 20
174.1771449367539
 30
0.0
 10
90.55712218560399
 20
174.4728550841145
 30
0.0
 10
90.6935172975831
 20
174.8257783317023
 30
0.0
 10
90.84247477206871
 20
175.0904399958302
 30
0.0
 10
90.9809654322085
 20
175.2850258810364
 30
0.0
 10
91.14032892264177
 20
175.468299777548
 30
0.0
 10
91.32227487468494
 20
175.6420393853545
 30
0.0
 10
91.52226309544858
 20
175.8019945809139
 30
0.0
 10
91.74215072710844
 20
175.9496534355711
 30
0.0
 10
91.9767377739954
 20
176.0816395804396
 30
0.0
 10
92.2277710773462
 20
176.1988655074117
 30
0.0
 10
92.48999113769278
 20
176.2989708084264
 30
0.0
 10
92.7644784728671
 20
176.3823078876835
 30
0.0
 10
93.04649331120955
 20
176.4476780388005
 30
0.0
 10
93.336162349562
 20
176.4944588631917
 30
0.0
 10
93.6295986416872
 20
176.5236472419526
 30
0.0
 10
93.82690925398649
 20
176.5274156634344
 30
0.0
 10
93.92552403559996
 20
176.5292991002
 30
0.0
 11
90.52596804309997
 21
174.0292991002
 31
0.0
 11
90.57889192970406
 21
174.4686848822538
 31
0.0
 11
90.73098635549938
 21
174.884349458547
 31
0.0
 11
90.84600273104958
 21
175.0882801106622
 31
0.0
 11
90.98142218450744
 21
175.2792991002484
 31
0.0
 11
91.14308359696355
 21
175.4656572282384
 31
0.0
 11
91.32131305847358
 21
175.6362681244788
 31
0.0
 11
91.52439060369578
 21
175.7990708465261
 31
0.0
 11
91.74033156518526
 21
175.9444102080715
 31
0.0
 11
91.978302722594
 21
176.0785703861852
 31
0.0
 11
92.22574603934969
 21
176.194362609745
 31
0.0
 11
92.4910592654225
 21
176.2958356245445
 31
0.0
 11
92.76280740780122
 21
176.3785306522558
 31
0.0
 11
93.0470971940004
 21
176.4444409192671
 31
0.0
 11
93.33519733262551
 21
176.4913184828259
 31
0.0
 11
93.62987787564407
 21
176.5197071981048
 31
0.0
 11
93.92552403559996
 21
176.5292991002
 31
0.0
  0
SPLINE
  5
1E4
330
1F
100
AcDbEntity
  8
0
  6
Continuous
 62
     7
100
AcDbSpline
210
0.0
220
0.0
230
1.0
 70
     8
 71
     3
 72
    25
 73
    21
 74
    19
 42
0.0000000001
 43
0.0000000001
 44
0.00000001
 40
0.0
 40
0.0
 40
0.0
 40
0.0
 40
0.2103041648025325
 40
0.4206313681812429
 40
0.6111414070942436
 40
0.8016256533677437
 40
0.9689672290602551
 40
1.136453430859806
 40
1.282250794645682
 40
1.427563706531186
 40
1.495189881927066
 40
1.562819564182076
 40
1.630154624565869
 40
1.697478946531568
 40
1.84216831946481
 40
1.987467172840086
 40
2.159305686271586
 40
2.331067026584297
 40
2.532057008024682
 40
2.733000251849325
 40
2.733000251849325
 40
2.733000251849325
 40
2.733000251849325
 10
99.35532025929997
 20
175.1170394289
 30
0.0
 10
99.28521605823363
 20
175.1173671475002
 30
0.0
 10
99.14499997626741
 20
175.1180226206018
 30
0.0
 10
98.94138923074081
 20
175.1255901414163
 30
0.0
 10
98.74467767355736
 20
175.1386227117988
 30
0.0
 10
98.56291088168105
 20
175.1584877494888
 30
0.0
 10
98.38996379161271
 20
175.1865531967163
 30
0.0
 10
98.23410655844025
 20
175.224659816897
 30
0.0
 10
98.08974441578458
 20
175.2757865729938
 30
0.0
 10
97.98290663135656
 20
175.3307565348909
 30
0.0
 10
97.90601421832005
 20
175.3841830991067
 30
0.0
 10
97.85416488138006
 20
175.4276081638291
 30
0.0
 10
97.80683784715603
 20
175.4757889775879
 30
0.0
 10
97.74816000903789
 20
175.5482634014044
 30
0.0
 10
97.68770524034154
 20
175.6517733009624
 30
0.0
 10
97.6319344379854
 20
175.7957200042276
 30
0.0
 10
97.59297202718965
 20
175.9543834793586
 30
0.0
 10
97.5671489153827
 20
176.1342085352964
 30
0.0
 10
97.55071015905466
 20
176.3248287033074
 30
0.0
 10
97.54570338815236
 20
176.4587258283128
 30
0.0
 10
97.54320029379997
 20
176.5256666059
 30
0.0
 11
99.35532025929997
 21
175.1170394289
 31
0.0
 11
99.14502679325857
 21
175.1191607194465
 31
0.0
 11
98.93484207542492
 21
175.12690131828
 31
0.0
 11
98.74478114472767
 21
175.1399748621426
 31
0.0
 11
98.55546860246514
 21
175.161070108538
 31
0.0
 11
98.3904251575288
 21
175.188708202517
 31
0.0
 11
98.22792295024072
 21
175.2292626155906
 31
0.0
 11
98.09083137769859
 21
175.2788889395008
 31
0.0
 11
97.96212612574234
 21
175.346348560605
 31
0.0
 11
97.90662812237915
 21
175.38499142827
 31
0.0
 11
97.85483413928091
 21
175.4284788659587
 31
0.0
 11
97.807640227705
 21
175.4765074518952
 31
0.0
 11
97.76528422928112
 21
175.5288384534684
 31
0.0
 11
97.6913047688129
 21
175.6531849615362
 31
0.0
 11
97.63787322695612
 21
175.7883027883651
 31
0.0
 11
97.59573968961578
 21
175.9548958246228
 31
0.0
 11
97.5700199187524
 21
176.1247205914053
 31
0.0
 11
97.55233677395714
 21
176.3249311781123
 31
0.0
 11
97.54320029379997
 21
176.5256666059
 31
0.0
  0
SPLINE
  5
1E5
330
1F
100
AcDbEntity
  8
0
  6
Continuous
 62
     7
100
AcDbSpline
210
0.0
220
0.0
230
1.0
 70
     8
 71
     3
 72
    29
 73
    25
 74
    23
 42
0.0000000001
 43
0.0000000001
 44
0.00000001
 40
0.0
 40
0.0
 40
0.0
 40
0.0
 40
0.2900021574681581
 40
0.5800610972716786
 40
0.8531538077310314
 40
1.126253163763764
 40
1.372160703330322
 40
1.618037269520149
 40
1.728240676113519
 40
1.838356151443602
 40
1.939218012821391
 40
2.040349804457376
 40
2.218993368191965
 40
2.396647217598618
 40
2.480190486020968
 40
2.563741817038872
 40
2.650346634258074
 40
2.736985849732561
 40
2.831703923694511
 40
2.926442724233684
 40
3.032257014358319
 40
3.13807915364371
 40
3.383743264751757
 40
3.629541451907987
 40
3.629541451907987
 40
3.629541451907987
 40
3.629541451907987
 10
118.5356897022
 20
176.3967255737
 30
0.0
 10
118.6319515010946
 20
176.4056981321517
 30
0.0
 10
118.8244939469152
 20
176.4236450058793
 30
0.0
 10
119.1086551128915
 20
176.4368658249764
 30
0.0
 10
119.3873636572321
 20
176.4427965787595
 30
0.0
 10
119.6514304170065
 20
176.4404465806894
 30
0.0
 10
119.9062466137471
 20
176.4306270150858
 30
0.0
 10
120.1063165387998
 20
176.4138288675639
 30
0.0
 10
120.2604530767442
 20
176.3938763151474
 30
0.0
 10
120.3660823581845
 20
176.3762573132417
 30
0.0
 10
120.4679019684441
 20
176.354679096395
 30
0.0
 10
120.5904196504164
 20
176.3214751178011
 30
0.0
 10
120.7336792154785
 20
176.2678514450652
 30
0.0
 10
120.8608136864854
 20
176.1923010167887
 30
0.0
 10
120.9475605737766
 20
176.1165502376842
 30
0.0
 10
121.0044596652403
 20
176.053709338357
 30
0.0
 10
121.0537685255546
 20
175.9834852065402
 30
0.0
 10
121.0967350777636
 20
175.90499481999
 30
0.0
 10
121.1324301815296
 20
175.8200004727524
 30
0.0
 10
121.1623956615568
 20
175.7261470535786
 30
0.0
 10
121.1862295757319
 20
175.6267549438461
 30
0.0
 10
121.2127175619932
 20
175.476582786553
 30
0.0
 10
121.2334958859312
 20
175.2782976204401
 30
0.0
 10
121.2396016464053
 20
175.114574510005
 30
0.0
 10
121.2426553595
 20
175.0326906221
 30
0.0
 11
118.5356897022
 21
176.3967255737
 31
0.0
 11
118.824639901176
 21
176.4214041848427
 31
0.0
 11
119.1143377399797
 21
176.4358731430769
 31
0.0
 11
119.3873740508983
 21
176.4414230463205
 31
0.0
 11
119.6604621856516
 21
176.4389473802582
 31
0.0
 11
119.9061591956845
 21
176.4287740191329
 31
0.0
 11
120.15111492139
 21
176.4075142391395
 31
0.0
 11
120.2603857692364
 21
176.3932078547001
 31
0.0
 11
120.3689735265347
 21
176.3749289906196
 31
0.0
 11
120.4675945457376
 21
176.3537863878475
 31
0.0
 11
120.5651528164825
 21
176.3271401294089
 31
0.0
 11
120.7318271862394
 21
176.2628503376071
 31
0.0
 11
120.8834941589433
 21
176.1703407726971
 31
0.0
 11
120.946416307222
 21
176.1153836898535
 31
0.0
 11
121.0024512800231
 21
176.0534086405349
 31
0.0
 11
121.0523907823919
 21
175.9826524360809
 31
0.0
 11
121.0941540760637
 21
175.906743405263
 31
0.0
 11
121.1311110428344
 21
175.8195327628954
 31
0.0
 11
121.1602113982454
 21
175.7293739605378
 31
0.0
 11
121.1851777008059
 21
175.6265471754522
 31
0.0
 11
121.2038805032085
 21
175.5223908969798
 31
0.0
 11
121.2307449147171
 21
175.2782000722529
 31
0.0
 11
121.2426553595
 21
175.0326906221
 31
0.0
  0
SPLINE
  5
1E6
330
1F
100
AcDbEntity
  8
0
  6
Continuous
 62
     7
100
AcDbSpline
210
0.0
220
0.0
230
1.0
 70
     8
 71
     3
 72
    29
 73
    25
 74
    23
 42
0.0000000001
 43
0.0000000001
 44
0.00000001
 40
0.0
 40
0.0
 40
0.0
 40
0.0
 40
0.2900021574681593
 40
0.5800610972716798
 40
0.8531538077310328
 40
1.126253163763766
 40
1.372160703330324
 40
1.618037269520153
 40
1.728240676113521
 40
1.838356151443596
 40
1.939218012821397
 40
2.040349804457367
 40
2.218993368191956
 40
2.396647217598638
 40
2.480190486020961
 40
2.563741817038875
 40
2.650346634258077
 40
2.736985849732589
 40
2.831703923694565
 40
2.926442724233699
 40
3.032257014358347
 40
3.138079153643682
 40
3.383743264751771
 40
3.629541451908001
 40
3.629541451908001
 40
3.629541451908001
 40
3.629541451908001
 10
118.5356897022
 20
118.6618726267001
 30
0.0
 10
118.6319515010946
 20
118.6529000682484
 30
0.0
 10
118.8244939469151
 20
118.6349531945208
 30
0.0
 10
119.1086551128916
 20
118.6217323754237
 30
0.0
 10
119.3873636572321
 20
118.6158016216406
 30
0.0
 10
119.6514304170064
 20
118.6181516197107
 30
0.0
 10
119.9062466137471
 20
118.6279711853143
 30
0.0
 10
120.1063165387998
 20
118.6447693328362
 30
0.0
 10
120.2604530767442
 20
118.6647218852527
 30
0.0
 10
120.3660823581845
 20
118.6823408871584
 30
0.0
 10
120.4679019684441
 20
118.7039191040051
 30
0.0
 10
120.5904196504164
 20
118.737123082599
 30
0.0
 10
120.7336792154785
 20
118.7907467553349
 30
0.0
 10
120.8608136864853
 20
118.8662971836114
 30
0.0
 10
120.9475605737767
 20
118.9420479627159
 30
0.0
 10
121.0044596652402
 20
119.004888862043
 30
0.0
 10
121.0537685255546
 20
119.0751129938599
 30
0.0
 10
121.0967350777637
 20
119.1536033804101
 30
0.0
 10
121.1324301815295
 20
119.2385977276478
 30
0.0
 10
121.1623956615568
 20
119.3324511468215
 30
0.0
 10
121.1862295757319
 20
119.4318432565541
 30
0.0
 10
121.2127175619933
 20
119.582015413847
 30
0.0
 10
121.2334958859312
 20
119.78030057996
 30
0.0
 10
121.2396016464053
 20
119.9440236903952
 30
0.0
 10
121.2426553595
 20
120.0259075783001
 30
0.0
 11
118.5356897022
 21
118.6618726267001
 31
0.0
 11
118.824639901176
 21
118.6371940155573
 31
0.0
 11
119.1143377399797
 21
118.6227250573232
 31
0.0
 11
119.3873740508983
 21
118.6171751540796
 31
0.0
 11
119.6604621856516
 21
118.6196508201419
 31
0.0
 11
119.9061591956845
 21
118.6298241812672
 31
0.0
 11
120.15111492139
 21
118.6510839612606
 31
0.0
 11
120.2603857692364
 21
118.6653903457
 31
0.0
 11
120.3689735265347
 21
118.6836692097805
 31
0.0
 11
120.4675945457376
 21
118.7048118125527
 31
0.0
 11
120.5651528164825
 21
118.7314580709911
 31
0.0
 11
120.7318271862394
 21
118.7957478627929
 31
0.0
 11
120.8834941589433
 21
118.8882574277031
 31
0.0
 11
120.946416307222
 21
118.9432145105466
 31
0.0
 11
121.0024512800231
 21
119.0051895598652
 31
0.0
 11
121.0523907823919
 21
119.0759457643192
 31
0.0
 11
121.0941540760637
 21
119.1518547951371
 31
0.0
 11
121.1311110428344
 21
119.2390654375048
 31
0.0
 11
121.1602113982454
 21
119.3292242398623
 31
0.0
 11
121.1851777008059
 21
119.4320510249479
 31
0.0
 11
121.2038805032085
 21
119.5362073034203
 31
0.0
 11
121.2307449147171
 21
119.7803981281472
 31
0.0
 11
121.2426553595
 21
120.0259075783001
 31
0.0
  0
SPLINE
  5
1E7
330
1F
100
AcDbEntity
  8
0
  6
Continuous
 62
     7
100
AcDbSpline
210
0.0
220
0.0
230
1.0
 70
     8
 71
     3
 72
    25
 73
    21
 74
    19
 42
0.0000000001
 43
0.0000000001
 44
0.00000001
 40
0.0
 40
0.0
 40
0.0
 40
0.0
 40
0.2103041648025322
 40
0.4206313681812426
 40
0.6111414070942462
 40
0.8016256533677402
 40
0.968967229060254
 40
1.136453430859812
 40
1.282250794645693
 40
1.42756370653119
 40
1.495189881927119
 40
1.562819564182046
 40
1.63015462456589
 40
1.697478946531578
 40
1.842168319464808
 40
1.987467172840058
 40
2.159305686271585
 40
2.331067026584297
 40
2.532057008024681
 40
2.733000251849324
 40
2.733000251849324
 40
2.733000251849324
 40
2.733000251849324
 10
99.35532025929997
 20
119.9415587715001
 30
0.0
 10
99.28521605823363
 20
119.9412310528999
 30
0.0
 10
99.14499997626739
 20
119.9405755797983
 30
0.0
 10
98.94138923074081
 20
119.9330080589838
 30
0.0
 10
98.74467767355735
 20
119.9199754886013
 30
0.0
 10
98.56291088168102
 20
119.9001104509113
 30
0.0
 10
98.38996379161279
 20
119.8720450036838
 30
0.0
 10
98.23410655844022
 20
119.8339383835032
 30
0.0
 10
98.08974441578462
 20
119.7828116274062
 30
0.0
 10
97.98290663135649
 20
119.7278416655094
 30
0.0
 10
97.90601421832011
 20
119.6744151012932
 30
0.0
 10
97.85416488138
 20
119.6309900365711
 30
0.0
 10
97.80683784715606
 20
119.5828092228122
 30
0.0
 10
97.74816000903787
 20
119.5103347989956
 30
0.0
 10
97.68770524034154
 20
119.4068248994377
 30
0.0
 10
97.63193443798541
 20
119.2628781961725
 30
0.0
 10
97.59297202718963
 20
119.1042147210416
 30
0.0
 10
97.5671489153827
 20
118.9243896651037
 30
0.0
 10
97.55071015905469
 20
118.7337694970927
 30
0.0
 10
97.54570338815236
 20
118.5998723720873
 30
0.0
 10
97.54320029379997
 20
118.5329315945001
 30
0.0
 11
99.35532025929997
 21
119.9415587715001
 31
0.0
 11
99.14502679325857
 21
119.9394374809536
 31
0.0
 11
98.93484207542492
 21
119.9316968821201
 31
0.0
 11
98.74478114472767
 21
119.9186233382575
 31
0.0
 11
98.55546860246514
 21
119.8975280918622
 31
0.0
 11
98.3904251575288
 21
119.8698899978831
 31
0.0
 11
98.22792295024072
 21
119.8293355848095
 31
0.0
 11
98.09083137769859
 21
119.7797092608993
 31
0.0
 11
97.96212612574234
 21
119.7122496397951
 31
0.0
 11
97.90662812237915
 21
119.67360677213
 31
0.0
 11
97.85483413928091
 21
119.6301193344414
 31
0.0
 11
97.807640227705
 21
119.5820907485049
 31
0.0
 11
97.76528422928112
 21
119.5297597469317
 31
0.0
 11
97.6913047688129
 21
119.4054132388639
 31
0.0
 11
97.63787322695612
 21
119.270295412035
 31
0.0
 11
97.59573968961578
 21
119.1037023757773
 31
0.0
 11
97.5700199187524
 21
118.9338776089948
 31
0.0
 11
97.55233677395714
 21
118.7336670222878
 31
0.0
 11
97.54320029379997
 21
118.5329315945001
 31
0.0
  0
SPLINE
  5
1E8
330
1F
100
AcDbEntity
  8
A_RUNDUNGEN
  6
Continuous
 62
     7
100
AcDbSpline
210
0.0
220
0.0
230
1.0
 70
     8
 71
     3
 72
    23
 73
    19
 74
    17
 42
0.0000000001
 43
0.0000000001
 44
0.00000001
 40
0.0
 40
0.0
 40
0.0
 40
0.0
 40
0.4425616377911004
 40
0.8851785763994724
 40
1.119307766200346
 40
1.353458749024133
 40
1.600164574138307
 40
1.846890776366769
 40
2.107169887475411
 40
2.36746592828935
 40
2.640649429163685
 40
2.913845391879064
 40
3.197901514259263
 40
3.48195348220608
 40
3.773783648286732
 40
4.065672661168373
 40
4.361717491538539
 40
4.657519209725688
 40
4.657519209725688
 40
4.657519209725688
 40
4.657519209725688
 10
90.52596804309997
 20
121.0292991002001
 30
0.0
 10
90.53635232474119
 20
120.8814532636462
 30
0.0
 10
90.55712218560393
 20
120.5857431162857
 30
0.0
 10
90.6935172975831
 20
120.2328198686977
 30
0.0
 10
90.84247477206867
 20
119.96815820457
 30
0.0
 10
90.98096543220854
 20
119.7735723193637
 30
0.0
 10
91.14032892264177
 20
119.590298422852
 30
0.0
 10
91.32227487468492
 20
119.4165588150456
 30
0.0
 10
91.52226309544861
 20
119.2566036194862
 30
0.0
 10
91.74215072710842
 20
119.108944764829
 30
0.0
 10
91.97673777399542
 20
118.9769586199606
 30
0.0
 10
92.22777107734618
 20
118.8597326929883
 30
0.0
 10
92.48999113769275
 20
118.7596273919737
 30
0.0
 10
92.7644784728671
 20
118.6762903127165
 30
0.0
 10
93.04649331120955
 20
118.6109201615996
 30
0.0
 10
93.33616234956199
 20
118.5641393372085
 30
0.0
 10
93.62959864168721
 20
118.5349509584474
 30
0.0
 10
93.82690925398649
 20
118.5311825369658
 30
0.0
 10
93.92552403559996
 20
118.5292991002001
 30
0.0
 11
90.52596804309997
 21
121.0292991002001
 31
0.0
 11
90.57889192970406
 21
120.5899133181463
 31
0.0
 11
90.73098635549938
 21
120.174248741853
 31
0.0
 11
90.84600273104958
 21
119.9703180897379
 31
0.0
 11
90.98142218450744
 21
119.7792991001517
 31
0.0
 11
91.14308359696355
 21
119.5929409721617
 31
0.0
 11
91.32131305847358
 21
119.4223300759213
 31
0.0
 11
91.52439060369578
 21
119.259527353874
 31
0.0
 11
91.74033156518526
 21
119.1141879923286
 31
0.0
 11
91.978302722594
 21
118.9800278142149
 31
0.0
 11
92.22574603934969
 21
118.8642355906551
 31
0.0
 11
92.4910592654225
 21
118.7627625758556
 31
0.0
 11
92.76280740780122
 21
118.6800675481442
 31
0.0
 11
93.0470971940004
 21
118.614157281133
 31
0.0
 11
93.33519733262551
 21
118.5672797175742
 31
0.0
 11
93.62987787564407
 21
118.5388910022953
 31
0.0
 11
93.92552403559996
 21
118.5292991002001
 31
0.0
  0
SPLINE
  5
1E9
330
1F
100
AcDbEntity
  8
0
  6
Continuous
 62
     7
100
AcDbSpline
210
0.0
220
0.0
230
1.0
 70
     8
 71
     3
 72
     9
 73
     5
 74
     3
 42
0.0000000001
 43
0.0000000001
 44
0.00000001
 40
0.0
 40
0.0
 40
0.0
 40
0.0
 40
0.7344482167904289
 40
1.468659353712352
 40
1.468659353712352
 40
1.468659353712352
 40
1.468659353712352
 10
117.074582198923
 20
118.5292991003261
 30
0.0
 10
117.3196634599341
 20
118.5346030962423
 30
0.0
 10
117.8097468697305
 20
118.5452093759448
 30
0.0
 10
118.2937348007957
 20
118.6229890616706
 30
0.0
 10
118.5356897022
 20
118.6618726267001
 30
0.0
 11
117.074582198923
 21
118.5292991003261
 31
0.0
 11
117.8083016202492
 21
118.5620098617866
 31
0.0
 11
118.5356897022
 21
118.6618726267001
 31
0.0
  0
SPLINE
  5
1EA
330
1F
100
AcDbEntity
  8
0
  6
Continuous
 62
     7
100
AcDbSpline
210
0.0
220
0.0
230
1.0
 70
     8
 71
     3
 72
    17
 73
    13
 74
    11
 42
0.0000000001
 43
0.0000000001
 44
0.00000001
 40
0.0
 40
0.0
 40
0.0
 40
0.0
 40
0.2779921682204511
 40
0.5560790321496094
 40
0.7094932271872003
 40
0.8629239010955244
 40
1.030013419038686
 40
1.197122908671627
 40
1.378532734238359
 40
1.559955018411065
 40
1.883462337565455
 40
2.206886213250737
 40
2.206886213250737
 40
2.206886213250737
 40
2.206886213250737
 10
129.8651111197
 20
118.5292991002001
 30
0.0
 10
129.9580546205833
 20
118.5372285928143
 30
0.0
 10
130.1439732827768
 20
118.5530902791582
 30
0.0
 10
130.3623424153248
 20
118.6546647523903
 30
0.0
 10
130.5243861531386
 20
118.7630614716453
 30
0.0
 10
130.6452119016797
 20
118.8654319668343
 30
0.0
 10
130.7584028912256
 20
118.9824056572661
 30
0.0
 10
130.8661502675026
 20
119.1165810064363
 30
0.0
 10
130.9649640953216
 20
119.2632714017246
 30
0.0
 10
131.0773847360134
 20
119.4626739089439
 30
0.0
 10
131.1912188803802
 20
119.7152326879583
 30
0.0
 10
131.2534052725684
 20
119.921890426755
 30
0.0
 10
131.2844944581523
 20
120.0252059684311
 30
0.0
 11
129.8651111197
 21
118.5292991002001
 31
0.0
 11
130.14025097134
 21
118.569019468167
 31
0.0
 11
130.3952031782398
 21
118.6800675482355
 31
0.0
 11
130.5226873543552
 21
118.7654121443104
 31
0.0
 11
130.640053866325
 21
118.8642355907389
 31
0.0
 11
130.7564639975775
 21
118.9841004661122
 31
0.0
 11
130.861358311194
 21
119.1141879924024
 31
0.0
 11
130.9629060802442
 21
119.2645128919137
 31
0.0
 11
131.0523922892749
 21
119.4223300759836
 31
0.0
 11
131.1845495478644
 21
119.7176120506258
 31
0.0
 11
131.2844944581523
 21
120.0252059684311
 31
0.0
  0
XLINE
  5
1EB
330
1F
100
AcDbEntity
  8
1
  6
DOT_CENTER
 62
     3
 60
     1
100
AcDbXline
 10
109.392925346
 20
147.5292991002
 30
0.0
 11
0.0
 21
1.0
 31
0.0
  0
XLINE
  5
1EC
330
1F
100
AcDbEntity
  8
1
  6
DOT_CENTER
 62
     3
 60
     1
100
AcDbXline
 10
79.21487861209997
 20
147.5292991002
 30
0.0
 11
-1.0
 21
0.0
 31
0.0
  0
XLINE
  5
1ED
330
1F
100
AcDbEntity
  8
1
  6
DOT_CENTER
 62
     3
 60
     1
100
AcDbXline
 10
109.392925346
 20
147.5292991002
 30
0.0
 11
1.0
 21
0.0
 31
0.0
  0
XLINE
  5
1EE
330
1F
100
AcDbEntity
  8
1
  6
DOT_CENTER
 62
     3
 60
     1
100
AcDbXline
 10
79.21487861209997
 20
147.5292991002
 30
0.0
 11
-1.0
 21
0.0
 31
0.0
  0
MTEXT
  5
1F0
330
1F
100
AcDbEntity
  8
1
 62
     2
100
AcDbMText
 10
56.3619148456708
 20
151.146140347573
 30
0.0
 40
2.5
 41
0.0
 71
     5
 72
     1
  1
BBL
  7
CONVERTER_11
 73
     1
 44
1.32052821128451
  0
DIMENSION
  5
1FC
330
1F
100
AcDbEntity
  8
1
100
AcDbDimension
  2
*D5
 10
173.167276031231
 20
287.5293249804486
 30
0.0
 11
169.417276031231
 21
146.774267997762
 31
0.0
 70
    32
  1
<>
 71
     5
 42
-1.0
 53
90.0
  3
ME10_DIM_10
100
AcDbAlignedDimension
 13
137.7889866603
 23
7.52927321995156
 33
0.0
 14
137.7889866603
 24
287.5293249804486
 34
0.0
 50
90.0
100
AcDbRotatedDimension
  0
DIMENSION
  5
208
330
1F
100
AcDbEntity
  8
1
100
AcDbDimension
  2
*D6
 10
43.4396151648227
 20
277.5293053726982
 30
0.0
 11
39.6896151648227
 21
146.501197357679
 31
0.0
 70
    32
  1
<>
 71
     5
 42
-1.0
 53
90.0
  3
ME10_DIM_11
100
AcDbAlignedDimension
 13
80.99672210969996
 23
17.52929282770192
 33
0.0
 14
80.99672210969996
 24
277.5293053726982
 34
0.0
 50
90.0
100
AcDbRotatedDimension
  0
DIMENSION
  5
213
330
1F
100
AcDbEntity
  8
1
100
AcDbDimension
  2
*D7
 10
63.99679378269075
 20
-2.74422219353048
 30
0.0
 11
80.99682158686481
 21
1.00577780646952
 31
0.0
 70
    32
  1
<>
 71
     5
 42
-1.0
 53
0.00013888888889
  3
ME10_DIM_12
100
AcDbAlignedDimension
 13
97.99683289136313
 23
34.42930840407013
 33
0.0
 14
63.99679378269075
 24
34.42927725133012
 34
0.0
100
AcDbRotatedDimension
  0
DIMENSION
  5
21E
330
1F
100
AcDbEntity
  8
1
100
AcDbDimension
  2
*D8
 10
119.7891617602
 20
-2.74422219353048
 30
0.0
 11
137.78916174385
 21
1.00577780646952
 31
0.0
 70
    32
  1
<>
 71
     5
 42
-1.0
 53
0.00013888888889
  3
ME10_DIM_13
100
AcDbAlignedDimension
 13
155.7891617275
 23
25.52925364940012
 33
0.0
 14
119.7891617602
 24
25.5292927887001
 34
0.0
100
AcDbRotatedDimension
  0
DIMENSION
  5
229
330
1F
100
AcDbEntity
  8
1
100
AcDbDimension
  2
*D9
 10
97.99683289136317
 20
-2.74422219353048
 30
0.0
 11
108.8929973257816
 21
1.00577780646952
 31
0.0
 70
    32
  1
21.8
 71
     5
 42
-1.0
 53
0.00013888888889
  3
ME10_DIM_14
100
AcDbAlignedDimension
 13
119.7891617602
 23
25.5292927887001
 33
0.0
 14
97.99683289136313
 24
34.42930840407013
 34
0.0
100
AcDbRotatedDimension
  0
ENDSEC
  0
SECTION
  2
OBJECTS
  0
DICTIONARY
  5
C
330
0
100
AcDbDictionary
281
     1
  3
ACAD_GROUP
350
D
  3
ACAD_LAYOUT
350
1A
  3
ACAD_MLINESTYLE
350
17
  3
ACAD_PLOTSETTINGS
350
19
  3
ACAD_PLOTSTYLENAME
350
E
  0
DICTIONARY
  5
D
102
{ACAD_REACTORS
330
C
102
}
330
C
100
AcDbDictionary
281
     1
  0
DICTIONARY
  5
1A
102
{ACAD_REACTORS
330
C
102
}
330
C
100
AcDbDictionary
281
     1
  3
Layout1
350
1E
  3
Layout2
350
26
  3
Model
350
22
  0
DICTIONARY
  5
17
102
{ACAD_REACTORS
330
C
102
}
330
C
100
AcDbDictionary
281
     1
  3
Standard
350
18
  0
DICTIONARY
  5
19
102
{ACAD_REACTORS
330
C
102
}
330
C
100
AcDbDictionary
281
     1
  0
ACDBDICTIONARYWDFLT
  5
E
102
{ACAD_REACTORS
330
C
102
}
330
C
100
AcDbDictionary
281
     1
  3
Normal
350
F
100
AcDbDictionaryWithDefault
340
F
  0
LAYOUT
  5
1E
102
{ACAD_REACTORS
330
1A
102
}
330
1A
100
AcDbPlotSettings
  1

  2

  4

  6

 40
0.0
 41
0.0
 42
0.0
 43
0.0
 44
0.0
 45
0.0
 46
0.0
 47
0.0
 48
0.0
 49
0.0
140
0.0
141
0.0
142
1.0
143
1.0
 70
   688
 72
     0
 73
     0
 74
     5
  7

 75
    16
 76
     0
 77
     2
 78
   300
147
1.0
148
0.0
149
0.0
100
AcDbLayout
  1
Layout1
 70
     1
 71
     1
 10
0.0
 20
0.0
 11
0.0
 21
0.0
 12
0.0
 22
0.0
 32
0.0
 14
0.0
 24
0.0
 34
0.0
 15
0.0
 25
0.0
 35
0.0
146
0.0
 13
0.0
 23
0.0
 33
0.0
 16
1.0
 26
0.0
 36
0.0
 17
0.0
 27
1.0
 37
0.0
 76
     0
330
1B
  0
LAYOUT
  5
26
102
{ACAD_REACTORS
330
1A
102
}
330
1A
100
AcDbPlotSettings
  1

  2

  4

  6

 40
0.0
 41
0.0
 42
0.0
 43
0.0
 44
0.0
 45
0.0
 46
0.0
 47
0.0
 48
0.0
 49
0.0
140
0.0
141
0.0
142
1.0
143
1.0
 70
   688
 72
     0
 73
     0
 74
     5
  7

 75
    16
 76
     0
 77
     2
 78
   300
147
1.0
148
0.0
149
0.0
100
AcDbLayout
  1
Layout2
 70
     1
 71
     2
 10
0.0
 20
0.0
 11
0.0
 21
0.0
 12
0.0
 22
0.0
 32
0.0
 14
0.0
 24
0.0
 34
0.0
 15
0.0
 25
0.0
 35
0.0
146
0.0
 13
0.0
 23
0.0
 33
0.0
 16
1.0
 26
0.0
 36
0.0
 17
0.0
 27
1.0
 37
0.0
 76
     0
330
23
  0
LAYOUT
  5
22
102
{ACAD_REACTORS
330
1A
102
}
330
1A
100
AcDbPlotSettings
  1

  2

  4

  6

 40
0.0
 41
0.0
 42
0.0
 43
0.0
 44
0.0
 45
0.0
 46
0.0
 47
0.0
 48
0.0
 49
0.0
140
0.0
141
0.0
142
1.0
143
1.0
 70
  1712
 72
     0
 73
     0
 74
     0
  7

 75
     0
 76
     0
 77
     2
 78
   300
147
1.0
148
0.0
149
0.0
100
AcDbLayout
  1
Model
 70
     1
 71
     0
 10
0.0
 20
0.0
 11
0.0
 21
0.0
 12
0.0
 22
0.0
 32
0.0
 14
37.9396151648227
 24
-4.74422219353048
 34
0.0
 15
175.167276031231
 25
287.5293249813001
 35
0.0
146
0.0
 13
0.0
 23
0.0
 33
0.0
 16
1.0
 26
0.0
 36
0.0
 17
0.0
 27
1.0
 37
0.0
 76
     0
330
1F
  0
MLINESTYLE
  5
18
102
{ACAD_REACTORS
330
17
102
}
330
17
100
AcDbMlineStyle
  2
Standard
 70
     0
  3

 62
   256
 51
90.0
 52
90.0
 71
     2
 49
0.5
 62
   256
  6
BYLAYER
 49
-0.5
 62
   256
  6
BYLAYER
  0
ACDBPLACEHOLDER
  5
F
102
{ACAD_REACTORS
330
E
102
}
330
E
  0
ENDSEC
  0
EOF
