  0
SECTION
  2
HEADER
  9
$ACADVER
  1
AC1018
  9
$ACADMAINTVER
 70
     0
  9
$DWGCODEPAGE
  3
ANSI_1252
  9
$INSBASE
 10
0.0
 20
0.0
 30
0.0
  9
$EXTMIN
 10
712.823161172796
 20
94.0374369244128
 30
0.0
  9
$EXTMAX
 10
855.3782135291495
 20
192.6906499171238
 30
0.0
  9
$LIMMIN
 10
0.0
 20
0.0
  9
$LIMMAX
 10
12.0
 20
9.0
  9
$ORTHOMODE
 70
     0
  9
$REGENMODE
 70
     1
  9
$FILLMODE
 70
     1
  9
$QTEXTMODE
 70
     0
  9
$MIRRTEXT
 70
     1
  9
$LTSCALE
 40
1.0
  9
$ATTMODE
 70
     1
  9
$TEXTSIZE
 40
0.2
  9
$TRACEWID
 40
0.05
  9
$TEXTSTYLE
  7
Standard
  9
$CLAYER
  8
0
  9
$CELTYPE
  6
ByLayer
  9
$CECOLOR
 62
   256
  9
$CELTSCALE
 40
1.0
  9
$DISPSILH
 70
     0
  9
$DIMSCALE
 40
1.0
  9
$DIMASZ
 40
0.18
  9
$DIMEXO
 40
0.0625
  9
$DIMDLI
 40
0.38
  9
$DIMRND
 40
0.0
  9
$DIMDLE
 40
0.0
  9
$DIMEXE
 40
0.18
  9
$DIMTP
 40
0.0
  9
$DIMTM
 40
0.0
  9
$DIMTXT
 40
0.18
  9
$DIMCEN
 40
0.09
  9
$DIMTSZ
 40
0.0
  9
$DIMTOL
 70
     0
  9
$DIMLIM
 70
     0
  9
$DIMTIH
 70
     1
  9
$DIMTOH
 70
     1
  9
$DIMSE1
 70
     0
  9
$DIMSE2
 70
     0
  9
$DIMTAD
 70
     0
  9
$DIMZIN
 70
     0
  9
$DIMBLK
  1

  9
$DIMASO
 70
     1
  9
$DIMSHO
 70
     1
  9
$DIMPOST
  1

  9
$DIMAPOST
  1

  9
$DIMALT
 70
     0
  9
$DIMALTD
 70
     2
  9
$DIMALTF
 40
25.4
  9
$DIMLFAC
 40
1.0
  9
$DIMTOFL
 70
     0
  9
$DIMTVP
 40
0.0
  9
$DIMTIX
 70
     0
  9
$DIMSOXD
 70
     0
  9
$DIMSAH
 70
     0
  9
$DIMBLK1
  1

  9
$DIMBLK2
  1

  9
$DIMSTYLE
  2
Standard
  9
$DIMCLRD
 70
     0
  9
$DIMCLRE
 70
     0
  9
$DIMCLRT
 70
     0
  9
$DIMTFAC
 40
1.0
  9
$DIMGAP
 40
0.09
  9
$DIMJUST
 70
     0
  9
$DIMSD1
 70
     0
  9
$DIMSD2
 70
     0
  9
$DIMTOLJ
 70
     1
  9
$DIMTZIN
 70
     0
  9
$DIMALTZ
 70
     0
  9
$DIMALTTZ
 70
     0
  9
$DIMUPT
 70
     0
  9
$DIMDEC
 70
     4
  9
$DIMTDEC
 70
     4
  9
$DIMALTU
 70
     2
  9
$DIMALTTD
 70
     2
  9
$DIMTXSTY
  7
Standard
  9
$DIMAUNIT
 70
     0
  9
$DIMADEC
 70
     0
  9
$DIMALTRND
 40
0.0
  9
$DIMAZIN
 70
     0
  9
$DIMDSEP
 70
    46
  9
$DIMATFIT
 70
     3
  9
$DIMFRAC
 70
     0
  9
$DIMLDRBLK
  1

  9
$DIMLUNIT
 70
     2
  9
$DIMLWD
 70
    -2
  9
$DIMLWE
 70
    -2
  9
$DIMTMOVE
 70
     0
  9
$LUNITS
 70
     2
  9
$LUPREC
 70
     4
  9
$SKETCHINC
 40
0.1
  9
$FILLETRAD
 40
0.5
  9
$AUNITS
 70
     0
  9
$AUPREC
 70
     0
  9
$MENU
  1
.
  9
$ELEVATION
 40
0.0
  9
$PELEVATION
 40
0.0
  9
$THICKNESS
 40
0.0
  9
$LIMCHECK
 70
     0
  9
$CHAMFERA
 40
0.5
  9
$CHAMFERB
 40
0.5
  9
$CHAMFERC
 40
1.0
  9
$CHAMFERD
 40
0.0
  9
$SKPOLY
 70
     0
  9
$TDCREATE
 40
2456609.451504167
  9
$TDUCREATE
 40
2456609.4098375
  9
$TDUPDATE
 40
2456609.451504178
  9
$TDUUPDATE
 40
2456609.409837511
  9
$TDINDWG
 40
0.0000000116
  9
$TDUSRTIMER
 40
0.0000000116
  9
$USRTIMER
 70
     1
  9
$ANGBASE
 50
0.0
  9
$ANGDIR
 70
     0
  9
$PDMODE
 70
     0
  9
$PDSIZE
 40
0.0
  9
$PLINEWID
 40
0.0
  9
$SPLFRAME
 70
     0
  9
$SPLINETYPE
 70
     6
  9
$SPLINESEGS
 70
     8
  9
$HANDSEED
  5
190
  9
$SURFTAB1
 70
     6
  9
$SURFTAB2
 70
     6
  9
$SURFTYPE
 70
     6
  9
$SURFU
 70
     6
  9
$SURFV
 70
     6
  9
$UCSBASE
  2

  9
$UCSNAME
  2

  9
$UCSORG
 10
0.0
 20
0.0
 30
0.0
  9
$UCSXDIR
 10
1.0
 20
0.0
 30
0.0
  9
$UCSYDIR
 10
0.0
 20
1.0
 30
0.0
  9
$UCSORTHOREF
  2

  9
$UCSORTHOVIEW
 70
     0
  9
$UCSORGTOP
 10
0.0
 20
0.0
 30
0.0
  9
$UCSORGBOTTOM
 10
0.0
 20
0.0
 30
0.0
  9
$UCSORGLEFT
 10
0.0
 20
0.0
 30
0.0
  9
$UCSORGRIGHT
 10
0.0
 20
0.0
 30
0.0
  9
$UCSORGFRONT
 10
0.0
 20
0.0
 30
0.0
  9
$UCSORGBACK
 10
0.0
 20
0.0
 30
0.0
  9
$PUCSBASE
  2

  9
$PUCSNAME
  2

  9
$PUCSORG
 10
0.0
 20
0.0
 30
0.0
  9
$PUCSXDIR
 10
1.0
 20
0.0
 30
0.0
  9
$PUCSYDIR
 10
0.0
 20
1.0
 30
0.0
  9
$PUCSORTHOREF
  2

  9
$PUCSORTHOVIEW
 70
     0
  9
$PUCSORGTOP
 10
0.0
 20
0.0
 30
0.0
  9
$PUCSORGBOTTOM
 10
0.0
 20
0.0
 30
0.0
  9
$PUCSORGLEFT
 10
0.0
 20
0.0
 30
0.0
  9
$PUCSORGRIGHT
 10
0.0
 20
0.0
 30
0.0
  9
$PUCSORGFRONT
 10
0.0
 20
0.0
 30
0.0
  9
$PUCSORGBACK
 10
0.0
 20
0.0
 30
0.0
  9
$USERI1
 70
     0
  9
$USERI2
 70
     0
  9
$USERI3
 70
     0
  9
$USERI4
 70
     0
  9
$USERI5
 70
     0
  9
$USERR1
 40
14.5
  9
$USERR2
 40
0.0
  9
$USERR3
 40
0.0
  9
$USERR4
 40
0.0
  9
$USERR5
 40
0.0
  9
$WORLDVIEW
 70
     1
  9
$SHADEDGE
 70
     3
  9
$SHADEDIF
 70
    70
  9
$TILEMODE
 70
     1
  9
$MAXACTVP
 70
    64
  9
$PINSBASE
 10
0.0
 20
0.0
 30
0.0
  9
$PLIMCHECK
 70
     0
  9
$PEXTMIN
 10
1.00000000000000E+20
 20
1.00000000000000E+20
 30
1.00000000000000E+20
  9
$PEXTMAX
 10
-1.00000000000000E+20
 20
-1.00000000000000E+20
 30
-1.00000000000000E+20
  9
$PLIMMIN
 10
0.0
 20
0.0
  9
$PLIMMAX
 10
12.0
 20
9.0
  9
$UNITMODE
 70
     0
  9
$VISRETAIN
 70
     1
  9
$PLINEGEN
 70
     0
  9
$PSLTSCALE
 70
     1
  9
$TREEDEPTH
 70
  3020
  9
$CMLSTYLE
  2
Standard
  9
$CMLJUST
 70
     0
  9
$CMLSCALE
 40
1.0
  9
$PROXYGRAPHICS
 70
     1
  9
$MEASUREMENT
 70
     1
  9
$CELWEIGHT
370
    -1
  9
$ENDCAPS
280
     0
  9
$JOINSTYLE
280
     0
  9
$LWDISPLAY
290
     0
  9
$INSUNITS
 70
     1
  9
$HYPERLINKBASE
  1

  9
$STYLESHEET
  1

  9
$XEDIT
290
     1
  9
$CEPSNTYPE
380
     0
  9
$PSTYLEMODE
290
     1
  9
$FINGERPRINTGUID
  2
{8F202AA9-FE75-49DA-AAFE-2961CE099AE8}
  9
$VERSIONGUID
  2
{FAEB1C32-E019-11D5-929B-00C0DF256EC4}
  9
$EXTNAMES
290
     1
  9
$PSVPSCALE
 40
0.0
  9
$OLESTARTUP
290
     0
  9
$SORTENTS
280
   127
  9
$INDEXCTL
280
     0
  9
$HIDETEXT
280
     1
  9
$XCLIPFRAME
290
     0
  9
$HALOGAP
280
     0
  9
$OBSCOLOR
 70
   257
  9
$OBSLTYPE
280
     0
  9
$INTERSECTIONDISPLAY
280
     0
  9
$INTERSECTIONCOLOR
 70
   257
  9
$DIMASSOC
280
     2
  9
$PROJECTNAME
  1

  0
ENDSEC
  0
SECTION
  2
CLASSES
  0
CLASS
  1
ACDBDICTIONARYWDFLT
  2
AcDbDictionaryWithDefault
  3
ObjectDBX Classes
 90
        0
 91
        3
280
     0
281
     0
  0
CLASS
  1

  2
exOdDbCircle
  3

 90
        0
 91
        3
280
     0
281
     1
  0
CLASS
  1

  2
exOdDbSpline
  3

 90
        0
 91
        3
280
     0
281
     1
  0
CLASS
  1

  2
exOdDbPolyline
  3

 90
        0
 91
        3
280
     0
281
     1
  0
ENDSEC
  0
SECTION
  2
TABLES
  0
TABLE
  2
VPORT
  5
8
330
0
100
AcDbSymbolTable
 70
     1
  0
VPORT
  5
29
330
8
100
AcDbSymbolTableRecord
100
AcDbViewportTableRecord
  2
*Active
 70
     0
 10
0.0
 20
0.0
 11
1.0
 21
1.0
 12
784.1006873509727
 22
143.3640434207683
 13
0.0
 23
0.0
 14
0.5
 24
0.5
 15
0.5
 25
0.5
 16
0.0
 26
0.0
 36
1.0
 17
0.0
 27
0.0
 37
0.0
 40
108.5185342919821
 41
1.60267857142857
 42
50.0
 43
0.0
 44
0.0
 50
0.0
 51
0.0
 71
     0
 72
   100
 73
     1
 74
     3
 75
     0
 76
     0
 77
     0
 78
     0
281
     0
 65
     1
110
0.0
120
0.0
130
0.0
111
1.0
121
0.0
131
0.0
112
0.0
122
1.0
132
0.0
 79
     0
146
0.0
  0
ENDTAB
  0
TABLE
  2
LTYPE
  5
5
330
0
100
AcDbSymbolTable
 70
     8
  0
LTYPE
  5
14
330
5
100
AcDbSymbolTableRecord
100
AcDbLinetypeTableRecord
  2
ByBlock
 70
     0
  3

 72
    65
 73
     0
 40
0.0
  0
LTYPE
  5
15
330
5
100
AcDbSymbolTableRecord
100
AcDbLinetypeTableRecord
  2
ByLayer
 70
     0
  3

 72
    65
 73
     0
 40
0.0
  0
LTYPE
  5
16
330
5
100
AcDbSymbolTableRecord
100
AcDbLinetypeTableRecord
  2
Continuous
 70
     0
  3
Solid line
 72
    65
 73
     0
 40
0.0
  0
LTYPE
  5
2A
330
5
100
AcDbSymbolTableRecord
100
AcDbLinetypeTableRecord
  2
DASHED
 70
     0
  3
Dashed
 72
    65
 73
     2
 40
15.0
 49
7.0
 74
     0
 49
-8.0
 74
     0
  0
LTYPE
  5
2B
330
5
100
AcDbSymbolTableRecord
100
AcDbLinetypeTableRecord
  2
DOTTED
 70
     0
  3
Dotted
 72
    65
 73
     2
 40
1.0
 49
0.0
 74
     0
 49
-1.0
 74
     0
  0
LTYPE
  5
2C
330
5
100
AcDbSymbolTableRecord
100
AcDbLinetypeTableRecord
  2
DOT_CENTER
 70
     0
  3
Dot_Center
 72
    65
 73
     4
 40
14.0
 49
12.0
 74
     0
 49
-1.0
 74
     0
 49
0.0
 74
     0
 49
-1.0
 74
     0
  0
LTYPE
  5
2D
330
5
100
AcDbSymbolTableRecord
100
AcDbLinetypeTableRecord
  2
LONG_DASHED
 70
     0
  3
Long_Dashed
 72
    65
 73
     2
 40
15.0
 49
10.0
 74
     0
 49
-5.0
 74
     0
  0
LTYPE
  5
2E
330
5
100
AcDbSymbolTableRecord
100
AcDbLinetypeTableRecord
  2
DASH_CENTER
 70
     0
  3
Dash_Center
 72
    65
 73
     4
 40
14.0
 49
11.0
 74
     0
 49
-1.0
 74
     0
 49
1.0
 74
     0
 49
-1.0
 74
     0
  0
LTYPE
  5
2F
330
5
100
AcDbSymbolTableRecord
100
AcDbLinetypeTableRecord
  2
PHANTOM
 70
     0
  3
Phantom
 72
    65
 73
     6
 40
13.0
 49
10.0
 74
     0
 49
-1.0
 74
     0
 49
0.0
 74
     0
 49
-1.0
 74
     0
 49
0.0
 74
     0
 49
-1.0
 74
     0
  0
LTYPE
  5
30
330
5
100
AcDbSymbolTableRecord
100
AcDbLinetypeTableRecord
  2
CENTER_DASH_DASH
 70
     0
  3
Center_Dash_Dash
 72
    65
 73
     6
 40
14.0
 49
9.0
 74
     0
 49
-1.0
 74
     0
 49
1.0
 74
     0
 49
-1.0
 74
     0
 49
1.0
 74
     0
 49
-1.0
 74
     0
  0
ENDTAB
  0
TABLE
  2
LAYER
  5
2
330
0
100
AcDbSymbolTable
 70
     6
  0
LAYER
  5
10
330
2
100
AcDbSymbolTableRecord
100
AcDbLayerTableRecord
  2
0
 70
     0
 62
     7
  6
Continuous
370
    -3
390
F
  0
LAYER
  5
31
330
2
100
AcDbSymbolTableRecord
100
AcDbLayerTableRecord
  2
1
 70
     0
 62
     7
  6
Continuous
370
    -3
390
F
  0
LAYER
  5
32
330
2
100
AcDbSymbolTableRecord
100
AcDbLayerTableRecord
  2
A_ACHSEN
 70
     0
 62
     7
  6
Continuous
370
    -3
390
F
  0
LAYER
  5
33
330
2
100
AcDbSymbolTableRecord
100
AcDbLayerTableRecord
  2
A_BEMASSUNGEN
 70
     0
 62
     7
  6
Continuous
370
    -3
390
F
  0
LAYER
  5
34
330
2
100
AcDbSymbolTableRecord
100
AcDbLayerTableRecord
  2
A_FASEN
 70
     0
 62
     7
  6
Continuous
370
    -3
390
F
  0
LAYER
  5
35
330
2
100
AcDbSymbolTableRecord
100
AcDbLayerTableRecord
  2
A_RUNDUNGEN
 70
     0
 62
     7
  6
Continuous
370
    -3
390
F
  0
ENDTAB
  0
TABLE
  2
STYLE
  5
3
330
0
100
AcDbSymbolTable
 70
     2
  0
STYLE
  5
11
330
3
100
AcDbSymbolTableRecord
100
AcDbTextStyleTableRecord
  2
Standard
 70
     0
 40
0.0
 41
1.0
 50
0.0
 71
     0
 42
0.2
  3
txt
  4

  0
STYLE
  5
135
330
3
100
AcDbSymbolTableRecord
100
AcDbTextStyleTableRecord
  2
CONVERTER_11
 70
     0
 40
0.0
 41
0.9
 50
0.0
 71
     0
 42
0.2
  3
txt.shx
  4

  0
ENDTAB
  0
TABLE
  2
VIEW
  5
6
330
0
100
AcDbSymbolTable
 70
     0
  0
ENDTAB
  0
TABLE
  2
UCS
  5
7
330
0
100
AcDbSymbolTable
 70
     0
  0
ENDTAB
  0
TABLE
  2
APPID
  5
9
330
0
100
AcDbSymbolTable
 70
     1
  0
APPID
  5
12
330
9
100
AcDbSymbolTableRecord
100
AcDbRegAppTableRecord
  2
ACAD
 70
     0
  0
ENDTAB
  0
TABLE
  2
DIMSTYLE
  5
A
330
0
100
AcDbSymbolTable
 70
     9
100
AcDbDimStyleTable
  0
DIMSTYLE
105
27
330
A
100
AcDbSymbolTableRecord
100
AcDbDimStyleTableRecord
  2
Standard
 70
     0
340
11
  0
DIMSTYLE
105
139
102
{ACAD_REACTORS
330
13A
102
}
330
A
100
AcDbSymbolTableRecord
100
AcDbDimStyleTableRecord
  2
ME10_DIM_10
 70
     0
 41
3.5
 42
0.0
 44
2.0
 73
     0
 74
     0
 77
     1
 78
     8
140
3.5
147
2.0
172
     1
173
     1
176
     2
177
     2
178
     2
271
     3
340
135
  0
DIMSTYLE
105
146
102
{ACAD_REACTORS
330
147
102
}
330
A
100
AcDbSymbolTableRecord
100
AcDbDimStyleTableRecord
  2
ME10_DIM_11
 70
     0
 41
3.5
 42
0.0
 44
2.0
 73
     0
 74
     0
 77
     1
 78
     8
140
3.5
147
2.0
172
     1
173
     1
176
     2
177
     2
178
     2
271
     3
340
135
  0
DIMSTYLE
105
153
102
{ACAD_REACTORS
330
154
102
}
330
A
100
AcDbSymbolTableRecord
100
AcDbDimStyleTableRecord
  2
ME10_DIM_12
 70
     0
 41
3.5
 42
0.0
 44
2.0
 73
     0
 74
     0
 77
     1
 78
     8
140
3.5
147
2.0
172
     1
173
     1
176
     2
177
     2
178
     2
271
     3
340
135
  0
DIMSTYLE
105
15E
102
{ACAD_REACTORS
330
15F
102
}
330
A
100
AcDbSymbolTableRecord
100
AcDbDimStyleTableRecord
  2
ME10_DIM_13
 70
     0
 41
3.5
 42
0.0
 44
2.0
 73
     0
 74
     0
 77
     1
 78
     8
140
3.5
147
2.0
172
     1
173
     1
176
     2
177
     2
178
     2
271
     3
340
135
  0
DIMSTYLE
105
16B
102
{ACAD_REACTORS
330
16C
102
}
330
A
100
AcDbSymbolTableRecord
100
AcDbDimStyleTableRecord
  2
ME10_DIM_14
 70
     0
 41
3.5
 42
0.0
 44
2.0
 73
     0
 74
     0
 77
     1
 78
     8
140
3.5
147
2.0
172
     1
173
     1
176
     2
177
     2
178
     2
271
     3
340
135
  0
DIMSTYLE
105
176
102
{ACAD_REACTORS
330
177
102
}
330
A
100
AcDbSymbolTableRecord
100
AcDbDimStyleTableRecord
  2
ME10_DIM_15
 70
     0
 41
3.5
 42
0.0
 44
2.0
 73
     0
 74
     0
 77
     1
 78
     8
140
3.5
147
2.0
172
     1
173
     1
176
     2
177
     2
178
     2
271
     3
340
135
  0
DIMSTYLE
105
183
102
{ACAD_REACTORS
330
184
102
}
330
A
100
AcDbSymbolTableRecord
100
AcDbDimStyleTableRecord
  2
ME10_DIM_16
 70
     0
 41
3.5
 42
0.0
 44
2.0
 73
     0
 74
     0
 77
     1
 78
     8
140
3.5
147
2.0
172
     1
173
     1
176
     2
177
     2
178
     2
271
     3
340
135
  0
DIMSTYLE
105
18E
102
{ACAD_REACTORS
330
18F
102
}
330
A
100
AcDbSymbolTableRecord
100
AcDbDimStyleTableRecord
  2
ME10_DIM_17
 70
     0
 41
3.5
 42
0.0
 44
2.0
 73
     0
 74
     0
 77
     1
 78
     8
140
3.5
147
2.0
172
     1
173
     1
176
     2
177
     2
178
     2
271
     3
340
135
  0
ENDTAB
  0
TABLE
  2
BLOCK_RECORD
  5
1
330
0
100
AcDbSymbolTable
 70
     9
  0
BLOCK_RECORD
  5
1F
330
1
100
AcDbSymbolTableRecord
100
AcDbBlockTableRecord
  2
*Model_Space
340
22
  0
BLOCK_RECORD
  5
1B
330
1
100
AcDbSymbolTableRecord
100
AcDbBlockTableRecord
  2
*Paper_Space
340
1E
  0
BLOCK_RECORD
  5
23
330
1
100
AcDbSymbolTableRecord
100
AcDbBlockTableRecord
  2
*Paper_Space0
340
26
  0
BLOCK_RECORD
  5
12F
330
1
100
AcDbSymbolTableRecord
100
AcDbBlockTableRecord
  2
*D1
340
0
  0
BLOCK_RECORD
  5
13B
330
1
100
AcDbSymbolTableRecord
100
AcDbBlockTableRecord
  2
*D2
340
0
  0
BLOCK_RECORD
  5
148
330
1
100
AcDbSymbolTableRecord
100
AcDbBlockTableRecord
  2
*D3
340
0
  0
BLOCK_RECORD
  5
155
330
1
100
AcDbSymbolTableRecord
100
AcDbBlockTableRecord
  2
*D4
340
0
  0
BLOCK_RECORD
  5
160
330
1
100
AcDbSymbolTableRecord
100
AcDbBlockTableRecord
  2
*D5
340
0
  0
BLOCK_RECORD
  5
16D
330
1
100
AcDbSymbolTableRecord
100
AcDbBlockTableRecord
  2
*D6
340
0
  0
BLOCK_RECORD
  5
178
330
1
100
AcDbSymbolTableRecord
100
AcDbBlockTableRecord
  2
*D7
340
0
  0
BLOCK_RECORD
  5
185
330
1
100
AcDbSymbolTableRecord
100
AcDbBlockTableRecord
  2
*D8
340
0
  0
ENDTAB
  0
ENDSEC
  0
SECTION
  2
BLOCKS
  0
BLOCK
  5
20
330
1F
100
AcDbEntity
  8
0
100
AcDbBlockBegin
  2
*Model_Space
 70
     0
 71
     0
 10
0.0
 20
0.0
 30
0.0
  3
*Model_Space
  1

  0
ENDBLK
  5
21
330
1F
100
AcDbEntity
  8
0
100
AcDbBlockEnd
  0
BLOCK
  5
1C
330
1B
100
AcDbEntity
 67
     1
  8
0
100
AcDbBlockBegin
  2
*Paper_Space
 70
     0
 71
     0
 10
0.0
 20
0.0
 30
0.0
  3
*Paper_Space
  1

  0
ENDBLK
  5
1D
330
1B
100
AcDbEntity
 67
     1
  8
0
100
AcDbBlockEnd
  0
BLOCK
  5
24
330
23
100
AcDbEntity
  8
0
100
AcDbBlockBegin
  2
*Paper_Space0
 70
     0
 71
     0
 10
0.0
 20
0.0
 30
0.0
  3
*Paper_Space0
  1

  0
ENDBLK
  5
25
330
23
100
AcDbEntity
  8
0
100
AcDbBlockEnd
  0
BLOCK
  5
137
330
12F
100
AcDbEntity
  8
0
100
AcDbBlockBegin
  2
*D1
 70
     1
 71
     0
 10
0.0
 20
0.0
 30
0.0
  3
*D1
  1

  0
LINE
  5
130
330
12F
100
AcDbEntity
  8
1
  6
Continuous
 62
     2
100
AcDbLine
 10
718.323161172796
 20
156.901806804478
 30
0.0
 11
718.323161172796
 21
120.901806804478
 31
0.0
  0
LINE
  5
131
330
12F
100
AcDbEntity
  8
1
  6
Continuous
 62
     2
100
AcDbLine
 10
740.5346120683796
 20
120.901806804478
 30
0.0
 11
716.323161172796
 21
120.901806804478
 31
0.0
  0
LINE
  5
132
330
12F
100
AcDbEntity
  8
1
  6
Continuous
 62
     2
100
AcDbLine
 10
740.5346120683796
 20
156.901806804478
 30
0.0
 11
716.323161172796
 21
156.901806804478
 31
0.0
  0
SOLID
  5
133
330
12F
100
AcDbEntity
  8
1
 62
     2
100
AcDbTrace
 10
718.7839449143519
 20
153.401806804478
 30
0.0
 11
717.86237743124
 21
153.401806804478
 31
0.0
 12
718.323161172796
 22
156.901806804478
 32
0.0
 13
718.323161172796
 23
156.901806804478
 33
0.0
  0
SOLID
  5
134
330
12F
100
AcDbEntity
  8
1
 62
     2
100
AcDbTrace
 10
717.86237743124
 20
124.401806804478
 30
0.0
 11
718.7839449143519
 21
124.401806804478
 31
0.0
 12
718.323161172796
 22
120.901806804478
 32
0.0
 13
718.323161172796
 23
120.901806804478
 33
0.0
  0
MTEXT
  5
136
330
12F
100
AcDbEntity
  8
1
 62
     2
100
AcDbMText
 10
716.323161172796
 20
135.284778695088
 30
0.0
 40
3.5
 41
0.0
 71
     7
 72
     1
  1
36
  7
CONVERTER_11
 11
0.0
 21
1.0
 31
0.0
 73
     1
 44
0.60024009603842
  0
ENDBLK
  5
138
330
12F
100
AcDbEntity
  8
0
100
AcDbBlockEnd
  0
BLOCK
  5
144
330
13B
100
AcDbEntity
  8
0
100
AcDbBlockBegin
  2
*D2
 70
     1
 71
     0
 10
0.0
 20
0.0
 30
0.0
  3
*D2
  1

  0
LINE
  5
13C
330
13B
100
AcDbEntity
  8
1
  6
Continuous
 62
     2
100
AcDbLine
 10
718.323161172796
 20
120.901806804478
 30
0.0
 11
718.323161172796
 21
127.901806804478
 31
0.0
  0
LINE
  5
13D
330
13B
100
AcDbEntity
  8
1
  6
Continuous
 62
     2
100
AcDbLine
 10
718.323161172796
 20
115.901806804478
 30
0.0
 11
718.323161172796
 21
120.901806804478
 31
0.0
  0
LINE
  5
13E
330
13B
100
AcDbEntity
  8
1
  6
Continuous
 62
     2
100
AcDbLine
 10
718.323161172796
 20
108.901806804478
 30
0.0
 11
718.323161172796
 21
115.901806804478
 31
0.0
  0
LINE
  5
13F
330
13B
100
AcDbEntity
  8
1
  6
Continuous
 62
     2
100
AcDbLine
 10
740.5346120683796
 20
120.901806804478
 30
0.0
 11
716.323161172796
 21
120.901806804478
 31
0.0
  0
LINE
  5
140
330
13B
100
AcDbEntity
  8
1
  6
Continuous
 62
     2
100
AcDbLine
 10
731.5346120683796
 20
115.901806804478
 30
0.0
 11
716.323161172796
 21
115.901806804478
 31
0.0
  0
SOLID
  5
141
330
13B
100
AcDbEntity
  8
1
 62
     2
100
AcDbTrace
 10
718.7839449143519
 20
112.401806804478
 30
0.0
 11
717.86237743124
 21
112.401806804478
 31
0.0
 12
718.323161172796
 22
115.901806804478
 32
0.0
 13
718.323161172796
 23
115.901806804478
 33
0.0
  0
SOLID
  5
142
330
13B
100
AcDbEntity
  8
1
 62
     2
100
AcDbTrace
 10
717.86237743124
 20
124.401806804478
 30
0.0
 11
718.7839449143519
 21
124.401806804478
 31
0.0
 12
718.323161172796
 22
120.901806804478
 32
0.0
 13
718.323161172796
 23
120.901806804478
 33
0.0
  0
MTEXT
  5
143
330
13B
100
AcDbEntity
  8
1
 62
     2
100
AcDbMText
 10
716.323161172796
 20
111.910579993849
 30
0.0
 40
3.5
 41
0.0
 71
     7
 72
     1
  1
5
  7
CONVERTER_11
 11
0.0
 21
1.0
 31
0.0
 73
     1
 44
0.60024009603842
  0
ENDBLK
  5
145
330
13B
100
AcDbEntity
  8
0
100
AcDbBlockEnd
  0
BLOCK
  5
151
330
148
100
AcDbEntity
  8
0
100
AcDbBlockBegin
  2
*D3
 70
     1
 71
     0
 10
0.0
 20
0.0
 30
0.0
  3
*D3
  1

  0
LINE
  5
149
330
148
100
AcDbEntity
  8
1
  6
Continuous
 62
     2
100
AcDbLine
 10
853.3782135291495
 20
116.901806804478
 30
0.0
 11
853.3782135291495
 21
109.901806804478
 31
0.0
  0
LINE
  5
14A
330
148
100
AcDbEntity
  8
1
  6
Continuous
 62
     2
100
AcDbLine
 10
853.3782135291495
 20
121.901806804478
 30
0.0
 11
853.3782135291495
 21
116.901806804478
 31
0.0
  0
LINE
  5
14B
330
148
100
AcDbEntity
  8
1
  6
Continuous
 62
     2
100
AcDbLine
 10
853.3782135291495
 20
128.901806804478
 30
0.0
 11
853.3782135291495
 21
121.901806804478
 31
0.0
  0
LINE
  5
14C
330
148
100
AcDbEntity
  8
1
  6
Continuous
 62
     2
100
AcDbLine
 10
833.7846120683785
 20
116.901806804478
 30
0.0
 11
855.3782135291495
 21
116.901806804478
 31
0.0
  0
LINE
  5
14D
330
148
100
AcDbEntity
  8
1
  6
Continuous
 62
     2
100
AcDbLine
 10
819.5346120683795
 20
121.901806804478
 30
0.0
 11
855.3782135291495
 21
121.901806804478
 31
0.0
  0
SOLID
  5
14E
330
148
100
AcDbEntity
  8
1
 62
     2
100
AcDbTrace
 10
852.9174297875936
 20
125.401806804478
 30
0.0
 11
853.8389972707055
 21
125.401806804478
 31
0.0
 12
853.3782135291495
 22
121.901806804478
 32
0.0
 13
853.3782135291495
 23
121.901806804478
 33
0.0
  0
SOLID
  5
14F
330
148
100
AcDbEntity
  8
1
 62
     2
100
AcDbTrace
 10
853.8389972707055
 20
113.401806804478
 30
0.0
 11
852.9174297875936
 21
113.401806804478
 31
0.0
 12
853.3782135291495
 22
116.901806804478
 32
0.0
 13
853.3782135291495
 23
116.901806804478
 33
0.0
  0
MTEXT
  5
150
330
148
100
AcDbEntity
  8
1
 62
     2
100
AcDbMText
 10
851.3782135291495
 20
110.343475049535
 30
0.0
 40
3.5
 41
0.0
 71
     7
 72
     1
  1
5
  7
CONVERTER_11
 11
0.0
 21
1.0
 31
0.0
 73
     1
 44
0.60024009603842
  0
ENDBLK
  5
152
330
148
100
AcDbEntity
  8
0
100
AcDbBlockEnd
  0
BLOCK
  5
15C
330
155
100
AcDbEntity
  8
0
100
AcDbBlockBegin
  2
*D4
 70
     1
 71
     0
 10
0.0
 20
0.0
 30
0.0
  3
*D4
  1

  0
LINE
  5
156
330
155
100
AcDbEntity
  8
1
  6
Continuous
 62
     2
100
AcDbLine
 10
779.5346120683795
 20
96.0374369244128
 30
0.0
 11
822.5346120683795
 21
96.0374369244128
 31
0.0
  0
LINE
  5
157
330
155
100
AcDbEntity
  8
1
  6
Continuous
 62
     2
100
AcDbLine
 10
822.5346120683795
 20
121.901806804478
 30
0.0
 11
822.5346120683795
 21
94.0374369244128
 31
0.0
  0
LINE
  5
158
330
155
100
AcDbEntity
  8
1
  6
Continuous
 62
     2
100
AcDbLine
 10
779.5346120683795
 20
121.901806804478
 30
0.0
 11
779.5346120683795
 21
94.0374369244128
 31
0.0
  0
SOLID
  5
159
330
155
100
AcDbEntity
  8
1
 62
     2
100
AcDbTrace
 10
783.0346120683795
 20
96.49822066596869
 30
0.0
 11
783.0346120683795
 21
95.57665318285692
 31
0.0
 12
779.5346120683795
 22
96.0374369244128
 32
0.0
 13
779.5346120683795
 23
96.0374369244128
 33
0.0
  0
SOLID
  5
15A
330
155
100
AcDbEntity
  8
1
 62
     2
100
AcDbTrace
 10
819.0346120683795
 20
95.57665318285692
 30
0.0
 11
819.0346120683795
 21
96.49822066596869
 31
0.0
 12
822.5346120683795
 22
96.0374369244128
 32
0.0
 13
822.5346120683795
 23
96.0374369244128
 33
0.0
  0
MTEXT
  5
15B
330
155
100
AcDbEntity
  8
1
 62
     2
100
AcDbMText
 10
796.209649697863
 20
98.0374369244128
 30
0.0
 40
3.5
 41
0.0
 71
     7
 72
     1
  1
43
  7
CONVERTER_11
 11
0.9999999999970621
 21
2.424068405545307E-6
 31
0.0
 73
     1
 44
0.60024009603842
  0
ENDBLK
  5
15D
330
155
100
AcDbEntity
  8
0
100
AcDbBlockEnd
  0
BLOCK
  5
169
330
160
100
AcDbEntity
  8
0
100
AcDbBlockBegin
  2
*D5
 70
     1
 71
     0
 10
0.0
 20
0.0
 30
0.0
  3
*D5
  1

  0
LINE
  5
161
330
160
100
AcDbEntity
  8
1
  6
Continuous
 62
     2
100
AcDbLine
 10
843.9864507735319
 20
116.9018068044781
 30
0.0
 11
843.9864507735319
 21
123.9018068044781
 31
0.0
  0
LINE
  5
162
330
160
100
AcDbEntity
  8
1
  6
Continuous
 62
     2
100
AcDbLine
 10
843.9864507735319
 20
115.9018068044781
 30
0.0
 11
843.9864507735319
 21
116.9018068044781
 31
0.0
  0
LINE
  5
163
330
160
100
AcDbEntity
  8
1
  6
Continuous
 62
     2
100
AcDbLine
 10
843.9864507735319
 20
108.9018068044781
 30
0.0
 11
843.9864507735319
 21
115.9018068044781
 31
0.0
  0
LINE
  5
164
330
160
100
AcDbEntity
  8
1
  6
Continuous
 62
     2
100
AcDbLine
 10
833.7846120683785
 20
116.9018068044781
 30
0.0
 11
845.9864507735319
 21
116.9018068044781
 31
0.0
  0
LINE
  5
165
330
160
100
AcDbEntity
  8
1
  6
Continuous
 62
     2
100
AcDbLine
 10
773.0346120683796
 20
115.9018068044781
 30
0.0
 11
845.9864507735319
 21
115.9018068044781
 31
0.0
  0
SOLID
  5
166
330
160
100
AcDbEntity
  8
1
 62
     2
100
AcDbTrace
 10
844.4472345150879
 20
112.4018068044781
 30
0.0
 11
843.525667031976
 21
112.4018068044781
 31
0.0
 12
843.9864507735319
 22
115.9018068044781
 32
0.0
 13
843.9864507735319
 23
115.9018068044781
 33
0.0
  0
SOLID
  5
167
330
160
100
AcDbEntity
  8
1
 62
     2
100
AcDbTrace
 10
843.525667031976
 20
120.4018068044781
 30
0.0
 11
844.4472345150879
 21
120.4018068044781
 31
0.0
 12
843.9864507735319
 22
116.9018068044781
 32
0.0
 13
843.9864507735319
 23
116.9018068044781
 33
0.0
  0
MTEXT
  5
168
330
160
100
AcDbEntity
  8
1
 62
     2
100
AcDbMText
 10
841.9864507735319
 20
112.1797729859714
 30
0.0
 40
3.5
 41
0.0
 71
     7
 72
     1
  1
1
  7
CONVERTER_11
 11
0.0
 21
1.0
 31
0.0
 73
     1
 44
0.60024009603842
  0
ENDBLK
  5
16A
330
160
100
AcDbEntity
  8
0
100
AcDbBlockEnd
  0
BLOCK
  5
174
330
16D
100
AcDbEntity
  8
0
100
AcDbBlockBegin
  2
*D6
 70
     1
 71
     0
 10
0.0
 20
0.0
 30
0.0
  3
*D6
  1

  0
LINE
  5
16E
330
16D
100
AcDbEntity
  8
1
  6
Continuous
 62
     2
100
AcDbLine
 10
775.5346120683796
 20
96.0374369244128
 30
0.0
 11
733.5346120683796
 21
96.0374369244128
 31
0.0
  0
LINE
  5
16F
330
16D
100
AcDbEntity
  8
1
  6
Continuous
 62
     2
100
AcDbLine
 10
733.5346120683796
 20
131.901806804478
 30
0.0
 11
733.5346120683796
 21
94.0374369244128
 31
0.0
  0
LINE
  5
170
330
16D
100
AcDbEntity
  8
1
  6
Continuous
 62
     2
100
AcDbLine
 10
775.5346120683796
 20
121.901806804478
 30
0.0
 11
775.5346120683796
 21
94.0374369244128
 31
0.0
  0
SOLID
  5
171
330
16D
100
AcDbEntity
  8
1
 62
     2
100
AcDbTrace
 10
772.0346120683796
 20
95.57665318285692
 30
0.0
 11
772.0346120683796
 21
96.49822066596869
 31
0.0
 12
775.5346120683796
 22
96.0374369244128
 32
0.0
 13
775.5346120683796
 23
96.0374369244128
 33
0.0
  0
SOLID
  5
172
330
16D
100
AcDbEntity
  8
1
 62
     2
100
AcDbTrace
 10
737.0346120683796
 20
96.49822066596869
 30
0.0
 11
737.0346120683796
 21
95.57665318285692
 31
0.0
 12
733.5346120683796
 22
96.0374369244128
 32
0.0
 13
733.5346120683796
 23
96.0374369244128
 33
0.0
  0
MTEXT
  5
173
330
16D
100
AcDbEntity
  8
1
 62
     2
100
AcDbMText
 10
750.229843578429
 20
98.0374369244128
 30
0.0
 40
3.5
 41
0.0
 71
     7
 72
     1
  1
42
  7
CONVERTER_11
 11
0.9999999999970621
 21
2.424068405545307E-6
 31
0.0
 73
     1
 44
0.60024009603842
  0
ENDBLK
  5
175
330
16D
100
AcDbEntity
  8
0
100
AcDbBlockEnd
  0
BLOCK
  5
181
330
178
100
AcDbEntity
  8
0
100
AcDbBlockBegin
  2
*D7
 70
     1
 71
     0
 10
0.0
 20
0.0
 30
0.0
  3
*D7
  1

  0
LINE
  5
179
330
178
100
AcDbEntity
  8
1
  6
Continuous
 62
     2
100
AcDbLine
 10
779.5346120683796
 20
105.0734933793443
 30
0.0
 11
786.5346120683796
 21
105.0734933793443
 31
0.0
  0
LINE
  5
17A
330
178
100
AcDbEntity
  8
1
  6
Continuous
 62
     2
100
AcDbLine
 10
775.5346120683796
 20
105.0734933793443
 30
0.0
 11
779.5346120683796
 21
105.0734933793443
 31
0.0
  0
LINE
  5
17B
330
178
100
AcDbEntity
  8
1
  6
Continuous
 62
     2
100
AcDbLine
 10
768.5346120683796
 20
105.0734933793443
 30
0.0
 11
775.5346120683796
 21
105.0734933793443
 31
0.0
  0
LINE
  5
17C
330
178
100
AcDbEntity
  8
1
  6
Continuous
 62
     2
100
AcDbLine
 10
779.5346120683795
 20
116.901806804478
 30
0.0
 11
779.5346120683795
 21
103.0734933793443
 31
0.0
  0
LINE
  5
17D
330
178
100
AcDbEntity
  8
1
  6
Continuous
 62
     2
100
AcDbLine
 10
775.5346120683796
 20
118.401806804478
 30
0.0
 11
775.5346120683796
 21
103.0734933793443
 31
0.0
  0
SOLID
  5
17E
330
178
100
AcDbEntity
  8
1
 62
     2
100
AcDbTrace
 10
772.0346120683796
 20
104.6127096377884
 30
0.0
 11
772.0346120683796
 21
105.5342771209002
 31
0.0
 12
775.5346120683796
 22
105.0734933793443
 32
0.0
 13
775.5346120683796
 23
105.0734933793443
 33
0.0
  0
SOLID
  5
17F
330
178
100
AcDbEntity
  8
1
 62
     2
100
AcDbTrace
 10
783.0346120683796
 20
105.5342771209002
 30
0.0
 11
783.0346120683796
 21
104.6127096377884
 31
0.0
 12
779.5346120683796
 22
105.0734933793443
 32
0.0
 13
779.5346120683796
 23
105.0734933793443
 33
0.0
  0
MTEXT
  5
180
330
178
100
AcDbEntity
  8
1
 62
     2
100
AcDbMText
 10
768.6017119121841
 20
107.0734933793443
 30
0.0
 40
3.5
 41
0.0
 71
     7
 72
     1
  1
4
  7
CONVERTER_11
 11
0.9999999999970621
 21
2.424068405545307E-6
 31
0.0
 73
     1
 44
0.60024009603842
  0
ENDBLK
  5
182
330
178
100
AcDbEntity
  8
0
100
AcDbBlockEnd
  0
BLOCK
  5
18C
330
185
100
AcDbEntity
  8
0
100
AcDbBlockBegin
  2
*D8
 70
     1
 71
     0
 10
0.0
 20
0.0
 30
0.0
  3
*D8
  1

  0
LINE
  5
186
330
185
100
AcDbEntity
  8
1
  6
Continuous
 62
     2
100
AcDbLine
 10
853.3782135291495
 20
121.901806804478
 30
0.0
 11
853.3782135291495
 21
155.901806804478
 31
0.0
  0
LINE
  5
187
330
185
100
AcDbEntity
  8
1
  6
Continuous
 62
     2
100
AcDbLine
 10
822.5346120683795
 20
155.901806804478
 30
0.0
 11
855.3782135291495
 21
155.901806804478
 31
0.0
  0
LINE
  5
188
330
185
100
AcDbEntity
  8
1
  6
Continuous
 62
     2
100
AcDbLine
 10
822.5346120683795
 20
121.901806804478
 30
0.0
 11
855.3782135291495
 21
121.901806804478
 31
0.0
  0
SOLID
  5
189
330
185
100
AcDbEntity
  8
1
 62
     2
100
AcDbTrace
 10
852.9174297875936
 20
125.401806804478
 30
0.0
 11
853.8389972707055
 21
125.401806804478
 31
0.0
 12
853.3782135291495
 22
121.901806804478
 32
0.0
 13
853.3782135291495
 23
121.901806804478
 33
0.0
  0
SOLID
  5
18A
330
185
100
AcDbEntity
  8
1
 62
     2
100
AcDbTrace
 10
853.8389972707055
 20
152.401806804478
 30
0.0
 11
852.9174297875936
 21
152.401806804478
 31
0.0
 12
853.3782135291495
 22
155.901806804478
 32
0.0
 13
853.3782135291495
 23
155.901806804478
 33
0.0
  0
MTEXT
  5
18B
330
185
100
AcDbEntity
  8
1
 62
     2
100
AcDbMText
 10
851.3782135291495
 20
138.276806804478
 30
0.0
 40
3.5
 41
0.0
 71
     7
 72
     1
  1
34
  7
CONVERTER_11
 11
0.0
 21
1.0
 31
0.0
 73
     1
 44
0.60024009603842
  0
ENDBLK
  5
18D
330
185
100
AcDbEntity
  8
0
100
AcDbBlockEnd
  0
ENDSEC
  0
SECTION
  2
ENTITIES
  0
POINT
  5
36
330
1F
100
AcDbEntity
  8
A_BEMASSUNGEN
 62
     7
100
AcDbPoint
 10
782.5346120683796
 20
155.901806804478
 30
0.0
  0
POINT
  5
37
330
1F
100
AcDbEntity
  8
A_BEMASSUNGEN
 62
     7
100
AcDbPoint
 10
779.5346120683796
 20
155.901806804478
 30
0.0
  0
POINT
  5
38
330
1F
100
AcDbEntity
  8
A_BEMASSUNGEN
 62
     7
100
AcDbPoint
 10
814.5346120683795
 20
152.901806804478
 30
0.0
  0
POINT
  5
39
330
1F
100
AcDbEntity
  8
A_BEMASSUNGEN
 62
     7
100
AcDbPoint
 10
816.5346120683795
 20
150.9018068044782
 30
0.0
  0
POINT
  5
3A
330
1F
100
AcDbEntity
  8
A_BEMASSUNGEN
 62
     7
100
AcDbPoint
 10
792.7473035261796
 20
129.470732317178
 30
0.0
  0
POINT
  5
3B
330
1F
100
AcDbEntity
  8
A_BEMASSUNGEN
 62
     7
100
AcDbPoint
 10
816.5346120683795
 20
121.901806804478
 30
0.0
  0
POINT
  5
3C
330
1F
100
AcDbEntity
  8
A_BEMASSUNGEN
 62
     7
100
AcDbPoint
 10
814.5346120683795
 20
152.901806804478
 30
0.0
  0
POINT
  5
3D
330
1F
100
AcDbEntity
  8
A_BEMASSUNGEN
 62
     7
100
AcDbPoint
 10
779.5346120683795
 20
121.901806804478
 30
0.0
  0
POINT
  5
3E
330
1F
100
AcDbEntity
  8
A_BEMASSUNGEN
 62
     7
100
AcDbPoint
 10
779.5346120683796
 20
155.901806804478
 30
0.0
  0
POINT
  5
3F
330
1F
100
AcDbEntity
  8
A_BEMASSUNGEN
 62
     7
100
AcDbPoint
 10
816.5346120683795
 20
121.901806804478
 30
0.0
  0
POINT
  5
40
330
1F
100
AcDbEntity
  8
A_BEMASSUNGEN
 62
     7
100
AcDbPoint
 10
779.5346120683795
 20
121.901806804478
 30
0.0
  0
POINT
  5
41
330
1F
100
AcDbEntity
  8
A_BEMASSUNGEN
 62
     7
100
AcDbPoint
 10
779.5346120683795
 20
121.901806804478
 30
0.0
  0
POINT
  5
42
330
1F
100
AcDbEntity
  8
A_BEMASSUNGEN
 62
     7
100
AcDbPoint
 10
779.5346120683795
 20
121.901806804478
 30
0.0
  0
POINT
  5
43
330
1F
100
AcDbEntity
  8
1
 62
     3
 60
     1
100
AcDbPoint
 10
819.5346120683795
 20
124.901806804478
 30
0.0
  0
POINT
  5
44
330
1F
100
AcDbEntity
  8
A_BEMASSUNGEN
 62
     7
100
AcDbPoint
 10
740.5346120683796
 20
121.901806804478
 30
0.0
  0
LINE
  5
45
330
1F
100
AcDbEntity
  8
1
  6
DOT_CENTER
 62
     2
100
AcDbLine
 10
806.5346120683795
 20
136.8747601667144
 30
0.0
 11
806.5346120683795
 21
125.0281786397099
 31
0.0
  0
LINE
  5
46
330
1F
100
AcDbEntity
  8
1
  6
DOT_CENTER
 62
     2
100
AcDbLine
 10
812.9846120683807
 20
131.9018068044779
 30
0.0
 11
800.0846120683797
 21
131.9018068044782
 31
0.0
  0
LINE
  5
47
330
1F
100
AcDbEntity
  8
1
  6
DOT_CENTER
 62
     2
100
AcDbLine
 10
777.0346120683796
 20
155.451806804479
 30
0.0
 11
777.0346120683796
 21
140.3518068044763
 31
0.0
  0
LINE
  5
48
330
1F
100
AcDbEntity
  8
1
  6
DOT_CENTER
 62
     2
100
AcDbLine
 10
784.5846120683811
 20
147.9018068044776
 30
0.0
 11
769.484612068378
 21
147.9018068044776
 31
0.0
  0
LINE
  5
49
330
1F
100
AcDbEntity
  8
1
  6
DOT_CENTER
 62
     2
100
AcDbLine
 10
767.0346120683796
 20
135.726806804478
 30
0.0
 11
767.0346120683796
 21
120.076806804478
 31
0.0
  0
LINE
  5
4A
330
1F
100
AcDbEntity
  8
1
  6
DOT_CENTER
 62
     2
100
AcDbLine
 10
774.8596120683796
 20
127.901806804478
 30
0.0
 11
759.2096120683796
 21
127.901806804478
 31
0.0
  0
LINE
  5
4B
330
1F
100
AcDbEntity
  8
1
  6
Continuous
 62
     7
100
AcDbLine
 10
811.0346120683795
 20
143.9018068044774
 30
0.0
 11
811.0346120683795
 21
131.9018068044779
 31
0.0
  0
LINE
  5
4C
330
1F
100
AcDbEntity
  8
1
  6
DASHED
 62
     2
100
AcDbLine
 10
761.2846120683796
 20
129.2895171681629
 30
0.0
 11
768.6974741029157
 21
137.8170394597816
 31
0.0
  0
LINE
  5
4D
330
1F
100
AcDbEntity
  8
1
  6
DASHED
 62
     2
100
AcDbLine
 10
795.0346120683796
 20
153.901806804478
 30
0.0
 11
801.7013766785407
 21
147.8990249871068
 31
0.0
  0
LINE
  5
4E
330
1F
100
AcDbEntity
  8
1
  6
Continuous
 62
     7
100
AcDbLine
 10
761.2846120683796
 20
142.2726416798787
 30
0.0
 11
761.2846120683796
 21
129.2895171681629
 31
0.0
  0
LINE
  5
4F
330
1F
100
AcDbEntity
  8
1
  6
Continuous
 62
     7
100
AcDbLine
 10
771.9206510376996
 20
142.0625086808412
 30
0.0
 11
770.1336233650416
 21
141.030767772982
 31
0.0
  0
LINE
  5
50
330
1F
100
AcDbEntity
  8
1
  6
Continuous
 62
     7
100
AcDbLine
 10
806.5346120683795
 20
138.0864652429041
 30
0.0
 11
806.5346120683795
 21
142.9018068044777
 31
0.0
  0
LINE
  5
51
330
1F
100
AcDbEntity
  8
1
  6
Continuous
 62
     7
100
AcDbLine
 10
801.5346120683795
 20
147.9018068044778
 30
0.0
 11
786.8453205035526
 21
147.9018068044769
 31
0.0
  0
LINE
  5
52
330
1F
100
AcDbEntity
  8
1
  6
Continuous
 62
     7
100
AcDbLine
 10
768.9372412261457
 20
137.1175781212621
 30
0.0
 11
772.2026778345996
 21
130.4224408985152
 31
0.0
  0
LINE
  5
53
330
1F
100
AcDbEntity
  8
1
  6
Continuous
 62
     7
100
AcDbLine
 10
761.2846120683796
 20
129.2895171681629
 30
0.0
 11
761.2846120683796
 21
127.9018068044774
 31
0.0
  0
LINE
  5
54
330
1F
100
AcDbEntity
  8
1
  6
Continuous
 62
     7
100
AcDbLine
 10
764.2846120683796
 20
147.4687941025853
 30
0.0
 11
774.0346120683796
 21
153.0979592271842
 31
0.0
  0
LINE
  5
55
330
1F
100
AcDbEntity
  8
1
  6
Continuous
 62
     7
100
AcDbLine
 10
801.0346120683795
 20
153.9018068044781
 30
0.0
 11
777.0346120683796
 21
153.9018068044777
 31
0.0
  0
LINE
  5
56
330
1F
100
AcDbEntity
  8
1
  6
Continuous
 62
     7
100
AcDbLine
 10
779.5346120683796
 20
142.7174567781208
 30
0.0
 11
779.5346120683795
 21
121.901806804478
 31
0.0
  0
LINE
  5
57
330
1F
100
AcDbEntity
  8
A_RUNDUNGEN
  6
Continuous
 62
     7
100
AcDbLine
 10
805.5123362493827
 20
136.341743079956
 30
0.0
 11
793.9268198238796
 21
134.298903948678
 31
0.0
  0
LINE
  5
58
330
1F
100
AcDbEntity
  8
1
  6
DASHED
 62
     2
100
AcDbLine
 10
783.5346120683796
 20
153.9018068044778
 30
0.0
 11
783.5346120683796
 21
152.901806804478
 31
0.0
  0
LINE
  5
59
330
1F
100
AcDbEntity
  8
0
  6
Continuous
 62
     7
100
AcDbLine
 10
782.5346120683796
 20
153.9018068044777
 30
0.0
 11
782.5346120683796
 21
155.901806804478
 31
0.0
  0
LINE
  5
5A
330
1F
100
AcDbEntity
  8
A_RUNDUNGEN
  6
DASHED
 62
     2
100
AcDbLine
 10
792.3045006731246
 20
131.9819920873399
 30
0.0
 11
792.7846120683796
 21
129.2591450600303
 31
0.0
  0
LINE
  5
5B
330
1F
100
AcDbEntity
  8
0
  6
DASHED
 62
     2
100
AcDbLine
 10
782.5346120683796
 20
152.901806804478
 30
0.0
 11
782.5346120683796
 21
153.9018068044777
 31
0.0
  0
LINE
  5
5C
330
1F
100
AcDbEntity
  8
A_RUNDUNGEN
  6
Continuous
 62
     7
100
AcDbLine
 10
795.5070182405796
 20
125.337153396278
 30
0.0
 11
811.2639422887795
 21
128.115524238978
 31
0.0
  0
LINE
  5
5D
330
1F
100
AcDbEntity
  8
A_ACHSEN
  6
DOT_CENTER
 62
     2
100
AcDbLine
 10
814.0653262968195
 20
133.2296749069205
 30
0.0
 11
791.2255560155796
 21
129.202407173178
 31
0.0
  0
LINE
  5
5E
330
1F
100
AcDbEntity
  8
A_RUNDUNGEN
  6
DASHED
 62
     2
100
AcDbLine
 10
809.6837438720796
 20
137.077274791378
 30
0.0
 11
805.5123362493827
 21
136.341743079956
 31
0.0
  0
LINE
  5
5F
330
1F
100
AcDbEntity
  8
A_RUNDUNGEN
  6
Continuous
 62
     7
100
AcDbLine
 10
812.8862614395347
 20
130.432436100316
 30
0.0
 11
812.0006557334297
 21
135.4549556407152
 31
0.0
  0
LINE
  5
60
330
1F
100
AcDbEntity
  8
A_FASEN
  6
Continuous
 62
     7
100
AcDbLine
 10
816.5346120683795
 20
150.9018068044782
 30
0.0
 11
814.5346120683795
 21
152.901806804478
 31
0.0
  0
LINE
  5
61
330
1F
100
AcDbEntity
  8
1
  6
DASHED
 62
     2
100
AcDbLine
 10
782.5346120683796
 20
152.901806804478
 30
0.0
 11
783.5346120683796
 21
152.901806804478
 31
0.0
  0
LINE
  5
62
330
1F
100
AcDbEntity
  8
1
  6
Continuous
 62
     7
100
AcDbLine
 10
805.3935110119186
 20
152.901806804478
 30
0.0
 11
808.0346120683795
 21
152.901806804478
 31
0.0
  0
LINE
  5
63
330
1F
100
AcDbEntity
  8
1
  6
Continuous
 62
     7
100
AcDbLine
 10
808.0346120683795
 20
155.901806804478
 30
0.0
 11
783.5346120683796
 21
155.901806804478
 31
0.0
  0
LINE
  5
64
330
1F
100
AcDbEntity
  8
1
  6
Continuous
 62
     7
100
AcDbLine
 10
808.0346120683795
 20
152.901806804478
 30
0.0
 11
816.0346120683795
 21
152.901806804478
 31
0.0
  0
LINE
  5
65
330
1F
100
AcDbEntity
  8
1
  6
Continuous
 62
     7
100
AcDbLine
 10
808.0346120683795
 20
152.901806804478
 30
0.0
 11
808.0346120683795
 21
155.901806804478
 31
0.0
  0
LINE
  5
66
330
1F
100
AcDbEntity
  8
1
  6
Continuous
 62
     7
100
AcDbLine
 10
819.5346120683795
 20
121.901806804478
 30
0.0
 11
816.5346120683795
 21
121.901806804478
 31
0.0
  0
LINE
  5
67
330
1F
100
AcDbEntity
  8
1
  6
Continuous
 62
     7
100
AcDbLine
 10
819.5346120683795
 20
152.401806804478
 30
0.0
 11
819.5346120683795
 21
124.901806804478
 31
0.0
  0
LINE
  5
68
330
1F
100
AcDbEntity
  8
1
  6
Continuous
 62
     7
100
AcDbLine
 10
816.0346120683795
 20
155.901806804478
 30
0.0
 11
808.0346120683795
 21
155.901806804478
 31
0.0
  0
LINE
  5
69
330
1F
100
AcDbEntity
  8
1
  6
Continuous
 62
     7
100
AcDbLine
 10
816.5346120683795
 20
121.901806804478
 30
0.0
 11
779.5346120683795
 21
121.901806804478
 31
0.0
  0
LINE
  5
6A
330
1F
100
AcDbEntity
  8
1
  6
Continuous
 62
     7
100
AcDbLine
 10
816.5346120683795
 20
152.401806804478
 30
0.0
 11
816.5346120683795
 21
121.901806804478
 31
0.0
  0
LINE
  5
6B
330
1F
100
AcDbEntity
  8
1
  6
DASHED
 62
     2
100
AcDbLine
 10
783.5346120683796
 20
152.901806804478
 30
0.0
 11
805.3935110119186
 21
152.901806804478
 31
0.0
  0
LINE
  5
6C
330
1F
100
AcDbEntity
  8
1
  6
Continuous
 62
     7
100
AcDbLine
 10
783.5346120683796
 20
155.901806804478
 30
0.0
 11
779.5346120683796
 21
155.901806804478
 31
0.0
  0
LINE
  5
6D
330
1F
100
AcDbEntity
  8
1
  6
Continuous
 62
     7
100
AcDbLine
 10
783.5346120683796
 20
155.901806804478
 30
0.0
 11
783.5346120683796
 21
153.9018068044778
 31
0.0
  0
LINE
  5
6E
330
1F
100
AcDbEntity
  8
1
  6
Continuous
 62
     7
100
AcDbLine
 10
779.5346120683796
 20
155.901806804478
 30
0.0
 11
779.5346120683796
 21
153.9018068044777
 31
0.0
  0
LINE
  5
6F
330
1F
100
AcDbEntity
  8
1
  6
Continuous
 62
     3
100
AcDbLine
 10
822.5346120683795
 20
121.901806804478
 30
0.0
 11
819.5346120683795
 21
121.901806804478
 31
0.0
  0
LINE
  5
70
330
1F
100
AcDbEntity
  8
A_RUNDUNGEN
  6
Continuous
 62
     7
100
AcDbLine
 10
792.7846120683796
 20
129.2591450600303
 30
0.0
 11
793.1901063792296
 21
126.9594725469408
 31
0.0
  0
LINE
  5
71
330
1F
100
AcDbEntity
  8
1
  6
Continuous
 62
     7
100
AcDbLine
 10
819.5346120683795
 20
124.901806804478
 30
0.0
 11
819.5346120683795
 21
121.901806804478
 31
0.0
  0
LINE
  5
72
330
1F
100
AcDbEntity
  8
1
  6
DOT_CENTER
 62
     2
100
AcDbLine
 10
787.0346120683796
 20
135.726806804478
 30
0.0
 11
787.0346120683796
 21
120.076806804478
 31
0.0
  0
LINE
  5
73
330
1F
100
AcDbEntity
  8
1
  6
DOT_CENTER
 62
     2
100
AcDbLine
 10
794.8596120683796
 20
127.901806804478
 30
0.0
 11
779.2096120683796
 21
127.901806804478
 31
0.0
  0
LINE
  5
74
330
1F
100
AcDbEntity
  8
1
  6
DOT_CENTER
 62
     2
100
AcDbLine
 10
747.5346120683796
 20
125.4518068044799
 30
0.0
 11
747.5346120683796
 21
138.3518068044797
 31
0.0
  0
LINE
  5
75
330
1F
100
AcDbEntity
  8
1
  6
DOT_CENTER
 62
     2
100
AcDbLine
 10
753.9846120683796
 20
131.9018068044798
 30
0.0
 11
741.0846120683791
 21
131.9018068044796
 31
0.0
  0
LINE
  5
76
330
1F
100
AcDbEntity
  8
1
  6
DASHED
 62
     2
100
AcDbLine
 10
789.0346120683806
 20
147.9018068044771
 30
0.0
 11
780.0346120683796
 21
153.0979592271844
 31
0.0
  0
LINE
  5
77
330
1F
100
AcDbEntity
  8
1
  6
Continuous
 62
     7
100
AcDbLine
 10
765.0346120683799
 20
147.9018068044778
 30
0.0
 11
752.5346120683796
 21
147.9018068044777
 31
0.0
  0
LINE
  5
78
330
1F
100
AcDbEntity
  8
1
  6
Continuous
 62
     7
100
AcDbLine
 10
792.7846120683796
 20
129.2895171681629
 30
0.0
 11
792.7846120683796
 21
142.2726416798789
 31
0.0
  0
LINE
  5
79
330
1F
100
AcDbEntity
  8
1
  6
Continuous
 62
     7
100
AcDbLine
 10
792.7846120683796
 20
129.2895171681629
 30
0.0
 11
785.3717500338436
 21
137.8170394597814
 31
0.0
  0
LINE
  5
7A
330
1F
100
AcDbEntity
  8
1
  6
Continuous
 62
     7
100
AcDbLine
 10
789.7846120683796
 20
147.4687941025855
 30
0.0
 11
789.0346120683806
 21
147.9018068044771
 31
0.0
  0
LINE
  5
7B
330
1F
100
AcDbEntity
  8
1
  6
Continuous
 62
     7
100
AcDbLine
 10
785.1319829106136
 20
137.1175781212633
 30
0.0
 11
781.8665463021596
 21
130.4224408985152
 31
0.0
  0
LINE
  5
7C
330
1F
100
AcDbEntity
  8
1
  6
Continuous
 62
     7
100
AcDbLine
 10
783.9356007717156
 20
141.0307677729841
 30
0.0
 11
782.1485730990596
 21
142.0625086808413
 31
0.0
  0
LINE
  5
7D
330
1F
100
AcDbEntity
  8
1
  6
Continuous
 62
     7
100
AcDbLine
 10
777.0346120683796
 20
153.9018068044777
 30
0.0
 11
753.0346120683797
 21
153.9018068044781
 31
0.0
  0
LINE
  5
7E
330
1F
100
AcDbEntity
  8
1
  6
Continuous
 62
     7
100
AcDbLine
 10
792.7846120683796
 20
127.9018068044773
 30
0.0
 11
792.7846120683796
 21
129.2895171681629
 31
0.0
  0
LINE
  5
7F
330
1F
100
AcDbEntity
  8
1
  6
Continuous
 62
     7
100
AcDbLine
 10
743.0346120683796
 20
131.9018068044796
 30
0.0
 11
743.0346120683796
 21
143.9018068044781
 31
0.0
  0
LINE
  5
80
330
1F
100
AcDbEntity
  8
1
  6
Continuous
 62
     7
100
AcDbLine
 10
747.5346120683796
 20
142.9018068044777
 30
0.0
 11
747.5346120683796
 21
138.0864652429065
 31
0.0
  0
LINE
  5
81
330
1F
100
AcDbEntity
  8
1
  6
DASHED
 62
     2
100
AcDbLine
 10
767.2239036332037
 20
147.9018068044778
 30
0.0
 11
765.0346120683799
 21
147.9018068044778
 31
0.0
  0
LINE
  5
82
330
1F
100
AcDbEntity
  8
1
  6
Continuous
 62
     7
100
AcDbLine
 10
736.0346120683796
 20
124.951806804478
 30
0.0
 11
736.0346120683796
 21
117.4018068044778
 31
0.0
  0
LINE
  5
83
330
1F
100
AcDbEntity
  8
1
  6
Continuous
 62
     7
100
AcDbLine
 10
733.5346120683796
 20
131.901806804478
 30
0.0
 11
733.5346120683796
 21
117.4018068044778
 31
0.0
  0
LINE
  5
84
330
1F
100
AcDbEntity
  8
1
  6
Continuous
 62
     7
100
AcDbLine
 10
765.5346120683796
 20
159.9018068044778
 30
0.0
 11
762.0346120683796
 21
159.9018068044778
 31
0.0
  0
LINE
  5
85
330
1F
100
AcDbEntity
  8
1
  6
Continuous
 62
     7
100
AcDbLine
 10
762.0346120683796
 20
159.9018068044778
 30
0.0
 11
736.5346120683796
 21
159.9018068044778
 31
0.0
  0
LINE
  5
86
330
1F
100
AcDbEntity
  8
1
  6
Continuous
 62
     7
100
AcDbLine
 10
773.0346120683796
 20
157.4018068044778
 30
0.0
 11
765.7846120683796
 21
157.4018068044778
 31
0.0
  0
LINE
  5
87
330
1F
100
AcDbEntity
  8
1
  6
Continuous
 62
     7
100
AcDbLine
 10
733.5346120683796
 20
156.9018068044778
 30
0.0
 11
733.5346120683796
 21
131.901806804478
 31
0.0
  0
LINE
  5
88
330
1F
100
AcDbEntity
  8
1
  6
Continuous
 62
     7
100
AcDbLine
 10
736.0346120683796
 20
156.4018068044778
 30
0.0
 11
736.0346120683796
 21
124.951806804478
 31
0.0
  0
LINE
  5
89
330
1F
100
AcDbEntity
  8
1
  6
Continuous
 62
     7
100
AcDbLine
 10
760.5346120683796
 20
120.901806804478
 30
0.0
 11
760.5346120683796
 21
117.4018068044778
 31
0.0
  0
LINE
  5
8A
330
1F
100
AcDbEntity
  8
1
  6
Continuous
 62
     7
100
AcDbLine
 10
760.5346120683796
 20
120.901806804478
 30
0.0
 11
760.5346120683796
 21
117.4018068044778
 31
0.0
  0
LINE
  5
8B
330
1F
100
AcDbEntity
  8
1
  6
Continuous
 62
     7
100
AcDbLine
 10
762.0346120683796
 20
160.1018068044778
 30
0.0
 11
762.0346120683796
 21
162.1018068044778
 31
0.0
  0
LINE
  5
8C
330
1F
100
AcDbEntity
  8
1
  6
Continuous
 62
     7
100
AcDbLine
 10
765.5346120683796
 20
160.1018068044778
 30
0.0
 11
765.5346120683796
 21
159.9018068044778
 31
0.0
  0
LINE
  5
8D
330
1F
100
AcDbEntity
  8
1
  6
Continuous
 62
     7
100
AcDbLine
 10
765.5346120683796
 20
160.1018068044778
 30
0.0
 11
762.0346120683796
 21
160.1018068044778
 31
0.0
  0
LINE
  5
8E
330
1F
100
AcDbEntity
  8
1
  6
Continuous
 62
     7
100
AcDbLine
 10
762.0346120683796
 20
162.1018068044778
 30
0.0
 11
765.5346120683796
 21
162.1018068044778
 31
0.0
  0
LINE
  5
8F
330
1F
100
AcDbEntity
  8
1
  6
Continuous
 62
     7
100
AcDbLine
 10
750.5346120683796
 20
117.4018068044778
 30
0.0
 11
750.5346120683796
 21
120.901806804478
 31
0.0
  0
LINE
  5
90
330
1F
100
AcDbEntity
  8
1
  6
Continuous
 62
     7
100
AcDbLine
 10
765.5346120683796
 20
162.1018068044778
 30
0.0
 11
765.5346120683796
 21
160.1018068044778
 31
0.0
  0
LINE
  5
91
330
1F
100
AcDbEntity
  8
1
  6
Continuous
 62
     7
100
AcDbLine
 10
762.0346120683796
 20
159.9018068044778
 30
0.0
 11
762.0346120683796
 21
160.1018068044778
 31
0.0
  0
LINE
  5
92
330
1F
100
AcDbEntity
  8
1
  6
Continuous
 62
     7
100
AcDbLine
 10
733.5346120683796
 20
117.4018068044778
 30
0.0
 11
736.0346120683796
 21
117.4018068044778
 31
0.0
  0
LINE
  5
93
330
1F
100
AcDbEntity
  8
1
  6
Continuous
 62
     7
100
AcDbLine
 10
771.5346120683796
 20
117.4018068044778
 30
0.0
 11
771.5346120683796
 21
120.901806804478
 31
0.0
  0
LINE
  5
94
330
1F
100
AcDbEntity
  8
1
  6
Continuous
 62
     7
100
AcDbLine
 10
773.0346120683796
 20
159.9018068044778
 30
0.0
 11
765.7846120683796
 21
159.9018068044778
 31
0.0
  0
LINE
  5
95
330
1F
100
AcDbEntity
  8
1
  6
Continuous
 62
     7
100
AcDbLine
 10
774.0346120683796
 20
157.4018068044778
 30
0.0
 11
773.0346120683796
 21
157.4018068044778
 31
0.0
  0
LINE
  5
96
330
1F
100
AcDbEntity
  8
1
  6
Continuous
 62
     7
100
AcDbLine
 10
773.0346120683796
 20
157.4018068044778
 30
0.0
 11
773.0346120683796
 21
159.9018068044778
 31
0.0
  0
LINE
  5
97
330
1F
100
AcDbEntity
  8
1
  6
Continuous
 62
     7
100
AcDbLine
 10
736.0346120683796
 20
156.9018068044778
 30
0.0
 11
736.0346120683796
 21
156.4018068044778
 31
0.0
  0
LINE
  5
98
330
1F
100
AcDbEntity
  8
1
  6
Continuous
 62
     7
100
AcDbLine
 10
765.7846120683796
 20
159.9018068044778
 30
0.0
 11
765.5346120683796
 21
159.9018068044778
 31
0.0
  0
LINE
  5
99
330
1F
100
AcDbEntity
  8
1
  6
Continuous
 62
     7
100
AcDbLine
 10
765.7846120683796
 20
157.4018068044778
 30
0.0
 11
736.5346120683796
 21
157.4018068044778
 31
0.0
  0
LINE
  5
9A
330
1F
100
AcDbEntity
  8
1
  6
Continuous
 62
     7
100
AcDbLine
 10
750.3346120683797
 20
117.4018068044778
 30
0.0
 11
750.3346120683797
 21
120.901806804478
 31
0.0
  0
LINE
  5
9B
330
1F
100
AcDbEntity
  8
1
  6
Continuous
 62
     7
100
AcDbLine
 10
779.5346120683796
 20
155.901806804478
 30
0.0
 11
779.5346120683796
 21
153.9018068044777
 31
0.0
  0
LINE
  5
9C
330
1F
100
AcDbEntity
  8
1
  6
Continuous
 62
     7
100
AcDbLine
 10
822.5346120683795
 20
155.901806804478
 30
0.0
 11
822.5346120683795
 21
124.951806804478
 31
0.0
  0
LINE
  5
9D
330
1F
100
AcDbEntity
  8
1
  6
Continuous
 62
     7
100
AcDbLine
 10
822.5346120683795
 20
155.901806804478
 30
0.0
 11
779.5346120683796
 21
155.901806804478
 31
0.0
  0
LINE
  5
9E
330
1F
100
AcDbEntity
  8
1
  6
Continuous
 62
     7
100
AcDbLine
 10
822.5346120683795
 20
124.951806804478
 30
0.0
 11
822.5346120683795
 21
121.901806804478
 31
0.0
  0
LINE
  5
9F
330
1F
100
AcDbEntity
  8
1
  6
Continuous
 62
     7
100
AcDbLine
 10
779.5346120683795
 20
161.901806804478
 30
0.0
 11
779.5346120683796
 21
155.901806804478
 31
0.0
  0
LINE
  5
A0
330
1F
100
AcDbEntity
  8
1
  6
DOT_CENTER
 62
     2
100
AcDbLine
 10
833.7846120683785
 20
116.901806804478
 30
0.0
 11
833.7846120683785
 21
113.901806804478
 31
0.0
  0
LINE
  5
A1
330
1F
100
AcDbEntity
  8
1
  6
Continuous
 62
     3
100
AcDbLine
 10
779.5346120683795
 20
121.901806804478
 30
0.0
 11
779.5346120683795
 21
116.901806804478
 31
0.0
  0
LINE
  5
A2
330
1F
100
AcDbEntity
  8
1
  6
Continuous
 62
     7
100
AcDbLine
 10
779.5346120683795
 20
116.901806804478
 30
0.0
 11
833.7846120683785
 21
116.901806804478
 31
0.0
  0
LINE
  5
A3
330
1F
100
AcDbEntity
  8
1
  6
DOT_CENTER
 62
     2
100
AcDbLine
 10
833.7846120683785
 20
161.901806804478
 30
0.0
 11
833.7846120683785
 21
164.6534618056132
 31
0.0
  0
LINE
  5
A4
330
1F
100
AcDbEntity
  8
1
  6
PHANTOM
 62
     2
100
AcDbLine
 10
833.7846120683785
 20
116.901806804478
 30
0.0
 11
833.7846120683785
 21
161.901806804478
 31
0.0
  0
LINE
  5
A5
330
1F
100
AcDbEntity
  8
1
  6
Continuous
 62
     7
100
AcDbLine
 10
779.5346120683795
 20
161.901806804478
 30
0.0
 11
833.7846120683785
 21
161.901806804478
 31
0.0
  0
LINE
  5
A6
330
1F
100
AcDbEntity
  8
1
  6
Continuous
 62
     7
100
AcDbLine
 10
773.5346120683796
 20
156.901806804478
 30
0.0
 11
774.0346120683796
 21
156.901806804478
 31
0.0
  0
LINE
  5
A7
330
1F
100
AcDbEntity
  8
1
  6
Continuous
 62
     7
100
AcDbLine
 10
774.0346120683796
 20
156.901806804478
 30
0.0
 11
775.5346120683796
 21
156.901806804478
 31
0.0
  0
LINE
  5
A8
330
1F
100
AcDbEntity
  8
1
  6
Continuous
 62
     7
100
AcDbLine
 10
774.0346120683796
 20
156.901806804478
 30
0.0
 11
774.0346120683796
 21
178.401806804478
 31
0.0
  0
LINE
  5
A9
330
1F
100
AcDbEntity
  8
1
  6
Continuous
 62
     7
100
AcDbLine
 10
774.0346120683796
 20
118.401806804478
 30
0.0
 11
774.0346120683796
 21
120.901806804478
 31
0.0
  0
LINE
  5
AA
330
1F
100
AcDbEntity
  8
1
  6
Continuous
 62
     7
100
AcDbLine
 10
775.5346120683796
 20
120.901806804478
 30
0.0
 11
775.5346120683796
 21
118.401806804478
 31
0.0
  0
LINE
  5
AB
330
1F
100
AcDbEntity
  8
1
  6
Continuous
 62
     7
100
AcDbLine
 10
775.5346120683798
 20
163.901806804478
 30
0.0
 11
775.5346120683796
 21
156.901806804478
 31
0.0
  0
LINE
  5
AC
330
1F
100
AcDbEntity
  8
1
  6
Continuous
 62
     7
100
AcDbLine
 10
788.7846120683785
 20
167.401806804478
 30
0.0
 11
788.7846120683785
 21
192.4945096421785
 31
0.0
  0
LINE
  5
AD
330
1F
100
AcDbEntity
  8
1
  6
Continuous
 62
     7
100
AcDbLine
 10
790.2846120683785
 20
166.901806804478
 30
0.0
 11
790.2846120683785
 21
192.4945096421785
 31
0.0
  0
LINE
  5
AE
330
1F
100
AcDbEntity
  8
1
  6
Continuous
 62
     7
100
AcDbLine
 10
786.2737487162408
 20
164.901806804478
 30
0.0
 11
788.2846120683785
 21
164.901806804478
 31
0.0
  0
LINE
  5
AF
330
1F
100
AcDbEntity
  8
1
  6
Continuous
 62
     7
100
AcDbLine
 10
786.9253614026616
 20
166.401806804478
 30
0.0
 11
787.7846120683785
 21
166.401806804478
 31
0.0
  0
LINE
  5
B0
330
1F
100
AcDbEntity
  8
1
  6
Continuous
 62
     7
100
AcDbLine
 10
788.7335008078121
 20
178.0135782368242
 30
0.0
 11
785.9594355763722
 21
167.6606258495805
 31
0.0
  0
LINE
  5
B1
330
1F
100
AcDbEntity
  8
1
  6
Continuous
 62
     7
100
AcDbLine
 10
775.5346120683796
 20
179.9018068044779
 30
0.0
 11
787.2846120683785
 21
179.901806804478
 31
0.0
  0
LINE
  5
B2
330
1F
100
AcDbEntity
  8
1
  6
Continuous
 62
     7
100
AcDbLine
 10
787.1159622951025
 20
177.7723972819267
 30
0.0
 11
786.2727134287222
 21
174.6253496691705
 31
0.0
  0
LINE
  5
B3
330
1F
100
AcDbEntity
  8
1
  6
Continuous
 62
     7
100
AcDbLine
 10
776.0346120683796
 20
178.401806804478
 30
0.0
 11
778.5346120683796
 21
178.401806804478
 31
0.0
  0
LINE
  5
B4
330
1F
100
AcDbEntity
  8
1
  6
Continuous
 62
     7
100
AcDbLine
 10
775.5346120683798
 20
163.901806804478
 30
0.0
 11
775.5346120683796
 21
175.401806804478
 31
0.0
  0
LINE
  5
B5
330
1F
100
AcDbEntity
  8
1
  6
Continuous
 62
     7
100
AcDbLine
 10
777.5346120683796
 20
161.901806804478
 30
0.0
 11
785.0905327596208
 21
161.901806804478
 31
0.0
  0
LINE
  5
B6
330
1F
100
AcDbEntity
  8
1
  6
Continuous
 62
     7
100
AcDbLine
 10
778.5346120683796
 20
178.401806804478
 30
0.0
 11
783.374935949855
 21
178.401806804478
 31
0.0
  0
LINE
  5
B7
330
1F
100
AcDbEntity
  8
1
  6
Continuous
 62
     7
100
AcDbLine
 10
775.5346120683796
 20
175.401806804478
 30
0.0
 11
775.5346120683796
 21
177.901806804478
 31
0.0
  0
LINE
  5
B8
330
1F
100
AcDbEntity
  8
1
  6
Continuous
 62
     7
100
AcDbLine
 10
783.374935949855
 20
178.401806804478
 30
0.0
 11
786.6329993819579
 21
178.401806804478
 31
0.0
  0
LINE
  5
B9
330
1F
100
AcDbEntity
  8
1
  6
Continuous
 62
     7
100
AcDbLine
 10
786.2727134287222
 20
174.6253496691705
 30
0.0
 11
784.3418970636628
 21
167.419444894683
 31
0.0
  0
LINE
  5
BA
330
1F
100
AcDbEntity
  8
1
  6
Continuous
 62
     7
100
AcDbLine
 10
777.5346120683796
 20
162.901806804478
 30
0.0
 11
785.0905327596208
 21
162.901806804478
 31
0.0
  0
LINE
  5
BB
330
1F
100
AcDbEntity
  8
1
  6
Continuous
 62
     7
100
AcDbLine
 10
776.5346120683798
 20
163.9018068044779
 30
0.0
 11
776.5346120683796
 21
175.401806804478
 31
0.0
  0
LINE
  5
BC
330
1F
100
AcDbEntity
  8
1
  6
Continuous
 62
     7
100
AcDbLine
 10
778.5346120683796
 20
177.401806804478
 30
0.0
 11
783.374935949855
 21
177.401806804478
 31
0.0
  0
LINE
  5
BD
330
1F
100
AcDbEntity
  8
1
  6
Continuous
 62
     7
100
AcDbLine
 10
785.3067876024331
 20
174.8841687142729
 30
0.0
 11
783.3759712373735
 21
167.6782639397855
 31
0.0
  0
LINE
  5
BE
330
1F
100
AcDbEntity
  8
1
  6
Continuous
 62
     7
100
AcDbLine
 10
729.0346120683796
 20
129.901806804478
 30
0.0
 11
729.0346120683796
 21
118.4018068044779
 31
0.0
  0
LINE
  5
BF
330
1F
100
AcDbEntity
  8
1
  6
Continuous
 62
     7
100
AcDbLine
 10
731.5346120683796
 20
115.901806804478
 30
0.0
 11
773.0346120683796
 21
115.901806804478
 31
0.0
  0
LINE
  5
C0
330
1F
100
AcDbEntity
  8
1
  6
Continuous
 62
     7
100
AcDbLine
 10
773.0346120683796
 20
117.401806804478
 30
0.0
 11
731.5346120683796
 21
117.4018068044779
 31
0.0
  0
LINE
  5
C1
330
1F
100
AcDbEntity
  8
1
  6
Continuous
 62
     7
100
AcDbLine
 10
730.5346120683796
 20
118.4018068044779
 30
0.0
 11
730.5346120683796
 21
129.9018068044779
 31
0.0
  0
LINE
  5
C2
330
1F
100
AcDbEntity
  8
1
  6
Continuous
 62
     7
100
AcDbLine
 10
729.0346120683796
 20
129.901806804478
 30
0.0
 11
730.5346120683796
 21
129.9018068044779
 31
0.0
  0
LINE
  5
C3
330
1F
100
AcDbEntity
  8
1
  6
Continuous
 62
     7
100
AcDbLine
 10
775.5346120683796
 20
120.901806804478
 30
0.0
 11
775.5346120683796
 21
141.670369752102
 31
0.0
  0
LINE
  5
C4
330
1F
100
AcDbEntity
  8
1
  6
Continuous
 62
     7
100
AcDbLine
 10
774.0346120683796
 20
120.901806804478
 30
0.0
 11
775.5346120683796
 21
120.901806804478
 31
0.0
  0
LINE
  5
C5
330
1F
100
AcDbEntity
  8
0
  6
Continuous
 62
     7
100
AcDbLine
 10
749.478797069996
 20
126.9388034491236
 30
0.0
 11
760.5346120683796
 21
124.9893649712255
 31
0.0
  0
LINE
  5
C6
330
1F
100
AcDbEntity
  8
0
  6
Continuous
 62
     7
100
AcDbLine
 10
744.0666543186206
 20
127.893110239618
 30
0.0
 11
748.7860599494352
 21
127.0609516940143
 31
0.0
  0
LINE
  5
C7
330
1F
100
AcDbEntity
  8
0
  6
DASHED
 62
     2
100
AcDbLine
 10
748.5568878874335
 20
136.3417430799264
 30
0.0
 11
743.0346120683796
 21
137.315469301748
 31
0.0
  0
LINE
  5
C8
330
1F
100
AcDbEntity
  8
0
  6
Continuous
 62
     7
100
AcDbLine
 10
743.0346120683796
 20
137.315469301748
 30
0.0
 11
740.5346120683796
 21
137.844450243878
 31
0.0
  0
LINE
  5
C9
330
1F
100
AcDbEntity
  8
0
  6
Continuous
 62
     7
100
AcDbLine
 10
775.5346120683796
 20
153.9018068044777
 30
0.0
 11
775.5346120683796
 21
155.901806804478
 31
0.0
  0
LINE
  5
CA
330
1F
100
AcDbEntity
  8
1
  6
Continuous
 62
     7
100
AcDbLine
 10
740.5346120683796
 20
128.604068075678
 30
0.0
 11
740.5346120683796
 21
121.901806804478
 31
0.0
  0
LINE
  5
CB
330
1F
100
AcDbEntity
  8
1
  6
Continuous
 62
     7
100
AcDbLine
 10
740.5346120683796
 20
137.844450243878
 30
0.0
 11
740.5346120683796
 21
128.604068075678
 31
0.0
  0
LINE
  5
CC
330
1F
100
AcDbEntity
  8
1
  6
Continuous
 62
     7
100
AcDbLine
 10
775.5346120683796
 20
155.901806804478
 30
0.0
 11
775.5346120683796
 21
156.901806804478
 31
0.0
  0
LINE
  5
CD
330
1F
100
AcDbEntity
  8
0
  6
Continuous
 62
     7
100
AcDbLine
 10
775.5346120683796
 20
121.901806804478
 30
0.0
 11
740.5346120683796
 21
121.901806804478
 31
0.0
  0
LINE
  5
CE
330
1F
100
AcDbEntity
  8
1
  6
Continuous
 62
     7
100
AcDbLine
 10
775.5346120683796
 20
121.901806804478
 30
0.0
 11
775.5346120683796
 21
120.901806804478
 31
0.0
  0
LINE
  5
CF
330
1F
100
AcDbEntity
  8
0
  6
Continuous
 62
     7
100
AcDbLine
 10
740.5346120683796
 20
128.604068075678
 30
0.0
 11
744.0666543186206
 21
127.893110239618
 31
0.0
  0
LINE
  5
D0
330
1F
100
AcDbEntity
  8
0
  6
Continuous
 62
     7
100
AcDbLine
 10
760.5346120683796
 20
134.229747139323
 30
0.0
 11
760.5346120683796
 21
124.9893649712255
 31
0.0
  0
LINE
  5
D1
330
1F
100
AcDbEntity
  8
1
  6
Continuous
 62
     7
100
AcDbLine
 10
775.5346120683796
 20
156.901806804478
 30
0.0
 11
740.5346120683796
 21
156.901806804478
 31
0.0
  0
LINE
  5
D2
330
1F
100
AcDbEntity
  8
1
  6
Continuous
 62
     7
100
AcDbLine
 10
740.5346120683796
 20
121.901806804478
 30
0.0
 11
737.5346120683796
 21
121.901806804478
 31
0.0
  0
LINE
  5
D3
330
1F
100
AcDbEntity
  8
1
  6
Continuous
 62
     7
100
AcDbLine
 10
737.5346120683796
 20
121.901806804478
 30
0.0
 11
737.5346120683796
 21
131.901806804478
 31
0.0
  0
LINE
  5
D4
330
1F
100
AcDbEntity
  8
1
  6
Continuous
 62
     7
100
AcDbLine
 10
741.0346120683796
 20
155.901806804478
 30
0.0
 11
747.0346120683796
 21
155.901806804478
 31
0.0
  0
LINE
  5
D5
330
1F
100
AcDbEntity
  8
1
  6
Continuous
 62
     7
100
AcDbLine
 10
770.5346120683796
 20
155.901806804478
 30
0.0
 11
770.5346120683796
 21
153.9018068044778
 31
0.0
  0
LINE
  5
D6
330
1F
100
AcDbEntity
  8
1
  6
DASHED
 62
     2
100
AcDbLine
 10
770.5346120683796
 20
152.901806804478
 30
0.0
 11
748.1757131248388
 21
152.901806804478
 31
0.0
  0
LINE
  5
D7
330
1F
100
AcDbEntity
  8
1
  6
Continuous
 62
     7
100
AcDbLine
 10
740.5346120683796
 20
152.401806804478
 30
0.0
 11
740.5346120683796
 21
137.844450243878
 31
0.0
  0
LINE
  5
D8
330
1F
100
AcDbEntity
  8
1
  6
Continuous
 62
     7
100
AcDbLine
 10
747.0346120683796
 20
152.901806804478
 30
0.0
 11
747.0346120683796
 21
155.901806804478
 31
0.0
  0
LINE
  5
D9
330
1F
100
AcDbEntity
  8
1
  6
Continuous
 62
     7
100
AcDbLine
 10
747.0346120683796
 20
155.901806804478
 30
0.0
 11
770.5346120683796
 21
155.901806804478
 31
0.0
  0
LINE
  5
DA
330
1F
100
AcDbEntity
  8
1
  6
Continuous
 62
     7
100
AcDbLine
 10
747.0346120683796
 20
152.901806804478
 30
0.0
 11
741.0346120683796
 21
152.901806804478
 31
0.0
  0
LINE
  5
DB
330
1F
100
AcDbEntity
  8
1
  6
Continuous
 62
     7
100
AcDbLine
 10
741.0346120683796
 20
155.901806804478
 30
0.0
 11
740.5346120683796
 21
155.901806804478
 31
0.0
  0
LINE
  5
DC
330
1F
100
AcDbEntity
  8
1
  6
Continuous
 62
     7
100
AcDbLine
 10
740.5346120683796
 20
155.901806804478
 30
0.0
 11
740.5346120683796
 21
156.901806804478
 31
0.0
  0
LINE
  5
DD
330
1F
100
AcDbEntity
  8
1
  6
Continuous
 62
     7
100
AcDbLine
 10
740.5346120683796
 20
155.901806804478
 30
0.0
 11
740.5346120683796
 21
155.8659084196158
 31
0.0
  0
LINE
  5
DE
330
1F
100
AcDbEntity
  8
1
  6
Continuous
 62
     7
100
AcDbLine
 10
740.5346120683796
 20
121.901806804478
 30
0.0
 11
740.5346120683796
 21
120.901806804478
 31
0.0
  0
LINE
  5
DF
330
1F
100
AcDbEntity
  8
1
  6
Continuous
 62
     7
100
AcDbLine
 10
740.5346120683796
 20
120.901806804478
 30
0.0
 11
775.5346120683796
 21
120.901806804478
 31
0.0
  0
LINE
  5
E0
330
1F
100
AcDbEntity
  8
0
  6
Continuous
 62
     7
100
AcDbLine
 10
754.0346120683796
 20
155.901806804478
 30
0.0
 11
754.0346120683796
 21
153.9018068044781
 31
0.0
  0
LINE
  5
E1
330
1F
100
AcDbEntity
  8
0
  6
Continuous
 62
     7
100
AcDbLine
 10
760.5346120683796
 20
124.9893649712255
 30
0.0
 11
760.5346120683796
 21
121.901806804478
 31
0.0
  0
LINE
  5
E2
330
1F
100
AcDbEntity
  8
0
  6
Continuous
 62
     7
100
AcDbLine
 10
770.5346120683796
 20
155.901806804478
 30
0.0
 11
775.5346120683796
 21
155.901806804478
 31
0.0
  0
LINE
  5
E3
330
1F
100
AcDbEntity
  8
0
  6
Continuous
 62
     7
100
AcDbLine
 10
760.5346120683796
 20
134.229747139323
 30
0.0
 11
748.5568878874335
 21
136.3417430799264
 31
0.0
  0
LINE
  5
E4
330
1F
100
AcDbEntity
  8
0
  6
DASHED
 62
     2
100
AcDbLine
 10
760.5346120683796
 20
152.901806804478
 30
0.0
 11
760.5346120683796
 21
147.9018068044778
 31
0.0
  0
LINE
  5
E5
330
1F
100
AcDbEntity
  8
A_ACHSEN
  6
DOT_CENTER
 62
     2
100
AcDbLine
 10
761.9821519753796
 20
129.354315713978
 30
0.0
 11
736.9344833953796
 21
133.770895488478
 31
0.0
  0
LINE
  5
E6
330
1F
100
AcDbEntity
  8
1
  6
Continuous
 62
     7
100
AcDbLine
 10
748.1757131248388
 20
152.901806804478
 30
0.0
 11
747.0346120683796
 21
152.901806804478
 31
0.0
  0
LINE
  5
E7
330
1F
100
AcDbEntity
  8
0
  6
DASHED
 62
     2
100
AcDbLine
 10
754.0346120683796
 20
153.9018068044781
 30
0.0
 11
754.0346120683796
 21
152.901806804478
 31
0.0
  0
LINE
  5
E8
330
1F
100
AcDbEntity
  8
1
  6
DASHED
 62
     2
100
AcDbLine
 10
770.5346120683796
 20
153.9018068044778
 30
0.0
 11
770.5346120683796
 21
152.901806804478
 31
0.0
  0
LINE
  5
E9
330
1F
100
AcDbEntity
  8
0
  6
Continuous
 62
     7
100
AcDbLine
 10
760.5346120683796
 20
147.9018068044778
 30
0.0
 11
760.5346120683796
 21
134.229747139323
 31
0.0
  0
LINE
  5
EA
330
1F
100
AcDbEntity
  8
1
  6
Continuous
 62
     7
100
AcDbLine
 10
737.5346120683796
 20
131.901806804478
 30
0.0
 11
737.5346120683796
 21
152.401806804478
 31
0.0
  0
LINE
  5
EB
330
1F
100
AcDbEntity
  8
0
  6
Continuous
 62
     7
100
AcDbLine
 10
775.5346120683796
 20
121.901806804478
 30
0.0
 11
775.5346120683796
 21
142.60671144376
 31
0.0
  0
ARC
  5
EC
330
1F
100
AcDbEntity
  8
1
  6
Continuous
 62
     7
100
AcDbCircle
 10
806.5346120683795
 20
131.9018068044779
 30
0.0
 40
4.499999999999594
100
AcDbArc
 50
107.920213139386
 51
0.0
  0
ARC
  5
ED
330
1F
100
AcDbEntity
  8
1
  6
Continuous
 62
     7
100
AcDbCircle
 10
777.0346120683796
 20
147.9018068044778
 30
0.0
 40
5.499999999999911
100
AcDbArc
 50
-104.415308597187
 51
-31.44898138938459
  0
ARC
  5
EE
330
1F
100
AcDbEntity
  8
1
  6
Continuous
 62
     7
100
AcDbCircle
 10
767.0346120683796
 20
127.901806804478
 30
0.0
 40
5.75
100
AcDbArc
 50
-179.9999999999941
 51
26.00000000000078
  0
ARC
  5
EF
330
1F
100
AcDbEntity
  8
A_RUNDUNGEN
  6
Continuous
 62
     7
100
AcDbCircle
 10
810.0310402273795
 20
135.107659285378
 30
0.0
 40
2.000000000025881
100
AcDbArc
 50
9.99999999996702
 51
59.88177394366735
  0
ARC
  5
F0
330
1F
100
AcDbEntity
  8
A_RUNDUNGEN
  6
DASHED
 62
     2
100
AcDbCircle
 10
794.2741161791796
 20
132.329288442678
 30
0.0
 40
2.000000000030813
100
AcDbArc
 50
138.1378067845268
 51
-170.0000000000325
  0
ARC
  5
F1
330
1F
100
AcDbEntity
  8
A_RUNDUNGEN
  6
Continuous
 62
     7
100
AcDbCircle
 10
795.1597218852796
 20
127.306768902278
 30
0.0
 40
2.000000000025764
100
AcDbArc
 50
-170.0000000000332
 51
-80.00000000083574
  0
ARC
  5
F2
330
1F
100
AcDbEntity
  8
A_RUNDUNGEN
  6
DASHED
 62
     2
100
AcDbCircle
 10
810.0310402273795
 20
135.107659285378
 30
0.0
 40
1.999999999970086
100
AcDbArc
 50
59.88177394366735
 51
99.99999999916426
  0
ARC
  5
F3
330
1F
100
AcDbEntity
  8
A_RUNDUNGEN
  6
Continuous
 62
     7
100
AcDbCircle
 10
810.9166459334796
 20
130.085139744978
 30
0.0
 40
1.99999999997006
100
AcDbArc
 50
-80.00000000083574
 51
9.99999999996458
  0
ARC
  5
F4
330
1F
100
AcDbEntity
  8
1
  6
Continuous
 62
     7
100
AcDbCircle
 10
816.0346120683795
 20
152.401806804478
 30
0.0
 40
3.5
100
AcDbArc
 50
0.0
 51
90.0
  0
ARC
  5
F5
330
1F
100
AcDbEntity
  8
A_RUNDUNGEN
  6
Continuous
 62
     7
100
AcDbCircle
 10
794.2741161791796
 20
132.329288442678
 30
0.0
 40
1.999999999970079
100
AcDbArc
 50
99.99999999916746
 51
138.1378067845268
  0
ARC
  5
F6
330
1F
100
AcDbEntity
  8
1
  6
Continuous
 62
     7
100
AcDbCircle
 10
787.0346120683796
 20
127.901806804478
 30
0.0
 40
5.749999999999832
100
AcDbArc
 50
153.9999999999992
 51
-0.00000000000694
  0
ARC
  5
F7
330
1F
100
AcDbEntity
  8
1
  6
DASHED
 62
     2
100
AcDbCircle
 10
777.0346120683796
 20
147.9018068044778
 30
0.0
 40
5.500000000000762
100
AcDbArc
 50
-148.5510186106218
 51
-75.584691402805
  0
ARC
  5
F8
330
1F
100
AcDbEntity
  8
1
  6
Continuous
 62
     7
100
AcDbCircle
 10
747.5346120683796
 20
131.9018068044796
 30
0.0
 40
4.5
100
AcDbArc
 50
180.0
 51
72.07978686061358
  0
ARC
  5
F9
330
1F
100
AcDbEntity
  8
1
  6
Continuous
 62
     7
100
AcDbCircle
 10
777.5346120683797
 20
163.9018068044779
 30
0.0
 40
1.999999999999886
100
AcDbArc
 50
179.9999999999967
 51
-90.00000000000325
  0
ARC
  5
FA
330
1F
100
AcDbEntity
  8
1
  6
Continuous
 62
     7
100
AcDbCircle
 10
785.0905327596207
 20
163.501806804478
 30
0.0
 40
1.599999999999994
100
AcDbArc
 50
-89.99999999999592
 51
70.81186354628517
  0
ARC
  5
FB
330
1F
100
AcDbEntity
  8
1
  6
Continuous
 62
     7
100
AcDbCircle
 10
778.5346120683796
 20
175.401806804478
 30
0.0
 40
3.0
100
AcDbArc
 50
90.0
 51
180.0
  0
ARC
  5
FC
330
1F
100
AcDbEntity
  8
1
  6
Continuous
 62
     7
100
AcDbCircle
 10
783.374935949855
 20
175.401806804478
 30
0.0
 40
3.000000000000062
100
AcDbArc
 50
-14.99999999999864
 51
90.0
  0
ARC
  5
FD
330
1F
100
AcDbEntity
  8
1
  6
Continuous
 62
     7
100
AcDbCircle
 10
777.5346120683797
 20
163.9018068044779
 30
0.0
 40
0.9999999999998863
100
AcDbArc
 50
180.0
 51
-90.00000000000651
  0
ARC
  5
FE
330
1F
100
AcDbEntity
  8
1
  6
Continuous
 62
     7
100
AcDbCircle
 10
778.5346120683796
 20
175.401806804478
 30
0.0
 40
2.0
100
AcDbArc
 50
90.0
 51
180.0
  0
ARC
  5
FF
330
1F
100
AcDbEntity
  8
1
  6
Continuous
 62
     7
100
AcDbCircle
 10
783.374935949855
 20
175.401806804478
 30
0.0
 40
2.000000000000068
100
AcDbArc
 50
-15.00000000000153
 51
90.0
  0
ARC
  5
100
330
1F
100
AcDbEntity
  8
1
  6
Continuous
 62
     7
100
AcDbCircle
 10
785.0905327596207
 20
163.501806804478
 30
0.0
 40
0.5999999999999943
100
AcDbArc
 50
-89.99999999998914
 51
70.81186354628613
  0
CIRCLE
  5
101
330
1F
100
AcDbEntity
  8
1
  6
Continuous
 62
     7
100
AcDbCircle
 10
767.0346120683796
 20
127.901806804478
 30
0.0
 40
3.0
  0
CIRCLE
  5
102
330
1F
100
AcDbEntity
  8
1
  6
Continuous
 62
     7
100
AcDbCircle
 10
806.5346120683795
 20
131.9018068044779
 30
0.0
 40
2.550000000000182
  0
CIRCLE
  5
103
330
1F
100
AcDbEntity
  8
1
  6
Continuous
 62
     7
100
AcDbCircle
 10
777.0346120683796
 20
147.9018068044778
 30
0.0
 40
2.549999999999955
  0
CIRCLE
  5
104
330
1F
100
AcDbEntity
  8
1
  6
Continuous
 62
     7
100
AcDbCircle
 10
787.0346120683796
 20
127.901806804478
 30
0.0
 40
2.999999999974989
  0
CIRCLE
  5
105
330
1F
100
AcDbEntity
  8
1
  6
Continuous
 62
     7
100
AcDbCircle
 10
747.5346120683796
 20
131.9018068044796
 30
0.0
 40
2.550000000000068
  0
SPLINE
  5
106
330
1F
100
AcDbEntity
  8
1
  6
Continuous
 62
     7
100
AcDbSpline
210
0.0
220
0.0
230
1.0
 70
     8
 71
     3
 72
    12
 73
     8
 74
     6
 42
0.0000000001
 43
0.0000000001
 44
0.00000001
 40
0.0
 40
0.0
 40
0.0
 40
0.0
 40
0.277529159979706
 40
0.5641738536599061
 40
0.8992522958636375
 40
1.297504019331813
 40
1.680834346735697
 40
1.680834346735697
 40
1.680834346735697
 40
1.680834346735697
 10
788.7846120683785
 20
192.4945096421785
 30
0.0
 10
788.8725559423293
 20
192.5637093489496
 30
0.0
 10
789.051332234797
 20
192.7043816489128
 30
0.0
 10
789.2524798184116
 20
192.3396336702177
 30
0.0
 10
789.6220634617202
 20
192.5037858783257
 30
0.0
 10
789.9409112771459
 20
192.7685680721239
 30
0.0
 10
790.1715126290651
 20
192.5846923113971
 30
0.0
 10
790.2846120683785
 20
192.4945096421785
 30
0.0
 11
788.7846120683785
 21
192.4945096421785
 31
0.0
 11
789.0357200079203
 21
192.6126927092317
 31
0.0
 11
789.2599712759702
 21
192.4341526599625
 31
0.0
 11
789.5874129498812
 21
192.5052829110236
 31
0.0
 11
789.9471011977616
 21
192.6762472335652
 31
0.0
 11
790.2846120683785
 21
192.4945096421785
 31
0.0
  0
LWPOLYLINE
  5
107
330
1F
100
AcDbEntity
  8
0
  6
Continuous
 62
     2
 60
     1
100
AcDbPolyline
 90
      163
 70
     0
 43
0.0
 10
768.2964622745784
 20
136.7318074065213
 10
763.0019687134784
 20
134.1723682449214
 10
763.9442482323034
 20
134.7386818668504
 10
764.5840287560045
 20
135.3780346423073
 10
764.9419151678213
 20
136.0464106788614
 10
765.0385123509955
 20
136.6997940840764
 10
764.8944251887665
 20
137.2941689655214
 10
764.5302585643734
 20
137.7855194307624
 10
763.9666173610584
 20
138.1298295873654
 10
763.2241064620605
 20
138.2830835428993
 10
762.3233307506205
 20
138.2012654049283
 10
761.2848951099784
 20
137.8403592810213
 10
760.3426155911534
 20
137.2740456590684
 10
759.7028350674525
 20
136.6346928835964
 10
759.3449486556354
 20
135.9663168470374
 10
759.2483514724613
 20
135.3129334418233
 10
759.3924386346913
 20
134.7185585603843
 10
759.7566052590835
 20
134.2272080951514
 10
760.3202464623985
 20
133.8828979385584
 10
761.0627573613965
 20
133.7296439830344
 10
761.9635330728364
 20
133.8114621210113
 10
763.0019687134784
 20
134.1723682449214
 10
777.2456191336285
 20
115.1825343775535
 10
778.4688947911175
 20
115.2936454291275
 10
779.4772429255413
 20
115.0855227734766
 10
780.2426815966965
 20
114.6179410793386
 10
780.7372288643785
 20
113.9506750154465
 10
780.9329027883844
 20
113.1434992505365
 10
780.8017214285113
 20
112.2561884533446
 10
780.3157028445554
 20
111.3485172926035
 10
779.4468650963123
 20
110.4802604370516
 10
778.1672262435784
 20
109.7111925554216
 10
776.7570050032283
 20
109.2210731278896
 10
775.5337293457394
 20
109.1099620763156
 10
774.5253812113154
 20
109.3180847319665
 10
773.7599425401604
 20
109.7856664261045
 10
773.2653952724784
 20
110.4529324899966
 10
773.0697213484724
 20
111.2601082549066
 10
773.2009027083454
 20
112.1474190520985
 10
773.6869212923013
 20
113.0550902128395
 10
774.5557590405444
 20
113.9233470683915
 10
775.8353978932785
 20
114.6924149500215
 10
772.6784646228283
 20
109.6676563073586
 10
772.7409564528214
 20
109.5030879882276
 10
772.7885600817795
 20
109.3339708668595
 10
772.8210887517243
 20
109.1609684214805
 10
772.8383557046784
 20
108.9847441303215
 10
773.0615013162785
 20
104.8449434425216
 10
773.0405665449064
 20
104.2943378477966
 10
772.9212696063255
 20
103.7907636056555
 10
772.7112701398894
 20
103.3423172844796
 10
772.4182286399534
 20
102.9570954987466
 10
772.0498056008704
 20
102.6431948629355
 10
771.6136615169944
 20
102.4087119915245
 10
771.1174568826783
 20
102.2617434989936
 10
770.5688521922783
 20
102.2103859998215
 10
764.7786090921784
 20
102.2017537144216
 10
763.8205568397464
 20
102.1069097284565
 10
762.9669892466893
 20
101.8368544781905
 10
762.2323102388674
 20
101.4088059573766
 10
761.6309237421405
 20
100.8399821597716
 10
761.1772336823684
 20
100.1476010791286
 10
760.8856439854113
 20
99.34888070920255
 10
760.7705585771273
 20
98.46103904374854
 10
760.8463813833785
 20
97.50129407652155
 10
761.1061484087803
 20
96.57426624922854
 10
761.5203212886624
 20
95.78056082548754
 10
762.0694423949534
 20
95.13137303191255
 10
762.7340540995783
 20
94.63789809512154
 10
763.4946987744663
 20
94.31133124173054
 10
764.3319187915445
 20
94.16286769835554
 10
765.2262565227395
 20
94.20370269161454
 10
766.1582543399784
 20
94.44503144812154
 10
774.8619364398785
 20
97.62761291752155
 10
775.5920073521864
 20
97.95951005075355
 10
776.2451046262084
 20
98.38995660980655
 10
776.8144999867415
 20
98.91171580532155
 10
777.2934651585823
 20
99.51755084793655
 10
777.6752718665283
 20
100.2002249482905
 10
777.9531918354824
 20
100.9525013170066
 10
780.8479985167785
 20
111.1049870591216
 10
780.9923626936395
 20
111.8450681357305
 10
781.0036525693104
 20
112.5684934974555
 10
780.8860913738685
 20
113.2638273580836
 10
780.6439023373885
 20
113.9196339314065
 10
780.2813086899464
 20
114.5244774312106
 10
779.8025336616173
 20
115.0669220712856
 10
779.2118004824883
 20
115.5355320654506
 10
778.9909487741145
 20
115.6998650561795
 10
778.7911809219345
 20
115.8856480484205
 10
778.6135751957864
 20
116.0916302852025
 10
778.4592099439185
 20
116.3165611278836
 10
778.3291635145783
 20
116.5591899378215
 10
770.7185116190784
 20
134.3169687981213
 10
770.3766550651465
 20
134.9331755717483
 10
769.9586519385985
 20
135.4876183497873
 10
769.4693721899064
 20
135.9754416779514
 10
768.9136857695424
 20
136.3917901019584
 10
768.2964626280304
 20
136.7318081675134
 10
762.7916111923885
 20
139.2120805748274
 10
762.0903282230264
 20
139.3173015430363
 10
761.4228544890525
 20
139.2773635283284
 10
760.8033435805285
 20
139.1000589233894
 10
760.2459490875143
 20
138.7931801209014
 10
759.7648246000715
 20
138.3645195135474
 10
759.3741237082604
 20
137.8218694940103
 10
759.0880000021425
 20
137.1730224549744
 10
758.9206070717785
 20
136.4257707891213
 10
758.8911742018495
 20
135.6605654889383
 10
759.0017030808615
 20
134.9600994853574
 10
759.2405059045084
 20
134.3355280787253
 10
759.5958948684854
 20
133.7980065693924
 10
760.0561821684894
 20
133.3586902577063
 10
760.6096800002153
 20
133.0287344440173
 10
761.2447005593583
 20
132.8192944286743
 10
761.9495560416143
 20
132.7415255120264
 10
762.7125586426635
 20
132.8065829943483
 10
764.9219678115785
 20
133.1995582387214
 10
765.5078993204725
 20
133.2513712904114
 10
766.0680228350363
 20
133.1979970655073
 10
766.5932762734024
 20
133.0441354113823
 10
767.0745974717054
 20
132.7944866365073
 10
767.5029242660794
 20
132.4537510493574
 10
767.8691944926594
 20
132.0266289584044
 10
768.1643459875784
 20
131.5178206721213
 10
772.4839638854785
 20
122.2903072464214
 10
772.5936778268265
 20
122.0234364559763
 10
772.6769017433653
 20
121.7485467107844
 10
772.7333121680864
 20
121.4669291398103
 10
772.7625851930784
 20
121.1798746656214
 10
772.9682532940784
 20
115.8643329038216
 10
772.9672774032764
 20
115.6281928659955
 10
772.9389844334413
 20
115.3962102873526
 10
772.8837592560274
 20
115.1699648034025
 10
772.8019874600884
 20
114.9510360882555
 10
772.6940546346164
 20
114.7410038159896
 10
772.3575944676584
 20
114.0653546628695
 10
772.1286146175264
 20
113.3674290488546
 10
772.0072679488694
 20
112.6553229099006
 10
771.9937073262774
 20
111.9371321819286
 10
772.0880856143384
 20
111.2209528008596
 10
772.2905556776425
 20
110.5148807026166
 10
772.6012703807604
 20
109.8270118230525
 10
762.8281299949854
 20
99.57899296620054
 10
762.1330597963833
 20
98.88438748174454
 10
761.7442449292105
 20
98.15825055314154
 10
761.6392998413044
 20
97.44840191537955
 10
761.7958389805035
 20
96.80266130344654
 10
762.1914767946444
 20
96.26884845233154
 10
762.8038277315644
 20
95.89478309702355
 10
763.6105062391014
 20
95.72828497251055
 10
764.5891267650934
 20
95.81717381378054
 10
765.7173037573783
 20
96.20926935582155
 10
766.7410148395714
 20
96.82452366111555
 10
767.4360850381734
 20
97.51912914555055
 10
767.8248999053465
 20
98.24526607413854
 10
767.9298449932523
 20
98.95511471189154
 10
767.7733058540533
 20
99.60085532382155
 10
767.3776680399124
 20
100.1346681749396
 10
766.7653171029924
 20
100.5087335302566
 10
765.9586385954553
 20
100.6752316547845
 10
764.9800180694633
 20
100.5863428135355
 10
763.8518410771785
 20
100.1942472715216
  0
ARC
  5
108
330
1F
100
AcDbEntity
  8
1
  6
Continuous
 62
     7
100
AcDbCircle
 10
801.0346120683795
 20
143.9018068044774
 30
0.0
 40
10.0
100
AcDbArc
 50
0.0
 51
90.0
  0
ARC
  5
109
330
1F
100
AcDbEntity
  8
1
  6
Continuous
 62
     7
100
AcDbCircle
 10
804.5346120683795
 20
138.0864652429041
 30
0.0
 40
2.000000000000126
100
AcDbArc
 50
-72.07978686059097
 51
0.0
  0
ARC
  5
10A
330
1F
100
AcDbEntity
  8
1
  6
Continuous
 62
     7
100
AcDbCircle
 10
774.4206510377016
 20
137.7323816619197
 30
0.0
 40
4.999999999999872
100
AcDbArc
 50
75.58469140281136
 51
120.0000000000243
  0
ARC
  5
10B
330
1F
100
AcDbEntity
  8
1
  6
Continuous
 62
     7
100
AcDbCircle
 10
786.8453205035536
 20
141.9018068044769
 30
0.0
 40
6.0
100
AcDbArc
 50
90.00000000000978
 51
148.5510186106163
  0
ARC
  5
10C
330
1F
100
AcDbEntity
  8
1
  6
Continuous
 62
     7
100
AcDbCircle
 10
771.6336233650436
 20
138.4326915616293
 30
0.0
 40
3.000000000000574
100
AcDbArc
 50
-168.1577761847217
 51
-154.0000000000041
  0
ARC
  5
10D
330
1F
100
AcDbEntity
  8
1
  6
Continuous
 62
     7
100
AcDbCircle
 10
777.0346120683796
 20
147.9018068044778
 30
0.0
 40
5.999999999999915
100
AcDbArc
 50
90.0
 51
120.0000000000011
  0
ARC
  5
10E
330
1F
100
AcDbEntity
  8
1
  6
Continuous
 62
     7
100
AcDbCircle
 10
767.2846120683796
 20
142.2726416798787
 30
0.0
 40
5.999999999999975
100
AcDbArc
 50
120.0000000000001
 51
180.0
  0
ARC
  5
10F
330
1F
100
AcDbEntity
  8
1
  6
Continuous
 62
     7
100
AcDbCircle
 10
801.5346120683795
 20
142.9018068044778
 30
0.0
 40
5.000000000000022
100
AcDbArc
 50
88.08866385410195
 51
90.0
  0
ARC
  5
110
330
1F
100
AcDbEntity
  8
1
  6
Continuous
 62
     7
100
AcDbCircle
 10
801.5346120683795
 20
142.9018068044778
 30
0.0
 40
5.0
100
AcDbArc
 50
-0.00000000000098
 51
88.08866385410195
  0
ARC
  5
111
330
1F
100
AcDbEntity
  8
1
  6
Continuous
 62
     7
100
AcDbCircle
 10
771.6336233650436
 20
138.4326915616293
 30
0.0
 40
3.000000000000482
100
AcDbArc
 50
120.0000000000398
 51
-168.1577761847217
  0
ARC
  5
112
330
1F
100
AcDbEntity
  8
1
  6
Continuous
 62
     7
100
AcDbCircle
 10
816.0346120683795
 20
152.401806804478
 30
0.0
 40
0.5
100
AcDbArc
 50
0.0
 51
90.0
  0
ARC
  5
113
330
1F
100
AcDbEntity
  8
1
  6
Continuous
 62
     7
100
AcDbCircle
 10
782.4356007717166
 20
138.4326915616306
 30
0.0
 40
2.99999999999956
100
AcDbArc
 50
-26.0000000000055
 51
-11.84222381531004
  0
ARC
  5
114
330
1F
100
AcDbEntity
  8
1
  6
Continuous
 62
     7
100
AcDbCircle
 10
786.7846120683796
 20
142.2726416798789
 30
0.0
 40
6.0
100
AcDbArc
 50
0.0
 51
59.99999999999986
  0
ARC
  5
115
330
1F
100
AcDbEntity
  8
1
  6
DASHED
 62
     2
100
AcDbCircle
 10
777.0346120683796
 20
147.9018068044778
 30
0.0
 40
5.999999999999975
100
AcDbArc
 50
59.99999999999986
 51
90.0
  0
ARC
  5
116
330
1F
100
AcDbEntity
  8
1
  6
Continuous
 62
     7
100
AcDbCircle
 10
749.5346120683796
 20
138.0864652429065
 30
0.0
 40
2.0
100
AcDbArc
 50
180.0
 51
-107.9202131394018
  0
ARC
  5
117
330
1F
100
AcDbEntity
  8
1
  6
Continuous
 62
     7
100
AcDbCircle
 10
782.4356007717166
 20
138.4326915616306
 30
0.0
 40
2.999999999999993
100
AcDbArc
 50
-11.84222381531004
 51
60.00000000001856
  0
ARC
  5
118
330
1F
100
AcDbEntity
  8
1
  6
Continuous
 62
     7
100
AcDbCircle
 10
779.6485730990596
 20
137.7323816619189
 30
0.0
 40
5.000000000000164
100
AcDbArc
 50
60.00000000000109
 51
104.4153085972003
  0
ARC
  5
119
330
1F
100
AcDbEntity
  8
1
  6
Continuous
 62
     7
100
AcDbCircle
 10
752.5346120683796
 20
142.9018068044777
 30
0.0
 40
5.0
100
AcDbArc
 50
90.0
 51
180.0
  0
ARC
  5
11A
330
1F
100
AcDbEntity
  8
1
  6
DASHED
 62
     2
100
AcDbCircle
 10
767.2239036332037
 20
141.9018068044778
 30
0.0
 40
6.000000000000619
100
AcDbArc
 50
31.44898138937268
 51
90.0
  0
ARC
  5
11B
330
1F
100
AcDbEntity
  8
1
  6
Continuous
 62
     7
100
AcDbCircle
 10
753.0346120683796
 20
143.9018068044781
 30
0.0
 40
10.0
100
AcDbArc
 50
89.99999999999935
 51
180.0
  0
ARC
  5
11C
330
1F
100
AcDbEntity
  8
1
  6
Continuous
 62
     7
100
AcDbCircle
 10
736.5346120683796
 20
156.9018068044778
 30
0.0
 40
0.5
100
AcDbArc
 50
90.0
 51
180.0
  0
ARC
  5
11D
330
1F
100
AcDbEntity
  8
1
  6
Continuous
 62
     7
100
AcDbCircle
 10
736.5346120683796
 20
156.9018068044778
 30
0.0
 40
3.0
100
AcDbArc
 50
90.0
 51
180.0
  0
ARC
  5
11E
330
1F
100
AcDbEntity
  8
1
  6
Continuous
 62
     7
100
AcDbCircle
 10
775.5346120683796
 20
178.401806804478
 30
0.0
 40
1.499999999999886
100
AcDbArc
 50
90.0
 51
180.0
  0
ARC
  5
11F
330
1F
100
AcDbEntity
  8
1
  6
Continuous
 62
     7
100
AcDbCircle
 10
776.0346120683796
 20
177.901806804478
 30
0.0
 40
0.5
100
AcDbArc
 50
90.0
 51
180.0
  0
ARC
  5
120
330
1F
100
AcDbEntity
  8
1
  6
Continuous
 62
     7
100
AcDbCircle
 10
788.2846120683785
 20
166.9018068044779
 30
0.0
 40
1.999999999999886
100
AcDbArc
 50
-90.0
 51
0.00000000000326
  0
ARC
  5
121
330
1F
100
AcDbEntity
  8
1
  6
Continuous
 62
     7
100
AcDbCircle
 10
786.2737487162408
 20
166.9018068044779
 30
0.0
 40
1.999999999999907
100
AcDbArc
 50
-109.1881364537309
 51
-90.0
  0
ARC
  5
122
330
1F
100
AcDbEntity
  8
1
  6
Continuous
 62
     7
100
AcDbCircle
 10
787.7846120683785
 20
167.401806804478
 30
0.0
 40
1.0
100
AcDbArc
 50
-90.0
 51
0.0
  0
ARC
  5
123
330
1F
100
AcDbEntity
  8
1
  6
Continuous
 62
     7
100
AcDbCircle
 10
786.9253614026616
 20
167.401806804478
 30
0.0
 40
1.000000000000235
100
AcDbArc
 50
165.0000000000058
 51
-90.0
  0
ARC
  5
124
330
1F
100
AcDbEntity
  8
1
  6
Continuous
 62
     7
100
AcDbCircle
 10
787.2846120683785
 20
178.401806804478
 30
0.0
 40
1.500000000000046
100
AcDbArc
 50
-15.00000000000074
 51
90.0
  0
ARC
  5
125
330
1F
100
AcDbEntity
  8
1
  6
Continuous
 62
     7
100
AcDbCircle
 10
786.6329993819579
 20
177.901806804478
 30
0.0
 40
0.50000000000003
100
AcDbArc
 50
-15.00000000000703
 51
90.0
  0
ARC
  5
126
330
1F
100
AcDbEntity
  8
1
  6
Continuous
 62
     7
100
AcDbCircle
 10
786.2737487162408
 20
166.9018068044779
 30
0.0
 40
1.999999999999849
100
AcDbArc
 50
164.9999999999968
 51
-109.1881364537309
  0
ARC
  5
127
330
1F
100
AcDbEntity
  8
1
  6
Continuous
 62
     7
100
AcDbCircle
 10
786.2737487162408
 20
166.9018068044779
 30
0.0
 40
3.000000000000084
100
AcDbArc
 50
164.9999999999998
 51
-109.1881364537257
  0
ARC
  5
128
330
1F
100
AcDbEntity
  8
1
  6
Continuous
 62
     7
100
AcDbCircle
 10
731.5346120683796
 20
118.4018068044779
 30
0.0
 40
1.0
100
AcDbArc
 50
180.0
 51
-90.0
  0
ARC
  5
129
330
1F
100
AcDbEntity
  8
1
  6
Continuous
 62
     7
100
AcDbCircle
 10
731.5346120683796
 20
118.4018068044779
 30
0.0
 40
2.5
100
AcDbArc
 50
180.0
 51
-90.0
  0
ARC
  5
12A
330
1F
100
AcDbEntity
  8
1
  6
Continuous
 62
     7
100
AcDbCircle
 10
773.0346120683796
 20
118.401806804478
 30
0.0
 40
2.5
100
AcDbArc
 50
-90.0
 51
0.0
  0
ARC
  5
12B
330
1F
100
AcDbEntity
  8
1
  6
Continuous
 62
     7
100
AcDbCircle
 10
773.0346120683796
 20
118.401806804478
 30
0.0
 40
1.0
100
AcDbArc
 50
-90.0
 51
0.0
  0
ARC
  5
12C
330
1F
100
AcDbEntity
  8
1
  6
Continuous
 62
     7
100
AcDbCircle
 10
741.0346120683796
 20
152.401806804478
 30
0.0
 40
0.5
100
AcDbArc
 50
90.0
 51
180.0
  0
ARC
  5
12D
330
1F
100
AcDbEntity
  8
1
  6
Continuous
 62
     7
100
AcDbCircle
 10
741.0346120683796
 20
152.401806804478
 30
0.0
 40
3.500000000000038
100
AcDbArc
 50
98.2132107017381
 51
180.0
  0
ARC
  5
12E
330
1F
100
AcDbEntity
  8
1
  6
Continuous
 62
     7
100
AcDbCircle
 10
741.0346120683796
 20
152.401806804478
 30
0.0
 40
3.5
100
AcDbArc
 50
90.0
 51
98.2132107017381
  0
DIMENSION
  5
13A
330
1F
100
AcDbEntity
  8
1
100
AcDbDimension
  2
*D1
 10
718.323161172796
 20
156.901806804478
 30
0.0
 11
714.573161172796
 21
137.909778695088
 31
0.0
 70
    32
  1
<>
 71
     5
 42
-1.0
 53
90.0
  3
ME10_DIM_10
100
AcDbAlignedDimension
 13
740.5346120683796
 23
120.901806804478
 33
0.0
 14
740.5346120683796
 24
156.901806804478
 34
0.0
 50
90.0
100
AcDbRotatedDimension
  0
DIMENSION
  5
147
330
1F
100
AcDbEntity
  8
1
100
AcDbDimension
  2
*D2
 10
718.323161172796
 20
115.901806804478
 30
0.0
 11
714.573161172796
 21
112.960579993849
 31
0.0
 70
    32
  1
<>
 71
     5
 42
-1.0
 53
90.0
  3
ME10_DIM_11
100
AcDbAlignedDimension
 13
740.5346120683796
 23
120.901806804478
 33
0.0
 14
731.5346120683796
 24
115.901806804478
 34
0.0
 50
90.0
100
AcDbRotatedDimension
  0
DIMENSION
  5
154
330
1F
100
AcDbEntity
  8
1
100
AcDbDimension
  2
*D3
 10
853.3782135291495
 20
121.901806804478
 30
0.0
 11
849.6282135291495
 21
111.393475049535
 31
0.0
 70
    32
  1
<>
 71
     5
 42
-1.0
 53
90.0
  3
ME10_DIM_12
100
AcDbAlignedDimension
 13
833.7846120683785
 23
116.901806804478
 33
0.0
 14
819.5346120683795
 24
121.901806804478
 34
0.0
 50
90.0
100
AcDbRotatedDimension
  0
DIMENSION
  5
15F
330
1F
100
AcDbEntity
  8
1
100
AcDbDimension
  2
*D4
 10
779.5346120683795
 20
96.0374369244128
 30
0.0
 11
798.834649697863
 21
99.7874369244128
 31
0.0
 70
    32
  1
<>
 71
     5
 42
-1.0
 53
0.00013888888889
  3
ME10_DIM_13
100
AcDbAlignedDimension
 13
822.5346120683795
 23
121.901806804478
 33
0.0
 14
779.5346120683795
 24
121.901806804478
 34
0.0
100
AcDbRotatedDimension
  0
DIMENSION
  5
16C
330
1F
100
AcDbEntity
  8
1
100
AcDbDimension
  2
*D5
 10
843.9864507735319
 20
115.9018068044781
 30
0.0
 11
840.2364507735319
 21
112.7047729859714
 31
0.0
 70
    32
  1
<>
 71
     5
 42
-1.0
 53
90.0
  3
ME10_DIM_14
100
AcDbAlignedDimension
 13
833.7846120683785
 23
116.901806804478
 33
0.0
 14
773.0346120683796
 24
115.901806804478
 34
0.0
 50
90.0
100
AcDbRotatedDimension
  0
DIMENSION
  5
177
330
1F
100
AcDbEntity
  8
1
100
AcDbDimension
  2
*D6
 10
775.5346120683796
 20
96.0374369244128
 30
0.0
 11
752.854843578429
 21
99.7874369244128
 31
0.0
 70
    32
  1
<>
 71
     5
 42
-1.0
 53
0.00013888888889
  3
ME10_DIM_15
100
AcDbAlignedDimension
 13
733.5346120683796
 23
131.901806804478
 33
0.0
 14
775.5346120683796
 24
121.901806804478
 34
0.0
100
AcDbRotatedDimension
  0
DIMENSION
  5
184
330
1F
100
AcDbEntity
  8
1
100
AcDbDimension
  2
*D7
 10
775.5346120683796
 20
105.0734933793443
 30
0.0
 11
769.651711912184
 21
108.8234933793443
 31
0.0
 70
    32
  1
<>
 71
     5
 42
-1.0
 53
0.00013888888889
  3
ME10_DIM_16
100
AcDbAlignedDimension
 13
779.5346120683795
 23
116.901806804478
 33
0.0
 14
775.5346120683796
 24
118.401806804478
 34
0.0
100
AcDbRotatedDimension
  0
DIMENSION
  5
18F
330
1F
100
AcDbEntity
  8
1
100
AcDbDimension
  2
*D8
 10
853.3782135291495
 20
121.901806804478
 30
0.0
 11
849.6282135291495
 21
140.901806804478
 31
0.0
 70
    32
  1
<>
 71
     5
 42
-1.0
 53
90.0
  3
ME10_DIM_17
100
AcDbAlignedDimension
 13
822.5346120683795
 23
155.901806804478
 33
0.0
 14
822.5346120683795
 24
121.901806804478
 34
0.0
 50
90.0
100
AcDbRotatedDimension
  0
ENDSEC
  0
SECTION
  2
OBJECTS
  0
DICTIONARY
  5
C
330
0
100
AcDbDictionary
281
     1
  3
ACAD_GROUP
350
D
  3
ACAD_LAYOUT
350
1A
  3
ACAD_MLINESTYLE
350
17
  3
ACAD_PLOTSETTINGS
350
19
  3
ACAD_PLOTSTYLENAME
350
E
  0
DICTIONARY
  5
D
102
{ACAD_REACTORS
330
C
102
}
330
C
100
AcDbDictionary
281
     1
  0
DICTIONARY
  5
1A
102
{ACAD_REACTORS
330
C
102
}
330
C
100
AcDbDictionary
281
     1
  3
Layout1
350
1E
  3
Layout2
350
26
  3
Model
350
22
  0
DICTIONARY
  5
17
102
{ACAD_REACTORS
330
C
102
}
330
C
100
AcDbDictionary
281
     1
  3
Standard
350
18
  0
DICTIONARY
  5
19
102
{ACAD_REACTORS
330
C
102
}
330
C
100
AcDbDictionary
281
     1
  0
ACDBDICTIONARYWDFLT
  5
E
102
{ACAD_REACTORS
330
C
102
}
330
C
100
AcDbDictionary
281
     1
  3
Normal
350
F
100
AcDbDictionaryWithDefault
340
F
  0
LAYOUT
  5
1E
102
{ACAD_REACTORS
330
1A
102
}
330
1A
100
AcDbPlotSettings
  1

  2

  4

  6

 40
0.0
 41
0.0
 42
0.0
 43
0.0
 44
0.0
 45
0.0
 46
0.0
 47
0.0
 48
0.0
 49
0.0
140
0.0
141
0.0
142
1.0
143
1.0
 70
   688
 72
     0
 73
     0
 74
     5
  7

 75
    16
 76
     0
 77
     2
 78
   300
147
1.0
148
0.0
149
0.0
100
AcDbLayout
  1
Layout1
 70
     1
 71
     1
 10
0.0
 20
0.0
 11
0.0
 21
0.0
 12
0.0
 22
0.0
 32
0.0
 14
0.0
 24
0.0
 34
0.0
 15
0.0
 25
0.0
 35
0.0
146
0.0
 13
0.0
 23
0.0
 33
0.0
 16
1.0
 26
0.0
 36
0.0
 17
0.0
 27
1.0
 37
0.0
 76
     0
330
1B
  0
LAYOUT
  5
26
102
{ACAD_REACTORS
330
1A
102
}
330
1A
100
AcDbPlotSettings
  1

  2

  4

  6

 40
0.0
 41
0.0
 42
0.0
 43
0.0
 44
0.0
 45
0.0
 46
0.0
 47
0.0
 48
0.0
 49
0.0
140
0.0
141
0.0
142
1.0
143
1.0
 70
   688
 72
     0
 73
     0
 74
     5
  7

 75
    16
 76
     0
 77
     2
 78
   300
147
1.0
148
0.0
149
0.0
100
AcDbLayout
  1
Layout2
 70
     1
 71
     2
 10
0.0
 20
0.0
 11
0.0
 21
0.0
 12
0.0
 22
0.0
 32
0.0
 14
0.0
 24
0.0
 34
0.0
 15
0.0
 25
0.0
 35
0.0
146
0.0
 13
0.0
 23
0.0
 33
0.0
 16
1.0
 26
0.0
 36
0.0
 17
0.0
 27
1.0
 37
0.0
 76
     0
330
23
  0
LAYOUT
  5
22
102
{ACAD_REACTORS
330
1A
102
}
330
1A
100
AcDbPlotSettings
  1

  2

  4

  6

 40
0.0
 41
0.0
 42
0.0
 43
0.0
 44
0.0
 45
0.0
 46
0.0
 47
0.0
 48
0.0
 49
0.0
140
0.0
141
0.0
142
1.0
143
1.0
 70
  1712
 72
     0
 73
     0
 74
     0
  7

 75
     0
 76
     0
 77
     2
 78
   300
147
1.0
148
0.0
149
0.0
100
AcDbLayout
  1
Model
 70
     1
 71
     0
 10
0.0
 20
0.0
 11
0.0
 21
0.0
 12
0.0
 22
0.0
 32
0.0
 14
712.823161172796
 24
94.0374369244128
 34
0.0
 15
855.3782135291495
 25
192.6906499171238
 35
0.0
146
0.0
 13
0.0
 23
0.0
 33
0.0
 16
1.0
 26
0.0
 36
0.0
 17
0.0
 27
1.0
 37
0.0
 76
     0
330
1F
  0
MLINESTYLE
  5
18
102
{ACAD_REACTORS
330
17
102
}
330
17
100
AcDbMlineStyle
  2
Standard
 70
     0
  3

 62
   256
 51
90.0
 52
90.0
 71
     2
 49
0.5
 62
   256
  6
BYLAYER
 49
-0.5
 62
   256
  6
BYLAYER
  0
ACDBPLACEHOLDER
  5
F
102
{ACAD_REACTORS
330
E
102
}
330
E
  0
ENDSEC
  0
EOF
