  0
SECTION
  2
HEADER
  9
$ACADVER
  1
AC1018
  9
$ACADMAINTVER
 70
     0
  9
$DWGCODEPAGE
  3
ANSI_1252
  9
$INSBASE
 10
0.0
 20
0.0
 30
0.0
  9
$EXTMIN
 10
967.9730727158551
 20
-71.6812443338298
 30
0.0
  9
$EXTMAX
 10
1103.806770824409
 20
26.75879643957231
 30
0.0
  9
$LIMMIN
 10
0.0
 20
0.0
  9
$LIMMAX
 10
12.0
 20
9.0
  9
$ORTHOMODE
 70
     0
  9
$REGENMODE
 70
     1
  9
$FILLMODE
 70
     1
  9
$QTEXTMODE
 70
     0
  9
$MIRRTEXT
 70
     1
  9
$LTSCALE
 40
1.0
  9
$ATTMODE
 70
     1
  9
$TEXTSIZE
 40
0.2
  9
$TRACEWID
 40
0.05
  9
$TEXTSTYLE
  7
Standard
  9
$CLAYER
  8
0
  9
$CELTYPE
  6
ByLayer
  9
$CECOLOR
 62
   256
  9
$CELTSCALE
 40
1.0
  9
$DISPSILH
 70
     0
  9
$DIMSCALE
 40
1.0
  9
$DIMASZ
 40
0.18
  9
$DIMEXO
 40
0.0625
  9
$DIMDLI
 40
0.38
  9
$DIMRND
 40
0.0
  9
$DIMDLE
 40
0.0
  9
$DIMEXE
 40
0.18
  9
$DIMTP
 40
0.0
  9
$DIMTM
 40
0.0
  9
$DIMTXT
 40
0.18
  9
$DIMCEN
 40
0.09
  9
$DIMTSZ
 40
0.0
  9
$DIMTOL
 70
     0
  9
$DIMLIM
 70
     0
  9
$DIMTIH
 70
     1
  9
$DIMTOH
 70
     1
  9
$DIMSE1
 70
     0
  9
$DIMSE2
 70
     0
  9
$DIMTAD
 70
     0
  9
$DIMZIN
 70
     0
  9
$DIMBLK
  1

  9
$DIMASO
 70
     1
  9
$DIMSHO
 70
     1
  9
$DIMPOST
  1

  9
$DIMAPOST
  1

  9
$DIMALT
 70
     0
  9
$DIMALTD
 70
     2
  9
$DIMALTF
 40
25.4
  9
$DIMLFAC
 40
1.0
  9
$DIMTOFL
 70
     0
  9
$DIMTVP
 40
0.0
  9
$DIMTIX
 70
     0
  9
$DIMSOXD
 70
     0
  9
$DIMSAH
 70
     0
  9
$DIMBLK1
  1

  9
$DIMBLK2
  1

  9
$DIMSTYLE
  2
Standard
  9
$DIMCLRD
 70
     0
  9
$DIMCLRE
 70
     0
  9
$DIMCLRT
 70
     0
  9
$DIMTFAC
 40
1.0
  9
$DIMGAP
 40
0.09
  9
$DIMJUST
 70
     0
  9
$DIMSD1
 70
     0
  9
$DIMSD2
 70
     0
  9
$DIMTOLJ
 70
     1
  9
$DIMTZIN
 70
     0
  9
$DIMALTZ
 70
     0
  9
$DIMALTTZ
 70
     0
  9
$DIMUPT
 70
     0
  9
$DIMDEC
 70
     4
  9
$DIMTDEC
 70
     4
  9
$DIMALTU
 70
     2
  9
$DIMALTTD
 70
     2
  9
$DIMTXSTY
  7
Standard
  9
$DIMAUNIT
 70
     0
  9
$DIMADEC
 70
     0
  9
$DIMALTRND
 40
0.0
  9
$DIMAZIN
 70
     0
  9
$DIMDSEP
 70
    46
  9
$DIMATFIT
 70
     3
  9
$DIMFRAC
 70
     0
  9
$DIMLDRBLK
  1

  9
$DIMLUNIT
 70
     2
  9
$DIMLWD
 70
    -2
  9
$DIMLWE
 70
    -2
  9
$DIMTMOVE
 70
     0
  9
$LUNITS
 70
     2
  9
$LUPREC
 70
     4
  9
$SKETCHINC
 40
0.1
  9
$FILLETRAD
 40
0.5
  9
$AUNITS
 70
     0
  9
$AUPREC
 70
     0
  9
$MENU
  1
.
  9
$ELEVATION
 40
0.0
  9
$PELEVATION
 40
0.0
  9
$THICKNESS
 40
0.0
  9
$LIMCHECK
 70
     0
  9
$CHAMFERA
 40
0.5
  9
$CHAMFERB
 40
0.5
  9
$CHAMFERC
 40
1.0
  9
$CHAMFERD
 40
0.0
  9
$SKPOLY
 70
     0
  9
$TDCREATE
 40
2455846.506973391
  9
$TDUCREATE
 40
2455846.423640058
  9
$TDUPDATE
 40
2455846.506973403
  9
$TDUUPDATE
 40
2455846.42364007
  9
$TDINDWG
 40
0.0000000116
  9
$TDUSRTIMER
 40
0.0000000116
  9
$USRTIMER
 70
     1
  9
$ANGBASE
 50
0.0
  9
$ANGDIR
 70
     0
  9
$PDMODE
 70
     0
  9
$PDSIZE
 40
0.0
  9
$PLINEWID
 40
0.0
  9
$SPLFRAME
 70
     0
  9
$SPLINETYPE
 70
     6
  9
$SPLINESEGS
 70
     8
  9
$HANDSEED
  5
1B1
  9
$SURFTAB1
 70
     6
  9
$SURFTAB2
 70
     6
  9
$SURFTYPE
 70
     6
  9
$SURFU
 70
     6
  9
$SURFV
 70
     6
  9
$UCSBASE
  2

  9
$UCSNAME
  2

  9
$UCSORG
 10
0.0
 20
0.0
 30
0.0
  9
$UCSXDIR
 10
1.0
 20
0.0
 30
0.0
  9
$UCSYDIR
 10
0.0
 20
1.0
 30
0.0
  9
$UCSORTHOREF
  2

  9
$UCSORTHOVIEW
 70
     0
  9
$UCSORGTOP
 10
0.0
 20
0.0
 30
0.0
  9
$UCSORGBOTTOM
 10
0.0
 20
0.0
 30
0.0
  9
$UCSORGLEFT
 10
0.0
 20
0.0
 30
0.0
  9
$UCSORGRIGHT
 10
0.0
 20
0.0
 30
0.0
  9
$UCSORGFRONT
 10
0.0
 20
0.0
 30
0.0
  9
$UCSORGBACK
 10
0.0
 20
0.0
 30
0.0
  9
$PUCSBASE
  2

  9
$PUCSNAME
  2

  9
$PUCSORG
 10
0.0
 20
0.0
 30
0.0
  9
$PUCSXDIR
 10
1.0
 20
0.0
 30
0.0
  9
$PUCSYDIR
 10
0.0
 20
1.0
 30
0.0
  9
$PUCSORTHOREF
  2

  9
$PUCSORTHOVIEW
 70
     0
  9
$PUCSORGTOP
 10
0.0
 20
0.0
 30
0.0
  9
$PUCSORGBOTTOM
 10
0.0
 20
0.0
 30
0.0
  9
$PUCSORGLEFT
 10
0.0
 20
0.0
 30
0.0
  9
$PUCSORGRIGHT
 10
0.0
 20
0.0
 30
0.0
  9
$PUCSORGFRONT
 10
0.0
 20
0.0
 30
0.0
  9
$PUCSORGBACK
 10
0.0
 20
0.0
 30
0.0
  9
$USERI1
 70
     0
  9
$USERI2
 70
     0
  9
$USERI3
 70
     0
  9
$USERI4
 70
     0
  9
$USERI5
 70
     0
  9
$USERR1
 40
14.5
  9
$USERR2
 40
0.0
  9
$USERR3
 40
0.0
  9
$USERR4
 40
0.0
  9
$USERR5
 40
0.0
  9
$WORLDVIEW
 70
     1
  9
$SHADEDGE
 70
     3
  9
$SHADEDIF
 70
    70
  9
$TILEMODE
 70
     1
  9
$MAXACTVP
 70
    64
  9
$PINSBASE
 10
0.0
 20
0.0
 30
0.0
  9
$PLIMCHECK
 70
     0
  9
$PEXTMIN
 10
1.00000000000000E+20
 20
1.00000000000000E+20
 30
1.00000000000000E+20
  9
$PEXTMAX
 10
-1.00000000000000E+20
 20
-1.00000000000000E+20
 30
-1.00000000000000E+20
  9
$PLIMMIN
 10
0.0
 20
0.0
  9
$PLIMMAX
 10
12.0
 20
9.0
  9
$UNITMODE
 70
     0
  9
$VISRETAIN
 70
     1
  9
$PLINEGEN
 70
     0
  9
$PSLTSCALE
 70
     1
  9
$TREEDEPTH
 70
  3020
  9
$CMLSTYLE
  2
Standard
  9
$CMLJUST
 70
     0
  9
$CMLSCALE
 40
1.0
  9
$PROXYGRAPHICS
 70
     1
  9
$MEASUREMENT
 70
     1
  9
$CELWEIGHT
370
    -1
  9
$ENDCAPS
280
     0
  9
$JOINSTYLE
280
     0
  9
$LWDISPLAY
290
     0
  9
$INSUNITS
 70
     1
  9
$HYPERLINKBASE
  1

  9
$STYLESHEET
  1

  9
$XEDIT
290
     1
  9
$CEPSNTYPE
380
     0
  9
$PSTYLEMODE
290
     1
  9
$FINGERPRINTGUID
  2
{34E9730C-7D81-40E4-A676-719B76D5E97A}
  9
$VERSIONGUID
  2
{FAEB1C32-E019-11D5-929B-00C0DF256EC4}
  9
$EXTNAMES
290
     1
  9
$PSVPSCALE
 40
0.0
  9
$OLESTARTUP
290
     0
  9
$SORTENTS
280
   127
  9
$INDEXCTL
280
     0
  9
$HIDETEXT
280
     1
  9
$XCLIPFRAME
290
     0
  9
$HALOGAP
280
     0
  9
$OBSCOLOR
 70
   257
  9
$OBSLTYPE
280
     0
  9
$INTERSECTIONDISPLAY
280
     0
  9
$INTERSECTIONCOLOR
 70
   257
  9
$DIMASSOC
280
     2
  9
$PROJECTNAME
  1

  0
ENDSEC
  0
SECTION
  2
CLASSES
  0
CLASS
  1
ACDBDICTIONARYWDFLT
  2
AcDbDictionaryWithDefault
  3
ObjectDBX Classes
 90
        0
 91
        3
280
     0
281
     0
  0
CLASS
  1

  2
exOdDbCircle
  3

 90
        0
 91
        3
280
     0
281
     1
  0
CLASS
  1

  2
exOdDbSpline
  3

 90
        0
 91
        3
280
     0
281
     1
  0
ENDSEC
  0
SECTION
  2
TABLES
  0
TABLE
  2
VPORT
  5
8
330
0
100
AcDbSymbolTable
 70
     1
  0
VPORT
  5
29
330
8
100
AcDbSymbolTableRecord
100
AcDbViewportTableRecord
  2
*Active
 70
     0
 10
0.0
 20
0.0
 11
1.0
 21
1.0
 12
1035.889921770132
 22
-22.46122394712874
 13
0.0
 23
0.0
 14
0.5
 24
0.5
 15
0.5
 25
0.5
 16
0.0
 26
0.0
 36
1.0
 17
0.0
 27
0.0
 37
0.0
 40
108.2840448507423
 41
1.60267857142857
 42
50.0
 43
0.0
 44
0.0
 50
0.0
 51
0.0
 71
     0
 72
   100
 73
     1
 74
     3
 75
     0
 76
     0
 77
     0
 78
     0
281
     0
 65
     1
110
0.0
120
0.0
130
0.0
111
1.0
121
0.0
131
0.0
112
0.0
122
1.0
132
0.0
 79
     0
146
0.0
  0
ENDTAB
  0
TABLE
  2
LTYPE
  5
5
330
0
100
AcDbSymbolTable
 70
     8
  0
LTYPE
  5
14
330
5
100
AcDbSymbolTableRecord
100
AcDbLinetypeTableRecord
  2
ByBlock
 70
     0
  3

 72
    65
 73
     0
 40
0.0
  0
LTYPE
  5
15
330
5
100
AcDbSymbolTableRecord
100
AcDbLinetypeTableRecord
  2
ByLayer
 70
     0
  3

 72
    65
 73
     0
 40
0.0
  0
LTYPE
  5
16
330
5
100
AcDbSymbolTableRecord
100
AcDbLinetypeTableRecord
  2
Continuous
 70
     0
  3
Solid line
 72
    65
 73
     0
 40
0.0
  0
LTYPE
  5
2A
330
5
100
AcDbSymbolTableRecord
100
AcDbLinetypeTableRecord
  2
DASHED
 70
     0
  3
Dashed
 72
    65
 73
     2
 40
15.0
 49
7.0
 74
     0
 49
-8.0
 74
     0
  0
LTYPE
  5
2B
330
5
100
AcDbSymbolTableRecord
100
AcDbLinetypeTableRecord
  2
DOTTED
 70
     0
  3
Dotted
 72
    65
 73
     2
 40
1.0
 49
0.0
 74
     0
 49
-1.0
 74
     0
  0
LTYPE
  5
2C
330
5
100
AcDbSymbolTableRecord
100
AcDbLinetypeTableRecord
  2
DOT_CENTER
 70
     0
  3
Dot_Center
 72
    65
 73
     4
 40
14.0
 49
12.0
 74
     0
 49
-1.0
 74
     0
 49
0.0
 74
     0
 49
-1.0
 74
     0
  0
LTYPE
  5
2D
330
5
100
AcDbSymbolTableRecord
100
AcDbLinetypeTableRecord
  2
LONG_DASHED
 70
     0
  3
Long_Dashed
 72
    65
 73
     2
 40
15.0
 49
10.0
 74
     0
 49
-5.0
 74
     0
  0
LTYPE
  5
2E
330
5
100
AcDbSymbolTableRecord
100
AcDbLinetypeTableRecord
  2
DASH_CENTER
 70
     0
  3
Dash_Center
 72
    65
 73
     4
 40
14.0
 49
11.0
 74
     0
 49
-1.0
 74
     0
 49
1.0
 74
     0
 49
-1.0
 74
     0
  0
LTYPE
  5
2F
330
5
100
AcDbSymbolTableRecord
100
AcDbLinetypeTableRecord
  2
PHANTOM
 70
     0
  3
Phantom
 72
    65
 73
     6
 40
13.0
 49
10.0
 74
     0
 49
-1.0
 74
     0
 49
0.0
 74
     0
 49
-1.0
 74
     0
 49
0.0
 74
     0
 49
-1.0
 74
     0
  0
LTYPE
  5
30
330
5
100
AcDbSymbolTableRecord
100
AcDbLinetypeTableRecord
  2
CENTER_DASH_DASH
 70
     0
  3
Center_Dash_Dash
 72
    65
 73
     6
 40
14.0
 49
9.0
 74
     0
 49
-1.0
 74
     0
 49
1.0
 74
     0
 49
-1.0
 74
     0
 49
1.0
 74
     0
 49
-1.0
 74
     0
  0
ENDTAB
  0
TABLE
  2
LAYER
  5
2
330
0
100
AcDbSymbolTable
 70
     4
  0
LAYER
  5
10
330
2
100
AcDbSymbolTableRecord
100
AcDbLayerTableRecord
  2
0
 70
     0
 62
     7
  6
Continuous
370
    -3
390
F
  0
LAYER
  5
31
330
2
100
AcDbSymbolTableRecord
100
AcDbLayerTableRecord
  2
1
 70
     0
 62
     7
  6
Continuous
370
    -3
390
F
  0
LAYER
  5
32
330
2
100
AcDbSymbolTableRecord
100
AcDbLayerTableRecord
  2
A_BEMASSUNGEN
 70
     0
 62
     7
  6
Continuous
370
    -3
390
F
  0
LAYER
  5
33
330
2
100
AcDbSymbolTableRecord
100
AcDbLayerTableRecord
  2
A_RUNDUNGEN
 70
     0
 62
     7
  6
Continuous
370
    -3
390
F
  0
ENDTAB
  0
TABLE
  2
STYLE
  5
3
330
0
100
AcDbSymbolTable
 70
     2
  0
STYLE
  5
11
330
3
100
AcDbSymbolTableRecord
100
AcDbTextStyleTableRecord
  2
Standard
 70
     0
 40
0.0
 41
1.0
 50
0.0
 71
     0
 42
0.2
  3
txt
  4

  0
STYLE
  5
156
330
3
100
AcDbSymbolTableRecord
100
AcDbTextStyleTableRecord
  2
CONVERTER_11
 70
     0
 40
0.0
 41
0.9
 50
0.0
 71
     0
 42
0.2
  3
txt.shx
  4

  0
ENDTAB
  0
TABLE
  2
VIEW
  5
6
330
0
100
AcDbSymbolTable
 70
     0
  0
ENDTAB
  0
TABLE
  2
UCS
  5
7
330
0
100
AcDbSymbolTable
 70
     0
  0
ENDTAB
  0
TABLE
  2
APPID
  5
9
330
0
100
AcDbSymbolTable
 70
     1
  0
APPID
  5
12
330
9
100
AcDbSymbolTableRecord
100
AcDbRegAppTableRecord
  2
ACAD
 70
     0
  0
ENDTAB
  0
TABLE
  2
DIMSTYLE
  5
A
330
0
100
AcDbSymbolTable
 70
     9
100
AcDbDimStyleTable
  0
DIMSTYLE
105
27
330
A
100
AcDbSymbolTableRecord
100
AcDbDimStyleTableRecord
  2
Standard
 70
     0
340
11
  0
DIMSTYLE
105
15A
102
{ACAD_REACTORS
330
15B
102
}
330
A
100
AcDbSymbolTableRecord
100
AcDbDimStyleTableRecord
  2
ME10_DIM_10
 70
     0
 41
3.5
 42
0.0
 44
2.0
 73
     0
 74
     0
 77
     1
 78
     8
140
3.5
147
2.0
172
     1
173
     1
176
     2
177
     2
178
     2
271
     3
340
156
  0
DIMSTYLE
105
165
102
{ACAD_REACTORS
330
166
102
}
330
A
100
AcDbSymbolTableRecord
100
AcDbDimStyleTableRecord
  2
ME10_DIM_11
 70
     0
 41
3.5
 42
0.0
 44
2.0
 73
     0
 74
     0
 77
     1
 78
     8
140
3.5
147
2.0
172
     1
173
     1
176
     2
177
     2
178
     2
271
     3
340
156
  0
DIMSTYLE
105
172
102
{ACAD_REACTORS
330
173
102
}
330
A
100
AcDbSymbolTableRecord
100
AcDbDimStyleTableRecord
  2
ME10_DIM_12
 70
     0
 41
3.5
 42
0.0
 44
2.0
 73
     0
 74
     0
 77
     1
 78
     8
140
3.5
147
2.0
172
     1
173
     1
176
     2
177
     2
178
     2
271
     3
340
156
  0
DIMSTYLE
105
17D
102
{ACAD_REACTORS
330
17E
102
}
330
A
100
AcDbSymbolTableRecord
100
AcDbDimStyleTableRecord
  2
ME10_DIM_13
 70
     0
 41
3.5
 42
0.0
 44
2.0
 73
     0
 74
     0
 77
     1
 78
     8
140
3.5
147
2.0
172
     1
173
     1
176
     2
177
     2
178
     2
271
     3
340
156
  0
DIMSTYLE
105
18B
102
{ACAD_REACTORS
330
18C
102
}
330
A
100
AcDbSymbolTableRecord
100
AcDbDimStyleTableRecord
  2
ME10_DIM_14
 70
     0
 41
3.5
 42
0.0
 44
2.0
 73
     0
 74
     0
 77
     1
 78
     8
140
3.5
147
2.0
172
     1
173
     1
176
     2
177
     2
178
     2
271
     3
340
156
  0
DIMSTYLE
105
197
102
{ACAD_REACTORS
330
198
102
}
330
A
100
AcDbSymbolTableRecord
100
AcDbDimStyleTableRecord
  2
ME10_DIM_15
 70
     0
 41
3.5
 42
0.0
 44
2.0
 73
     0
 74
     0
 77
     1
 78
     8
140
3.5
147
2.0
172
     1
173
     1
176
     2
177
     2
178
     2
271
     3
340
156
  0
DIMSTYLE
105
1A4
102
{ACAD_REACTORS
330
1A5
102
}
330
A
100
AcDbSymbolTableRecord
100
AcDbDimStyleTableRecord
  2
ME10_DIM_16
 70
     0
 41
3.5
 42
0.0
 44
2.0
 73
     0
 74
     0
 77
     1
 78
     8
140
3.5
147
2.0
172
     1
173
     1
176
     2
177
     2
178
     2
271
     3
340
156
  0
DIMSTYLE
105
1AF
102
{ACAD_REACTORS
330
1B0
102
}
330
A
100
AcDbSymbolTableRecord
100
AcDbDimStyleTableRecord
  2
ME10_DIM_17
 70
     0
 41
3.5
 42
0.0
 44
2.0
 73
     0
 74
     0
 77
     1
 78
     8
140
3.5
147
2.0
172
     1
173
     1
176
     2
177
     2
178
     2
271
     3
340
156
  0
ENDTAB
  0
TABLE
  2
BLOCK_RECORD
  5
1
330
0
100
AcDbSymbolTable
 70
     9
  0
BLOCK_RECORD
  5
1F
330
1
100
AcDbSymbolTableRecord
100
AcDbBlockTableRecord
  2
*Model_Space
340
22
  0
BLOCK_RECORD
  5
1B
330
1
100
AcDbSymbolTableRecord
100
AcDbBlockTableRecord
  2
*Paper_Space
340
1E
  0
BLOCK_RECORD
  5
23
330
1
100
AcDbSymbolTableRecord
100
AcDbBlockTableRecord
  2
*Paper_Space0
340
26
  0
BLOCK_RECORD
  5
14E
330
1
100
AcDbSymbolTableRecord
100
AcDbBlockTableRecord
  2
*D1
340
0
  0
BLOCK_RECORD
  5
15C
330
1
100
AcDbSymbolTableRecord
100
AcDbBlockTableRecord
  2
*D2
340
0
  0
BLOCK_RECORD
  5
167
330
1
100
AcDbSymbolTableRecord
100
AcDbBlockTableRecord
  2
*D3
340
0
  0
BLOCK_RECORD
  5
174
330
1
100
AcDbSymbolTableRecord
100
AcDbBlockTableRecord
  2
*D4
340
0
  0
BLOCK_RECORD
  5
17F
330
1
100
AcDbSymbolTableRecord
100
AcDbBlockTableRecord
  2
*D5
340
0
  0
BLOCK_RECORD
  5
18D
330
1
100
AcDbSymbolTableRecord
100
AcDbBlockTableRecord
  2
*D6
340
0
  0
BLOCK_RECORD
  5
199
330
1
100
AcDbSymbolTableRecord
100
AcDbBlockTableRecord
  2
*D7
340
0
  0
BLOCK_RECORD
  5
1A6
330
1
100
AcDbSymbolTableRecord
100
AcDbBlockTableRecord
  2
*D8
340
0
  0
ENDTAB
  0
ENDSEC
  0
SECTION
  2
BLOCKS
  0
BLOCK
  5
20
330
1F
100
AcDbEntity
  8
0
100
AcDbBlockBegin
  2
*Model_Space
 70
     0
 71
     0
 10
0.0
 20
0.0
 30
0.0
  3
*Model_Space
  1

  0
ENDBLK
  5
21
330
1F
100
AcDbEntity
  8
0
100
AcDbBlockEnd
  0
BLOCK
  5
1C
330
1B
100
AcDbEntity
 67
     1
  8
0
100
AcDbBlockBegin
  2
*Paper_Space
 70
     0
 71
     0
 10
0.0
 20
0.0
 30
0.0
  3
*Paper_Space
  1

  0
ENDBLK
  5
1D
330
1B
100
AcDbEntity
 67
     1
  8
0
100
AcDbBlockEnd
  0
BLOCK
  5
24
330
23
100
AcDbEntity
  8
0
100
AcDbBlockBegin
  2
*Paper_Space0
 70
     0
 71
     0
 10
0.0
 20
0.0
 30
0.0
  3
*Paper_Space0
  1

  0
ENDBLK
  5
25
330
23
100
AcDbEntity
  8
0
100
AcDbBlockEnd
  0
BLOCK
  5
158
330
14E
100
AcDbEntity
  8
0
100
AcDbBlockBegin
  2
*D1
 70
     1
 71
     0
 10
0.0
 20
0.0
 30
0.0
  3
*D1
  1

  0
LINE
  5
14F
330
14E
100
AcDbEntity
  8
1
  6
Continuous
 62
     2
100
AcDbLine
 10
1092.458656274421
 20
-49.03004667307339
 30
0.0
 11
1092.458656274421
 21
-42.03004667307339
 31
0.0
  0
LINE
  5
150
330
14E
100
AcDbEntity
  8
1
  6
Continuous
 62
     2
100
AcDbLine
 10
1092.458656274421
 20
-50.03004667307336
 30
0.0
 11
1092.458656274421
 21
-49.03004667307339
 31
0.0
  0
LINE
  5
151
330
14E
100
AcDbEntity
  8
1
  6
Continuous
 62
     2
100
AcDbLine
 10
1092.458656274421
 20
-57.03004667307336
 30
0.0
 11
1092.458656274421
 21
-50.03004667307336
 31
0.0
  0
LINE
  5
152
330
14E
100
AcDbEntity
  8
1
  6
Continuous
 62
     2
100
AcDbLine
 10
1022.61873940159
 20
-50.03004667307336
 30
0.0
 11
1094.458656274421
 21
-50.03004667307336
 31
0.0
  0
LINE
  5
153
330
14E
100
AcDbEntity
  8
1
  6
Continuous
 62
     2
100
AcDbLine
 10
1083.618739401591
 20
-49.03004667307339
 30
0.0
 11
1094.458656274421
 21
-49.03004667307339
 31
0.0
  0
SOLID
  5
154
330
14E
100
AcDbEntity
  8
1
 62
     2
100
AcDbTrace
 10
1092.919440015977
 20
-53.53004667307336
 30
0.0
 11
1091.997872532865
 21
-53.53004667307336
 31
0.0
 12
1092.458656274421
 22
-50.03004667307336
 32
0.0
 13
1092.458656274421
 23
-50.03004667307336
 33
0.0
  0
SOLID
  5
155
330
14E
100
AcDbEntity
  8
1
 62
     2
100
AcDbTrace
 10
1091.997872532865
 20
-45.53004667307339
 30
0.0
 11
1092.919440015977
 21
-45.53004667307339
 31
0.0
 12
1092.458656274421
 22
-49.03004667307339
 32
0.0
 13
1092.458656274421
 23
-49.03004667307339
 33
0.0
  0
MTEXT
  5
157
330
14E
100
AcDbEntity
  8
1
 62
     2
100
AcDbMText
 10
1090.458656274421
 20
-53.8770887561101
 30
0.0
 40
3.5
 41
0.0
 71
     7
 72
     1
  1
1
  7
CONVERTER_11
 11
0.0
 21
1.0
 31
0.0
 73
     1
 44
0.60024009603842
  0
ENDBLK
  5
159
330
14E
100
AcDbEntity
  8
0
100
AcDbBlockEnd
  0
BLOCK
  5
163
330
15C
100
AcDbEntity
  8
0
100
AcDbBlockBegin
  2
*D2
 70
     1
 71
     0
 10
0.0
 20
0.0
 30
0.0
  3
*D2
  1

  0
LINE
  5
15D
330
15C
100
AcDbEntity
  8
1
  6
Continuous
 62
     2
100
AcDbLine
 10
986.1187394015913
 20
-69.6812443338298
 30
0.0
 11
1025.118739401591
 21
-69.6812443338298
 31
0.0
  0
LINE
  5
15E
330
15C
100
AcDbEntity
  8
1
  6
Continuous
 62
     2
100
AcDbLine
 10
986.1187394015913
 20
-48.53004667307361
 30
0.0
 11
986.1187394015913
 21
-71.6812443338298
 31
0.0
  0
LINE
  5
15F
330
15C
100
AcDbEntity
  8
1
  6
Continuous
 62
     2
100
AcDbLine
 10
1025.118739401591
 20
-45.03004667307343
 30
0.0
 11
1025.118739401591
 21
-71.6812443338298
 31
0.0
  0
SOLID
  5
160
330
15C
100
AcDbEntity
  8
1
 62
     2
100
AcDbTrace
 10
989.6187394015913
 20
-69.22046059227391
 30
0.0
 11
989.6187394015913
 21
-70.14202807538568
 31
0.0
 12
986.1187394015913
 22
-69.6812443338298
 32
0.0
 13
986.1187394015913
 23
-69.6812443338298
 33
0.0
  0
SOLID
  5
161
330
15C
100
AcDbEntity
  8
1
 62
     2
100
AcDbTrace
 10
1021.618739401591
 20
-70.14202807538568
 30
0.0
 11
1021.618739401591
 21
-69.22046059227391
 31
0.0
 12
1025.118739401591
 22
-69.6812443338298
 32
0.0
 13
1025.118739401591
 23
-69.6812443338298
 33
0.0
  0
MTEXT
  5
162
330
15C
100
AcDbEntity
  8
1
 62
     2
100
AcDbMText
 10
1002.87001187425
 20
-67.6812443338298
 30
0.0
 40
3.5
 41
0.0
 71
     7
 72
     1
  1
39
  7
CONVERTER_11
 11
0.9999999999970621
 21
2.424068405545307E-6
 31
0.0
 73
     1
 44
0.60024009603842
  0
ENDBLK
  5
164
330
15C
100
AcDbEntity
  8
0
100
AcDbBlockEnd
  0
BLOCK
  5
170
330
167
100
AcDbEntity
  8
0
100
AcDbBlockBegin
  2
*D3
 70
     1
 71
     0
 10
0.0
 20
0.0
 30
0.0
  3
*D3
  1

  0
LINE
  5
168
330
167
100
AcDbEntity
  8
1
  6
Continuous
 62
     2
100
AcDbLine
 10
1028.618739401591
 20
-59.30788206543511
 30
0.0
 11
1035.618739401591
 21
-59.30788206543511
 31
0.0
  0
LINE
  5
169
330
167
100
AcDbEntity
  8
1
  6
Continuous
 62
     2
100
AcDbLine
 10
1025.118739401591
 20
-59.30788206543511
 30
0.0
 11
1028.618739401591
 21
-59.30788206543511
 31
0.0
  0
LINE
  5
16A
330
167
100
AcDbEntity
  8
1
  6
Continuous
 62
     2
100
AcDbLine
 10
1014.571667622966
 20
-59.30788206543511
 30
0.0
 11
1025.118739401591
 21
-59.30788206543511
 31
0.0
  0
LINE
  5
16B
330
167
100
AcDbEntity
  8
1
  6
Continuous
 62
     2
100
AcDbLine
 10
1028.618739401591
 20
-49.03004667307339
 30
0.0
 11
1028.618739401591
 21
-61.30788206543511
 31
0.0
  0
LINE
  5
16C
330
167
100
AcDbEntity
  8
1
  6
Continuous
 62
     2
100
AcDbLine
 10
1025.118739401591
 20
-47.53004667307339
 30
0.0
 11
1025.118739401591
 21
-61.30788206543511
 31
0.0
  0
SOLID
  5
16D
330
167
100
AcDbEntity
  8
1
 62
     2
100
AcDbTrace
 10
1021.618739401591
 20
-59.768665806991
 30
0.0
 11
1021.618739401591
 21
-58.84709832387922
 31
0.0
 12
1025.118739401591
 22
-59.30788206543511
 32
0.0
 13
1025.118739401591
 23
-59.30788206543511
 33
0.0
  0
SOLID
  5
16E
330
167
100
AcDbEntity
  8
1
 62
     2
100
AcDbTrace
 10
1032.118739401591
 20
-58.84709832387922
 30
0.0
 11
1032.118739401591
 21
-59.768665806991
 31
0.0
 12
1028.618739401591
 22
-59.30788206543511
 32
0.0
 13
1028.618739401591
 23
-59.30788206543511
 33
0.0
  0
MTEXT
  5
16F
330
167
100
AcDbEntity
  8
1
 62
     2
100
AcDbMText
 10
1014.571667622966
 20
-57.30788206543511
 30
0.0
 40
3.5
 41
0.0
 71
     7
 72
     1
  1
3.5
  7
CONVERTER_11
 11
0.9999999999970621
 21
2.424068405545307E-6
 31
0.0
 73
     1
 44
0.60024009603842
  0
ENDBLK
  5
171
330
167
100
AcDbEntity
  8
0
100
AcDbBlockEnd
  0
BLOCK
  5
17B
330
174
100
AcDbEntity
  8
0
100
AcDbBlockBegin
  2
*D4
 70
     1
 71
     0
 10
0.0
 20
0.0
 30
0.0
  3
*D4
  1

  0
LINE
  5
175
330
174
100
AcDbEntity
  8
1
  6
Continuous
 62
     2
100
AcDbLine
 10
1028.618739401591
 20
-69.6812443338298
 30
0.0
 11
1065.118739401591
 21
-69.6812443338298
 31
0.0
  0
LINE
  5
176
330
174
100
AcDbEntity
  8
1
  6
Continuous
 62
     2
100
AcDbLine
 10
1065.118739401591
 20
-45.03004667306175
 30
0.0
 11
1065.118739401591
 21
-71.6812443338298
 31
0.0
  0
LINE
  5
177
330
174
100
AcDbEntity
  8
1
  6
Continuous
 62
     2
100
AcDbLine
 10
1028.618739401591
 20
-49.0300466730734
 30
0.0
 11
1028.618739401591
 21
-71.6812443338298
 31
0.0
  0
SOLID
  5
178
330
174
100
AcDbEntity
  8
1
 62
     2
100
AcDbTrace
 10
1032.118739401591
 20
-69.22046059227391
 30
0.0
 11
1032.118739401591
 21
-70.14202807538568
 31
0.0
 12
1028.618739401591
 22
-69.6812443338298
 32
0.0
 13
1028.618739401591
 23
-69.6812443338298
 33
0.0
  0
SOLID
  5
179
330
174
100
AcDbEntity
  8
1
 62
     2
100
AcDbTrace
 10
1061.618739401591
 20
-70.14202807538568
 30
0.0
 11
1061.618739401591
 21
-69.22046059227391
 31
0.0
 12
1065.118739401591
 22
-69.6812443338298
 32
0.0
 13
1065.118739401591
 23
-69.6812443338298
 33
0.0
  0
MTEXT
  5
17A
330
174
100
AcDbEntity
  8
1
 62
     2
100
AcDbMText
 10
1042.099989401591
 20
-67.6812443338298
 30
0.0
 40
3.5
 41
0.0
 71
     7
 72
     1
  1
36.5
  7
CONVERTER_11
 11
0.9999999999970621
 21
2.424068405545307E-6
 31
0.0
 73
     1
 44
0.60024009603842
  0
ENDBLK
  5
17C
330
174
100
AcDbEntity
  8
0
100
AcDbBlockEnd
  0
BLOCK
  5
189
330
17F
100
AcDbEntity
  8
0
100
AcDbBlockBegin
  2
*D5
 70
     1
 71
     0
 10
0.0
 20
0.0
 30
0.0
  3
*D5
  1

  0
LINE
  5
180
330
17F
100
AcDbEntity
  8
1
  6
Continuous
 62
     2
100
AcDbLine
 10
1101.806770824409
 20
-45.03004667306175
 30
0.0
 11
1101.806770824409
 21
-38.03004667306176
 31
0.0
  0
LINE
  5
181
330
17F
100
AcDbEntity
  8
1
  6
Continuous
 62
     2
100
AcDbLine
 10
1101.806770824409
 20
-49.03004667307339
 30
0.0
 11
1101.806770824409
 21
-45.03004667306175
 31
0.0
  0
LINE
  5
182
330
17F
100
AcDbEntity
  8
1
  6
Continuous
 62
     2
100
AcDbLine
 10
1101.806770824409
 20
-56.03004667307339
 30
0.0
 11
1101.806770824409
 21
-49.03004667307339
 31
0.0
  0
LINE
  5
183
330
17F
100
AcDbEntity
  8
1
  6
Continuous
 62
     2
100
AcDbLine
 10
1065.118739401591
 20
-45.03004667306175
 30
0.0
 11
1090.66926273657
 21
-45.03004667306175
 31
0.0
  0
LINE
  5
184
330
17F
100
AcDbEntity
  8
1
  6
Continuous
 62
     2
100
AcDbLine
 10
1094.11992988406
 20
-45.03004667306175
 30
0.0
 11
1103.806770824409
 21
-45.03004667306175
 31
0.0
  0
LINE
  5
185
330
17F
100
AcDbEntity
  8
1
  6
Continuous
 62
     2
100
AcDbLine
 10
1083.618739401591
 20
-49.03004667307339
 30
0.0
 11
1103.806770824409
 21
-49.03004667307339
 31
0.0
  0
SOLID
  5
186
330
17F
100
AcDbEntity
  8
1
 62
     2
100
AcDbTrace
 10
1102.267554565965
 20
-52.53004667307339
 30
0.0
 11
1101.345987082853
 21
-52.53004667307339
 31
0.0
 12
1101.806770824409
 22
-49.03004667307339
 32
0.0
 13
1101.806770824409
 23
-49.03004667307339
 33
0.0
  0
SOLID
  5
187
330
17F
100
AcDbEntity
  8
1
 62
     2
100
AcDbTrace
 10
1101.345987082853
 20
-41.53004667306175
 30
0.0
 11
1102.267554565965
 21
-41.53004667306175
 31
0.0
 12
1101.806770824409
 22
-45.03004667306175
 32
0.0
 13
1101.806770824409
 23
-45.03004667306175
 33
0.0
  0
MTEXT
  5
188
330
17F
100
AcDbEntity
  8
1
 62
     2
100
AcDbMText
 10
1099.806770824409
 20
-55.5645186661781
 30
0.0
 40
3.5
 41
0.0
 71
     7
 72
     1
  1
4
  7
CONVERTER_11
 11
0.0
 21
1.0
 31
0.0
 73
     1
 44
0.60024009603842
  0
ENDBLK
  5
18A
330
17F
100
AcDbEntity
  8
0
100
AcDbBlockEnd
  0
BLOCK
  5
195
330
18D
100
AcDbEntity
  8
0
100
AcDbBlockBegin
  2
*D6
 70
     1
 71
     0
 10
0.0
 20
0.0
 30
0.0
  3
*D6
  1

  0
LINE
  5
18E
330
18D
100
AcDbEntity
  8
1
  6
Continuous
 62
     2
100
AcDbLine
 10
1101.806770824409
 20
-45.03004667306175
 30
0.0
 11
1101.806770824409
 21
-13.03004667306187
 31
0.0
  0
LINE
  5
18F
330
18D
100
AcDbEntity
  8
1
  6
Continuous
 62
     2
100
AcDbLine
 10
1065.118739401591
 20
-13.03004667306187
 30
0.0
 11
1103.806770824409
 21
-13.03004667306187
 31
0.0
  0
LINE
  5
190
330
18D
100
AcDbEntity
  8
1
  6
Continuous
 62
     2
100
AcDbLine
 10
1065.118739401591
 20
-45.03004667306175
 30
0.0
 11
1090.66926273657
 21
-45.03004667306175
 31
0.0
  0
LINE
  5
191
330
18D
100
AcDbEntity
  8
1
  6
Continuous
 62
     2
100
AcDbLine
 10
1094.11992988406
 20
-45.03004667306175
 30
0.0
 11
1103.806770824409
 21
-45.03004667306175
 31
0.0
  0
SOLID
  5
192
330
18D
100
AcDbEntity
  8
1
 62
     2
100
AcDbTrace
 10
1101.345987082853
 20
-41.53004667306175
 30
0.0
 11
1102.267554565965
 21
-41.53004667306175
 31
0.0
 12
1101.806770824409
 22
-45.03004667306175
 32
0.0
 13
1101.806770824409
 23
-45.03004667306175
 33
0.0
  0
SOLID
  5
193
330
18D
100
AcDbEntity
  8
1
 62
     2
100
AcDbTrace
 10
1102.267554565965
 20
-16.53004667306187
 30
0.0
 11
1101.345987082853
 21
-16.53004667306187
 31
0.0
 12
1101.806770824409
 22
-13.03004667306187
 32
0.0
 13
1101.806770824409
 23
-13.03004667306187
 33
0.0
  0
MTEXT
  5
194
330
18D
100
AcDbEntity
  8
1
 62
     2
100
AcDbMText
 10
1099.806770824409
 20
-31.65504667306181
 30
0.0
 40
3.5
 41
0.0
 71
     7
 72
     1
  1
32
  7
CONVERTER_11
 11
0.0
 21
1.0
 31
0.0
 73
     1
 44
0.60024009603842
  0
ENDBLK
  5
196
330
18D
100
AcDbEntity
  8
0
100
AcDbBlockEnd
  0
BLOCK
  5
1A2
330
199
100
AcDbEntity
  8
0
100
AcDbBlockBegin
  2
*D7
 70
     1
 71
     0
 10
0.0
 20
0.0
 30
0.0
  3
*D7
  1

  0
LINE
  5
19A
330
199
100
AcDbEntity
  8
1
  6
Continuous
 62
     2
100
AcDbLine
 10
973.4730727158551
 20
-45.03004667307341
 30
0.0
 11
973.4730727158551
 21
-38.03004667307341
 31
0.0
  0
LINE
  5
19B
330
199
100
AcDbEntity
  8
1
  6
Continuous
 62
     2
100
AcDbLine
 10
973.4730727158551
 20
-50.03004667307349
 30
0.0
 11
973.4730727158551
 21
-45.03004667307341
 31
0.0
  0
LINE
  5
19C
330
199
100
AcDbEntity
  8
1
  6
Continuous
 62
     2
100
AcDbLine
 10
973.4730727158551
 20
-57.03004667307349
 30
0.0
 11
973.4730727158551
 21
-50.03004667307349
 31
0.0
  0
LINE
  5
19D
330
199
100
AcDbEntity
  8
1
  6
Continuous
 62
     2
100
AcDbLine
 10
995.6187394015906
 20
-45.03004667307341
 30
0.0
 11
971.4730727158551
 21
-45.03004667307341
 31
0.0
  0
LINE
  5
19E
330
199
100
AcDbEntity
  8
1
  6
Continuous
 62
     2
100
AcDbLine
 10
985.6187394015901
 20
-50.03004667307349
 30
0.0
 11
971.4730727158551
 21
-50.03004667307349
 31
0.0
  0
SOLID
  5
19F
330
199
100
AcDbEntity
  8
1
 62
     2
100
AcDbTrace
 10
973.933856457411
 20
-53.53004667307349
 30
0.0
 11
973.0122889742992
 21
-53.53004667307349
 31
0.0
 12
973.4730727158551
 22
-50.03004667307349
 32
0.0
 13
973.4730727158551
 23
-50.03004667307349
 33
0.0
  0
SOLID
  5
1A0
330
199
100
AcDbEntity
  8
1
 62
     2
100
AcDbTrace
 10
973.0122889742992
 20
-41.53004667307341
 30
0.0
 11
973.933856457411
 21
-41.53004667307341
 31
0.0
 12
973.4730727158551
 22
-45.03004667307341
 32
0.0
 13
973.4730727158551
 23
-45.03004667307341
 33
0.0
  0
MTEXT
  5
1A1
330
199
100
AcDbEntity
  8
1
 62
     2
100
AcDbMText
 10
971.4730727158551
 20
-55.43409824127109
 30
0.0
 40
3.5
 41
0.0
 71
     7
 72
     1
  1
5
  7
CONVERTER_11
 11
0.0
 21
1.0
 31
0.0
 73
     1
 44
0.60024009603842
  0
ENDBLK
  5
1A3
330
199
100
AcDbEntity
  8
0
100
AcDbBlockEnd
  0
BLOCK
  5
1AD
330
1A6
100
AcDbEntity
  8
0
100
AcDbBlockBegin
  2
*D8
 70
     1
 71
     0
 10
0.0
 20
0.0
 30
0.0
  3
*D8
  1

  0
LINE
  5
1A7
330
1A6
100
AcDbEntity
  8
1
  6
Continuous
 62
     2
100
AcDbLine
 10
973.4730727158551
 20
-45.03004667307341
 30
0.0
 11
973.4730727158551
 21
-13.03004667307341
 31
0.0
  0
LINE
  5
1A8
330
1A6
100
AcDbEntity
  8
1
  6
Continuous
 62
     2
100
AcDbLine
 10
995.6187394015906
 20
-13.03004667307341
 30
0.0
 11
971.4730727158551
 21
-13.03004667307341
 31
0.0
  0
LINE
  5
1A9
330
1A6
100
AcDbEntity
  8
1
  6
Continuous
 62
     2
100
AcDbLine
 10
995.6187394015906
 20
-45.03004667307341
 30
0.0
 11
971.4730727158551
 21
-45.03004667307341
 31
0.0
  0
SOLID
  5
1AA
330
1A6
100
AcDbEntity
  8
1
 62
     2
100
AcDbTrace
 10
973.0122889742992
 20
-41.53004667307341
 30
0.0
 11
973.933856457411
 21
-41.53004667307341
 31
0.0
 12
973.4730727158551
 22
-45.03004667307341
 32
0.0
 13
973.4730727158551
 23
-45.03004667307341
 33
0.0
  0
SOLID
  5
1AB
330
1A6
100
AcDbEntity
  8
1
 62
     2
100
AcDbTrace
 10
973.933856457411
 20
-16.53004667307341
 30
0.0
 11
973.0122889742992
 21
-16.53004667307341
 31
0.0
 12
973.4730727158551
 22
-13.03004667307341
 32
0.0
 13
973.4730727158551
 23
-13.03004667307341
 33
0.0
  0
MTEXT
  5
1AC
330
1A6
100
AcDbEntity
  8
1
 62
     2
100
AcDbMText
 10
971.4730727158551
 20
-31.65504667307341
 30
0.0
 40
3.5
 41
0.0
 71
     7
 72
     1
  1
32
  7
CONVERTER_11
 11
0.0
 21
1.0
 31
0.0
 73
     1
 44
0.60024009603842
  0
ENDBLK
  5
1AE
330
1A6
100
AcDbEntity
  8
0
100
AcDbBlockEnd
  0
ENDSEC
  0
SECTION
  2
ENTITIES
  0
POINT
  5
34
330
1F
100
AcDbEntity
  8
A_BEMASSUNGEN
 62
     7
100
AcDbPoint
 10
1030.106971291758
 20
-45.03004667306175
 30
0.0
  0
POINT
  5
35
330
1F
100
AcDbEntity
  8
A_BEMASSUNGEN
 62
     7
100
AcDbPoint
 10
1030.106971291758
 20
-13.03004667306187
 30
0.0
  0
POINT
  5
36
330
1F
100
AcDbEntity
  8
A_BEMASSUNGEN
 62
     7
100
AcDbPoint
 10
1023.118739401591
 20
-45.03004667307341
 30
0.0
  0
POINT
  5
37
330
1F
100
AcDbEntity
  8
A_BEMASSUNGEN
 62
     7
100
AcDbPoint
 10
988.618739401591
 20
-43.42235151847343
 30
0.0
  0
LINE
  5
38
330
1F
100
AcDbEntity
  8
0
  6
Continuous
 62
     7
100
AcDbLine
 10
1044.106971291758
 20
-42.53004667306174
 30
0.0
 11
1044.106971291758
 21
-45.03004667306175
 31
0.0
  0
LINE
  5
39
330
1F
100
AcDbEntity
  8
0
  6
Continuous
 62
     7
100
AcDbLine
 10
1044.106971291758
 20
-42.23004667306183
 30
0.0
 11
1044.106971291758
 21
-42.53004667306174
 31
0.0
  0
LINE
  5
3A
330
1F
100
AcDbEntity
  8
1
  6
Continuous
 62
     7
100
AcDbLine
 10
1044.106971291758
 20
-42.53004667306174
 30
0.0
 11
1058.118739401591
 21
-42.53004667306174
 31
0.0
  0
LINE
  5
3B
330
1F
100
AcDbEntity
  8
0
  6
Continuous
 62
     7
100
AcDbLine
 10
1048.106971291758
 20
-38.2300466730618
 30
0.0
 11
1063.069496919385
 21
-38.2300466730618
 31
0.0
  0
LINE
  5
3C
330
1F
100
AcDbEntity
  8
0
  6
Continuous
 62
     7
100
AcDbLine
 10
1063.118739401591
 20
-37.53004667306174
 30
0.0
 11
1063.118739401591
 21
-35.5300466730618
 31
0.0
  0
LINE
  5
3D
330
1F
100
AcDbEntity
  8
1
  6
DASHED
 62
     2
100
AcDbLine
 10
1053.856937067201
 20
-17.03004667307344
 30
0.0
 11
1034.618739401591
 21
-17.03004667307344
 31
0.0
  0
LINE
  5
3E
330
1F
100
AcDbEntity
  8
0
  6
Continuous
 62
     7
100
AcDbLine
 10
1063.118739401591
 20
-35.5300466730618
 30
0.0
 11
1063.118739401591
 21
-28.53004667306184
 31
0.0
  0
LINE
  5
3F
330
1F
100
AcDbEntity
  8
0
  6
Continuous
 62
     7
100
AcDbLine
 10
1063.118739401591
 20
-22.53004667306184
 30
0.0
 11
1063.118739401591
 21
-18.03004667306184
 31
0.0
  0
LINE
  5
40
330
1F
100
AcDbEntity
  8
0
  6
Continuous
 62
     7
100
AcDbLine
 10
1057.056561575082
 20
-14.53004667306181
 30
0.0
 11
1063.118739401591
 21
-18.03004667306184
 31
0.0
  0
LINE
  5
41
330
1F
100
AcDbEntity
  8
0
  6
Continuous
 62
     7
100
AcDbLine
 10
1057.056561575082
 20
-14.53004667306181
 30
0.0
 11
1034.58863667529
 21
-14.53004667306181
 31
0.0
  0
LINE
  5
42
330
1F
100
AcDbEntity
  8
1
  6
Continuous
 62
     7
100
AcDbLine
 10
1030.618739401591
 20
-13.83004667306181
 30
0.0
 11
1034.64166433552
 21
-14.53004667306181
 31
0.0
  0
LINE
  5
43
330
1F
100
AcDbEntity
  8
1
  6
Continuous
 62
     7
100
AcDbLine
 10
1030.618739401591
 20
-13.83004667306181
 30
0.0
 11
1030.618739401591
 21
-13.03004667306181
 31
0.0
  0
LINE
  5
44
330
1F
100
AcDbEntity
  8
1
  6
Continuous
 62
     7
100
AcDbLine
 10
1021.118739401591
 20
-46.03004667307359
 30
0.0
 11
1021.118739401591
 21
-45.03004667307341
 31
0.0
  0
LINE
  5
45
330
1F
100
AcDbEntity
  8
1
  6
Continuous
 62
     7
100
AcDbLine
 10
1021.118739401591
 20
-13.03004667307338
 30
0.0
 11
1021.118739401591
 21
-12.53004667307355
 31
0.0
  0
LINE
  5
46
330
1F
100
AcDbEntity
  8
1
  6
Continuous
 62
     7
100
AcDbLine
 10
1015.118739401591
 20
-12.53004667307355
 30
0.0
 11
1015.118739401591
 21
-13.03004667307338
 31
0.0
  0
LINE
  5
47
330
1F
100
AcDbEntity
  8
1
  6
Continuous
 62
     7
100
AcDbLine
 10
1012.118739401591
 20
-13.03004667307338
 30
0.0
 11
1012.118739401591
 21
-12.53004667307355
 31
0.0
  0
LINE
  5
48
330
1F
100
AcDbEntity
  8
1
  6
Continuous
 62
     7
100
AcDbLine
 10
1012.118739401591
 20
-9.83004667307373
 30
0.0
 11
1012.118739401591
 21
-8.53004667307355
 31
0.0
  0
LINE
  5
49
330
1F
100
AcDbEntity
  8
1
  6
Continuous
 62
     7
100
AcDbLine
 10
1015.118739401591
 20
-9.83004667307373
 30
0.0
 11
1015.118739401591
 21
-10.03004667307355
 31
0.0
  0
LINE
  5
4A
330
1F
100
AcDbEntity
  8
1
  6
Continuous
 62
     7
100
AcDbLine
 10
1015.118739401591
 20
-9.83004667307373
 30
0.0
 11
1012.118739401591
 21
-9.83004667307373
 31
0.0
  0
LINE
  5
4B
330
1F
100
AcDbEntity
  8
1
  6
Continuous
 62
     7
100
AcDbLine
 10
1011.618739401591
 20
-45.53004667307355
 30
0.0
 11
1011.618739401591
 21
-48.53004667307359
 31
0.0
  0
LINE
  5
4C
330
1F
100
AcDbEntity
  8
1
  6
Continuous
 62
     7
100
AcDbLine
 10
1010.118739401591
 20
-45.53004667307355
 30
0.0
 11
1010.618739401591
 21
-45.53004667307355
 31
0.0
  0
LINE
  5
4D
330
1F
100
AcDbEntity
  8
1
  6
Continuous
 62
     7
100
AcDbLine
 10
1010.118739401591
 20
-48.53004667307359
 30
0.0
 11
1000.118739401591
 21
-48.53004667307359
 31
0.0
  0
LINE
  5
4E
330
1F
100
AcDbEntity
  8
1
  6
Continuous
 62
     7
100
AcDbLine
 10
1010.118739401591
 20
-45.53004667307355
 30
0.0
 11
1010.118739401591
 21
-48.53004667307359
 31
0.0
  0
LINE
  5
4F
330
1F
100
AcDbEntity
  8
1
  6
Continuous
 62
     7
100
AcDbLine
 10
1012.118739401591
 20
-8.53004667307355
 30
0.0
 11
1015.118739401591
 21
-8.53004667307355
 31
0.0
  0
LINE
  5
50
330
1F
100
AcDbEntity
  8
1
  6
Continuous
 62
     7
100
AcDbLine
 10
1000.118739401591
 20
-45.53004667307355
 30
0.0
 11
1010.118739401591
 21
-45.53004667307355
 31
0.0
  0
LINE
  5
51
330
1F
100
AcDbEntity
  8
1
  6
Continuous
 62
     7
100
AcDbLine
 10
1000.118739401591
 20
-48.53004667307359
 30
0.0
 11
1000.118739401591
 21
-45.53004667307355
 31
0.0
  0
LINE
  5
52
330
1F
100
AcDbEntity
  8
1
  6
Continuous
 62
     7
100
AcDbLine
 10
1011.618739401591
 20
-48.53004667307359
 30
0.0
 11
1010.618739401591
 21
-48.53004667307359
 31
0.0
  0
LINE
  5
53
330
1F
100
AcDbEntity
  8
1
  6
Continuous
 62
     7
100
AcDbLine
 10
1015.118739401591
 20
-8.53004667307355
 30
0.0
 11
1015.118739401591
 21
-9.83004667307373
 31
0.0
  0
LINE
  5
54
330
1F
100
AcDbEntity
  8
1
  6
Continuous
 62
     7
100
AcDbLine
 10
1012.118739401591
 20
-10.03004667307355
 30
0.0
 11
1012.118739401591
 21
-9.83004667307373
 31
0.0
  0
LINE
  5
55
330
1F
100
AcDbEntity
  8
1
  6
Continuous
 62
     7
100
AcDbLine
 10
1010.618739401591
 20
-45.53004667307355
 30
0.0
 11
1011.618739401591
 21
-45.53004667307355
 31
0.0
  0
LINE
  5
56
330
1F
100
AcDbEntity
  8
1
  6
Continuous
 62
     7
100
AcDbLine
 10
1010.618739401591
 20
-48.53004667307359
 30
0.0
 11
1010.118739401591
 21
-48.53004667307359
 31
0.0
  0
LINE
  5
57
330
1F
100
AcDbEntity
  8
1
  6
Continuous
 62
     7
100
AcDbLine
 10
986.118739401591
 20
-13.03004667307355
 30
0.0
 11
986.1187394015909
 21
-48.5300466730736
 31
0.0
  0
LINE
  5
58
330
1F
100
AcDbEntity
  8
1
  6
Continuous
 62
     7
100
AcDbLine
 10
1010.118739401591
 20
-48.53004667307359
 30
0.0
 11
1021.118739401591
 21
-48.53004667307359
 31
0.0
  0
LINE
  5
59
330
1F
100
AcDbEntity
  8
1
  6
Continuous
 62
     7
100
AcDbLine
 10
1010.118739401591
 20
-45.53004667307355
 30
0.0
 11
1010.118739401591
 21
-48.53004667307359
 31
0.0
  0
LINE
  5
5A
330
1F
100
AcDbEntity
  8
1
  6
Continuous
 62
     7
100
AcDbLine
 10
999.9187394015906
 20
-45.53004667307355
 30
0.0
 11
1010.118739401591
 21
-45.53004667307355
 31
0.0
  0
LINE
  5
5B
330
1F
100
AcDbEntity
  8
1
  6
Continuous
 62
     7
100
AcDbLine
 10
999.9187394015906
 20
-48.53004667307359
 30
0.0
 11
999.9187394015906
 21
-45.53004667307355
 31
0.0
  0
LINE
  5
5C
330
1F
100
AcDbEntity
  8
1
  6
Continuous
 62
     7
100
AcDbLine
 10
1021.118739401591
 20
-12.53004667307355
 30
0.0
 11
989.1187394015909
 21
-12.53004667307355
 31
0.0
  0
LINE
  5
5D
330
1F
100
AcDbEntity
  8
1
  6
Continuous
 62
     7
100
AcDbLine
 10
988.618739401591
 20
-48.53004667307359
 30
0.0
 11
999.9187394015906
 21
-48.53004667307359
 31
0.0
  0
LINE
  5
5E
330
1F
100
AcDbEntity
  8
1
  6
Continuous
 62
     7
100
AcDbLine
 10
988.618739401591
 20
-13.03004667307355
 30
0.0
 11
988.618739401591
 21
-48.53004667307359
 31
0.0
  0
LINE
  5
5F
330
1F
100
AcDbEntity
  8
1
  6
Continuous
 62
     7
100
AcDbLine
 10
1023.118739401591
 20
-12.53004667307355
 30
0.0
 11
1023.118739401591
 21
-10.03004667307355
 31
0.0
  0
LINE
  5
60
330
1F
100
AcDbEntity
  8
1
  6
Continuous
 62
     7
100
AcDbLine
 10
1023.618739401591
 20
-12.53004667307355
 30
0.0
 11
1021.118739401591
 21
-12.53004667307355
 31
0.0
  0
LINE
  5
61
330
1F
100
AcDbEntity
  8
1
  6
Continuous
 62
     7
100
AcDbLine
 10
1023.118739401591
 20
-10.03004667307355
 30
0.0
 11
989.118739401591
 21
-10.03004667307355
 31
0.0
  0
LINE
  5
62
330
1F
100
AcDbEntity
  8
1
  6
Continuous
 62
     7
100
AcDbLine
 10
1021.118739401591
 20
-46.03004667307359
 30
0.0
 11
1023.618739401591
 21
-46.03004667307359
 31
0.0
  0
LINE
  5
63
330
1F
100
AcDbEntity
  8
1
  6
Continuous
 62
     7
100
AcDbLine
 10
1021.118739401591
 20
-48.53004667307359
 30
0.0
 11
1021.118739401591
 21
-46.03004667307359
 31
0.0
  0
LINE
  5
64
330
1F
100
AcDbEntity
  8
1
  6
Continuous
 62
     7
100
AcDbLine
 10
986.1187394015909
 20
-48.5300466730736
 30
0.0
 11
988.618739401591
 21
-48.53004667307359
 31
0.0
  0
LINE
  5
65
330
1F
100
AcDbEntity
  8
1
  6
DOT_CENTER
 62
     2
100
AcDbLine
 10
996.8687394015918
 20
-31.43004667307302
 30
0.0
 11
996.8687394015918
 21
-19.6300466730734
 31
0.0
  0
LINE
  5
66
330
1F
100
AcDbEntity
  8
1
  6
DOT_CENTER
 62
     2
100
AcDbLine
 10
1002.768739401592
 20
-25.53004667307338
 30
0.0
 11
990.9687394015917
 21
-25.53004667307349
 31
0.0
  0
LINE
  5
67
330
1F
100
AcDbEntity
  8
1
  6
DOT_CENTER
 62
     2
100
AcDbLine
 10
1034.618739401591
 20
-45.8050466730736
 30
0.0
 11
1034.618739401591
 21
-31.2550466730734
 31
0.0
  0
LINE
  5
68
330
1F
100
AcDbEntity
  8
1
  6
DOT_CENTER
 62
     2
100
AcDbLine
 10
1041.89373940159
 20
-38.53004667307349
 30
0.0
 11
1027.343739401591
 21
-38.53004667307338
 31
0.0
  0
LINE
  5
69
330
1F
100
AcDbEntity
  8
1
  6
Continuous
 62
     7
100
AcDbLine
 10
1035.534049461001
 20
-21.12428892061696
 30
0.0
 11
1038.697166526337
 21
-24.2874059859527
 31
0.0
  0
LINE
  5
6A
330
1F
100
AcDbEntity
  8
1
  6
DASHED
 62
     2
100
AcDbLine
 10
1026.868739401592
 20
-24.98233352615883
 30
0.0
 11
1018.203429342182
 21
-21.1242889206169
 31
0.0
  0
LINE
  5
6B
330
1F
100
AcDbEntity
  8
1
  6
Continuous
 62
     7
100
AcDbLine
 10
1018.203429342182
 20
-21.1242889206169
 30
0.0
 11
1018.033819890026
 21
-21.04877392721759
 31
0.0
  0
LINE
  5
6C
330
1F
100
AcDbEntity
  8
1
  6
Continuous
 62
     7
100
AcDbLine
 10
1029.90007065852
 20
-36.2285981524307
 30
0.0
 11
1032.897935638508
 21
-30.0820640674245
 31
0.0
  0
LINE
  5
6D
330
1F
100
AcDbEntity
  8
1
  6
Continuous
 62
     7
100
AcDbLine
 10
1039.868739401591
 20
-27.11583311069902
 30
0.0
 11
1039.868739401591
 21
-35.33494147556672
 31
0.0
  0
LINE
  5
6E
330
1F
100
AcDbEntity
  8
1
  6
Continuous
 62
     7
100
AcDbLine
 10
1032.897935638508
 20
-30.0820640674245
 30
0.0
 11
1039.868739401591
 21
-35.33494147556672
 31
0.0
  0
LINE
  5
6F
330
1F
100
AcDbEntity
  8
1
  6
Continuous
 62
     7
100
AcDbLine
 10
1032.897935638508
 20
-30.0820640674245
 30
0.0
 11
1032.957915766287
 21
-29.95908658102068
 31
0.0
  0
LINE
  5
70
330
1F
100
AcDbEntity
  8
1
  6
Continuous
 62
     7
100
AcDbLine
 10
1039.868739401591
 20
-35.33494147556672
 30
0.0
 11
1039.868739401591
 21
-38.53004667307327
 31
0.0
  0
LINE
  5
71
330
1F
100
AcDbEntity
  8
1
  6
Continuous
 62
     7
100
AcDbLine
 10
1031.973800959841
 20
-27.25525337215746
 30
0.0
 11
1026.868739401592
 21
-24.98233352615883
 31
0.0
  0
LINE
  5
72
330
1F
100
AcDbEntity
  8
1
  6
Continuous
 62
     7
100
AcDbLine
 10
1001.07910494732
 20
-22.02678790853103
 30
0.0
 11
1001.990059745152
 21
-21.11583311070005
 31
0.0
  0
LINE
  5
73
330
1F
100
AcDbEntity
  8
1
  6
DASHED
 62
     2
100
AcDbLine
 10
1030.404273307524
 20
-15.99451276714039
 30
0.0
 11
1035.534049461001
 21
-21.12428892061696
 31
0.0
  0
LINE
  5
74
330
1F
100
AcDbEntity
  8
1
  6
Continuous
 62
     7
100
AcDbLine
 10
994.0403122768455
 20
-22.70161954832705
 30
0.0
 11
998.9545258392187
 21
-17.78740598595417
 31
0.0
  0
LINE
  5
75
330
1F
100
AcDbEntity
  8
1
  6
Continuous
 62
     7
100
AcDbLine
 10
1006.477746176128
 20
-20.53004667307331
 30
0.0
 11
1009.868739401591
 21
-16.03004667307331
 31
0.0
  0
LINE
  5
76
330
1F
100
AcDbEntity
  8
1
  6
Continuous
 62
     7
100
AcDbLine
 10
1003.197166526338
 20
-16.03004667307327
 30
0.0
 11
1022.53861238267
 21
-16.03004667307338
 31
0.0
  0
LINE
  5
77
330
1F
100
AcDbEntity
  8
1
  6
Continuous
 62
     7
100
AcDbLine
 10
1003.404273307525
 20
-20.53004667307338
 30
0.0
 11
1015.593400031572
 21
-20.53004667307338
 31
0.0
  0
LINE
  5
78
330
1F
100
AcDbEntity
  8
1
  6
PHANTOM
 62
     2
100
AcDbLine
 10
1083.618739401591
 20
-49.03004667307339
 30
0.0
 11
1083.618739401591
 21
-9.03004667307344
 31
0.0
  0
LINE
  5
79
330
1F
100
AcDbEntity
  8
1
  6
Continuous
 62
     7
100
AcDbLine
 10
1046.118739401591
 20
-49.03004667307339
 30
0.0
 11
1083.618739401591
 21
-49.03004667307339
 31
0.0
  0
LINE
  5
7A
330
1F
100
AcDbEntity
  8
1
  6
Continuous
 62
     7
100
AcDbLine
 10
1028.618739401591
 20
-9.03004667307338
 30
0.0
 11
1083.618739401591
 21
-9.03004667307344
 31
0.0
  0
LINE
  5
7B
330
1F
100
AcDbEntity
  8
1
  6
DOT_CENTER
 62
     2
100
AcDbLine
 10
1083.618739401591
 20
-9.03004667307344
 30
0.0
 11
1083.618739401591
 21
-6.27839167193824
 31
0.0
  0
LINE
  5
7C
330
1F
100
AcDbEntity
  8
1
  6
Continuous
 62
     7
100
AcDbLine
 10
1028.618739401591
 20
-9.03004667307338
 30
0.0
 11
1028.618739401591
 21
-13.03004667306187
 31
0.0
  0
LINE
  5
7D
330
1F
100
AcDbEntity
  8
1
  6
Continuous
 62
     7
100
AcDbLine
 10
1028.618739401591
 20
-49.03004667307339
 30
0.0
 11
1045.118739401591
 21
-49.03004667307339
 31
0.0
  0
LINE
  5
7E
330
1F
100
AcDbEntity
  8
1
  6
Continuous
 62
     7
100
AcDbLine
 10
1045.118739401591
 20
-49.03004667307339
 30
0.0
 11
1046.118739401591
 21
-49.03004667307339
 31
0.0
  0
LINE
  5
7F
330
1F
100
AcDbEntity
  8
1
  6
Continuous
 62
     7
100
AcDbLine
 10
1028.618739401591
 20
-45.03004667306178
 30
0.0
 11
1028.618739401591
 21
-49.03004667307339
 31
0.0
  0
LINE
  5
80
330
1F
100
AcDbEntity
  8
1
  6
DOT_CENTER
 62
     2
100
AcDbLine
 10
1083.618739401591
 20
-49.03004667307339
 30
0.0
 11
1083.618739401591
 21
-52.03004667307339
 31
0.0
  0
LINE
  5
81
330
1F
100
AcDbEntity
  8
0
  6
Continuous
 62
     7
100
AcDbLine
 10
1065.118739401591
 20
-34.13004667306195
 30
0.0
 11
1065.118739401591
 21
-16.93004667306196
 31
0.0
  0
LINE
  5
82
330
1F
100
AcDbEntity
  8
0
  6
Continuous
 62
     7
100
AcDbLine
 10
1065.118739401591
 20
-16.93004667306196
 30
0.0
 11
1065.118739401591
 21
-15.45830345736187
 31
0.0
  0
LINE
  5
83
330
1F
100
AcDbEntity
  8
0
  6
Continuous
 62
     7
100
AcDbLine
 10
1065.118739401591
 20
-42.52986557132318
 30
0.0
 11
1065.118739401591
 21
-34.13004667306195
 31
0.0
  0
LINE
  5
84
330
1F
100
AcDbEntity
  8
0
  6
Continuous
 62
     7
100
AcDbLine
 10
1056.606971291758
 20
-13.03004667306187
 30
0.0
 11
1063.827499053091
 21
-13.97290135426187
 31
0.0
  0
LINE
  5
85
330
1F
100
AcDbEntity
  8
0
  6
Continuous
 62
     7
100
AcDbLine
 10
1036.606971291758
 20
-13.03004667306187
 30
0.0
 11
1056.606971291758
 21
-13.03004667306187
 31
0.0
  0
LINE
  5
86
330
1F
100
AcDbEntity
  8
A_RUNDUNGEN
  6
Continuous
 62
     7
100
AcDbLine
 10
1030.106971291758
 20
-13.03004667306187
 30
0.0
 11
1036.606971291758
 21
-13.03004667306187
 31
0.0
  0
LINE
  5
87
330
1F
100
AcDbEntity
  8
A_RUNDUNGEN
  6
Continuous
 62
     7
100
AcDbLine
 10
1044.106971291758
 20
-45.03004667306175
 30
0.0
 11
1030.106971291758
 21
-45.03004667306175
 31
0.0
  0
LINE
  5
88
330
1F
100
AcDbEntity
  8
0
  6
Continuous
 62
     7
100
AcDbLine
 10
1056.606971291758
 20
-45.03004667306175
 30
0.0
 11
1044.106971291758
 21
-45.03004667306175
 31
0.0
  0
LINE
  5
89
330
1F
100
AcDbEntity
  8
0
  6
Continuous
 62
     7
100
AcDbLine
 10
1063.827499053044
 20
-44.01526767443375
 30
0.0
 11
1056.606971291758
 21
-45.03004667306175
 31
0.0
  0
LINE
  5
8A
330
1F
100
AcDbEntity
  8
A_RUNDUNGEN
  6
Continuous
 62
     7
100
AcDbLine
 10
1030.106971291758
 20
-45.03004667306175
 30
0.0
 11
1030.106971291758
 21
-44.53004667306175
 31
0.0
  0
LINE
  5
8B
330
1F
100
AcDbEntity
  8
1
  6
Continuous
 62
     7
100
AcDbLine
 10
1030.106971291758
 20
-13.03004667306187
 30
0.0
 11
1028.618739401591
 21
-13.03004667306187
 31
0.0
  0
LINE
  5
8C
330
1F
100
AcDbEntity
  8
1
  6
Continuous
 62
     7
100
AcDbLine
 10
1028.618739401591
 20
-13.03004667306187
 30
0.0
 11
1028.618739401591
 21
-14.84629817427442
 31
0.0
  0
LINE
  5
8D
330
1F
100
AcDbEntity
  8
1
  6
Continuous
 62
     7
100
AcDbLine
 10
1030.106971291758
 20
-45.03004667306175
 30
0.0
 11
1028.618739401591
 21
-45.03004667306178
 31
0.0
  0
LINE
  5
8E
330
1F
100
AcDbEntity
  8
1
  6
Continuous
 62
     7
100
AcDbLine
 10
1028.618739401591
 20
-45.03004667306178
 30
0.0
 11
1028.618739401591
 21
-25.76148372544845
 31
0.0
  0
LINE
  5
8F
330
1F
100
AcDbEntity
  8
1
  6
Continuous
 62
     7
100
AcDbLine
 10
1056.606971291758
 20
-45.03004667306175
 30
0.0
 11
1065.118739401591
 21
-45.03004667306175
 31
0.0
  0
LINE
  5
90
330
1F
100
AcDbEntity
  8
1
  6
Continuous
 62
     7
100
AcDbLine
 10
1056.606971291758
 20
-13.03004667306187
 30
0.0
 11
1065.118739401591
 21
-13.03004667306187
 31
0.0
  0
LINE
  5
91
330
1F
100
AcDbEntity
  8
1
  6
Continuous
 62
     7
100
AcDbLine
 10
1065.118739401591
 20
-15.45830345736187
 30
0.0
 11
1065.118739401591
 21
-13.03004667306187
 31
0.0
  0
LINE
  5
92
330
1F
100
AcDbEntity
  8
1
  6
Continuous
 62
     7
100
AcDbLine
 10
1065.118739401591
 20
-42.52986557132318
 30
0.0
 11
1065.118739401591
 21
-45.03004667306175
 31
0.0
  0
LINE
  5
93
330
1F
100
AcDbEntity
  8
1
  6
Continuous
 62
     7
100
AcDbLine
 10
1058.020586599786
 20
-17.21743109900013
 30
0.0
 11
1060.463975925072
 21
-18.3568022532351
 31
0.0
  0
LINE
  5
94
330
1F
100
AcDbEntity
  8
1
  6
DASHED
 62
     2
100
AcDbLine
 10
1032.548916706578
 20
-27.64296230279098
 30
0.0
 11
1032.445624937283
 21
-25.67203793415813
 31
0.0
  0
LINE
  5
95
330
1F
100
AcDbEntity
  8
1
  6
Continuous
 62
     7
100
AcDbLine
 10
1032.698205943021
 20
-30.49157062935991
 30
0.0
 11
1032.548916706578
 21
-27.64296230279098
 31
0.0
  0
LINE
  5
96
330
1F
100
AcDbEntity
  8
1
  6
DASHED
 62
     2
100
AcDbLine
 10
1032.707370206008
 20
-30.66643518406497
 30
0.0
 11
1032.698205943021
 21
-30.49157062935991
 31
0.0
  0
LINE
  5
97
330
1F
100
AcDbEntity
  8
1
  6
Continuous
 62
     7
100
AcDbLine
 10
1056.618739401591
 20
-35.03004667307344
 30
0.0
 11
1056.618739401591
 21
-36.03004667307344
 31
0.0
  0
LINE
  5
98
330
1F
100
AcDbEntity
  8
1
  6
Continuous
 62
     7
100
AcDbLine
 10
1054.618739401591
 20
-38.03004667307344
 30
0.0
 11
1043.618739401591
 21
-38.03004667307344
 31
0.0
  0
LINE
  5
99
330
1F
100
AcDbEntity
  8
1
  6
Continuous
 62
     7
100
AcDbLine
 10
1057.175350076305
 20
-17.03004667307344
 30
0.0
 11
1053.856937067201
 21
-17.03004667307344
 31
0.0
  0
LINE
  5
9A
330
1F
100
AcDbEntity
  8
1
  6
Continuous
 62
     7
100
AcDbLine
 10
1032.618739401591
 20
-15.03004667307344
 30
0.0
 11
1032.618739401591
 21
-14.28004667307343
 31
0.0
  0
LINE
  5
9B
330
1F
100
AcDbEntity
  8
1
  6
Continuous
 62
     7
100
AcDbLine
 10
1032.618739401591
 20
-14.28004667307343
 30
0.0
 11
1028.618739401591
 21
-14.28004667307343
 31
0.0
  0
LINE
  5
9C
330
1F
100
AcDbEntity
  8
1
  6
Continuous
 62
     7
100
AcDbLine
 10
1059.618739401591
 20
-33.03004667307344
 30
0.0
 11
1058.618739401591
 21
-33.03004667307344
 31
0.0
  0
LINE
  5
9D
330
1F
100
AcDbEntity
  8
1
  6
Continuous
 62
     7
100
AcDbLine
 10
1039.618739401591
 20
-44.53004667307344
 30
0.0
 11
1028.618739401591
 21
-44.53004667307344
 31
0.0
  0
LINE
  5
9E
330
1F
100
AcDbEntity
  8
1
  6
Continuous
 62
     7
100
AcDbLine
 10
1039.618739401591
 20
-42.03004667307344
 30
0.0
 11
1039.618739401591
 21
-44.53004667307344
 31
0.0
  0
LINE
  5
9F
330
1F
100
AcDbEntity
  8
1
  6
Continuous
 62
     7
100
AcDbLine
 10
1061.618739401591
 20
-31.03004667307344
 30
0.0
 11
1061.618739401591
 21
-29.63166479027043
 31
0.0
  0
LINE
  5
A0
330
1F
100
AcDbEntity
  8
1
  6
Continuous
 62
     7
100
AcDbLine
 10
1061.618739401591
 20
-29.63166479027043
 30
0.0
 11
1061.618739401591
 21
-20.1694178273084
 31
0.0
  0
LINE
  5
A1
330
1F
100
AcDbEntity
  8
1
  6
DOT_CENTER
 62
     2
100
AcDbLine
 10
1056.868739401591
 20
-19.63004667307335
 30
0.0
 11
1056.868739401591
 21
-31.4300466730733
 31
0.0
  0
LINE
  5
A2
330
1F
100
AcDbEntity
  8
1
  6
DOT_CENTER
 62
     2
100
AcDbLine
 10
1062.768739401591
 20
-25.53004667307344
 30
0.0
 11
1050.968739401591
 21
-25.53004667307344
 31
0.0
  0
LINE
  5
A3
330
1F
100
AcDbEntity
  8
1
  6
DOT_CENTER
 62
     2
100
AcDbLine
 10
1026.868739401592
 20
-12.53004667307355
 30
0.0
 11
1026.868739401592
 21
-26.53004667307332
 31
0.0
  0
LINE
  5
A4
330
1F
100
AcDbEntity
  8
1
  6
DOT_CENTER
 62
     2
100
AcDbLine
 10
1033.868739401592
 20
-19.53004667307344
 30
0.0
 11
1019.868739401592
 21
-19.53004667307344
 31
0.0
  0
LINE
  5
A5
330
1F
100
AcDbEntity
  8
1
  6
DOT_CENTER
 62
     2
100
AcDbLine
 10
1019.118739401592
 20
-31.25504667307346
 30
0.0
 11
1019.118739401593
 21
-45.8050466730736
 31
0.0
  0
LINE
  5
A6
330
1F
100
AcDbEntity
  8
1
  6
DOT_CENTER
 62
     2
100
AcDbLine
 10
1026.393739401593
 20
-38.53004667307344
 30
0.0
 11
1011.843739401593
 21
-38.53004667307344
 31
0.0
  0
LINE
  5
A7
330
1F
100
AcDbEntity
  8
1
  6
Continuous
 62
     7
100
AcDbLine
 10
1047.259732627055
 20
-20.53004667307331
 30
0.0
 11
1050.333205495658
 21
-20.53004667307344
 31
0.0
  0
LINE
  5
A8
330
1F
100
AcDbEntity
  8
1
  6
Continuous
 62
     7
100
AcDbLine
 10
1043.868739401592
 20
-16.03004667307331
 30
0.0
 11
1050.540312276845
 21
-16.03004667307344
 31
0.0
  0
LINE
  5
A9
330
1F
100
AcDbEntity
  8
1
  6
DASHED
 62
     2
100
AcDbLine
 10
1047.259732627055
 20
-20.53004667307331
 30
0.0
 11
1043.868739401592
 21
-16.03004667307331
 31
0.0
  0
LINE
  5
AA
330
1F
100
AcDbEntity
  8
1
  6
Continuous
 62
     7
100
AcDbLine
 10
1013.868739401593
 20
-38.53004667307344
 30
0.0
 11
1013.868739401593
 21
-27.11583311069905
 31
0.0
  0
LINE
  5
AB
330
1F
100
AcDbEntity
  8
1
  6
Continuous
 62
     7
100
AcDbLine
 10
1035.703658913157
 20
-21.04877392721776
 30
0.0
 11
1021.763677843342
 21
-27.25525337215746
 31
0.0
  0
LINE
  5
AC
330
1F
100
AcDbEntity
  8
1
  6
Continuous
 62
     7
100
AcDbLine
 10
1038.144078771612
 20
-20.53004667307344
 30
0.0
 11
1047.259732627055
 21
-20.53004667307331
 31
0.0
  0
LINE
  5
AD
330
1F
100
AcDbEntity
  8
1
  6
Continuous
 62
     7
100
AcDbLine
 10
1051.747419058031
 20
-21.11583311069986
 30
0.0
 11
1052.658373855863
 21
-22.02678790853108
 31
0.0
  0
LINE
  5
AE
330
1F
100
AcDbEntity
  8
1
  6
Continuous
 62
     7
100
AcDbLine
 10
1054.782952963964
 20
-17.78740598595412
 30
0.0
 11
1059.697166526338
 21
-22.70161954832711
 31
0.0
  0
LINE
  5
AF
330
1F
100
AcDbEntity
  8
1
  6
Continuous
 62
     7
100
AcDbLine
 10
1031.198866420513
 20
-16.03004667307344
 30
0.0
 11
1043.868739401592
 21
-16.03004667307331
 31
0.0
  0
LINE
  5
B0
330
1F
100
AcDbEntity
  8
1
  6
Continuous
 62
     7
100
AcDbLine
 10
1015.040312276846
 20
-24.28740598595287
 30
0.0
 11
1023.333205495659
 21
-15.99451276714067
 31
0.0
  0
LINE
  5
B1
330
1F
100
AcDbEntity
  8
1
  6
Continuous
 62
     7
100
AcDbLine
 10
1020.779563036896
 20
-29.95908658102091
 30
0.0
 11
1023.837408144663
 21
-36.22859815243076
 31
0.0
  0
LINE
  5
B2
330
1F
100
AcDbEntity
  8
1
  6
Continuous
 62
     7
100
AcDbLine
 10
1023.618739401591
 20
-13.03004667307338
 30
0.0
 11
1023.618739401591
 21
7.46995332692656
 31
0.0
  0
LINE
  5
B3
330
1F
100
AcDbEntity
  8
1
  6
Continuous
 62
     7
100
AcDbLine
 10
1023.618739401591
 20
-47.53004667307339
 30
0.0
 11
1023.618739401591
 21
-45.03004667307341
 31
0.0
  0
LINE
  5
B4
330
1F
100
AcDbEntity
  8
1
  6
Continuous
 62
     7
100
AcDbLine
 10
1025.118739401591
 20
-45.03004667307342
 30
0.0
 11
1025.118739401591
 21
-47.53004667307339
 31
0.0
  0
LINE
  5
B5
330
1F
100
AcDbEntity
  8
1
  6
Continuous
 62
     7
100
AcDbLine
 10
1025.118739401591
 20
-7.03004667307344
 30
0.0
 11
1025.118739401591
 21
-13.03004667307338
 31
0.0
  0
LINE
  5
B6
330
1F
100
AcDbEntity
  8
1
  6
Continuous
 62
     7
100
AcDbLine
 10
1038.618739401591
 20
-3.53004667307344
 30
0.0
 11
1038.618739401591
 21
26.56265616462703
 31
0.0
  0
LINE
  5
B7
330
1F
100
AcDbEntity
  8
1
  6
Continuous
 62
     7
100
AcDbLine
 10
1040.118739401591
 20
-4.03004667307344
 30
0.0
 11
1040.118739401591
 21
26.56265616462703
 31
0.0
  0
LINE
  5
B8
330
1F
100
AcDbEntity
  8
1
  6
Continuous
 62
     7
100
AcDbLine
 10
1036.107876049453
 20
-6.03004667307344
 30
0.0
 11
1038.118739401591
 21
-6.03004667307344
 31
0.0
  0
LINE
  5
B9
330
1F
100
AcDbEntity
  8
1
  6
Continuous
 62
     7
100
AcDbLine
 10
1036.759488735874
 20
-4.53004667307344
 30
0.0
 11
1037.618739401591
 21
-4.53004667307344
 31
0.0
  0
LINE
  5
BA
330
1F
100
AcDbEntity
  8
1
  6
Continuous
 62
     7
100
AcDbLine
 10
1038.567628141024
 20
7.08172475927273
 30
0.0
 11
1035.793562909584
 21
-3.27122762797097
 31
0.0
  0
LINE
  5
BB
330
1F
100
AcDbEntity
  8
1
  6
Continuous
 62
     7
100
AcDbLine
 10
1025.118739401591
 20
8.96995332692644
 30
0.0
 11
1037.118739401591
 21
8.96995332692656
 31
0.0
  0
LINE
  5
BC
330
1F
100
AcDbEntity
  8
1
  6
Continuous
 62
     7
100
AcDbLine
 10
1036.950089628315
 20
6.84054380437522
 30
0.0
 11
1036.106840761934
 21
3.69349619161904
 31
0.0
  0
LINE
  5
BD
330
1F
100
AcDbEntity
  8
1
  6
Continuous
 62
     7
100
AcDbLine
 10
1025.618739401591
 20
7.46995332692656
 30
0.0
 11
1028.118739401591
 21
7.46995332692656
 31
0.0
  0
LINE
  5
BE
330
1F
100
AcDbEntity
  8
1
  6
Continuous
 62
     7
100
AcDbLine
 10
1025.118739401591
 20
-7.03004667307344
 30
0.0
 11
1025.118739401591
 21
4.46995332692656
 31
0.0
  0
LINE
  5
BF
330
1F
100
AcDbEntity
  8
1
  6
Continuous
 62
     7
100
AcDbLine
 10
1027.118739401591
 20
-9.03004667307344
 30
0.0
 11
1034.924660092833
 21
-9.03004667307344
 31
0.0
  0
LINE
  5
C0
330
1F
100
AcDbEntity
  8
1
  6
Continuous
 62
     7
100
AcDbLine
 10
1028.118739401591
 20
7.46995332692656
 30
0.0
 11
1033.209063283067
 21
7.46995332692656
 31
0.0
  0
LINE
  5
C1
330
1F
100
AcDbEntity
  8
1
  6
Continuous
 62
     7
100
AcDbLine
 10
1025.118739401591
 20
4.46995332692656
 30
0.0
 11
1025.118739401591
 21
6.96995332692656
 31
0.0
  0
LINE
  5
C2
330
1F
100
AcDbEntity
  8
1
  6
Continuous
 62
     7
100
AcDbLine
 10
1033.209063283067
 20
7.46995332692656
 30
0.0
 11
1036.46712671517
 21
7.46995332692656
 31
0.0
  0
LINE
  5
C3
330
1F
100
AcDbEntity
  8
1
  6
Continuous
 62
     7
100
AcDbLine
 10
1036.106840761934
 20
3.69349619161904
 30
0.0
 11
1034.176024396875
 21
-3.51240858286849
 31
0.0
  0
LINE
  5
C4
330
1F
100
AcDbEntity
  8
1
  6
Continuous
 62
     7
100
AcDbLine
 10
1027.118739401591
 20
-8.03004667307344
 30
0.0
 11
1034.924660092833
 21
-8.03004667307344
 31
0.0
  0
LINE
  5
C5
330
1F
100
AcDbEntity
  8
1
  6
Continuous
 62
     7
100
AcDbLine
 10
1026.118739401591
 20
-7.03004667307344
 30
0.0
 11
1026.118739401591
 21
4.46995332692656
 31
0.0
  0
LINE
  5
C6
330
1F
100
AcDbEntity
  8
1
  6
Continuous
 62
     7
100
AcDbLine
 10
1028.118739401591
 20
6.46995332692656
 30
0.0
 11
1033.209063283067
 21
6.46995332692656
 31
0.0
  0
LINE
  5
C7
330
1F
100
AcDbEntity
  8
1
  6
Continuous
 62
     7
100
AcDbLine
 10
1035.140914935645
 20
3.95231523672146
 30
0.0
 11
1033.210098570586
 21
-3.25358953776593
 31
0.0
  0
LINE
  5
C8
330
1F
100
AcDbEntity
  8
1
  6
Continuous
 62
     7
100
AcDbLine
 10
983.1187394015901
 20
-40.03004667307345
 30
0.0
 11
983.1187394015901
 21
-47.53004667307349
 31
0.0
  0
LINE
  5
C9
330
1F
100
AcDbEntity
  8
1
  6
Continuous
 62
     7
100
AcDbLine
 10
985.6187394015901
 20
-50.03004667307349
 30
0.0
 11
1022.618739401591
 21
-50.03004667307339
 31
0.0
  0
LINE
  5
CA
330
1F
100
AcDbEntity
  8
1
  6
Continuous
 62
     7
100
AcDbLine
 10
1022.618739401591
 20
-48.53004667307339
 30
0.0
 11
985.6187394015901
 21
-48.53004667307349
 31
0.0
  0
LINE
  5
CB
330
1F
100
AcDbEntity
  8
1
  6
Continuous
 62
     7
100
AcDbLine
 10
984.6187394015901
 20
-47.53004667307349
 30
0.0
 11
984.6187394015901
 21
-40.03004667307345
 31
0.0
  0
LINE
  5
CC
330
1F
100
AcDbEntity
  8
1
  6
Continuous
 62
     7
100
AcDbLine
 10
983.1187394015901
 20
-40.03004667307345
 30
0.0
 11
984.6187394015901
 21
-40.03004667307345
 31
0.0
  0
LINE
  5
CD
330
1F
100
AcDbEntity
  8
1
  6
Continuous
 62
     7
100
AcDbLine
 10
1025.118739401591
 20
-45.03004667307342
 30
0.0
 11
1025.118739401591
 21
-25.76148372544929
 31
0.0
  0
LINE
  5
CE
330
1F
100
AcDbEntity
  8
1
  6
Continuous
 62
     7
100
AcDbLine
 10
1025.118739401591
 20
-13.03004667307338
 30
0.0
 11
1025.118739401591
 21
-14.84629817427504
 31
0.0
  0
LINE
  5
CF
330
1F
100
AcDbEntity
  8
A_RUNDUNGEN
  6
Continuous
 62
     7
100
AcDbLine
 10
1023.118739401591
 20
-14.28004667307352
 30
0.0
 11
1023.118739401591
 21
-13.03004667307341
 31
0.0
  0
LINE
  5
D0
330
1F
100
AcDbEntity
  8
0
  6
Continuous
 62
     7
100
AcDbLine
 10
995.6187394015906
 20
-45.03004667307341
 30
0.0
 11
988.618739401591
 21
-43.42235151847343
 31
0.0
  0
LINE
  5
D1
330
1F
100
AcDbEntity
  8
0
  6
Continuous
 62
     7
100
AcDbLine
 10
1023.118739401591
 20
-45.03004667307341
 30
0.0
 11
1023.118739401591
 21
-43.78004667307352
 31
0.0
  0
LINE
  5
D2
330
1F
100
AcDbEntity
  8
0
  6
Continuous
 62
     7
100
AcDbLine
 10
1009.618739401591
 20
-45.03004667307341
 30
0.0
 11
995.6187394015906
 21
-45.03004667307341
 31
0.0
  0
LINE
  5
D3
330
1F
100
AcDbEntity
  8
A_RUNDUNGEN
  6
Continuous
 62
     7
100
AcDbLine
 10
1023.118739401591
 20
-45.03004667307341
 30
0.0
 11
1009.618739401591
 21
-45.03004667307341
 31
0.0
  0
LINE
  5
D4
330
1F
100
AcDbEntity
  8
0
  6
Continuous
 62
     7
100
AcDbLine
 10
1009.618739401591
 20
-42.53004667307341
 30
0.0
 11
995.8687394015906
 21
-42.53004667307341
 31
0.0
  0
LINE
  5
D5
330
1F
100
AcDbEntity
  8
0
  6
Continuous
 62
     7
100
AcDbLine
 10
1018.118739401591
 20
-14.53004667307341
 30
0.0
 11
1018.118739401591
 21
-13.03004667307341
 31
0.0
  0
LINE
  5
D6
330
1F
100
AcDbEntity
  8
0
  6
Continuous
 62
     7
100
AcDbLine
 10
1009.618739401591
 20
-45.03004667307341
 30
0.0
 11
1009.618739401591
 21
-42.53004667307341
 31
0.0
  0
LINE
  5
D7
330
1F
100
AcDbEntity
  8
0
  6
Continuous
 62
     7
100
AcDbLine
 10
995.8687394015906
 20
-14.53004667307341
 30
0.0
 11
1018.118739401591
 21
-14.53004667307341
 31
0.0
  0
LINE
  5
D8
330
1F
100
AcDbEntity
  8
0
  6
Continuous
 62
     7
100
AcDbLine
 10
990.8687394015906
 20
-37.53004667307341
 30
0.0
 11
990.8687394015906
 21
-19.53004667307341
 31
0.0
  0
LINE
  5
D9
330
1F
100
AcDbEntity
  8
A_RUNDUNGEN
  6
Continuous
 62
     7
100
AcDbLine
 10
1018.118739401591
 20
-13.03004667307341
 30
0.0
 11
1023.118739401591
 21
-13.03004667307341
 31
0.0
  0
LINE
  5
DA
330
1F
100
AcDbEntity
  8
0
  6
Continuous
 62
     7
100
AcDbLine
 10
995.6187394015906
 20
-13.03004667307341
 30
0.0
 11
1018.118739401591
 21
-13.03004667307341
 31
0.0
  0
LINE
  5
DB
330
1F
100
AcDbEntity
  8
0
  6
Continuous
 62
     7
100
AcDbLine
 10
988.618739401591
 20
-14.6377418276735
 30
0.0
 11
995.6187394015906
 21
-13.03004667307341
 31
0.0
  0
LINE
  5
DC
330
1F
100
AcDbEntity
  8
0
  6
Continuous
 62
     7
100
AcDbLine
 10
988.618739401591
 20
-43.42235151847343
 30
0.0
 11
988.618739401591
 21
-14.6377418276735
 31
0.0
  0
LINE
  5
DD
330
1F
100
AcDbEntity
  8
1
  6
Continuous
 62
     7
100
AcDbLine
 10
1023.118739401591
 20
-13.03004667307341
 30
0.0
 11
1023.618739401591
 21
-13.03004667307338
 31
0.0
  0
LINE
  5
DE
330
1F
100
AcDbEntity
  8
1
  6
Continuous
 62
     7
100
AcDbLine
 10
1023.118739401591
 20
-45.03004667307341
 30
0.0
 11
1023.618739401591
 21
-45.03004667307341
 31
0.0
  0
LINE
  5
DF
330
1F
100
AcDbEntity
  8
1
  6
DASHED
 62
     2
100
AcDbLine
 10
1021.039272860162
 20
-30.49157062936019
 30
0.0
 11
1021.030108597175
 21
-30.66643518406497
 31
0.0
  0
LINE
  5
E0
330
1F
100
AcDbEntity
  8
1
  6
Continuous
 62
     7
100
AcDbLine
 10
1021.188562096605
 20
-27.6429623027908
 30
0.0
 11
1021.039272860162
 21
-30.49157062936019
 31
0.0
  0
LINE
  5
E1
330
1F
100
AcDbEntity
  8
1
  6
Continuous
 62
     7
100
AcDbLine
 10
1000.292429016682
 20
-16.78004667307344
 30
0.0
 11
993.6187394015906
 21
-16.78004667307344
 31
0.0
  0
LINE
  5
E2
330
1F
100
AcDbEntity
  8
1
  6
Continuous
 62
     7
100
AcDbLine
 10
1010.118739401591
 20
-37.78004667307344
 30
0.0
 11
993.6187394015906
 21
-37.78004667307344
 31
0.0
  0
LINE
  5
E3
330
1F
100
AcDbEntity
  8
1
  6
DASHED
 62
     2
100
AcDbLine
 10
1019.118739401591
 20
-16.78004667307344
 30
0.0
 11
1000.292429016682
 21
-16.78004667307344
 31
0.0
  0
LINE
  5
E4
330
1F
100
AcDbEntity
  8
1
  6
Continuous
 62
     7
100
AcDbLine
 10
1021.118739401591
 20
-14.28004667307344
 30
0.0
 11
1021.118739401591
 21
-14.78004667307344
 31
0.0
  0
LINE
  5
E5
330
1F
100
AcDbEntity
  8
1
  6
Continuous
 62
     7
100
AcDbLine
 10
1025.118739401591
 20
-14.28004667307344
 30
0.0
 11
1021.118739401591
 21
-14.28004667307344
 31
0.0
  0
LINE
  5
E6
330
1F
100
AcDbEntity
  8
1
  6
Continuous
 62
     7
100
AcDbLine
 10
1025.118739401591
 20
-43.78004667307344
 30
0.0
 11
1014.118739401591
 21
-43.78004667307344
 31
0.0
  0
LINE
  5
E7
330
1F
100
AcDbEntity
  8
1
  6
Continuous
 62
     7
100
AcDbLine
 10
1014.118739401591
 20
-43.78004667307344
 30
0.0
 11
1014.118739401591
 21
-41.78004667307304
 31
0.0
  0
LINE
  5
E8
330
1F
100
AcDbEntity
  8
1
  6
Continuous
 62
     7
100
AcDbLine
 10
991.6187394015906
 20
-18.78004667307344
 30
0.0
 11
991.6187394015906
 21
-19.74321853949963
 31
0.0
  0
LINE
  5
E9
330
1F
100
AcDbEntity
  8
1
  6
DASHED
 62
     2
100
AcDbLine
 10
1021.2918538659
 20
-25.67203793415813
 30
0.0
 11
1021.188562096605
 21
-27.6429623027908
 31
0.0
  0
LINE
  5
EA
330
1F
100
AcDbEntity
  8
1
  6
Continuous
 62
     7
100
AcDbLine
 10
991.6187394015906
 20
-19.74321853949963
 30
0.0
 11
991.6187394015906
 21
-29.00060030685433
 31
0.0
  0
LINE
  5
EB
330
1F
100
AcDbEntity
  8
1
  6
Continuous
 62
     7
100
AcDbLine
 10
991.6187394015906
 20
-29.00060030685433
 30
0.0
 11
991.6187394015906
 21
-35.78004667307344
 31
0.0
  0
LINE
  5
EC
330
1F
100
AcDbEntity
  8
1
  6
Continuous
 62
     7
100
AcDbLine
 10
1023.618739401591
 20
-13.03004667307338
 30
0.0
 11
1025.118739401591
 21
-13.03004667307338
 31
0.0
  0
LINE
  5
ED
330
1F
100
AcDbEntity
  8
1
  6
Continuous
 62
     7
100
AcDbLine
 10
1023.618739401591
 20
-45.03004667307341
 30
0.0
 11
1025.118739401591
 21
-45.03004667307342
 31
0.0
  0
ARC
  5
EE
330
1F
100
AcDbEntity
  8
0
  6
Continuous
 62
     7
100
AcDbCircle
 10
1048.106971291758
 20
-42.23004667306183
 30
0.0
 40
4.000000000000028
100
AcDbArc
 50
90.0
 51
180.0
  0
ARC
  5
EF
330
1F
100
AcDbEntity
  8
0
  6
Continuous
 62
     7
100
AcDbCircle
 10
1059.118739401591
 20
-25.53004667306184
 30
0.0
 40
5.0
100
AcDbArc
 50
-36.86989764584402
 51
36.86989764584402
  0
ARC
  5
F0
330
1F
100
AcDbEntity
  8
1
  6
Continuous
 62
     7
100
AcDbCircle
 10
996.8687394015914
 20
-25.53004667307349
 30
0.0
 40
3.999999999999952
100
AcDbArc
 50
134.9999999999943
 51
20.37568164783884
  0
ARC
  5
F1
330
1F
100
AcDbEntity
  8
1
  6
DASHED
 62
     2
100
AcDbCircle
 10
1026.868739401592
 20
-19.53004667307344
 30
0.0
 40
4.999999999999678
100
AcDbArc
 50
45.00000000000874
 51
90.0
  0
ARC
  5
F2
330
1F
100
AcDbEntity
  8
1
  6
Continuous
 62
     7
100
AcDbCircle
 10
1034.618739401591
 20
-38.53004667307349
 30
0.0
 40
5.250000000000415
100
AcDbArc
 50
154.0000000000005
 51
-45.00000000000264
  0
ARC
  5
F3
330
1F
100
AcDbEntity
  8
1
  6
Continuous
 62
     7
100
AcDbCircle
 10
1026.868739401592
 20
-19.53004667307344
 30
0.0
 40
4.99999999999989
100
AcDbArc
 50
90.0
 51
128.2132107017403
  0
ARC
  5
F4
330
1F
100
AcDbEntity
  8
1
  6
Continuous
 62
     7
100
AcDbCircle
 10
1034.618739401591
 20
-38.53004667307349
 30
0.0
 40
5.249999999999519
100
AcDbArc
 50
-45.00000000000264
 51
0.0000000000024
  0
ARC
  5
F5
330
1F
100
AcDbEntity
  8
0
  6
Continuous
 62
     7
100
AcDbCircle
 10
1063.618739401591
 20
-15.45830345736187
 30
0.0
 40
1.5
100
AcDbArc
 50
0.0
 51
81.99999999766732
  0
ARC
  5
F6
330
1F
100
AcDbEntity
  8
1
  6
DASHED
 62
     2
100
AcDbCircle
 10
1030.525197981097
 20
106.8747033377427
 30
0.0
 40
139.5
100
AcDbArc
 50
-88.25817699603354
 51
-86.1595227709879
  0
ARC
  5
F7
330
1F
100
AcDbEntity
  8
1
  6
DASHED
 62
     2
100
AcDbCircle
 10
1030.525197981097
 20
106.8747033377427
 30
0.0
 40
130.5000000000001
100
AcDbArc
 50
-88.30566344389302
 51
-86.79097509154965
  0
ARC
  5
F8
330
1F
100
AcDbEntity
  8
1
  6
DASHED
 62
     2
100
AcDbCircle
 10
1030.525197981097
 20
106.8747033377427
 30
0.0
 40
130.5
100
AcDbArc
 50
-80.34637446316793
 51
-77.95876045938161
  0
ARC
  5
F9
330
1F
100
AcDbEntity
  8
1
  6
Continuous
 62
     7
100
AcDbCircle
 10
1030.525197981097
 20
106.8747033377427
 30
0.0
 40
130.5
100
AcDbArc
 50
-86.79097509154965
 51
-80.34637446316793
  0
ARC
  5
FA
330
1F
100
AcDbEntity
  8
1
  6
DOT_CENTER
 62
     2
100
AcDbCircle
 10
1030.525197981097
 20
106.8747033377427
 30
0.0
 40
135.0000000000001
100
AcDbArc
 50
-90.57488408593368
 51
-74.08002072159803
  0
ARC
  5
FB
330
1F
100
AcDbEntity
  8
1
  6
Continuous
 62
     7
100
AcDbCircle
 10
1030.525197981097
 20
106.8747033377427
 30
0.0
 40
130.5
100
AcDbArc
 50
-77.95876045938161
 51
-76.22588441544046
  0
ARC
  5
FC
330
1F
100
AcDbEntity
  8
1
  6
Continuous
 62
     7
100
AcDbCircle
 10
1030.525197981097
 20
106.8747033377427
 30
0.0
 40
139.5000000000001
100
AcDbArc
 50
-86.1595227709879
 51
-77.12100366439539
  0
ARC
  5
FD
330
1F
100
AcDbEntity
  8
1
  6
Continuous
 62
     7
100
AcDbCircle
 10
1056.868739401592
 20
-25.53004667307344
 30
0.0
 40
4.00000000000083
100
AcDbArc
 50
159.6243183521643
 51
45.00000000000349
  0
ARC
  5
FE
330
1F
100
AcDbEntity
  8
1
  6
Continuous
 62
     7
100
AcDbCircle
 10
1026.868739401592
 20
-19.53004667307344
 30
0.0
 40
4.99999999999989
100
AcDbArc
 50
90.0
 51
135.0000000000018
  0
ARC
  5
FF
330
1F
100
AcDbEntity
  8
1
  6
Continuous
 62
     7
100
AcDbCircle
 10
1019.118739401593
 20
-38.53004667307355
 30
0.0
 40
5.250000000000329
100
AcDbArc
 50
-135.0000000000061
 51
26.00000000000428
  0
ARC
  5
100
330
1F
100
AcDbEntity
  8
1
  6
Continuous
 62
     7
100
AcDbCircle
 10
1026.868739401592
 20
-19.53004667307344
 30
0.0
 40
4.999999999999582
100
AcDbArc
 50
51.78678929826826
 51
90.0
  0
ARC
  5
101
330
1F
100
AcDbEntity
  8
1
  6
Continuous
 62
     7
100
AcDbCircle
 10
1019.118739401593
 20
-38.53004667307355
 30
0.0
 40
5.25
100
AcDbArc
 50
179.9999999999989
 51
-135.0000000000061
  0
ARC
  5
102
330
1F
100
AcDbEntity
  8
1
  6
Continuous
 62
     7
100
AcDbCircle
 10
1027.118739401591
 20
-7.03004667307344
 30
0.0
 40
2.0
100
AcDbArc
 50
180.0
 51
-90.0
  0
ARC
  5
103
330
1F
100
AcDbEntity
  8
1
  6
Continuous
 62
     7
100
AcDbCircle
 10
1034.924660092833
 20
-7.43004667307343
 30
0.0
 40
1.600000000000016
100
AcDbArc
 50
-90.0
 51
70.81186354626696
  0
ARC
  5
104
330
1F
100
AcDbEntity
  8
1
  6
Continuous
 62
     7
100
AcDbCircle
 10
1028.118739401591
 20
4.46995332692656
 30
0.0
 40
3.0
100
AcDbArc
 50
90.0
 51
180.0
  0
ARC
  5
105
330
1F
100
AcDbEntity
  8
1
  6
Continuous
 62
     7
100
AcDbCircle
 10
1033.209063283067
 20
4.46995332692656
 30
0.0
 40
2.999999999999845
100
AcDbArc
 50
-14.99999999999991
 51
90.0
  0
ARC
  5
106
330
1F
100
AcDbEntity
  8
1
  6
Continuous
 62
     7
100
AcDbCircle
 10
1027.118739401591
 20
-7.03004667307344
 30
0.0
 40
1.0
100
AcDbArc
 50
180.0
 51
-90.0
  0
ARC
  5
107
330
1F
100
AcDbEntity
  8
1
  6
Continuous
 62
     7
100
AcDbCircle
 10
1028.118739401591
 20
4.46995332692656
 30
0.0
 40
2.0
100
AcDbArc
 50
90.0
 51
180.0
  0
ARC
  5
108
330
1F
100
AcDbEntity
  8
1
  6
Continuous
 62
     7
100
AcDbCircle
 10
1033.209063283067
 20
4.46995332692656
 30
0.0
 40
1.999999999999845
100
AcDbArc
 50
-15.00000000000281
 51
90.0
  0
ARC
  5
109
330
1F
100
AcDbEntity
  8
1
  6
Continuous
 62
     7
100
AcDbCircle
 10
1034.924660092833
 20
-7.43004667307343
 30
0.0
 40
0.6000000000000156
100
AcDbArc
 50
-90.0
 51
70.81186354623397
  0
ARC
  5
10A
330
1F
100
AcDbEntity
  8
0
  6
Continuous
 62
     7
100
AcDbCircle
 10
995.8687394015906
 20
-37.53004667307341
 30
0.0
 40
5.0
100
AcDbArc
 50
180.0
 51
-90.0
  0
ARC
  5
10B
330
1F
100
AcDbEntity
  8
0
  6
Continuous
 62
     7
100
AcDbCircle
 10
995.8687394015906
 20
-19.53004667307341
 30
0.0
 40
5.0
100
AcDbArc
 50
90.0
 51
180.0
  0
ARC
  5
10C
330
1F
100
AcDbEntity
  8
1
  6
DASHED
 62
     2
100
AcDbCircle
 10
1023.212280822086
 20
106.8747033377427
 30
0.0
 40
130.5
100
AcDbArc
 50
-102.0412395406184
 51
-99.65362553683217
  0
ARC
  5
10D
330
1F
100
AcDbEntity
  8
1
  6
Continuous
 62
     7
100
AcDbCircle
 10
1023.212280822086
 20
106.8747033377427
 30
0.0
 40
130.5
100
AcDbArc
 50
-104.0102871349165
 51
-102.0412395406184
  0
ARC
  5
10E
330
1F
100
AcDbEntity
  8
1
  6
DOT_CENTER
 62
     2
100
AcDbCircle
 10
1023.212280822086
 20
106.8747033377427
 30
0.0
 40
135.0
100
AcDbArc
 50
-105.919979278402
 51
-89.42511591406588
  0
ARC
  5
10F
330
1F
100
AcDbEntity
  8
1
  6
DASHED
 62
     2
100
AcDbCircle
 10
1023.212280822086
 20
106.8747033377427
 30
0.0
 40
130.5000000000001
100
AcDbArc
 50
-93.20902490845044
 51
-91.69433655610703
  0
ARC
  5
110
330
1F
100
AcDbEntity
  8
1
  6
DASHED
 62
     2
100
AcDbCircle
 10
1023.212280822086
 20
106.8747033377427
 30
0.0
 40
139.5
100
AcDbArc
 50
-93.84047722901174
 51
-91.74182300396656
  0
ARC
  5
111
330
1F
100
AcDbEntity
  8
1
  6
Continuous
 62
     7
100
AcDbCircle
 10
1023.212280822086
 20
106.8747033377427
 30
0.0
 40
130.5000000000001
100
AcDbArc
 50
-99.65362553683217
 51
-93.20902490845044
  0
ARC
  5
112
330
1F
100
AcDbEntity
  8
1
  6
Continuous
 62
     7
100
AcDbCircle
 10
1023.212280822086
 20
106.8747033377427
 30
0.0
 40
139.5
100
AcDbArc
 50
-103.0897462508759
 51
-93.84047722901174
  0
CIRCLE
  5
113
330
1F
100
AcDbEntity
  8
1
  6
Continuous
 62
     7
100
AcDbCircle
 10
1034.618739401591
 20
-38.53004667307349
 30
0.0
 40
2.75
  0
CIRCLE
  5
114
330
1F
100
AcDbEntity
  8
1
  6
Continuous
 62
     7
100
AcDbCircle
 10
996.8687394015914
 20
-25.53004667307349
 30
0.0
 40
2.499999999999773
  0
CIRCLE
  5
115
330
1F
100
AcDbEntity
  8
1
  6
Continuous
 62
     7
100
AcDbCircle
 10
1026.868739401592
 20
-19.53004667307344
 30
0.0
 40
2.5
  0
CIRCLE
  5
116
330
1F
100
AcDbEntity
  8
1
  6
Continuous
 62
     7
100
AcDbCircle
 10
1019.118739401593
 20
-38.53004667307355
 30
0.0
 40
2.75
  0
CIRCLE
  5
117
330
1F
100
AcDbEntity
  8
1
  6
Continuous
 62
     7
100
AcDbCircle
 10
1056.868739401592
 20
-25.53004667307344
 30
0.0
 40
2.5
  0
SPLINE
  5
118
330
1F
100
AcDbEntity
  8
1
  6
Continuous
 62
     2
100
AcDbSpline
210
0.0
220
0.0
230
1.0
 70
     8
 71
     3
 72
    12
 73
     8
 74
     6
 42
0.0000000001
 43
0.0000000001
 44
0.00000001
 40
0.0
 40
0.0
 40
0.0
 40
0.0
 40
0.2775291599796077
 40
0.5641738536597101
 40
0.899252295863106
 40
1.297504019331363
 40
1.68083434673563
 40
1.68083434673563
 40
1.68083434673563
 40
1.68083434673563
 10
1038.618739401591
 20
26.56265616462703
 30
0.0
 10
1038.706683275542
 20
26.63185587139814
 30
0.0
 10
1038.88545956801
 20
26.77252817136132
 30
0.0
 10
1039.086607151624
 20
26.40778019266624
 30
0.0
 10
1039.456190794932
 20
26.57193240077434
 30
0.0
 10
1039.775038610358
 20
26.83671459457236
 30
0.0
 10
1040.005639962278
 20
26.65283883384568
 30
0.0
 10
1040.118739401591
 20
26.56265616462703
 30
0.0
 11
1038.618739401591
 21
26.56265616462703
 31
0.0
 11
1038.869847341133
 21
26.68083923168021
 31
0.0
 11
1039.094098609183
 21
26.50229918241108
 31
0.0
 11
1039.421540283093
 21
26.57342943347217
 31
0.0
 11
1039.781228530974
 21
26.7443937560137
 31
0.0
 11
1040.118739401591
 21
26.56265616462703
 31
0.0
  0
ARC
  5
119
330
1F
100
AcDbEntity
  8
1
  6
Continuous
 62
     7
100
AcDbCircle
 10
1058.118739401591
 20
-37.53004667306174
 30
0.0
 40
5.0
100
AcDbArc
 50
-90.0
 51
-8.04784624731312
  0
ARC
  5
11A
330
1F
100
AcDbEntity
  8
1
  6
Continuous
 62
     7
100
AcDbCircle
 10
1058.118739401591
 20
-37.53004667306174
 30
0.0
 40
4.999999999999434
100
AcDbArc
 50
-8.04784624731312
 51
0.0
  0
ARC
  5
11B
330
1F
100
AcDbEntity
  8
1
  6
Continuous
 62
     7
100
AcDbCircle
 10
1034.618739401591
 20
-15.03004667307344
 30
0.0
 40
2.0
100
AcDbArc
 50
180.0
 51
-150.0000000000027
  0
ARC
  5
11C
330
1F
100
AcDbEntity
  8
1
  6
Continuous
 62
     7
100
AcDbCircle
 10
1011.618739401591
 20
-45.03004667307355
 30
0.0
 40
3.500000000000043
100
AcDbArc
 50
-90.0
 51
0.0
  0
ARC
  5
11D
330
1F
100
AcDbEntity
  8
1
  6
Continuous
 62
     7
100
AcDbCircle
 10
1011.618739401591
 20
-45.03004667307355
 30
0.0
 40
0.5
100
AcDbArc
 50
-90.0
 51
0.0
  0
ARC
  5
11E
330
1F
100
AcDbEntity
  8
1
  6
Continuous
 62
     7
100
AcDbCircle
 10
989.1187394015906
 20
-13.03004667307355
 30
0.0
 40
3.0
100
AcDbArc
 50
89.99999999999132
 51
180.0
  0
ARC
  5
11F
330
1F
100
AcDbEntity
  8
1
  6
Continuous
 62
     7
100
AcDbCircle
 10
989.1187394015906
 20
-13.03004667307355
 30
0.0
 40
0.5
100
AcDbArc
 50
89.99999999996092
 51
180.0
  0
ARC
  5
120
330
1F
100
AcDbEntity
  8
1
  6
Continuous
 62
     7
100
AcDbCircle
 10
1015.593400031572
 20
-26.53004667307338
 30
0.0
 40
5.999999999999886
100
AcDbArc
 50
66.00000000000678
 51
90.0
  0
ARC
  5
121
330
1F
100
AcDbEntity
  8
1
  6
Continuous
 62
     7
100
AcDbCircle
 10
1002.493318509694
 20
-23.44100147090448
 30
0.0
 40
2.000000000000822
100
AcDbArc
 50
135.0000000000091
 51
-159.6243183521783
  0
ARC
  5
122
330
1F
100
AcDbEntity
  8
1
  6
Continuous
 62
     7
100
AcDbCircle
 10
1022.53861238267
 20
-14.03004667307338
 30
0.0
 40
1.999999999999998
100
AcDbArc
 50
-90.0
 51
-51.78678929827292
  0
ARC
  5
123
330
1F
100
AcDbEntity
  8
1
  6
Continuous
 62
     7
100
AcDbCircle
 10
1003.404273307525
 20
-22.53004667307338
 30
0.0
 40
2.0
100
AcDbArc
 50
90.0
 51
134.9999999999932
  0
ARC
  5
124
330
1F
100
AcDbEntity
  8
1
  6
Continuous
 62
     7
100
AcDbCircle
 10
1003.197166526338
 20
-22.03004667307349
 30
0.0
 40
6.00000000000022
100
AcDbArc
 50
90.0
 51
135.0
  0
ARC
  5
125
330
1F
100
AcDbEntity
  8
1
  6
Continuous
 62
     7
100
AcDbCircle
 10
1031.160327673689
 20
-29.08234428744235
 30
0.0
 40
1.999999999999833
100
AcDbArc
 50
-26.00000000000797
 51
65.99999999998658
  0
ARC
  5
126
330
1F
100
AcDbEntity
  8
1
  6
Continuous
 62
     7
100
AcDbCircle
 10
1035.868739401591
 20
-27.11583311069902
 30
0.0
 40
4.0
100
AcDbArc
 50
0.0
 51
45.00000000000338
  0
ARC
  5
127
330
1F
100
AcDbEntity
  8
1
  6
Continuous
 62
     7
100
AcDbCircle
 10
1063.618739401591
 20
-42.52986557132318
 30
0.0
 40
1.500000000000026
100
AcDbArc
 50
-81.99999999950383
 51
0.0
  0
ARC
  5
128
330
1F
100
AcDbEntity
  8
1
  6
Continuous
 62
     7
100
AcDbCircle
 10
1059.618739401591
 20
-20.1694178273084
 30
0.0
 40
2.0
100
AcDbArc
 50
0.0
 51
8.54138971020583
  0
ARC
  5
129
330
1F
100
AcDbEntity
  8
1
  6
Continuous
 62
     7
100
AcDbCircle
 10
1057.175350076305
 20
-19.03004667307344
 30
0.0
 40
1.999999999999812
100
AcDbArc
 50
65.00000000001215
 51
90.0
  0
ARC
  5
12A
330
1F
100
AcDbEntity
  8
1
  6
Continuous
 62
     7
100
AcDbCircle
 10
1059.618739401591
 20
-20.1694178273084
 30
0.0
 40
1.999999999999434
100
AcDbArc
 50
8.54138971020583
 51
65.00000000001208
  0
ARC
  5
12B
330
1F
100
AcDbEntity
  8
1
  6
DASHED
 62
     2
100
AcDbCircle
 10
1034.442884006793
 20
-25.56736602167224
 30
0.0
 40
1.999999999999996
100
AcDbArc
 50
91.6943365561168
 51
-177.0000000000014
  0
ARC
  5
12C
330
1F
100
AcDbEntity
  8
1
  6
DASHED
 62
     2
100
AcDbCircle
 10
1034.704629275518
 20
-30.56176327157909
 30
0.0
 40
2.000000000001015
100
AcDbArc
 50
-177.0000000000017
 51
-88.25817699606235
  0
ARC
  5
12D
330
1F
100
AcDbEntity
  8
1
  6
DASHED
 62
     2
100
AcDbCircle
 10
1034.618739401591
 20
-15.03004667307344
 30
0.0
 40
2.000000000000164
100
AcDbArc
 50
-150.0000000000027
 51
-90.0
  0
ARC
  5
12E
330
1F
100
AcDbEntity
  8
1
  6
Continuous
 62
     7
100
AcDbCircle
 10
1059.618739401591
 20
-31.03004667307344
 30
0.0
 40
2.000000000000004
100
AcDbArc
 50
-90.0
 51
0.0
  0
ARC
  5
12F
330
1F
100
AcDbEntity
  8
1
  6
Continuous
 62
     7
100
AcDbCircle
 10
1043.618739401591
 20
-42.03004667307344
 30
0.0
 40
4.0
100
AcDbArc
 50
90.0
 51
180.0
  0
ARC
  5
130
330
1F
100
AcDbEntity
  8
1
  6
Continuous
 62
     7
100
AcDbCircle
 10
1058.618739401591
 20
-35.03004667307344
 30
0.0
 40
2.0
100
AcDbArc
 50
90.0
 51
180.0
  0
ARC
  5
131
330
1F
100
AcDbEntity
  8
1
  6
Continuous
 62
     7
100
AcDbCircle
 10
1054.618739401591
 20
-36.03004667307344
 30
0.0
 40
2.0
100
AcDbArc
 50
-90.0
 51
0.0
  0
ARC
  5
132
330
1F
100
AcDbEntity
  8
1
  6
Continuous
 62
     7
100
AcDbCircle
 10
1050.540312276845
 20
-22.03004667307344
 30
0.0
 40
5.999999999999727
100
AcDbArc
 50
45.00000000000307
 51
90.0
  0
ARC
  5
133
330
1F
100
AcDbEntity
  8
1
  6
Continuous
 62
     7
100
AcDbCircle
 10
1050.333205495658
 20
-22.53004667307344
 30
0.0
 40
2.00000000000035
100
AcDbArc
 50
45.00000000000957
 51
90.0
  0
ARC
  5
134
330
1F
100
AcDbEntity
  8
1
  6
Continuous
 62
     7
100
AcDbCircle
 10
1017.868739401593
 20
-27.11583311069905
 30
0.0
 40
4.000000000000572
100
AcDbArc
 50
135.0000000000084
 51
180.0
  0
ARC
  5
135
330
1F
100
AcDbEntity
  8
1
  6
Continuous
 62
     7
100
AcDbCircle
 10
1022.577151129494
 20
-29.08234428744265
 30
0.0
 40
2.000000000000188
100
AcDbArc
 50
114.0000000000129
 51
-153.9999999999939
  0
ARC
  5
136
330
1F
100
AcDbEntity
  8
1
  6
Continuous
 62
     7
100
AcDbCircle
 10
1038.144078771612
 20
-26.53004667307344
 30
0.0
 40
6.0
100
AcDbArc
 50
90.0
 51
114.0000000000016
  0
ARC
  5
137
330
1F
100
AcDbEntity
  8
1
  6
Continuous
 62
     7
100
AcDbCircle
 10
1051.24416029349
 20
-23.44100147090453
 30
0.0
 40
1.999999999999277
100
AcDbArc
 50
-20.37568164783213
 51
45.00000000001159
  0
ARC
  5
138
330
1F
100
AcDbEntity
  8
1
  6
Continuous
 62
     7
100
AcDbCircle
 10
1031.198866420514
 20
-14.03004667307344
 30
0.0
 40
2.000000000000289
100
AcDbArc
 50
-128.2132107017496
 51
-90.00000000002605
  0
ARC
  5
139
330
1F
100
AcDbEntity
  8
1
  6
Continuous
 62
     7
100
AcDbCircle
 10
1025.118739401591
 20
7.46995332692656
 30
0.0
 40
1.499999999999879
100
AcDbArc
 50
90.0
 51
180.0
  0
ARC
  5
13A
330
1F
100
AcDbEntity
  8
1
  6
Continuous
 62
     7
100
AcDbCircle
 10
1025.618739401591
 20
6.96995332692656
 30
0.0
 40
0.5
100
AcDbArc
 50
90.0
 51
180.0
  0
ARC
  5
13B
330
1F
100
AcDbEntity
  8
1
  6
Continuous
 62
     7
100
AcDbCircle
 10
1038.118739401591
 20
-4.03004667307356
 30
0.0
 40
1.999999999999879
100
AcDbArc
 50
-90.0
 51
0.00000000000346
  0
ARC
  5
13C
330
1F
100
AcDbEntity
  8
1
  6
Continuous
 62
     7
100
AcDbCircle
 10
1036.107876049453
 20
-4.03004667307356
 30
0.0
 40
1.999999999999576
100
AcDbArc
 50
-109.1881364537135
 51
-90.0
  0
ARC
  5
13D
330
1F
100
AcDbEntity
  8
1
  6
Continuous
 62
     7
100
AcDbCircle
 10
1037.618739401591
 20
-3.53004667307344
 30
0.0
 40
0.9999999999999996
100
AcDbArc
 50
-90.0
 51
0.0
  0
ARC
  5
13E
330
1F
100
AcDbEntity
  8
1
  6
Continuous
 62
     7
100
AcDbCircle
 10
1036.759488735874
 20
-3.53004667307344
 30
0.0
 40
1.000000000000892
100
AcDbArc
 50
165.0000000000163
 51
-90.0
  0
ARC
  5
13F
330
1F
100
AcDbEntity
  8
1
  6
Continuous
 62
     7
100
AcDbCircle
 10
1037.118739401591
 20
7.46995332692656
 30
0.0
 40
1.49999999999939
100
AcDbArc
 50
-15.00000000000801
 51
90.0
  0
ARC
  5
140
330
1F
100
AcDbEntity
  8
1
  6
Continuous
 62
     7
100
AcDbCircle
 10
1036.46712671517
 20
6.96995332692656
 30
0.0
 40
0.5000000000004711
100
AcDbArc
 50
-14.99999999999433
 51
90.0
  0
ARC
  5
141
330
1F
100
AcDbEntity
  8
1
  6
Continuous
 62
     7
100
AcDbCircle
 10
1036.107876049453
 20
-4.03004667307356
 30
0.0
 40
1.999999999999839
100
AcDbArc
 50
164.9999999999978
 51
-109.1881364537135
  0
ARC
  5
142
330
1F
100
AcDbEntity
  8
1
  6
Continuous
 62
     7
100
AcDbCircle
 10
1036.107876049453
 20
-4.03004667307356
 30
0.0
 40
2.999999999999654
100
AcDbArc
 50
164.9999999999969
 51
-109.1881364537134
  0
ARC
  5
143
330
1F
100
AcDbEntity
  8
1
  6
Continuous
 62
     7
100
AcDbCircle
 10
985.6187394015901
 20
-47.53004667307349
 30
0.0
 40
1.0
100
AcDbArc
 50
180.0
 51
-90.0
  0
ARC
  5
144
330
1F
100
AcDbEntity
  8
1
  6
Continuous
 62
     7
100
AcDbCircle
 10
985.6187394015901
 20
-47.53004667307349
 30
0.0
 40
2.5
100
AcDbArc
 50
180.0
 51
-90.0
  0
ARC
  5
145
330
1F
100
AcDbEntity
  8
1
  6
Continuous
 62
     7
100
AcDbCircle
 10
1022.618739401591
 20
-47.53004667307339
 30
0.0
 40
2.5
100
AcDbArc
 50
-90.0
 51
0.0
  0
ARC
  5
146
330
1F
100
AcDbEntity
  8
1
  6
Continuous
 62
     7
100
AcDbCircle
 10
1022.618739401591
 20
-47.53004667307339
 30
0.0
 40
1.0
100
AcDbArc
 50
-90.0
 51
0.0
  0
ARC
  5
147
330
1F
100
AcDbEntity
  8
1
  6
DASHED
 62
     2
100
AcDbCircle
 10
1019.118739401591
 20
-14.78004667307344
 30
0.0
 40
2.0
100
AcDbArc
 50
-90.0
 51
-38.68218745350119
  0
ARC
  5
148
330
1F
100
AcDbEntity
  8
1
  6
Continuous
 62
     7
100
AcDbCircle
 10
1019.118739401591
 20
-14.78004667307344
 30
0.0
 40
1.999999999999488
100
AcDbArc
 50
-38.68218745350119
 51
0.0
  0
ARC
  5
149
330
1F
100
AcDbEntity
  8
1
  6
Continuous
 62
     7
100
AcDbCircle
 10
993.6187394015906
 20
-18.78004667307344
 30
0.0
 40
2.0
100
AcDbArc
 50
90.0
 51
180.0
  0
ARC
  5
14A
330
1F
100
AcDbEntity
  8
1
  6
Continuous
 62
     7
100
AcDbCircle
 10
993.6187394015906
 20
-35.78004667307344
 30
0.0
 40
2.0
100
AcDbArc
 50
180.0
 51
-90.0
  0
ARC
  5
14B
330
1F
100
AcDbEntity
  8
1
  6
Continuous
 62
     7
100
AcDbCircle
 10
1010.118739401591
 20
-41.78004667307344
 30
0.0
 40
4.0
100
AcDbArc
 50
0.0000000000058
 51
90.0
  0
ARC
  5
14C
330
1F
100
AcDbEntity
  8
1
  6
DASHED
 62
     2
100
AcDbCircle
 10
1019.294594796391
 20
-25.56736602167224
 30
0.0
 40
1.999999999999766
100
AcDbArc
 50
-3.00000000000045
 51
88.30566344391578
  0
ARC
  5
14D
330
1F
100
AcDbEntity
  8
1
  6
DASHED
 62
     2
100
AcDbCircle
 10
1019.032849527666
 20
-30.56176327157909
 30
0.0
 40
2.000000000000036
100
AcDbArc
 50
-91.74182300397347
 51
-3.00000000000014
  0
DIMENSION
  5
15B
330
1F
100
AcDbEntity
  8
1
100
AcDbDimension
  2
*D1
 10
1092.458656274421
 20
-50.03004667307336
 30
0.0
 11
1088.708656274421
 21
-53.3520887561101
 31
0.0
 70
    32
  1
<>
 71
     5
 42
-1.0
 53
90.0
  3
ME10_DIM_10
100
AcDbAlignedDimension
 13
1083.618739401591
 23
-49.03004667307339
 33
0.0
 14
1022.618739401591
 24
-50.03004667307339
 34
0.0
 50
90.0
100
AcDbRotatedDimension
  0
DIMENSION
  5
166
330
1F
100
AcDbEntity
  8
1
100
AcDbDimension
  2
*D2
 10
986.1187394015913
 20
-69.6812443338298
 30
0.0
 11
1005.49501187425
 21
-65.9312443338298
 31
0.0
 70
    32
  1
<>
 71
     5
 42
-1.0
 53
0.00013888888889
  3
ME10_DIM_11
100
AcDbAlignedDimension
 13
1025.118739401591
 23
-45.03004667307342
 33
0.0
 14
986.1187394015909
 24
-48.5300466730736
 34
0.0
100
AcDbRotatedDimension
  0
DIMENSION
  5
173
330
1F
100
AcDbEntity
  8
1
100
AcDbDimension
  2
*D3
 10
1025.118739401591
 20
-59.30788206543511
 30
0.0
 11
1017.765417622966
 21
-55.55788206543511
 31
0.0
 70
    32
  1
<>
 71
     5
 42
-1.0
 53
0.00013888888889
  3
ME10_DIM_12
100
AcDbAlignedDimension
 13
1028.618739401591
 23
-49.03004667307339
 33
0.0
 14
1025.118739401591
 24
-47.53004667307339
 34
0.0
100
AcDbRotatedDimension
  0
DIMENSION
  5
17E
330
1F
100
AcDbEntity
  8
1
100
AcDbDimension
  2
*D4
 10
1028.618739401591
 20
-69.6812443338298
 30
0.0
 11
1046.868739401591
 21
-65.9312443338298
 31
0.0
 70
    32
  1
<>
 71
     5
 42
-1.0
 53
0.00013888888889
  3
ME10_DIM_13
100
AcDbAlignedDimension
 13
1065.118739401591
 23
-45.03004667306175
 33
0.0
 14
1028.618739401591
 24
-49.03004667307339
 34
0.0
100
AcDbRotatedDimension
  0
DIMENSION
  5
18C
330
1F
100
AcDbEntity
  8
1
100
AcDbDimension
  2
*D5
 10
1101.806770824409
 20
-49.03004667307339
 30
0.0
 11
1098.056770824409
 21
-54.5145186661781
 31
0.0
 70
    32
  1
<>
 71
     5
 42
-1.0
 53
90.0
  3
ME10_DIM_14
100
AcDbAlignedDimension
 13
1065.118739401591
 23
-45.03004667306175
 33
0.0
 14
1083.618739401591
 24
-49.03004667307339
 34
0.0
 50
90.0
100
AcDbRotatedDimension
  0
DIMENSION
  5
198
330
1F
100
AcDbEntity
  8
1
100
AcDbDimension
  2
*D6
 10
1101.806770824409
 20
-45.03004667306175
 30
0.0
 11
1098.056770824409
 21
-29.03004667306181
 31
0.0
 70
    32
  1
<>
 71
     5
 42
-1.0
 53
90.0
  3
ME10_DIM_15
100
AcDbAlignedDimension
 13
1065.118739401591
 23
-13.03004667306187
 33
0.0
 14
1065.118739401591
 24
-45.03004667306175
 34
0.0
 50
90.0
100
AcDbRotatedDimension
  0
DIMENSION
  5
1A5
330
1F
100
AcDbEntity
  8
1
100
AcDbDimension
  2
*D7
 10
973.4730727158551
 20
-50.03004667307349
 30
0.0
 11
969.7230727158551
 21
-54.3840982412711
 31
0.0
 70
    32
  1
<>
 71
     5
 42
-1.0
 53
90.0
  3
ME10_DIM_16
100
AcDbAlignedDimension
 13
995.6187394015906
 23
-45.03004667307341
 33
0.0
 14
985.6187394015901
 24
-50.03004667307349
 34
0.0
 50
90.0
100
AcDbRotatedDimension
  0
DIMENSION
  5
1B0
330
1F
100
AcDbEntity
  8
1
100
AcDbDimension
  2
*D8
 10
973.4730727158551
 20
-45.03004667307341
 30
0.0
 11
969.7230727158551
 21
-29.03004667307341
 31
0.0
 70
    32
  1
<>
 71
     5
 42
-1.0
 53
90.0
  3
ME10_DIM_17
100
AcDbAlignedDimension
 13
995.6187394015906
 23
-13.03004667307341
 33
0.0
 14
995.6187394015906
 24
-45.03004667307341
 34
0.0
 50
90.0
100
AcDbRotatedDimension
  0
ENDSEC
  0
SECTION
  2
OBJECTS
  0
DICTIONARY
  5
C
330
0
100
AcDbDictionary
281
     1
  3
ACAD_GROUP
350
D
  3
ACAD_LAYOUT
350
1A
  3
ACAD_MLINESTYLE
350
17
  3
ACAD_PLOTSETTINGS
350
19
  3
ACAD_PLOTSTYLENAME
350
E
  0
DICTIONARY
  5
D
102
{ACAD_REACTORS
330
C
102
}
330
C
100
AcDbDictionary
281
     1
  0
DICTIONARY
  5
1A
102
{ACAD_REACTORS
330
C
102
}
330
C
100
AcDbDictionary
281
     1
  3
Layout1
350
1E
  3
Layout2
350
26
  3
Model
350
22
  0
DICTIONARY
  5
17
102
{ACAD_REACTORS
330
C
102
}
330
C
100
AcDbDictionary
281
     1
  3
Standard
350
18
  0
DICTIONARY
  5
19
102
{ACAD_REACTORS
330
C
102
}
330
C
100
AcDbDictionary
281
     1
  0
ACDBDICTIONARYWDFLT
  5
E
102
{ACAD_REACTORS
330
C
102
}
330
C
100
AcDbDictionary
281
     1
  3
Normal
350
F
100
AcDbDictionaryWithDefault
340
F
  0
LAYOUT
  5
1E
102
{ACAD_REACTORS
330
1A
102
}
330
1A
100
AcDbPlotSettings
  1

  2

  4

  6

 40
0.0
 41
0.0
 42
0.0
 43
0.0
 44
0.0
 45
0.0
 46
0.0
 47
0.0
 48
0.0
 49
0.0
140
0.0
141
0.0
142
1.0
143
1.0
 70
   688
 72
     0
 73
     0
 74
     5
  7

 75
    16
 76
     0
 77
     2
 78
   300
147
1.0
148
0.0
149
0.0
100
AcDbLayout
  1
Layout1
 70
     1
 71
     1
 10
0.0
 20
0.0
 11
0.0
 21
0.0
 12
0.0
 22
0.0
 32
0.0
 14
0.0
 24
0.0
 34
0.0
 15
0.0
 25
0.0
 35
0.0
146
0.0
 13
0.0
 23
0.0
 33
0.0
 16
1.0
 26
0.0
 36
0.0
 17
0.0
 27
1.0
 37
0.0
 76
     0
330
1B
  0
LAYOUT
  5
26
102
{ACAD_REACTORS
330
1A
102
}
330
1A
100
AcDbPlotSettings
  1

  2

  4

  6

 40
0.0
 41
0.0
 42
0.0
 43
0.0
 44
0.0
 45
0.0
 46
0.0
 47
0.0
 48
0.0
 49
0.0
140
0.0
141
0.0
142
1.0
143
1.0
 70
   688
 72
     0
 73
     0
 74
     5
  7

 75
    16
 76
     0
 77
     2
 78
   300
147
1.0
148
0.0
149
0.0
100
AcDbLayout
  1
Layout2
 70
     1
 71
     2
 10
0.0
 20
0.0
 11
0.0
 21
0.0
 12
0.0
 22
0.0
 32
0.0
 14
0.0
 24
0.0
 34
0.0
 15
0.0
 25
0.0
 35
0.0
146
0.0
 13
0.0
 23
0.0
 33
0.0
 16
1.0
 26
0.0
 36
0.0
 17
0.0
 27
1.0
 37
0.0
 76
     0
330
23
  0
LAYOUT
  5
22
102
{ACAD_REACTORS
330
1A
102
}
330
1A
100
AcDbPlotSettings
  1

  2

  4

  6

 40
0.0
 41
0.0
 42
0.0
 43
0.0
 44
0.0
 45
0.0
 46
0.0
 47
0.0
 48
0.0
 49
0.0
140
0.0
141
0.0
142
1.0
143
1.0
 70
  1712
 72
     0
 73
     0
 74
     0
  7

 75
     0
 76
     0
 77
     2
 78
   300
147
1.0
148
0.0
149
0.0
100
AcDbLayout
  1
Model
 70
     1
 71
     0
 10
0.0
 20
0.0
 11
0.0
 21
0.0
 12
0.0
 22
0.0
 32
0.0
 14
967.9730727158551
 24
-71.6812443338298
 34
0.0
 15
1103.806770824409
 25
26.75879643957231
 35
0.0
146
0.0
 13
0.0
 23
0.0
 33
0.0
 16
1.0
 26
0.0
 36
0.0
 17
0.0
 27
1.0
 37
0.0
 76
     0
330
1F
  0
MLINESTYLE
  5
18
102
{ACAD_REACTORS
330
17
102
}
330
17
100
AcDbMlineStyle
  2
Standard
 70
     0
  3

 62
   256
 51
90.0
 52
90.0
 71
     2
 49
0.5
 62
   256
  6
BYLAYER
 49
-0.5
 62
   256
  6
BYLAYER
  0
ACDBPLACEHOLDER
  5
F
102
{ACAD_REACTORS
330
E
102
}
330
E
  0
ENDSEC
  0
EOF
