  0
SECTION
  2
HEADER
  9
$ACADVER
  1
AC1018
  9
$ACADMAINTVER
 70
     0
  9
$DWGCODEPAGE
  3
ANSI_1252
  9
$INSBASE
 10
0.0
 20
0.0
 30
0.0
  9
$EXTMIN
 10
778.753982730908
 20
224.149582666739
 30
0.0
  9
$EXTMAX
 10
919.1719860641319
 20
329.6742552098942
 30
0.0
  9
$LIMMIN
 10
0.0
 20
0.0
  9
$LIMMAX
 10
12.0
 20
9.0
  9
$ORTHOMODE
 70
     0
  9
$REGENMODE
 70
     1
  9
$FILLMODE
 70
     1
  9
$QTEXTMODE
 70
     0
  9
$MIRRTEXT
 70
     1
  9
$LTSCALE
 40
1.0
  9
$ATTMODE
 70
     1
  9
$TEXTSIZE
 40
0.2
  9
$TRACEWID
 40
0.05
  9
$TEXTSTYLE
  7
Standard
  9
$CLAYER
  8
0
  9
$CELTYPE
  6
ByLayer
  9
$CECOLOR
 62
   256
  9
$CELTSCALE
 40
1.0
  9
$DISPSILH
 70
     0
  9
$DIMSCALE
 40
1.0
  9
$DIMASZ
 40
0.18
  9
$DIMEXO
 40
0.0625
  9
$DIMDLI
 40
0.38
  9
$DIMRND
 40
0.0
  9
$DIMDLE
 40
0.0
  9
$DIMEXE
 40
0.18
  9
$DIMTP
 40
0.0
  9
$DIMTM
 40
0.0
  9
$DIMTXT
 40
0.18
  9
$DIMCEN
 40
0.09
  9
$DIMTSZ
 40
0.0
  9
$DIMTOL
 70
     0
  9
$DIMLIM
 70
     0
  9
$DIMTIH
 70
     1
  9
$DIMTOH
 70
     1
  9
$DIMSE1
 70
     0
  9
$DIMSE2
 70
     0
  9
$DIMTAD
 70
     0
  9
$DIMZIN
 70
     0
  9
$DIMBLK
  1

  9
$DIMASO
 70
     1
  9
$DIMSHO
 70
     1
  9
$DIMPOST
  1

  9
$DIMAPOST
  1

  9
$DIMALT
 70
     0
  9
$DIMALTD
 70
     2
  9
$DIMALTF
 40
25.4
  9
$DIMLFAC
 40
1.0
  9
$DIMTOFL
 70
     0
  9
$DIMTVP
 40
0.0
  9
$DIMTIX
 70
     0
  9
$DIMSOXD
 70
     0
  9
$DIMSAH
 70
     0
  9
$DIMBLK1
  1

  9
$DIMBLK2
  1

  9
$DIMSTYLE
  2
Standard
  9
$DIMCLRD
 70
     0
  9
$DIMCLRE
 70
     0
  9
$DIMCLRT
 70
     0
  9
$DIMTFAC
 40
1.0
  9
$DIMGAP
 40
0.09
  9
$DIMJUST
 70
     0
  9
$DIMSD1
 70
     0
  9
$DIMSD2
 70
     0
  9
$DIMTOLJ
 70
     1
  9
$DIMTZIN
 70
     0
  9
$DIMALTZ
 70
     0
  9
$DIMALTTZ
 70
     0
  9
$DIMUPT
 70
     0
  9
$DIMDEC
 70
     4
  9
$DIMTDEC
 70
     4
  9
$DIMALTU
 70
     2
  9
$DIMALTTD
 70
     2
  9
$DIMTXSTY
  7
Standard
  9
$DIMAUNIT
 70
     0
  9
$DIMADEC
 70
     0
  9
$DIMALTRND
 40
0.0
  9
$DIMAZIN
 70
     0
  9
$DIMDSEP
 70
    46
  9
$DIMATFIT
 70
     3
  9
$DIMFRAC
 70
     0
  9
$DIMLDRBLK
  1

  9
$DIMLUNIT
 70
     2
  9
$DIMLWD
 70
    -2
  9
$DIMLWE
 70
    -2
  9
$DIMTMOVE
 70
     0
  9
$LUNITS
 70
     2
  9
$LUPREC
 70
     4
  9
$SKETCHINC
 40
0.1
  9
$FILLETRAD
 40
0.5
  9
$AUNITS
 70
     0
  9
$AUPREC
 70
     0
  9
$MENU
  1
.
  9
$ELEVATION
 40
0.0
  9
$PELEVATION
 40
0.0
  9
$THICKNESS
 40
0.0
  9
$LIMCHECK
 70
     0
  9
$CHAMFERA
 40
0.5
  9
$CHAMFERB
 40
0.5
  9
$CHAMFERC
 40
1.0
  9
$CHAMFERD
 40
0.0
  9
$SKPOLY
 70
     0
  9
$TDCREATE
 40
2455841.418282049
  9
$TDUCREATE
 40
2455841.334948715
  9
$TDUPDATE
 40
2455841.41828206
  9
$TDUUPDATE
 40
2455841.334948727
  9
$TDINDWG
 40
0.0000000116
  9
$TDUSRTIMER
 40
0.0000000116
  9
$USRTIMER
 70
     1
  9
$ANGBASE
 50
0.0
  9
$ANGDIR
 70
     0
  9
$PDMODE
 70
     0
  9
$PDSIZE
 40
0.0
  9
$PLINEWID
 40
0.0
  9
$SPLFRAME
 70
     0
  9
$SPLINETYPE
 70
     6
  9
$SPLINESEGS
 70
     8
  9
$HANDSEED
  5
20C
  9
$SURFTAB1
 70
     6
  9
$SURFTAB2
 70
     6
  9
$SURFTYPE
 70
     6
  9
$SURFU
 70
     6
  9
$SURFV
 70
     6
  9
$UCSBASE
  2

  9
$UCSNAME
  2

  9
$UCSORG
 10
0.0
 20
0.0
 30
0.0
  9
$UCSXDIR
 10
1.0
 20
0.0
 30
0.0
  9
$UCSYDIR
 10
0.0
 20
1.0
 30
0.0
  9
$UCSORTHOREF
  2

  9
$UCSORTHOVIEW
 70
     0
  9
$UCSORGTOP
 10
0.0
 20
0.0
 30
0.0
  9
$UCSORGBOTTOM
 10
0.0
 20
0.0
 30
0.0
  9
$UCSORGLEFT
 10
0.0
 20
0.0
 30
0.0
  9
$UCSORGRIGHT
 10
0.0
 20
0.0
 30
0.0
  9
$UCSORGFRONT
 10
0.0
 20
0.0
 30
0.0
  9
$UCSORGBACK
 10
0.0
 20
0.0
 30
0.0
  9
$PUCSBASE
  2

  9
$PUCSNAME
  2

  9
$PUCSORG
 10
0.0
 20
0.0
 30
0.0
  9
$PUCSXDIR
 10
1.0
 20
0.0
 30
0.0
  9
$PUCSYDIR
 10
0.0
 20
1.0
 30
0.0
  9
$PUCSORTHOREF
  2

  9
$PUCSORTHOVIEW
 70
     0
  9
$PUCSORGTOP
 10
0.0
 20
0.0
 30
0.0
  9
$PUCSORGBOTTOM
 10
0.0
 20
0.0
 30
0.0
  9
$PUCSORGLEFT
 10
0.0
 20
0.0
 30
0.0
  9
$PUCSORGRIGHT
 10
0.0
 20
0.0
 30
0.0
  9
$PUCSORGFRONT
 10
0.0
 20
0.0
 30
0.0
  9
$PUCSORGBACK
 10
0.0
 20
0.0
 30
0.0
  9
$USERI1
 70
     0
  9
$USERI2
 70
     0
  9
$USERI3
 70
     0
  9
$USERI4
 70
     0
  9
$USERI5
 70
     0
  9
$USERR1
 40
14.5
  9
$USERR2
 40
0.0
  9
$USERR3
 40
0.0
  9
$USERR4
 40
0.0
  9
$USERR5
 40
0.0
  9
$WORLDVIEW
 70
     1
  9
$SHADEDGE
 70
     3
  9
$SHADEDIF
 70
    70
  9
$TILEMODE
 70
     1
  9
$MAXACTVP
 70
    64
  9
$PINSBASE
 10
0.0
 20
0.0
 30
0.0
  9
$PLIMCHECK
 70
     0
  9
$PEXTMIN
 10
1.00000000000000E+20
 20
1.00000000000000E+20
 30
1.00000000000000E+20
  9
$PEXTMAX
 10
-1.00000000000000E+20
 20
-1.00000000000000E+20
 30
-1.00000000000000E+20
  9
$PLIMMIN
 10
0.0
 20
0.0
  9
$PLIMMAX
 10
12.0
 20
9.0
  9
$UNITMODE
 70
     0
  9
$VISRETAIN
 70
     1
  9
$PLINEGEN
 70
     0
  9
$PSLTSCALE
 70
     1
  9
$TREEDEPTH
 70
  3020
  9
$CMLSTYLE
  2
Standard
  9
$CMLJUST
 70
     0
  9
$CMLSCALE
 40
1.0
  9
$PROXYGRAPHICS
 70
     1
  9
$MEASUREMENT
 70
     1
  9
$CELWEIGHT
370
    -1
  9
$ENDCAPS
280
     0
  9
$JOINSTYLE
280
     0
  9
$LWDISPLAY
290
     0
  9
$INSUNITS
 70
     1
  9
$HYPERLINKBASE
  1

  9
$STYLESHEET
  1

  9
$XEDIT
290
     1
  9
$CEPSNTYPE
380
     0
  9
$PSTYLEMODE
290
     1
  9
$FINGERPRINTGUID
  2
{C6BCBE92-B0C4-42BA-9B89-77C017609818}
  9
$VERSIONGUID
  2
{FAEB1C32-E019-11D5-929B-00C0DF256EC4}
  9
$EXTNAMES
290
     1
  9
$PSVPSCALE
 40
0.0
  9
$OLESTARTUP
290
     0
  9
$SORTENTS
280
   127
  9
$INDEXCTL
280
     0
  9
$HIDETEXT
280
     1
  9
$XCLIPFRAME
290
     0
  9
$HALOGAP
280
     0
  9
$OBSCOLOR
 70
   257
  9
$OBSLTYPE
280
     0
  9
$INTERSECTIONDISPLAY
280
     0
  9
$INTERSECTIONCOLOR
 70
   257
  9
$DIMASSOC
280
     2
  9
$PROJECTNAME
  1

  0
ENDSEC
  0
SECTION
  2
CLASSES
  0
CLASS
  1
ACDBDICTIONARYWDFLT
  2
AcDbDictionaryWithDefault
  3
ObjectDBX Classes
 90
        0
 91
        3
280
     0
281
     0
  0
CLASS
  1

  2
exOdDbCircle
  3

 90
        0
 91
        3
280
     0
281
     1
  0
CLASS
  1

  2
exOdDbSpline
  3

 90
        0
 91
        3
280
     0
281
     1
  0
ENDSEC
  0
SECTION
  2
TABLES
  0
TABLE
  2
VPORT
  5
8
330
0
100
AcDbSymbolTable
 70
     1
  0
VPORT
  5
29
330
8
100
AcDbSymbolTableRecord
100
AcDbViewportTableRecord
  2
*Active
 70
     0
 10
0.0
 20
0.0
 11
1.0
 21
1.0
 12
848.9629843975199
 22
276.9119189383166
 13
0.0
 23
0.0
 14
0.5
 24
0.5
 15
0.5
 25
0.5
 16
0.0
 26
0.0
 36
1.0
 17
0.0
 27
0.0
 37
0.0
 40
116.0771397974707
 41
1.60267857142857
 42
50.0
 43
0.0
 44
0.0
 50
0.0
 51
0.0
 71
     0
 72
   100
 73
     1
 74
     3
 75
     0
 76
     0
 77
     0
 78
     0
281
     0
 65
     1
110
0.0
120
0.0
130
0.0
111
1.0
121
0.0
131
0.0
112
0.0
122
1.0
132
0.0
 79
     0
146
0.0
  0
ENDTAB
  0
TABLE
  2
LTYPE
  5
5
330
0
100
AcDbSymbolTable
 70
     8
  0
LTYPE
  5
14
330
5
100
AcDbSymbolTableRecord
100
AcDbLinetypeTableRecord
  2
ByBlock
 70
     0
  3

 72
    65
 73
     0
 40
0.0
  0
LTYPE
  5
15
330
5
100
AcDbSymbolTableRecord
100
AcDbLinetypeTableRecord
  2
ByLayer
 70
     0
  3

 72
    65
 73
     0
 40
0.0
  0
LTYPE
  5
16
330
5
100
AcDbSymbolTableRecord
100
AcDbLinetypeTableRecord
  2
Continuous
 70
     0
  3
Solid line
 72
    65
 73
     0
 40
0.0
  0
LTYPE
  5
2A
330
5
100
AcDbSymbolTableRecord
100
AcDbLinetypeTableRecord
  2
DASHED
 70
     0
  3
Dashed
 72
    65
 73
     2
 40
15.0
 49
7.0
 74
     0
 49
-8.0
 74
     0
  0
LTYPE
  5
2B
330
5
100
AcDbSymbolTableRecord
100
AcDbLinetypeTableRecord
  2
DOTTED
 70
     0
  3
Dotted
 72
    65
 73
     2
 40
1.0
 49
0.0
 74
     0
 49
-1.0
 74
     0
  0
LTYPE
  5
2C
330
5
100
AcDbSymbolTableRecord
100
AcDbLinetypeTableRecord
  2
DOT_CENTER
 70
     0
  3
Dot_Center
 72
    65
 73
     4
 40
14.0
 49
12.0
 74
     0
 49
-1.0
 74
     0
 49
0.0
 74
     0
 49
-1.0
 74
     0
  0
LTYPE
  5
2D
330
5
100
AcDbSymbolTableRecord
100
AcDbLinetypeTableRecord
  2
LONG_DASHED
 70
     0
  3
Long_Dashed
 72
    65
 73
     2
 40
15.0
 49
10.0
 74
     0
 49
-5.0
 74
     0
  0
LTYPE
  5
2E
330
5
100
AcDbSymbolTableRecord
100
AcDbLinetypeTableRecord
  2
DASH_CENTER
 70
     0
  3
Dash_Center
 72
    65
 73
     4
 40
14.0
 49
11.0
 74
     0
 49
-1.0
 74
     0
 49
1.0
 74
     0
 49
-1.0
 74
     0
  0
LTYPE
  5
2F
330
5
100
AcDbSymbolTableRecord
100
AcDbLinetypeTableRecord
  2
PHANTOM
 70
     0
  3
Phantom
 72
    65
 73
     6
 40
13.0
 49
10.0
 74
     0
 49
-1.0
 74
     0
 49
0.0
 74
     0
 49
-1.0
 74
     0
 49
0.0
 74
     0
 49
-1.0
 74
     0
  0
LTYPE
  5
30
330
5
100
AcDbSymbolTableRecord
100
AcDbLinetypeTableRecord
  2
CENTER_DASH_DASH
 70
     0
  3
Center_Dash_Dash
 72
    65
 73
     6
 40
14.0
 49
9.0
 74
     0
 49
-1.0
 74
     0
 49
1.0
 74
     0
 49
-1.0
 74
     0
 49
1.0
 74
     0
 49
-1.0
 74
     0
  0
ENDTAB
  0
TABLE
  2
LAYER
  5
2
330
0
100
AcDbSymbolTable
 70
     4
  0
LAYER
  5
10
330
2
100
AcDbSymbolTableRecord
100
AcDbLayerTableRecord
  2
0
 70
     0
 62
     7
  6
Continuous
370
    -3
390
F
  0
LAYER
  5
31
330
2
100
AcDbSymbolTableRecord
100
AcDbLayerTableRecord
  2
1
 70
     0
 62
     7
  6
Continuous
370
    -3
390
F
  0
LAYER
  5
32
330
2
100
AcDbSymbolTableRecord
100
AcDbLayerTableRecord
  2
A_BEMASSUNGEN
 70
     0
 62
     7
  6
Continuous
370
    -3
390
F
  0
LAYER
  5
33
330
2
100
AcDbSymbolTableRecord
100
AcDbLayerTableRecord
  2
A_RUNDUNGEN
 70
     0
 62
     7
  6
Continuous
370
    -3
390
F
  0
ENDTAB
  0
TABLE
  2
STYLE
  5
3
330
0
100
AcDbSymbolTable
 70
     2
  0
STYLE
  5
11
330
3
100
AcDbSymbolTableRecord
100
AcDbTextStyleTableRecord
  2
Standard
 70
     0
 40
0.0
 41
1.0
 50
0.0
 71
     0
 42
0.2
  3
txt
  4

  0
STYLE
  5
1CB
330
3
100
AcDbSymbolTableRecord
100
AcDbTextStyleTableRecord
  2
CONVERTER_11
 70
     0
 40
0.0
 41
0.9
 50
0.0
 71
     0
 42
0.2
  3
txt.shx
  4

  0
ENDTAB
  0
TABLE
  2
VIEW
  5
6
330
0
100
AcDbSymbolTable
 70
     0
  0
ENDTAB
  0
TABLE
  2
UCS
  5
7
330
0
100
AcDbSymbolTable
 70
     0
  0
ENDTAB
  0
TABLE
  2
APPID
  5
9
330
0
100
AcDbSymbolTable
 70
     1
  0
APPID
  5
12
330
9
100
AcDbSymbolTableRecord
100
AcDbRegAppTableRecord
  2
ACAD
 70
     0
  0
ENDTAB
  0
TABLE
  2
DIMSTYLE
  5
A
330
0
100
AcDbSymbolTable
 70
     7
100
AcDbDimStyleTable
  0
DIMSTYLE
105
27
330
A
100
AcDbSymbolTableRecord
100
AcDbDimStyleTableRecord
  2
Standard
 70
     0
340
11
  0
DIMSTYLE
105
1CF
102
{ACAD_REACTORS
330
1D0
102
}
330
A
100
AcDbSymbolTableRecord
100
AcDbDimStyleTableRecord
  2
ME10_DIM_10
 70
     0
 41
3.5
 42
0.0
 44
2.0
 73
     0
 74
     0
 77
     1
 78
     8
140
3.5
147
2.0
172
     1
173
     1
176
     2
177
     2
178
     2
271
     3
340
1CB
  0
DIMSTYLE
105
1DA
102
{ACAD_REACTORS
330
1DB
102
}
330
A
100
AcDbSymbolTableRecord
100
AcDbDimStyleTableRecord
  2
ME10_DIM_11
 70
     0
 41
3.5
 42
0.0
 44
2.0
 73
     0
 74
     0
 77
     1
 78
     8
140
3.5
147
2.0
172
     1
173
     1
176
     2
177
     2
178
     2
271
     3
340
1CB
  0
DIMSTYLE
105
1E7
102
{ACAD_REACTORS
330
1E8
102
}
330
A
100
AcDbSymbolTableRecord
100
AcDbDimStyleTableRecord
  2
ME10_DIM_12
 70
     0
 41
3.5
 42
0.0
 44
2.0
 73
     0
 74
     0
 77
     1
 78
     8
140
3.5
147
2.0
172
     1
173
     1
176
     2
177
     2
178
     2
271
     3
340
1CB
  0
DIMSTYLE
105
1F2
102
{ACAD_REACTORS
330
1F3
102
}
330
A
100
AcDbSymbolTableRecord
100
AcDbDimStyleTableRecord
  2
ME10_DIM_13
 70
     0
 41
3.5
 42
0.0
 44
2.0
 73
     0
 74
     0
 77
     1
 78
     8
140
3.5
147
2.0
172
     1
173
     1
176
     2
177
     2
178
     2
271
     3
340
1CB
  0
DIMSTYLE
105
1FF
102
{ACAD_REACTORS
330
200
102
}
330
A
100
AcDbSymbolTableRecord
100
AcDbDimStyleTableRecord
  2
ME10_DIM_14
 70
     0
 41
3.5
 42
0.0
 44
2.0
 73
     0
 74
     0
 77
     1
 78
     8
140
3.5
147
2.0
172
     1
173
     1
176
     2
177
     2
178
     2
271
     3
340
1CB
  0
DIMSTYLE
105
20A
102
{ACAD_REACTORS
330
20B
102
}
330
A
100
AcDbSymbolTableRecord
100
AcDbDimStyleTableRecord
  2
ME10_DIM_15
 70
     0
 41
3.5
 42
0.0
 44
2.0
 73
     0
 74
     0
 77
     1
 78
     8
140
3.5
147
2.0
172
     1
173
     1
176
     2
177
     2
178
     2
271
     3
340
1CB
  0
ENDTAB
  0
TABLE
  2
BLOCK_RECORD
  5
1
330
0
100
AcDbSymbolTable
 70
     7
  0
BLOCK_RECORD
  5
1F
330
1
100
AcDbSymbolTableRecord
100
AcDbBlockTableRecord
  2
*Model_Space
340
22
  0
BLOCK_RECORD
  5
1B
330
1
100
AcDbSymbolTableRecord
100
AcDbBlockTableRecord
  2
*Paper_Space
340
1E
  0
BLOCK_RECORD
  5
23
330
1
100
AcDbSymbolTableRecord
100
AcDbBlockTableRecord
  2
*Paper_Space0
340
26
  0
BLOCK_RECORD
  5
1C4
330
1
100
AcDbSymbolTableRecord
100
AcDbBlockTableRecord
  2
*D1
340
0
  0
BLOCK_RECORD
  5
1D1
330
1
100
AcDbSymbolTableRecord
100
AcDbBlockTableRecord
  2
*D2
340
0
  0
BLOCK_RECORD
  5
1DC
330
1
100
AcDbSymbolTableRecord
100
AcDbBlockTableRecord
  2
*D3
340
0
  0
BLOCK_RECORD
  5
1E9
330
1
100
AcDbSymbolTableRecord
100
AcDbBlockTableRecord
  2
*D4
340
0
  0
BLOCK_RECORD
  5
1F4
330
1
100
AcDbSymbolTableRecord
100
AcDbBlockTableRecord
  2
*D5
340
0
  0
BLOCK_RECORD
  5
201
330
1
100
AcDbSymbolTableRecord
100
AcDbBlockTableRecord
  2
*D6
340
0
  0
ENDTAB
  0
ENDSEC
  0
SECTION
  2
BLOCKS
  0
BLOCK
  5
20
330
1F
100
AcDbEntity
  8
0
100
AcDbBlockBegin
  2
*Model_Space
 70
     0
 71
     0
 10
0.0
 20
0.0
 30
0.0
  3
*Model_Space
  1

  0
ENDBLK
  5
21
330
1F
100
AcDbEntity
  8
0
100
AcDbBlockEnd
  0
BLOCK
  5
1C
330
1B
100
AcDbEntity
 67
     1
  8
0
100
AcDbBlockBegin
  2
*Paper_Space
 70
     0
 71
     0
 10
0.0
 20
0.0
 30
0.0
  3
*Paper_Space
  1

  0
ENDBLK
  5
1D
330
1B
100
AcDbEntity
 67
     1
  8
0
100
AcDbBlockEnd
  0
BLOCK
  5
24
330
23
100
AcDbEntity
  8
0
100
AcDbBlockBegin
  2
*Paper_Space0
 70
     0
 71
     0
 10
0.0
 20
0.0
 30
0.0
  3
*Paper_Space0
  1

  0
ENDBLK
  5
25
330
23
100
AcDbEntity
  8
0
100
AcDbBlockEnd
  0
BLOCK
  5
1CD
330
1C4
100
AcDbEntity
  8
0
100
AcDbBlockBegin
  2
*D1
 70
     1
 71
     0
 10
0.0
 20
0.0
 30
0.0
  3
*D1
  1

  0
LINE
  5
1C5
330
1C4
100
AcDbEntity
  8
1
  6
Continuous
 62
     2
100
AcDbLine
 10
794.253982730908
 20
226.149582666739
 30
0.0
 11
838.7539827309081
 21
226.149582666739
 31
0.0
  0
LINE
  5
1C6
330
1C4
100
AcDbEntity
  8
1
  6
Continuous
 62
     2
100
AcDbLine
 10
838.7539827309081
 20
253.3854120972486
 30
0.0
 11
838.7539827309081
 21
234.013375212168
 31
0.0
  0
LINE
  5
1C7
330
1C4
100
AcDbEntity
  8
1
  6
Continuous
 62
     2
100
AcDbLine
 10
838.7539827309081
 20
227.948043353087
 30
0.0
 11
838.7539827309081
 21
224.149582666739
 31
0.0
  0
LINE
  5
1C8
330
1C4
100
AcDbEntity
  8
1
  6
Continuous
 62
     2
100
AcDbLine
 10
794.253982730908
 20
254.8854120972487
 30
0.0
 11
794.253982730908
 21
224.149582666739
 31
0.0
  0
SOLID
  5
1C9
330
1C4
100
AcDbEntity
  8
1
 62
     2
100
AcDbTrace
 10
797.753982730908
 20
226.6103664082949
 30
0.0
 11
797.753982730908
 21
225.6887989251831
 31
0.0
 12
794.253982730908
 22
226.149582666739
 32
0.0
 13
794.253982730908
 23
226.149582666739
 33
0.0
  0
SOLID
  5
1CA
330
1C4
100
AcDbEntity
  8
1
 62
     2
100
AcDbTrace
 10
835.2539827309081
 20
225.6887989251831
 30
0.0
 11
835.2539827309081
 21
226.6103664082949
 31
0.0
 12
838.7539827309081
 22
226.149582666739
 32
0.0
 13
838.7539827309081
 23
226.149582666739
 33
0.0
  0
MTEXT
  5
1CC
330
1C4
100
AcDbEntity
  8
1
 62
     2
100
AcDbMText
 10
812.6421192952171
 20
228.149582666739
 30
0.0
 40
3.5
 41
0.0
 71
     7
 72
     1
  1
44.5
  7
CONVERTER_11
 11
0.9999999999970621
 21
2.424068405545307E-6
 31
0.0
 73
     1
 44
0.60024009603842
  0
ENDBLK
  5
1CE
330
1C4
100
AcDbEntity
  8
0
100
AcDbBlockEnd
  0
BLOCK
  5
1D8
330
1D1
100
AcDbEntity
  8
0
100
AcDbBlockBegin
  2
*D2
 70
     1
 71
     0
 10
0.0
 20
0.0
 30
0.0
  3
*D2
  1

  0
LINE
  5
1D2
330
1D1
100
AcDbEntity
  8
1
  6
Continuous
 62
     2
100
AcDbLine
 10
907.2193683713409
 20
290.3854120972483
 30
0.0
 11
907.2193683713409
 21
258.3854120972485
 31
0.0
  0
LINE
  5
1D3
330
1D1
100
AcDbEntity
  8
1
  6
Continuous
 62
     2
100
AcDbLine
 10
886.2539827309082
 20
290.3854120972483
 30
0.0
 11
909.2193683713409
 21
290.3854120972483
 31
0.0
  0
LINE
  5
1D4
330
1D1
100
AcDbEntity
  8
1
  6
Continuous
 62
     2
100
AcDbLine
 10
878.2539827309082
 20
258.3854120972485
 30
0.0
 11
909.2193683713409
 21
258.3854120972485
 31
0.0
  0
SOLID
  5
1D5
330
1D1
100
AcDbEntity
  8
1
 62
     2
100
AcDbTrace
 10
907.6801521128968
 20
286.8854120972483
 30
0.0
 11
906.758584629785
 21
286.8854120972483
 31
0.0
 12
907.2193683713409
 22
290.3854120972483
 32
0.0
 13
907.2193683713409
 23
290.3854120972483
 33
0.0
  0
SOLID
  5
1D6
330
1D1
100
AcDbEntity
  8
1
 62
     2
100
AcDbTrace
 10
906.758584629785
 20
261.8854120972485
 30
0.0
 11
907.6801521128968
 21
261.8854120972485
 31
0.0
 12
907.2193683713409
 22
258.3854120972485
 32
0.0
 13
907.2193683713409
 23
258.3854120972485
 33
0.0
  0
MTEXT
  5
1D7
330
1D1
100
AcDbEntity
  8
1
 62
     2
100
AcDbMText
 10
905.2193683713409
 20
269.015770857818
 30
0.0
 40
3.5
 41
0.0
 71
     7
 72
     1
  1
32
  7
CONVERTER_11
 11
0.0
 21
1.0
 31
0.0
 73
     1
 44
0.60024009603842
  0
ENDBLK
  5
1D9
330
1D1
100
AcDbEntity
  8
0
100
AcDbBlockEnd
  0
BLOCK
  5
1E5
330
1DC
100
AcDbEntity
  8
0
100
AcDbBlockBegin
  2
*D3
 70
     1
 71
     0
 10
0.0
 20
0.0
 30
0.0
  3
*D3
  1

  0
LINE
  5
1DD
330
1DC
100
AcDbEntity
  8
1
  6
Continuous
 62
     2
100
AcDbLine
 10
827.368788905637
 20
236.013375212168
 30
0.0
 11
838.7539827309081
 21
236.013375212168
 31
0.0
  0
LINE
  5
1DE
330
1DC
100
AcDbEntity
  8
1
  6
Continuous
 62
     2
100
AcDbLine
 10
838.7539827309081
 20
236.013375212168
 30
0.0
 11
842.2539827309081
 21
236.013375212168
 31
0.0
  0
LINE
  5
1DF
330
1DC
100
AcDbEntity
  8
1
  6
Continuous
 62
     2
100
AcDbLine
 10
842.2539827309081
 20
236.013375212168
 30
0.0
 11
849.2539827309081
 21
236.013375212168
 31
0.0
  0
LINE
  5
1E0
330
1DC
100
AcDbEntity
  8
1
  6
Continuous
 62
     2
100
AcDbLine
 10
838.7539827309081
 20
247.3854120972486
 30
0.0
 11
838.7539827309081
 21
234.013375212168
 31
0.0
  0
LINE
  5
1E1
330
1DC
100
AcDbEntity
  8
1
  6
Continuous
 62
     2
100
AcDbLine
 10
842.2539827309081
 20
247.3854120972484
 30
0.0
 11
842.2539827309081
 21
234.013375212168
 31
0.0
  0
SOLID
  5
1E2
330
1DC
100
AcDbEntity
  8
1
 62
     2
100
AcDbTrace
 10
835.2539827309081
 20
235.5525914706121
 30
0.0
 11
835.2539827309081
 21
236.4741589537239
 31
0.0
 12
838.7539827309081
 22
236.013375212168
 32
0.0
 13
838.7539827309081
 23
236.013375212168
 33
0.0
  0
SOLID
  5
1E3
330
1DC
100
AcDbEntity
  8
1
 62
     2
100
AcDbTrace
 10
845.7539827309081
 20
236.4741589537239
 30
0.0
 11
845.7539827309081
 21
235.5525914706121
 31
0.0
 12
842.2539827309081
 22
236.013375212168
 32
0.0
 13
842.2539827309081
 23
236.013375212168
 33
0.0
  0
MTEXT
  5
1E4
330
1DC
100
AcDbEntity
  8
1
 62
     2
100
AcDbMText
 10
827.368788905637
 20
238.013375212168
 30
0.0
 40
3.5
 41
0.0
 71
     7
 72
     1
  1
3.5
  7
CONVERTER_11
 11
0.9999999999970621
 21
2.424068405545307E-6
 31
0.0
 73
     1
 44
0.60024009603842
  0
ENDBLK
  5
1E6
330
1DC
100
AcDbEntity
  8
0
100
AcDbBlockEnd
  0
BLOCK
  5
1F0
330
1E9
100
AcDbEntity
  8
0
100
AcDbBlockBegin
  2
*D4
 70
     1
 71
     0
 10
0.0
 20
0.0
 30
0.0
  3
*D4
  1

  0
LINE
  5
1EA
330
1E9
100
AcDbEntity
  8
1
  6
Continuous
 62
     2
100
AcDbLine
 10
842.2539827309081
 20
226.149582666739
 30
0.0
 11
886.2539827309082
 21
226.149582666739
 31
0.0
  0
LINE
  5
1EB
330
1E9
100
AcDbEntity
  8
1
  6
Continuous
 62
     2
100
AcDbLine
 10
842.2539827309081
 20
247.3854120972484
 30
0.0
 11
842.2539827309081
 21
224.149582666739
 31
0.0
  0
LINE
  5
1EC
330
1E9
100
AcDbEntity
  8
1
  6
Continuous
 62
     2
100
AcDbLine
 10
886.2539827309082
 20
258.3854120972486
 30
0.0
 11
886.2539827309082
 21
224.149582666739
 31
0.0
  0
SOLID
  5
1ED
330
1E9
100
AcDbEntity
  8
1
 62
     2
100
AcDbTrace
 10
845.7539827309081
 20
226.6103664082949
 30
0.0
 11
845.7539827309081
 21
225.6887989251831
 31
0.0
 12
842.2539827309081
 22
226.149582666739
 32
0.0
 13
842.2539827309081
 23
226.149582666739
 33
0.0
  0
SOLID
  5
1EE
330
1E9
100
AcDbEntity
  8
1
 62
     2
100
AcDbTrace
 10
882.7539827309082
 20
225.6887989251831
 30
0.0
 11
882.7539827309082
 21
226.6103664082949
 31
0.0
 12
886.2539827309082
 22
226.149582666739
 32
0.0
 13
886.2539827309082
 23
226.149582666739
 33
0.0
  0
MTEXT
  5
1EF
330
1E9
100
AcDbEntity
  8
1
 62
     2
100
AcDbMText
 10
862.6289827309081
 20
228.149582666739
 30
0.0
 40
3.5
 41
0.0
 71
     7
 72
     1
  1
44
  7
CONVERTER_11
 11
0.9999999999970621
 21
2.424068405545307E-6
 31
0.0
 73
     1
 44
0.60024009603842
  0
ENDBLK
  5
1F1
330
1E9
100
AcDbEntity
  8
0
100
AcDbBlockEnd
  0
BLOCK
  5
1FD
330
1F4
100
AcDbEntity
  8
0
100
AcDbBlockBegin
  2
*D5
 70
     1
 71
     0
 10
0.0
 20
0.0
 30
0.0
  3
*D5
  1

  0
LINE
  5
1F5
330
1F4
100
AcDbEntity
  8
1
  6
Continuous
 62
     2
100
AcDbLine
 10
917.1719860641319
 20
253.3854120972486
 30
0.0
 11
917.1719860641319
 21
260.3854120972486
 31
0.0
  0
LINE
  5
1F6
330
1F4
100
AcDbEntity
  8
1
  6
Continuous
 62
     2
100
AcDbLine
 10
917.1719860641319
 20
245.3854120972484
 30
0.0
 11
917.1719860641319
 21
253.3854120972486
 31
0.0
  0
LINE
  5
1F7
330
1F4
100
AcDbEntity
  8
1
  6
Continuous
 62
     2
100
AcDbLine
 10
917.1719860641319
 20
238.3854120972484
 30
0.0
 11
917.1719860641319
 21
245.3854120972484
 31
0.0
  0
LINE
  5
1F8
330
1F4
100
AcDbEntity
  8
1
  6
Continuous
 62
     2
100
AcDbLine
 10
897.2539827309081
 20
253.3854120972486
 30
0.0
 11
919.1719860641319
 21
253.3854120972486
 31
0.0
  0
LINE
  5
1F9
330
1F4
100
AcDbEntity
  8
1
  6
Continuous
 62
     2
100
AcDbLine
 10
897.2539827309081
 20
245.3854120972484
 30
0.0
 11
919.1719860641319
 21
245.3854120972484
 31
0.0
  0
SOLID
  5
1FA
330
1F4
100
AcDbEntity
  8
1
 62
     2
100
AcDbTrace
 10
917.6327698056879
 20
241.8854120972484
 30
0.0
 11
916.711202322576
 21
241.8854120972484
 31
0.0
 12
917.1719860641319
 22
245.3854120972484
 32
0.0
 13
917.1719860641319
 23
245.3854120972484
 33
0.0
  0
SOLID
  5
1FB
330
1F4
100
AcDbEntity
  8
1
 62
     2
100
AcDbTrace
 10
916.711202322576
 20
256.8854120972486
 30
0.0
 11
917.6327698056879
 21
256.8854120972486
 31
0.0
 12
917.1719860641319
 22
253.3854120972486
 32
0.0
 13
917.1719860641319
 23
253.3854120972486
 33
0.0
  0
MTEXT
  5
1FC
330
1F4
100
AcDbEntity
  8
1
 62
     2
100
AcDbMText
 10
915.1719860641319
 20
248.114740817035
 30
0.0
 40
3.5
 41
0.0
 71
     7
 72
     1
  1
8
  7
CONVERTER_11
 11
0.0
 21
1.0
 31
0.0
 73
     1
 44
0.60024009603842
  0
ENDBLK
  5
1FE
330
1F4
100
AcDbEntity
  8
0
100
AcDbBlockEnd
  0
BLOCK
  5
208
330
201
100
AcDbEntity
  8
0
100
AcDbBlockBegin
  2
*D6
 70
     1
 71
     0
 10
0.0
 20
0.0
 30
0.0
  3
*D6
  1

  0
LINE
  5
202
330
201
100
AcDbEntity
  8
1
  6
Continuous
 62
     2
100
AcDbLine
 10
917.1719860641319
 20
253.3854120972486
 30
0.0
 11
917.1719860641319
 21
290.3854120972483
 31
0.0
  0
LINE
  5
203
330
201
100
AcDbEntity
  8
1
  6
Continuous
 62
     2
100
AcDbLine
 10
886.2539827309082
 20
290.3854120972483
 30
0.0
 11
919.1719860641319
 21
290.3854120972483
 31
0.0
  0
LINE
  5
204
330
201
100
AcDbEntity
  8
1
  6
Continuous
 62
     2
100
AcDbLine
 10
897.2539827309081
 20
253.3854120972486
 30
0.0
 11
919.1719860641319
 21
253.3854120972486
 31
0.0
  0
SOLID
  5
205
330
201
100
AcDbEntity
  8
1
 62
     2
100
AcDbTrace
 10
916.711202322576
 20
256.8854120972486
 30
0.0
 11
917.6327698056879
 21
256.8854120972486
 31
0.0
 12
917.1719860641319
 22
253.3854120972486
 32
0.0
 13
917.1719860641319
 23
253.3854120972486
 33
0.0
  0
SOLID
  5
206
330
201
100
AcDbEntity
  8
1
 62
     2
100
AcDbTrace
 10
917.6327698056879
 20
286.8854120972483
 30
0.0
 11
916.711202322576
 21
286.8854120972483
 31
0.0
 12
917.1719860641319
 22
290.3854120972483
 32
0.0
 13
917.1719860641319
 23
290.3854120972483
 33
0.0
  0
MTEXT
  5
207
330
201
100
AcDbEntity
  8
1
 62
     2
100
AcDbMText
 10
915.1719860641319
 20
269.2604120972485
 30
0.0
 40
3.5
 41
0.0
 71
     7
 72
     1
  1
37
  7
CONVERTER_11
 11
0.0
 21
1.0
 31
0.0
 73
     1
 44
0.60024009603842
  0
ENDBLK
  5
209
330
201
100
AcDbEntity
  8
0
100
AcDbBlockEnd
  0
ENDSEC
  0
SECTION
  2
ENTITIES
  0
POINT
  5
34
330
1F
100
AcDbEntity
  8
A_BEMASSUNGEN
 62
     7
100
AcDbPoint
 10
842.2539827309082
 20
290.3854120972483
 30
0.0
  0
POINT
  5
35
330
1F
100
AcDbEntity
  8
A_BEMASSUNGEN
 62
     7
100
AcDbPoint
 10
878.2539827309082
 20
290.3854120972483
 30
0.0
  0
POINT
  5
36
330
1F
100
AcDbEntity
  8
A_BEMASSUNGEN
 62
     7
100
AcDbPoint
 10
878.2539827309082
 20
258.3854120972486
 30
0.0
  0
POINT
  5
37
330
1F
100
AcDbEntity
  8
A_BEMASSUNGEN
 62
     7
100
AcDbPoint
 10
886.2539827309082
 20
260.8136688816483
 30
0.0
  0
POINT
  5
38
330
1F
100
AcDbEntity
  8
1
 62
     3
 60
     1
100
AcDbPoint
 10
804.985597411821
 20
249.765410567116
 30
0.0
  0
POINT
  5
39
330
1F
100
AcDbEntity
  8
1
 62
     3
 60
     1
100
AcDbPoint
 10
825.753982730908
 20
262.6354120972486
 30
0.0
  0
POINT
  5
3A
330
1F
100
AcDbEntity
  8
1
 62
     3
 60
     1
100
AcDbPoint
 10
836.7539827309081
 20
245.3854120972486
 30
0.0
  0
POINT
  5
3B
330
1F
100
AcDbEntity
  8
1
 62
     3
 60
     1
100
AcDbPoint
 10
838.7539827309081
 20
247.3854120972486
 30
0.0
  0
POINT
  5
3C
330
1F
100
AcDbEntity
  8
1
 62
     3
 60
     1
100
AcDbPoint
 10
824.7539827309081
 20
245.3854120972486
 30
0.0
  0
POINT
  5
3D
330
1F
100
AcDbEntity
  8
1
 62
     3
 60
     1
100
AcDbPoint
 10
837.2539827309081
 20
290.3854120972487
 30
0.0
  0
LINE
  5
3E
330
1F
100
AcDbEntity
  8
1
  6
Continuous
 62
     7
100
AcDbLine
 10
852.2539827309081
 20
299.3854120972485
 30
0.0
 11
852.2539827309081
 21
329.478114934949
 31
0.0
  0
LINE
  5
3F
330
1F
100
AcDbEntity
  8
1
  6
Continuous
 62
     7
100
AcDbLine
 10
853.7539827309081
 20
298.8854120972485
 30
0.0
 11
853.7539827309081
 21
329.478114934949
 31
0.0
  0
LINE
  5
40
330
1F
100
AcDbEntity
  8
1
  6
DOT_CENTER
 62
     2
100
AcDbLine
 10
877.2539827309081
 20
281.7854120972488
 30
0.0
 11
877.2539827309082
 21
269.9854120972489
 31
0.0
  0
LINE
  5
41
330
1F
100
AcDbEntity
  8
1
  6
DOT_CENTER
 62
     2
100
AcDbLine
 10
883.1539827309082
 20
275.8854120972486
 30
0.0
 11
871.3539827309082
 21
275.8854120972487
 31
0.0
  0
LINE
  5
42
330
1F
100
AcDbEntity
  8
1
  6
DOT_CENTER
 62
     2
100
AcDbLine
 10
832.7539827309082
 20
267.1604120972485
 30
0.0
 11
832.7539827309082
 21
252.6104120972484
 31
0.0
  0
LINE
  5
43
330
1F
100
AcDbEntity
  8
1
  6
DOT_CENTER
 62
     2
100
AcDbLine
 10
840.0289827309081
 20
259.8854120972487
 30
0.0
 11
825.4789827309081
 21
259.8854120972485
 31
0.0
  0
LINE
  5
44
330
1F
100
AcDbEntity
  8
1
  6
DOT_CENTER
 62
     2
100
AcDbLine
 10
805.2539827309076
 20
269.9854120972491
 30
0.0
 11
805.2539827309078
 21
281.7854120972491
 31
0.0
  0
LINE
  5
45
330
1F
100
AcDbEntity
  8
1
  6
DOT_CENTER
 62
     2
100
AcDbLine
 10
811.1539827309076
 20
275.885412097249
 30
0.0
 11
799.3539827309077
 21
275.8854120972489
 31
0.0
  0
LINE
  5
46
330
1F
100
AcDbEntity
  8
1
  6
DOT_CENTER
 62
     2
100
AcDbLine
 10
841.2539827309079
 20
290.3854120972485
 30
0.0
 11
841.2539827309083
 21
276.3854120972485
 31
0.0
  0
LINE
  5
47
330
1F
100
AcDbEntity
  8
1
  6
DOT_CENTER
 62
     2
100
AcDbLine
 10
848.2539827309083
 20
283.3854120972487
 30
0.0
 11
834.2539827309079
 21
283.3854120972487
 31
0.0
  0
LINE
  5
48
330
1F
100
AcDbEntity
  8
1
  6
DOT_CENTER
 62
     2
100
AcDbLine
 10
849.7539827309076
 20
252.6104120972487
 30
0.0
 11
849.7539827309076
 21
267.1604120972487
 31
0.0
  0
LINE
  5
49
330
1F
100
AcDbEntity
  8
1
  6
DOT_CENTER
 62
     2
100
AcDbLine
 10
857.0289827309077
 20
259.8854120972487
 30
0.0
 11
842.4789827309078
 21
259.885412097249
 31
0.0
  0
LINE
  5
4A
330
1F
100
AcDbEntity
  8
1
  6
Continuous
 62
     7
100
AcDbLine
 10
822.7539827309081
 20
254.8854120972487
 30
0.0
 11
813.753982730908
 21
254.8854120972487
 31
0.0
  0
LINE
  5
4B
330
1F
100
AcDbEntity
  8
1
  6
Continuous
 62
     7
100
AcDbLine
 10
837.2539827309081
 20
290.3854120972487
 30
0.0
 11
837.2539827309081
 21
310.3854120972485
 31
0.0
  0
LINE
  5
4C
330
1F
100
AcDbEntity
  8
1
  6
Continuous
 62
     7
100
AcDbLine
 10
838.7539827309081
 20
295.8854120972485
 30
0.0
 11
838.7539827309081
 21
290.3854120972487
 31
0.0
  0
LINE
  5
4D
330
1F
100
AcDbEntity
  8
1
  6
Continuous
 62
     7
100
AcDbLine
 10
849.7431193787704
 20
296.8854120972485
 30
0.0
 11
851.7539827309081
 21
296.8854120972485
 31
0.0
  0
LINE
  5
4E
330
1F
100
AcDbEntity
  8
1
  6
Continuous
 62
     7
100
AcDbLine
 10
850.3947320651912
 20
298.3854120972485
 30
0.0
 11
851.2539827309081
 21
298.3854120972485
 31
0.0
  0
LINE
  5
4F
330
1F
100
AcDbEntity
  8
1
  6
Continuous
 62
     7
100
AcDbLine
 10
852.2028714703417
 20
309.9971835295946
 30
0.0
 11
849.4288062389019
 21
299.6442311423509
 31
0.0
  0
LINE
  5
50
330
1F
100
AcDbEntity
  8
1
  6
Continuous
 62
     7
100
AcDbLine
 10
838.7539827309081
 20
311.8854120972484
 30
0.0
 11
850.7539827309081
 21
311.8854120972485
 31
0.0
  0
LINE
  5
51
330
1F
100
AcDbEntity
  8
1
  6
Continuous
 62
     7
100
AcDbLine
 10
850.5853329576321
 20
309.7560025746972
 30
0.0
 11
849.7420840912519
 21
306.608954961941
 31
0.0
  0
LINE
  5
52
330
1F
100
AcDbEntity
  8
1
  6
Continuous
 62
     7
100
AcDbLine
 10
839.2539827309081
 20
310.3854120972486
 30
0.0
 11
841.7539827309081
 21
310.3854120972485
 31
0.0
  0
LINE
  5
53
330
1F
100
AcDbEntity
  8
1
  6
Continuous
 62
     7
100
AcDbLine
 10
838.7539827309081
 20
295.8854120972485
 30
0.0
 11
838.7539827309081
 21
307.3854120972485
 31
0.0
  0
LINE
  5
54
330
1F
100
AcDbEntity
  8
1
  6
Continuous
 62
     7
100
AcDbLine
 10
840.7539827309081
 20
293.8854120972485
 30
0.0
 11
848.5599034221505
 21
293.8854120972485
 31
0.0
  0
LINE
  5
55
330
1F
100
AcDbEntity
  8
1
  6
Continuous
 62
     7
100
AcDbLine
 10
841.7539827309081
 20
310.3854120972485
 30
0.0
 11
846.8443066123846
 21
310.3854120972485
 31
0.0
  0
LINE
  5
56
330
1F
100
AcDbEntity
  8
1
  6
Continuous
 62
     7
100
AcDbLine
 10
838.7539827309081
 20
307.3854120972485
 30
0.0
 11
838.7539827309081
 21
309.8854120972485
 31
0.0
  0
LINE
  5
57
330
1F
100
AcDbEntity
  8
1
  6
Continuous
 62
     7
100
AcDbLine
 10
846.8443066123846
 20
310.3854120972485
 30
0.0
 11
850.1023700444875
 21
310.3854120972486
 31
0.0
  0
LINE
  5
58
330
1F
100
AcDbEntity
  8
1
  6
Continuous
 62
     7
100
AcDbLine
 10
849.7420840912519
 20
306.608954961941
 30
0.0
 11
847.8112677261925
 21
299.4030501874535
 31
0.0
  0
LINE
  5
59
330
1F
100
AcDbEntity
  8
1
  6
Continuous
 62
     7
100
AcDbLine
 10
840.7539827309081
 20
294.8854120972485
 30
0.0
 11
848.5599034221505
 21
294.8854120972485
 31
0.0
  0
LINE
  5
5A
330
1F
100
AcDbEntity
  8
1
  6
Continuous
 62
     7
100
AcDbLine
 10
839.7539827309081
 20
295.8854120972485
 30
0.0
 11
839.7539827309081
 21
307.3854120972485
 31
0.0
  0
LINE
  5
5B
330
1F
100
AcDbEntity
  8
1
  6
Continuous
 62
     7
100
AcDbLine
 10
841.7539827309081
 20
309.3854120972485
 30
0.0
 11
846.8443066123846
 21
309.3854120972485
 31
0.0
  0
LINE
  5
5C
330
1F
100
AcDbEntity
  8
1
  6
Continuous
 62
     7
100
AcDbLine
 10
848.7761582649628
 20
306.8677740070434
 30
0.0
 11
846.8453418999031
 21
299.661869232556
 31
0.0
  0
LINE
  5
5D
330
1F
100
AcDbEntity
  8
1
  6
Continuous
 62
     7
100
AcDbLine
 10
790.7539827309076
 20
263.3854120972487
 30
0.0
 11
790.7539827309076
 21
255.8854120972486
 31
0.0
  0
LINE
  5
5E
330
1F
100
AcDbEntity
  8
1
  6
Continuous
 62
     7
100
AcDbLine
 10
792.2539827309076
 20
255.8854120972486
 30
0.0
 11
792.2539827309076
 21
263.3854120972487
 31
0.0
  0
LINE
  5
5F
330
1F
100
AcDbEntity
  8
1
  6
Continuous
 62
     7
100
AcDbLine
 10
790.7539827309076
 20
263.3854120972487
 30
0.0
 11
792.2539827309076
 21
263.3854120972487
 31
0.0
  0
LINE
  5
60
330
1F
100
AcDbEntity
  8
1
  6
Continuous
 62
     7
100
AcDbLine
 10
825.253982730908
 20
257.8854120972487
 30
0.0
 11
825.253982730908
 21
254.8854120972487
 31
0.0
  0
LINE
  5
61
330
1F
100
AcDbEntity
  8
1
  6
Continuous
 62
     7
100
AcDbLine
 10
825.253982730908
 20
254.8854120972487
 30
0.0
 11
822.7539827309081
 21
254.8854120972487
 31
0.0
  0
LINE
  5
62
330
1F
100
AcDbEntity
  8
1
  6
Continuous
 62
     7
100
AcDbLine
 10
813.753982730908
 20
257.8854120972487
 30
0.0
 11
825.253982730908
 21
257.8854120972487
 31
0.0
  0
LINE
  5
63
330
1F
100
AcDbEntity
  8
1
  6
Continuous
 62
     7
100
AcDbLine
 10
813.753982730908
 20
254.8854120972487
 30
0.0
 11
813.753982730908
 21
257.8854120972487
 31
0.0
  0
LINE
  5
64
330
1F
100
AcDbEntity
  8
1
  6
Continuous
 62
     7
100
AcDbLine
 10
825.7539827309081
 20
293.5854120972484
 30
0.0
 11
825.7539827309081
 21
295.5854120972487
 31
0.0
  0
LINE
  5
65
330
1F
100
AcDbEntity
  8
1
  6
Continuous
 62
     7
100
AcDbLine
 10
828.7539827309081
 20
293.5854120972486
 30
0.0
 11
828.7539827309081
 21
293.3854120972487
 31
0.0
  0
LINE
  5
66
330
1F
100
AcDbEntity
  8
1
  6
Continuous
 62
     7
100
AcDbLine
 10
828.7539827309081
 20
293.5854120972486
 30
0.0
 11
825.7539827309081
 21
293.5854120972484
 31
0.0
  0
LINE
  5
67
330
1F
100
AcDbEntity
  8
1
  6
Continuous
 62
     7
100
AcDbLine
 10
825.7539827309081
 20
295.5854120972487
 30
0.0
 11
828.7539827309081
 21
295.5854120972487
 31
0.0
  0
LINE
  5
68
330
1F
100
AcDbEntity
  8
1
  6
Continuous
 62
     7
100
AcDbLine
 10
828.7539827309081
 20
295.5854120972487
 30
0.0
 11
828.7539827309081
 21
293.5854120972486
 31
0.0
  0
LINE
  5
69
330
1F
100
AcDbEntity
  8
1
  6
Continuous
 62
     7
100
AcDbLine
 10
825.7539827309081
 20
293.3854120972486
 30
0.0
 11
825.7539827309081
 21
293.5854120972484
 31
0.0
  0
LINE
  5
6A
330
1F
100
AcDbEntity
  8
1
  6
Continuous
 62
     7
100
AcDbLine
 10
836.7539827309081
 20
293.3854120972487
 30
0.0
 11
829.0039827309081
 21
293.3854120972487
 31
0.0
  0
LINE
  5
6B
330
1F
100
AcDbEntity
  8
1
  6
Continuous
 62
     7
100
AcDbLine
 10
794.253982730908
 20
290.3854120972487
 30
0.0
 11
794.253982730908
 21
254.8854120972487
 31
0.0
  0
LINE
  5
6C
330
1F
100
AcDbEntity
  8
1
  6
Continuous
 62
     7
100
AcDbLine
 10
836.7539827309081
 20
290.8854120972487
 30
0.0
 11
836.7539827309081
 21
293.3854120972487
 31
0.0
  0
LINE
  5
6D
330
1F
100
AcDbEntity
  8
1
  6
Continuous
 62
     7
100
AcDbLine
 10
796.753982730908
 20
290.3854120972487
 30
0.0
 11
796.753982730908
 21
254.8854120972487
 31
0.0
  0
LINE
  5
6E
330
1F
100
AcDbEntity
  8
1
  6
Continuous
 62
     7
100
AcDbLine
 10
837.2539827309081
 20
290.8854120972487
 30
0.0
 11
836.7539827309081
 21
290.8854120972487
 31
0.0
  0
LINE
  5
6F
330
1F
100
AcDbEntity
  8
1
  6
Continuous
 62
     7
100
AcDbLine
 10
836.7539827309081
 20
290.8854120972487
 30
0.0
 11
797.253982730908
 21
290.8854120972487
 31
0.0
  0
LINE
  5
70
330
1F
100
AcDbEntity
  8
1
  6
Continuous
 62
     7
100
AcDbLine
 10
829.0039827309081
 20
293.3854120972487
 30
0.0
 11
797.253982730908
 21
293.3854120972487
 31
0.0
  0
LINE
  5
71
330
1F
100
AcDbEntity
  8
1
  6
Continuous
 62
     7
100
AcDbLine
 10
796.753982730908
 20
254.8854120972487
 30
0.0
 11
794.253982730908
 21
254.8854120972487
 31
0.0
  0
LINE
  5
72
330
1F
100
AcDbEntity
  8
1
  6
Continuous
 62
     7
100
AcDbLine
 10
825.253982730908
 20
257.8854120972487
 30
0.0
 11
825.253982730908
 21
254.8854120972487
 31
0.0
  0
LINE
  5
73
330
1F
100
AcDbEntity
  8
1
  6
Continuous
 62
     7
100
AcDbLine
 10
825.753982730908
 20
258.3854120972486
 30
0.0
 11
825.753982730908
 21
259.8854120972486
 31
0.0
  0
LINE
  5
74
330
1F
100
AcDbEntity
  8
1
  6
Continuous
 62
     7
100
AcDbLine
 10
825.753982730908
 20
259.8854120972486
 30
0.0
 11
825.753982730908
 21
262.6354120972486
 31
0.0
  0
LINE
  5
75
330
1F
100
AcDbEntity
  8
1
  6
Continuous
 62
     7
100
AcDbLine
 10
813.753982730908
 20
254.8854120972487
 30
0.0
 11
793.2539827309076
 21
254.8854120972486
 31
0.0
  0
LINE
  5
76
330
1F
100
AcDbEntity
  8
1
  6
Continuous
 62
     7
100
AcDbLine
 10
825.253982730908
 20
254.8854120972487
 30
0.0
 11
827.7539827309083
 21
254.8854120972487
 31
0.0
  0
LINE
  5
77
330
1F
100
AcDbEntity
  8
1
  6
DASHED
 62
     2
100
AcDbLine
 10
867.120986173913
 20
282.8851181432176
 30
0.0
 11
864.2539827309083
 21
287.3854120972486
 31
0.0
  0
LINE
  5
78
330
1F
100
AcDbEntity
  8
1
  6
Continuous
 62
     7
100
AcDbLine
 10
855.3660170004972
 20
282.8854120972486
 30
0.0
 11
867.0615945754831
 21
282.8854120972485
 31
0.0
  0
LINE
  5
79
330
1F
100
AcDbEntity
  8
1
  6
Continuous
 62
     7
100
AcDbLine
 10
871.3042352626021
 20
281.1280527843683
 30
0.0
 11
873.0436171851795
 21
279.3886708617908
 31
0.0
  0
LINE
  5
7A
330
1F
100
AcDbEntity
  8
1
  6
Continuous
 62
     7
100
AcDbLine
 10
873.3146429026879
 20
285.4816061749611
 30
0.0
 11
880.0824098556541
 21
278.7138392219952
 31
0.0
  0
LINE
  5
7B
330
1F
100
AcDbEntity
  8
1
  6
Continuous
 62
     7
100
AcDbLine
 10
844.8595340063721
 20
287.3854120972487
 30
0.0
 11
868.7184488249753
 21
287.3854120972487
 31
0.0
  0
LINE
  5
7C
330
1F
100
AcDbEntity
  8
1
  6
Continuous
 62
     7
100
AcDbLine
 10
829.4077886531957
 20
278.6102858314014
 30
0.0
 11
837.7184488249754
 21
286.9209460031811
 31
0.0
  0
LINE
  5
7D
330
1F
100
AcDbEntity
  8
1
  6
Continuous
 62
     7
100
AcDbLine
 10
827.5039827309082
 20
259.8854120972486
 30
0.0
 11
827.5039827309081
 21
274.0140917536887
 31
0.0
  0
LINE
  5
7E
330
1F
100
AcDbEntity
  8
1
  6
Continuous
 62
     7
100
AcDbLine
 10
834.246890361145
 20
268.8006510195518
 30
0.0
 11
837.4726514739788
 21
262.1868606178912
 31
0.0
  0
LINE
  5
7F
330
1F
100
AcDbEntity
  8
1
  6
Continuous
 62
     7
100
AcDbLine
 10
853.2158093032255
 20
282.4868946562318
 30
0.0
 11
837.2192338932912
 21
276.3463846726262
 31
0.0
  0
LINE
  5
80
330
1F
100
AcDbEntity
  8
1
  6
Continuous
 62
     7
100
AcDbLine
 10
818.2539827309075
 20
287.3854120972489
 30
0.0
 11
815.3869792879028
 21
282.8851181432179
 31
0.0
  0
LINE
  5
81
330
1F
100
AcDbEntity
  8
1
  6
Continuous
 62
     7
100
AcDbLine
 10
815.4463708863327
 20
282.8854120972488
 30
0.0
 11
827.1419484613186
 21
282.8854120972489
 31
0.0
  0
LINE
  5
82
330
1F
100
AcDbEntity
  8
1
  6
Continuous
 62
     7
100
AcDbLine
 10
809.4643482766363
 20
279.3886708617911
 30
0.0
 11
811.2037301992137
 21
281.1280527843685
 31
0.0
  0
LINE
  5
83
330
1F
100
AcDbEntity
  8
1
  6
Continuous
 62
     7
100
AcDbLine
 10
802.4255556061618
 20
278.7138392219954
 30
0.0
 11
809.193322559128
 21
285.4816061749614
 31
0.0
  0
LINE
  5
84
330
1F
100
AcDbEntity
  8
1
  6
Continuous
 62
     7
100
AcDbLine
 10
813.7895166368405
 20
287.385412097249
 30
0.0
 11
837.6484314554438
 21
287.385412097249
 31
0.0
  0
LINE
  5
85
330
1F
100
AcDbEntity
  8
1
  6
DASHED
 62
     2
100
AcDbLine
 10
844.7895166368404
 20
286.9209460031814
 30
0.0
 11
850.3309584664644
 21
281.3795041735574
 31
0.0
  0
LINE
  5
86
330
1F
100
AcDbEntity
  8
1
  6
Continuous
 62
     7
100
AcDbLine
 10
855.0039827309078
 20
274.014091753689
 30
0.0
 11
855.0039827309076
 21
259.8854120972489
 31
0.0
  0
LINE
  5
87
330
1F
100
AcDbEntity
  8
1
  6
Continuous
 62
     7
100
AcDbLine
 10
845.0353139878371
 20
262.1868606178914
 30
0.0
 11
848.2610751006708
 21
268.800651019552
 31
0.0
  0
LINE
  5
88
330
1F
100
AcDbEntity
  8
1
  6
Continuous
 62
     7
100
AcDbLine
 10
845.2887315685247
 20
276.3463846726265
 30
0.0
 11
841.2539827309083
 21
277.8951796417883
 31
0.0
  0
LINE
  5
89
330
1F
100
AcDbEntity
  8
1
  6
Continuous
 62
     7
100
AcDbLine
 10
848.6011512854026
 20
269.6711976022264
 30
0.0
 11
855.003982730908
 21
262.305582590556
 31
0.0
  0
LINE
  5
8A
330
1F
100
AcDbEntity
  8
1
  6
Continuous
 62
     7
100
AcDbLine
 10
832.1770069953518
 20
281.3795041735576
 30
0.0
 11
829.2921561585904
 21
282.4868946562321
 31
0.0
  0
LINE
  5
8B
330
1F
100
AcDbEntity
  8
1
  6
DASHED
 62
     2
100
AcDbLine
 10
841.2539827309083
 20
277.8951796417883
 30
0.0
 11
832.1770069953518
 21
281.3795041735576
 31
0.0
  0
LINE
  5
8C
330
1F
100
AcDbEntity
  8
1
  6
Continuous
 62
     7
100
AcDbLine
 10
850.3309584664644
 20
281.3795041735574
 30
0.0
 11
853.1001768086202
 21
278.6102858314017
 31
0.0
  0
LINE
  5
8D
330
1F
100
AcDbEntity
  8
1
  6
Continuous
 62
     7
100
AcDbLine
 10
842.2539827309082
 20
290.3854120972483
 30
0.0
 11
842.2539827309082
 21
288.2843915828155
 31
0.0
  0
LINE
  5
8E
330
1F
100
AcDbEntity
  8
0
  6
Continuous
 62
     7
100
AcDbLine
 10
884.9627423824082
 20
259.3282667785483
 30
0.0
 11
878.2539827309082
 21
258.3854120972486
 31
0.0
  0
LINE
  5
8F
330
1F
100
AcDbEntity
  8
A_RUNDUNGEN
  6
Continuous
 62
     7
100
AcDbLine
 10
860.2539827309082
 20
258.3854120972482
 30
0.0
 11
858.7539827309082
 21
258.3854120972485
 31
0.0
  0
LINE
  5
90
330
1F
100
AcDbEntity
  8
A_RUNDUNGEN
  6
Continuous
 62
     7
100
AcDbLine
 10
842.2539827309082
 20
290.3854120972483
 30
0.0
 11
844.2539827309082
 21
290.3854120972483
 31
0.0
  0
LINE
  5
91
330
1F
100
AcDbEntity
  8
0
  6
Continuous
 62
     7
100
AcDbLine
 10
851.2539827309082
 20
290.3854120972482
 30
0.0
 11
878.2539827309082
 21
290.3854120972483
 31
0.0
  0
LINE
  5
92
330
1F
100
AcDbEntity
  8
0
  6
Continuous
 62
     7
100
AcDbLine
 10
878.2539827309082
 20
290.3854120972483
 30
0.0
 11
884.9627423824082
 21
289.4425574160482
 31
0.0
  0
LINE
  5
93
330
1F
100
AcDbEntity
  8
0
  6
Continuous
 62
     7
100
AcDbLine
 10
878.2539827309082
 20
258.3854120972486
 30
0.0
 11
860.2539827309082
 21
258.3854120972482
 31
0.0
  0
LINE
  5
94
330
1F
100
AcDbEntity
  8
0
  6
Continuous
 62
     7
100
AcDbLine
 10
886.2539827309082
 20
260.8136688816483
 30
0.0
 11
886.2539827309082
 21
262.3854120972483
 31
0.0
  0
LINE
  5
95
330
1F
100
AcDbEntity
  8
1
  6
Continuous
 62
     7
100
AcDbLine
 10
878.2539827309082
 20
290.3854120972483
 30
0.0
 11
886.2539827309082
 21
290.3854120972483
 31
0.0
  0
LINE
  5
96
330
1F
100
AcDbEntity
  8
1
  6
Continuous
 62
     7
100
AcDbLine
 10
878.2539827309082
 20
258.3854120972486
 30
0.0
 11
886.2539827309082
 21
258.3854120972486
 31
0.0
  0
LINE
  5
97
330
1F
100
AcDbEntity
  8
1
  6
Continuous
 62
     7
100
AcDbLine
 10
886.2539827309082
 20
287.9571553129482
 30
0.0
 11
886.2539827309082
 21
290.3854120972483
 31
0.0
  0
LINE
  5
98
330
1F
100
AcDbEntity
  8
1
  6
Continuous
 62
     7
100
AcDbLine
 10
886.2539827309082
 20
260.8136688816483
 30
0.0
 11
886.2539827309082
 21
258.3854120972486
 31
0.0
  0
LINE
  5
99
330
1F
100
AcDbEntity
  8
1
  6
Continuous
 62
     7
100
AcDbLine
 10
881.7539827309082
 20
272.4324406513434
 30
0.0
 11
881.7539827309081
 21
281.7499262750341
 31
0.0
  0
LINE
  5
9A
330
1F
100
AcDbEntity
  8
1
  6
Continuous
 62
     7
100
AcDbLine
 10
881.7539827309081
 20
281.7499262750341
 30
0.0
 11
881.7539827309081
 21
282.8854120972486
 31
0.0
  0
LINE
  5
9B
330
1F
100
AcDbEntity
  8
1
  6
Continuous
 62
     7
100
AcDbLine
 10
881.7539827309081
 20
281.7499262750341
 30
0.0
 11
878.041168403335
 21
280.7550806743142
 31
0.0
  0
LINE
  5
9C
330
1F
100
AcDbEntity
  8
1
  6
Continuous
 62
     7
100
AcDbLine
 10
878.7539827309081
 20
268.8854120972486
 30
0.0
 11
881.0128017760107
 21
269.4906608362319
 31
0.0
  0
LINE
  5
9D
330
1F
100
AcDbEntity
  8
1
  6
Continuous
 62
     7
100
AcDbLine
 10
881.7539827309082
 20
270.4565866625211
 30
0.0
 11
881.7539827309082
 21
272.4324406513434
 31
0.0
  0
LINE
  5
9E
330
1F
100
AcDbEntity
  8
1
  6
DOT_CENTER
 62
     2
100
AcDbLine
 10
848.9737417803092
 20
268.3077443727781
 30
0.0
 11
888.8073820081244
 21
278.9811361034131
 31
0.0
  0
LINE
  5
9F
330
1F
100
AcDbEntity
  8
1
  6
DASHED
 62
     2
100
AcDbLine
 10
853.9749678189085
 20
264.9890760391409
 30
0.0
 11
855.0039827309076
 21
265.2647997538107
 31
0.0
  0
LINE
  5
A0
330
1F
100
AcDbEntity
  8
1
  6
DASHED
 62
     2
100
AcDbLine
 10
850.2313828506126
 20
271.2329187329593
 30
0.0
 11
851.5254780761252
 21
266.403289601514
 31
0.0
  0
LINE
  5
A1
330
1F
100
AcDbEntity
  8
1
  6
Continuous
 62
     7
100
AcDbLine
 10
878.7539827309081
 20
268.8854120972486
 30
0.0
 11
878.7539827309081
 21
263.8854120972486
 31
0.0
  0
LINE
  5
A2
330
1F
100
AcDbEntity
  8
1
  6
Continuous
 62
     7
100
AcDbLine
 10
842.7539827309081
 20
253.8854120972486
 30
0.0
 11
842.7539827309082
 21
277.3193835892353
 31
0.0
  0
LINE
  5
A3
330
1F
100
AcDbEntity
  8
1
  6
Continuous
 62
     7
100
AcDbLine
 10
842.2539827309081
 20
247.3854120972484
 30
0.0
 11
844.2539827309081
 21
245.3854120972484
 31
0.0
  0
LINE
  5
A4
330
1F
100
AcDbEntity
  8
1
  6
PHANTOM
 62
     2
100
AcDbLine
 10
897.2539827309081
 20
253.3854120972486
 30
0.0
 11
897.2539827309081
 21
258.3854120972483
 31
0.0
  0
LINE
  5
A5
330
1F
100
AcDbEntity
  8
1
  6
Continuous
 62
     7
100
AcDbLine
 10
859.7539827309082
 20
253.3854120972487
 30
0.0
 11
897.2539827309081
 21
253.3854120972486
 31
0.0
  0
LINE
  5
A6
330
1F
100
AcDbEntity
  8
1
  6
PHANTOM
 62
     2
100
AcDbLine
 10
897.2539827309081
 20
243.609681490145
 30
0.0
 11
897.2539827309081
 21
245.3854120972484
 31
0.0
  0
LINE
  5
A7
330
1F
100
AcDbEntity
  8
1
  6
Continuous
 62
     7
100
AcDbLine
 10
842.2539827309082
 20
293.8854120972485
 30
0.0
 11
897.2539827309081
 21
293.8854120972484
 31
0.0
  0
LINE
  5
A8
330
1F
100
AcDbEntity
  8
1
  6
Continuous
 62
     7
100
AcDbLine
 10
842.2539827309081
 20
247.3854120972484
 30
0.0
 11
842.2539827309081
 21
253.3854120972487
 31
0.0
  0
LINE
  5
A9
330
1F
100
AcDbEntity
  8
1
  6
PHANTOM
 62
     2
100
AcDbLine
 10
897.2539827309081
 20
245.3854120972484
 30
0.0
 11
897.2539827309081
 21
253.3854120972486
 31
0.0
  0
LINE
  5
AA
330
1F
100
AcDbEntity
  8
1
  6
Continuous
 62
     7
100
AcDbLine
 10
897.2539827309081
 20
245.3854120972484
 30
0.0
 11
844.2539827309081
 21
245.3854120972484
 31
0.0
  0
LINE
  5
AB
330
1F
100
AcDbEntity
  8
1
  6
DOT_CENTER
 62
     2
100
AcDbLine
 10
897.2539827309081
 20
293.8854120972484
 30
0.0
 11
897.2539827309081
 21
296.6370670983835
 31
0.0
  0
LINE
  5
AC
330
1F
100
AcDbEntity
  8
1
  6
Continuous
 62
     7
100
AcDbLine
 10
842.2539827309082
 20
293.8854120972485
 30
0.0
 11
842.2539827309082
 21
290.3854120972483
 31
0.0
  0
LINE
  5
AD
330
1F
100
AcDbEntity
  8
1
  6
Continuous
 62
     7
100
AcDbLine
 10
842.2539827309081
 20
253.3854120972487
 30
0.0
 11
858.7539827309082
 21
253.3854120972487
 31
0.0
  0
LINE
  5
AE
330
1F
100
AcDbEntity
  8
1
  6
Continuous
 62
     7
100
AcDbLine
 10
858.7539827309082
 20
258.3854120972485
 30
0.0
 11
858.7539827309082
 21
253.3854120972487
 31
0.0
  0
LINE
  5
AF
330
1F
100
AcDbEntity
  8
1
  6
Continuous
 62
     7
100
AcDbLine
 10
858.7539827309082
 20
253.3854120972487
 30
0.0
 11
859.7539827309082
 21
253.3854120972487
 31
0.0
  0
LINE
  5
B0
330
1F
100
AcDbEntity
  8
1
  6
Continuous
 62
     7
100
AcDbLine
 10
846.7539827309081
 20
287.8854120972486
 30
0.0
 11
843.4334322026781
 21
287.8854120972486
 31
0.0
  0
LINE
  5
B1
330
1F
100
AcDbEntity
  8
1
  6
Continuous
 62
     7
100
AcDbLine
 10
879.7539827309081
 20
284.8854120972486
 30
0.0
 11
873.9108369804004
 21
284.8854120972486
 31
0.0
  0
LINE
  5
B2
330
1F
100
AcDbEntity
  8
1
  6
Continuous
 62
     7
100
AcDbLine
 10
877.7539827309081
 20
262.8854120972486
 30
0.0
 11
855.7539827309082
 21
262.8854120972486
 31
0.0
  0
LINE
  5
B3
330
1F
100
AcDbEntity
  8
1
  6
DASHED
 62
     2
100
AcDbLine
 10
854.7539827309081
 20
261.8854120972486
 30
0.0
 11
854.753982730908
 21
258.2846310378915
 31
0.0
  0
LINE
  5
B4
330
1F
100
AcDbEntity
  8
1
  6
Continuous
 62
     7
100
AcDbLine
 10
854.7539827309079
 20
253.8854120972486
 30
0.0
 11
842.7539827309081
 21
253.8854120972486
 31
0.0
  0
LINE
  5
B5
330
1F
100
AcDbEntity
  8
1
  6
DASHED
 62
     2
100
AcDbLine
 10
846.7539827309081
 20
286.8854120972486
 30
0.0
 11
846.7539827309081
 21
287.3854120972487
 31
0.0
  0
LINE
  5
B6
330
1F
100
AcDbEntity
  8
1
  6
Continuous
 62
     7
100
AcDbLine
 10
873.0220705809082
 20
279.4102174660621
 30
0.0
 11
854.9796693239592
 21
274.5757706197444
 31
0.0
  0
LINE
  5
B7
330
1F
100
AcDbEntity
  8
1
  6
DASHED
 62
     2
100
AcDbLine
 10
878.041168403335
 20
280.7550806743142
 30
0.0
 11
873.0220705809082
 21
279.4102174660621
 31
0.0
  0
LINE
  5
B8
330
1F
100
AcDbEntity
  8
1
  6
DASHED
 62
     2
100
AcDbLine
 10
873.9108369804004
 20
284.8854120972486
 30
0.0
 11
848.7539827309081
 21
284.8854120972486
 31
0.0
  0
LINE
  5
B9
330
1F
100
AcDbEntity
  8
1
  6
Continuous
 62
     7
100
AcDbLine
 10
846.7539827309081
 20
287.3854120972487
 30
0.0
 11
846.7539827309081
 21
287.8854120972486
 31
0.0
  0
LINE
  5
BA
330
1F
100
AcDbEntity
  8
1
  6
DASHED
 62
     2
100
AcDbLine
 10
843.4334322026781
 20
287.8854120972486
 30
0.0
 11
842.7539827309082
 21
287.8854120972486
 31
0.0
  0
LINE
  5
BB
330
1F
100
AcDbEntity
  8
1
  6
DASHED
 62
     2
100
AcDbLine
 10
854.9796693239592
 20
274.5757706197444
 30
0.0
 11
851.6455964129857
 21
273.6824084757425
 31
0.0
  0
LINE
  5
BC
330
1F
100
AcDbEntity
  8
1
  6
Continuous
 62
     7
100
AcDbLine
 10
855.0039827309076
 20
265.2647997538107
 30
0.0
 11
881.7539827309082
 21
272.4324406513434
 31
0.0
  0
LINE
  5
BD
330
1F
100
AcDbEntity
  8
1
  6
Continuous
 62
     7
100
AcDbLine
 10
854.753982730908
 20
258.2846310378915
 30
0.0
 11
854.7539827309079
 21
253.8854120972486
 31
0.0
  0
LINE
  5
BE
330
1F
100
AcDbEntity
  8
1
  6
Continuous
 62
     7
100
AcDbLine
 10
842.2539827309082
 20
277.511315606753
 30
0.0
 11
842.2539827309081
 21
253.3854120972487
 31
0.0
  0
LINE
  5
BF
330
1F
100
AcDbEntity
  8
0
  6
Continuous
 62
     7
100
AcDbLine
 10
849.9252645505084
 20
288.3854120972483
 30
0.0
 11
844.2539827309082
 21
289.3854120972483
 31
0.0
  0
LINE
  5
C0
330
1F
100
AcDbEntity
  8
0
  6
Continuous
 62
     7
100
AcDbLine
 10
876.5219319233082
 20
288.3854120972483
 30
0.0
 11
849.9252645505084
 21
288.3854120972483
 31
0.0
  0
LINE
  5
C1
330
1F
100
AcDbEntity
  8
0
  6
Continuous
 62
     7
100
AcDbLine
 10
878.2539827309082
 20
287.3854120972483
 30
0.0
 11
876.5219319233082
 21
288.3854120972483
 31
0.0
  0
LINE
  5
C2
330
1F
100
AcDbEntity
  8
0
  6
Continuous
 62
     7
100
AcDbLine
 10
880.2539827309082
 20
287.3854120972483
 30
0.0
 11
878.2539827309082
 21
287.3854120972483
 31
0.0
  0
LINE
  5
C3
330
1F
100
AcDbEntity
  8
0
  6
Continuous
 62
     7
100
AcDbLine
 10
883.2539827309082
 20
282.3854120972483
 30
0.0
 11
883.2539827309082
 21
284.3854120972483
 31
0.0
  0
LINE
  5
C4
330
1F
100
AcDbEntity
  8
0
  6
Continuous
 62
     7
100
AcDbLine
 10
870.2539827309082
 20
262.3854120972483
 30
0.0
 11
880.2539827309082
 21
262.3854120972483
 31
0.0
  0
LINE
  5
C5
330
1F
100
AcDbEntity
  8
0
  6
Continuous
 62
     7
100
AcDbLine
 10
867.6559065196083
 20
260.8854120972483
 30
0.0
 11
870.2539827309082
 21
262.3854120972483
 31
0.0
  0
LINE
  5
C6
330
1F
100
AcDbEntity
  8
0
  6
Continuous
 62
     7
100
AcDbLine
 10
860.2539827309082
 20
260.8854120972483
 30
0.0
 11
867.6559065196083
 21
260.8854120972483
 31
0.0
  0
LINE
  5
C7
330
1F
100
AcDbEntity
  8
0
  6
Continuous
 62
     7
100
AcDbLine
 10
860.2539827309082
 20
260.8854120972483
 30
0.0
 11
860.2539827309082
 21
258.3854120972482
 31
0.0
  0
LINE
  5
C8
330
1F
100
AcDbEntity
  8
1
  6
Continuous
 62
     7
100
AcDbLine
 10
844.2539827309082
 20
289.3854120972483
 30
0.0
 11
844.2539827309082
 21
290.3854120972483
 31
0.0
  0
LINE
  5
C9
330
1F
100
AcDbEntity
  8
A_RUNDUNGEN
  6
Continuous
 62
     7
100
AcDbLine
 10
844.2539827309082
 20
290.3854120972483
 30
0.0
 11
851.2539827309082
 21
290.3854120972482
 31
0.0
  0
LINE
  5
CA
330
1F
100
AcDbEntity
  8
0
  6
Continuous
 62
     7
100
AcDbLine
 10
883.2539827309082
 20
265.3854120972483
 30
0.0
 11
883.2539827309082
 21
272.3854120972483
 31
0.0
  0
LINE
  5
CB
330
1F
100
AcDbEntity
  8
0
  6
Continuous
 62
     7
100
AcDbLine
 10
886.2539827309082
 20
262.3854120972483
 30
0.0
 11
886.2539827309082
 21
287.9571553129482
 31
0.0
  0
LINE
  5
CC
330
1F
100
AcDbEntity
  8
1
  6
PHANTOM
 62
     2
100
AcDbLine
 10
897.2539827309081
 20
258.3854120972483
 30
0.0
 11
897.2539827309081
 21
293.8854120972484
 31
0.0
  0
LINE
  5
CD
330
1F
100
AcDbEntity
  8
1
  6
Continuous
 62
     7
100
AcDbLine
 10
838.7539827309081
 20
290.3854120972487
 30
0.0
 11
838.7539827309081
 21
288.6354120972487
 31
0.0
  0
LINE
  5
CE
330
1F
100
AcDbEntity
  8
1
  6
Continuous
 62
     7
100
AcDbLine
 10
796.753982730908
 20
259.9931072518487
 30
0.0
 11
796.753982730908
 21
258.3854120972487
 31
0.0
  0
LINE
  5
CF
330
1F
100
AcDbEntity
  8
0
  6
Continuous
 62
     7
100
AcDbLine
 10
796.753982730908
 20
259.9931072518487
 30
0.0
 11
796.753982730908
 21
260.8854120972487
 31
0.0
  0
LINE
  5
D0
330
1F
100
AcDbEntity
  8
0
  6
Continuous
 62
     7
100
AcDbLine
 10
796.753982730908
 20
288.7777169426486
 30
0.0
 11
803.2539827309075
 21
290.3854120972487
 31
0.0
  0
LINE
  5
D1
330
1F
100
AcDbEntity
  8
0
  6
Continuous
 62
     7
100
AcDbLine
 10
803.2539827309075
 20
290.3854120972487
 30
0.0
 11
831.7539827309081
 21
290.3854120972487
 31
0.0
  0
LINE
  5
D2
330
1F
100
AcDbEntity
  8
A_RUNDUNGEN
  6
Continuous
 62
     7
100
AcDbLine
 10
831.7539827309081
 20
290.3854120972487
 30
0.0
 11
836.7539827309081
 21
290.3854120972487
 31
0.0
  0
LINE
  5
D3
330
1F
100
AcDbEntity
  8
0
  6
Continuous
 62
     7
100
AcDbLine
 10
832.7840854572071
 20
288.8854120972487
 30
0.0
 11
831.7539827309081
 21
288.8854120972487
 31
0.0
  0
LINE
  5
D4
330
1F
100
AcDbEntity
  8
0
  6
Continuous
 62
     7
100
AcDbLine
 10
819.2539827309075
 20
258.3854120972487
 30
0.0
 11
819.2539827309075
 21
260.8854120972487
 31
0.0
  0
LINE
  5
D5
330
1F
100
AcDbEntity
  8
0
  6
Continuous
 62
     7
100
AcDbLine
 10
819.2539827309075
 20
260.8854120972487
 30
0.0
 11
803.7539827309075
 21
260.8854120972487
 31
0.0
  0
LINE
  5
D6
330
1F
100
AcDbEntity
  8
0
  6
Continuous
 62
     7
100
AcDbLine
 10
831.7539827309081
 20
288.8854120972487
 30
0.0
 11
831.7539827309081
 21
290.3854120972487
 31
0.0
  0
LINE
  5
D7
330
1F
100
AcDbEntity
  8
0
  6
Continuous
 62
     7
100
AcDbLine
 10
819.2539827309075
 20
258.3854120972487
 30
0.0
 11
803.2539827309075
 21
258.3854120972487
 31
0.0
  0
LINE
  5
D8
330
1F
100
AcDbEntity
  8
0
  6
Continuous
 62
     7
100
AcDbLine
 10
803.2539827309075
 20
258.3854120972487
 30
0.0
 11
796.753982730908
 21
259.9931072518487
 31
0.0
  0
LINE
  5
D9
330
1F
100
AcDbEntity
  8
A_RUNDUNGEN
  6
Continuous
 62
     7
100
AcDbLine
 10
824.7539827309081
 20
258.3854120972486
 30
0.0
 11
819.2539827309075
 21
258.3854120972487
 31
0.0
  0
LINE
  5
DA
330
1F
100
AcDbEntity
  8
0
  6
Continuous
 62
     7
100
AcDbLine
 10
832.7840854572071
 20
288.8854120972487
 30
0.0
 11
836.7539827309081
 21
289.5854120972488
 31
0.0
  0
LINE
  5
DB
330
1F
100
AcDbEntity
  8
1
  6
Continuous
 62
     7
100
AcDbLine
 10
836.7539827309081
 20
289.5854120972488
 30
0.0
 11
836.7539827309081
 21
290.3854120972487
 31
0.0
  0
LINE
  5
DC
330
1F
100
AcDbEntity
  8
A_RUNDUNGEN
  6
Continuous
 62
     7
100
AcDbLine
 10
836.7539827309081
 20
290.3854120972487
 30
0.0
 11
838.7539827309081
 21
290.3854120972487
 31
0.0
  0
LINE
  5
DD
330
1F
100
AcDbEntity
  8
0
  6
Continuous
 62
     7
100
AcDbLine
 10
831.7539827309081
 20
288.8854120972487
 30
0.0
 11
803.7539827309075
 21
288.8854120972487
 31
0.0
  0
LINE
  5
DE
330
1F
100
AcDbEntity
  8
1
  6
Continuous
 62
     7
100
AcDbLine
 10
800.2539827309081
 20
272.5664152475589
 30
0.0
 11
800.2539827309081
 21
281.8839008712497
 31
0.0
  0
LINE
  5
DF
330
1F
100
AcDbEntity
  8
1
  6
Continuous
 62
     7
100
AcDbLine
 10
800.2539827309081
 20
281.8839008712497
 30
0.0
 11
800.2539827309081
 21
282.6354120972486
 31
0.0
  0
LINE
  5
E0
330
1F
100
AcDbEntity
  8
1
  6
DOT_CENTER
 62
     2
100
AcDbLine
 10
796.8049988432512
 20
278.1493105068099
 30
0.0
 11
834.0801282954329
 21
268.1614696723321
 31
0.0
  0
LINE
  5
E1
330
1F
100
AcDbEntity
  8
1
  6
DASHED
 62
     2
100
AcDbLine
 10
829.0329976429077
 20
264.8551014429253
 30
0.0
 11
827.5039827309082
 21
265.2647997538107
 31
0.0
  0
LINE
  5
E2
330
1F
100
AcDbEntity
  8
1
  6
DASHED
 62
     2
100
AcDbLine
 10
832.7765826112035
 20
271.0989441367438
 30
0.0
 11
831.4824873856909
 21
266.2693150052985
 31
0.0
  0
LINE
  5
E3
330
1F
100
AcDbEntity
  8
1
  6
Continuous
 62
     7
100
AcDbLine
 10
800.2539827309081
 20
281.8839008712497
 30
0.0
 11
804.4667970584808
 21
280.7550806743143
 31
0.0
  0
LINE
  5
E4
330
1F
100
AcDbEntity
  8
1
  6
Continuous
 62
     7
100
AcDbLine
 10
800.2539827309081
 20
264.6354120972486
 30
0.0
 11
800.2539827309081
 21
272.5664152475589
 31
0.0
  0
LINE
  5
E5
330
1F
100
AcDbEntity
  8
1
  6
Continuous
 62
     7
100
AcDbLine
 10
838.7539827309081
 20
288.6354120972487
 30
0.0
 11
834.7539827309081
 21
288.6354120972487
 31
0.0
  0
LINE
  5
E6
330
1F
100
AcDbEntity
  8
1
  6
Continuous
 62
     7
100
AcDbLine
 10
825.753982730908
 20
262.6354120972486
 30
0.0
 11
802.2539827309081
 21
262.6354120972486
 31
0.0
  0
LINE
  5
E7
330
1F
100
AcDbEntity
  8
1
  6
Continuous
 62
     7
100
AcDbLine
 10
836.7539827309081
 20
245.3854120972486
 30
0.0
 11
778.753982730908
 21
245.3854120972486
 31
0.0
  0
LINE
  5
E8
330
1F
100
AcDbEntity
  8
1
  6
Continuous
 62
     7
100
AcDbLine
 10
838.7539827309081
 20
253.3854120972486
 30
0.0
 11
838.7539827309081
 21
247.3854120972486
 31
0.0
  0
LINE
  5
E9
330
1F
100
AcDbEntity
  8
1
  6
Continuous
 62
     7
100
AcDbLine
 10
778.7539827309081
 20
253.3854120972486
 30
0.0
 11
778.753982730908
 21
245.3854120972486
 31
0.0
  0
LINE
  5
EA
330
1F
100
AcDbEntity
  8
1
  6
Continuous
 62
     7
100
AcDbLine
 10
838.7539827309081
 20
247.3854120972486
 30
0.0
 11
836.7539827309081
 21
245.3854120972486
 31
0.0
  0
LINE
  5
EB
330
1F
100
AcDbEntity
  8
1
  6
Continuous
 62
     7
100
AcDbLine
 10
834.7539827309081
 20
288.6354120972487
 30
0.0
 11
834.7539827309081
 21
287.385412097249
 31
0.0
  0
LINE
  5
EC
330
1F
100
AcDbEntity
  8
1
  6
Continuous
 62
     7
100
AcDbLine
 10
827.7539827309083
 20
254.6354120972486
 30
0.0
 11
827.7539827309081
 21
258.2846310378914
 31
0.0
  0
LINE
  5
ED
330
1F
100
AcDbEntity
  8
1
  6
Continuous
 62
     7
100
AcDbLine
 10
837.0539827309082
 20
254.6354120972486
 30
0.0
 11
827.7539827309083
 21
254.6354120972486
 31
0.0
  0
LINE
  5
EE
330
1F
100
AcDbEntity
  8
1
  6
Continuous
 62
     7
100
AcDbLine
 10
838.7539827309081
 20
254.6354120972486
 30
0.0
 11
837.0539827309082
 21
254.6354120972486
 31
0.0
  0
LINE
  5
EF
330
1F
100
AcDbEntity
  8
1
  6
Continuous
 62
     7
100
AcDbLine
 10
838.7539827309081
 20
253.3854120972486
 30
0.0
 11
838.7539827309081
 21
276.9355195541997
 31
0.0
  0
LINE
  5
F0
330
1F
100
AcDbEntity
  8
1
  6
DASHED
 62
     2
100
AcDbLine
 10
832.7539827309081
 20
284.6354120972486
 30
0.0
 11
808.3471284814152
 21
284.6354120972486
 31
0.0
  0
LINE
  5
F1
330
1F
100
AcDbEntity
  8
1
  6
DASHED
 62
     2
100
AcDbLine
 10
834.7539827309081
 20
287.385412097249
 30
0.0
 11
834.7539827309081
 21
286.6354120972486
 31
0.0
  0
LINE
  5
F2
330
1F
100
AcDbEntity
  8
1
  6
Continuous
 62
     7
100
AcDbLine
 10
824.7539827309081
 20
258.3854120972486
 30
0.0
 11
824.7539827309081
 21
257.8854120972487
 31
0.0
  0
LINE
  5
F3
330
1F
100
AcDbEntity
  8
1
  6
Continuous
 62
     7
100
AcDbLine
 10
838.7539827309081
 20
253.3854120972486
 30
0.0
 11
778.7539827309081
 21
253.3854120972486
 31
0.0
  0
LINE
  5
F4
330
1F
100
AcDbEntity
  8
1
  6
DASHED
 62
     2
100
AcDbLine
 10
804.4667970584808
 20
280.7550806743143
 30
0.0
 11
809.4858948809075
 21
279.4102174660622
 31
0.0
  0
LINE
  5
F5
330
1F
100
AcDbEntity
  8
1
  6
Continuous
 62
     7
100
AcDbLine
 10
809.4858948809075
 20
279.4102174660622
 30
0.0
 11
827.5282961378566
 21
274.5757706197444
 31
0.0
  0
LINE
  5
F6
330
1F
100
AcDbEntity
  8
1
  6
Continuous
 62
     7
100
AcDbLine
 10
808.3471284814152
 20
284.6354120972486
 30
0.0
 11
802.2539827309081
 21
284.6354120972486
 31
0.0
  0
LINE
  5
F7
330
1F
100
AcDbEntity
  8
1
  6
Continuous
 62
     7
100
AcDbLine
 10
838.7539827309081
 20
287.7155391161705
 30
0.0
 11
838.7539827309081
 21
288.6354120972487
 31
0.0
  0
LINE
  5
F8
330
1F
100
AcDbEntity
  8
1
  6
DASHED
 62
     2
100
AcDbLine
 10
827.7539827309081
 20
258.2846310378914
 30
0.0
 11
827.7539827309079
 21
260.6354120972488
 31
0.0
  0
LINE
  5
F9
330
1F
100
AcDbEntity
  8
1
  6
Continuous
 62
     7
100
AcDbLine
 10
827.5039827309082
 20
265.2647997538107
 30
0.0
 11
800.2539827309081
 21
272.5664152475589
 31
0.0
  0
LINE
  5
FA
330
1F
100
AcDbEntity
  8
1
  6
DASHED
 62
     2
100
AcDbLine
 10
827.5282961378566
 20
274.5757706197444
 30
0.0
 11
831.3623690488305
 21
273.5484338795269
 31
0.0
  0
LINE
  5
FB
330
1F
100
AcDbEntity
  8
0
  6
Continuous
 62
     7
100
AcDbLine
 10
798.7539827309075
 20
283.8854120972487
 30
0.0
 11
798.7539827309075
 21
265.8854120972487
 31
0.0
  0
LINE
  5
FC
330
1F
100
AcDbEntity
  8
0
  6
Continuous
 62
     7
100
AcDbLine
 10
796.753982730908
 20
260.8854120972487
 30
0.0
 11
796.753982730908
 21
288.7777169426486
 31
0.0
  0
ARC
  5
FD
330
1F
100
AcDbEntity
  8
1
  6
Continuous
 62
     7
100
AcDbCircle
 10
840.7539827309081
 20
295.8854120972485
 30
0.0
 40
2.0
100
AcDbArc
 50
180.0
 51
-90.0
  0
ARC
  5
FE
330
1F
100
AcDbEntity
  8
1
  6
Continuous
 62
     7
100
AcDbCircle
 10
848.5599034221505
 20
295.4854120972485
 30
0.0
 40
1.600000000000023
100
AcDbArc
 50
-90.0
 51
70.81186354628234
  0
ARC
  5
FF
330
1F
100
AcDbEntity
  8
1
  6
Continuous
 62
     7
100
AcDbCircle
 10
841.7539827309081
 20
307.3854120972485
 30
0.0
 40
3.0
100
AcDbArc
 50
90.0
 51
180.0
  0
ARC
  5
100
330
1F
100
AcDbEntity
  8
1
  6
Continuous
 62
     7
100
AcDbCircle
 10
846.8443066123846
 20
307.3854120972485
 30
0.0
 40
3.000000000000062
100
AcDbArc
 50
-14.99999999999864
 51
90.0
  0
ARC
  5
101
330
1F
100
AcDbEntity
  8
1
  6
Continuous
 62
     7
100
AcDbCircle
 10
840.7539827309081
 20
295.8854120972485
 30
0.0
 40
1.0
100
AcDbArc
 50
180.0
 51
-90.0
  0
ARC
  5
102
330
1F
100
AcDbEntity
  8
1
  6
Continuous
 62
     7
100
AcDbCircle
 10
841.7539827309081
 20
307.3854120972485
 30
0.0
 40
2.0
100
AcDbArc
 50
90.0
 51
180.0
  0
ARC
  5
103
330
1F
100
AcDbEntity
  8
1
  6
Continuous
 62
     7
100
AcDbCircle
 10
846.8443066123846
 20
307.3854120972485
 30
0.0
 40
2.000000000000061
100
AcDbArc
 50
-15.00000000000074
 51
90.0
  0
ARC
  5
104
330
1F
100
AcDbEntity
  8
1
  6
Continuous
 62
     7
100
AcDbCircle
 10
848.5599034221505
 20
295.4854120972485
 30
0.0
 40
0.6000000000000227
100
AcDbArc
 50
-90.0
 51
70.81186354627319
  0
ARC
  5
105
330
1F
100
AcDbEntity
  8
1
  6
Continuous
 62
     7
100
AcDbCircle
 10
877.2539827309082
 20
275.8854120972489
 30
0.0
 40
3.99999999999971
100
AcDbArc
 50
159.6243183521653
 51
45.0000000000046
  0
ARC
  5
106
330
1F
100
AcDbEntity
  8
1
  6
Continuous
 62
     7
100
AcDbCircle
 10
841.2539827309081
 20
283.3854120972487
 30
0.0
 40
5.000000000000126
100
AcDbArc
 50
58.99728086612595
 51
135.0000000000023
  0
ARC
  5
107
330
1F
100
AcDbEntity
  8
1
  6
Continuous
 62
     7
100
AcDbCircle
 10
832.7539827309081
 20
259.8854120972486
 30
0.0
 40
5.249999999999886
100
AcDbArc
 50
180.0
 51
25.99999999999942
  0
ARC
  5
108
330
1F
100
AcDbEntity
  8
1
  6
Continuous
 62
     7
100
AcDbCircle
 10
805.2539827309076
 20
275.8854120972492
 30
0.0
 40
3.999999999999791
100
AcDbArc
 50
134.9999999999965
 51
20.37568164783313
  0
ARC
  5
109
330
1F
100
AcDbEntity
  8
1
  6
DASHED
 62
     2
100
AcDbCircle
 10
841.2539827309081
 20
283.3854120972487
 30
0.0
 40
4.999999999999678
100
AcDbArc
 50
45.00000000000323
 51
121.0027191338764
  0
ARC
  5
10A
330
1F
100
AcDbEntity
  8
1
  6
Continuous
 62
     7
100
AcDbCircle
 10
849.7539827309081
 20
259.8854120972486
 30
0.0
 40
5.250000000000415
100
AcDbArc
 50
154.0000000000005
 51
0.0000000000031
  0
ARC
  5
10B
330
1F
100
AcDbEntity
  8
0
  6
Continuous
 62
     7
100
AcDbCircle
 10
884.7539827309082
 20
287.9571553129482
 30
0.0
 40
1.5
100
AcDbArc
 50
0.0
 51
81.99999999766732
  0
ARC
  5
10C
330
1F
100
AcDbEntity
  8
0
  6
Continuous
 62
     7
100
AcDbCircle
 10
884.7539827309082
 20
260.8136688816483
 30
0.0
 40
1.499999999996106
100
AcDbArc
 50
-81.99999999766732
 51
0.0
  0
ARC
  5
10D
330
1F
100
AcDbEntity
  8
0
  6
Continuous
 62
     7
100
AcDbCircle
 10
880.2539827309082
 20
284.3854120972483
 30
0.0
 40
3.0
100
AcDbArc
 50
0.0
 51
90.0
  0
ARC
  5
10E
330
1F
100
AcDbEntity
  8
0
  6
Continuous
 62
     7
100
AcDbCircle
 10
878.0039827309082
 20
277.3854120972483
 30
0.0
 40
7.25
100
AcDbArc
 50
-43.60281897270362
 51
43.60281897270362
  0
ARC
  5
10F
330
1F
100
AcDbEntity
  8
0
  6
Continuous
 62
     7
100
AcDbCircle
 10
880.2539827309082
 20
265.3854120972483
 30
0.0
 40
3.0
100
AcDbArc
 50
-90.0
 51
0.0
  0
ARC
  5
110
330
1F
100
AcDbEntity
  8
0
  6
Continuous
 62
     7
100
AcDbCircle
 10
803.7539827309075
 20
265.8854120972487
 30
0.0
 40
5.0
100
AcDbArc
 50
180.0
 51
-90.0
  0
ARC
  5
111
330
1F
100
AcDbEntity
  8
0
  6
Continuous
 62
     7
100
AcDbCircle
 10
803.7539827309075
 20
283.8854120972487
 30
0.0
 40
5.0
100
AcDbArc
 50
90.0
 51
180.0
  0
CIRCLE
  5
112
330
1F
100
AcDbEntity
  8
1
  6
Continuous
 62
     2
100
AcDbCircle
 10
791.985597411821
 20
246.765410567116
 30
0.0
 40
0.5
  0
CIRCLE
  5
113
330
1F
100
AcDbEntity
  8
1
  6
Continuous
 62
     2
100
AcDbCircle
 10
791.985597411821
 20
249.765410567116
 30
0.0
 40
0.5
  0
CIRCLE
  5
114
330
1F
100
AcDbEntity
  8
1
  6
Continuous
 62
     2
100
AcDbCircle
 10
791.985597411821
 20
251.765410567116
 30
0.0
 40
0.5
  0
CIRCLE
  5
115
330
1F
100
AcDbEntity
  8
1
  6
Continuous
 62
     2
100
AcDbCircle
 10
789.985597411821
 20
249.765410567116
 30
0.0
 40
0.5
  0
CIRCLE
  5
116
330
1F
100
AcDbEntity
  8
1
  6
Continuous
 62
     2
100
AcDbCircle
 10
780.985597411821
 20
246.765410567116
 30
0.0
 40
0.5
  0
CIRCLE
  5
117
330
1F
100
AcDbEntity
  8
1
  6
Continuous
 62
     2
100
AcDbCircle
 10
780.985597411821
 20
248.765410567116
 30
0.0
 40
0.5
  0
CIRCLE
  5
118
330
1F
100
AcDbEntity
  8
1
  6
Continuous
 62
     2
100
AcDbCircle
 10
781.8464807947071
 20
251.0527232311761
 30
0.0
 40
0.5
  0
CIRCLE
  5
119
330
1F
100
AcDbEntity
  8
1
  6
Continuous
 62
     2
100
AcDbCircle
 10
780.985597411821
 20
252.765410567116
 30
0.0
 40
0.5
  0
CIRCLE
  5
11A
330
1F
100
AcDbEntity
  8
1
  6
Continuous
 62
     2
100
AcDbCircle
 10
785.985597411821
 20
251.765410567116
 30
0.0
 40
0.5
  0
CIRCLE
  5
11B
330
1F
100
AcDbEntity
  8
1
  6
Continuous
 62
     2
100
AcDbCircle
 10
783.985597411821
 20
251.765410567116
 30
0.0
 40
0.5
  0
CIRCLE
  5
11C
330
1F
100
AcDbEntity
  8
1
  6
Continuous
 62
     2
100
AcDbCircle
 10
786.985597411821
 20
246.765410567116
 30
0.0
 40
0.5
  0
CIRCLE
  5
11D
330
1F
100
AcDbEntity
  8
1
  6
Continuous
 62
     2
100
AcDbCircle
 10
786.985597411821
 20
249.765410567116
 30
0.0
 40
0.5
  0
CIRCLE
  5
11E
330
1F
100
AcDbEntity
  8
1
  6
Continuous
 62
     2
100
AcDbCircle
 10
788.985597411821
 20
251.765410567116
 30
0.0
 40
0.5
  0
CIRCLE
  5
11F
330
1F
100
AcDbEntity
  8
1
  6
Continuous
 62
     2
100
AcDbCircle
 10
784.985597411821
 20
248.765410567116
 30
0.0
 40
0.5
  0
CIRCLE
  5
120
330
1F
100
AcDbEntity
  8
1
  6
Continuous
 62
     2
100
AcDbCircle
 10
782.985597411821
 20
246.765410567116
 30
0.0
 40
0.5
  0
CIRCLE
  5
121
330
1F
100
AcDbEntity
  8
1
  6
Continuous
 62
     2
100
AcDbCircle
 10
789.985597411821
 20
246.765410567116
 30
0.0
 40
0.5
  0
CIRCLE
  5
122
330
1F
100
AcDbEntity
  8
1
  6
Continuous
 62
     2
100
AcDbCircle
 10
813.985597411821
 20
249.765410567116
 30
0.0
 40
0.5
  0
CIRCLE
  5
123
330
1F
100
AcDbEntity
  8
1
  6
Continuous
 62
     2
100
AcDbCircle
 10
820.985597411821
 20
247.765410567116
 30
0.0
 40
0.5
  0
CIRCLE
  5
124
330
1F
100
AcDbEntity
  8
1
  6
Continuous
 62
     2
100
AcDbCircle
 10
816.985597411821
 20
246.765410567116
 30
0.0
 40
0.5
  0
CIRCLE
  5
125
330
1F
100
AcDbEntity
  8
1
  6
Continuous
 62
     2
100
AcDbCircle
 10
802.985597411821
 20
246.765410567116
 30
0.0
 40
0.5
  0
CIRCLE
  5
126
330
1F
100
AcDbEntity
  8
1
  6
Continuous
 62
     2
100
AcDbCircle
 10
797.985597411821
 20
246.765410567116
 30
0.0
 40
0.5
  0
CIRCLE
  5
127
330
1F
100
AcDbEntity
  8
1
  6
Continuous
 62
     2
100
AcDbCircle
 10
795.985597411821
 20
246.765410567116
 30
0.0
 40
0.5
  0
CIRCLE
  5
128
330
1F
100
AcDbEntity
  8
1
  6
Continuous
 62
     2
100
AcDbCircle
 10
797.985597411821
 20
248.765410567116
 30
0.0
 40
0.5
  0
CIRCLE
  5
129
330
1F
100
AcDbEntity
  8
1
  6
Continuous
 62
     2
100
AcDbCircle
 10
804.985597411821
 20
249.765410567116
 30
0.0
 40
0.5
  0
CIRCLE
  5
12A
330
1F
100
AcDbEntity
  8
1
  6
Continuous
 62
     2
100
AcDbCircle
 10
802.222602910138
 20
248.6323936020279
 30
0.0
 40
0.5
  0
CIRCLE
  5
12B
330
1F
100
AcDbEntity
  8
1
  6
Continuous
 62
     2
100
AcDbCircle
 10
801.985597411821
 20
251.765410567116
 30
0.0
 40
0.5
  0
CIRCLE
  5
12C
330
1F
100
AcDbEntity
  8
1
  6
Continuous
 62
     2
100
AcDbCircle
 10
799.985597411821
 20
249.765410567116
 30
0.0
 40
0.5
  0
CIRCLE
  5
12D
330
1F
100
AcDbEntity
  8
1
  6
Continuous
 62
     2
100
AcDbCircle
 10
799.985597411821
 20
246.765410567116
 30
0.0
 40
0.5
  0
CIRCLE
  5
12E
330
1F
100
AcDbEntity
  8
1
  6
Continuous
 62
     2
100
AcDbCircle
 10
796.985597411821
 20
251.765410567116
 30
0.0
 40
0.5
  0
CIRCLE
  5
12F
330
1F
100
AcDbEntity
  8
1
  6
Continuous
 62
     2
100
AcDbCircle
 10
805.985597411821
 20
251.765410567116
 30
0.0
 40
0.5
  0
CIRCLE
  5
130
330
1F
100
AcDbEntity
  8
1
  6
Continuous
 62
     2
100
AcDbCircle
 10
804.985597411821
 20
246.765410567116
 30
0.0
 40
0.5
  0
CIRCLE
  5
131
330
1F
100
AcDbEntity
  8
1
  6
Continuous
 62
     2
100
AcDbCircle
 10
808.985597411821
 20
251.765410567116
 30
0.0
 40
0.5
  0
CIRCLE
  5
132
330
1F
100
AcDbEntity
  8
1
  6
Continuous
 62
     2
100
AcDbCircle
 10
806.985597411821
 20
249.765410567116
 30
0.0
 40
0.5
  0
CIRCLE
  5
133
330
1F
100
AcDbEntity
  8
1
  6
Continuous
 62
     2
100
AcDbCircle
 10
807.985597411821
 20
246.765410567116
 30
0.0
 40
0.5
  0
CIRCLE
  5
134
330
1F
100
AcDbEntity
  8
1
  6
Continuous
 62
     2
100
AcDbCircle
 10
811.985597411821
 20
248.765410567116
 30
0.0
 40
0.5
  0
CIRCLE
  5
135
330
1F
100
AcDbEntity
  8
1
  6
Continuous
 62
     2
100
AcDbCircle
 10
811.985597411821
 20
251.765410567116
 30
0.0
 40
0.5
  0
CIRCLE
  5
136
330
1F
100
AcDbEntity
  8
1
  6
Continuous
 62
     2
100
AcDbCircle
 10
809.985597411821
 20
249.765410567116
 30
0.0
 40
0.5
  0
CIRCLE
  5
137
330
1F
100
AcDbEntity
  8
1
  6
Continuous
 62
     2
100
AcDbCircle
 10
810.985597411821
 20
246.765410567116
 30
0.0
 40
0.5
  0
CIRCLE
  5
138
330
1F
100
AcDbEntity
  8
1
  6
Continuous
 62
     2
100
AcDbCircle
 10
814.985597411821
 20
251.765410567116
 30
0.0
 40
0.5
  0
CIRCLE
  5
139
330
1F
100
AcDbEntity
  8
1
  6
Continuous
 62
     2
100
AcDbCircle
 10
815.985597411821
 20
248.765410567116
 30
0.0
 40
0.5
  0
CIRCLE
  5
13A
330
1F
100
AcDbEntity
  8
1
  6
Continuous
 62
     2
100
AcDbCircle
 10
820.985597411821
 20
251.765410567116
 30
0.0
 40
0.5
  0
CIRCLE
  5
13B
330
1F
100
AcDbEntity
  8
1
  6
Continuous
 62
     2
100
AcDbCircle
 10
817.985597411821
 20
251.765410567116
 30
0.0
 40
0.5
  0
CIRCLE
  5
13C
330
1F
100
AcDbEntity
  8
1
  6
Continuous
 62
     2
100
AcDbCircle
 10
818.985597411821
 20
249.765410567116
 30
0.0
 40
0.5
  0
CIRCLE
  5
13D
330
1F
100
AcDbEntity
  8
1
  6
Continuous
 62
     2
100
AcDbCircle
 10
818.985597411821
 20
246.765410567116
 30
0.0
 40
0.5
  0
CIRCLE
  5
13E
330
1F
100
AcDbEntity
  8
1
  6
Continuous
 62
     2
100
AcDbCircle
 10
813.985597411821
 20
246.765410567116
 30
0.0
 40
0.5
  0
CIRCLE
  5
13F
330
1F
100
AcDbEntity
  8
1
  6
Continuous
 62
     2
100
AcDbCircle
 10
823.985597411821
 20
251.765410567116
 30
0.0
 40
0.5
  0
CIRCLE
  5
140
330
1F
100
AcDbEntity
  8
1
  6
Continuous
 62
     2
100
AcDbCircle
 10
821.985597411821
 20
249.765410567116
 30
0.0
 40
0.5
  0
CIRCLE
  5
141
330
1F
100
AcDbEntity
  8
1
  6
Continuous
 62
     2
100
AcDbCircle
 10
821.985597411821
 20
246.765410567116
 30
0.0
 40
0.5
  0
CIRCLE
  5
142
330
1F
100
AcDbEntity
  8
1
  6
Continuous
 62
     2
100
AcDbCircle
 10
826.985597411821
 20
251.765410567116
 30
0.0
 40
0.5
  0
CIRCLE
  5
143
330
1F
100
AcDbEntity
  8
1
  6
Continuous
 62
     2
100
AcDbCircle
 10
829.985597411821
 20
251.765410567116
 30
0.0
 40
0.5
  0
CIRCLE
  5
144
330
1F
100
AcDbEntity
  8
1
  6
Continuous
 62
     2
100
AcDbCircle
 10
826.985597411821
 20
248.765410567116
 30
0.0
 40
0.5
  0
CIRCLE
  5
145
330
1F
100
AcDbEntity
  8
1
  6
Continuous
 62
     2
100
AcDbCircle
 10
824.985597411821
 20
249.765410567116
 30
0.0
 40
0.5
  0
CIRCLE
  5
146
330
1F
100
AcDbEntity
  8
1
  6
Continuous
 62
     2
100
AcDbCircle
 10
824.985597411821
 20
247.765410567116
 30
0.0
 40
0.5
  0
CIRCLE
  5
147
330
1F
100
AcDbEntity
  8
1
  6
Continuous
 62
     2
100
AcDbCircle
 10
831.985597411821
 20
247.765410567116
 30
0.0
 40
0.5
  0
CIRCLE
  5
148
330
1F
100
AcDbEntity
  8
1
  6
Continuous
 62
     2
100
AcDbCircle
 10
834.985597411821
 20
248.765410567116
 30
0.0
 40
0.5
  0
CIRCLE
  5
149
330
1F
100
AcDbEntity
  8
1
  6
Continuous
 62
     2
100
AcDbCircle
 10
835.985597411821
 20
251.765410567116
 30
0.0
 40
0.5
  0
CIRCLE
  5
14A
330
1F
100
AcDbEntity
  8
1
  6
Continuous
 62
     2
100
AcDbCircle
 10
832.985597411821
 20
250.765410567116
 30
0.0
 40
0.5
  0
CIRCLE
  5
14B
330
1F
100
AcDbEntity
  8
1
  6
Continuous
 62
     2
100
AcDbCircle
 10
829.985597411821
 20
249.765410567116
 30
0.0
 40
0.5
  0
CIRCLE
  5
14C
330
1F
100
AcDbEntity
  8
1
  6
Continuous
 62
     2
100
AcDbCircle
 10
828.985597411821
 20
246.765410567116
 30
0.0
 40
0.5
  0
CIRCLE
  5
14D
330
1F
100
AcDbEntity
  8
1
  6
Continuous
 62
     2
100
AcDbCircle
 10
835.985597411821
 20
247.765410567116
 30
0.0
 40
0.5
  0
CIRCLE
  5
14E
330
1F
100
AcDbEntity
  8
1
  6
Continuous
 62
     2
100
AcDbCircle
 10
798.985597411821
 20
251.765410567116
 30
0.0
 40
0.5
  0
CIRCLE
  5
14F
330
1F
100
AcDbEntity
  8
1
  6
Continuous
 62
     2
100
AcDbCircle
 10
833.985597411821
 20
246.765410567116
 30
0.0
 40
0.5
  0
CIRCLE
  5
150
330
1F
100
AcDbEntity
  8
1
  6
Continuous
 62
     2
100
AcDbCircle
 10
836.985597411821
 20
249.765410567116
 30
0.0
 40
0.5
  0
CIRCLE
  5
151
330
1F
100
AcDbEntity
  8
1
  6
Continuous
 62
     2
100
AcDbCircle
 10
844.985597411821
 20
251.765410567116
 30
0.0
 40
0.5
  0
CIRCLE
  5
152
330
1F
100
AcDbEntity
  8
1
  6
Continuous
 62
     2
100
AcDbCircle
 10
843.985597411821
 20
248.765410567116
 30
0.0
 40
0.5
  0
CIRCLE
  5
153
330
1F
100
AcDbEntity
  8
1
  6
Continuous
 62
     2
100
AcDbCircle
 10
843.985597411821
 20
246.765410567116
 30
0.0
 40
0.5
  0
CIRCLE
  5
154
330
1F
100
AcDbEntity
  8
1
  6
Continuous
 62
     2
100
AcDbCircle
 10
846.985597411821
 20
246.765410567116
 30
0.0
 40
0.5
  0
CIRCLE
  5
155
330
1F
100
AcDbEntity
  8
1
  6
Continuous
 62
     2
100
AcDbCircle
 10
846.985597411821
 20
249.765410567116
 30
0.0
 40
0.5
  0
CIRCLE
  5
156
330
1F
100
AcDbEntity
  8
1
  6
Continuous
 62
     2
100
AcDbCircle
 10
848.985597411821
 20
250.765410567116
 30
0.0
 40
0.5
  0
CIRCLE
  5
157
330
1F
100
AcDbEntity
  8
1
  6
Continuous
 62
     2
100
AcDbCircle
 10
851.985597411821
 20
251.765410567116
 30
0.0
 40
0.5
  0
CIRCLE
  5
158
330
1F
100
AcDbEntity
  8
1
  6
Continuous
 62
     2
100
AcDbCircle
 10
851.985597411821
 20
249.765410567116
 30
0.0
 40
0.5
  0
CIRCLE
  5
159
330
1F
100
AcDbEntity
  8
1
  6
Continuous
 62
     2
100
AcDbCircle
 10
848.985597411821
 20
248.765410567116
 30
0.0
 40
0.5
  0
CIRCLE
  5
15A
330
1F
100
AcDbEntity
  8
1
  6
Continuous
 62
     2
100
AcDbCircle
 10
849.985597411821
 20
246.765410567116
 30
0.0
 40
0.5
  0
CIRCLE
  5
15B
330
1F
100
AcDbEntity
  8
1
  6
Continuous
 62
     2
100
AcDbCircle
 10
854.985597411821
 20
251.765410567116
 30
0.0
 40
0.5
  0
CIRCLE
  5
15C
330
1F
100
AcDbEntity
  8
1
  6
Continuous
 62
     2
100
AcDbCircle
 10
854.985597411821
 20
249.765410567116
 30
0.0
 40
0.5
  0
CIRCLE
  5
15D
330
1F
100
AcDbEntity
  8
1
  6
Continuous
 62
     2
100
AcDbCircle
 10
852.985597411821
 20
246.765410567116
 30
0.0
 40
0.5
  0
CIRCLE
  5
15E
330
1F
100
AcDbEntity
  8
1
  6
Continuous
 62
     2
100
AcDbCircle
 10
856.985597411821
 20
250.765410567116
 30
0.0
 40
0.5
  0
CIRCLE
  5
15F
330
1F
100
AcDbEntity
  8
1
  6
Continuous
 62
     2
100
AcDbCircle
 10
856.985597411821
 20
247.765410567116
 30
0.0
 40
0.5
  0
CIRCLE
  5
160
330
1F
100
AcDbEntity
  8
1
  6
Continuous
 62
     2
100
AcDbCircle
 10
855.985597411821
 20
246.765410567116
 30
0.0
 40
0.5
  0
CIRCLE
  5
161
330
1F
100
AcDbEntity
  8
1
  6
Continuous
 62
     2
100
AcDbCircle
 10
859.985597411821
 20
251.765410567116
 30
0.0
 40
0.5
  0
CIRCLE
  5
162
330
1F
100
AcDbEntity
  8
1
  6
Continuous
 62
     2
100
AcDbCircle
 10
863.985597411821
 20
251.765410567116
 30
0.0
 40
0.5
  0
CIRCLE
  5
163
330
1F
100
AcDbEntity
  8
1
  6
Continuous
 62
     2
100
AcDbCircle
 10
865.985597411821
 20
251.765410567116
 30
0.0
 40
0.5
  0
CIRCLE
  5
164
330
1F
100
AcDbEntity
  8
1
  6
Continuous
 62
     2
100
AcDbCircle
 10
861.985597411821
 20
250.765410567116
 30
0.0
 40
0.5
  0
CIRCLE
  5
165
330
1F
100
AcDbEntity
  8
1
  6
Continuous
 62
     2
100
AcDbCircle
 10
859.985597411821
 20
248.765410567116
 30
0.0
 40
0.5
  0
CIRCLE
  5
166
330
1F
100
AcDbEntity
  8
1
  6
Continuous
 62
     2
100
AcDbCircle
 10
859.985597411821
 20
246.765410567116
 30
0.0
 40
0.5
  0
CIRCLE
  5
167
330
1F
100
AcDbEntity
  8
1
  6
Continuous
 62
     2
100
AcDbCircle
 10
863.985597411821
 20
246.765410567116
 30
0.0
 40
0.5
  0
CIRCLE
  5
168
330
1F
100
AcDbEntity
  8
1
  6
Continuous
 62
     2
100
AcDbCircle
 10
862.985597411821
 20
248.765410567116
 30
0.0
 40
0.5
  0
CIRCLE
  5
169
330
1F
100
AcDbEntity
  8
1
  6
Continuous
 62
     2
100
AcDbCircle
 10
864.985597411821
 20
249.765410567116
 30
0.0
 40
0.5
  0
CIRCLE
  5
16A
330
1F
100
AcDbEntity
  8
1
  6
Continuous
 62
     2
100
AcDbCircle
 10
868.985597411821
 20
251.765410567116
 30
0.0
 40
0.5
  0
CIRCLE
  5
16B
330
1F
100
AcDbEntity
  8
1
  6
Continuous
 62
     2
100
AcDbCircle
 10
868.985597411821
 20
248.765410567116
 30
0.0
 40
0.5
  0
CIRCLE
  5
16C
330
1F
100
AcDbEntity
  8
1
  6
Continuous
 62
     2
100
AcDbCircle
 10
876.985597411821
 20
251.765410567116
 30
0.0
 40
0.5
  0
CIRCLE
  5
16D
330
1F
100
AcDbEntity
  8
1
  6
Continuous
 62
     2
100
AcDbCircle
 10
873.985597411821
 20
251.765410567116
 30
0.0
 40
0.5
  0
CIRCLE
  5
16E
330
1F
100
AcDbEntity
  8
1
  6
Continuous
 62
     2
100
AcDbCircle
 10
870.985597411821
 20
249.765410567116
 30
0.0
 40
0.5
  0
CIRCLE
  5
16F
330
1F
100
AcDbEntity
  8
1
  6
Continuous
 62
     2
100
AcDbCircle
 10
867.985597411821
 20
249.765410567116
 30
0.0
 40
0.5
  0
CIRCLE
  5
170
330
1F
100
AcDbEntity
  8
1
  6
Continuous
 62
     2
100
AcDbCircle
 10
866.985597411821
 20
246.765410567116
 30
0.0
 40
0.5
  0
CIRCLE
  5
171
330
1F
100
AcDbEntity
  8
1
  6
Continuous
 62
     2
100
AcDbCircle
 10
870.985597411821
 20
246.765410567116
 30
0.0
 40
0.5
  0
CIRCLE
  5
172
330
1F
100
AcDbEntity
  8
1
  6
Continuous
 62
     2
100
AcDbCircle
 10
875.985597411821
 20
248.765410567116
 30
0.0
 40
0.5
  0
CIRCLE
  5
173
330
1F
100
AcDbEntity
  8
1
  6
Continuous
 62
     2
100
AcDbCircle
 10
873.985597411821
 20
249.765410567116
 30
0.0
 40
0.5
  0
CIRCLE
  5
174
330
1F
100
AcDbEntity
  8
1
  6
Continuous
 62
     2
100
AcDbCircle
 10
873.985597411821
 20
247.765410567116
 30
0.0
 40
0.5
  0
CIRCLE
  5
175
330
1F
100
AcDbEntity
  8
1
  6
Continuous
 62
     2
100
AcDbCircle
 10
879.985597411821
 20
250.765410567116
 30
0.0
 40
0.5
  0
CIRCLE
  5
176
330
1F
100
AcDbEntity
  8
1
  6
Continuous
 62
     2
100
AcDbCircle
 10
879.985597411821
 20
247.765410567116
 30
0.0
 40
0.5
  0
CIRCLE
  5
177
330
1F
100
AcDbEntity
  8
1
  6
Continuous
 62
     2
100
AcDbCircle
 10
876.985597411821
 20
246.765410567116
 30
0.0
 40
0.5
  0
CIRCLE
  5
178
330
1F
100
AcDbEntity
  8
1
  6
Continuous
 62
     2
100
AcDbCircle
 10
881.985597411821
 20
251.765410567116
 30
0.0
 40
0.5
  0
CIRCLE
  5
179
330
1F
100
AcDbEntity
  8
1
  6
Continuous
 62
     2
100
AcDbCircle
 10
881.985597411821
 20
246.765410567116
 30
0.0
 40
0.5
  0
CIRCLE
  5
17A
330
1F
100
AcDbEntity
  8
1
  6
Continuous
 62
     2
100
AcDbCircle
 10
883.985597411821
 20
251.765410567116
 30
0.0
 40
0.5
  0
CIRCLE
  5
17B
330
1F
100
AcDbEntity
  8
1
  6
Continuous
 62
     2
100
AcDbCircle
 10
884.985597411821
 20
247.765410567116
 30
0.0
 40
0.5
  0
CIRCLE
  5
17C
330
1F
100
AcDbEntity
  8
1
  6
Continuous
 62
     2
100
AcDbCircle
 10
887.985597411821
 20
250.765410567116
 30
0.0
 40
0.5
  0
CIRCLE
  5
17D
330
1F
100
AcDbEntity
  8
1
  6
Continuous
 62
     2
100
AcDbCircle
 10
887.985597411821
 20
247.765410567116
 30
0.0
 40
0.5
  0
CIRCLE
  5
17E
330
1F
100
AcDbEntity
  8
1
  6
Continuous
 62
     2
100
AcDbCircle
 10
890.985597411821
 20
246.765410567116
 30
0.0
 40
0.5
  0
CIRCLE
  5
17F
330
1F
100
AcDbEntity
  8
1
  6
Continuous
 62
     2
100
AcDbCircle
 10
892.985597411821
 20
249.765410567116
 30
0.0
 40
0.5
  0
CIRCLE
  5
180
330
1F
100
AcDbEntity
  8
1
  6
Continuous
 62
     2
100
AcDbCircle
 10
895.985597411821
 20
252.765410567116
 30
0.0
 40
0.5
  0
CIRCLE
  5
181
330
1F
100
AcDbEntity
  8
1
  6
Continuous
 62
     2
100
AcDbCircle
 10
890.985597411821
 20
251.765410567116
 30
0.0
 40
0.5
  0
CIRCLE
  5
182
330
1F
100
AcDbEntity
  8
1
  6
Continuous
 62
     2
100
AcDbCircle
 10
893.985597411821
 20
246.765410567116
 30
0.0
 40
0.5
  0
CIRCLE
  5
183
330
1F
100
AcDbEntity
  8
1
  6
Continuous
 62
     2
100
AcDbCircle
 10
895.985597411821
 20
249.765410567116
 30
0.0
 40
0.5
  0
CIRCLE
  5
184
330
1F
100
AcDbEntity
  8
1
  6
Continuous
 62
     2
100
AcDbCircle
 10
895.985597411821
 20
246.765410567116
 30
0.0
 40
0.5
  0
CIRCLE
  5
185
330
1F
100
AcDbEntity
  8
1
  6
Continuous
 62
     2
100
AcDbCircle
 10
889.985597411821
 20
249.765410567116
 30
0.0
 40
0.5
  0
CIRCLE
  5
186
330
1F
100
AcDbEntity
  8
1
  6
Continuous
 62
     2
100
AcDbCircle
 10
886.985597411821
 20
252.765410567116
 30
0.0
 40
0.5
  0
CIRCLE
  5
187
330
1F
100
AcDbEntity
  8
1
  6
Continuous
 62
     2
100
AcDbCircle
 10
893.985597411821
 20
251.765410567116
 30
0.0
 40
0.5
  0
CIRCLE
  5
188
330
1F
100
AcDbEntity
  8
1
  6
Continuous
 62
     2
100
AcDbCircle
 10
883.985597411821
 20
249.765410567116
 30
0.0
 40
0.5
  0
CIRCLE
  5
189
330
1F
100
AcDbEntity
  8
1
  6
Continuous
 62
     2
100
AcDbCircle
 10
881.985597411821
 20
249.765410567116
 30
0.0
 40
0.5
  0
CIRCLE
  5
18A
330
1F
100
AcDbEntity
  8
1
  6
Continuous
 62
     2
100
AcDbCircle
 10
877.985597411821
 20
249.765410567116
 30
0.0
 40
0.5
  0
CIRCLE
  5
18B
330
1F
100
AcDbEntity
  8
1
  6
Continuous
 62
     2
100
AcDbCircle
 10
793.985597411821
 20
252.765410567116
 30
0.0
 40
0.5
  0
CIRCLE
  5
18C
330
1F
100
AcDbEntity
  8
1
  6
Continuous
 62
     2
100
AcDbCircle
 10
794.8464807947071
 20
251.0527232311761
 30
0.0
 40
0.5
  0
CIRCLE
  5
18D
330
1F
100
AcDbEntity
  8
1
  6
Continuous
 62
     2
100
AcDbCircle
 10
793.985597411821
 20
248.765410567116
 30
0.0
 40
0.5
  0
CIRCLE
  5
18E
330
1F
100
AcDbEntity
  8
1
  6
Continuous
 62
     2
100
AcDbCircle
 10
793.985597411821
 20
246.765410567116
 30
0.0
 40
0.5
  0
CIRCLE
  5
18F
330
1F
100
AcDbEntity
  8
1
  6
Continuous
 62
     2
100
AcDbCircle
 10
802.985597411821
 20
249.765410567116
 30
0.0
 40
0.5
  0
CIRCLE
  5
190
330
1F
100
AcDbEntity
  8
1
  6
Continuous
 62
     7
100
AcDbCircle
 10
832.7539827309081
 20
259.8854120972486
 30
0.0
 40
2.749999999999817
  0
CIRCLE
  5
191
330
1F
100
AcDbEntity
  8
1
  6
Continuous
 62
     7
100
AcDbCircle
 10
841.2539827309081
 20
283.3854120972487
 30
0.0
 40
2.50000000000003
  0
CIRCLE
  5
192
330
1F
100
AcDbEntity
  8
1
  6
Continuous
 62
     7
100
AcDbCircle
 10
877.2539827309082
 20
275.8854120972489
 30
0.0
 40
2.499999999999929
  0
CIRCLE
  5
193
330
1F
100
AcDbEntity
  8
1
  6
Continuous
 62
     7
100
AcDbCircle
 10
849.7539827309081
 20
259.8854120972486
 30
0.0
 40
2.74999999999972
  0
CIRCLE
  5
194
330
1F
100
AcDbEntity
  8
1
  6
Continuous
 62
     7
100
AcDbCircle
 10
805.2539827309076
 20
275.8854120972492
 30
0.0
 40
2.49999999999998
  0
SPLINE
  5
195
330
1F
100
AcDbEntity
  8
1
  6
Continuous
 62
     2
100
AcDbSpline
210
0.0
220
0.0
230
1.0
 70
     8
 71
     3
 72
    12
 73
     8
 74
     6
 42
0.0000000001
 43
0.0000000001
 44
0.00000001
 40
0.0
 40
0.0
 40
0.0
 40
0.0
 40
0.2775291599796031
 40
0.5641738536600347
 40
0.8992522958634208
 40
1.297504019331699
 40
1.680834346735583
 40
1.680834346735583
 40
1.680834346735583
 40
1.680834346735583
 10
852.2539827309081
 20
329.478114934949
 30
0.0
 10
852.341926604859
 20
329.5473146417201
 30
0.0
 10
852.5207028973261
 20
329.6879869416832
 30
0.0
 10
852.7218504809414
 20
329.3232389629883
 30
0.0
 10
853.0914341242494
 20
329.4873911710961
 30
0.0
 10
853.4102819396755
 20
329.7521733648945
 30
0.0
 10
853.6408832915947
 20
329.5682976041677
 30
0.0
 10
853.7539827309081
 20
329.478114934949
 30
0.0
 11
852.2539827309081
 21
329.478114934949
 31
0.0
 11
852.5050906704498
 21
329.5962980020022
 31
0.0
 11
852.7293419385
 21
329.4177579527331
 31
0.0
 11
853.0567836124108
 21
329.4888882037941
 31
0.0
 11
853.4164718602913
 21
329.6598525263357
 31
0.0
 11
853.7539827309081
 21
329.478114934949
 31
0.0
  0
ARC
  5
196
330
1F
100
AcDbEntity
  8
1
  6
Continuous
 62
     7
100
AcDbCircle
 10
838.7539827309081
 20
310.3854120972483
 30
0.0
 40
1.500000000000057
100
AcDbArc
 50
90.0
 51
179.9999999999935
  0
ARC
  5
197
330
1F
100
AcDbEntity
  8
1
  6
Continuous
 62
     7
100
AcDbCircle
 10
839.2539827309081
 20
309.8854120972485
 30
0.0
 40
0.5000000000001137
100
AcDbArc
 50
90.0
 51
180.0
  0
ARC
  5
198
330
1F
100
AcDbEntity
  8
1
  6
Continuous
 62
     7
100
AcDbCircle
 10
851.7539827309081
 20
298.8854120972484
 30
0.0
 40
1.999999999999886
100
AcDbArc
 50
-90.0
 51
0.00000000000326
  0
ARC
  5
199
330
1F
100
AcDbEntity
  8
1
  6
Continuous
 62
     7
100
AcDbCircle
 10
849.7431193787704
 20
298.8854120972484
 30
0.0
 40
1.999999999999725
100
AcDbArc
 50
-109.1881364537258
 51
-90.0
  0
ARC
  5
19A
330
1F
100
AcDbEntity
  8
1
  6
Continuous
 62
     7
100
AcDbCircle
 10
851.2539827309081
 20
299.3854120972485
 30
0.0
 40
1.0
100
AcDbArc
 50
-90.0
 51
0.0
  0
ARC
  5
19B
330
1F
100
AcDbEntity
  8
1
  6
Continuous
 62
     7
100
AcDbCircle
 10
850.3947320651912
 20
299.3854120972485
 30
0.0
 40
1.000000000000221
100
AcDbArc
 50
165.0000000000089
 51
-90.0
  0
ARC
  5
19C
330
1F
100
AcDbEntity
  8
1
  6
Continuous
 62
     7
100
AcDbCircle
 10
850.7539827309081
 20
310.3854120972484
 30
0.0
 40
1.500000000000031
100
AcDbArc
 50
-14.99999999999864
 51
90.0
  0
ARC
  5
19D
330
1F
100
AcDbEntity
  8
1
  6
Continuous
 62
     7
100
AcDbCircle
 10
850.1023700444875
 20
309.8854120972485
 30
0.0
 40
0.5000000000000152
100
AcDbArc
 50
-15.00000000000074
 51
90.0
  0
ARC
  5
19E
330
1F
100
AcDbEntity
  8
1
  6
Continuous
 62
     7
100
AcDbCircle
 10
849.7431193787704
 20
298.8854120972484
 30
0.0
 40
1.999999999999856
100
AcDbArc
 50
164.999999999996
 51
-109.1881364537258
  0
ARC
  5
19F
330
1F
100
AcDbEntity
  8
1
  6
Continuous
 62
     7
100
AcDbCircle
 10
849.7431193787704
 20
298.8854120972484
 30
0.0
 40
3.000000000000092
100
AcDbArc
 50
164.9999999999993
 51
-109.1881364537213
  0
ARC
  5
1A0
330
1F
100
AcDbEntity
  8
1
  6
Continuous
 62
     7
100
AcDbCircle
 10
793.2539827309076
 20
255.8854120972487
 30
0.0
 40
1.0
100
AcDbArc
 50
-179.9999999999951
 51
-90.0
  0
ARC
  5
1A1
330
1F
100
AcDbEntity
  8
1
  6
Continuous
 62
     7
100
AcDbCircle
 10
793.2539827309076
 20
255.8854120972487
 30
0.0
 40
2.5
100
AcDbArc
 50
-179.999999999998
 51
-90.0
  0
ARC
  5
1A2
330
1F
100
AcDbEntity
  8
1
  6
Continuous
 62
     7
100
AcDbCircle
 10
797.253982730908
 20
290.3854120972487
 30
0.0
 40
0.5
100
AcDbArc
 50
90.0
 51
180.0
  0
ARC
  5
1A3
330
1F
100
AcDbEntity
  8
1
  6
Continuous
 62
     7
100
AcDbCircle
 10
797.253982730908
 20
290.3854120972487
 30
0.0
 40
3.0
100
AcDbArc
 50
90.0
 51
180.0
  0
ARC
  5
1A4
330
1F
100
AcDbEntity
  8
1
  6
Continuous
 62
     7
100
AcDbCircle
 10
836.2539827309081
 20
255.8854120972487
 30
0.0
 40
2.500000000000085
100
AcDbArc
 50
-90.0
 51
-30.00000000000288
  0
ARC
  5
1A5
330
1F
100
AcDbEntity
  8
1
  6
Continuous
 62
     7
100
AcDbCircle
 10
825.253982730908
 20
258.3854120972486
 30
0.0
 40
0.4999999999998863
100
AcDbArc
 50
-90.0
 51
0.0
  0
ARC
  5
1A6
330
1F
100
AcDbEntity
  8
1
  6
Continuous
 62
     7
100
AcDbCircle
 10
825.253982730908
 20
258.3854120972486
 30
0.0
 40
3.499999999999915
100
AcDbArc
 50
-90.0
 51
-44.41530859718713
  0
ARC
  5
1A7
330
1F
100
AcDbEntity
  8
1
  6
Continuous
 62
     7
100
AcDbCircle
 10
855.3660170004972
 20
276.8854120972486
 30
0.0
 40
6.0
100
AcDbArc
 50
90.0
 51
110.9999999999996
  0
ARC
  5
1A8
330
1F
100
AcDbEntity
  8
1
  6
Continuous
 62
     7
100
AcDbCircle
 10
839.1902576157902
 20
271.2116923268916
 30
0.0
 40
5.499999999999948
100
AcDbArc
 50
110.9999999999987
 51
-154.0000000000005
  0
ARC
  5
1A9
330
1F
100
AcDbEntity
  8
1
  6
Continuous
 62
     7
100
AcDbCircle
 10
867.0615945754832
 20
276.8854120972487
 30
0.0
 40
5.999999999999928
100
AcDbArc
 50
45.000000000005
 51
90.0000000000011
  0
ARC
  5
1AA
330
1F
100
AcDbEntity
  8
1
  6
Continuous
 62
     7
100
AcDbCircle
 10
871.6294036228069
 20
277.9744572994175
 30
0.0
 40
1.999999999999762
100
AcDbArc
 50
-20.37568164783217
 51
45.00000000001266
  0
ARC
  5
1AB
330
1F
100
AcDbEntity
  8
1
  6
Continuous
 62
     7
100
AcDbCircle
 10
834.0039827309081
 20
274.0140917536887
 30
0.0
 40
6.500000000000012
100
AcDbArc
 50
134.9999999999982
 51
180.0
  0
ARC
  5
1AC
330
1F
100
AcDbEntity
  8
1
  6
Continuous
 62
     7
100
AcDbCircle
 10
844.8595340063721
 20
289.3854120972487
 30
0.0
 40
1.999999999999877
100
AcDbArc
 50
-121.002719133874
 51
-90.0
  0
ARC
  5
1AD
330
1F
100
AcDbEntity
  8
1
  6
Continuous
 62
     7
100
AcDbCircle
 10
868.7184488249752
 20
280.8854120972487
 30
0.0
 40
6.499999999999932
100
AcDbArc
 50
44.99999999999823
 51
89.999999999999
  0
ARC
  5
1AE
330
1F
100
AcDbEntity
  8
1
  6
Continuous
 62
     7
100
AcDbCircle
 10
827.1419484613186
 20
276.8854120972489
 30
0.0
 40
5.99999999999998
100
AcDbArc
 50
69.00000000000043
 51
90.0
  0
ARC
  5
1AF
330
1F
100
AcDbEntity
  8
1
  6
Continuous
 62
     7
100
AcDbCircle
 10
843.3177078460257
 20
271.2116923268919
 30
0.0
 40
5.499999999999789
100
AcDbArc
 50
-26.00000000000111
 51
69.00000000000135
  0
ARC
  5
1B0
330
1F
100
AcDbEntity
  8
1
  6
Continuous
 62
     7
100
AcDbCircle
 10
815.4463708863326
 20
276.885412097249
 30
0.0
 40
5.999999999999773
100
AcDbArc
 50
89.99999999999892
 51
134.9999999999958
  0
ARC
  5
1B1
330
1F
100
AcDbEntity
  8
1
  6
Continuous
 62
     7
100
AcDbCircle
 10
810.878561839009
 20
277.9744572994178
 30
0.0
 40
1.999999999999855
100
AcDbArc
 50
134.9999999999862
 51
-159.6243183521648
  0
ARC
  5
1B2
330
1F
100
AcDbEntity
  8
1
  6
Continuous
 62
     7
100
AcDbCircle
 10
848.5039827309078
 20
274.014091753689
 30
0.0
 40
6.5
100
AcDbArc
 50
0.0
 51
45.00000000000178
  0
ARC
  5
1B3
330
1F
100
AcDbEntity
  8
1
  6
Continuous
 62
     7
100
AcDbCircle
 10
837.6484314554438
 20
289.385412097249
 30
0.0
 40
2.0
100
AcDbArc
 50
-90.0
 51
-58.99728086612769
  0
ARC
  5
1B4
330
1F
100
AcDbEntity
  8
1
  6
Continuous
 62
     7
100
AcDbCircle
 10
813.7895166368406
 20
280.885412097249
 30
0.0
 40
6.5
100
AcDbArc
 50
90.00000000000101
 51
135.0000000000014
  0
ARC
  5
1B5
330
1F
100
AcDbEntity
  8
1
  6
Continuous
 62
     7
100
AcDbCircle
 10
880.7539827309082
 20
270.456586662521
 30
0.0
 40
1.00000000000003
100
AcDbArc
 50
-74.99999999999926
 51
0.00000000000651
  0
ARC
  5
1B6
330
1F
100
AcDbEntity
  8
1
  6
Continuous
 62
     7
100
AcDbCircle
 10
879.7539827309081
 20
282.8854120972486
 30
0.0
 40
2.0
100
AcDbArc
 50
0.0
 51
90.0
  0
ARC
  5
1B7
330
1F
100
AcDbEntity
  8
1
  6
DASHED
 62
     2
100
AcDbCircle
 10
852.1632345031908
 20
271.7505568231644
 30
0.0
 40
1.999999999999951
100
AcDbArc
 50
105.0000000000016
 51
-164.9999999999993
  0
ARC
  5
1B8
330
1F
100
AcDbEntity
  8
1
  6
DASHED
 62
     2
100
AcDbCircle
 10
853.4573297287034
 20
266.9209276917191
 30
0.0
 40
2.000000000000061
100
AcDbArc
 50
-164.9999999999993
 51
-74.99999999999926
  0
ARC
  5
1B9
330
1F
100
AcDbEntity
  8
1
  6
DASHED
 62
     2
100
AcDbCircle
 10
848.7539827309081
 20
286.8854120972487
 30
0.0
 40
2.0
100
AcDbArc
 50
-179.9999999999967
 51
-90.0
  0
ARC
  5
1BA
330
1F
100
AcDbEntity
  8
1
  6
Continuous
 62
     7
100
AcDbCircle
 10
877.7539827309081
 20
263.8854120972486
 30
0.0
 40
1.0
100
AcDbArc
 50
-90.0
 51
0.0
  0
ARC
  5
1BB
330
1F
100
AcDbEntity
  8
1
  6
DASHED
 62
     2
100
AcDbCircle
 10
855.7539827309081
 20
261.8854120972486
 30
0.0
 40
1.000000000000061
100
AcDbArc
 50
138.5903778907646
 51
180.0
  0
ARC
  5
1BC
330
1F
100
AcDbEntity
  8
1
  6
Continuous
 62
     7
100
AcDbCircle
 10
855.7539827309081
 20
261.8854120972486
 30
0.0
 40
1.0
100
AcDbArc
 50
89.99999999999349
 51
138.5903778907646
  0
ARC
  5
1BD
330
1F
100
AcDbEntity
  8
1
  6
DASHED
 62
     2
100
AcDbCircle
 10
829.5506357331128
 20
266.7869530955034
 30
0.0
 40
2.000000000000006
100
AcDbArc
 50
-105.0000000000012
 51
-14.99999999999687
  0
ARC
  5
1BE
330
1F
100
AcDbEntity
  8
1
  6
DASHED
 62
     2
100
AcDbCircle
 10
830.8447309586254
 20
271.6165822269488
 30
0.0
 40
1.999999999999936
100
AcDbArc
 50
-15.00000000000001
 51
74.99999999999841
  0
ARC
  5
1BF
330
1F
100
AcDbEntity
  8
1
  6
Continuous
 62
     7
100
AcDbCircle
 10
802.2539827309081
 20
264.6354120972486
 30
0.0
 40
2.0
100
AcDbArc
 50
180.0
 51
-90.0
  0
ARC
  5
1C0
330
1F
100
AcDbEntity
  8
1
  6
DASHED
 62
     2
100
AcDbCircle
 10
832.7539827309081
 20
286.6354120972486
 30
0.0
 40
2.0
100
AcDbArc
 50
-90.0
 51
0.0
  0
ARC
  5
1C1
330
1F
100
AcDbEntity
  8
1
  6
Continuous
 62
     7
100
AcDbCircle
 10
802.2539827309081
 20
282.6354120972486
 30
0.0
 40
2.0
100
AcDbArc
 50
90.0
 51
180.0
  0
ARC
  5
1C2
330
1F
100
AcDbEntity
  8
1
  6
Continuous
 62
     7
100
AcDbCircle
 10
825.7539827309079
 20
260.6354120972486
 30
0.0
 40
2.000000000000039
100
AcDbArc
 50
28.95502437184169
 51
89.99999999999675
  0
ARC
  5
1C3
330
1F
100
AcDbEntity
  8
1
  6
DASHED
 62
     2
100
AcDbCircle
 10
825.7539827309079
 20
260.6354120972486
 30
0.0
 40
2.0
100
AcDbArc
 50
0.00000000000489
 51
28.95502437184169
  0
DIMENSION
  5
1D0
330
1F
100
AcDbEntity
  8
1
100
AcDbDimension
  2
*D1
 10
794.253982730908
 20
226.149582666739
 30
0.0
 11
817.410869295217
 21
229.899582666739
 31
0.0
 70
    32
  1
<>
 71
     5
 42
-1.0
 53
0.00013888888889
  3
ME10_DIM_10
100
AcDbAlignedDimension
 13
838.7539827309081
 23
253.3854120972486
 33
0.0
 14
794.253982730908
 24
254.8854120972487
 34
0.0
100
AcDbRotatedDimension
  0
DIMENSION
  5
1DB
330
1F
100
AcDbEntity
  8
1
100
AcDbDimension
  2
*D2
 10
907.2193683713409
 20
290.3854120972483
 30
0.0
 11
903.4693683713409
 21
271.640770857818
 31
0.0
 70
    32
  1
<>
 71
     5
 42
-1.0
 53
90.0
  3
ME10_DIM_11
100
AcDbAlignedDimension
 13
878.2539827309082
 23
258.3854120972486
 33
0.0
 14
886.2539827309082
 24
290.3854120972483
 34
0.0
 50
90.0
100
AcDbRotatedDimension
  0
DIMENSION
  5
1E8
330
1F
100
AcDbEntity
  8
1
100
AcDbDimension
  2
*D3
 10
838.7539827309081
 20
236.013375212168
 30
0.0
 11
830.562538905637
 21
239.763375212168
 31
0.0
 70
    32
  1
<>
 71
     5
 42
-1.0
 53
0.00013888888889
  3
ME10_DIM_12
100
AcDbAlignedDimension
 13
842.2539827309081
 23
247.3854120972484
 33
0.0
 14
838.7539827309081
 24
247.3854120972486
 34
0.0
100
AcDbRotatedDimension
  0
DIMENSION
  5
1F3
330
1F
100
AcDbEntity
  8
1
100
AcDbDimension
  2
*D4
 10
842.2539827309081
 20
226.149582666739
 30
0.0
 11
865.2539827309081
 21
229.899582666739
 31
0.0
 70
    32
  1
<>
 71
     5
 42
-1.0
 53
0.00013888888889
  3
ME10_DIM_13
100
AcDbAlignedDimension
 13
886.2539827309082
 23
258.3854120972486
 33
0.0
 14
842.2539827309081
 24
247.3854120972484
 34
0.0
100
AcDbRotatedDimension
  0
DIMENSION
  5
200
330
1F
100
AcDbEntity
  8
1
100
AcDbDimension
  2
*D5
 10
917.1719860641319
 20
245.3854120972484
 30
0.0
 11
913.4219860641319
 21
249.164740817035
 31
0.0
 70
    32
  1
<>
 71
     5
 42
-1.0
 53
90.0
  3
ME10_DIM_14
100
AcDbAlignedDimension
 13
897.2539827309081
 23
253.3854120972486
 33
0.0
 14
897.2539827309081
 24
245.3854120972484
 34
0.0
 50
90.0
100
AcDbRotatedDimension
  0
DIMENSION
  5
20B
330
1F
100
AcDbEntity
  8
1
100
AcDbDimension
  2
*D6
 10
917.1719860641319
 20
253.3854120972486
 30
0.0
 11
913.4219860641319
 21
271.8854120972485
 31
0.0
 70
    32
  1
<>
 71
     5
 42
-1.0
 53
90.0
  3
ME10_DIM_15
100
AcDbAlignedDimension
 13
886.2539827309082
 23
290.3854120972483
 33
0.0
 14
897.2539827309081
 24
253.3854120972486
 34
0.0
 50
90.0
100
AcDbRotatedDimension
  0
ENDSEC
  0
SECTION
  2
OBJECTS
  0
DICTIONARY
  5
C
330
0
100
AcDbDictionary
281
     1
  3
ACAD_GROUP
350
D
  3
ACAD_LAYOUT
350
1A
  3
ACAD_MLINESTYLE
350
17
  3
ACAD_PLOTSETTINGS
350
19
  3
ACAD_PLOTSTYLENAME
350
E
  0
DICTIONARY
  5
D
102
{ACAD_REACTORS
330
C
102
}
330
C
100
AcDbDictionary
281
     1
  0
DICTIONARY
  5
1A
102
{ACAD_REACTORS
330
C
102
}
330
C
100
AcDbDictionary
281
     1
  3
Layout1
350
1E
  3
Layout2
350
26
  3
Model
350
22
  0
DICTIONARY
  5
17
102
{ACAD_REACTORS
330
C
102
}
330
C
100
AcDbDictionary
281
     1
  3
Standard
350
18
  0
DICTIONARY
  5
19
102
{ACAD_REACTORS
330
C
102
}
330
C
100
AcDbDictionary
281
     1
  0
ACDBDICTIONARYWDFLT
  5
E
102
{ACAD_REACTORS
330
C
102
}
330
C
100
AcDbDictionary
281
     1
  3
Normal
350
F
100
AcDbDictionaryWithDefault
340
F
  0
LAYOUT
  5
1E
102
{ACAD_REACTORS
330
1A
102
}
330
1A
100
AcDbPlotSettings
  1

  2

  4

  6

 40
0.0
 41
0.0
 42
0.0
 43
0.0
 44
0.0
 45
0.0
 46
0.0
 47
0.0
 48
0.0
 49
0.0
140
0.0
141
0.0
142
1.0
143
1.0
 70
   688
 72
     0
 73
     0
 74
     5
  7

 75
    16
 76
     0
 77
     2
 78
   300
147
1.0
148
0.0
149
0.0
100
AcDbLayout
  1
Layout1
 70
     1
 71
     1
 10
0.0
 20
0.0
 11
0.0
 21
0.0
 12
0.0
 22
0.0
 32
0.0
 14
0.0
 24
0.0
 34
0.0
 15
0.0
 25
0.0
 35
0.0
146
0.0
 13
0.0
 23
0.0
 33
0.0
 16
1.0
 26
0.0
 36
0.0
 17
0.0
 27
1.0
 37
0.0
 76
     0
330
1B
  0
LAYOUT
  5
26
102
{ACAD_REACTORS
330
1A
102
}
330
1A
100
AcDbPlotSettings
  1

  2

  4

  6

 40
0.0
 41
0.0
 42
0.0
 43
0.0
 44
0.0
 45
0.0
 46
0.0
 47
0.0
 48
0.0
 49
0.0
140
0.0
141
0.0
142
1.0
143
1.0
 70
   688
 72
     0
 73
     0
 74
     5
  7

 75
    16
 76
     0
 77
     2
 78
   300
147
1.0
148
0.0
149
0.0
100
AcDbLayout
  1
Layout2
 70
     1
 71
     2
 10
0.0
 20
0.0
 11
0.0
 21
0.0
 12
0.0
 22
0.0
 32
0.0
 14
0.0
 24
0.0
 34
0.0
 15
0.0
 25
0.0
 35
0.0
146
0.0
 13
0.0
 23
0.0
 33
0.0
 16
1.0
 26
0.0
 36
0.0
 17
0.0
 27
1.0
 37
0.0
 76
     0
330
23
  0
LAYOUT
  5
22
102
{ACAD_REACTORS
330
1A
102
}
330
1A
100
AcDbPlotSettings
  1

  2

  4

  6

 40
0.0
 41
0.0
 42
0.0
 43
0.0
 44
0.0
 45
0.0
 46
0.0
 47
0.0
 48
0.0
 49
0.0
140
0.0
141
0.0
142
1.0
143
1.0
 70
  1712
 72
     0
 73
     0
 74
     0
  7

 75
     0
 76
     0
 77
     2
 78
   300
147
1.0
148
0.0
149
0.0
100
AcDbLayout
  1
Model
 70
     1
 71
     0
 10
0.0
 20
0.0
 11
0.0
 21
0.0
 12
0.0
 22
0.0
 32
0.0
 14
778.753982730908
 24
224.149582666739
 34
0.0
 15
919.1719860641319
 25
329.6742552098942
 35
0.0
146
0.0
 13
0.0
 23
0.0
 33
0.0
 16
1.0
 26
0.0
 36
0.0
 17
0.0
 27
1.0
 37
0.0
 76
     0
330
1F
  0
MLINESTYLE
  5
18
102
{ACAD_REACTORS
330
17
102
}
330
17
100
AcDbMlineStyle
  2
Standard
 70
     0
  3

 62
   256
 51
90.0
 52
90.0
 71
     2
 49
0.5
 62
   256
  6
BYLAYER
 49
-0.5
 62
   256
  6
BYLAYER
  0
ACDBPLACEHOLDER
  5
F
102
{ACAD_REACTORS
330
E
102
}
330
E
  0
ENDSEC
  0
EOF
