  0
SECTION
  2
HEADER
  9
$ACADVER
  1
AC1018
  9
$ACADMAINTVER
 70
     0
  9
$DWGCODEPAGE
  3
ANSI_1252
  9
$INSBASE
 10
0.0
 20
0.0
 30
0.0
  9
$EXTMIN
 10
-221.973982681377
 20
-147.7583114682399
 30
0.0
  9
$EXTMAX
 10
191.19957816062
 20
82.428151340832
 30
0.0
  9
$LIMMIN
 10
0.0
 20
0.0
  9
$LIMMAX
 10
12.0
 20
9.0
  9
$ORTHOMODE
 70
     0
  9
$REGENMODE
 70
     1
  9
$FILLMODE
 70
     1
  9
$QTEXTMODE
 70
     0
  9
$MIRRTEXT
 70
     1
  9
$LTSCALE
 40
1.0
  9
$ATTMODE
 70
     1
  9
$TEXTSIZE
 40
0.2
  9
$TRACEWID
 40
0.05
  9
$TEXTSTYLE
  7
Standard
  9
$CLAYER
  8
0
  9
$CELTYPE
  6
ByLayer
  9
$CECOLOR
 62
   256
  9
$CELTSCALE
 40
1.0
  9
$DISPSILH
 70
     0
  9
$DIMSCALE
 40
1.0
  9
$DIMASZ
 40
0.18
  9
$DIMEXO
 40
0.0625
  9
$DIMDLI
 40
0.38
  9
$DIMRND
 40
0.0
  9
$DIMDLE
 40
0.0
  9
$DIMEXE
 40
0.18
  9
$DIMTP
 40
0.0
  9
$DIMTM
 40
0.0
  9
$DIMTXT
 40
0.18
  9
$DIMCEN
 40
0.09
  9
$DIMTSZ
 40
0.0
  9
$DIMTOL
 70
     0
  9
$DIMLIM
 70
     0
  9
$DIMTIH
 70
     1
  9
$DIMTOH
 70
     1
  9
$DIMSE1
 70
     0
  9
$DIMSE2
 70
     0
  9
$DIMTAD
 70
     0
  9
$DIMZIN
 70
     0
  9
$DIMBLK
  1

  9
$DIMASO
 70
     1
  9
$DIMSHO
 70
     1
  9
$DIMPOST
  1

  9
$DIMAPOST
  1

  9
$DIMALT
 70
     0
  9
$DIMALTD
 70
     2
  9
$DIMALTF
 40
25.4
  9
$DIMLFAC
 40
1.0
  9
$DIMTOFL
 70
     0
  9
$DIMTVP
 40
0.0
  9
$DIMTIX
 70
     0
  9
$DIMSOXD
 70
     0
  9
$DIMSAH
 70
     0
  9
$DIMBLK1
  1

  9
$DIMBLK2
  1

  9
$DIMSTYLE
  2
Standard
  9
$DIMCLRD
 70
     0
  9
$DIMCLRE
 70
     0
  9
$DIMCLRT
 70
     0
  9
$DIMTFAC
 40
1.0
  9
$DIMGAP
 40
0.09
  9
$DIMJUST
 70
     0
  9
$DIMSD1
 70
     0
  9
$DIMSD2
 70
     0
  9
$DIMTOLJ
 70
     1
  9
$DIMTZIN
 70
     0
  9
$DIMALTZ
 70
     0
  9
$DIMALTTZ
 70
     0
  9
$DIMUPT
 70
     0
  9
$DIMDEC
 70
     4
  9
$DIMTDEC
 70
     4
  9
$DIMALTU
 70
     2
  9
$DIMALTTD
 70
     2
  9
$DIMTXSTY
  7
Standard
  9
$DIMAUNIT
 70
     0
  9
$DIMADEC
 70
     0
  9
$DIMALTRND
 40
0.0
  9
$DIMAZIN
 70
     0
  9
$DIMDSEP
 70
    46
  9
$DIMATFIT
 70
     3
  9
$DIMFRAC
 70
     0
  9
$DIMLDRBLK
  1

  9
$DIMLUNIT
 70
     2
  9
$DIMLWD
 70
    -2
  9
$DIMLWE
 70
    -2
  9
$DIMTMOVE
 70
     0
  9
$LUNITS
 70
     2
  9
$LUPREC
 70
     4
  9
$SKETCHINC
 40
0.1
  9
$FILLETRAD
 40
0.5
  9
$AUNITS
 70
     0
  9
$AUPREC
 70
     0
  9
$MENU
  1
.
  9
$ELEVATION
 40
0.0
  9
$PELEVATION
 40
0.0
  9
$THICKNESS
 40
0.0
  9
$LIMCHECK
 70
     0
  9
$CHAMFERA
 40
0.5
  9
$CHAMFERB
 40
0.5
  9
$CHAMFERC
 40
1.0
  9
$CHAMFERD
 40
0.0
  9
$SKPOLY
 70
     0
  9
$TDCREATE
 40
2455860.464421227
  9
$TDUCREATE
 40
2455860.381087894
  9
$TDUPDATE
 40
2455860.464421238
  9
$TDUUPDATE
 40
2455860.381087905
  9
$TDINDWG
 40
0.0000000116
  9
$TDUSRTIMER
 40
0.0000000116
  9
$USRTIMER
 70
     1
  9
$ANGBASE
 50
0.0
  9
$ANGDIR
 70
     0
  9
$PDMODE
 70
     0
  9
$PDSIZE
 40
0.0
  9
$PLINEWID
 40
0.0
  9
$SPLFRAME
 70
     0
  9
$SPLINETYPE
 70
     6
  9
$SPLINESEGS
 70
     8
  9
$HANDSEED
  5
29C
  9
$SURFTAB1
 70
     6
  9
$SURFTAB2
 70
     6
  9
$SURFTYPE
 70
     6
  9
$SURFU
 70
     6
  9
$SURFV
 70
     6
  9
$UCSBASE
  2

  9
$UCSNAME
  2

  9
$UCSORG
 10
0.0
 20
0.0
 30
0.0
  9
$UCSXDIR
 10
1.0
 20
0.0
 30
0.0
  9
$UCSYDIR
 10
0.0
 20
1.0
 30
0.0
  9
$UCSORTHOREF
  2

  9
$UCSORTHOVIEW
 70
     0
  9
$UCSORGTOP
 10
0.0
 20
0.0
 30
0.0
  9
$UCSORGBOTTOM
 10
0.0
 20
0.0
 30
0.0
  9
$UCSORGLEFT
 10
0.0
 20
0.0
 30
0.0
  9
$UCSORGRIGHT
 10
0.0
 20
0.0
 30
0.0
  9
$UCSORGFRONT
 10
0.0
 20
0.0
 30
0.0
  9
$UCSORGBACK
 10
0.0
 20
0.0
 30
0.0
  9
$PUCSBASE
  2

  9
$PUCSNAME
  2

  9
$PUCSORG
 10
0.0
 20
0.0
 30
0.0
  9
$PUCSXDIR
 10
1.0
 20
0.0
 30
0.0
  9
$PUCSYDIR
 10
0.0
 20
1.0
 30
0.0
  9
$PUCSORTHOREF
  2

  9
$PUCSORTHOVIEW
 70
     0
  9
$PUCSORGTOP
 10
0.0
 20
0.0
 30
0.0
  9
$PUCSORGBOTTOM
 10
0.0
 20
0.0
 30
0.0
  9
$PUCSORGLEFT
 10
0.0
 20
0.0
 30
0.0
  9
$PUCSORGRIGHT
 10
0.0
 20
0.0
 30
0.0
  9
$PUCSORGFRONT
 10
0.0
 20
0.0
 30
0.0
  9
$PUCSORGBACK
 10
0.0
 20
0.0
 30
0.0
  9
$USERI1
 70
     0
  9
$USERI2
 70
     0
  9
$USERI3
 70
     0
  9
$USERI4
 70
     0
  9
$USERI5
 70
     0
  9
$USERR1
 40
14.5
  9
$USERR2
 40
0.0
  9
$USERR3
 40
0.0
  9
$USERR4
 40
0.0
  9
$USERR5
 40
0.0
  9
$WORLDVIEW
 70
     1
  9
$SHADEDGE
 70
     3
  9
$SHADEDIF
 70
    70
  9
$TILEMODE
 70
     1
  9
$MAXACTVP
 70
    64
  9
$PINSBASE
 10
0.0
 20
0.0
 30
0.0
  9
$PLIMCHECK
 70
     0
  9
$PEXTMIN
 10
1.00000000000000E+20
 20
1.00000000000000E+20
 30
1.00000000000000E+20
  9
$PEXTMAX
 10
-1.00000000000000E+20
 20
-1.00000000000000E+20
 30
-1.00000000000000E+20
  9
$PLIMMIN
 10
0.0
 20
0.0
  9
$PLIMMAX
 10
12.0
 20
9.0
  9
$UNITMODE
 70
     0
  9
$VISRETAIN
 70
     1
  9
$PLINEGEN
 70
     0
  9
$PSLTSCALE
 70
     1
  9
$TREEDEPTH
 70
  3020
  9
$CMLSTYLE
  2
Standard
  9
$CMLJUST
 70
     0
  9
$CMLSCALE
 40
1.0
  9
$PROXYGRAPHICS
 70
     1
  9
$MEASUREMENT
 70
     1
  9
$CELWEIGHT
370
    -1
  9
$ENDCAPS
280
     0
  9
$JOINSTYLE
280
     0
  9
$LWDISPLAY
290
     0
  9
$INSUNITS
 70
     1
  9
$HYPERLINKBASE
  1

  9
$STYLESHEET
  1

  9
$XEDIT
290
     1
  9
$CEPSNTYPE
380
     0
  9
$PSTYLEMODE
290
     1
  9
$FINGERPRINTGUID
  2
{7FB2F37F-063E-4E8F-8FAC-9DA8A6FE1C12}
  9
$VERSIONGUID
  2
{FAEB1C32-E019-11D5-929B-00C0DF256EC4}
  9
$EXTNAMES
290
     1
  9
$PSVPSCALE
 40
0.0
  9
$OLESTARTUP
290
     0
  9
$SORTENTS
280
   127
  9
$INDEXCTL
280
     0
  9
$HIDETEXT
280
     1
  9
$XCLIPFRAME
290
     0
  9
$HALOGAP
280
     0
  9
$OBSCOLOR
 70
   257
  9
$OBSLTYPE
280
     0
  9
$INTERSECTIONDISPLAY
280
     0
  9
$INTERSECTIONCOLOR
 70
   257
  9
$DIMASSOC
280
     2
  9
$PROJECTNAME
  1

  0
ENDSEC
  0
SECTION
  2
CLASSES
  0
CLASS
  1
ACDBDICTIONARYWDFLT
  2
AcDbDictionaryWithDefault
  3
ObjectDBX Classes
 90
        0
 91
        3
280
     0
281
     0
  0
CLASS
  1

  2
exOdDbCircle
  3

 90
        0
 91
        3
280
     0
281
     1
  0
ENDSEC
  0
SECTION
  2
TABLES
  0
TABLE
  2
VPORT
  5
8
330
0
100
AcDbSymbolTable
 70
     1
  0
VPORT
  5
29
330
8
100
AcDbSymbolTableRecord
100
AcDbViewportTableRecord
  2
*Active
 70
     0
 10
0.0
 20
0.0
 11
1.0
 21
1.0
 12
-15.3872022603785
 22
-32.66508006370395
 13
0.0
 23
0.0
 14
0.5
 24
0.5
 15
0.5
 25
0.5
 16
0.0
 26
0.0
 36
1.0
 17
0.0
 27
0.0
 37
0.0
 40
283.5820762993541
 41
1.60267857142857
 42
50.0
 43
0.0
 44
0.0
 50
0.0
 51
0.0
 71
     0
 72
   100
 73
     1
 74
     3
 75
     0
 76
     0
 77
     0
 78
     0
281
     0
 65
     1
110
0.0
120
0.0
130
0.0
111
1.0
121
0.0
131
0.0
112
0.0
122
1.0
132
0.0
 79
     0
146
0.0
  0
ENDTAB
  0
TABLE
  2
LTYPE
  5
5
330
0
100
AcDbSymbolTable
 70
     8
  0
LTYPE
  5
14
330
5
100
AcDbSymbolTableRecord
100
AcDbLinetypeTableRecord
  2
ByBlock
 70
     0
  3

 72
    65
 73
     0
 40
0.0
  0
LTYPE
  5
15
330
5
100
AcDbSymbolTableRecord
100
AcDbLinetypeTableRecord
  2
ByLayer
 70
     0
  3

 72
    65
 73
     0
 40
0.0
  0
LTYPE
  5
16
330
5
100
AcDbSymbolTableRecord
100
AcDbLinetypeTableRecord
  2
Continuous
 70
     0
  3
Solid line
 72
    65
 73
     0
 40
0.0
  0
LTYPE
  5
2A
330
5
100
AcDbSymbolTableRecord
100
AcDbLinetypeTableRecord
  2
DASHED
 70
     0
  3
Dashed
 72
    65
 73
     2
 40
15.0
 49
7.0
 74
     0
 49
-8.0
 74
     0
  0
LTYPE
  5
2B
330
5
100
AcDbSymbolTableRecord
100
AcDbLinetypeTableRecord
  2
DOTTED
 70
     0
  3
Dotted
 72
    65
 73
     2
 40
1.0
 49
0.0
 74
     0
 49
-1.0
 74
     0
  0
LTYPE
  5
2C
330
5
100
AcDbSymbolTableRecord
100
AcDbLinetypeTableRecord
  2
DOT_CENTER
 70
     0
  3
Dot_Center
 72
    65
 73
     4
 40
14.0
 49
12.0
 74
     0
 49
-1.0
 74
     0
 49
0.0
 74
     0
 49
-1.0
 74
     0
  0
LTYPE
  5
2D
330
5
100
AcDbSymbolTableRecord
100
AcDbLinetypeTableRecord
  2
LONG_DASHED
 70
     0
  3
Long_Dashed
 72
    65
 73
     2
 40
15.0
 49
10.0
 74
     0
 49
-5.0
 74
     0
  0
LTYPE
  5
2E
330
5
100
AcDbSymbolTableRecord
100
AcDbLinetypeTableRecord
  2
DASH_CENTER
 70
     0
  3
Dash_Center
 72
    65
 73
     4
 40
14.0
 49
11.0
 74
     0
 49
-1.0
 74
     0
 49
1.0
 74
     0
 49
-1.0
 74
     0
  0
LTYPE
  5
2F
330
5
100
AcDbSymbolTableRecord
100
AcDbLinetypeTableRecord
  2
PHANTOM
 70
     0
  3
Phantom
 72
    65
 73
     6
 40
13.0
 49
10.0
 74
     0
 49
-1.0
 74
     0
 49
0.0
 74
     0
 49
-1.0
 74
     0
 49
0.0
 74
     0
 49
-1.0
 74
     0
  0
LTYPE
  5
30
330
5
100
AcDbSymbolTableRecord
100
AcDbLinetypeTableRecord
  2
CENTER_DASH_DASH
 70
     0
  3
Center_Dash_Dash
 72
    65
 73
     6
 40
14.0
 49
9.0
 74
     0
 49
-1.0
 74
     0
 49
1.0
 74
     0
 49
-1.0
 74
     0
 49
1.0
 74
     0
 49
-1.0
 74
     0
  0
ENDTAB
  0
TABLE
  2
LAYER
  5
2
330
0
100
AcDbSymbolTable
 70
     2
  0
LAYER
  5
10
330
2
100
AcDbSymbolTableRecord
100
AcDbLayerTableRecord
  2
0
 70
     0
 62
     7
  6
Continuous
370
    -3
390
F
  0
LAYER
  5
31
330
2
100
AcDbSymbolTableRecord
100
AcDbLayerTableRecord
  2
1
 70
     0
 62
     7
  6
Continuous
370
    -3
390
F
  0
ENDTAB
  0
TABLE
  2
STYLE
  5
3
330
0
100
AcDbSymbolTable
 70
     2
  0
STYLE
  5
11
330
3
100
AcDbSymbolTableRecord
100
AcDbTextStyleTableRecord
  2
Standard
 70
     0
 40
0.0
 41
1.0
 50
0.0
 71
     0
 42
0.2
  3
txt
  4

  0
STYLE
  5
178
330
3
100
AcDbSymbolTableRecord
100
AcDbTextStyleTableRecord
  2
CONVERTER_11
 70
     0
 40
0.0
 41
0.9
 50
0.0
 71
     0
 42
0.2
  3
txt.shx
  4

  0
ENDTAB
  0
TABLE
  2
VIEW
  5
6
330
0
100
AcDbSymbolTable
 70
     0
  0
ENDTAB
  0
TABLE
  2
UCS
  5
7
330
0
100
AcDbSymbolTable
 70
     0
  0
ENDTAB
  0
TABLE
  2
APPID
  5
9
330
0
100
AcDbSymbolTable
 70
     1
  0
APPID
  5
12
330
9
100
AcDbSymbolTableRecord
100
AcDbRegAppTableRecord
  2
ACAD
 70
     0
  0
ENDTAB
  0
TABLE
  2
DIMSTYLE
  5
A
330
0
100
AcDbSymbolTable
 70
    22
100
AcDbDimStyleTable
  0
DIMSTYLE
105
27
330
A
100
AcDbSymbolTableRecord
100
AcDbDimStyleTableRecord
  2
Standard
 70
     0
340
11
  0
DIMSTYLE
105
185
102
{ACAD_REACTORS
330
186
102
}
330
A
100
AcDbSymbolTableRecord
100
AcDbDimStyleTableRecord
  2
ME10_DIM_10
 70
     0
 41
3.5
 42
0.0
 44
2.0
 73
     0
 74
     0
 77
     1
 78
     8
140
3.5
147
2.0
172
     1
173
     1
176
     2
177
     2
178
     2
271
     3
340
178
  0
DIMSTYLE
105
190
102
{ACAD_REACTORS
330
191
102
}
330
A
100
AcDbSymbolTableRecord
100
AcDbDimStyleTableRecord
  2
ME10_DIM_11
 70
     0
 41
3.5
 42
0.0
 44
2.0
 73
     0
 74
     0
 77
     1
 78
     8
140
3.5
147
2.0
172
     1
173
     1
176
     2
177
     2
178
     2
271
     3
340
178
  0
DIMSTYLE
105
19D
102
{ACAD_REACTORS
330
19E
102
}
330
A
100
AcDbSymbolTableRecord
100
AcDbDimStyleTableRecord
  2
ME10_DIM_12
 70
     0
 41
3.5
 42
0.0
 44
2.0
 73
     0
 74
     0
 77
     1
 78
     8
140
3.5
147
2.0
172
     1
173
     1
176
     2
177
     2
178
     2
271
     2
340
178
  0
DIMSTYLE
105
1A8
102
{ACAD_REACTORS
330
1A9
102
}
330
A
100
AcDbSymbolTableRecord
100
AcDbDimStyleTableRecord
  2
ME10_DIM_13
 70
     0
 41
3.5
 42
0.0
 44
2.0
 73
     0
 74
     0
 77
     1
 78
     8
140
3.5
147
2.0
172
     1
173
     1
176
     2
177
     2
178
     2
271
     2
340
178
  0
DIMSTYLE
105
1B3
102
{ACAD_REACTORS
330
1B4
102
}
330
A
100
AcDbSymbolTableRecord
100
AcDbDimStyleTableRecord
  2
ME10_DIM_14
 70
     0
 41
3.5
 42
0.0
 44
2.0
 73
     0
 74
     0
 77
     1
 78
     8
140
3.5
147
2.0
172
     1
173
     1
176
     2
177
     2
178
     2
271
     2
340
178
  0
DIMSTYLE
105
1BE
102
{ACAD_REACTORS
330
1BF
102
}
330
A
100
AcDbSymbolTableRecord
100
AcDbDimStyleTableRecord
  2
ME10_DIM_15
 70
     0
 41
3.5
 42
0.0
 44
2.0
 73
     0
 74
     0
 77
     1
 78
     8
140
3.5
147
2.0
172
     1
173
     1
176
     2
177
     2
178
     2
271
     2
340
178
  0
DIMSTYLE
105
1C9
102
{ACAD_REACTORS
330
1CA
102
}
330
A
100
AcDbSymbolTableRecord
100
AcDbDimStyleTableRecord
  2
ME10_DIM_16
 70
     0
 41
3.5
 42
0.0
 44
2.0
 73
     0
 74
     0
 77
     1
 78
     8
140
3.5
147
2.0
172
     1
173
     1
176
     2
177
     2
178
     2
271
     2
340
178
  0
DIMSTYLE
105
1D4
102
{ACAD_REACTORS
330
1D5
102
}
330
A
100
AcDbSymbolTableRecord
100
AcDbDimStyleTableRecord
  2
ME10_DIM_17
 70
     0
 41
3.5
 42
0.0
 44
2.0
 73
     0
 74
     0
 77
     1
 78
     8
140
3.5
147
2.0
172
     1
173
     1
176
     2
177
     2
178
     2
271
     2
340
178
  0
DIMSTYLE
105
1DF
102
{ACAD_REACTORS
330
1E0
102
}
330
A
100
AcDbSymbolTableRecord
100
AcDbDimStyleTableRecord
  2
ME10_DIM_18
 70
     0
 41
3.5
 42
0.0
 44
2.0
 73
     0
 74
     0
 77
     1
 78
     8
140
3.5
147
2.0
172
     1
173
     1
176
     2
177
     2
178
     2
271
     2
340
178
  0
DIMSTYLE
105
1EA
102
{ACAD_REACTORS
330
1EB
102
}
330
A
100
AcDbSymbolTableRecord
100
AcDbDimStyleTableRecord
  2
ME10_DIM_19
 70
     0
 41
3.5
 42
0.0
 44
2.0
 73
     0
 74
     0
 77
     1
 78
     8
140
3.5
147
2.0
172
     1
173
     1
176
     2
177
     2
178
     2
271
     2
340
178
  0
DIMSTYLE
105
1F7
102
{ACAD_REACTORS
330
1F8
102
}
330
A
100
AcDbSymbolTableRecord
100
AcDbDimStyleTableRecord
  2
ME10_DIM_20
 70
     0
 41
3.5
 42
0.0
 44
2.0
 73
     0
 74
     0
 77
     1
 78
     8
140
3.5
147
2.0
172
     1
173
     1
176
     2
177
     2
178
     2
271
     2
340
178
  0
DIMSTYLE
105
202
102
{ACAD_REACTORS
330
203
102
}
330
A
100
AcDbSymbolTableRecord
100
AcDbDimStyleTableRecord
  2
ME10_DIM_21
 70
     0
 41
3.5
 42
0.0
 44
2.0
 73
     0
 74
     0
 77
     1
 78
     8
140
3.5
147
2.0
172
     1
173
     1
176
     2
177
     2
178
     2
271
     2
340
178
  0
DIMSTYLE
105
20D
102
{ACAD_REACTORS
330
20E
102
}
330
A
100
AcDbSymbolTableRecord
100
AcDbDimStyleTableRecord
  2
ME10_DIM_22
 70
     0
 41
3.5
 42
0.0
 44
2.0
 73
     0
 74
     0
 77
     1
 78
     8
140
3.5
147
2.0
172
     1
173
     1
176
     2
177
     2
178
     2
271
     3
340
178
  0
DIMSTYLE
105
21A
102
{ACAD_REACTORS
330
21B
102
}
330
A
100
AcDbSymbolTableRecord
100
AcDbDimStyleTableRecord
  2
ME10_DIM_23
 70
     0
 41
3.5
 42
0.0
 44
2.0
 73
     0
 74
     0
 77
     1
 78
     8
140
3.5
147
2.0
172
     1
173
     1
176
     2
177
     2
178
     2
271
     3
340
178
  0
DIMSTYLE
105
225
102
{ACAD_REACTORS
330
226
102
}
330
A
100
AcDbSymbolTableRecord
100
AcDbDimStyleTableRecord
  2
ME10_DIM_24
 70
     0
 41
3.5
 42
0.0
 44
2.0
 73
     0
 74
     0
 77
     1
 78
     8
140
3.5
147
2.0
172
     1
173
     1
176
     2
177
     2
178
     2
271
     3
340
178
  0
DIMSTYLE
105
230
102
{ACAD_REACTORS
330
231
102
}
330
A
100
AcDbSymbolTableRecord
100
AcDbDimStyleTableRecord
  2
ME10_DIM_25
 70
     0
 41
3.5
 42
0.0
 44
2.0
 73
     0
 74
     0
 77
     1
 78
     8
140
3.5
147
2.0
172
     1
173
     1
176
     2
177
     2
178
     2
271
     3
340
178
  0
DIMSTYLE
105
23B
102
{ACAD_REACTORS
330
23C
102
}
330
A
100
AcDbSymbolTableRecord
100
AcDbDimStyleTableRecord
  2
ME10_DIM_26
 70
     0
 41
3.5
 42
0.0
 44
2.0
 73
     0
 74
     0
 77
     1
 78
     8
140
3.5
147
2.0
172
     1
173
     1
176
     2
177
     2
178
     2
271
     3
340
178
  0
DIMSTYLE
105
246
102
{ACAD_REACTORS
330
247
102
}
330
A
100
AcDbSymbolTableRecord
100
AcDbDimStyleTableRecord
  2
ME10_DIM_27
 70
     0
 41
3.5
 42
0.0
 44
2.0
 73
     0
 74
     0
 77
     1
 78
     8
140
3.5
147
2.0
172
     1
173
     1
176
     2
177
     2
178
     2
271
     3
340
178
  0
DIMSTYLE
105
253
102
{ACAD_REACTORS
330
254
102
}
330
A
100
AcDbSymbolTableRecord
100
AcDbDimStyleTableRecord
  2
ME10_DIM_28
 70
     0
 41
3.5
 42
0.0
 44
2.0
 73
     0
 74
     0
 77
     1
 78
     8
140
3.5
147
2.0
172
     1
173
     1
176
     2
177
     2
178
     2
271
     2
340
178
  0
DIMSTYLE
105
25E
102
{ACAD_REACTORS
330
25F
102
}
330
A
100
AcDbSymbolTableRecord
100
AcDbDimStyleTableRecord
  2
ME10_DIM_29
 70
     0
 41
3.5
 42
0.0
 44
2.0
 73
     0
 74
     0
 77
     1
 78
     8
140
3.5
147
2.0
172
     1
173
     1
176
     2
177
     2
178
     2
271
     2
340
178
  0
DIMSTYLE
105
269
102
{ACAD_REACTORS
330
26A
102
}
330
A
100
AcDbSymbolTableRecord
100
AcDbDimStyleTableRecord
  2
ME10_DIM_30
 70
     0
 41
3.5
 42
0.0
 44
2.0
 73
     0
 74
     0
 77
     1
 78
     8
140
3.5
147
2.0
172
     1
173
     1
176
     2
177
     2
178
     2
271
     3
340
178
  0
ENDTAB
  0
TABLE
  2
BLOCK_RECORD
  5
1
330
0
100
AcDbSymbolTable
 70
    28
  0
BLOCK_RECORD
  5
1F
330
1
100
AcDbSymbolTableRecord
100
AcDbBlockTableRecord
  2
*Model_Space
340
22
  0
BLOCK_RECORD
  5
1B
330
1
100
AcDbSymbolTableRecord
100
AcDbBlockTableRecord
  2
*Paper_Space
340
1E
  0
BLOCK_RECORD
  5
23
330
1
100
AcDbSymbolTableRecord
100
AcDbBlockTableRecord
  2
*Paper_Space0
340
26
  0
BLOCK_RECORD
  5
17C
330
1
100
AcDbSymbolTableRecord
100
AcDbBlockTableRecord
  2
*D1
340
0
  0
BLOCK_RECORD
  5
187
330
1
100
AcDbSymbolTableRecord
100
AcDbBlockTableRecord
  2
*D2
340
0
  0
BLOCK_RECORD
  5
192
330
1
100
AcDbSymbolTableRecord
100
AcDbBlockTableRecord
  2
*D3
340
0
  0
BLOCK_RECORD
  5
19F
330
1
100
AcDbSymbolTableRecord
100
AcDbBlockTableRecord
  2
*D4
340
0
  0
BLOCK_RECORD
  5
1AA
330
1
100
AcDbSymbolTableRecord
100
AcDbBlockTableRecord
  2
*D5
340
0
  0
BLOCK_RECORD
  5
1B5
330
1
100
AcDbSymbolTableRecord
100
AcDbBlockTableRecord
  2
*D6
340
0
  0
BLOCK_RECORD
  5
1C0
330
1
100
AcDbSymbolTableRecord
100
AcDbBlockTableRecord
  2
*D7
340
0
  0
BLOCK_RECORD
  5
1CB
330
1
100
AcDbSymbolTableRecord
100
AcDbBlockTableRecord
  2
*D8
340
0
  0
BLOCK_RECORD
  5
1D6
330
1
100
AcDbSymbolTableRecord
100
AcDbBlockTableRecord
  2
*D9
340
0
  0
BLOCK_RECORD
  5
1E1
330
1
100
AcDbSymbolTableRecord
100
AcDbBlockTableRecord
  2
*D10
340
0
  0
BLOCK_RECORD
  5
1EC
330
1
100
AcDbSymbolTableRecord
100
AcDbBlockTableRecord
  2
*D11
340
0
  0
BLOCK_RECORD
  5
1F9
330
1
100
AcDbSymbolTableRecord
100
AcDbBlockTableRecord
  2
*D12
340
0
  0
BLOCK_RECORD
  5
204
330
1
100
AcDbSymbolTableRecord
100
AcDbBlockTableRecord
  2
*D13
340
0
  0
BLOCK_RECORD
  5
20F
330
1
100
AcDbSymbolTableRecord
100
AcDbBlockTableRecord
  2
*D14
340
0
  0
BLOCK_RECORD
  5
21C
330
1
100
AcDbSymbolTableRecord
100
AcDbBlockTableRecord
  2
*D15
340
0
  0
BLOCK_RECORD
  5
227
330
1
100
AcDbSymbolTableRecord
100
AcDbBlockTableRecord
  2
*D16
340
0
  0
BLOCK_RECORD
  5
232
330
1
100
AcDbSymbolTableRecord
100
AcDbBlockTableRecord
  2
*D17
340
0
  0
BLOCK_RECORD
  5
23D
330
1
100
AcDbSymbolTableRecord
100
AcDbBlockTableRecord
  2
*D18
340
0
  0
BLOCK_RECORD
  5
248
330
1
100
AcDbSymbolTableRecord
100
AcDbBlockTableRecord
  2
*D19
340
0
  0
BLOCK_RECORD
  5
255
330
1
100
AcDbSymbolTableRecord
100
AcDbBlockTableRecord
  2
*D20
340
0
  0
BLOCK_RECORD
  5
260
330
1
100
AcDbSymbolTableRecord
100
AcDbBlockTableRecord
  2
*D21
340
0
  0
BLOCK_RECORD
  5
26B
330
1
100
AcDbSymbolTableRecord
100
AcDbBlockTableRecord
  2
*D22
340
0
102
{BLKREFS
331
271
102
}
  0
BLOCK_RECORD
  5
272
330
1
100
AcDbSymbolTableRecord
100
AcDbBlockTableRecord
  2
*D23
340
0
102
{BLKREFS
331
278
102
}
  0
BLOCK_RECORD
  5
279
330
1
100
AcDbSymbolTableRecord
100
AcDbBlockTableRecord
  2
*D24
340
0
102
{BLKREFS
331
280
102
}
  0
BLOCK_RECORD
  5
281
330
1
100
AcDbSymbolTableRecord
100
AcDbBlockTableRecord
  2
*D25
340
0
102
{BLKREFS
331
288
102
}
  0
BLOCK_RECORD
  5
289
330
1
100
AcDbSymbolTableRecord
100
AcDbBlockTableRecord
  2
*D26
340
0
102
{BLKREFS
331
291
102
}
  0
BLOCK_RECORD
  5
292
330
1
100
AcDbSymbolTableRecord
100
AcDbBlockTableRecord
  2
*D27
340
0
102
{BLKREFS
331
29B
102
}
  0
ENDTAB
  0
ENDSEC
  0
SECTION
  2
BLOCKS
  0
BLOCK
  5
20
330
1F
100
AcDbEntity
  8
0
100
AcDbBlockBegin
  2
*Model_Space
 70
     0
 71
     0
 10
0.0
 20
0.0
 30
0.0
  3
*Model_Space
  1

  0
ENDBLK
  5
21
330
1F
100
AcDbEntity
  8
0
100
AcDbBlockEnd
  0
BLOCK
  5
1C
330
1B
100
AcDbEntity
 67
     1
  8
0
100
AcDbBlockBegin
  2
*Paper_Space
 70
     0
 71
     0
 10
0.0
 20
0.0
 30
0.0
  3
*Paper_Space
  1

  0
ENDBLK
  5
1D
330
1B
100
AcDbEntity
 67
     1
  8
0
100
AcDbBlockEnd
  0
BLOCK
  5
24
330
23
100
AcDbEntity
  8
0
100
AcDbBlockBegin
  2
*Paper_Space0
 70
     0
 71
     0
 10
0.0
 20
0.0
 30
0.0
  3
*Paper_Space0
  1

  0
ENDBLK
  5
25
330
23
100
AcDbEntity
  8
0
100
AcDbBlockEnd
  0
BLOCK
  5
183
330
17C
100
AcDbEntity
  8
0
100
AcDbBlockBegin
  2
*D1
 70
     1
 71
     0
 10
0.0
 20
0.0
 30
0.0
  3
*D1
  1

  0
LINE
  5
17D
330
17C
100
AcDbEntity
  8
1
  6
Continuous
 62
     2
100
AcDbLine
 10
-188.9148523042701
 20
35.9351702982229
 30
0.0
 11
-170.9148523042701
 21
35.9351702982229
 31
0.0
  0
LINE
  5
17E
330
17C
100
AcDbEntity
  8
1
  6
Continuous
 62
     2
100
AcDbLine
 10
-188.9148523042701
 20
52.13535147101111
 30
0.0
 11
-188.9148523042701
 21
33.9351702982229
 31
0.0
  0
LINE
  5
17F
330
17C
100
AcDbEntity
  8
1
  6
Continuous
 62
     2
100
AcDbLine
 10
-170.9148523042701
 20
52.13535147101111
 30
0.0
 11
-170.9148523042701
 21
33.9351702982229
 31
0.0
  0
SOLID
  5
180
330
17C
100
AcDbEntity
  8
1
 62
     2
100
AcDbTrace
 10
-185.4148523042701
 20
36.39595403977879
 30
0.0
 11
-185.4148523042701
 21
35.47438655666701
 31
0.0
 12
-188.9148523042701
 22
35.9351702982229
 32
0.0
 13
-188.9148523042701
 23
35.9351702982229
 33
0.0
  0
SOLID
  5
181
330
17C
100
AcDbEntity
  8
1
 62
     2
100
AcDbTrace
 10
-174.4148523042701
 20
35.47438655666701
 30
0.0
 11
-174.4148523042701
 21
36.39595403977879
 31
0.0
 12
-170.9148523042701
 22
35.9351702982229
 32
0.0
 13
-170.9148523042701
 23
35.9351702982229
 33
0.0
  0
MTEXT
  5
182
330
17C
100
AcDbEntity
  8
1
 62
     2
100
AcDbMText
 10
-185.691433398381
 20
37.9351702982229
 30
0.0
 40
3.5
 41
0.0
 71
     7
 72
     1
  1
18
  7
CONVERTER_11
 11
0.9999999999970621
 21
2.424068405545307E-6
 31
0.0
 73
     1
 44
0.60024009603842
  0
ENDBLK
  5
184
330
17C
100
AcDbEntity
  8
0
100
AcDbBlockEnd
  0
BLOCK
  5
18E
330
187
100
AcDbEntity
  8
0
100
AcDbBlockBegin
  2
*D2
 70
     1
 71
     0
 10
0.0
 20
0.0
 30
0.0
  3
*D2
  1

  0
LINE
  5
188
330
187
100
AcDbEntity
  8
1
  6
Continuous
 62
     2
100
AcDbLine
 10
157.287843915321
 20
34.5451568829076
 30
0.0
 11
139.287843915321
 21
34.5451568829076
 31
0.0
  0
LINE
  5
189
330
187
100
AcDbEntity
  8
1
  6
Continuous
 62
     2
100
AcDbLine
 10
157.287843915321
 20
52.13535147101105
 30
0.0
 11
157.287843915321
 21
32.5451568829076
 31
0.0
  0
LINE
  5
18A
330
187
100
AcDbEntity
  8
1
  6
Continuous
 62
     2
100
AcDbLine
 10
139.287843915321
 20
52.13535147101105
 30
0.0
 11
139.287843915321
 21
32.5451568829076
 31
0.0
  0
SOLID
  5
18B
330
187
100
AcDbEntity
  8
1
 62
     2
100
AcDbTrace
 10
153.787843915321
 20
34.08437314135171
 30
0.0
 11
153.787843915321
 21
35.00594062446348
 31
0.0
 12
157.287843915321
 22
34.5451568829076
 32
0.0
 13
157.287843915321
 23
34.5451568829076
 33
0.0
  0
SOLID
  5
18C
330
187
100
AcDbEntity
  8
1
 62
     2
100
AcDbTrace
 10
142.787843915321
 20
35.00594062446348
 30
0.0
 11
142.787843915321
 21
34.08437314135171
 31
0.0
 12
139.287843915321
 22
34.5451568829076
 32
0.0
 13
139.287843915321
 23
34.5451568829076
 33
0.0
  0
MTEXT
  5
18D
330
187
100
AcDbEntity
  8
1
 62
     2
100
AcDbMText
 10
150.7495599028962
 20
36.5451568829076
 30
0.0
 40
3.5
 41
0.0
 71
     7
 72
     1
  1
18
  7
CONVERTER_11
 11
0.9999999999970621
 21
2.424068405545307E-6
 31
0.0
 73
     1
 44
0.60024009603842
  0
ENDBLK
  5
18F
330
187
100
AcDbEntity
  8
0
100
AcDbBlockEnd
  0
BLOCK
  5
19B
330
192
100
AcDbEntity
  8
0
100
AcDbBlockBegin
  2
*D3
 70
     1
 71
     0
 10
0.0
 20
0.0
 30
0.0
  3
*D3
  1

  0
LINE
  5
193
330
192
100
AcDbEntity
  8
1
  6
Continuous
 62
     2
100
AcDbLine
 10
23.4118579323537
 20
-99.68918859156351
 30
0.0
 11
23.4118579323537
 21
-92.68918859156351
 31
0.0
  0
LINE
  5
194
330
192
100
AcDbEntity
  8
1
  6
Continuous
 62
     2
100
AcDbLine
 10
23.4118579323537
 20
-92.68918859156351
 30
0.0
 11
23.4118579323537
 21
-87.68918859156354
 31
0.0
  0
LINE
  5
195
330
192
100
AcDbEntity
  8
1
  6
Continuous
 62
     2
100
AcDbLine
 10
23.4118579323537
 20
-87.68918859156354
 30
0.0
 11
23.4118579323537
 21
-80.68918859156354
 31
0.0
  0
LINE
  5
196
330
192
100
AcDbEntity
  8
1
  6
Continuous
 62
     2
100
AcDbLine
 10
43.83123967983067
 20
-92.68918859156351
 30
0.0
 11
21.4118579323537
 21
-92.68918859156351
 31
0.0
  0
LINE
  5
197
330
192
100
AcDbEntity
  8
1
  6
Continuous
 62
     2
100
AcDbLine
 10
39.83123967983047
 20
-87.68918859156354
 30
0.0
 11
21.4118579323537
 21
-87.68918859156354
 31
0.0
  0
SOLID
  5
198
330
192
100
AcDbEntity
  8
1
 62
     2
100
AcDbTrace
 10
23.87264167390958
 20
-96.18918859156351
 30
0.0
 11
22.95107419079782
 21
-96.18918859156351
 31
0.0
 12
23.4118579323537
 22
-92.68918859156351
 32
0.0
 13
23.4118579323537
 23
-92.68918859156351
 33
0.0
  0
SOLID
  5
199
330
192
100
AcDbEntity
  8
1
 62
     2
100
AcDbTrace
 10
22.95107419079782
 20
-84.18918859156354
 30
0.0
 11
23.87264167390959
 21
-84.18918859156354
 31
0.0
 12
23.4118579323537
 22
-87.68918859156354
 32
0.0
 13
23.4118579323537
 23
-87.68918859156354
 33
0.0
  0
MTEXT
  5
19A
330
192
100
AcDbEntity
  8
1
 62
     2
100
AcDbMText
 10
21.4118579323537
 20
-84.226156920623
 30
0.0
 40
3.5
 41
0.0
 71
     7
 72
     1
  1
5
  7
CONVERTER_11
 11
0.0
 21
1.0
 31
0.0
 73
     1
 44
0.60024009603842
  0
ENDBLK
  5
19C
330
192
100
AcDbEntity
  8
0
100
AcDbBlockEnd
  0
BLOCK
  5
1A6
330
19F
100
AcDbEntity
  8
0
100
AcDbBlockBegin
  2
*D4
 70
     1
 71
     0
 10
0.0
 20
0.0
 30
0.0
  3
*D4
  1

  0
LINE
  5
1A0
330
19F
100
AcDbEntity
  8
1
  6
Continuous
 62
     2
100
AcDbLine
 10
164.287843915321
 20
-128.729476198668
 30
0.0
 11
132.287843915321
 21
-128.729476198668
 31
0.0
  0
LINE
  5
1A1
330
19F
100
AcDbEntity
  8
1
  6
Continuous
 62
     2
100
AcDbLine
 10
164.287843915321
 20
-94.61464852898891
 30
0.0
 11
164.287843915321
 21
-130.729476198668
 31
0.0
  0
LINE
  5
1A2
330
19F
100
AcDbEntity
  8
1
  6
Continuous
 62
     2
100
AcDbLine
 10
132.287843915321
 20
-94.61464852898891
 30
0.0
 11
132.287843915321
 21
-130.729476198668
 31
0.0
  0
SOLID
  5
1A3
330
19F
100
AcDbEntity
  8
1
 62
     2
100
AcDbTrace
 10
160.787843915321
 20
-129.1902599402239
 30
0.0
 11
160.787843915321
 21
-128.2686924571121
 31
0.0
 12
164.287843915321
 22
-128.729476198668
 32
0.0
 13
164.287843915321
 23
-128.729476198668
 33
0.0
  0
SOLID
  5
1A4
330
19F
100
AcDbEntity
  8
1
 62
     2
100
AcDbTrace
 10
135.787843915321
 20
-128.2686924571121
 30
0.0
 11
135.787843915321
 21
-129.1902599402239
 31
0.0
 12
132.287843915321
 22
-128.729476198668
 32
0.0
 13
132.287843915321
 23
-128.729476198668
 33
0.0
  0
MTEXT
  5
1A5
330
19F
100
AcDbEntity
  8
1
 62
     2
100
AcDbMText
 10
146.7311631501281
 20
-126.729476198668
 30
0.0
 40
3.5
 41
0.0
 71
     7
 72
     1
  1
32
  7
CONVERTER_11
 11
0.9999999999970621
 21
2.424068405545307E-6
 31
0.0
 73
     1
 44
0.60024009603842
  0
ENDBLK
  5
1A7
330
19F
100
AcDbEntity
  8
0
100
AcDbBlockEnd
  0
BLOCK
  5
1B1
330
1AA
100
AcDbEntity
  8
0
100
AcDbBlockBegin
  2
*D5
 70
     1
 71
     0
 10
0.0
 20
0.0
 30
0.0
  3
*D5
  1

  0
LINE
  5
1AB
330
1AA
100
AcDbEntity
  8
1
  6
Continuous
 62
     2
100
AcDbLine
 10
124.3742114205561
 20
47.88535147101105
 30
0.0
 11
124.3742114205561
 21
-89.11464852898895
 31
0.0
  0
LINE
  5
1AC
330
1AA
100
AcDbEntity
  8
1
  6
Continuous
 62
     2
100
AcDbLine
 10
144.287843915321
 20
47.88535147101105
 30
0.0
 11
122.3742114205561
 21
47.88535147101105
 31
0.0
  0
LINE
  5
1AD
330
1AA
100
AcDbEntity
  8
1
  6
Continuous
 62
     2
100
AcDbLine
 10
144.287843915321
 20
-89.11464852898895
 30
0.0
 11
122.3742114205561
 21
-89.11464852898895
 31
0.0
  0
SOLID
  5
1AE
330
1AA
100
AcDbEntity
  8
1
 62
     2
100
AcDbTrace
 10
124.834995162112
 20
44.38535147101105
 30
0.0
 11
123.9134276790002
 21
44.38535147101105
 31
0.0
 12
124.3742114205561
 22
47.88535147101105
 32
0.0
 13
124.3742114205561
 23
47.88535147101105
 33
0.0
  0
SOLID
  5
1AF
330
1AA
100
AcDbEntity
  8
1
 62
     2
100
AcDbTrace
 10
123.9134276790002
 20
-85.61464852898895
 30
0.0
 11
124.834995162112
 21
-85.61464852898895
 31
0.0
 12
124.3742114205561
 22
-89.11464852898895
 32
0.0
 13
124.3742114205561
 23
-89.11464852898895
 33
0.0
  0
MTEXT
  5
1B0
330
1AA
100
AcDbEntity
  8
1
 62
     2
100
AcDbMText
 10
122.3742114205561
 20
-19.21032038282324
 30
0.0
 40
3.5
 41
0.0
 71
     7
 72
     1
  1
197
  7
CONVERTER_11
 11
0.0
 21
1.0
 31
0.0
 73
     1
 44
0.60024009603842
  0
ENDBLK
  5
1B2
330
1AA
100
AcDbEntity
  8
0
100
AcDbBlockEnd
  0
BLOCK
  5
1BC
330
1B5
100
AcDbEntity
  8
0
100
AcDbBlockBegin
  2
*D6
 70
     1
 71
     0
 10
0.0
 20
0.0
 30
0.0
  3
*D6
  1

  0
LINE
  5
1B6
330
1B5
100
AcDbEntity
  8
1
  6
Continuous
 62
     2
100
AcDbLine
 10
54.57451042159308
 20
-138.6142090488623
 30
0.0
 11
98.57451042159306
 21
-138.6142090488623
 31
0.0
  0
LINE
  5
1B7
330
1B5
100
AcDbEntity
  8
1
  6
Continuous
 62
     2
100
AcDbLine
 10
54.57451042159308
 20
-110.614648528989
 30
0.0
 11
54.57451042159308
 21
-140.6142090488623
 31
0.0
  0
LINE
  5
1B8
330
1B5
100
AcDbEntity
  8
1
  6
Continuous
 62
     2
100
AcDbLine
 10
98.57451042159306
 20
-89.11464852898894
 30
0.0
 11
98.57451042159306
 21
-140.6142090488623
 31
0.0
  0
SOLID
  5
1B9
330
1B5
100
AcDbEntity
  8
1
 62
     2
100
AcDbTrace
 10
58.07451042159308
 20
-138.1534253073064
 30
0.0
 11
58.07451042159308
 21
-139.0749927904182
 31
0.0
 12
54.57451042159308
 22
-138.6142090488623
 32
0.0
 13
54.57451042159308
 23
-138.6142090488623
 33
0.0
  0
SOLID
  5
1BA
330
1B5
100
AcDbEntity
  8
1
 62
     2
100
AcDbTrace
 10
95.07451042159306
 20
-139.0749927904182
 30
0.0
 11
95.07451042159306
 21
-138.1534253073064
 31
0.0
 12
98.57451042159306
 22
-138.6142090488623
 32
0.0
 13
98.57451042159306
 23
-138.6142090488623
 33
0.0
  0
MTEXT
  5
1BB
330
1B5
100
AcDbEntity
  8
1
 62
     2
100
AcDbMText
 10
74.01878923730678
 20
-136.6142090488623
 30
0.0
 40
3.5
 41
0.0
 71
     7
 72
     1
  1
44
  7
CONVERTER_11
 11
0.9999999999970621
 21
2.424068405545307E-6
 31
0.0
 73
     1
 44
0.60024009603842
  0
ENDBLK
  5
1BD
330
1B5
100
AcDbEntity
  8
0
100
AcDbBlockEnd
  0
BLOCK
  5
1C7
330
1C0
100
AcDbEntity
  8
0
100
AcDbBlockBegin
  2
*D7
 70
     1
 71
     0
 10
0.0
 20
0.0
 30
0.0
  3
*D7
  1

  0
LINE
  5
1C1
330
1C0
100
AcDbEntity
  8
1
  6
Continuous
 62
     2
100
AcDbLine
 10
64.5745104215931
 20
-128.729476198668
 30
0.0
 11
54.5745104215931
 21
-128.729476198668
 31
0.0
  0
LINE
  5
1C2
330
1C0
100
AcDbEntity
  8
1
  6
Continuous
 62
     2
100
AcDbLine
 10
54.5745104215931
 20
-120.614648528989
 30
0.0
 11
54.5745104215931
 21
-130.729476198668
 31
0.0
  0
LINE
  5
1C3
330
1C0
100
AcDbEntity
  8
1
  6
Continuous
 62
     2
100
AcDbLine
 10
64.5745104215931
 20
-110.614648528989
 30
0.0
 11
64.5745104215931
 21
-130.729476198668
 31
0.0
  0
SOLID
  5
1C4
330
1C0
100
AcDbEntity
  8
1
 62
     2
100
AcDbTrace
 10
61.0745104215931
 20
-129.1902599402239
 30
0.0
 11
61.0745104215931
 21
-128.2686924571121
 31
0.0
 12
64.5745104215931
 22
-128.729476198668
 32
0.0
 13
64.5745104215931
 23
-128.729476198668
 33
0.0
  0
SOLID
  5
1C5
330
1C0
100
AcDbEntity
  8
1
 62
     2
100
AcDbTrace
 10
58.0745104215931
 20
-128.2686924571121
 30
0.0
 11
58.0745104215931
 21
-129.1902599402239
 31
0.0
 12
54.5745104215931
 22
-128.729476198668
 32
0.0
 13
54.5745104215931
 23
-128.729476198668
 33
0.0
  0
MTEXT
  5
1C6
330
1C0
100
AcDbEntity
  8
1
 62
     2
100
AcDbMText
 10
57.95602208558331
 20
-126.729476198668
 30
0.0
 40
3.5
 41
0.0
 71
     7
 72
     1
  1
10
  7
CONVERTER_11
 11
0.9999999999970621
 21
2.424068405545307E-6
 31
0.0
 73
     1
 44
0.60024009603842
  0
ENDBLK
  5
1C8
330
1C0
100
AcDbEntity
  8
0
100
AcDbBlockEnd
  0
BLOCK
  5
1D2
330
1CB
100
AcDbEntity
  8
0
100
AcDbBlockBegin
  2
*D8
 70
     1
 71
     0
 10
0.0
 20
0.0
 30
0.0
  3
*D8
  1

  0
LINE
  5
1CC
330
1CB
100
AcDbEntity
  8
1
  6
Continuous
 62
     2
100
AcDbLine
 10
-145.307968487826
 20
-89.11464852898872
 30
0.0
 11
-145.307968487826
 21
47.88535147101111
 31
0.0
  0
LINE
  5
1CD
330
1CB
100
AcDbEntity
  8
1
  6
Continuous
 62
     2
100
AcDbLine
 10
-175.9148523042697
 20
-89.11464852898871
 30
0.0
 11
-143.307968487826
 21
-89.11464852898871
 31
0.0
  0
LINE
  5
1CE
330
1CB
100
AcDbEntity
  8
1
  6
Continuous
 62
     2
100
AcDbLine
 10
-175.91485230427
 20
47.88535147101111
 30
0.0
 11
-143.307968487826
 21
47.88535147101111
 31
0.0
  0
SOLID
  5
1CF
330
1CB
100
AcDbEntity
  8
1
 62
     2
100
AcDbTrace
 10
-145.7687522293819
 20
-85.61464852898872
 30
0.0
 11
-144.8471847462701
 21
-85.61464852898872
 31
0.0
 12
-145.307968487826
 22
-89.11464852898872
 32
0.0
 13
-145.307968487826
 23
-89.11464852898872
 33
0.0
  0
SOLID
  5
1D0
330
1CB
100
AcDbEntity
  8
1
 62
     2
100
AcDbTrace
 10
-144.8471847462701
 20
44.38535147101111
 30
0.0
 11
-145.7687522293819
 21
44.38535147101111
 31
0.0
 12
-145.307968487826
 22
47.88535147101111
 32
0.0
 13
-145.307968487826
 23
47.88535147101111
 33
0.0
  0
MTEXT
  5
1D1
330
1CB
100
AcDbEntity
  8
1
 62
     2
100
AcDbMText
 10
-147.307968487826
 20
-22.35376919362649
 30
0.0
 40
3.5
 41
0.0
 71
     7
 72
     1
  1
197
  7
CONVERTER_11
 11
0.0
 21
1.0
 31
0.0
 73
     1
 44
0.60024009603842
  0
ENDBLK
  5
1D3
330
1CB
100
AcDbEntity
  8
0
100
AcDbBlockEnd
  0
BLOCK
  5
1DD
330
1D6
100
AcDbEntity
  8
0
100
AcDbBlockBegin
  2
*D9
 70
     1
 71
     0
 10
0.0
 20
0.0
 30
0.0
  3
*D9
  1

  0
LINE
  5
1D7
330
1D6
100
AcDbEntity
  8
1
  6
Continuous
 62
     2
100
AcDbLine
 10
-122.444265640198
 20
69.3853514710111
 30
0.0
 11
-122.444265640198
 21
-110.6146485289887
 31
0.0
  0
LINE
  5
1D8
330
1D6
100
AcDbEntity
  8
1
  6
Continuous
 62
     2
100
AcDbLine
 10
-179.91485230427
 20
69.38535147101109
 30
0.0
 11
-120.444265640198
 21
69.38535147101109
 31
0.0
  0
LINE
  5
1D9
330
1D6
100
AcDbEntity
  8
1
  6
Continuous
 62
     2
100
AcDbLine
 10
-179.9148523042697
 20
-110.6146485289887
 30
0.0
 11
-120.444265640198
 21
-110.6146485289887
 31
0.0
  0
SOLID
  5
1DA
330
1D6
100
AcDbEntity
  8
1
 62
     2
100
AcDbTrace
 10
-121.9834818986421
 20
65.8853514710111
 30
0.0
 11
-122.9050493817539
 21
65.8853514710111
 31
0.0
 12
-122.444265640198
 22
69.3853514710111
 32
0.0
 13
-122.444265640198
 23
69.3853514710111
 33
0.0
  0
SOLID
  5
1DB
330
1D6
100
AcDbEntity
  8
1
 62
     2
100
AcDbTrace
 10
-122.9050493817539
 20
-107.1146485289887
 30
0.0
 11
-121.9834818986421
 21
-107.1146485289887
 31
0.0
 12
-122.444265640198
 22
-110.6146485289887
 32
0.0
 13
-122.444265640198
 23
-110.6146485289887
 33
0.0
  0
MTEXT
  5
1DC
330
1D6
100
AcDbEntity
  8
1
 62
     2
100
AcDbMText
 10
-124.444265640198
 20
-24.45914290622809
 30
0.0
 40
3.5
 41
0.0
 71
     7
 72
     1
  1
240
  7
CONVERTER_11
 11
0.0
 21
1.0
 31
0.0
 73
     1
 44
0.60024009603842
  0
ENDBLK
  5
1DE
330
1D6
100
AcDbEntity
  8
0
100
AcDbBlockEnd
  0
BLOCK
  5
1E8
330
1E1
100
AcDbEntity
  8
0
100
AcDbBlockBegin
  2
*D10
 70
     1
 71
     0
 10
0.0
 20
0.0
 30
0.0
  3
*D10
  1

  0
LINE
  5
1E2
330
1E1
100
AcDbEntity
  8
1
  6
Continuous
 62
     2
100
AcDbLine
 10
-84.35733264471742
 20
-130.2566310837739
 30
0.0
 11
-74.35733264471742
 21
-130.2566310837739
 31
0.0
  0
LINE
  5
1E3
330
1E1
100
AcDbEntity
  8
1
  6
Continuous
 62
     2
100
AcDbLine
 10
-84.35733264471742
 20
-110.6146485289887
 30
0.0
 11
-84.35733264471742
 21
-132.2566310837739
 31
0.0
  0
LINE
  5
1E4
330
1E1
100
AcDbEntity
  8
1
  6
Continuous
 62
     2
100
AcDbLine
 10
-74.35733264471742
 20
-120.614648528989
 30
0.0
 11
-74.35733264471742
 21
-132.2566310837739
 31
0.0
  0
SOLID
  5
1E5
330
1E1
100
AcDbEntity
  8
1
 62
     2
100
AcDbTrace
 10
-80.85733264471742
 20
-129.795847342218
 30
0.0
 11
-80.85733264471742
 21
-130.7174148253298
 31
0.0
 12
-84.35733264471742
 22
-130.2566310837739
 32
0.0
 13
-84.35733264471742
 23
-130.2566310837739
 33
0.0
  0
SOLID
  5
1E6
330
1E1
100
AcDbEntity
  8
1
 62
     2
100
AcDbTrace
 10
-77.85733264471742
 20
-130.7174148253298
 30
0.0
 11
-77.85733264471742
 21
-129.795847342218
 31
0.0
 12
-74.35733264471742
 22
-130.2566310837739
 32
0.0
 13
-74.35733264471742
 23
-130.2566310837739
 33
0.0
  0
MTEXT
  5
1E7
330
1E1
100
AcDbEntity
  8
1
 62
     2
100
AcDbMText
 10
-82.38969881964928
 20
-128.2566310837739
 30
0.0
 40
3.5
 41
0.0
 71
     7
 72
     1
  1
10
  7
CONVERTER_11
 11
0.9999999999970621
 21
2.424068405545307E-6
 31
0.0
 73
     1
 44
0.60024009603842
  0
ENDBLK
  5
1E9
330
1E1
100
AcDbEntity
  8
0
100
AcDbBlockEnd
  0
BLOCK
  5
1F5
330
1EC
100
AcDbEntity
  8
0
100
AcDbBlockBegin
  2
*D11
 70
     1
 71
     0
 10
0.0
 20
0.0
 30
0.0
  3
*D11
  1

  0
LINE
  5
1ED
330
1EC
100
AcDbEntity
  8
1
  6
Continuous
 62
     2
100
AcDbLine
 10
-30.17515141969547
 20
-99.68918859156351
 30
0.0
 11
-30.17515141969547
 21
-92.68918859156351
 31
0.0
  0
LINE
  5
1EE
330
1EC
100
AcDbEntity
  8
1
  6
Continuous
 62
     2
100
AcDbLine
 10
-30.17515141969547
 20
-92.68918859156351
 30
0.0
 11
-30.17515141969547
 21
-87.68918859156351
 31
0.0
  0
LINE
  5
1EF
330
1EC
100
AcDbEntity
  8
1
  6
Continuous
 62
     2
100
AcDbLine
 10
-30.17515141969547
 20
-87.68918859156351
 30
0.0
 11
-30.17515141969547
 21
-80.68918859156351
 31
0.0
  0
LINE
  5
1F0
330
1EC
100
AcDbEntity
  8
1
  6
Continuous
 62
     2
100
AcDbLine
 10
-52.66876032016923
 20
-92.68918859156351
 30
0.0
 11
-28.17515141969547
 21
-92.68918859156351
 31
0.0
  0
LINE
  5
1F1
330
1EC
100
AcDbEntity
  8
1
  6
Continuous
 62
     2
100
AcDbLine
 10
-49.66876032016918
 20
-87.68918859156351
 30
0.0
 11
-28.17515141969547
 21
-87.68918859156351
 31
0.0
  0
SOLID
  5
1F2
330
1EC
100
AcDbEntity
  8
1
 62
     2
100
AcDbTrace
 10
-29.71436767813959
 20
-96.18918859156351
 30
0.0
 11
-30.63593516125136
 21
-96.18918859156351
 31
0.0
 12
-30.17515141969547
 22
-92.68918859156351
 32
0.0
 13
-30.17515141969547
 23
-92.68918859156351
 33
0.0
  0
SOLID
  5
1F3
330
1EC
100
AcDbEntity
  8
1
 62
     2
100
AcDbTrace
 10
-30.63593516125136
 20
-84.18918859156351
 30
0.0
 11
-29.71436767813959
 21
-84.18918859156351
 31
0.0
 12
-30.17515141969547
 22
-87.68918859156351
 32
0.0
 13
-30.17515141969547
 23
-87.68918859156351
 33
0.0
  0
MTEXT
  5
1F4
330
1EC
100
AcDbEntity
  8
1
 62
     2
100
AcDbMText
 10
-31.754086635169
 20
-84.3647619791637
 30
0.0
 40
3.5
 41
0.0
 71
     7
 72
     1
  1
5
  7
CONVERTER_11
 11
0.0
 21
1.0
 31
0.0
 73
     1
 44
0.60024009603842
  0
ENDBLK
  5
1F6
330
1EC
100
AcDbEntity
  8
0
100
AcDbBlockEnd
  0
BLOCK
  5
200
330
1F9
100
AcDbEntity
  8
0
100
AcDbBlockBegin
  2
*D12
 70
     1
 71
     0
 10
0.0
 20
0.0
 30
0.0
  3
*D12
  1

  0
LINE
  5
1FA
330
1F9
100
AcDbEntity
  8
1
  6
Continuous
 62
     2
100
AcDbLine
 10
-74.35733264471742
 20
-139.2746447316279
 30
0.0
 11
-116.3573326447174
 21
-139.2746447316279
 31
0.0
  0
LINE
  5
1FB
330
1F9
100
AcDbEntity
  8
1
  6
Continuous
 62
     2
100
AcDbLine
 10
-74.35733264471742
 20
-110.6146485289887
 30
0.0
 11
-74.35733264471742
 21
-141.2746447316279
 31
0.0
  0
LINE
  5
1FC
330
1F9
100
AcDbEntity
  8
1
  6
Continuous
 62
     2
100
AcDbLine
 10
-116.3573326447174
 20
-89.11464852898897
 30
0.0
 11
-116.3573326447174
 21
-141.2746447316279
 31
0.0
  0
SOLID
  5
1FD
330
1F9
100
AcDbEntity
  8
1
 62
     2
100
AcDbTrace
 10
-77.85733264471742
 20
-139.7354284731838
 30
0.0
 11
-77.85733264471742
 21
-138.813860990072
 31
0.0
 12
-74.35733264471742
 22
-139.2746447316279
 32
0.0
 13
-74.35733264471742
 23
-139.2746447316279
 33
0.0
  0
SOLID
  5
1FE
330
1F9
100
AcDbEntity
  8
1
 62
     2
100
AcDbTrace
 10
-112.8573326447174
 20
-138.813860990072
 30
0.0
 11
-112.8573326447174
 21
-139.7354284731838
 31
0.0
 12
-116.3573326447174
 22
-139.2746447316279
 32
0.0
 13
-116.3573326447174
 23
-139.2746447316279
 33
0.0
  0
MTEXT
  5
1FF
330
1F9
100
AcDbEntity
  8
1
 62
     2
100
AcDbMText
 10
-98.28445365988647
 20
-137.2746447316279
 30
0.0
 40
3.5
 41
0.0
 71
     7
 72
     1
  1
42
  7
CONVERTER_11
 11
0.9999999999970621
 21
2.424068405545307E-6
 31
0.0
 73
     1
 44
0.60024009603842
  0
ENDBLK
  5
201
330
1F9
100
AcDbEntity
  8
0
100
AcDbBlockEnd
  0
BLOCK
  5
20B
330
204
100
AcDbEntity
  8
0
100
AcDbBlockBegin
  2
*D13
 70
     1
 71
     0
 10
0.0
 20
0.0
 30
0.0
  3
*D13
  1

  0
LINE
  5
205
330
204
100
AcDbEntity
  8
1
  6
Continuous
 62
     2
100
AcDbLine
 10
-129.446561371004
 20
-95.6146485289887
 30
0.0
 11
-129.446561371004
 21
54.38535147101111
 31
0.0
  0
LINE
  5
206
330
204
100
AcDbEntity
  8
1
  6
Continuous
 62
     2
100
AcDbLine
 10
-168.6648523042701
 20
-95.6146485289887
 30
0.0
 11
-127.446561371004
 21
-95.6146485289887
 31
0.0
  0
LINE
  5
207
330
204
100
AcDbEntity
  8
1
  6
Continuous
 62
     2
100
AcDbLine
 10
-168.6648523042701
 20
54.38535147101111
 30
0.0
 11
-127.446561371004
 21
54.38535147101111
 31
0.0
  0
SOLID
  5
208
330
204
100
AcDbEntity
  8
1
 62
     2
100
AcDbTrace
 10
-129.9073451125599
 20
-92.1146485289887
 30
0.0
 11
-128.9857776294481
 21
-92.1146485289887
 31
0.0
 12
-129.446561371004
 22
-95.6146485289887
 32
0.0
 13
-129.446561371004
 23
-95.6146485289887
 33
0.0
  0
SOLID
  5
209
330
204
100
AcDbEntity
  8
1
 62
     2
100
AcDbTrace
 10
-128.9857776294481
 20
50.88535147101111
 30
0.0
 11
-129.9073451125599
 21
50.88535147101111
 31
0.0
 12
-129.446561371004
 22
54.38535147101111
 32
0.0
 13
-129.446561371004
 23
54.38535147101111
 33
0.0
  0
MTEXT
  5
20A
330
204
100
AcDbEntity
  8
1
 62
     2
100
AcDbMText
 10
-131.446561371004
 20
-29.82249160524353
 30
0.0
 40
3.5
 41
0.0
 71
     7
 72
     1
  1
210
  7
CONVERTER_11
 11
0.0
 21
1.0
 31
0.0
 73
     1
 44
0.60024009603842
  0
ENDBLK
  5
20C
330
204
100
AcDbEntity
  8
0
100
AcDbBlockEnd
  0
BLOCK
  5
218
330
20F
100
AcDbEntity
  8
0
100
AcDbBlockBegin
  2
*D14
 70
     1
 71
     0
 10
0.0
 20
0.0
 30
0.0
  3
*D14
  1

  0
LINE
  5
210
330
20F
100
AcDbEntity
  8
1
  6
Continuous
 62
     2
100
AcDbLine
 10
164.287843915321
 20
-128.729476198668
 30
0.0
 11
157.287843915321
 21
-128.729476198668
 31
0.0
  0
LINE
  5
211
330
20F
100
AcDbEntity
  8
1
  6
Continuous
 62
     2
100
AcDbLine
 10
169.287843915321
 20
-128.729476198668
 30
0.0
 11
164.287843915321
 21
-128.729476198668
 31
0.0
  0
LINE
  5
212
330
20F
100
AcDbEntity
  8
1
  6
Continuous
 62
     2
100
AcDbLine
 10
176.287843915321
 20
-128.729476198668
 30
0.0
 11
169.287843915321
 21
-128.729476198668
 31
0.0
  0
LINE
  5
213
330
20F
100
AcDbEntity
  8
1
  6
Continuous
 62
     2
100
AcDbLine
 10
169.287843915321
 20
-120.614648528989
 30
0.0
 11
169.287843915321
 21
-130.729476198668
 31
0.0
  0
LINE
  5
214
330
20F
100
AcDbEntity
  8
1
  6
Continuous
 62
     2
100
AcDbLine
 10
164.287843915321
 20
-94.61464852898892
 30
0.0
 11
164.287843915321
 21
-130.729476198668
 31
0.0
  0
SOLID
  5
215
330
20F
100
AcDbEntity
  8
1
 62
     2
100
AcDbTrace
 10
172.787843915321
 20
-128.2686924571121
 30
0.0
 11
172.787843915321
 21
-129.1902599402239
 31
0.0
 12
169.287843915321
 22
-128.729476198668
 32
0.0
 13
169.287843915321
 23
-128.729476198668
 33
0.0
  0
SOLID
  5
216
330
20F
100
AcDbEntity
  8
1
 62
     2
100
AcDbTrace
 10
160.787843915321
 20
-129.1902599402239
 30
0.0
 11
160.787843915321
 21
-128.2686924571121
 31
0.0
 12
164.287843915321
 22
-128.729476198668
 32
0.0
 13
164.287843915321
 23
-128.729476198668
 33
0.0
  0
MTEXT
  5
217
330
20F
100
AcDbEntity
  8
1
 62
     2
100
AcDbMText
 10
173.4013013909486
 20
-126.729476198668
 30
0.0
 40
3.5
 41
0.0
 71
     7
 72
     1
  1
5
  7
CONVERTER_11
 11
0.9999999999970621
 21
2.424068405545307E-6
 31
0.0
 73
     1
 44
0.60024009603842
  0
ENDBLK
  5
219
330
20F
100
AcDbEntity
  8
0
100
AcDbBlockEnd
  0
BLOCK
  5
223
330
21C
100
AcDbEntity
  8
0
100
AcDbBlockBegin
  2
*D15
 70
     1
 71
     0
 10
0.0
 20
0.0
 30
0.0
  3
*D15
  1

  0
LINE
  5
21D
330
21C
100
AcDbEntity
  8
1
  6
Continuous
 62
     2
100
AcDbLine
 10
-7.66876032016924
 20
-111.242144690671
 30
0.0
 11
-23.66876032016924
 21
-111.242144690671
 31
0.0
  0
LINE
  5
21E
330
21C
100
AcDbEntity
  8
1
  6
Continuous
 62
     2
100
AcDbLine
 10
-23.66876032016924
 20
-92.68918859156351
 30
0.0
 11
-23.66876032016924
 21
-113.242144690671
 31
0.0
  0
LINE
  5
21F
330
21C
100
AcDbEntity
  8
1
  6
Continuous
 62
     2
100
AcDbLine
 10
-7.66876032016924
 20
-92.68918859156351
 30
0.0
 11
-7.66876032016924
 21
-113.242144690671
 31
0.0
  0
SOLID
  5
220
330
21C
100
AcDbEntity
  8
1
 62
     2
100
AcDbTrace
 10
-11.16876032016924
 20
-111.7029284322269
 30
0.0
 11
-11.16876032016924
 21
-110.7813609491151
 31
0.0
 12
-7.66876032016924
 22
-111.242144690671
 32
0.0
 13
-7.66876032016924
 23
-111.242144690671
 33
0.0
  0
SOLID
  5
221
330
21C
100
AcDbEntity
  8
1
 62
     2
100
AcDbTrace
 10
-20.16876032016924
 20
-110.7813609491151
 30
0.0
 11
-20.16876032016924
 21
-111.7029284322269
 31
0.0
 12
-23.66876032016924
 22
-111.242144690671
 32
0.0
 13
-23.66876032016924
 23
-111.242144690671
 33
0.0
  0
MTEXT
  5
222
330
21C
100
AcDbEntity
  8
1
 62
     2
100
AcDbMText
 10
-18.267766079217
 20
-109.242144690671
 30
0.0
 40
3.5
 41
0.0
 71
     7
 72
     1
  1
16
  7
CONVERTER_11
 11
0.9999999999970621
 21
2.424068405545307E-6
 31
0.0
 73
     1
 44
0.60024009603842
  0
ENDBLK
  5
224
330
21C
100
AcDbEntity
  8
0
100
AcDbBlockEnd
  0
BLOCK
  5
22E
330
227
100
AcDbEntity
  8
0
100
AcDbBlockBegin
  2
*D16
 70
     1
 71
     0
 10
0.0
 20
0.0
 30
0.0
  3
*D16
  1

  0
LINE
  5
228
330
227
100
AcDbEntity
  8
1
  6
Continuous
 62
     2
100
AcDbLine
 10
-4.16876032016953
 20
-111.242144690671
 30
0.0
 11
11.83123967983048
 21
-111.242144690671
 31
0.0
  0
LINE
  5
229
330
227
100
AcDbEntity
  8
1
  6
Continuous
 62
     2
100
AcDbLine
 10
11.83123967983048
 20
-87.68918859156341
 30
0.0
 11
11.83123967983048
 21
-113.242144690671
 31
0.0
  0
LINE
  5
22A
330
227
100
AcDbEntity
  8
1
  6
Continuous
 62
     2
100
AcDbLine
 10
-4.16876032016953
 20
-92.68918859156351
 30
0.0
 11
-4.16876032016953
 21
-113.242144690671
 31
0.0
  0
SOLID
  5
22B
330
227
100
AcDbEntity
  8
1
 62
     2
100
AcDbTrace
 10
-0.66876032016953
 20
-110.7813609491151
 30
0.0
 11
-0.66876032016953
 21
-111.7029284322269
 31
0.0
 12
-4.16876032016953
 22
-111.242144690671
 32
0.0
 13
-4.16876032016953
 23
-111.242144690671
 33
0.0
  0
SOLID
  5
22C
330
227
100
AcDbEntity
  8
1
 62
     2
100
AcDbTrace
 10
8.33123967983048
 20
-111.7029284322269
 30
0.0
 11
8.33123967983048
 21
-110.7813609491151
 31
0.0
 12
11.83123967983048
 22
-111.242144690671
 32
0.0
 13
11.83123967983048
 23
-111.242144690671
 33
0.0
  0
MTEXT
  5
22D
330
227
100
AcDbEntity
  8
1
 62
     2
100
AcDbMText
 10
2.13390240851114
 20
-109.242144690671
 30
0.0
 40
3.5
 41
0.0
 71
     7
 72
     1
  1
16
  7
CONVERTER_11
 11
0.9999999999970621
 21
2.424068405545307E-6
 31
0.0
 73
     1
 44
0.60024009603842
  0
ENDBLK
  5
22F
330
227
100
AcDbEntity
  8
0
100
AcDbBlockEnd
  0
BLOCK
  5
239
330
232
100
AcDbEntity
  8
0
100
AcDbBlockBegin
  2
*D17
 70
     1
 71
     0
 10
0.0
 20
0.0
 30
0.0
  3
*D17
  1

  0
LINE
  5
233
330
232
100
AcDbEntity
  8
1
  6
Continuous
 62
     2
100
AcDbLine
 10
-216.473982681377
 20
15.38535147101111
 30
0.0
 11
-216.473982681377
 21
-56.61464852898871
 31
0.0
  0
LINE
  5
234
330
232
100
AcDbEntity
  8
1
  6
Continuous
 62
     2
100
AcDbLine
 10
-200.91485230427
 20
-56.61464852898871
 30
0.0
 11
-218.473982681377
 21
-56.61464852898871
 31
0.0
  0
LINE
  5
235
330
232
100
AcDbEntity
  8
1
  6
Continuous
 62
     2
100
AcDbLine
 10
-200.91485230427
 20
15.38535147101111
 30
0.0
 11
-218.473982681377
 21
15.38535147101111
 31
0.0
  0
SOLID
  5
236
330
232
100
AcDbEntity
  8
1
 62
     2
100
AcDbTrace
 10
-216.0131989398211
 20
11.88535147101111
 30
0.0
 11
-216.9347664229329
 21
11.88535147101111
 31
0.0
 12
-216.473982681377
 22
15.38535147101111
 32
0.0
 13
-216.473982681377
 23
15.38535147101111
 33
0.0
  0
SOLID
  5
237
330
232
100
AcDbEntity
  8
1
 62
     2
100
AcDbTrace
 10
-216.9347664229329
 20
-53.11464852898871
 30
0.0
 11
-216.0131989398211
 21
-53.11464852898871
 31
0.0
 12
-216.473982681377
 22
-56.61464852898871
 32
0.0
 13
-216.473982681377
 23
-56.61464852898871
 33
0.0
  0
MTEXT
  5
238
330
232
100
AcDbEntity
  8
1
 62
     2
100
AcDbMText
 10
-218.473982681377
 20
-24.8039867687647
 30
0.0
 40
3.5
 41
0.0
 71
     7
 72
     1
  1
132
  7
CONVERTER_11
 11
0.0
 21
1.0
 31
0.0
 73
     1
 44
0.60024009603842
  0
ENDBLK
  5
23A
330
232
100
AcDbEntity
  8
0
100
AcDbBlockEnd
  0
BLOCK
  5
244
330
23D
100
AcDbEntity
  8
0
100
AcDbBlockBegin
  2
*D18
 70
     1
 71
     0
 10
0.0
 20
0.0
 30
0.0
  3
*D18
  1

  0
LINE
  5
23E
330
23D
100
AcDbEntity
  8
1
  6
Continuous
 62
     2
100
AcDbLine
 10
189.19957816062
 20
15.3853514710111
 30
0.0
 11
189.19957816062
 21
-56.6146485289887
 31
0.0
  0
LINE
  5
23F
330
23D
100
AcDbEntity
  8
1
  6
Continuous
 62
     2
100
AcDbLine
 10
169.287843915321
 20
-56.6146485289887
 30
0.0
 11
191.19957816062
 21
-56.6146485289887
 31
0.0
  0
LINE
  5
240
330
23D
100
AcDbEntity
  8
1
  6
Continuous
 62
     2
100
AcDbLine
 10
169.287843915321
 20
15.38535147101111
 30
0.0
 11
191.19957816062
 21
15.38535147101111
 31
0.0
  0
SOLID
  5
241
330
23D
100
AcDbEntity
  8
1
 62
     2
100
AcDbTrace
 10
189.6603619021759
 20
11.8853514710111
 30
0.0
 11
188.7387944190641
 21
11.8853514710111
 31
0.0
 12
189.19957816062
 22
15.3853514710111
 32
0.0
 13
189.19957816062
 23
15.3853514710111
 33
0.0
  0
SOLID
  5
242
330
23D
100
AcDbEntity
  8
1
 62
     2
100
AcDbTrace
 10
188.7387944190641
 20
-53.1146485289887
 30
0.0
 11
189.6603619021759
 21
-53.1146485289887
 31
0.0
 12
189.19957816062
 22
-56.6146485289887
 32
0.0
 13
189.19957816062
 23
-56.6146485289887
 33
0.0
  0
MTEXT
  5
243
330
23D
100
AcDbEntity
  8
1
 62
     2
100
AcDbMText
 10
187.19957816062
 20
-24.6553927849531
 30
0.0
 40
3.5
 41
0.0
 71
     7
 72
     1
  1
132
  7
CONVERTER_11
 11
0.0
 21
1.0
 31
0.0
 73
     1
 44
0.60024009603842
  0
ENDBLK
  5
245
330
23D
100
AcDbEntity
  8
0
100
AcDbBlockEnd
  0
BLOCK
  5
251
330
248
100
AcDbEntity
  8
0
100
AcDbBlockBegin
  2
*D19
 70
     1
 71
     0
 10
0.0
 20
0.0
 30
0.0
  3
*D19
  1

  0
LINE
  5
249
330
248
100
AcDbEntity
  8
1
  6
Continuous
 62
     2
100
AcDbLine
 10
-207.91485230427
 20
-130.2566310837739
 30
0.0
 11
-200.91485230427
 21
-130.2566310837739
 31
0.0
  0
LINE
  5
24A
330
248
100
AcDbEntity
  8
1
  6
Continuous
 62
     2
100
AcDbLine
 10
-200.91485230427
 20
-130.2566310837739
 30
0.0
 11
-195.91485230427
 21
-130.2566310837739
 31
0.0
  0
LINE
  5
24B
330
248
100
AcDbEntity
  8
1
  6
Continuous
 62
     2
100
AcDbLine
 10
-195.91485230427
 20
-130.2566310837739
 30
0.0
 11
-188.91485230427
 21
-130.2566310837739
 31
0.0
  0
LINE
  5
24C
330
248
100
AcDbEntity
  8
1
  6
Continuous
 62
     2
100
AcDbLine
 10
-195.91485230427
 20
-94.61464852898895
 30
0.0
 11
-195.91485230427
 21
-132.2566310837739
 31
0.0
  0
LINE
  5
24D
330
248
100
AcDbEntity
  8
1
  6
Continuous
 62
     2
100
AcDbLine
 10
-200.91485230427
 20
-120.614648528989
 30
0.0
 11
-200.91485230427
 21
-132.2566310837739
 31
0.0
  0
SOLID
  5
24E
330
248
100
AcDbEntity
  8
1
 62
     2
100
AcDbTrace
 10
-204.41485230427
 20
-130.7174148253298
 30
0.0
 11
-204.41485230427
 21
-129.795847342218
 31
0.0
 12
-200.91485230427
 22
-130.2566310837739
 32
0.0
 13
-200.91485230427
 23
-130.2566310837739
 33
0.0
  0
SOLID
  5
24F
330
248
100
AcDbEntity
  8
1
 62
     2
100
AcDbTrace
 10
-192.41485230427
 20
-129.795847342218
 30
0.0
 11
-192.41485230427
 21
-130.7174148253298
 31
0.0
 12
-195.91485230427
 22
-130.2566310837739
 32
0.0
 13
-195.91485230427
 23
-130.2566310837739
 33
0.0
  0
MTEXT
  5
250
330
248
100
AcDbEntity
  8
1
 62
     2
100
AcDbMText
 10
-204.826615557664
 20
-128.2566310837739
 30
0.0
 40
3.5
 41
0.0
 71
     7
 72
     1
  1
5
  7
CONVERTER_11
 11
0.9999999999970621
 21
2.424068405545307E-6
 31
0.0
 73
     1
 44
0.60024009603842
  0
ENDBLK
  5
252
330
248
100
AcDbEntity
  8
0
100
AcDbBlockEnd
  0
BLOCK
  5
25C
330
255
100
AcDbEntity
  8
0
100
AcDbBlockBegin
  2
*D20
 70
     1
 71
     0
 10
0.0
 20
0.0
 30
0.0
  3
*D20
  1

  0
LINE
  5
256
330
255
100
AcDbEntity
  8
1
  6
Continuous
 62
     2
100
AcDbLine
 10
-195.91485230427
 20
-130.2566310837739
 30
0.0
 11
-163.91485230427
 21
-130.2566310837739
 31
0.0
  0
LINE
  5
257
330
255
100
AcDbEntity
  8
1
  6
Continuous
 62
     2
100
AcDbLine
 10
-163.91485230427
 20
-94.61464852898897
 30
0.0
 11
-163.91485230427
 21
-132.2566310837739
 31
0.0
  0
LINE
  5
258
330
255
100
AcDbEntity
  8
1
  6
Continuous
 62
     2
100
AcDbLine
 10
-195.91485230427
 20
-94.61464852898897
 30
0.0
 11
-195.91485230427
 21
-132.2566310837739
 31
0.0
  0
SOLID
  5
259
330
255
100
AcDbEntity
  8
1
 62
     2
100
AcDbTrace
 10
-192.41485230427
 20
-129.795847342218
 30
0.0
 11
-192.41485230427
 21
-130.7174148253298
 31
0.0
 12
-195.91485230427
 22
-130.2566310837739
 32
0.0
 13
-195.91485230427
 23
-130.2566310837739
 33
0.0
  0
SOLID
  5
25A
330
255
100
AcDbEntity
  8
1
 62
     2
100
AcDbTrace
 10
-167.41485230427
 20
-130.7174148253298
 30
0.0
 11
-167.41485230427
 21
-129.795847342218
 31
0.0
 12
-163.91485230427
 22
-130.2566310837739
 32
0.0
 13
-163.91485230427
 23
-130.2566310837739
 33
0.0
  0
MTEXT
  5
25B
330
255
100
AcDbEntity
  8
1
 62
     2
100
AcDbMText
 10
-183.077925376808
 20
-128.2566310837739
 30
0.0
 40
3.5
 41
0.0
 71
     7
 72
     1
  1
32
  7
CONVERTER_11
 11
0.9999999999970621
 21
2.424068405545307E-6
 31
0.0
 73
     1
 44
0.60024009603842
  0
ENDBLK
  5
25D
330
255
100
AcDbEntity
  8
0
100
AcDbBlockEnd
  0
BLOCK
  5
267
330
260
100
AcDbEntity
  8
0
100
AcDbBlockBegin
  2
*D21
 70
     1
 71
     0
 10
0.0
 20
0.0
 30
0.0
  3
*D21
  1

  0
LINE
  5
261
330
260
100
AcDbEntity
  8
1
  6
Continuous
 62
     2
100
AcDbLine
 10
116.6505966278901
 20
54.38535147101105
 30
0.0
 11
116.6505966278901
 21
-95.61464852898895
 31
0.0
  0
LINE
  5
262
330
260
100
AcDbEntity
  8
1
  6
Continuous
 62
     2
100
AcDbLine
 10
137.037843915321
 20
54.38535147101105
 30
0.0
 11
114.6505966278901
 21
54.38535147101105
 31
0.0
  0
LINE
  5
263
330
260
100
AcDbEntity
  8
1
  6
Continuous
 62
     2
100
AcDbLine
 10
137.037843915321
 20
-95.61464852898895
 30
0.0
 11
114.6505966278901
 21
-95.61464852898895
 31
0.0
  0
SOLID
  5
264
330
260
100
AcDbEntity
  8
1
 62
     2
100
AcDbTrace
 10
117.111380369446
 20
50.88535147101105
 30
0.0
 11
116.1898128863342
 21
50.88535147101105
 31
0.0
 12
116.6505966278901
 22
54.38535147101105
 32
0.0
 13
116.6505966278901
 23
54.38535147101105
 33
0.0
  0
SOLID
  5
265
330
260
100
AcDbEntity
  8
1
 62
     2
100
AcDbTrace
 10
116.1898128863342
 20
-92.11464852898895
 30
0.0
 11
117.111380369446
 21
-92.11464852898895
 31
0.0
 12
116.6505966278901
 22
-95.61464852898895
 32
0.0
 13
116.6505966278901
 23
-95.61464852898895
 33
0.0
  0
MTEXT
  5
266
330
260
100
AcDbEntity
  8
1
 62
     2
100
AcDbMText
 10
114.6505966278901
 20
-21.28964852898897
 30
0.0
 40
3.5
 41
0.0
 71
     7
 72
     1
  1
210
  7
CONVERTER_11
 11
0.0
 21
1.0
 31
0.0
 73
     1
 44
0.60024009603842
  0
ENDBLK
  5
268
330
260
100
AcDbEntity
  8
0
100
AcDbBlockEnd
  0
BLOCK
  5
26F
330
26B
100
AcDbEntity
  8
0
100
AcDbBlockBegin
  2
*D22
 70
     1
 71
     0
 10
0.0
 20
0.0
 30
0.0
  3
*D22
  1

  0
LINE
  5
26C
330
26B
100
AcDbEntity
  8
1
  6
Continuous
 62
     2
100
AcDbLine
 10
-182.9551441909072
 20
-76.16872377440583
 30
0.0
 11
-192.4612837926053
 21
-85.5383358935097
 31
0.0
  0
SOLID
  5
26D
330
26B
100
AcDbEntity
  8
1
 62
     2
100
AcDbTrace
 10
-190.2920327903009
 20
-82.75325568901225
 30
0.0
 11
-189.6451164267141
 21
-83.40959846870328
 31
0.0
 12
-192.4612837926053
 22
-85.5383358935097
 32
0.0
 13
-192.4612837926053
 23
-85.5383358935097
 33
0.0
  0
MTEXT
  5
26E
330
26B
100
AcDbEntity
  8
1
 62
     2
100
AcDbMText
 10
-189.3087324161282
 20
-79.7941543259575
 30
0.0
 40
3.5
 41
0.0
 71
     7
 72
     1
  1
\C2;R\C2;12
  7
CONVERTER_11
 11
0.7122026240279425
 21
0.7019739470434164
 31
0.0
 73
     1
 44
0.60024009603842
  0
ENDBLK
  5
270
330
26B
100
AcDbEntity
  8
0
100
AcDbBlockEnd
  0
BLOCK
  5
276
330
272
100
AcDbEntity
  8
0
100
AcDbBlockBegin
  2
*D23
 70
     1
 71
     0
 10
0.0
 20
0.0
 30
0.0
  3
*D23
  1

  0
LINE
  5
273
330
272
100
AcDbEntity
  8
1
  6
Continuous
 62
     2
100
AcDbLine
 10
151.6046772707533
 20
-76.54601008087461
 30
0.0
 11
161.5109269320541
 21
-84.79154501562007
 31
0.0
  0
SOLID
  5
274
330
272
100
AcDbEntity
  8
1
 62
     2
100
AcDbTrace
 10
158.5260786282864
 20
-82.9066040987802
 30
0.0
 11
159.1156434760609
 21
-82.19829631525842
 31
0.0
 12
161.5109269320541
 22
-84.79154501562007
 32
0.0
 13
161.5109269320541
 23
-84.79154501562007
 33
0.0
  0
MTEXT
  5
275
330
272
100
AcDbEntity
  8
1
 62
     2
100
AcDbMText
 10
154.2729488458866
 20
-75.41929301966293
 30
0.0
 40
3.5
 41
0.0
 71
     7
 72
     1
  1
\C2;R\C2;12
  7
CONVERTER_11
 11
0.7685902513944264
 21
-0.6397413738859262
 31
0.0
 73
     1
 44
0.60024009603842
  0
ENDBLK
  5
277
330
272
100
AcDbEntity
  8
0
100
AcDbBlockEnd
  0
BLOCK
  5
27E
330
279
100
AcDbEntity
  8
0
100
AcDbBlockBegin
  2
*D24
 70
     1
 71
     0
 10
0.0
 20
0.0
 30
0.0
  3
*D24
  1

  0
LINE
  5
27A
330
279
100
AcDbEntity
  8
1
  6
Continuous
 62
     2
100
AcDbLine
 10
152.1726683544798
 20
-85.56868016934695
 30
0.0
 11
106.5544508721566
 21
-137.904779108842
 31
0.0
  0
SOLID
  5
27B
330
279
100
AcDbEntity
  8
1
 62
     2
100
AcDbTrace
 10
138.3554070086875
 20
-100.7194428748531
 30
0.0
 11
139.0501128664795
 21
-101.3249760259509
 31
0.0
 12
136.4030194761622
 22
-103.660616888631
 32
0.0
 13
136.4030194761622
 23
-103.660616888631
 33
0.0
  0
SOLID
  5
27C
330
279
100
AcDbEntity
  8
1
 62
     2
100
AcDbTrace
 10
150.2202808219545
 20
-88.50985418312477
 30
0.0
 11
149.5255749641625
 21
-87.90432103202697
 31
0.0
 12
152.1726683544798
 22
-85.56868016934695
 32
0.0
 13
152.1726683544798
 23
-85.56868016934695
 33
0.0
  0
MTEXT
  5
27D
330
279
100
AcDbEntity
  8
1
 62
     2
100
AcDbMText
 10
105.8746960449946
 20
-135.6408150245531
 30
0.0
 40
3.5
 41
0.0
 71
     7
 72
     1
  1
\C2;Fräserø\C2;24
  7
CONVERTER_11
 11
0.6570687032632324
 21
0.7538306966368339
 31
0.0
 73
     1
 44
0.60024009603842
  0
ENDBLK
  5
27F
330
279
100
AcDbEntity
  8
0
100
AcDbBlockEnd
  0
BLOCK
  5
286
330
281
100
AcDbEntity
  8
0
100
AcDbBlockBegin
  2
*D25
 70
     1
 71
     0
 10
0.0
 20
0.0
 30
0.0
  3
*D25
  1

  0
LINE
  5
282
330
281
100
AcDbEntity
  8
1
  6
Continuous
 62
     2
100
AcDbLine
 10
-183.2076160542984
 20
-85.08492676567019
 30
0.0
 11
-135.2458602546922
 21
-147.7583114682399
 31
0.0
  0
SOLID
  5
283
330
281
100
AcDbEntity
  8
1
 62
     2
100
AcDbTrace
 10
-171.115073052174
 20
-101.6449003585915
 30
0.0
 11
-170.3832162438259
 21
-101.084835864088
 31
0.0
 12
-168.6220885542416
 22
-104.1443702923077
 32
0.0
 13
-168.6220885542416
 23
-104.1443702923077
 33
0.0
  0
SOLID
  5
284
330
281
100
AcDbEntity
  8
1
 62
     2
100
AcDbTrace
 10
-180.714631556366
 20
-87.58439669938636
 30
0.0
 11
-181.4464883647141
 21
-88.14446119388991
 31
0.0
 12
-183.2076160542984
 22
-85.08492676567019
 32
0.0
 13
-183.2076160542984
 23
-85.08492676567019
 33
0.0
  0
MTEXT
  5
285
330
281
100
AcDbEntity
  8
1
 62
     2
100
AcDbMText
 10
-149.0574594129491
 20
-126.419255053027
 30
0.0
 40
3.5
 41
0.0
 71
     7
 72
     1
  1
\C2;Fräserø\C2;24
  7
CONVERTER_11
 11
0.6077303125023698
 21
-0.7941434802765631
 31
0.0
 73
     1
 44
0.60024009603842
  0
ENDBLK
  5
287
330
281
100
AcDbEntity
  8
0
100
AcDbBlockEnd
  0
BLOCK
  5
28F
330
289
100
AcDbEntity
  8
0
100
AcDbBlockBegin
  2
*D26
 70
     1
 71
     0
 10
0.0
 20
0.0
 30
0.0
  3
*D26
  1

  0
LINE
  5
28A
330
289
100
AcDbEntity
  8
1
  6
Continuous
 62
     2
100
AcDbLine
 10
-180.4093999566207
 20
61.28798756075226
 30
0.0
 11
-187.7501424001277
 21
55.33057675589961
 31
0.0
  0
LINE
  5
28B
330
289
100
AcDbEntity
  8
1
  6
Continuous
 62
     2
100
AcDbLine
 10
-190.0795622084125
 20
53.44012618612262
 30
0.0
 11
-194.156046872911
 21
50.13183768901288
 31
0.0
  0
SOLID
  5
28C
330
289
100
AcDbEntity
  8
1
 62
     2
100
AcDbTrace
 10
-185.3228489193848
 20
57.89388867894471
 30
0.0
 11
-184.7421229948726
 21
57.17831616233412
 31
0.0
 12
-187.7501424001277
 22
55.33057675589961
 32
0.0
 13
-187.7501424001277
 23
55.33057675589961
 33
0.0
  0
SOLID
  5
28D
330
289
100
AcDbEntity
  8
1
 62
     2
100
AcDbTrace
 10
-192.5068556891555
 20
50.87681426307751
 30
0.0
 11
-193.0875816136677
 21
51.59238677968811
 31
0.0
 12
-190.0795622084125
 22
53.44012618612262
 32
0.0
 13
-190.0795622084125
 23
53.44012618612262
 33
0.0
  0
MTEXT
  5
28E
330
289
100
AcDbEntity
  8
1
 62
     2
100
AcDbMText
 10
-189.9857290520489
 20
56.09202556550498
 30
0.0
 40
3.5
 41
0.0
 71
     7
 72
     1
  1
\C2;ãŒ€\C2;3
  7
CONVERTER_11
 11
0.7764732694282849
 21
0.6301501899256637
 31
0.0
 73
     1
 44
0.60024009603842
  0
ENDBLK
  5
290
330
289
100
AcDbEntity
  8
0
100
AcDbBlockEnd
  0
BLOCK
  5
299
330
292
100
AcDbEntity
  8
0
100
AcDbBlockBegin
  2
*D27
 70
     1
 71
     0
 10
0.0
 20
0.0
 30
0.0
  3
*D27
  1

  0
LINE
  5
293
330
292
100
AcDbEntity
  8
1
  6
Continuous
 62
     2
100
AcDbLine
 10
109.1510030137471
 20
-110.614648528989
 30
0.0
 11
109.1510030137471
 21
69.38535147101105
 31
0.0
  0
LINE
  5
294
330
292
100
AcDbEntity
  8
1
  6
Continuous
 62
     2
100
AcDbLine
 10
148.287843915321
 20
-110.6146485289889
 30
0.0
 11
107.1510030137471
 21
-110.6146485289889
 31
0.0
  0
LINE
  5
295
330
292
100
AcDbEntity
  8
1
  6
Continuous
 62
     2
100
AcDbLine
 10
148.287843915321
 20
69.38535147101106
 30
0.0
 11
107.1510030137471
 21
69.38535147101106
 31
0.0
  0
SOLID
  5
296
330
292
100
AcDbEntity
  8
1
 62
     2
100
AcDbTrace
 10
108.6902192721912
 20
-107.114648528989
 30
0.0
 11
109.611786755303
 21
-107.114648528989
 31
0.0
 12
109.1510030137471
 22
-110.614648528989
 32
0.0
 13
109.1510030137471
 23
-110.614648528989
 33
0.0
  0
SOLID
  5
297
330
292
100
AcDbEntity
  8
1
 62
     2
100
AcDbTrace
 10
109.611786755303
 20
65.88535147101105
 30
0.0
 11
108.6902192721912
 21
65.88535147101105
 31
0.0
 12
109.1510030137471
 22
69.38535147101105
 32
0.0
 13
109.1510030137471
 23
69.38535147101105
 33
0.0
  0
MTEXT
  5
298
330
292
100
AcDbEntity
  8
1
 62
     2
100
AcDbMText
 10
107.1510030137471
 20
-27.26197102600031
 30
0.0
 40
3.5
 41
0.0
 71
     7
 72
     1
  1
240
  7
CONVERTER_11
 11
0.0
 21
1.0
 31
0.0
 73
     1
 44
0.60024009603842
  0
ENDBLK
  5
29A
330
292
100
AcDbEntity
  8
0
100
AcDbBlockEnd
  0
ENDSEC
  0
SECTION
  2
ENTITIES
  0
POINT
  5
32
330
1F
100
AcDbEntity
  8
1
 62
     3
 60
     1
100
AcDbPoint
 10
-154.279696207698
 20
-20.61464852898895
 30
0.0
  0
LINE
  5
33
330
1F
100
AcDbEntity
  8
1
  6
DOT_CENTER
 62
     2
100
AcDbLine
 10
-7.66876032016924
 20
-98.68918859156351
 30
0.0
 11
-7.66876032016924
 21
-92.68918859156351
 31
0.0
  0
LINE
  5
34
330
1F
100
AcDbEntity
  8
1
  6
DOT_CENTER
 62
     2
100
AcDbLine
 10
-9.66876032016924
 20
-100.6891885915635
 30
0.0
 11
-7.66876032016924
 21
-98.68918859156351
 31
0.0
  0
LINE
  5
35
330
1F
100
AcDbEntity
  8
1
  6
DOT_CENTER
 62
     2
100
AcDbLine
 10
-52.66876032016923
 20
-100.6891885915635
 30
0.0
 11
-52.66876032016923
 21
-103.068080823344
 31
0.0
  0
LINE
  5
36
330
1F
100
AcDbEntity
  8
1
  6
DOT_CENTER
 62
     2
100
AcDbLine
 10
-52.66876032016923
 20
-100.6891885915635
 30
0.0
 11
-9.66876032016924
 21
-100.6891885915635
 31
0.0
  0
LINE
  5
37
330
1F
100
AcDbEntity
  8
1
  6
DOT_CENTER
 62
     2
100
AcDbLine
 10
-52.66876032016923
 20
-92.68918859156351
 30
0.0
 11
-52.66876032016923
 21
-100.6891885915635
 31
0.0
  0
LINE
  5
38
330
1F
100
AcDbEntity
  8
1
  6
Continuous
 62
     7
100
AcDbLine
 10
-23.66876032016924
 20
-92.68918859156351
 30
0.0
 11
-52.66876032016923
 21
-92.68918859156351
 31
0.0
  0
LINE
  5
39
330
1F
100
AcDbEntity
  8
1
  6
Continuous
 62
     7
100
AcDbLine
 10
-23.66876032016924
 20
-87.68918859156351
 30
0.0
 11
-49.66876032016918
 21
-87.68918859156351
 31
0.0
  0
LINE
  5
3A
330
1F
100
AcDbEntity
  8
1
  6
Continuous
 62
     7
100
AcDbLine
 10
-23.66876032016924
 20
-87.68918859156351
 30
0.0
 11
-23.66876032016924
 21
-92.68918859156351
 31
0.0
  0
LINE
  5
3B
330
1F
100
AcDbEntity
  8
1
  6
Continuous
 62
     7
100
AcDbLine
 10
-195.91485230427
 20
-56.6146485289887
 30
0.0
 11
-195.91485230427
 21
-77.1146485289887
 31
0.0
  0
LINE
  5
3C
330
1F
100
AcDbEntity
  8
1
  6
Continuous
 62
     7
100
AcDbLine
 10
-200.91485230427
 20
-56.6146485289887
 30
0.0
 11
-200.91485230427
 21
-120.614648528989
 31
0.0
  0
LINE
  5
3D
330
1F
100
AcDbEntity
  8
1
  6
Continuous
 62
     7
100
AcDbLine
 10
-200.91485230427
 20
-56.6146485289887
 30
0.0
 11
-195.91485230427
 21
-56.6146485289887
 31
0.0
  0
LINE
  5
3E
330
1F
100
AcDbEntity
  8
1
  6
Continuous
 62
     7
100
AcDbLine
 10
-195.91485230427
 20
15.38535147101111
 30
0.0
 11
-195.91485230427
 21
6.38535147101105
 31
0.0
  0
LINE
  5
3F
330
1F
100
AcDbEntity
  8
1
  6
Continuous
 62
     7
100
AcDbLine
 10
-200.91485230427
 20
15.38535147101111
 30
0.0
 11
-200.91485230427
 21
6.38535147101103
 31
0.0
  0
LINE
  5
40
330
1F
100
AcDbEntity
  8
1
  6
Continuous
 62
     7
100
AcDbLine
 10
-200.91485230427
 20
15.38535147101111
 30
0.0
 11
-195.91485230427
 21
15.38535147101111
 31
0.0
  0
LINE
  5
41
330
1F
100
AcDbEntity
  8
1
  6
Continuous
 62
     7
100
AcDbLine
 10
-74.35733264471742
 20
-56.6146485289887
 30
0.0
 11
-74.35733264471742
 21
-110.6146485289887
 31
0.0
  0
LINE
  5
42
330
1F
100
AcDbEntity
  8
1
  6
DOT_CENTER
 62
     2
100
AcDbLine
 10
-208.91485230427
 20
79.385351471011
 30
0.0
 11
-200.91485230427
 21
79.385351471011
 31
0.0
  0
LINE
  5
43
330
1F
100
AcDbEntity
  8
1
  6
DOT_CENTER
 62
     2
100
AcDbLine
 10
-208.91485230427
 20
6.38535147101105
 30
0.0
 11
-200.91485230427
 21
6.38535147101103
 31
0.0
  0
LINE
  5
44
330
1F
100
AcDbEntity
  8
1
  6
DOT_CENTER
 62
     2
100
AcDbLine
 10
-208.91485230427
 20
6.38535147101105
 30
0.0
 11
-208.91485230427
 21
79.385351471011
 31
0.0
  0
LINE
  5
45
330
1F
100
AcDbEntity
  8
1
  6
DOT_CENTER
 62
     2
100
AcDbLine
 10
-208.91485230427
 20
4.38535147101105
 30
0.0
 11
-200.91485230427
 21
4.38535147101105
 31
0.0
  0
LINE
  5
46
330
1F
100
AcDbEntity
  8
1
  6
DOT_CENTER
 62
     2
100
AcDbLine
 10
-208.91485230427
 20
-45.61464852898894
 30
0.0
 11
-211.1492194823534
 21
-45.61464852898894
 31
0.0
  0
LINE
  5
47
330
1F
100
AcDbEntity
  8
1
  6
DOT_CENTER
 62
     2
100
AcDbLine
 10
-208.91485230427
 20
-45.61464852898894
 30
0.0
 11
-208.91485230427
 21
4.38535147101105
 31
0.0
  0
LINE
  5
48
330
1F
100
AcDbEntity
  8
1
  6
DOT_CENTER
 62
     2
100
AcDbLine
 10
-208.91485230427
 20
-120.614648528989
 30
0.0
 11
-200.91485230427
 21
-120.614648528989
 31
0.0
  0
LINE
  5
49
330
1F
100
AcDbEntity
  8
1
  6
DOT_CENTER
 62
     2
100
AcDbLine
 10
-208.91485230427
 20
-47.61464852898894
 30
0.0
 11
-211.1492194823534
 21
-47.61464852898894
 31
0.0
  0
LINE
  5
4A
330
1F
100
AcDbEntity
  8
1
  6
DOT_CENTER
 62
     2
100
AcDbLine
 10
-208.91485230427
 20
-120.614648528989
 30
0.0
 11
-208.91485230427
 21
-47.61464852898894
 31
0.0
  0
LINE
  5
4B
330
1F
100
AcDbEntity
  8
1
  6
DOT_CENTER
 62
     2
100
AcDbLine
 10
-144.324895871924
 20
-20.61464852898895
 30
0.0
 11
-135.3938869162998
 21
-20.61464852898895
 31
0.0
  0
LINE
  5
4C
330
1F
100
AcDbEntity
  8
1
  6
DOT_CENTER
 62
     2
100
AcDbLine
 10
-211.4027523107855
 20
-20.61464852898895
 30
0.0
 11
-154.279696207698
 21
-20.61464852898895
 31
0.0
  0
LINE
  5
4D
330
1F
100
AcDbEntity
  8
1
  6
DOT_CENTER
 62
     2
100
AcDbLine
 10
-179.9148523042701
 20
71.8558189615838
 30
0.0
 11
-179.9148523042701
 21
-115.2569032480472
 31
0.0
  0
LINE
  5
4E
330
1F
100
AcDbEntity
  8
1
  6
DOT_CENTER
 62
     2
100
AcDbLine
 10
-188.9148523042701
 20
52.13535147101111
 30
0.0
 11
-188.9148523042701
 21
56.63535147101111
 31
0.0
  0
LINE
  5
4F
330
1F
100
AcDbEntity
  8
1
  6
DOT_CENTER
 62
     2
100
AcDbLine
 10
-191.1648523042701
 20
54.38535147101111
 30
0.0
 11
-186.6648523042701
 21
54.38535147101111
 31
0.0
  0
LINE
  5
50
330
1F
100
AcDbEntity
  8
1
  6
DOT_CENTER
 62
     2
100
AcDbLine
 10
-170.9148523042701
 20
52.13535147101111
 30
0.0
 11
-170.9148523042701
 21
56.63535147101111
 31
0.0
  0
LINE
  5
51
330
1F
100
AcDbEntity
  8
1
  6
DOT_CENTER
 62
     2
100
AcDbLine
 10
-173.1648523042701
 20
54.38535147101111
 30
0.0
 11
-168.6648523042701
 21
54.38535147101111
 31
0.0
  0
LINE
  5
52
330
1F
100
AcDbEntity
  8
1
  6
Continuous
 62
     7
100
AcDbLine
 10
-163.91485230427
 20
-77.11464852898868
 30
0.0
 11
-163.91485230427
 21
-94.61464852898895
 31
0.0
  0
LINE
  5
53
330
1F
100
AcDbEntity
  8
1
  6
Continuous
 62
     7
100
AcDbLine
 10
-195.91485230427
 20
-77.1146485289887
 30
0.0
 11
-195.91485230427
 21
-94.61464852898895
 31
0.0
  0
LINE
  5
54
330
1F
100
AcDbEntity
  8
1
  6
Continuous
 62
     7
100
AcDbLine
 10
-195.91485230427
 20
35.88535147101108
 30
0.0
 11
-195.91485230427
 21
15.38535147101111
 31
0.0
  0
LINE
  5
55
330
1F
100
AcDbEntity
  8
1
  6
Continuous
 62
     7
100
AcDbLine
 10
-163.9148523042699
 20
35.88535147101108
 30
0.0
 11
-163.9148523042699
 21
6.38535147101105
 31
0.0
  0
LINE
  5
56
330
1F
100
AcDbEntity
  8
1
  6
Continuous
 62
     7
100
AcDbLine
 10
-195.91485230427
 20
53.38535147101105
 30
0.0
 11
-195.91485230427
 21
35.88535147101108
 31
0.0
  0
LINE
  5
57
330
1F
100
AcDbEntity
  8
1
  6
Continuous
 62
     7
100
AcDbLine
 10
-163.91485230427
 20
53.38535147101105
 30
0.0
 11
-163.9148523042699
 21
35.88535147101108
 31
0.0
  0
LINE
  5
58
330
1F
100
AcDbEntity
  8
1
  6
Continuous
 62
     7
100
AcDbLine
 10
-183.91485230427
 20
-89.1146485289887
 30
0.0
 11
-175.9148523042697
 21
-89.1146485289887
 31
0.0
  0
LINE
  5
59
330
1F
100
AcDbEntity
  8
1
  6
Continuous
 62
     7
100
AcDbLine
 10
-183.91485230427
 20
47.88535147101108
 30
0.0
 11
-175.91485230427
 21
47.88535147101111
 31
0.0
  0
LINE
  5
5A
330
1F
100
AcDbEntity
  8
1
  6
Continuous
 62
     7
100
AcDbLine
 10
-195.91485230427
 20
-20.61464852898895
 30
0.0
 11
-195.91485230427
 21
-45.61464852898895
 31
0.0
  0
LINE
  5
5B
330
1F
100
AcDbEntity
  8
1
  6
DOT_CENTER
 62
     2
100
AcDbLine
 10
5.33123967983078
 20
-31.12367182724053
 30
0.0
 11
7.4310199439095
 21
-31.12367182724053
 31
0.0
  0
LINE
  5
5C
330
1F
100
AcDbEntity
  8
1
  6
DOT_CENTER
 62
     2
100
AcDbLine
 10
-52.66876032016923
 20
-31.12367182724053
 30
0.0
 11
-55.13702885639437
 21
-31.12367182724053
 31
0.0
  0
LINE
  5
5D
330
1F
100
AcDbEntity
  8
1
  6
Continuous
 62
     7
100
AcDbLine
 10
-7.66876032016924
 20
-49.68918859156351
 30
0.0
 11
-5.93670951260046
 21
-52.68918859156351
 31
0.0
  0
LINE
  5
5E
330
1F
100
AcDbEntity
  8
1
  6
Continuous
 62
     7
100
AcDbLine
 10
-5.93670951260046
 20
-52.68918859156351
 30
0.0
 11
3.59918887226189
 21
-52.68918859156351
 31
0.0
  0
LINE
  5
5F
330
1F
100
AcDbEntity
  8
1
  6
Continuous
 62
     7
100
AcDbLine
 10
3.59918887226189
 20
-52.68918859156351
 30
0.0
 11
5.33123967983078
 21
-49.68918859156351
 31
0.0
  0
LINE
  5
60
330
1F
100
AcDbEntity
  8
1
  6
Continuous
 62
     7
100
AcDbLine
 10
5.33123967983078
 20
-49.68918859156351
 30
0.0
 11
5.33123967983078
 21
-47.68918859156351
 31
0.0
  0
LINE
  5
61
330
1F
100
AcDbEntity
  8
1
  6
Continuous
 62
     7
100
AcDbLine
 10
-6.66876032016924
 20
-48.68918859156351
 30
0.0
 11
4.33123967983078
 21
-48.68918859156351
 31
0.0
  0
LINE
  5
62
330
1F
100
AcDbEntity
  8
1
  6
Continuous
 62
     7
100
AcDbLine
 10
4.33123967983078
 20
-48.68918859156351
 30
0.0
 11
4.33123967983078
 21
-49.42123939913243
 31
0.0
  0
LINE
  5
63
330
1F
100
AcDbEntity
  8
1
  6
Continuous
 62
     7
100
AcDbLine
 10
4.33123967983078
 20
-49.42123939913243
 30
0.0
 11
3.02183860307224
 21
-51.68918859156351
 31
0.0
  0
LINE
  5
64
330
1F
100
AcDbEntity
  8
1
  6
Continuous
 62
     7
100
AcDbLine
 10
3.02183860307224
 20
-51.68918859156351
 30
0.0
 11
-5.35935924341084
 21
-51.68918859156351
 31
0.0
  0
LINE
  5
65
330
1F
100
AcDbEntity
  8
1
  6
Continuous
 62
     7
100
AcDbLine
 10
-5.35935924341084
 20
-51.68918859156351
 30
0.0
 11
-6.66876032016924
 21
-49.42123939913243
 31
0.0
  0
LINE
  5
66
330
1F
100
AcDbEntity
  8
1
  6
Continuous
 62
     7
100
AcDbLine
 10
-6.66876032016924
 20
-49.42123939913243
 30
0.0
 11
-6.66876032016924
 21
-48.68918859156351
 31
0.0
  0
LINE
  5
67
330
1F
100
AcDbEntity
  8
1
  6
Continuous
 62
     7
100
AcDbLine
 10
-7.66876032016924
 20
-87.68918859156351
 30
0.0
 11
-17.66876032016924
 21
-87.68918859156351
 31
0.0
  0
LINE
  5
68
330
1F
100
AcDbEntity
  8
1
  6
Continuous
 62
     7
100
AcDbLine
 10
-7.66876032016924
 20
-55.68918859156351
 30
0.0
 11
-7.66876032016924
 21
-87.68918859156351
 31
0.0
  0
LINE
  5
69
330
1F
100
AcDbEntity
  8
1
  6
Continuous
 62
     7
100
AcDbLine
 10
-49.66876032016924
 20
-55.68918859156351
 30
0.0
 11
-17.66876032016936
 21
-55.68918859156344
 31
0.0
  0
LINE
  5
6A
330
1F
100
AcDbEntity
  8
1
  6
Continuous
 62
     7
100
AcDbLine
 10
-52.66876032016923
 20
-31.12367182724053
 30
0.0
 11
-52.66876032016923
 21
-92.68918859156351
 31
0.0
  0
LINE
  5
6B
330
1F
100
AcDbEntity
  8
1
  6
Continuous
 62
     7
100
AcDbLine
 10
-49.66876032016918
 20
-87.68918859156351
 30
0.0
 11
-49.66876032016924
 21
-55.68918859156351
 31
0.0
  0
LINE
  5
6C
330
1F
100
AcDbEntity
  8
1
  6
Continuous
 62
     7
100
AcDbLine
 10
-7.66876032016924
 20
-55.68918859156351
 30
0.0
 11
-7.66876032016935
 21
-47.68918859156351
 31
0.0
  0
LINE
  5
6D
330
1F
100
AcDbEntity
  8
1
  6
Continuous
 62
     7
100
AcDbLine
 10
-7.66876032016935
 20
-47.68918859156351
 30
0.0
 11
5.33123967983078
 21
-47.68918859156351
 31
0.0
  0
LINE
  5
6E
330
1F
100
AcDbEntity
  8
1
  6
Continuous
 62
     7
100
AcDbLine
 10
5.33123967983078
 20
-47.68918859156351
 30
0.0
 11
5.33123967983078
 21
-31.12367182724053
 31
0.0
  0
LINE
  5
6F
330
1F
100
AcDbEntity
  8
1
  6
DOT_CENTER
 62
     2
100
AcDbLine
 10
5.33123967983078
 20
-31.12367182724053
 30
0.0
 11
-52.66876032016923
 21
-31.12367182724053
 31
0.0
  0
LINE
  5
70
330
1F
100
AcDbEntity
  8
1
  6
Continuous
 62
     7
100
AcDbLine
 10
-7.66876032016924
 20
-87.68918859156351
 30
0.0
 11
-7.66876032016924
 21
-92.68918859156351
 31
0.0
  0
LINE
  5
71
330
1F
100
AcDbEntity
  8
1
  6
Continuous
 62
     7
100
AcDbLine
 10
-7.66876032016924
 20
-92.68918859156351
 30
0.0
 11
-23.66876032016924
 21
-92.68918859156351
 31
0.0
  0
LINE
  5
72
330
1F
100
AcDbEntity
  8
1
  6
DOT_CENTER
 62
     2
100
AcDbLine
 10
-211.4005926546524
 20
79.385351471011
 30
0.0
 11
-208.91485230427
 21
79.385351471011
 31
0.0
  0
LINE
  5
73
330
1F
100
AcDbEntity
  8
1
  6
DOT_CENTER
 62
     2
100
AcDbLine
 10
-211.4005926546524
 20
-120.614648528989
 30
0.0
 11
-208.91485230427
 21
-120.614648528989
 31
0.0
  0
LINE
  5
74
330
1F
100
AcDbEntity
  8
1
  6
DOT_CENTER
 62
     2
100
AcDbLine
 10
-138.349335539947
 20
79.385351471011
 30
0.0
 11
-138.349335539947
 21
-120.614648528989
 31
0.0
  0
LINE
  5
75
330
1F
100
AcDbEntity
  8
1
  6
DOT_CENTER
 62
     2
100
AcDbLine
 10
-138.349335539947
 20
79.385351471011
 30
0.0
 11
-135.3938869162998
 21
79.385351471011
 31
0.0
  0
LINE
  5
76
330
1F
100
AcDbEntity
  8
1
  6
DOT_CENTER
 62
     2
100
AcDbLine
 10
-138.349335539947
 20
-120.614648528989
 30
0.0
 11
-135.3938869162998
 21
-120.614648528989
 31
0.0
  0
LINE
  5
77
330
1F
100
AcDbEntity
  8
1
  6
DOT_CENTER
 62
     2
100
AcDbLine
 10
-138.349335539947
 20
-120.614648528989
 30
0.0
 11
-138.349335539947
 21
-123.894846638247
 31
0.0
  0
LINE
  5
78
330
1F
100
AcDbEntity
  8
1
  6
DOT_CENTER
 62
     2
100
AcDbLine
 10
-138.349335539947
 20
79.385351471011
 30
0.0
 11
-138.349335539947
 21
81.77063309968568
 31
0.0
  0
LINE
  5
79
330
1F
100
AcDbEntity
  8
1
  6
Continuous
 62
     7
100
AcDbLine
 10
-200.91485230427
 20
79.385351471011
 30
0.0
 11
-200.91485230427
 21
15.38535147101111
 31
0.0
  0
LINE
  5
7A
330
1F
100
AcDbEntity
  8
1
  6
DOT_CENTER
 62
     2
100
AcDbLine
 10
-200.91485230427
 20
79.385351471011
 30
0.0
 11
-158.91485230427
 21
79.385351471011
 31
0.0
  0
LINE
  5
7B
330
1F
100
AcDbEntity
  8
1
  6
DOT_CENTER
 62
     2
100
AcDbLine
 10
-200.91485230427
 20
-120.614648528989
 30
0.0
 11
-158.91485230427
 21
-120.614648528989
 31
0.0
  0
LINE
  5
7C
330
1F
100
AcDbEntity
  8
1
  6
Continuous
 62
     7
100
AcDbLine
 10
-158.91485230427
 20
79.385351471011
 30
0.0
 11
-158.91485230427
 21
6.38535147101103
 31
0.0
  0
LINE
  5
7D
330
1F
100
AcDbEntity
  8
1
  6
DOT_CENTER
 62
     2
100
AcDbLine
 10
-158.91485230427
 20
79.385351471011
 30
0.0
 11
-138.349335539947
 21
79.385351471011
 31
0.0
  0
LINE
  5
7E
330
1F
100
AcDbEntity
  8
1
  6
DOT_CENTER
 62
     2
100
AcDbLine
 10
-158.91485230427
 20
-120.614648528989
 30
0.0
 11
-138.349335539947
 21
-120.614648528989
 31
0.0
  0
LINE
  5
7F
330
1F
100
AcDbEntity
  8
1
  6
DOT_CENTER
 62
     2
100
AcDbLine
 10
-122.119084989988
 20
79.385351471011
 30
0.0
 11
-119.3573326447174
 21
79.385351471011
 31
0.0
  0
LINE
  5
80
330
1F
100
AcDbEntity
  8
1
  6
DOT_CENTER
 62
     2
100
AcDbLine
 10
-120.119084989988
 20
-20.61464852898895
 30
0.0
 11
-56.84744871881924
 21
-20.61464852898895
 31
0.0
  0
LINE
  5
81
330
1F
100
AcDbEntity
  8
1
  6
DOT_CENTER
 62
     2
100
AcDbLine
 10
-122.119084989988
 20
-120.614648528989
 30
0.0
 11
-119.3573326447174
 21
-120.614648528989
 31
0.0
  0
LINE
  5
82
330
1F
100
AcDbEntity
  8
1
  6
Continuous
 62
     7
100
AcDbLine
 10
-119.3573326447174
 20
79.385351471011
 30
0.0
 11
-119.3573326447174
 21
6.38535147101103
 31
0.0
  0
LINE
  5
83
330
1F
100
AcDbEntity
  8
1
  6
DOT_CENTER
 62
     2
100
AcDbLine
 10
-119.3573326447174
 20
79.385351471011
 30
0.0
 11
-74.35733264471742
 21
79.385351471011
 31
0.0
  0
LINE
  5
84
330
1F
100
AcDbEntity
  8
1
  6
DOT_CENTER
 62
     2
100
AcDbLine
 10
-119.3573326447174
 20
-120.614648528989
 30
0.0
 11
-74.35733264471742
 21
-120.614648528989
 31
0.0
  0
LINE
  5
85
330
1F
100
AcDbEntity
  8
1
  6
Continuous
 62
     7
100
AcDbLine
 10
-61.35733264471736
 20
-120.614648528989
 30
0.0
 11
-61.35733264471736
 21
-47.61464852898897
 31
0.0
  0
LINE
  5
86
330
1F
100
AcDbEntity
  8
1
  6
DOT_CENTER
 62
     2
100
AcDbLine
 10
-61.35733264471736
 20
79.385351471011
 30
0.0
 11
-56.84744871881924
 21
79.385351471011
 31
0.0
  0
LINE
  5
87
330
1F
100
AcDbEntity
  8
1
  6
DOT_CENTER
 62
     2
100
AcDbLine
 10
-61.35733264471736
 20
-120.614648528989
 30
0.0
 11
-56.84744871881924
 21
-120.614648528989
 31
0.0
  0
LINE
  5
88
330
1F
100
AcDbEntity
  8
1
  6
Continuous
 62
     7
100
AcDbLine
 10
-74.35733264471742
 20
79.385351471011
 30
0.0
 11
-74.35733264471742
 21
69.3853514710111
 31
0.0
  0
LINE
  5
89
330
1F
100
AcDbEntity
  8
1
  6
DOT_CENTER
 62
     2
100
AcDbLine
 10
-74.35733264471742
 20
79.385351471011
 30
0.0
 11
-61.35733264471736
 21
79.385351471011
 31
0.0
  0
LINE
  5
8A
330
1F
100
AcDbEntity
  8
1
  6
DOT_CENTER
 62
     2
100
AcDbLine
 10
-74.35733264471742
 20
-120.614648528989
 30
0.0
 11
-61.35733264471736
 21
-120.614648528989
 31
0.0
  0
LINE
  5
8B
330
1F
100
AcDbEntity
  8
1
  6
Continuous
 62
     7
100
AcDbLine
 10
-74.35733264471742
 20
69.3853514710111
 30
0.0
 11
-84.35733264471742
 21
69.3853514710111
 31
0.0
  0
LINE
  5
8C
330
1F
100
AcDbEntity
  8
1
  6
Continuous
 62
     7
100
AcDbLine
 10
-74.35733264471742
 20
69.3853514710111
 30
0.0
 11
-74.35733264471742
 21
6.38535147101105
 31
0.0
  0
LINE
  5
8D
330
1F
100
AcDbEntity
  8
1
  6
Continuous
 62
     7
100
AcDbLine
 10
-84.35733264471742
 20
69.3853514710111
 30
0.0
 11
-84.35733264471742
 21
47.88535147101108
 31
0.0
  0
LINE
  5
8E
330
1F
100
AcDbEntity
  8
1
  6
Continuous
 62
     7
100
AcDbLine
 10
-84.35733264471742
 20
47.88535147101108
 30
0.0
 11
-116.3573326447174
 21
47.88535147101111
 31
0.0
  0
LINE
  5
8F
330
1F
100
AcDbEntity
  8
1
  6
Continuous
 62
     7
100
AcDbLine
 10
-116.3573326447174
 20
47.88535147101111
 30
0.0
 11
-116.3573326447174
 21
6.38535147101105
 31
0.0
  0
LINE
  5
90
330
1F
100
AcDbEntity
  8
1
  6
Continuous
 62
     7
100
AcDbLine
 10
-116.3573326447174
 20
-89.11464852898897
 30
0.0
 11
-84.35733264471742
 21
-89.11464852898895
 31
0.0
  0
LINE
  5
91
330
1F
100
AcDbEntity
  8
1
  6
Continuous
 62
     7
100
AcDbLine
 10
-84.35733264471742
 20
-89.11464852898895
 30
0.0
 11
-84.35733264471742
 21
-110.6146485289887
 31
0.0
  0
LINE
  5
92
330
1F
100
AcDbEntity
  8
1
  6
Continuous
 62
     7
100
AcDbLine
 10
-84.35733264471742
 20
-110.6146485289887
 30
0.0
 11
-74.35733264471742
 21
-110.6146485289887
 31
0.0
  0
LINE
  5
93
330
1F
100
AcDbEntity
  8
1
  6
Continuous
 62
     7
100
AcDbLine
 10
-74.35733264471742
 20
-110.6146485289887
 30
0.0
 11
-74.35733264471742
 21
-120.614648528989
 31
0.0
  0
LINE
  5
94
330
1F
100
AcDbEntity
  8
1
  6
Continuous
 62
     7
100
AcDbLine
 10
-17.66876032016924
 20
-87.68918859156351
 30
0.0
 11
-17.66876032016936
 21
-55.68918859156344
 31
0.0
  0
LINE
  5
95
330
1F
100
AcDbEntity
  8
1
  6
Continuous
 62
     7
100
AcDbLine
 10
-17.66876032016924
 20
-87.68918859156351
 30
0.0
 11
-23.66876032016924
 21
-87.68918859156351
 31
0.0
  0
LINE
  5
96
330
1F
100
AcDbEntity
  8
1
  6
Continuous
 62
     7
100
AcDbLine
 10
-17.66876032016936
 20
-55.68918859156344
 30
0.0
 11
-7.66876032016924
 21
-55.68918859156351
 31
0.0
  0
LINE
  5
97
330
1F
100
AcDbEntity
  8
1
  6
Continuous
 62
     7
100
AcDbLine
 10
-163.9148523042699
 20
-20.61464852898895
 30
0.0
 11
-163.91485230427
 21
-45.61464852898894
 31
0.0
  0
LINE
  5
98
330
1F
100
AcDbEntity
  8
1
  6
Continuous
 62
     7
100
AcDbLine
 10
-84.35733264471742
 20
-89.11464852898895
 30
0.0
 11
-84.35733264471742
 21
-77.11464852898895
 31
0.0
  0
LINE
  5
99
330
1F
100
AcDbEntity
  8
1
  6
Continuous
 62
     7
100
AcDbLine
 10
-84.35733264471742
 20
47.88535147101108
 30
0.0
 11
-84.35733264471742
 21
35.88535147101108
 31
0.0
  0
LINE
  5
9A
330
1F
100
AcDbEntity
  8
1
  6
DOT_CENTER
 62
     2
100
AcDbLine
 10
-6.19167101520114
 20
-71.68918859156351
 30
0.0
 11
-51.48150810720701
 21
-71.68918859156351
 31
0.0
  0
LINE
  5
9B
330
1F
100
AcDbEntity
  8
1
  6
DOT_CENTER
 62
     2
100
AcDbLine
 10
-211.1492194823536
 20
6.38535147101105
 30
0.0
 11
-208.91485230427
 21
6.38535147101105
 31
0.0
  0
LINE
  5
9C
330
1F
100
AcDbEntity
  8
1
  6
DOT_CENTER
 62
     2
100
AcDbLine
 10
-211.1492194823536
 20
4.38535147101105
 30
0.0
 11
-208.91485230427
 21
4.38535147101105
 31
0.0
  0
LINE
  5
9D
330
1F
100
AcDbEntity
  8
1
  6
DOT_CENTER
 62
     2
100
AcDbLine
 10
-121.327290116345
 20
6.38535147101105
 30
0.0
 11
-119.3573326447174
 21
6.38535147101103
 31
0.0
  0
LINE
  5
9E
330
1F
100
AcDbEntity
  8
1
  6
DOT_CENTER
 62
     2
100
AcDbLine
 10
-121.327290116345
 20
4.38535147101105
 30
0.0
 11
-119.3573326447174
 21
4.38535147101105
 31
0.0
  0
LINE
  5
9F
330
1F
100
AcDbEntity
  8
1
  6
DOT_CENTER
 62
     2
100
AcDbLine
 10
-58.9649251962632
 20
-45.61464852898895
 30
0.0
 11
-61.35733264471736
 21
-45.61464852898895
 31
0.0
  0
LINE
  5
A0
330
1F
100
AcDbEntity
  8
1
  6
DOT_CENTER
 62
     2
100
AcDbLine
 10
-58.9649251962632
 20
-47.61464852898895
 30
0.0
 11
-61.35733264471736
 21
-47.61464852898897
 31
0.0
  0
LINE
  5
A1
330
1F
100
AcDbEntity
  8
1
  6
DOT_CENTER
 62
     2
100
AcDbLine
 10
-157.147069980412
 20
-45.61464852898895
 30
0.0
 11
-158.91485230427
 21
-45.61464852898896
 31
0.0
  0
LINE
  5
A2
330
1F
100
AcDbEntity
  8
1
  6
DOT_CENTER
 62
     2
100
AcDbLine
 10
-157.147069980412
 20
-47.61464852898895
 30
0.0
 11
-158.91485230427
 21
-47.61464852898895
 31
0.0
  0
LINE
  5
A3
330
1F
100
AcDbEntity
  8
1
  6
Continuous
 62
     7
100
AcDbLine
 10
-200.91485230427
 20
4.38535147101105
 30
0.0
 11
-200.91485230427
 21
-45.61464852898896
 31
0.0
  0
LINE
  5
A4
330
1F
100
AcDbEntity
  8
1
  6
Continuous
 62
     7
100
AcDbLine
 10
-195.91485230427
 20
4.38535147101105
 30
0.0
 11
-195.91485230427
 21
-20.61464852898895
 31
0.0
  0
LINE
  5
A5
330
1F
100
AcDbEntity
  8
1
  6
Continuous
 62
     7
100
AcDbLine
 10
-163.9148523042699
 20
4.38535147101105
 30
0.0
 11
-163.9148523042699
 21
-20.61464852898895
 31
0.0
  0
LINE
  5
A6
330
1F
100
AcDbEntity
  8
1
  6
Continuous
 62
     7
100
AcDbLine
 10
-158.91485230427
 20
4.38535147101105
 30
0.0
 11
-158.91485230427
 21
-45.61464852898896
 31
0.0
  0
LINE
  5
A7
330
1F
100
AcDbEntity
  8
1
  6
Continuous
 62
     7
100
AcDbLine
 10
-119.3573326447174
 20
4.38535147101105
 30
0.0
 11
-119.3573326447174
 21
-45.61464852898896
 31
0.0
  0
LINE
  5
A8
330
1F
100
AcDbEntity
  8
1
  6
Continuous
 62
     7
100
AcDbLine
 10
-116.3573326447174
 20
4.38535147101105
 30
0.0
 11
-116.3573326447174
 21
-45.61464852898896
 31
0.0
  0
LINE
  5
A9
330
1F
100
AcDbEntity
  8
1
  6
Continuous
 62
     7
100
AcDbLine
 10
-74.35733264471742
 20
4.38535147101105
 30
0.0
 11
-74.35733264471742
 21
-45.61464852898896
 31
0.0
  0
LINE
  5
AA
330
1F
100
AcDbEntity
  8
1
  6
Continuous
 62
     7
100
AcDbLine
 10
-61.35733264471735
 20
6.38535147101105
 30
0.0
 11
-61.35733264471736
 21
79.385351471011
 31
0.0
  0
LINE
  5
AB
330
1F
100
AcDbEntity
  8
1
  6
Continuous
 62
     7
100
AcDbLine
 10
-61.35733264471736
 20
-45.61464852898895
 30
0.0
 11
-61.35733264471736
 21
4.38535147101106
 31
0.0
  0
LINE
  5
AC
330
1F
100
AcDbEntity
  8
1
  6
Continuous
 62
     7
100
AcDbLine
 10
-74.35733264471742
 20
-47.61464852898895
 30
0.0
 11
-74.35733264471742
 21
-56.6146485289887
 31
0.0
  0
LINE
  5
AD
330
1F
100
AcDbEntity
  8
1
  6
Continuous
 62
     7
100
AcDbLine
 10
-116.3573326447174
 20
-47.61464852898895
 30
0.0
 11
-116.3573326447174
 21
-89.11464852898897
 31
0.0
  0
LINE
  5
AE
330
1F
100
AcDbEntity
  8
1
  6
Continuous
 62
     7
100
AcDbLine
 10
-119.3573326447174
 20
-47.61464852898895
 30
0.0
 11
-119.3573326447174
 21
-120.614648528989
 31
0.0
  0
LINE
  5
AF
330
1F
100
AcDbEntity
  8
1
  6
Continuous
 62
     7
100
AcDbLine
 10
-158.91485230427
 20
-47.61464852898895
 30
0.0
 11
-158.91485230427
 21
-120.614648528989
 31
0.0
  0
LINE
  5
B0
330
1F
100
AcDbEntity
  8
1
  6
Continuous
 62
     7
100
AcDbLine
 10
-163.91485230427
 20
-47.61464852898895
 30
0.0
 11
-163.91485230427
 21
-77.11464852898868
 31
0.0
  0
LINE
  5
B1
330
1F
100
AcDbEntity
  8
1
  6
Continuous
 62
     7
100
AcDbLine
 10
-195.91485230427
 20
-47.61464852898895
 30
0.0
 11
-195.91485230427
 21
-56.6146485289887
 31
0.0
  0
LINE
  5
B2
330
1F
100
AcDbEntity
  8
1
  6
Continuous
 62
     7
100
AcDbLine
 10
-200.91485230427
 20
-47.61464852898895
 30
0.0
 11
-200.91485230427
 21
-56.6146485289887
 31
0.0
  0
LINE
  5
B3
330
1F
100
AcDbEntity
  8
1
  6
DOT_CENTER
 62
     2
100
AcDbLine
 10
-200.91485230427
 20
6.38535147101103
 30
0.0
 11
-195.91485230427
 21
6.38535147101105
 31
0.0
  0
LINE
  5
B4
330
1F
100
AcDbEntity
  8
1
  6
DOT_CENTER
 62
     2
100
AcDbLine
 10
-200.91485230427
 20
4.38535147101105
 30
0.0
 11
-195.91485230427
 21
4.38535147101105
 31
0.0
  0
LINE
  5
B5
330
1F
100
AcDbEntity
  8
1
  6
DOT_CENTER
 62
     2
100
AcDbLine
 10
-119.3573326447174
 20
6.38535147101103
 30
0.0
 11
-116.3573326447174
 21
6.38535147101105
 31
0.0
  0
LINE
  5
B6
330
1F
100
AcDbEntity
  8
1
  6
DOT_CENTER
 62
     2
100
AcDbLine
 10
-119.3573326447174
 20
4.38535147101105
 30
0.0
 11
-116.3573326447174
 21
4.38535147101105
 31
0.0
  0
LINE
  5
B7
330
1F
100
AcDbEntity
  8
1
  6
DOT_CENTER
 62
     2
100
AcDbLine
 10
-61.35733264471736
 20
-47.61464852898897
 30
0.0
 11
-74.35733264471742
 21
-47.61464852898895
 31
0.0
  0
LINE
  5
B8
330
1F
100
AcDbEntity
  8
1
  6
DOT_CENTER
 62
     2
100
AcDbLine
 10
-119.3573326447174
 20
-45.61464852898896
 30
0.0
 11
-121.327290116345
 21
-45.61464852898895
 31
0.0
  0
LINE
  5
B9
330
1F
100
AcDbEntity
  8
1
  6
DOT_CENTER
 62
     2
100
AcDbLine
 10
-116.3573326447174
 20
-45.61464852898896
 30
0.0
 11
-119.3573326447174
 21
-45.61464852898896
 31
0.0
  0
LINE
  5
BA
330
1F
100
AcDbEntity
  8
1
  6
DOT_CENTER
 62
     2
100
AcDbLine
 10
-74.35733264471742
 20
-45.61464852898896
 30
0.0
 11
-116.3573326447174
 21
-45.61464852898896
 31
0.0
  0
LINE
  5
BB
330
1F
100
AcDbEntity
  8
1
  6
DOT_CENTER
 62
     2
100
AcDbLine
 10
-61.35733264471736
 20
-45.61464852898895
 30
0.0
 11
-74.35733264471742
 21
-45.61464852898896
 31
0.0
  0
LINE
  5
BC
330
1F
100
AcDbEntity
  8
1
  6
DOT_CENTER
 62
     2
100
AcDbLine
 10
-200.91485230427
 20
-45.61464852898896
 30
0.0
 11
-208.91485230427
 21
-45.61464852898894
 31
0.0
  0
LINE
  5
BD
330
1F
100
AcDbEntity
  8
1
  6
DOT_CENTER
 62
     2
100
AcDbLine
 10
-158.91485230427
 20
-45.61464852898896
 30
0.0
 11
-163.91485230427
 21
-45.61464852898894
 31
0.0
  0
LINE
  5
BE
330
1F
100
AcDbEntity
  8
1
  6
DOT_CENTER
 62
     2
100
AcDbLine
 10
-158.91485230427
 20
-47.61464852898895
 30
0.0
 11
-163.91485230427
 21
-47.61464852898895
 31
0.0
  0
LINE
  5
BF
330
1F
100
AcDbEntity
  8
1
  6
DOT_CENTER
 62
     2
100
AcDbLine
 10
-195.91485230427
 20
6.38535147101105
 30
0.0
 11
-163.9148523042699
 21
6.38535147101105
 31
0.0
  0
LINE
  5
C0
330
1F
100
AcDbEntity
  8
1
  6
DOT_CENTER
 62
     2
100
AcDbLine
 10
-195.91485230427
 20
4.38535147101105
 30
0.0
 11
-163.9148523042699
 21
4.38535147101105
 31
0.0
  0
LINE
  5
C1
330
1F
100
AcDbEntity
  8
1
  6
DOT_CENTER
 62
     2
100
AcDbLine
 10
-116.3573326447174
 20
6.38535147101105
 30
0.0
 11
-74.35733264471742
 21
6.38535147101105
 31
0.0
  0
LINE
  5
C2
330
1F
100
AcDbEntity
  8
1
  6
DOT_CENTER
 62
     2
100
AcDbLine
 10
-116.3573326447174
 20
4.38535147101105
 30
0.0
 11
-74.35733264471742
 21
4.38535147101105
 31
0.0
  0
LINE
  5
C3
330
1F
100
AcDbEntity
  8
1
  6
DOT_CENTER
 62
     2
100
AcDbLine
 10
-74.35733264471742
 20
-47.61464852898895
 30
0.0
 11
-116.3573326447174
 21
-47.61464852898895
 31
0.0
  0
LINE
  5
C4
330
1F
100
AcDbEntity
  8
1
  6
DOT_CENTER
 62
     2
100
AcDbLine
 10
-163.91485230427
 20
-45.61464852898894
 30
0.0
 11
-195.91485230427
 21
-45.61464852898895
 31
0.0
  0
LINE
  5
C5
330
1F
100
AcDbEntity
  8
1
  6
DOT_CENTER
 62
     2
100
AcDbLine
 10
-163.91485230427
 20
-47.61464852898895
 30
0.0
 11
-195.91485230427
 21
-47.61464852898895
 31
0.0
  0
LINE
  5
C6
330
1F
100
AcDbEntity
  8
1
  6
DOT_CENTER
 62
     2
100
AcDbLine
 10
-163.9148523042699
 20
6.38535147101105
 30
0.0
 11
-158.91485230427
 21
6.38535147101103
 31
0.0
  0
LINE
  5
C7
330
1F
100
AcDbEntity
  8
1
  6
DOT_CENTER
 62
     2
100
AcDbLine
 10
-163.9148523042699
 20
4.38535147101105
 30
0.0
 11
-158.91485230427
 21
4.38535147101105
 31
0.0
  0
LINE
  5
C8
330
1F
100
AcDbEntity
  8
1
  6
DOT_CENTER
 62
     2
100
AcDbLine
 10
-74.35733264471742
 20
6.38535147101105
 30
0.0
 11
-61.35733264471735
 21
6.38535147101105
 31
0.0
  0
LINE
  5
C9
330
1F
100
AcDbEntity
  8
1
  6
DOT_CENTER
 62
     2
100
AcDbLine
 10
-74.35733264471742
 20
4.38535147101105
 30
0.0
 11
-61.35733264471736
 21
4.38535147101106
 31
0.0
  0
LINE
  5
CA
330
1F
100
AcDbEntity
  8
1
  6
DOT_CENTER
 62
     2
100
AcDbLine
 10
-116.3573326447174
 20
-47.61464852898895
 30
0.0
 11
-119.3573326447174
 21
-47.61464852898895
 31
0.0
  0
LINE
  5
CB
330
1F
100
AcDbEntity
  8
1
  6
DOT_CENTER
 62
     2
100
AcDbLine
 10
-195.91485230427
 20
-45.61464852898895
 30
0.0
 11
-200.91485230427
 21
-45.61464852898896
 31
0.0
  0
LINE
  5
CC
330
1F
100
AcDbEntity
  8
1
  6
DOT_CENTER
 62
     2
100
AcDbLine
 10
-195.91485230427
 20
-47.61464852898895
 30
0.0
 11
-200.91485230427
 21
-47.61464852898895
 31
0.0
  0
LINE
  5
CD
330
1F
100
AcDbEntity
  8
1
  6
DOT_CENTER
 62
     2
100
AcDbLine
 10
-158.91485230427
 20
6.38535147101103
 30
0.0
 11
-157.147069980412
 21
6.38535147101105
 31
0.0
  0
LINE
  5
CE
330
1F
100
AcDbEntity
  8
1
  6
DOT_CENTER
 62
     2
100
AcDbLine
 10
-158.91485230427
 20
4.38535147101105
 30
0.0
 11
-157.147069980412
 21
4.38535147101105
 31
0.0
  0
LINE
  5
CF
330
1F
100
AcDbEntity
  8
1
  6
DOT_CENTER
 62
     2
100
AcDbLine
 10
-61.35733264471735
 20
6.38535147101105
 30
0.0
 11
-58.9649251962632
 21
6.38535147101105
 31
0.0
  0
LINE
  5
D0
330
1F
100
AcDbEntity
  8
1
  6
DOT_CENTER
 62
     2
100
AcDbLine
 10
-61.35733264471736
 20
4.38535147101106
 30
0.0
 11
-58.9649251962632
 21
4.38535147101105
 31
0.0
  0
LINE
  5
D1
330
1F
100
AcDbEntity
  8
1
  6
DOT_CENTER
 62
     2
100
AcDbLine
 10
-119.3573326447174
 20
-47.61464852898895
 30
0.0
 11
-121.327290116345
 21
-47.61464852898895
 31
0.0
  0
LINE
  5
D2
330
1F
100
AcDbEntity
  8
1
  6
DOT_CENTER
 62
     2
100
AcDbLine
 10
-200.91485230427
 20
-47.61464852898895
 30
0.0
 11
-208.91485230427
 21
-47.61464852898894
 31
0.0
  0
LINE
  5
D3
330
1F
100
AcDbEntity
  8
1
  6
DOT_CENTER
 62
     2
100
AcDbLine
 10
-168.6648523042701
 20
-95.6146485289887
 30
0.0
 11
-173.1648523042701
 21
-95.6146485289887
 31
0.0
  0
LINE
  5
D4
330
1F
100
AcDbEntity
  8
1
  6
DOT_CENTER
 62
     2
100
AcDbLine
 10
-170.9148523042701
 20
-97.8646485289887
 30
0.0
 11
-170.9148523042701
 21
-93.3646485289887
 31
0.0
  0
LINE
  5
D5
330
1F
100
AcDbEntity
  8
1
  6
DOT_CENTER
 62
     2
100
AcDbLine
 10
-186.6648523042701
 20
-95.6146485289887
 30
0.0
 11
-191.1648523042701
 21
-95.6146485289887
 31
0.0
  0
LINE
  5
D6
330
1F
100
AcDbEntity
  8
1
  6
DOT_CENTER
 62
     2
100
AcDbLine
 10
-188.9148523042701
 20
-97.8646485289887
 30
0.0
 11
-188.9148523042701
 21
-93.3646485289887
 31
0.0
  0
LINE
  5
D7
330
1F
100
AcDbEntity
  8
1
  6
DOT_CENTER
 62
     2
100
AcDbLine
 10
-162.204563032309
 20
-94.61464852898895
 30
0.0
 11
-197.6339311914812
 21
-94.61464852898895
 31
0.0
  0
LINE
  5
D8
330
1F
100
AcDbEntity
  8
1
  6
DOT_CENTER
 62
     2
100
AcDbLine
 10
-197.6339311914812
 20
53.38535147101105
 30
0.0
 11
-162.204563032309
 21
53.38535147101105
 31
0.0
  0
LINE
  5
D9
330
1F
100
AcDbEntity
  8
1
  6
DOT_CENTER
 62
     2
100
AcDbLine
 10
-4.16876032016953
 20
-98.68918859156351
 30
0.0
 11
-4.16876032016953
 21
-92.68918859156351
 31
0.0
  0
LINE
  5
DA
330
1F
100
AcDbEntity
  8
1
  6
DOT_CENTER
 62
     2
100
AcDbLine
 10
-2.16876032016952
 20
-100.6891885915635
 30
0.0
 11
-4.16876032016953
 21
-98.68918859156351
 31
0.0
  0
LINE
  5
DB
330
1F
100
AcDbEntity
  8
1
  6
PHANTOM
 62
     2
100
AcDbLine
 10
43.83123967983067
 20
-100.6891885915635
 30
0.0
 11
43.83123967983067
 21
-92.68918859156351
 31
0.0
  0
LINE
  5
DC
330
1F
100
AcDbEntity
  8
1
  6
DOT_CENTER
 62
     2
100
AcDbLine
 10
43.83123967983067
 20
-100.6891885915635
 30
0.0
 11
-2.16876032016952
 21
-100.6891885915635
 31
0.0
  0
LINE
  5
DD
330
1F
100
AcDbEntity
  8
1
  6
Continuous
 62
     7
100
AcDbLine
 10
11.83123967983048
 20
-87.68918859156341
 30
0.0
 11
39.83123967983048
 21
-87.68918859156354
 31
0.0
  0
LINE
  5
DE
330
1F
100
AcDbEntity
  8
1
  6
Continuous
 62
     7
100
AcDbLine
 10
11.83123967983049
 20
-92.68918859156351
 30
0.0
 11
-4.16876032016953
 21
-92.68918859156351
 31
0.0
  0
LINE
  5
DF
330
1F
100
AcDbEntity
  8
1
  6
Continuous
 62
     7
100
AcDbLine
 10
11.83123967983048
 20
-87.68918859156341
 30
0.0
 11
11.83123967983049
 21
-92.68918859156351
 31
0.0
  0
LINE
  5
E0
330
1F
100
AcDbEntity
  8
1
  6
DOT_CENTER
 62
     2
100
AcDbLine
 10
169.287843915321
 20
79.3853514710111
 30
0.0
 11
177.287843915321
 21
79.38535147101112
 31
0.0
  0
LINE
  5
E1
330
1F
100
AcDbEntity
  8
1
  6
DOT_CENTER
 62
     2
100
AcDbLine
 10
179.7905864202762
 20
6.38535147101105
 30
0.0
 11
177.287843915321
 21
6.38535147101106
 31
0.0
  0
LINE
  5
E2
330
1F
100
AcDbEntity
  8
1
  6
DOT_CENTER
 62
     2
100
AcDbLine
 10
177.287843915321
 20
79.38535147101112
 30
0.0
 11
177.287843915321
 21
6.38535147101106
 31
0.0
  0
LINE
  5
E3
330
1F
100
AcDbEntity
  8
1
  6
DOT_CENTER
 62
     2
100
AcDbLine
 10
169.287843915321
 20
-45.61464852898895
 30
0.0
 11
177.287843915321
 21
-45.61464852898895
 31
0.0
  0
LINE
  5
E4
330
1F
100
AcDbEntity
  8
1
  6
DOT_CENTER
 62
     2
100
AcDbLine
 10
179.7905864202761
 20
4.38535147101105
 30
0.0
 11
177.287843915321
 21
4.38535147101105
 31
0.0
  0
LINE
  5
E5
330
1F
100
AcDbEntity
  8
1
  6
DOT_CENTER
 62
     2
100
AcDbLine
 10
177.287843915321
 20
4.38535147101105
 30
0.0
 11
177.287843915321
 21
-45.61464852898895
 31
0.0
  0
LINE
  5
E6
330
1F
100
AcDbEntity
  8
1
  6
DOT_CENTER
 62
     2
100
AcDbLine
 10
169.287843915321
 20
-120.614648528989
 30
0.0
 11
177.287843915321
 21
-120.614648528989
 31
0.0
  0
LINE
  5
E7
330
1F
100
AcDbEntity
  8
1
  6
DOT_CENTER
 62
     2
100
AcDbLine
 10
169.287843915321
 20
-47.61464852898895
 30
0.0
 11
177.287843915321
 21
-47.61464852898894
 31
0.0
  0
LINE
  5
E8
330
1F
100
AcDbEntity
  8
1
  6
DOT_CENTER
 62
     2
100
AcDbLine
 10
177.287843915321
 20
-47.61464852898894
 30
0.0
 11
177.287843915321
 21
-120.614648528989
 31
0.0
  0
LINE
  5
E9
330
1F
100
AcDbEntity
  8
1
  6
DOT_CENTER
 62
     2
100
AcDbLine
 10
127.1101707407831
 20
-47.61464852898895
 30
0.0
 11
129.287843915321
 21
-47.61464852898897
 31
0.0
  0
LINE
  5
EA
330
1F
100
AcDbEntity
  8
1
  6
DOT_CENTER
 62
     2
100
AcDbLine
 10
127.1101707407831
 20
-45.61464852898895
 30
0.0
 11
129.287843915321
 21
-45.61464852898895
 31
0.0
  0
LINE
  5
EB
330
1F
100
AcDbEntity
  8
1
  6
DOT_CENTER
 62
     2
100
AcDbLine
 10
129.287843915321
 20
-47.61464852898897
 30
0.0
 11
132.287843915321
 21
-47.61464852898895
 31
0.0
  0
LINE
  5
EC
330
1F
100
AcDbEntity
  8
1
  6
DOT_CENTER
 62
     2
100
AcDbLine
 10
129.287843915321
 20
-45.61464852898895
 30
0.0
 11
132.287843915321
 21
-45.61464852898895
 31
0.0
  0
LINE
  5
ED
330
1F
100
AcDbEntity
  8
1
  6
DOT_CENTER
 62
     2
100
AcDbLine
 10
132.287843915321
 20
-47.61464852898895
 30
0.0
 11
164.287843915321
 21
-47.61464852898895
 31
0.0
  0
LINE
  5
EE
330
1F
100
AcDbEntity
  8
1
  6
DOT_CENTER
 62
     2
100
AcDbLine
 10
132.287843915321
 20
-45.61464852898895
 30
0.0
 11
164.287843915321
 21
-45.61464852898896
 31
0.0
  0
LINE
  5
EF
330
1F
100
AcDbEntity
  8
1
  6
DOT_CENTER
 62
     2
100
AcDbLine
 10
164.287843915321
 20
-47.61464852898895
 30
0.0
 11
169.287843915321
 21
-47.61464852898895
 31
0.0
  0
LINE
  5
F0
330
1F
100
AcDbEntity
  8
1
  6
DOT_CENTER
 62
     2
100
AcDbLine
 10
164.287843915321
 20
-45.61464852898896
 30
0.0
 11
169.287843915321
 21
-45.61464852898895
 31
0.0
  0
LINE
  5
F1
330
1F
100
AcDbEntity
  8
1
  6
Continuous
 62
     7
100
AcDbLine
 10
129.287843915321
 20
4.38535147101106
 30
0.0
 11
129.287843915321
 21
-45.61464852898895
 31
0.0
  0
LINE
  5
F2
330
1F
100
AcDbEntity
  8
1
  6
Continuous
 62
     7
100
AcDbLine
 10
132.287843915321
 20
-94.61464852898895
 30
0.0
 11
132.287843915321
 21
-47.61464852898895
 31
0.0
  0
LINE
  5
F3
330
1F
100
AcDbEntity
  8
1
  6
Continuous
 62
     7
100
AcDbLine
 10
164.287843915321
 20
-56.6146485289887
 30
0.0
 11
164.287843915321
 21
-47.61464852898895
 31
0.0
  0
LINE
  5
F4
330
1F
100
AcDbEntity
  8
1
  6
Continuous
 62
     7
100
AcDbLine
 10
169.287843915321
 20
4.38535147101106
 30
0.0
 11
169.287843915321
 21
-45.61464852898895
 31
0.0
  0
LINE
  5
F5
330
1F
100
AcDbEntity
  8
1
  6
DOT_CENTER
 62
     2
100
AcDbLine
 10
166.8734728892869
 20
-94.61464852898895
 30
0.0
 11
130.3525831969273
 21
-94.61464852898895
 31
0.0
  0
LINE
  5
F6
330
1F
100
AcDbEntity
  8
1
  6
DOT_CENTER
 62
     2
100
AcDbLine
 10
130.3525831969273
 20
53.38535147101105
 30
0.0
 11
166.8734728892869
 21
53.38535147101105
 31
0.0
  0
LINE
  5
F7
330
1F
100
AcDbEntity
  8
1
  6
DOT_CENTER
 62
     2
100
AcDbLine
 10
139.287843915321
 20
-97.86464852898901
 30
0.0
 11
139.287843915321
 21
-93.36464852898895
 31
0.0
  0
LINE
  5
F8
330
1F
100
AcDbEntity
  8
1
  6
Continuous
 62
     7
100
AcDbLine
 10
152.287843915321
 20
-89.11464852898895
 30
0.0
 11
144.287843915321
 21
-89.11464852898895
 31
0.0
  0
LINE
  5
F9
330
1F
100
AcDbEntity
  8
1
  6
Continuous
 62
     7
100
AcDbLine
 10
144.287843915321
 20
47.88535147101105
 30
0.0
 11
152.287843915321
 21
47.88535147101105
 31
0.0
  0
LINE
  5
FA
330
1F
100
AcDbEntity
  8
1
  6
Continuous
 62
     7
100
AcDbLine
 10
164.287843915321
 20
15.38535147101111
 30
0.0
 11
164.287843915321
 21
35.88535147101105
 31
0.0
  0
LINE
  5
FB
330
1F
100
AcDbEntity
  8
1
  6
Continuous
 62
     7
100
AcDbLine
 10
132.287843915321
 20
6.38535147101105
 30
0.0
 11
132.287843915321
 21
35.88535147101105
 31
0.0
  0
LINE
  5
FC
330
1F
100
AcDbEntity
  8
1
  6
DOT_CENTER
 62
     2
100
AcDbLine
 10
148.287843915321
 20
-113.3289416243351
 30
0.0
 11
148.287843915321
 21
73.0770835440912
 31
0.0
  0
LINE
  5
FD
330
1F
100
AcDbEntity
  8
1
  6
Continuous
 62
     7
100
AcDbLine
 10
64.5745104215931
 20
-78.11464852898898
 30
0.0
 11
64.5745104215931
 21
-89.11464852898901
 31
0.0
  0
LINE
  5
FE
330
1F
100
AcDbEntity
  8
1
  6
Continuous
 62
     7
100
AcDbLine
 10
64.5745104215931
 20
35.88535147101106
 30
0.0
 11
64.5745104215931
 21
47.88535147101105
 31
0.0
  0
LINE
  5
FF
330
1F
100
AcDbEntity
  8
1
  6
DOT_CENTER
 62
     2
100
AcDbLine
 10
41.78744366190571
 20
-71.68918859156351
 30
0.0
 11
-5.85026068647105
 21
-71.68918859156351
 31
0.0
  0
LINE
  5
100
330
1F
100
AcDbEntity
  8
1
  6
Continuous
 62
     7
100
AcDbLine
 10
132.287843915321
 20
35.88535147101105
 30
0.0
 11
132.287843915321
 21
53.38535147101105
 31
0.0
  0
LINE
  5
101
330
1F
100
AcDbEntity
  8
1
  6
Continuous
 62
     7
100
AcDbLine
 10
164.287843915321
 20
35.88535147101105
 30
0.0
 11
164.287843915321
 21
53.38535147101105
 31
0.0
  0
LINE
  5
102
330
1F
100
AcDbEntity
  8
1
  6
DOT_CENTER
 62
     2
100
AcDbLine
 10
51.9816942237601
 20
-20.61464852898895
 30
0.0
 11
103.5337723403521
 21
-20.61464852898895
 31
0.0
  0
LINE
  5
103
330
1F
100
AcDbEntity
  8
1
  6
DOT_CENTER
 62
     2
100
AcDbLine
 10
101.5745104215931
 20
82.428151340832
 30
0.0
 11
101.5745104215931
 21
79.3853514710111
 31
0.0
  0
LINE
  5
104
330
1F
100
AcDbEntity
  8
1
  6
DOT_CENTER
 62
     2
100
AcDbLine
 10
101.5745104215931
 20
-123.727582711116
 30
0.0
 11
101.5745104215931
 21
-120.614648528989
 31
0.0
  0
LINE
  5
105
330
1F
100
AcDbEntity
  8
1
  6
DOT_CENTER
 62
     2
100
AcDbLine
 10
101.5745104215931
 20
6.38535147101105
 30
0.0
 11
101.5745104215931
 21
79.3853514710111
 31
0.0
  0
LINE
  5
106
330
1F
100
AcDbEntity
  8
1
  6
Continuous
 62
     7
100
AcDbLine
 10
54.5745104215931
 20
-120.614648528989
 30
0.0
 11
54.5745104215931
 21
-110.614648528989
 31
0.0
  0
LINE
  5
107
330
1F
100
AcDbEntity
  8
1
  6
Continuous
 62
     7
100
AcDbLine
 10
54.5745104215931
 20
-110.614648528989
 30
0.0
 11
64.5745104215931
 21
-110.614648528989
 31
0.0
  0
LINE
  5
108
330
1F
100
AcDbEntity
  8
1
  6
Continuous
 62
     7
100
AcDbLine
 10
64.5745104215931
 20
-110.614648528989
 30
0.0
 11
64.5745104215931
 21
-89.11464852898901
 31
0.0
  0
LINE
  5
109
330
1F
100
AcDbEntity
  8
1
  6
Continuous
 62
     7
100
AcDbLine
 10
64.5745104215931
 20
-89.11464852898901
 30
0.0
 11
98.57451042159309
 21
-89.11464852898894
 31
0.0
  0
LINE
  5
10A
330
1F
100
AcDbEntity
  8
1
  6
Continuous
 62
     7
100
AcDbLine
 10
98.57451042159309
 20
6.38535147101105
 30
0.0
 11
98.5745104215931
 21
47.88535147101105
 31
0.0
  0
LINE
  5
10B
330
1F
100
AcDbEntity
  8
1
  6
Continuous
 62
     7
100
AcDbLine
 10
98.5745104215931
 20
47.88535147101105
 30
0.0
 11
64.5745104215931
 21
47.88535147101105
 31
0.0
  0
LINE
  5
10C
330
1F
100
AcDbEntity
  8
1
  6
Continuous
 62
     7
100
AcDbLine
 10
64.5745104215931
 20
47.88535147101105
 30
0.0
 11
64.5745104215931
 21
69.38535147101105
 31
0.0
  0
LINE
  5
10D
330
1F
100
AcDbEntity
  8
1
  6
Continuous
 62
     7
100
AcDbLine
 10
54.5745104215931
 20
6.38535147101105
 30
0.0
 11
54.5745104215931
 21
69.38535147101105
 31
0.0
  0
LINE
  5
10E
330
1F
100
AcDbEntity
  8
1
  6
Continuous
 62
     7
100
AcDbLine
 10
64.5745104215931
 20
69.38535147101105
 30
0.0
 11
54.5745104215931
 21
69.38535147101105
 31
0.0
  0
LINE
  5
10F
330
1F
100
AcDbEntity
  8
1
  6
Continuous
 62
     7
100
AcDbLine
 10
54.5745104215931
 20
69.38535147101105
 30
0.0
 11
54.5745104215931
 21
79.3853514710111
 31
0.0
  0
LINE
  5
110
330
1F
100
AcDbEntity
  8
1
  6
DOT_CENTER
 62
     2
100
AcDbLine
 10
51.8918014790397
 20
-120.614648528989
 30
0.0
 11
54.5745104215931
 21
-120.614648528989
 31
0.0
  0
LINE
  5
111
330
1F
100
AcDbEntity
  8
1
  6
DOT_CENTER
 62
     2
100
AcDbLine
 10
54.5745104215931
 20
-120.614648528989
 30
0.0
 11
101.5745104215931
 21
-120.614648528989
 31
0.0
  0
LINE
  5
112
330
1F
100
AcDbEntity
  8
1
  6
DOT_CENTER
 62
     2
100
AcDbLine
 10
94.5745104215931
 20
-120.614648528989
 30
0.0
 11
104.7136728336588
 21
-120.614648528989
 31
0.0
  0
LINE
  5
113
330
1F
100
AcDbEntity
  8
1
  6
DOT_CENTER
 62
     2
100
AcDbLine
 10
51.8918014790397
 20
79.3853514710111
 30
0.0
 11
54.5745104215931
 21
79.3853514710111
 31
0.0
  0
LINE
  5
114
330
1F
100
AcDbEntity
  8
1
  6
DOT_CENTER
 62
     2
100
AcDbLine
 10
54.5745104215931
 20
79.3853514710111
 30
0.0
 11
101.5745104215931
 21
79.3853514710111
 31
0.0
  0
LINE
  5
115
330
1F
100
AcDbEntity
  8
1
  6
DOT_CENTER
 62
     2
100
AcDbLine
 10
94.5745104215931
 20
79.3853514710111
 30
0.0
 11
104.7136728336588
 21
79.3853514710111
 31
0.0
  0
LINE
  5
116
330
1F
100
AcDbEntity
  8
1
  6
Continuous
 62
     7
100
AcDbLine
 10
5.83123967983047
 20
-87.68918859156332
 30
0.0
 11
11.83123967983048
 21
-87.68918859156341
 31
0.0
  0
LINE
  5
117
330
1F
100
AcDbEntity
  8
1
  6
Continuous
 62
     7
100
AcDbLine
 10
5.83123967983068
 20
-55.68918859156351
 30
0.0
 11
-4.16876032016935
 21
-55.68918859156351
 31
0.0
  0
LINE
  5
118
330
1F
100
AcDbEntity
  8
1
  6
Continuous
 62
     7
100
AcDbLine
 10
5.83123967983068
 20
-55.68918859156351
 30
0.0
 11
5.83123967983047
 21
-87.68918859156332
 31
0.0
  0
LINE
  5
119
330
1F
100
AcDbEntity
  8
1
  6
DOT_CENTER
 62
     2
100
AcDbLine
 10
127.1101707407831
 20
-20.61464852898895
 30
0.0
 11
179.7905864202761
 21
-20.61464852898895
 31
0.0
  0
LINE
  5
11A
330
1F
100
AcDbEntity
  8
1
  6
DOT_CENTER
 62
     2
100
AcDbLine
 10
127.1101707407831
 20
-120.614648528989
 30
0.0
 11
129.287843915321
 21
-120.614648528989
 31
0.0
  0
LINE
  5
11B
330
1F
100
AcDbEntity
  8
1
  6
DOT_CENTER
 62
     2
100
AcDbLine
 10
127.1101707407831
 20
79.3853514710111
 30
0.0
 11
129.287843915321
 21
79.3853514710111
 31
0.0
  0
LINE
  5
11C
330
1F
100
AcDbEntity
  8
1
  6
Continuous
 62
     7
100
AcDbLine
 10
129.287843915321
 20
-47.61464852898897
 30
0.0
 11
129.287843915321
 21
-120.614648528989
 31
0.0
  0
LINE
  5
11D
330
1F
100
AcDbEntity
  8
1
  6
DOT_CENTER
 62
     2
100
AcDbLine
 10
129.287843915321
 20
-120.614648528989
 30
0.0
 11
169.287843915321
 21
-120.614648528989
 31
0.0
  0
LINE
  5
11E
330
1F
100
AcDbEntity
  8
1
  6
DOT_CENTER
 62
     2
100
AcDbLine
 10
129.287843915321
 20
79.3853514710111
 30
0.0
 11
169.287843915321
 21
79.3853514710111
 31
0.0
  0
LINE
  5
11F
330
1F
100
AcDbEntity
  8
1
  6
Continuous
 62
     7
100
AcDbLine
 10
169.287843915321
 20
-56.6146485289887
 30
0.0
 11
169.287843915321
 21
-120.614648528989
 31
0.0
  0
LINE
  5
120
330
1F
100
AcDbEntity
  8
1
  6
DOT_CENTER
 62
     2
100
AcDbLine
 10
177.287843915321
 20
-120.614648528989
 30
0.0
 11
179.7905864202761
 21
-120.614648528989
 31
0.0
  0
LINE
  5
121
330
1F
100
AcDbEntity
  8
1
  6
DOT_CENTER
 62
     2
100
AcDbLine
 10
177.287843915321
 20
79.38535147101112
 30
0.0
 11
179.7905864202761
 21
79.38535147101112
 31
0.0
  0
LINE
  5
122
330
1F
100
AcDbEntity
  8
1
  6
Continuous
 62
     7
100
AcDbLine
 10
43.83123967983067
 20
-92.68918859156351
 30
0.0
 11
11.83123967983049
 21
-92.68918859156351
 31
0.0
  0
LINE
  5
123
330
1F
100
AcDbEntity
  8
1
  6
PHANTOM
 62
     2
100
AcDbLine
 10
43.83123967983067
 20
-92.68918859156351
 30
0.0
 11
43.83123967983067
 21
-52.68918859156351
 31
0.0
  0
LINE
  5
124
330
1F
100
AcDbEntity
  8
1
  6
Continuous
 62
     7
100
AcDbLine
 10
-4.16876032016953
 20
-92.68918859156351
 30
0.0
 11
-4.16876032016952
 21
-87.68918859156331
 31
0.0
  0
LINE
  5
125
330
1F
100
AcDbEntity
  8
1
  6
Continuous
 62
     7
100
AcDbLine
 10
-4.16876032016952
 20
-87.68918859156331
 30
0.0
 11
5.83123967983047
 21
-87.68918859156332
 31
0.0
  0
LINE
  5
126
330
1F
100
AcDbEntity
  8
1
  6
Continuous
 62
     7
100
AcDbLine
 10
39.83123967983048
 20
-87.68918859156354
 30
0.0
 11
39.83123967983065
 21
-55.68918859156361
 31
0.0
  0
LINE
  5
127
330
1F
100
AcDbEntity
  8
1
  6
Continuous
 62
     7
100
AcDbLine
 10
39.83123967983065
 20
-55.68918859156361
 30
0.0
 11
5.83123967983068
 21
-55.68918859156351
 31
0.0
  0
LINE
  5
128
330
1F
100
AcDbEntity
  8
1
  6
Continuous
 62
     7
100
AcDbLine
 10
-4.16876032016935
 20
-55.68918859156351
 30
0.0
 11
-4.1687603201693
 21
-52.68918859156351
 31
0.0
  0
LINE
  5
129
330
1F
100
AcDbEntity
  8
1
  6
Continuous
 62
     7
100
AcDbLine
 10
-4.1687603201693
 20
-52.68918859156351
 30
0.0
 11
43.83123967983067
 21
-52.68918859156351
 31
0.0
  0
LINE
  5
12A
330
1F
100
AcDbEntity
  8
1
  6
PHANTOM
 62
     2
100
AcDbLine
 10
43.83123967983067
 20
-52.68918859156351
 30
0.0
 11
43.83123967983067
 21
-50.68471859187277
 31
0.0
  0
LINE
  5
12B
330
1F
100
AcDbEntity
  8
1
  6
PHANTOM
 62
     2
100
AcDbLine
 10
43.83123967983067
 20
-102.464919198667
 30
0.0
 11
43.83123967983067
 21
-100.6891885915635
 31
0.0
  0
LINE
  5
12C
330
1F
100
AcDbEntity
  8
1
  6
Continuous
 62
     7
100
AcDbLine
 10
-4.16876032016952
 20
-87.68918859156331
 30
0.0
 11
-4.16876032016935
 21
-55.68918859156351
 31
0.0
  0
LINE
  5
12D
330
1F
100
AcDbEntity
  8
1
  6
DOT_CENTER
 62
     2
100
AcDbLine
 10
177.287843915321
 20
-45.61464852898895
 30
0.0
 11
179.7905864202761
 21
-45.61464852898894
 31
0.0
  0
LINE
  5
12E
330
1F
100
AcDbEntity
  8
1
  6
DOT_CENTER
 62
     2
100
AcDbLine
 10
177.287843915321
 20
-47.61464852898894
 30
0.0
 11
179.7905864202761
 21
-47.61464852898894
 31
0.0
  0
LINE
  5
12F
330
1F
100
AcDbEntity
  8
1
  6
DOT_CENTER
 62
     2
100
AcDbLine
 10
101.5745104215931
 20
-45.61464852898896
 30
0.0
 11
103.5337723403521
 21
-45.61464852898895
 31
0.0
  0
LINE
  5
130
330
1F
100
AcDbEntity
  8
1
  6
DOT_CENTER
 62
     2
100
AcDbLine
 10
101.5745104215931
 20
-47.61464852898895
 30
0.0
 11
103.5337723403521
 21
-47.61464852898895
 31
0.0
  0
LINE
  5
131
330
1F
100
AcDbEntity
  8
1
  6
DOT_CENTER
 62
     2
100
AcDbLine
 10
54.5745104215931
 20
6.38535147101105
 30
0.0
 11
51.9816942237601
 21
6.38535147101105
 31
0.0
  0
LINE
  5
132
330
1F
100
AcDbEntity
  8
1
  6
DOT_CENTER
 62
     2
100
AcDbLine
 10
54.5745104215931
 20
4.38535147101105
 30
0.0
 11
51.9816942237601
 21
4.38535147101105
 31
0.0
  0
LINE
  5
133
330
1F
100
AcDbEntity
  8
1
  6
DOT_CENTER
 62
     2
100
AcDbLine
 10
129.287843915321
 20
6.38535147101106
 30
0.0
 11
127.1101707407831
 21
6.38535147101105
 31
0.0
  0
LINE
  5
134
330
1F
100
AcDbEntity
  8
1
  6
DOT_CENTER
 62
     2
100
AcDbLine
 10
129.287843915321
 20
4.38535147101106
 30
0.0
 11
127.1101707407831
 21
4.38535147101105
 31
0.0
  0
LINE
  5
135
330
1F
100
AcDbEntity
  8
1
  6
Continuous
 62
     7
100
AcDbLine
 10
164.287843915321
 20
-45.61464852898896
 30
0.0
 11
164.287843915321
 21
4.38535147101105
 31
0.0
  0
LINE
  5
136
330
1F
100
AcDbEntity
  8
1
  6
Continuous
 62
     7
100
AcDbLine
 10
169.287843915321
 20
15.38535147101111
 30
0.0
 11
169.287843915321
 21
6.38535147101106
 31
0.0
  0
LINE
  5
137
330
1F
100
AcDbEntity
  8
1
  6
Continuous
 62
     7
100
AcDbLine
 10
132.287843915321
 20
-45.61464852898895
 30
0.0
 11
132.287843915321
 21
4.38535147101105
 31
0.0
  0
LINE
  5
138
330
1F
100
AcDbEntity
  8
1
  6
Continuous
 62
     7
100
AcDbLine
 10
129.287843915321
 20
79.3853514710111
 30
0.0
 11
129.287843915321
 21
6.38535147101106
 31
0.0
  0
LINE
  5
139
330
1F
100
AcDbEntity
  8
1
  6
Continuous
 62
     7
100
AcDbLine
 10
98.57451042159309
 20
-45.61464852898896
 30
0.0
 11
98.57451042159308
 21
4.38535147101105
 31
0.0
  0
LINE
  5
13A
330
1F
100
AcDbEntity
  8
1
  6
DOT_CENTER
 62
     2
100
AcDbLine
 10
101.5745104215931
 20
-45.61464852898896
 30
0.0
 11
101.5745104215931
 21
4.38535147101105
 31
0.0
  0
LINE
  5
13B
330
1F
100
AcDbEntity
  8
1
  6
Continuous
 62
     7
100
AcDbLine
 10
54.5745104215931
 20
-45.61464852898896
 30
0.0
 11
54.5745104215931
 21
4.38535147101105
 31
0.0
  0
LINE
  5
13C
330
1F
100
AcDbEntity
  8
1
  6
Continuous
 62
     7
100
AcDbLine
 10
98.57451042159309
 20
-89.11464852898894
 30
0.0
 11
98.57451042159309
 21
-47.61464852898895
 31
0.0
  0
LINE
  5
13D
330
1F
100
AcDbEntity
  8
1
  6
DOT_CENTER
 62
     2
100
AcDbLine
 10
101.5745104215931
 20
-120.614648528989
 30
0.0
 11
101.5745104215931
 21
-47.61464852898895
 31
0.0
  0
LINE
  5
13E
330
1F
100
AcDbEntity
  8
1
  6
Continuous
 62
     7
100
AcDbLine
 10
54.5745104215931
 20
-110.614648528989
 30
0.0
 11
54.5745104215931
 21
-47.61464852898895
 31
0.0
  0
LINE
  5
13F
330
1F
100
AcDbEntity
  8
1
  6
DOT_CENTER
 62
     2
100
AcDbLine
 10
169.287843915321
 20
6.38535147101106
 30
0.0
 11
164.287843915321
 21
6.38535147101105
 31
0.0
  0
LINE
  5
140
330
1F
100
AcDbEntity
  8
1
  6
DOT_CENTER
 62
     2
100
AcDbLine
 10
164.287843915321
 20
6.38535147101105
 30
0.0
 11
132.287843915321
 21
6.38535147101105
 31
0.0
  0
LINE
  5
141
330
1F
100
AcDbEntity
  8
1
  6
DOT_CENTER
 62
     2
100
AcDbLine
 10
132.287843915321
 20
6.38535147101105
 30
0.0
 11
129.287843915321
 21
6.38535147101106
 31
0.0
  0
LINE
  5
142
330
1F
100
AcDbEntity
  8
1
  6
DOT_CENTER
 62
     2
100
AcDbLine
 10
169.287843915321
 20
4.38535147101106
 30
0.0
 11
164.287843915321
 21
4.38535147101105
 31
0.0
  0
LINE
  5
143
330
1F
100
AcDbEntity
  8
1
  6
DOT_CENTER
 62
     2
100
AcDbLine
 10
164.287843915321
 20
4.38535147101105
 30
0.0
 11
132.287843915321
 21
4.38535147101105
 31
0.0
  0
LINE
  5
144
330
1F
100
AcDbEntity
  8
1
  6
DOT_CENTER
 62
     2
100
AcDbLine
 10
132.287843915321
 20
4.38535147101105
 30
0.0
 11
129.287843915321
 21
4.38535147101106
 31
0.0
  0
LINE
  5
145
330
1F
100
AcDbEntity
  8
1
  6
DOT_CENTER
 62
     2
100
AcDbLine
 10
101.5745104215931
 20
6.38535147101105
 30
0.0
 11
98.57451042159309
 21
6.38535147101105
 31
0.0
  0
LINE
  5
146
330
1F
100
AcDbEntity
  8
1
  6
DOT_CENTER
 62
     2
100
AcDbLine
 10
98.57451042159309
 20
6.38535147101105
 30
0.0
 11
54.5745104215931
 21
6.38535147101105
 31
0.0
  0
LINE
  5
147
330
1F
100
AcDbEntity
  8
1
  6
DOT_CENTER
 62
     2
100
AcDbLine
 10
101.5745104215931
 20
4.38535147101105
 30
0.0
 11
98.57451042159308
 21
4.38535147101105
 31
0.0
  0
LINE
  5
148
330
1F
100
AcDbEntity
  8
1
  6
DOT_CENTER
 62
     2
100
AcDbLine
 10
98.57451042159308
 20
4.38535147101105
 30
0.0
 11
54.5745104215931
 21
4.38535147101105
 31
0.0
  0
LINE
  5
149
330
1F
100
AcDbEntity
  8
1
  6
DOT_CENTER
 62
     2
100
AcDbLine
 10
54.5745104215931
 20
-45.61464852898896
 30
0.0
 11
98.57451042159309
 21
-45.61464852898896
 31
0.0
  0
LINE
  5
14A
330
1F
100
AcDbEntity
  8
1
  6
DOT_CENTER
 62
     2
100
AcDbLine
 10
98.57451042159309
 20
-45.61464852898896
 30
0.0
 11
101.5745104215931
 21
-45.61464852898896
 31
0.0
  0
LINE
  5
14B
330
1F
100
AcDbEntity
  8
1
  6
DOT_CENTER
 62
     2
100
AcDbLine
 10
54.5745104215931
 20
-47.61464852898895
 30
0.0
 11
98.57451042159309
 21
-47.61464852898895
 31
0.0
  0
LINE
  5
14C
330
1F
100
AcDbEntity
  8
1
  6
DOT_CENTER
 62
     2
100
AcDbLine
 10
98.57451042159309
 20
-47.61464852898895
 30
0.0
 11
101.5745104215931
 21
-47.61464852898895
 31
0.0
  0
LINE
  5
14D
330
1F
100
AcDbEntity
  8
1
  6
DOT_CENTER
 62
     2
100
AcDbLine
 10
177.287843915321
 20
6.38535147101106
 30
0.0
 11
169.287843915321
 21
6.38535147101106
 31
0.0
  0
LINE
  5
14E
330
1F
100
AcDbEntity
  8
1
  6
DOT_CENTER
 62
     2
100
AcDbLine
 10
177.287843915321
 20
4.38535147101105
 30
0.0
 11
169.287843915321
 21
4.38535147101106
 31
0.0
  0
LINE
  5
14F
330
1F
100
AcDbEntity
  8
1
  6
DOT_CENTER
 62
     2
100
AcDbLine
 10
103.5337723403521
 20
6.38535147101105
 30
0.0
 11
101.5745104215931
 21
6.38535147101105
 31
0.0
  0
LINE
  5
150
330
1F
100
AcDbEntity
  8
1
  6
DOT_CENTER
 62
     2
100
AcDbLine
 10
103.5337723403521
 20
4.38535147101105
 30
0.0
 11
101.5745104215931
 21
4.38535147101105
 31
0.0
  0
LINE
  5
151
330
1F
100
AcDbEntity
  8
1
  6
DOT_CENTER
 62
     2
100
AcDbLine
 10
51.9816942237601
 20
-45.61464852898895
 30
0.0
 11
54.5745104215931
 21
-45.61464852898896
 31
0.0
  0
LINE
  5
152
330
1F
100
AcDbEntity
  8
1
  6
DOT_CENTER
 62
     2
100
AcDbLine
 10
51.9816942237601
 20
-47.61464852898895
 30
0.0
 11
54.5745104215931
 21
-47.61464852898895
 31
0.0
  0
LINE
  5
153
330
1F
100
AcDbEntity
  8
1
  6
DOT_CENTER
 62
     2
100
AcDbLine
 10
159.537843915321
 20
54.38535147101105
 30
0.0
 11
155.037843915321
 21
54.38535147101105
 31
0.0
  0
LINE
  5
154
330
1F
100
AcDbEntity
  8
1
  6
DOT_CENTER
 62
     2
100
AcDbLine
 10
157.287843915321
 20
52.13535147101105
 30
0.0
 11
157.287843915321
 21
56.63535147101105
 31
0.0
  0
LINE
  5
155
330
1F
100
AcDbEntity
  8
1
  6
DOT_CENTER
 62
     2
100
AcDbLine
 10
139.287843915321
 20
56.63535147101105
 30
0.0
 11
139.287843915321
 21
52.13535147101105
 31
0.0
  0
LINE
  5
156
330
1F
100
AcDbEntity
  8
1
  6
DOT_CENTER
 62
     2
100
AcDbLine
 10
141.537843915321
 20
54.38535147101105
 30
0.0
 11
137.037843915321
 21
54.38535147101105
 31
0.0
  0
LINE
  5
157
330
1F
100
AcDbEntity
  8
1
  6
DOT_CENTER
 62
     2
100
AcDbLine
 10
157.287843915321
 20
-97.86464852898901
 30
0.0
 11
157.287843915321
 21
-93.36464852898895
 31
0.0
  0
LINE
  5
158
330
1F
100
AcDbEntity
  8
1
  6
DOT_CENTER
 62
     2
100
AcDbLine
 10
155.037843915321
 20
-95.61464852898895
 30
0.0
 11
159.537843915321
 21
-95.61464852898895
 31
0.0
  0
LINE
  5
159
330
1F
100
AcDbEntity
  8
1
  6
DOT_CENTER
 62
     2
100
AcDbLine
 10
137.037843915321
 20
-95.61464852898895
 30
0.0
 11
141.537843915321
 21
-95.61464852898895
 31
0.0
  0
LINE
  5
15A
330
1F
100
AcDbEntity
  8
1
  6
Continuous
 62
     7
100
AcDbLine
 10
169.287843915321
 20
15.38535147101111
 30
0.0
 11
164.287843915321
 21
15.38535147101111
 31
0.0
  0
LINE
  5
15B
330
1F
100
AcDbEntity
  8
1
  6
Continuous
 62
     7
100
AcDbLine
 10
164.287843915321
 20
6.38535147101105
 30
0.0
 11
164.287843915321
 21
15.38535147101111
 31
0.0
  0
LINE
  5
15C
330
1F
100
AcDbEntity
  8
1
  6
Continuous
 62
     7
100
AcDbLine
 10
169.287843915321
 20
79.3853514710111
 30
0.0
 11
169.287843915321
 21
15.38535147101111
 31
0.0
  0
LINE
  5
15D
330
1F
100
AcDbEntity
  8
1
  6
Continuous
 62
     7
100
AcDbLine
 10
169.287843915321
 20
-56.6146485289887
 30
0.0
 11
164.287843915321
 21
-56.6146485289887
 31
0.0
  0
LINE
  5
15E
330
1F
100
AcDbEntity
  8
1
  6
Continuous
 62
     7
100
AcDbLine
 10
164.287843915321
 20
-94.61464852898895
 30
0.0
 11
164.287843915321
 21
-56.6146485289887
 31
0.0
  0
LINE
  5
15F
330
1F
100
AcDbEntity
  8
1
  6
Continuous
 62
     7
100
AcDbLine
 10
169.287843915321
 20
-47.61464852898895
 30
0.0
 11
169.287843915321
 21
-56.6146485289887
 31
0.0
  0
ARC
  5
160
330
1F
100
AcDbEntity
  8
1
  6
Continuous
 62
     7
100
AcDbCircle
 10
-179.91485230427
 20
53.38535147101105
 30
0.0
 40
16.0
100
AcDbArc
 50
0.0
 51
90.0
  0
ARC
  5
161
330
1F
100
AcDbEntity
  8
1
  6
Continuous
 62
     7
100
AcDbCircle
 10
-179.9148523042697
 20
-94.61464852898895
 30
0.0
 40
16.00000000000031
100
AcDbArc
 50
180.0
 51
-90.0
  0
ARC
  5
162
330
1F
100
AcDbEntity
  8
1
  6
Continuous
 62
     7
100
AcDbCircle
 10
-175.9148523042697
 20
-77.1146485289887
 30
0.0
 40
12.0
100
AcDbArc
 50
-90.0
 51
0.00000000000007
  0
ARC
  5
163
330
1F
100
AcDbEntity
  8
1
  6
Continuous
 62
     7
100
AcDbCircle
 10
-183.91485230427
 20
-77.1146485289887
 30
0.0
 40
12.0
100
AcDbArc
 50
180.0
 51
-90.0
  0
ARC
  5
164
330
1F
100
AcDbEntity
  8
1
  6
Continuous
 62
     7
100
AcDbCircle
 10
-183.91485230427
 20
35.88535147101108
 30
0.0
 40
12.0
100
AcDbArc
 50
90.0
 51
180.0
  0
ARC
  5
165
330
1F
100
AcDbEntity
  8
1
  6
Continuous
 62
     7
100
AcDbCircle
 10
-175.91485230427
 20
35.88535147101108
 30
0.0
 40
12.00000000000009
100
AcDbArc
 50
0.0
 51
90.0
  0
ARC
  5
166
330
1F
100
AcDbEntity
  8
1
  6
Continuous
 62
     7
100
AcDbCircle
 10
-179.9148523042697
 20
-94.61464852898895
 30
0.0
 40
15.99999999999974
100
AcDbArc
 50
-90.0
 51
0.0
  0
ARC
  5
167
330
1F
100
AcDbEntity
  8
1
  6
Continuous
 62
     7
100
AcDbCircle
 10
-179.91485230427
 20
53.38535147101105
 30
0.0
 40
16.00000000000006
100
AcDbArc
 50
90.0
 51
180.0
  0
ARC
  5
168
330
1F
100
AcDbEntity
  8
1
  6
Continuous
 62
     7
100
AcDbCircle
 10
148.287843915321
 20
-94.61464852898895
 30
0.0
 40
16.0
100
AcDbArc
 50
180.0
 51
0.0
  0
ARC
  5
169
330
1F
100
AcDbEntity
  8
1
  6
Continuous
 62
     7
100
AcDbCircle
 10
148.287843915321
 20
53.38535147101105
 30
0.0
 40
16.0
100
AcDbArc
 50
0.0
 51
180.0
  0
ARC
  5
16A
330
1F
100
AcDbEntity
  8
1
  6
Continuous
 62
     7
100
AcDbCircle
 10
144.287843915321
 20
-77.11464852898895
 30
0.0
 40
12.0
100
AcDbArc
 50
180.0
 51
-90.0
  0
ARC
  5
16B
330
1F
100
AcDbEntity
  8
1
  6
Continuous
 62
     7
100
AcDbCircle
 10
152.287843915321
 20
-77.11464852898895
 30
0.0
 40
12.0
100
AcDbArc
 50
-90.0
 51
0.0
  0
ARC
  5
16C
330
1F
100
AcDbEntity
  8
1
  6
Continuous
 62
     7
100
AcDbCircle
 10
152.287843915321
 20
35.88535147101105
 30
0.0
 40
12.0
100
AcDbArc
 50
0.0
 51
90.0
  0
ARC
  5
16D
330
1F
100
AcDbEntity
  8
1
  6
Continuous
 62
     7
100
AcDbCircle
 10
144.287843915321
 20
35.88535147101105
 30
0.0
 40
12.0
100
AcDbArc
 50
90.0
 51
180.0
  0
CIRCLE
  5
16E
330
1F
100
AcDbEntity
  8
1
  6
DOT_CENTER
 62
     2
100
AcDbCircle
 10
144.287843915321
 20
-94.61464852898895
 30
0.0
 40
12.0
  0
CIRCLE
  5
16F
330
1F
100
AcDbEntity
  8
1
  6
DOT_CENTER
 62
     2
100
AcDbCircle
 10
-175.91485230427
 20
-94.61464852898895
 30
0.0
 40
12.0
  0
CIRCLE
  5
170
330
1F
100
AcDbEntity
  8
1
  6
Continuous
 62
     7
100
AcDbCircle
 10
-188.9148523042701
 20
54.38535147101111
 30
0.0
 40
1.5
  0
CIRCLE
  5
171
330
1F
100
AcDbEntity
  8
1
  6
Continuous
 62
     7
100
AcDbCircle
 10
-170.9148523042701
 20
54.38535147101111
 30
0.0
 40
1.5
  0
CIRCLE
  5
172
330
1F
100
AcDbEntity
  8
1
  6
Continuous
 62
     7
100
AcDbCircle
 10
-170.9148523042701
 20
-95.6146485289887
 30
0.0
 40
1.5
  0
CIRCLE
  5
173
330
1F
100
AcDbEntity
  8
1
  6
Continuous
 62
     7
100
AcDbCircle
 10
-188.9148523042701
 20
-95.6146485289887
 30
0.0
 40
1.5
  0
CIRCLE
  5
174
330
1F
100
AcDbEntity
  8
1
  6
Continuous
 62
     7
100
AcDbCircle
 10
157.287843915321
 20
54.38535147101105
 30
0.0
 40
1.5
  0
CIRCLE
  5
175
330
1F
100
AcDbEntity
  8
1
  6
Continuous
 62
     7
100
AcDbCircle
 10
139.287843915321
 20
54.38535147101105
 30
0.0
 40
1.5
  0
CIRCLE
  5
176
330
1F
100
AcDbEntity
  8
1
  6
Continuous
 62
     7
100
AcDbCircle
 10
157.287843915321
 20
-95.61464852898895
 30
0.0
 40
1.5
  0
CIRCLE
  5
177
330
1F
100
AcDbEntity
  8
1
  6
Continuous
 62
     7
100
AcDbCircle
 10
139.287843915321
 20
-95.61464852898895
 30
0.0
 40
1.5
  0
MTEXT
  5
179
330
1F
100
AcDbEntity
  8
1
 62
     3
100
AcDbMText
 10
-54.31628452862638
 20
-129.7487481199814
 30
0.0
 40
5.0
 41
0.0
 71
     4
 72
     1
  1
Fräsbild\PBlockzarge
  7
CONVERTER_11
 73
     1
 44
1.32052821128451
  0
MTEXT
  5
17A
330
1F
100
AcDbEntity
  8
1
 62
     3
100
AcDbMText
 10
-37.66045484007687
 20
-145.1182392210103
 30
0.0
 40
5.0
 41
0.0
 71
     5
 72
     1
  1
Rahmen
  7
CONVERTER_11
 73
     1
 44
1.20048019207683
  0
MTEXT
  5
17B
330
1F
100
AcDbEntity
  8
1
 62
     3
100
AcDbMText
 10
9.65722620659244
 20
-129.1382832889033
 30
0.0
 40
5.0
 41
0.0
 71
     4
 72
     1
  1
Fräsbild\PFlügel
  7
CONVERTER_11
 73
     1
 44
1.20048019207683
  0
DIMENSION
  5
186
330
1F
100
AcDbEntity
  8
1
100
AcDbDimension
  2
*D1
 10
-188.9148523042701
 20
35.9351702982229
 30
0.0
 11
-183.591433398381
 21
39.6851702982229
 31
0.0
 70
    32
  1
<>
 71
     5
 42
-1.0
 53
0.00013888888889
  3
ME10_DIM_10
100
AcDbAlignedDimension
 13
-170.9148523042701
 23
52.13535147101111
 33
0.0
 14
-188.9148523042701
 24
52.13535147101111
 34
0.0
100
AcDbRotatedDimension
  0
DIMENSION
  5
191
330
1F
100
AcDbEntity
  8
1
100
AcDbDimension
  2
*D2
 10
157.287843915321
 20
34.5451568829076
 30
0.0
 11
152.8495599028962
 21
38.2951568829076
 31
0.0
 70
    32
  1
<>
 71
     5
 42
-1.0
 53
0.00013888888889
  3
ME10_DIM_11
100
AcDbAlignedDimension
 13
139.287843915321
 23
52.13535147101105
 33
0.0
 14
157.287843915321
 24
52.13535147101105
 34
0.0
100
AcDbRotatedDimension
  0
DIMENSION
  5
19E
330
1F
100
AcDbEntity
  8
1
100
AcDbDimension
  2
*D3
 10
23.4118579323537
 20
-92.68918859156351
 30
0.0
 11
19.6618579323537
 21
-83.176156920623
 31
0.0
 70
    32
  1
<>
 71
     5
 42
-1.0
 53
90.0
  3
ME10_DIM_12
100
AcDbAlignedDimension
 13
39.83123967983048
 23
-87.68918859156354
 33
0.0
 14
43.83123967983067
 24
-92.68918859156351
 34
0.0
 50
90.0
100
AcDbRotatedDimension
  0
DIMENSION
  5
1A9
330
1F
100
AcDbEntity
  8
1
100
AcDbDimension
  2
*D4
 10
164.287843915321
 20
-128.729476198668
 30
0.0
 11
149.3561631501281
 21
-124.979476198668
 31
0.0
 70
    32
  1
<>
 71
     5
 42
-1.0
 53
0.00013888888889
  3
ME10_DIM_13
100
AcDbAlignedDimension
 13
132.287843915321
 23
-94.61464852898895
 33
0.0
 14
164.287843915321
 24
-94.61464852898895
 34
0.0
100
AcDbRotatedDimension
  0
DIMENSION
  5
1B4
330
1F
100
AcDbEntity
  8
1
100
AcDbDimension
  2
*D5
 10
124.3742114205561
 20
47.88535147101105
 30
0.0
 11
120.6242114205561
 21
-15.53532038282324
 31
0.0
 70
    32
  1
197
 71
     5
 42
-1.0
 53
90.0
  3
ME10_DIM_14
100
AcDbAlignedDimension
 13
144.287843915321
 23
-89.11464852898895
 33
0.0
 14
144.287843915321
 24
47.88535147101105
 34
0.0
 50
90.0
100
AcDbRotatedDimension
  0
DIMENSION
  5
1BF
330
1F
100
AcDbEntity
  8
1
100
AcDbDimension
  2
*D6
 10
54.57451042159308
 20
-138.6142090488623
 30
0.0
 11
76.64378923730678
 21
-134.8642090488623
 31
0.0
 70
    32
  1
<>
 71
     5
 42
-1.0
 53
0.00013888888889
  3
ME10_DIM_15
100
AcDbAlignedDimension
 13
98.57451042159309
 23
-89.11464852898894
 33
0.0
 14
54.5745104215931
 24
-110.614648528989
 34
0.0
100
AcDbRotatedDimension
  0
DIMENSION
  5
1CA
330
1F
100
AcDbEntity
  8
1
100
AcDbDimension
  2
*D7
 10
64.5745104215931
 20
-128.729476198668
 30
0.0
 11
60.05602208558331
 21
-124.979476198668
 31
0.0
 70
    32
  1
<>
 71
     5
 42
-1.0
 53
0.00013888888889
  3
ME10_DIM_16
100
AcDbAlignedDimension
 13
54.5745104215931
 23
-120.614648528989
 33
0.0
 14
64.5745104215931
 24
-110.614648528989
 34
0.0
100
AcDbRotatedDimension
  0
DIMENSION
  5
1D5
330
1F
100
AcDbEntity
  8
1
100
AcDbDimension
  2
*D8
 10
-145.307968487826
 20
-89.11464852898872
 30
0.0
 11
-149.057968487826
 21
-18.67876919362649
 31
0.0
 70
    32
  1
197
 71
     5
 42
-1.0
 53
90.0
  3
ME10_DIM_17
100
AcDbAlignedDimension
 13
-175.91485230427
 23
47.88535147101111
 33
0.0
 14
-175.9148523042697
 24
-89.1146485289887
 34
0.0
 50
90.0
100
AcDbRotatedDimension
  0
DIMENSION
  5
1E0
330
1F
100
AcDbEntity
  8
1
100
AcDbDimension
  2
*D9
 10
-122.444265640198
 20
69.3853514710111
 30
0.0
 11
-126.194265640198
 21
-20.25914290622809
 31
0.0
 70
    32
  1
240
 71
     5
 42
-1.0
 53
90.0
  3
ME10_DIM_18
100
AcDbAlignedDimension
 13
-179.9148523042697
 23
-110.6146485289887
 33
0.0
 14
-179.91485230427
 24
69.3853514710111
 34
0.0
 50
90.0
100
AcDbRotatedDimension
  0
DIMENSION
  5
1EB
330
1F
100
AcDbEntity
  8
1
100
AcDbDimension
  2
*D10
 10
-84.35733264471742
 20
-130.2566310837739
 30
0.0
 11
-80.28969881964929
 21
-126.5066310837739
 31
0.0
 70
    32
  1
<>
 71
     5
 42
-1.0
 53
0.00013888888889
  3
ME10_DIM_19
100
AcDbAlignedDimension
 13
-74.35733264471742
 23
-120.614648528989
 33
0.0
 14
-84.35733264471742
 24
-110.6146485289887
 34
0.0
100
AcDbRotatedDimension
  0
DIMENSION
  5
1F8
330
1F
100
AcDbEntity
  8
1
100
AcDbDimension
  2
*D11
 10
-30.17515141969547
 20
-92.68918859156351
 30
0.0
 11
-33.504086635169
 21
-83.3147619791637
 31
0.0
 70
    32
  1
<>
 71
     5
 42
-1.0
 53
90.0
  3
ME10_DIM_20
100
AcDbAlignedDimension
 13
-49.66876032016918
 23
-87.68918859156351
 33
0.0
 14
-52.66876032016923
 24
-92.68918859156351
 34
0.0
 50
90.0
100
AcDbRotatedDimension
  0
DIMENSION
  5
203
330
1F
100
AcDbEntity
  8
1
100
AcDbDimension
  2
*D12
 10
-74.35733264471742
 20
-139.2746447316279
 30
0.0
 11
-95.65945365988647
 21
-135.5246447316279
 31
0.0
 70
    32
  1
<>
 71
     5
 42
-1.0
 53
0.00013888888889
  3
ME10_DIM_21
100
AcDbAlignedDimension
 13
-116.3573326447174
 23
-89.11464852898897
 33
0.0
 14
-74.35733264471742
 24
-110.6146485289887
 34
0.0
100
AcDbRotatedDimension
  0
DIMENSION
  5
20E
330
1F
100
AcDbEntity
  8
1
100
AcDbDimension
  2
*D13
 10
-129.446561371004
 20
-95.6146485289887
 30
0.0
 11
-133.196561371004
 21
-26.14749160524353
 31
0.0
 70
    32
  1
210
 71
     5
 42
-1.0
 53
90.0
  3
ME10_DIM_22
100
AcDbAlignedDimension
 13
-168.6648523042701
 23
54.38535147101111
 33
0.0
 14
-168.6648523042701
 24
-95.6146485289887
 34
0.0
 50
90.0
100
AcDbRotatedDimension
  0
DIMENSION
  5
21B
330
1F
100
AcDbEntity
  8
1
100
AcDbDimension
  2
*D14
 10
169.287843915321
 20
-128.729476198668
 30
0.0
 11
174.4513013909486
 21
-124.979476198668
 31
0.0
 70
    32
  1
<>
 71
     5
 42
-1.0
 53
0.00013888888889
  3
ME10_DIM_23
100
AcDbAlignedDimension
 13
164.287843915321
 23
-94.61464852898895
 33
0.0
 14
169.287843915321
 24
-120.614648528989
 34
0.0
100
AcDbRotatedDimension
  0
DIMENSION
  5
226
330
1F
100
AcDbEntity
  8
1
100
AcDbDimension
  2
*D15
 10
-7.66876032016924
 20
-111.242144690671
 30
0.0
 11
-16.167766079217
 21
-107.492144690671
 31
0.0
 70
    32
  1
<>
 71
     5
 42
-1.0
 53
0.00013888888889
  3
ME10_DIM_24
100
AcDbAlignedDimension
 13
-23.66876032016924
 23
-92.68918859156351
 33
0.0
 14
-7.66876032016924
 24
-92.68918859156351
 34
0.0
100
AcDbRotatedDimension
  0
DIMENSION
  5
231
330
1F
100
AcDbEntity
  8
1
100
AcDbDimension
  2
*D16
 10
-4.16876032016953
 20
-111.242144690671
 30
0.0
 11
4.23390240851114
 21
-107.492144690671
 31
0.0
 70
    32
  1
<>
 71
     5
 42
-1.0
 53
0.00013888888889
  3
ME10_DIM_25
100
AcDbAlignedDimension
 13
11.83123967983048
 23
-87.68918859156341
 33
0.0
 14
-4.16876032016953
 24
-92.68918859156351
 34
0.0
100
AcDbRotatedDimension
  0
DIMENSION
  5
23C
330
1F
100
AcDbEntity
  8
1
100
AcDbDimension
  2
*D17
 10
-216.473982681377
 20
15.38535147101111
 30
0.0
 11
-220.223982681377
 21
-21.1289867687647
 31
0.0
 70
    32
  1
132
 71
     5
 42
-1.0
 53
90.0
  3
ME10_DIM_26
100
AcDbAlignedDimension
 13
-200.91485230427
 23
-56.6146485289887
 33
0.0
 14
-200.91485230427
 24
15.38535147101111
 34
0.0
 50
90.0
100
AcDbRotatedDimension
  0
DIMENSION
  5
247
330
1F
100
AcDbEntity
  8
1
100
AcDbDimension
  2
*D18
 10
189.19957816062
 20
15.3853514710111
 30
0.0
 11
185.44957816062
 21
-20.9803927849531
 31
0.0
 70
    32
  1
132
 71
     5
 42
-1.0
 53
90.0
  3
ME10_DIM_27
100
AcDbAlignedDimension
 13
169.287843915321
 23
-56.6146485289887
 33
0.0
 14
169.287843915321
 24
15.38535147101111
 34
0.0
 50
90.0
100
AcDbRotatedDimension
  0
DIMENSION
  5
254
330
1F
100
AcDbEntity
  8
1
100
AcDbDimension
  2
*D19
 10
-200.91485230427
 20
-130.2566310837739
 30
0.0
 11
-203.776615557664
 21
-126.5066310837739
 31
0.0
 70
    32
  1
<>
 71
     5
 42
-1.0
 53
0.00013888888889
  3
ME10_DIM_28
100
AcDbAlignedDimension
 13
-195.91485230427
 23
-94.61464852898895
 33
0.0
 14
-200.91485230427
 24
-120.614648528989
 34
0.0
100
AcDbRotatedDimension
  0
DIMENSION
  5
25F
330
1F
100
AcDbEntity
  8
1
100
AcDbDimension
  2
*D20
 10
-195.91485230427
 20
-130.2566310837739
 30
0.0
 11
-180.452925376808
 21
-126.5066310837739
 31
0.0
 70
    32
  1
<>
 71
     5
 42
-1.0
 53
0.00013888888889
  3
ME10_DIM_29
100
AcDbAlignedDimension
 13
-163.91485230427
 23
-94.61464852898895
 33
0.0
 14
-195.91485230427
 24
-94.61464852898895
 34
0.0
100
AcDbRotatedDimension
  0
DIMENSION
  5
26A
330
1F
100
AcDbEntity
  8
1
100
AcDbDimension
  2
*D21
 10
116.6505966278901
 20
54.38535147101105
 30
0.0
 11
112.9005966278901
 21
-17.61464852898897
 31
0.0
 70
    32
  1
210
 71
     5
 42
-1.0
 53
90.0
  3
ME10_DIM_30
100
AcDbAlignedDimension
 13
137.037843915321
 23
-95.61464852898895
 33
0.0
 14
137.037843915321
 24
54.38535147101105
 34
0.0
 50
90.0
100
AcDbRotatedDimension
  0
INSERT
  5
271
330
1F
100
AcDbEntity
  8
1
100
AcDbBlockReference
  2
*D22
 10
0.0
 20
0.0
 30
0.0
  0
INSERT
  5
278
330
1F
100
AcDbEntity
  8
1
100
AcDbBlockReference
  2
*D23
 10
0.0
 20
0.0
 30
0.0
  0
INSERT
  5
280
330
1F
100
AcDbEntity
  8
1
100
AcDbBlockReference
  2
*D24
 10
0.0
 20
0.0
 30
0.0
  0
INSERT
  5
288
330
1F
100
AcDbEntity
  8
1
100
AcDbBlockReference
  2
*D25
 10
0.0
 20
0.0
 30
0.0
  0
INSERT
  5
291
330
1F
100
AcDbEntity
  8
1
100
AcDbBlockReference
  2
*D26
 10
0.0
 20
0.0
 30
0.0
  0
INSERT
  5
29B
330
1F
100
AcDbEntity
  8
1
100
AcDbBlockReference
  2
*D27
 10
0.0
 20
0.0
 30
0.0
  0
ENDSEC
  0
SECTION
  2
OBJECTS
  0
DICTIONARY
  5
C
330
0
100
AcDbDictionary
281
     1
  3
ACAD_GROUP
350
D
  3
ACAD_LAYOUT
350
1A
  3
ACAD_MLINESTYLE
350
17
  3
ACAD_PLOTSETTINGS
350
19
  3
ACAD_PLOTSTYLENAME
350
E
  0
DICTIONARY
  5
D
102
{ACAD_REACTORS
330
C
102
}
330
C
100
AcDbDictionary
281
     1
  0
DICTIONARY
  5
1A
102
{ACAD_REACTORS
330
C
102
}
330
C
100
AcDbDictionary
281
     1
  3
Layout1
350
1E
  3
Layout2
350
26
  3
Model
350
22
  0
DICTIONARY
  5
17
102
{ACAD_REACTORS
330
C
102
}
330
C
100
AcDbDictionary
281
     1
  3
Standard
350
18
  0
DICTIONARY
  5
19
102
{ACAD_REACTORS
330
C
102
}
330
C
100
AcDbDictionary
281
     1
  0
ACDBDICTIONARYWDFLT
  5
E
102
{ACAD_REACTORS
330
C
102
}
330
C
100
AcDbDictionary
281
     1
  3
Normal
350
F
100
AcDbDictionaryWithDefault
340
F
  0
LAYOUT
  5
1E
102
{ACAD_REACTORS
330
1A
102
}
330
1A
100
AcDbPlotSettings
  1

  2

  4

  6

 40
0.0
 41
0.0
 42
0.0
 43
0.0
 44
0.0
 45
0.0
 46
0.0
 47
0.0
 48
0.0
 49
0.0
140
0.0
141
0.0
142
1.0
143
1.0
 70
   688
 72
     0
 73
     0
 74
     5
  7

 75
    16
 76
     0
 77
     2
 78
   300
147
1.0
148
0.0
149
0.0
100
AcDbLayout
  1
Layout1
 70
     1
 71
     1
 10
0.0
 20
0.0
 11
0.0
 21
0.0
 12
0.0
 22
0.0
 32
0.0
 14
0.0
 24
0.0
 34
0.0
 15
0.0
 25
0.0
 35
0.0
146
0.0
 13
0.0
 23
0.0
 33
0.0
 16
1.0
 26
0.0
 36
0.0
 17
0.0
 27
1.0
 37
0.0
 76
     0
330
1B
  0
LAYOUT
  5
26
102
{ACAD_REACTORS
330
1A
102
}
330
1A
100
AcDbPlotSettings
  1

  2

  4

  6

 40
0.0
 41
0.0
 42
0.0
 43
0.0
 44
0.0
 45
0.0
 46
0.0
 47
0.0
 48
0.0
 49
0.0
140
0.0
141
0.0
142
1.0
143
1.0
 70
   688
 72
     0
 73
     0
 74
     5
  7

 75
    16
 76
     0
 77
     2
 78
   300
147
1.0
148
0.0
149
0.0
100
AcDbLayout
  1
Layout2
 70
     1
 71
     2
 10
0.0
 20
0.0
 11
0.0
 21
0.0
 12
0.0
 22
0.0
 32
0.0
 14
0.0
 24
0.0
 34
0.0
 15
0.0
 25
0.0
 35
0.0
146
0.0
 13
0.0
 23
0.0
 33
0.0
 16
1.0
 26
0.0
 36
0.0
 17
0.0
 27
1.0
 37
0.0
 76
     0
330
23
  0
LAYOUT
  5
22
102
{ACAD_REACTORS
330
1A
102
}
330
1A
100
AcDbPlotSettings
  1

  2

  4

  6

 40
0.0
 41
0.0
 42
0.0
 43
0.0
 44
0.0
 45
0.0
 46
0.0
 47
0.0
 48
0.0
 49
0.0
140
0.0
141
0.0
142
1.0
143
1.0
 70
  1712
 72
     0
 73
     0
 74
     0
  7

 75
     0
 76
     0
 77
     2
 78
   300
147
1.0
148
0.0
149
0.0
100
AcDbLayout
  1
Model
 70
     1
 71
     0
 10
0.0
 20
0.0
 11
0.0
 21
0.0
 12
0.0
 22
0.0
 32
0.0
 14
-221.973982681377
 24
-147.7583114682399
 34
0.0
 15
191.19957816062
 25
82.428151340832
 35
0.0
146
0.0
 13
0.0
 23
0.0
 33
0.0
 16
1.0
 26
0.0
 36
0.0
 17
0.0
 27
1.0
 37
0.0
 76
     0
330
1F
  0
MLINESTYLE
  5
18
102
{ACAD_REACTORS
330
17
102
}
330
17
100
AcDbMlineStyle
  2
Standard
 70
     0
  3

 62
   256
 51
90.0
 52
90.0
 71
     2
 49
0.5
 62
   256
  6
BYLAYER
 49
-0.5
 62
   256
  6
BYLAYER
  0
ACDBPLACEHOLDER
  5
F
102
{ACAD_REACTORS
330
E
102
}
330
E
  0
ENDSEC
  0
EOF
