  0
SECTION
  2
HEADER
  9
$ACADVER
  1
AC1024
  9
$ACADMAINTVER
 70
     6
  9
$DWGCODEPAGE
  3
ANSI_1252
  9
$INSBASE
 10
0.0
 20
0.0
 30
0.0
  9
$EXTMIN
 10
16.0908680694532
 20
130.275936932759
 30
0.0
  9
$EXTMAX
 10
174.640335289677
 20
228.400687851905
 30
0.0
  9
$LIMMIN
 10
0.0
 20
0.0
  9
$LIMMAX
 10
12.0
 20
9.0
  9
$ORTHOMODE
 70
     0
  9
$REGENMODE
 70
     1
  9
$FILLMODE
 70
     1
  9
$QTEXTMODE
 70
     0
  9
$MIRRTEXT
 70
     1
  9
$LTSCALE
 40
1.0
  9
$ATTMODE
 70
     1
  9
$TEXTSIZE
 40
0.2
  9
$TRACEWID
 40
0.05
  9
$TEXTSTYLE
  7
Standard
  9
$CLAYER
  8
0
  9
$CELTYPE
  6
ByLayer
  9
$CECOLOR
 62
   256
  9
$CELTSCALE
 40
1.0
  9
$DISPSILH
 70
     0
  9
$DIMSCALE
 40
1.0
  9
$DIMASZ
 40
0.18
  9
$DIMEXO
 40
0.0625
  9
$DIMDLI
 40
0.38
  9
$DIMRND
 40
0.0
  9
$DIMDLE
 40
0.0
  9
$DIMEXE
 40
0.18
  9
$DIMTP
 40
0.0
  9
$DIMTM
 40
0.0
  9
$DIMTXT
 40
0.18
  9
$DIMCEN
 40
0.09
  9
$DIMTSZ
 40
0.0
  9
$DIMTOL
 70
     0
  9
$DIMLIM
 70
     0
  9
$DIMTIH
 70
     1
  9
$DIMTOH
 70
     1
  9
$DIMSE1
 70
     0
  9
$DIMSE2
 70
     0
  9
$DIMTAD
 70
     0
  9
$DIMZIN
 70
     0
  9
$DIMBLK
  1

  9
$DIMASO
 70
     1
  9
$DIMSHO
 70
     1
  9
$DIMPOST
  1

  9
$DIMAPOST
  1

  9
$DIMALT
 70
     0
  9
$DIMALTD
 70
     2
  9
$DIMALTF
 40
25.4
  9
$DIMLFAC
 40
1.0
  9
$DIMTOFL
 70
     0
  9
$DIMTVP
 40
0.0
  9
$DIMTIX
 70
     0
  9
$DIMSOXD
 70
     0
  9
$DIMSAH
 70
     0
  9
$DIMBLK1
  1

  9
$DIMBLK2
  1

  9
$DIMSTYLE
  2
Standard
  9
$DIMCLRD
 70
     0
  9
$DIMCLRE
 70
     0
  9
$DIMCLRT
 70
     0
  9
$DIMTFAC
 40
1.0
  9
$DIMGAP
 40
0.09
  9
$DIMJUST
 70
     0
  9
$DIMSD1
 70
     0
  9
$DIMSD2
 70
     0
  9
$DIMTOLJ
 70
     1
  9
$DIMTZIN
 70
     0
  9
$DIMALTZ
 70
     0
  9
$DIMALTTZ
 70
     0
  9
$DIMUPT
 70
     0
  9
$DIMDEC
 70
     4
  9
$DIMTDEC
 70
     4
  9
$DIMALTU
 70
     2
  9
$DIMALTTD
 70
     2
  9
$DIMTXSTY
  7
Standard
  9
$DIMAUNIT
 70
     0
  9
$DIMADEC
 70
     0
  9
$DIMALTRND
 40
0.0
  9
$DIMAZIN
 70
     0
  9
$DIMDSEP
 70
    46
  9
$DIMATFIT
 70
     3
  9
$DIMFRAC
 70
     0
  9
$DIMLDRBLK
  1

  9
$DIMLUNIT
 70
     2
  9
$DIMLWD
 70
    -2
  9
$DIMLWE
 70
    -2
  9
$DIMTMOVE
 70
     0
  9
$DIMFXL
 40
1.0
  9
$DIMFXLON
 70
     0
  9
$DIMJOGANG
 40
0.78539816339745
  9
$DIMTFILL
 70
     0
  9
$DIMTFILLCLR
 70
     0
  9
$DIMARCSYM
 70
     0
  9
$DIMLTYPE
  6

  9
$DIMLTEX1
  6

  9
$DIMLTEX2
  6

  9
$DIMTXTDIRECTION
 70
     0
  9
$LUNITS
 70
     2
  9
$LUPREC
 70
     4
  9
$SKETCHINC
 40
0.1
  9
$FILLETRAD
 40
0.5
  9
$AUNITS
 70
     0
  9
$AUPREC
 70
     0
  9
$MENU
  1
.
  9
$ELEVATION
 40
0.0
  9
$PELEVATION
 40
0.0
  9
$THICKNESS
 40
0.0
  9
$LIMCHECK
 70
     0
  9
$CHAMFERA
 40
0.5
  9
$CHAMFERB
 40
0.5
  9
$CHAMFERC
 40
1.0
  9
$CHAMFERD
 40
0.0
  9
$SKPOLY
 70
     0
  9
$TDCREATE
 40
2457262.501439699
  9
$TDUCREATE
 40
2457262.418106366
  9
$TDUPDATE
 40
2457262.501440741
  9
$TDUUPDATE
 40
2457262.418107408
  9
$TDINDWG
 40
0.0000000116
  9
$TDUSRTIMER
 40
0.0000000116
  9
$USRTIMER
 70
     1
  9
$ANGBASE
 50
0.0
  9
$ANGDIR
 70
     0
  9
$PDMODE
 70
     0
  9
$PDSIZE
 40
0.0
  9
$PLINEWID
 40
0.0
  9
$SPLFRAME
 70
     0
  9
$SPLINETYPE
 70
     6
  9
$SPLINESEGS
 70
     8
  9
$HANDSEED
  5
20A
  9
$SURFTAB1
 70
     6
  9
$SURFTAB2
 70
     6
  9
$SURFTYPE
 70
     6
  9
$SURFU
 70
     6
  9
$SURFV
 70
     6
  9
$UCSBASE
  2

  9
$UCSNAME
  2

  9
$UCSORG
 10
0.0
 20
0.0
 30
0.0
  9
$UCSXDIR
 10
1.0
 20
0.0
 30
0.0
  9
$UCSYDIR
 10
0.0
 20
1.0
 30
0.0
  9
$UCSORTHOREF
  2

  9
$UCSORTHOVIEW
 70
     0
  9
$UCSORGTOP
 10
0.0
 20
0.0
 30
0.0
  9
$UCSORGBOTTOM
 10
0.0
 20
0.0
 30
0.0
  9
$UCSORGLEFT
 10
0.0
 20
0.0
 30
0.0
  9
$UCSORGRIGHT
 10
0.0
 20
0.0
 30
0.0
  9
$UCSORGFRONT
 10
0.0
 20
0.0
 30
0.0
  9
$UCSORGBACK
 10
0.0
 20
0.0
 30
0.0
  9
$PUCSBASE
  2

  9
$PUCSNAME
  2

  9
$PUCSORG
 10
0.0
 20
0.0
 30
0.0
  9
$PUCSXDIR
 10
1.0
 20
0.0
 30
0.0
  9
$PUCSYDIR
 10
0.0
 20
1.0
 30
0.0
  9
$PUCSORTHOREF
  2

  9
$PUCSORTHOVIEW
 70
     0
  9
$PUCSORGTOP
 10
0.0
 20
0.0
 30
0.0
  9
$PUCSORGBOTTOM
 10
0.0
 20
0.0
 30
0.0
  9
$PUCSORGLEFT
 10
0.0
 20
0.0
 30
0.0
  9
$PUCSORGRIGHT
 10
0.0
 20
0.0
 30
0.0
  9
$PUCSORGFRONT
 10
0.0
 20
0.0
 30
0.0
  9
$PUCSORGBACK
 10
0.0
 20
0.0
 30
0.0
  9
$USERI1
 70
     0
  9
$USERI2
 70
     0
  9
$USERI3
 70
     0
  9
$USERI4
 70
     0
  9
$USERI5
 70
     0
  9
$USERR1
 40
18.1
  9
$USERR2
 40
0.0
  9
$USERR3
 40
0.0
  9
$USERR4
 40
0.0
  9
$USERR5
 40
0.0
  9
$WORLDVIEW
 70
     1
  9
$SHADEDGE
 70
     3
  9
$SHADEDIF
 70
    70
  9
$TILEMODE
 70
     1
  9
$MAXACTVP
 70
    64
  9
$PINSBASE
 10
0.0
 20
0.0
 30
0.0
  9
$PLIMCHECK
 70
     0
  9
$PEXTMIN
 10
1.00000000000000E+20
 20
1.00000000000000E+20
 30
1.00000000000000E+20
  9
$PEXTMAX
 10
-1.00000000000000E+20
 20
-1.00000000000000E+20
 30
-1.00000000000000E+20
  9
$PLIMMIN
 10
0.0
 20
0.0
  9
$PLIMMAX
 10
12.0
 20
9.0
  9
$UNITMODE
 70
     0
  9
$VISRETAIN
 70
     1
  9
$PLINEGEN
 70
     0
  9
$PSLTSCALE
 70
     1
  9
$TREEDEPTH
 70
  3020
  9
$CMLSTYLE
  2
Standard
  9
$CMLJUST
 70
     0
  9
$CMLSCALE
 40
1.0
  9
$PROXYGRAPHICS
 70
     1
  9
$MEASUREMENT
 70
     1
  9
$CELWEIGHT
370
    -1
  9
$ENDCAPS
280
     0
  9
$JOINSTYLE
280
     0
  9
$LWDISPLAY
290
     0
  9
$INSUNITS
 70
     4
  9
$HYPERLINKBASE
  1

  9
$STYLESHEET
  1

  9
$XEDIT
290
     1
  9
$CEPSNTYPE
380
     0
  9
$PSTYLEMODE
290
     1
  9
$FINGERPRINTGUID
  2
{1ED51453-F895-4E14-8E6D-C4055EAD28E3}
  9
$VERSIONGUID
  2
{FAEB1C32-E019-11D5-929B-00C0DF256EC4}
  9
$EXTNAMES
290
     1
  9
$PSVPSCALE
 40
0.0
  9
$OLESTARTUP
290
     0
  9
$SORTENTS
280
   127
  9
$INDEXCTL
280
     0
  9
$HIDETEXT
280
     1
  9
$XCLIPFRAME
280
     2
  9
$HALOGAP
280
     0
  9
$OBSCOLOR
 70
   257
  9
$OBSLTYPE
280
     0
  9
$INTERSECTIONDISPLAY
280
     0
  9
$INTERSECTIONCOLOR
 70
   257
  9
$DIMASSOC
280
     2
  9
$PROJECTNAME
  1

  9
$CAMERADISPLAY
290
     0
  9
$LENSLENGTH
 40
50.0
  9
$CAMERAHEIGHT
 40
0.0
  9
$STEPSPERSEC
 40
2.0
  9
$STEPSIZE
 40
6.0
  9
$3DDWFPREC
 40
2.0
  9
$PSOLWIDTH
 40
0.25
  9
$PSOLHEIGHT
 40
4.0
  9
$LOFTANG1
 40
1.5707963267949
  9
$LOFTANG2
 40
1.5707963267949
  9
$LOFTMAG1
 40
0.0
  9
$LOFTMAG2
 40
0.0
  9
$LOFTPARAM
 70
     7
  9
$LOFTNORMALS
280
     1
  9
$LATITUDE
 40
37.795
  9
$LONGITUDE
 40
-122.394
  9
$NORTHDIRECTION
 40
0.0
  9
$TIMEZONE
 70
 -8000
  9
$LIGHTGLYPHDISPLAY
280
     1
  9
$TILEMODELIGHTSYNCH
280
     1
  9
$SOLIDHIST
280
     1
  9
$SHOWHIST
280
     1
  9
$DWFFRAME
280
     2
  9
$DGNFRAME
280
     2
  9
$REALWORLDSCALE
290
     1
  9
$INTERFERECOLOR
 62
   256
  9
$CSHADOW
280
     0
  9
$SHADOWPLANELOCATION
 40
0.0
  0
ENDSEC
  0
SECTION
  2
CLASSES
  0
CLASS
  1
ACDBDICTIONARYWDFLT
  2
AcDbDictionaryWithDefault
  3
ObjectDBX Classes
 90
        0
 91
        4
280
     0
281
     0
  0
CLASS
  1
VISUALSTYLE
  2
AcDbVisualStyle
  3
ObjectDBX Classes
 90
     4095
 91
        4
280
     0
281
     0
  0
CLASS
  1
MATERIAL
  2
AcDbMaterial
  3
ObjectDBX Classes
 90
     1153
 91
        4
280
     0
281
     0
  0
ENDSEC
  0
SECTION
  2
TABLES
  0
TABLE
  2
VPORT
  5
8
330
0
100
AcDbSymbolTable
 70
     1
  0
VPORT
  5
29
330
8
100
AcDbSymbolTableRecord
100
AcDbViewportTableRecord
  2
*Active
 70
     0
 10
0.0
 20
0.0
 11
1.0
 21
1.0
 12
95.3656016795651
 22
179.338312392332
 13
0.0
 23
0.0
 14
0.5
 24
0.5
 15
0.5
 25
0.5
 16
0.0
 26
0.0
 36
1.0
 17
0.0
 27
0.0
 37
0.0
 40
108.8205814012901
 41
1.60267857142857
 42
50.0
 43
0.0
 44
0.0
 50
0.0
 51
0.0
 71
     0
 72
   100
 73
     1
 74
     3
 75
     0
 76
     0
 77
     0
 78
     0
281
     0
 65
     1
110
0.0
120
0.0
130
0.0
111
1.0
121
0.0
131
0.0
112
0.0
122
1.0
132
0.0
 79
     0
146
0.0
 60
     3
 61
     5
292
     1
282
     1
141
0.0
142
0.0
 63
   250
  0
ENDTAB
  0
TABLE
  2
LTYPE
  5
5
330
0
100
AcDbSymbolTable
 70
     8
  0
LTYPE
  5
14
330
5
100
AcDbSymbolTableRecord
100
AcDbLinetypeTableRecord
  2
ByBlock
 70
     0
  3

 72
    65
 73
     0
 40
0.0
  0
LTYPE
  5
15
330
5
100
AcDbSymbolTableRecord
100
AcDbLinetypeTableRecord
  2
ByLayer
 70
     0
  3

 72
    65
 73
     0
 40
0.0
  0
LTYPE
  5
16
330
5
100
AcDbSymbolTableRecord
100
AcDbLinetypeTableRecord
  2
Continuous
 70
     0
  3
Solid line
 72
    65
 73
     0
 40
0.0
  0
LTYPE
  5
3F
330
5
100
AcDbSymbolTableRecord
100
AcDbLinetypeTableRecord
  2
DASHED
 70
     0
  3
Dashed
 72
    65
 73
     2
 40
15.0
 49
7.0
 74
     0
 49
-8.0
 74
     0
  0
LTYPE
  5
40
330
5
100
AcDbSymbolTableRecord
100
AcDbLinetypeTableRecord
  2
DOTTED
 70
     0
  3
Dotted
 72
    65
 73
     2
 40
1.0
 49
0.0
 74
     0
 49
-1.0
 74
     0
  0
LTYPE
  5
41
330
5
100
AcDbSymbolTableRecord
100
AcDbLinetypeTableRecord
  2
DOT_CENTER
 70
     0
  3
Dot_Center
 72
    65
 73
     4
 40
14.0
 49
12.0
 74
     0
 49
-1.0
 74
     0
 49
0.0
 74
     0
 49
-1.0
 74
     0
  0
LTYPE
  5
42
330
5
100
AcDbSymbolTableRecord
100
AcDbLinetypeTableRecord
  2
LONG_DASHED
 70
     0
  3
Long_Dashed
 72
    65
 73
     2
 40
15.0
 49
10.0
 74
     0
 49
-5.0
 74
     0
  0
LTYPE
  5
43
330
5
100
AcDbSymbolTableRecord
100
AcDbLinetypeTableRecord
  2
DASH_CENTER
 70
     0
  3
Dash_Center
 72
    65
 73
     4
 40
14.0
 49
11.0
 74
     0
 49
-1.0
 74
     0
 49
1.0
 74
     0
 49
-1.0
 74
     0
  0
LTYPE
  5
44
330
5
100
AcDbSymbolTableRecord
100
AcDbLinetypeTableRecord
  2
PHANTOM
 70
     0
  3
Phantom
 72
    65
 73
     6
 40
13.0
 49
10.0
 74
     0
 49
-1.0
 74
     0
 49
0.0
 74
     0
 49
-1.0
 74
     0
 49
0.0
 74
     0
 49
-1.0
 74
     0
  0
LTYPE
  5
45
330
5
100
AcDbSymbolTableRecord
100
AcDbLinetypeTableRecord
  2
CENTER_DASH_DASH
 70
     0
  3
Center_Dash_Dash
 72
    65
 73
     6
 40
14.0
 49
9.0
 74
     0
 49
-1.0
 74
     0
 49
1.0
 74
     0
 49
-1.0
 74
     0
 49
1.0
 74
     0
 49
-1.0
 74
     0
  0
ENDTAB
  0
TABLE
  2
LAYER
  5
2
330
0
100
AcDbSymbolTable
 70
     6
  0
LAYER
  5
10
330
2
100
AcDbSymbolTableRecord
100
AcDbLayerTableRecord
  2
0
 70
     0
 62
     7
  6
Continuous
370
    -3
390
F
347
3E
  0
LAYER
  5
46
330
2
100
AcDbSymbolTableRecord
100
AcDbLayerTableRecord
  2
1
 70
     0
 62
     7
  6
Continuous
370
    -3
390
F
347
3E
  0
LAYER
  5
47
330
2
100
AcDbSymbolTableRecord
100
AcDbLayerTableRecord
  2
A_ACHSEN
 70
     0
 62
     7
  6
Continuous
370
    -3
390
F
347
3E
  0
LAYER
  5
48
330
2
100
AcDbSymbolTableRecord
100
AcDbLayerTableRecord
  2
A_BEMASSUNGEN
 70
     0
 62
     7
  6
Continuous
370
    -3
390
F
347
3E
  0
LAYER
  5
49
330
2
100
AcDbSymbolTableRecord
100
AcDbLayerTableRecord
  2
A_NOTIZEN_SYMB
 70
     0
 62
     7
  6
Continuous
370
    -3
390
F
347
3E
  0
LAYER
  5
4A
330
2
100
AcDbSymbolTableRecord
100
AcDbLayerTableRecord
  2
A_RUNDUNGEN
 70
     0
 62
     7
  6
Continuous
370
    -3
390
F
347
3E
  0
ENDTAB
  0
TABLE
  2
STYLE
  5
3
330
0
100
AcDbSymbolTable
 70
     2
  0
STYLE
  5
11
330
3
100
AcDbSymbolTableRecord
100
AcDbTextStyleTableRecord
  2
Standard
 70
     0
 40
0.0
 41
1.0
 50
0.0
 71
     0
 42
0.2
  3
txt
  4

  0
STYLE
  5
1A6
330
3
100
AcDbSymbolTableRecord
100
AcDbTextStyleTableRecord
  2
CONVERTER_11
 70
     0
 40
0.0
 41
0.9
 50
0.0
 71
     0
 42
0.2
  3
txt.shx
  4

  0
ENDTAB
  0
TABLE
  2
VIEW
  5
6
330
0
100
AcDbSymbolTable
 70
     0
  0
ENDTAB
  0
TABLE
  2
UCS
  5
7
330
0
100
AcDbSymbolTable
 70
     0
  0
ENDTAB
  0
TABLE
  2
APPID
  5
9
330
0
100
AcDbSymbolTable
 70
     1
  0
APPID
  5
12
330
9
100
AcDbSymbolTableRecord
100
AcDbRegAppTableRecord
  2
ACAD
 70
     0
  0
ENDTAB
  0
TABLE
  2
DIMSTYLE
  5
A
330
0
100
AcDbSymbolTable
 70
    10
100
AcDbDimStyleTable
  0
DIMSTYLE
105
27
330
A
100
AcDbSymbolTableRecord
100
AcDbDimStyleTableRecord
  2
Standard
 70
     0
178
     0
340
11
  0
DIMSTYLE
105
1AA
102
{ACAD_REACTORS
330
1AB
102
}
330
A
100
AcDbSymbolTableRecord
100
AcDbDimStyleTableRecord
  2
ME10_DIM_10
 70
     0
 41
3.5
 42
0.0
 44
2.0
 73
     0
 74
     0
 77
     1
 78
     8
140
3.5
147
2.0
172
     1
173
     1
174
     1
175
     1
176
     2
177
     2
271
     3
178
     2
271
     3
340
1A6
  0
DIMSTYLE
105
1B5
102
{ACAD_REACTORS
330
1B6
102
}
330
A
100
AcDbSymbolTableRecord
100
AcDbDimStyleTableRecord
  2
ME10_DIM_11
 70
     0
 41
3.5
 42
0.0
 44
2.0
 73
     0
 74
     0
 77
     1
 78
     8
140
3.5
147
2.0
172
     1
173
     1
174
     1
175
     1
176
     2
177
     2
271
     3
178
     2
271
     3
340
1A6
  0
DIMSTYLE
105
1C0
102
{ACAD_REACTORS
330
1C1
102
}
330
A
100
AcDbSymbolTableRecord
100
AcDbDimStyleTableRecord
  2
ME10_DIM_12
 70
     0
 41
3.5
 42
0.0
 44
2.0
 73
     0
 74
     0
 77
     1
 78
     8
140
3.5
147
2.0
172
     1
173
     1
174
     1
175
     1
176
     2
177
     2
271
     3
178
     2
271
     3
340
1A6
  0
DIMSTYLE
105
1CB
102
{ACAD_REACTORS
330
1CC
102
}
330
A
100
AcDbSymbolTableRecord
100
AcDbDimStyleTableRecord
  2
ME10_DIM_13
 70
     0
 41
3.5
 42
0.0
 44
2.0
 73
     0
 74
     0
 77
     1
 78
     8
140
3.5
147
2.0
172
     1
173
     1
174
     1
175
     1
176
     2
177
     2
271
     3
178
     2
271
     3
340
1A6
  0
DIMSTYLE
105
1D6
102
{ACAD_REACTORS
330
1D7
102
}
330
A
100
AcDbSymbolTableRecord
100
AcDbDimStyleTableRecord
  2
ME10_DIM_14
 70
     0
 41
3.5
 42
0.0
 44
2.0
 73
     0
 74
     0
 77
     1
 78
     8
140
3.5
147
2.0
172
     1
173
     1
174
     1
175
     1
176
     2
177
     2
271
     3
178
     2
271
     3
340
1A6
  0
DIMSTYLE
105
1E3
102
{ACAD_REACTORS
330
1E4
102
}
330
A
100
AcDbSymbolTableRecord
100
AcDbDimStyleTableRecord
  2
ME10_DIM_15
 70
     0
 41
3.5
 42
0.0
 44
2.0
 73
     0
 74
     0
 77
     1
 78
     8
140
3.5
147
2.0
172
     1
173
     1
174
     1
175
     1
176
     2
177
     2
271
     3
178
     2
271
     3
340
1A6
  0
DIMSTYLE
105
1EE
102
{ACAD_REACTORS
330
1EF
102
}
330
A
100
AcDbSymbolTableRecord
100
AcDbDimStyleTableRecord
  2
ME10_DIM_16
 70
     0
 41
3.5
 42
0.0
 44
2.0
 73
     0
 74
     0
 77
     1
 78
     8
140
3.5
147
2.0
172
     1
173
     1
174
     1
175
     1
176
     2
177
     2
271
     3
178
     2
271
     3
340
1A6
  0
DIMSTYLE
105
1FB
102
{ACAD_REACTORS
330
1FC
102
}
330
A
100
AcDbSymbolTableRecord
100
AcDbDimStyleTableRecord
  2
ME10_DIM_17
 70
     0
 41
3.5
 42
0.0
 44
2.0
 73
     0
 74
     0
 77
     1
 78
     8
140
3.5
147
2.0
172
     1
173
     1
174
     1
175
     1
176
     2
177
     2
271
     3
178
     2
271
     3
340
1A6
  0
DIMSTYLE
105
206
102
{ACAD_REACTORS
330
207
102
}
330
A
100
AcDbSymbolTableRecord
100
AcDbDimStyleTableRecord
  2
ME10_DIM_18
 70
     0
 41
3.5
 42
0.0
 44
2.0
 73
     0
 74
     0
 77
     1
 78
     8
140
3.5
147
2.0
172
     1
173
     1
174
     1
175
     1
176
     2
177
     2
271
     3
178
     2
271
     3
340
1A6
  0
ENDTAB
  0
TABLE
  2
BLOCK_RECORD
  5
1
330
0
100
AcDbSymbolTable
 70
    10
  0
BLOCK_RECORD
  5
1F
330
1
100
AcDbSymbolTableRecord
100
AcDbBlockTableRecord
  2
*Model_Space
340
22
 70
     0
280
     1
281
     0
  0
BLOCK_RECORD
  5
1B
330
1
100
AcDbSymbolTableRecord
100
AcDbBlockTableRecord
  2
*Paper_Space
340
1E
 70
     0
280
     1
281
     0
  0
BLOCK_RECORD
  5
23
330
1
100
AcDbSymbolTableRecord
100
AcDbBlockTableRecord
  2
*Paper_Space0
340
26
 70
     0
280
     1
281
     0
  0
BLOCK_RECORD
  5
19E
330
1
100
AcDbSymbolTableRecord
100
AcDbBlockTableRecord
  2
*D1
340
0
 70
     0
280
     1
281
     0
  0
BLOCK_RECORD
  5
1AC
330
1
100
AcDbSymbolTableRecord
100
AcDbBlockTableRecord
  2
*D2
340
0
 70
     0
280
     1
281
     0
  0
BLOCK_RECORD
  5
1B7
330
1
100
AcDbSymbolTableRecord
100
AcDbBlockTableRecord
  2
*D3
340
0
 70
     0
280
     1
281
     0
  0
BLOCK_RECORD
  5
1C2
330
1
100
AcDbSymbolTableRecord
100
AcDbBlockTableRecord
  2
*D4
340
0
 70
     0
280
     1
281
     0
  0
BLOCK_RECORD
  5
1CD
330
1
100
AcDbSymbolTableRecord
100
AcDbBlockTableRecord
  2
*D5
340
0
 70
     0
280
     1
281
     0
  0
BLOCK_RECORD
  5
1D8
330
1
100
AcDbSymbolTableRecord
100
AcDbBlockTableRecord
  2
*D6
340
0
 70
     0
280
     1
281
     0
  0
BLOCK_RECORD
  5
1E5
330
1
100
AcDbSymbolTableRecord
100
AcDbBlockTableRecord
  2
*D7
340
0
 70
     0
280
     1
281
     0
  0
BLOCK_RECORD
  5
1F0
330
1
100
AcDbSymbolTableRecord
100
AcDbBlockTableRecord
  2
*D8
340
0
 70
     0
280
     1
281
     0
  0
BLOCK_RECORD
  5
1FD
330
1
100
AcDbSymbolTableRecord
100
AcDbBlockTableRecord
  2
*D9
340
0
 70
     0
280
     1
281
     0
  0
ENDTAB
  0
ENDSEC
  0
SECTION
  2
BLOCKS
  0
BLOCK
  5
20
330
1F
100
AcDbEntity
  8
0
100
AcDbBlockBegin
  2
*Model_Space
 70
     0
 10
0.0
 20
0.0
 30
0.0
  3
*Model_Space
  1

  0
ENDBLK
  5
21
330
1F
100
AcDbEntity
  8
0
100
AcDbBlockEnd
  0
BLOCK
  5
1C
330
1B
100
AcDbEntity
 67
     1
  8
0
100
AcDbBlockBegin
  2
*Paper_Space
 70
     0
 10
0.0
 20
0.0
 30
0.0
  3
*Paper_Space
  1

  0
ENDBLK
  5
1D
330
1B
100
AcDbEntity
 67
     1
  8
0
100
AcDbBlockEnd
  0
BLOCK
  5
24
330
23
100
AcDbEntity
  8
0
100
AcDbBlockBegin
  2
*Paper_Space0
 70
     0
 10
0.0
 20
0.0
 30
0.0
  3
*Paper_Space0
  1

  0
ENDBLK
  5
25
330
23
100
AcDbEntity
  8
0
100
AcDbBlockEnd
  0
BLOCK
  5
1A8
330
19E
100
AcDbEntity
  8
0
100
AcDbBlockBegin
  2
*D1
 70
     1
 10
0.0
 20
0.0
 30
0.0
  3
*D1
  1

  0
LINE
  5
19F
330
19E
100
AcDbEntity
  8
1
  6
Continuous
 62
     2
100
AcDbLine
 10
21.5908680694532
 20
162.5018860258
 30
0.0
 11
21.5908680694532
 21
155.5018860258
 31
0.0
  0
LINE
  5
1A0
330
19E
100
AcDbEntity
  8
1
  6
Continuous
 62
     2
100
AcDbLine
 10
21.5908680694532
 20
155.5018860258
 30
0.0
 11
21.5908680694532
 21
147.5018860258
 31
0.0
  0
LINE
  5
1A1
330
19E
100
AcDbEntity
  8
1
  6
Continuous
 62
     2
100
AcDbLine
 10
21.5908680694532
 20
147.5018860258
 30
0.0
 11
21.5908680694532
 21
140.5018860258
 31
0.0
  0
LINE
  5
1A2
330
19E
100
AcDbEntity
  8
1
  6
Continuous
 62
     2
100
AcDbLine
 10
42.35826693200001
 20
155.5018860258
 30
0.0
 11
19.5908680694532
 21
155.5018860258
 31
0.0
  0
LINE
  5
1A3
330
19E
100
AcDbEntity
  8
1
  6
Continuous
 62
     2
100
AcDbLine
 10
42.35826693200001
 20
147.5018860258
 30
0.0
 11
19.5908680694532
 21
147.5018860258
 31
0.0
  0
SOLID
  5
1A4
330
19E
100
AcDbEntity
  8
1
 62
     2
100
AcDbTrace
 10
21.13008432789731
 20
159.0018860258
 30
0.0
 11
22.05165181100909
 21
159.0018860258
 31
0.0
 12
21.5908680694532
 22
155.5018860258
 32
0.0
 13
21.5908680694532
 23
155.5018860258
 33
0.0
  0
SOLID
  5
1A5
330
19E
100
AcDbEntity
  8
1
 62
     2
100
AcDbTrace
 10
22.05165181100908
 20
144.0018860258
 30
0.0
 11
21.13008432789731
 21
144.0018860258
 31
0.0
 12
21.5908680694532
 22
147.5018860258
 32
0.0
 13
21.5908680694532
 23
147.5018860258
 33
0.0
  0
MTEXT
  5
1A7
330
19E
100
AcDbEntity
  8
1
 62
     2
100
AcDbMText
 10
19.5908680694532
 20
150.898664101277
 30
0.0
 40
3.5
 41
0.0
 46
0.0
 71
     7
 72
     1
  1
8
  7
CONVERTER_11
 11
0.0
 21
1.0
 31
0.0
 73
     1
 44
0.60024009603842
  0
ENDBLK
  5
1A9
330
19E
100
AcDbEntity
  8
0
100
AcDbBlockEnd
  0
BLOCK
  5
1B3
330
1AC
100
AcDbEntity
  8
0
100
AcDbBlockBegin
  2
*D2
 70
     1
 10
0.0
 20
0.0
 30
0.0
  3
*D2
  1

  0
LINE
  5
1AD
330
1AC
100
AcDbEntity
  8
1
  6
Continuous
 62
     2
100
AcDbLine
 10
21.5908680694532
 20
192.5018860258
 30
0.0
 11
21.5908680694532
 21
155.5018860258
 31
0.0
  0
LINE
  5
1AE
330
1AC
100
AcDbEntity
  8
1
  6
Continuous
 62
     2
100
AcDbLine
 10
50.358266932
 20
192.5018860258
 30
0.0
 11
19.5908680694532
 21
192.5018860258
 31
0.0
  0
LINE
  5
1AF
330
1AC
100
AcDbEntity
  8
1
  6
Continuous
 62
     2
100
AcDbLine
 10
42.35826693200001
 20
155.5018860258
 30
0.0
 11
19.5908680694532
 21
155.5018860258
 31
0.0
  0
SOLID
  5
1B0
330
1AC
100
AcDbEntity
  8
1
 62
     2
100
AcDbTrace
 10
22.05165181100908
 20
189.0018860258
 30
0.0
 11
21.13008432789731
 21
189.0018860258
 31
0.0
 12
21.5908680694532
 22
192.5018860258
 32
0.0
 13
21.5908680694532
 23
192.5018860258
 33
0.0
  0
SOLID
  5
1B1
330
1AC
100
AcDbEntity
  8
1
 62
     2
100
AcDbTrace
 10
21.13008432789731
 20
159.0018860258
 30
0.0
 11
22.05165181100909
 21
159.0018860258
 31
0.0
 12
21.5908680694532
 22
155.5018860258
 32
0.0
 13
21.5908680694532
 23
155.5018860258
 33
0.0
  0
MTEXT
  5
1B2
330
1AC
100
AcDbEntity
  8
1
 62
     2
100
AcDbMText
 10
19.5908680694532
 20
170.809968813731
 30
0.0
 40
3.5
 41
0.0
 46
0.0
 71
     7
 72
     1
  1
37
  7
CONVERTER_11
 11
0.0
 21
1.0
 31
0.0
 73
     1
 44
0.60024009603842
  0
ENDBLK
  5
1B4
330
1AC
100
AcDbEntity
  8
0
100
AcDbBlockEnd
  0
BLOCK
  5
1BE
330
1B7
100
AcDbEntity
  8
0
100
AcDbBlockBegin
  2
*D3
 70
     1
 10
0.0
 20
0.0
 30
0.0
  3
*D3
  1

  0
LINE
  5
1B8
330
1B7
100
AcDbEntity
  8
1
  6
Continuous
 62
     2
100
AcDbLine
 10
32.0944093488406
 20
192.5018860258
 30
0.0
 11
32.0944093488406
 21
160.5018860258
 31
0.0
  0
LINE
  5
1B9
330
1B7
100
AcDbEntity
  8
1
  6
Continuous
 62
     2
100
AcDbLine
 10
50.358266932
 20
192.5018860258
 30
0.0
 11
30.0944093488406
 21
192.5018860258
 31
0.0
  0
LINE
  5
1BA
330
1B7
100
AcDbEntity
  8
1
  6
Continuous
 62
     2
100
AcDbLine
 10
50.358266932
 20
160.5018860258
 30
0.0
 11
30.0944093488406
 21
160.5018860258
 31
0.0
  0
SOLID
  5
1BB
330
1B7
100
AcDbEntity
  8
1
 62
     2
100
AcDbTrace
 10
32.55519309039649
 20
189.0018860258
 30
0.0
 11
31.63362560728471
 21
189.0018860258
 31
0.0
 12
32.0944093488406
 22
192.5018860258
 32
0.0
 13
32.0944093488406
 23
192.5018860258
 33
0.0
  0
SOLID
  5
1BC
330
1B7
100
AcDbEntity
  8
1
 62
     2
100
AcDbTrace
 10
31.63362560728471
 20
164.0018860258
 30
0.0
 11
32.55519309039649
 21
164.0018860258
 31
0.0
 12
32.0944093488406
 22
160.5018860258
 32
0.0
 13
32.0944093488406
 23
160.5018860258
 33
0.0
  0
MTEXT
  5
1BD
330
1B7
100
AcDbEntity
  8
1
 62
     2
100
AcDbMText
 10
30.0944093488406
 20
172.033881086075
 30
0.0
 40
3.5
 41
0.0
 46
0.0
 71
     7
 72
     1
  1
32
  7
CONVERTER_11
 11
0.0
 21
1.0
 31
0.0
 73
     1
 44
0.60024009603842
  0
ENDBLK
  5
1BF
330
1B7
100
AcDbEntity
  8
0
100
AcDbBlockEnd
  0
BLOCK
  5
1C9
330
1C2
100
AcDbEntity
  8
0
100
AcDbBlockBegin
  2
*D4
 70
     1
 10
0.0
 20
0.0
 30
0.0
  3
*D4
  1

  0
LINE
  5
1C3
330
1C2
100
AcDbEntity
  8
1
  6
Continuous
 62
     2
100
AcDbLine
 10
162.237080974753
 20
192.4104021098
 30
0.0
 11
162.237080974753
 21
160.4104021098
 31
0.0
  0
LINE
  5
1C4
330
1C2
100
AcDbEntity
  8
1
  6
Continuous
 62
     2
100
AcDbLine
 10
139.8922489013
 20
192.4104021098
 30
0.0
 11
164.237080974753
 21
192.4104021098
 31
0.0
  0
LINE
  5
1C5
330
1C2
100
AcDbEntity
  8
1
  6
Continuous
 62
     2
100
AcDbLine
 10
139.8922489013
 20
160.4104021098
 30
0.0
 11
164.237080974753
 21
160.4104021098
 31
0.0
  0
SOLID
  5
1C6
330
1C2
100
AcDbEntity
  8
1
 62
     2
100
AcDbTrace
 10
162.6978647163089
 20
188.9104021098
 30
0.0
 11
161.7762972331971
 21
188.9104021098
 31
0.0
 12
162.237080974753
 22
192.4104021098
 32
0.0
 13
162.237080974753
 23
192.4104021098
 33
0.0
  0
SOLID
  5
1C7
330
1C2
100
AcDbEntity
  8
1
 62
     2
100
AcDbTrace
 10
161.7762972331971
 20
163.9104021098
 30
0.0
 11
162.6978647163089
 21
163.9104021098
 31
0.0
 12
162.237080974753
 22
160.4104021098
 32
0.0
 13
162.237080974753
 23
160.4104021098
 33
0.0
  0
MTEXT
  5
1C8
330
1C2
100
AcDbEntity
  8
1
 62
     2
100
AcDbMText
 10
160.237080974753
 20
172.849822600971
 30
0.0
 40
3.5
 41
0.0
 46
0.0
 71
     7
 72
     1
  1
32
  7
CONVERTER_11
 11
0.0
 21
1.0
 31
0.0
 73
     1
 44
0.60024009603842
  0
ENDBLK
  5
1CA
330
1C2
100
AcDbEntity
  8
0
100
AcDbBlockEnd
  0
BLOCK
  5
1D4
330
1CD
100
AcDbEntity
  8
0
100
AcDbBlockBegin
  2
*D5
 70
     1
 10
0.0
 20
0.0
 30
0.0
  3
*D5
  1

  0
LINE
  5
1CE
330
1CD
100
AcDbEntity
  8
1
  6
Continuous
 62
     2
100
AcDbLine
 10
172.640335289677
 20
192.4104021098
 30
0.0
 11
172.640335289677
 21
155.4104021098
 31
0.0
  0
LINE
  5
1CF
330
1CD
100
AcDbEntity
  8
1
  6
Continuous
 62
     2
100
AcDbLine
 10
139.8922489013
 20
192.4104021098
 30
0.0
 11
174.640335289677
 21
192.4104021098
 31
0.0
  0
LINE
  5
1D0
330
1CD
100
AcDbEntity
  8
1
  6
Continuous
 62
     2
100
AcDbLine
 10
152.358266932
 20
155.4104021098
 30
0.0
 11
174.640335289677
 21
155.4104021098
 31
0.0
  0
SOLID
  5
1D1
330
1CD
100
AcDbEntity
  8
1
 62
     2
100
AcDbTrace
 10
173.1011190312329
 20
188.9104021098
 30
0.0
 11
172.1795515481211
 21
188.9104021098
 31
0.0
 12
172.640335289677
 22
192.4104021098
 32
0.0
 13
172.640335289677
 23
192.4104021098
 33
0.0
  0
SOLID
  5
1D2
330
1CD
100
AcDbEntity
  8
1
 62
     2
100
AcDbTrace
 10
172.1795515481211
 20
158.9104021098
 30
0.0
 11
173.1011190312329
 21
158.9104021098
 31
0.0
 12
172.640335289677
 22
155.4104021098
 32
0.0
 13
172.640335289677
 23
155.4104021098
 33
0.0
  0
MTEXT
  5
1D3
330
1CD
100
AcDbEntity
  8
1
 62
     2
100
AcDbMText
 10
170.640335289677
 20
170.605983435007
 30
0.0
 40
3.5
 41
0.0
 46
0.0
 71
     7
 72
     1
  1
37
  7
CONVERTER_11
 11
0.0
 21
1.0
 31
0.0
 73
     1
 44
0.60024009603842
  0
ENDBLK
  5
1D5
330
1CD
100
AcDbEntity
  8
0
100
AcDbBlockEnd
  0
BLOCK
  5
1E1
330
1D8
100
AcDbEntity
  8
0
100
AcDbBlockBegin
  2
*D6
 70
     1
 10
0.0
 20
0.0
 30
0.0
  3
*D6
  1

  0
LINE
  5
1D9
330
1D8
100
AcDbEntity
  8
1
  6
Continuous
 62
     2
100
AcDbLine
 10
172.640335289677
 20
162.4104021098
 30
0.0
 11
172.640335289677
 21
155.4104021098
 31
0.0
  0
LINE
  5
1DA
330
1D8
100
AcDbEntity
  8
1
  6
Continuous
 62
     2
100
AcDbLine
 10
172.640335289677
 20
155.4104021098
 30
0.0
 11
172.640335289677
 21
147.4104021098
 31
0.0
  0
LINE
  5
1DB
330
1D8
100
AcDbEntity
  8
1
  6
Continuous
 62
     2
100
AcDbLine
 10
172.640335289677
 20
147.4104021098
 30
0.0
 11
172.640335289677
 21
140.4104021098
 31
0.0
  0
LINE
  5
1DC
330
1D8
100
AcDbEntity
  8
1
  6
Continuous
 62
     2
100
AcDbLine
 10
152.358266932
 20
155.4104021098
 30
0.0
 11
174.640335289677
 21
155.4104021098
 31
0.0
  0
LINE
  5
1DD
330
1D8
100
AcDbEntity
  8
1
  6
Continuous
 62
     2
100
AcDbLine
 10
152.358266932
 20
147.4104021098
 30
0.0
 11
174.640335289677
 21
147.4104021098
 31
0.0
  0
SOLID
  5
1DE
330
1D8
100
AcDbEntity
  8
1
 62
     2
100
AcDbTrace
 10
172.1795515481211
 20
158.9104021098
 30
0.0
 11
173.1011190312329
 21
158.9104021098
 31
0.0
 12
172.640335289677
 22
155.4104021098
 32
0.0
 13
172.640335289677
 23
155.4104021098
 33
0.0
  0
SOLID
  5
1DF
330
1D8
100
AcDbEntity
  8
1
 62
     2
100
AcDbTrace
 10
173.1011190312329
 20
143.9104021098
 30
0.0
 11
172.1795515481211
 21
143.9104021098
 31
0.0
 12
172.640335289677
 22
147.4104021098
 32
0.0
 13
172.640335289677
 23
147.4104021098
 33
0.0
  0
MTEXT
  5
1E0
330
1D8
100
AcDbEntity
  8
1
 62
     2
100
AcDbMText
 10
170.640335289677
 20
140.767235111511
 30
0.0
 40
3.5
 41
0.0
 46
0.0
 71
     7
 72
     1
  1
8
  7
CONVERTER_11
 11
0.0
 21
1.0
 31
0.0
 73
     1
 44
0.60024009603842
  0
ENDBLK
  5
1E2
330
1D8
100
AcDbEntity
  8
0
100
AcDbBlockEnd
  0
BLOCK
  5
1EC
330
1E5
100
AcDbEntity
  8
0
100
AcDbBlockBegin
  2
*D7
 70
     1
 10
0.0
 20
0.0
 30
0.0
  3
*D7
  1

  0
LINE
  5
1E6
330
1E5
100
AcDbEntity
  8
1
  6
Continuous
 62
     2
100
AcDbLine
 10
50.35826693200001
 20
137.455278975339
 30
0.0
 11
92.358266932
 21
137.455278975339
 31
0.0
  0
LINE
  5
1E7
330
1E5
100
AcDbEntity
  8
1
  6
Continuous
 62
     2
100
AcDbLine
 10
50.35826693200001
 20
160.5018860258
 30
0.0
 11
50.35826693200001
 21
135.455278975339
 31
0.0
  0
LINE
  5
1E8
330
1E5
100
AcDbEntity
  8
1
  6
Continuous
 62
     2
100
AcDbLine
 10
92.358266932
 20
147.5018860258
 30
0.0
 11
92.358266932
 21
135.455278975339
 31
0.0
  0
SOLID
  5
1E9
330
1E5
100
AcDbEntity
  8
1
 62
     2
100
AcDbTrace
 10
53.85826693200001
 20
137.9160627168949
 30
0.0
 11
53.85826693200001
 21
136.9944952337831
 31
0.0
 12
50.35826693200001
 22
137.455278975339
 32
0.0
 13
50.35826693200001
 23
137.455278975339
 33
0.0
  0
SOLID
  5
1EA
330
1E5
100
AcDbEntity
  8
1
 62
     2
100
AcDbTrace
 10
88.858266932
 20
136.9944952337831
 30
0.0
 11
88.858266932
 21
137.9160627168949
 31
0.0
 12
92.358266932
 22
137.455278975339
 32
0.0
 13
92.358266932
 23
137.455278975339
 33
0.0
  0
MTEXT
  5
1EB
330
1E5
100
AcDbEntity
  8
1
 62
     2
100
AcDbMText
 10
68.1483681234327
 20
139.455278975339
 30
0.0
 40
3.5
 41
0.0
 46
0.0
 71
     7
 72
     1
  1
42
  7
CONVERTER_11
 11
0.9999999999970619
 21
2.424068405545306E-6
 31
0.0
 73
     1
 44
0.60024009603842
  0
ENDBLK
  5
1ED
330
1E5
100
AcDbEntity
  8
0
100
AcDbBlockEnd
  0
BLOCK
  5
1F9
330
1F0
100
AcDbEntity
  8
0
100
AcDbBlockBegin
  2
*D8
 70
     1
 10
0.0
 20
0.0
 30
0.0
  3
*D8
  1

  0
LINE
  5
1F1
330
1F0
100
AcDbEntity
  8
1
  6
Continuous
 62
     2
100
AcDbLine
 10
85.358266932
 20
137.455278975339
 30
0.0
 11
92.358266932
 21
137.455278975339
 31
0.0
  0
LINE
  5
1F2
330
1F0
100
AcDbEntity
  8
1
  6
Continuous
 62
     2
100
AcDbLine
 10
92.358266932
 20
137.455278975339
 30
0.0
 11
95.8922489013
 21
137.455278975339
 31
0.0
  0
LINE
  5
1F3
330
1F0
100
AcDbEntity
  8
1
  6
Continuous
 62
     2
100
AcDbLine
 10
95.8922489013
 20
137.455278975339
 30
0.0
 11
102.8922489013
 21
137.455278975339
 31
0.0
  0
LINE
  5
1F4
330
1F0
100
AcDbEntity
  8
1
  6
Continuous
 62
     2
100
AcDbLine
 10
92.358266932
 20
147.5018860258
 30
0.0
 11
92.358266932
 21
135.455278975339
 31
0.0
  0
LINE
  5
1F5
330
1F0
100
AcDbEntity
  8
1
  6
Continuous
 62
     2
100
AcDbLine
 10
95.8922489013
 20
147.4104021098
 30
0.0
 11
95.8922489013
 21
135.455278975339
 31
0.0
  0
SOLID
  5
1F6
330
1F0
100
AcDbEntity
  8
1
 62
     2
100
AcDbTrace
 10
88.858266932
 20
136.9944952337831
 30
0.0
 11
88.858266932
 21
137.9160627168949
 31
0.0
 12
92.358266932
 22
137.455278975339
 32
0.0
 13
92.358266932
 23
137.455278975339
 33
0.0
  0
SOLID
  5
1F7
330
1F0
100
AcDbEntity
  8
1
 62
     2
100
AcDbTrace
 10
99.3922489013
 20
137.9160627168949
 30
0.0
 11
99.3922489013
 21
136.9944952337831
 31
0.0
 12
95.8922489013
 22
137.455278975339
 32
0.0
 13
95.8922489013
 23
137.455278975339
 33
0.0
  0
MTEXT
  5
1F8
330
1F0
100
AcDbEntity
  8
1
 62
     2
100
AcDbMText
 10
91.03793667669291
 20
130.275936932759
 30
0.0
 40
3.5
 41
0.0
 46
0.0
 71
     7
 72
     1
  1
3.5
  7
CONVERTER_11
 11
0.9999999999970619
 21
2.424068405545306E-6
 31
0.0
 73
     1
 44
0.60024009603842
  0
ENDBLK
  5
1FA
330
1F0
100
AcDbEntity
  8
0
100
AcDbBlockEnd
  0
BLOCK
  5
204
330
1FD
100
AcDbEntity
  8
0
100
AcDbBlockBegin
  2
*D9
 70
     1
 10
0.0
 20
0.0
 30
0.0
  3
*D9
  1

  0
LINE
  5
1FE
330
1FD
100
AcDbEntity
  8
1
  6
Continuous
 62
     2
100
AcDbLine
 10
95.8922489013
 20
137.455278975339
 30
0.0
 11
139.8922489013
 21
137.455278975339
 31
0.0
  0
LINE
  5
1FF
330
1FD
100
AcDbEntity
  8
1
  6
Continuous
 62
     2
100
AcDbLine
 10
95.8922489013
 20
147.4104021098
 30
0.0
 11
95.8922489013
 21
135.455278975339
 31
0.0
  0
LINE
  5
200
330
1FD
100
AcDbEntity
  8
1
  6
Continuous
 62
     2
100
AcDbLine
 10
139.8922489013
 20
160.4104021098
 30
0.0
 11
139.8922489013
 21
135.455278975339
 31
0.0
  0
SOLID
  5
201
330
1FD
100
AcDbEntity
  8
1
 62
     2
100
AcDbTrace
 10
99.3922489013
 20
137.9160627168949
 30
0.0
 11
99.3922489013
 21
136.9944952337831
 31
0.0
 12
95.8922489013
 22
137.455278975339
 32
0.0
 13
95.8922489013
 23
137.455278975339
 33
0.0
  0
SOLID
  5
202
330
1FD
100
AcDbEntity
  8
1
 62
     2
100
AcDbTrace
 10
136.3922489013
 20
136.9944952337831
 30
0.0
 11
136.3922489013
 21
137.9160627168949
 31
0.0
 12
139.8922489013
 22
137.455278975339
 32
0.0
 13
139.8922489013
 23
137.455278975339
 33
0.0
  0
MTEXT
  5
203
330
1FD
100
AcDbEntity
  8
1
 62
     2
100
AcDbMText
 10
117.920800532089
 20
139.455278975339
 30
0.0
 40
3.5
 41
0.0
 46
0.0
 71
     7
 72
     1
  1
44
  7
CONVERTER_11
 11
0.9999999999970619
 21
2.424068405545306E-6
 31
0.0
 73
     1
 44
0.60024009603842
  0
ENDBLK
  5
205
330
1FD
100
AcDbEntity
  8
0
100
AcDbBlockEnd
  0
ENDSEC
  0
SECTION
  2
ENTITIES
  0
POINT
  5
4B
330
1F
100
AcDbEntity
  8
A_BEMASSUNGEN
 62
     7
100
AcDbPoint
 10
50.358266932
 20
160.5018860258
 30
0.0
  0
POINT
  5
4C
330
1F
100
AcDbEntity
  8
A_BEMASSUNGEN
 62
     7
100
AcDbPoint
 10
92.358266932
 20
147.5018860258
 30
0.0
  0
POINT
  5
4D
330
1F
100
AcDbEntity
  8
A_BEMASSUNGEN
 62
     7
100
AcDbPoint
 10
92.358266932
 20
147.5018860258
 30
0.0
  0
POINT
  5
4E
330
1F
100
AcDbEntity
  8
A_BEMASSUNGEN
 62
     7
100
AcDbPoint
 10
95.8922489013
 20
147.4104021098
 30
0.0
  0
POINT
  5
4F
330
1F
100
AcDbEntity
  8
A_BEMASSUNGEN
 62
     7
100
AcDbPoint
 10
95.8922489013
 20
147.4104021098
 30
0.0
  0
POINT
  5
50
330
1F
100
AcDbEntity
  8
A_BEMASSUNGEN
 62
     7
100
AcDbPoint
 10
139.8922489013
 20
160.4104021098
 30
0.0
  0
POINT
  5
51
330
1F
100
AcDbEntity
  8
A_BEMASSUNGEN
 62
     7
100
AcDbPoint
 10
95.8922489013
 20
147.4104021098
 30
0.0
  0
POINT
  5
52
330
1F
100
AcDbEntity
  8
A_BEMASSUNGEN
 62
     7
100
AcDbPoint
 10
136.9876673837
 20
160.4505193942
 30
0.0
  0
POINT
  5
53
330
1F
100
AcDbEntity
  8
A_BEMASSUNGEN
 62
     7
100
AcDbPoint
 10
139.8922489013
 20
192.4104021098
 30
0.0
  0
POINT
  5
54
330
1F
100
AcDbEntity
  8
A_BEMASSUNGEN
 62
     7
100
AcDbPoint
 10
139.8922489013
 20
160.4104021098
 30
0.0
  0
POINT
  5
55
330
1F
100
AcDbEntity
  8
A_BEMASSUNGEN
 62
     7
100
AcDbPoint
 10
139.8922489013
 20
192.4104021098
 30
0.0
  0
POINT
  5
56
330
1F
100
AcDbEntity
  8
A_BEMASSUNGEN
 62
     7
100
AcDbPoint
 10
42.35826693200001
 20
155.5018860258
 30
0.0
  0
POINT
  5
57
330
1F
100
AcDbEntity
  8
A_BEMASSUNGEN
 62
     7
100
AcDbPoint
 10
50.358266932
 20
192.5018860258
 30
0.0
  0
POINT
  5
58
330
1F
100
AcDbEntity
  8
A_BEMASSUNGEN
 62
     7
100
AcDbPoint
 10
50.358266932
 20
192.5018860258
 30
0.0
  0
POINT
  5
59
330
1F
100
AcDbEntity
  8
A_BEMASSUNGEN
 62
     7
100
AcDbPoint
 10
50.358266932
 20
160.5018860258
 30
0.0
  0
POINT
  5
5A
330
1F
100
AcDbEntity
  8
1
 62
     3
 60
     1
100
AcDbPoint
 10
111.358266932
 20
228.400687851905
 30
0.0
  0
POINT
  5
5B
330
1F
100
AcDbEntity
  8
1
 62
     3
 60
     1
100
AcDbPoint
 10
152.358266932
 20
216.334560222272
 30
0.0
  0
POINT
  5
5C
330
1F
100
AcDbEntity
  8
1
 62
     3
 60
     1
100
AcDbPoint
 10
152.358266932
 20
212.5604021098
 30
0.0
  0
POINT
  5
5D
330
1F
100
AcDbEntity
  8
1
 62
     3
 60
     1
100
AcDbPoint
 10
152.358266932
 20
147.4104021098
 30
0.0
  0
POINT
  5
5E
330
1F
100
AcDbEntity
  8
1
 62
     3
 60
     1
100
AcDbPoint
 10
152.358266932
 20
142.4104021098
 30
0.0
  0
POINT
  5
5F
330
1F
100
AcDbEntity
  8
1
 62
     3
 60
     1
100
AcDbPoint
 10
39.0858986953881
 20
228.400687851905
 30
0.0
  0
POINT
  5
60
330
1F
100
AcDbEntity
  8
1
 62
     3
 60
     1
100
AcDbPoint
 10
42.35826693200001
 20
228.400687851905
 30
0.0
  0
POINT
  5
61
330
1F
100
AcDbEntity
  8
1
 62
     3
 60
     1
100
AcDbPoint
 10
114.358266932
 20
228.400687851905
 30
0.0
  0
LINE
  5
62
330
1F
100
AcDbEntity
  8
A_NOTIZEN_SYMB
  6
Continuous
 62
     7
100
AcDbLine
 10
129.8946056396
 20
160.4104021098
 30
0.0
 11
129.9010074275
 21
162.3736379237
 31
0.0
  0
LINE
  5
63
330
1F
100
AcDbEntity
  8
0
  6
Continuous
 62
     7
100
AcDbLine
 10
42.35826693200001
 20
147.5018860258
 30
0.0
 11
42.35826693200001
 21
228.400687851905
 31
0.0
  0
LINE
  5
64
330
1F
100
AcDbEntity
  8
0
  6
Continuous
 62
     7
100
AcDbLine
 10
50.358266932
 20
160.5018860258
 30
0.0
 11
50.358266932
 21
192.5018860258
 31
0.0
  0
LINE
  5
65
330
1F
100
AcDbEntity
  8
0
  6
Continuous
 62
     7
100
AcDbLine
 10
51.258266932
 20
185.9742860258
 30
0.0
 11
51.258266932
 21
161.5742860258
 31
0.0
  0
LINE
  5
66
330
1F
100
AcDbEntity
  8
0
  6
Continuous
 62
     7
100
AcDbLine
 10
54.258266932
 20
185.9742860258
 30
0.0
 11
54.258266932
 21
161.5742860258
 31
0.0
  0
LINE
  5
67
330
1F
100
AcDbEntity
  8
0
  6
Continuous
 62
     7
100
AcDbLine
 10
56.458266932
 20
189.9742860258
 30
0.0
 11
56.458266932
 21
190.4742860258
 31
0.0
  0
LINE
  5
68
330
1F
100
AcDbEntity
  8
A_ACHSEN
  6
DOT_CENTER
 62
     2
100
AcDbLine
 10
58.7937186186
 20
170.1350094007
 30
0.0
 11
58.7937186186
 21
185.693969642
 31
0.0
  0
LINE
  5
69
330
1F
100
AcDbEntity
  8
A_RUNDUNGEN
  6
Continuous
 62
     7
100
AcDbLine
 10
54.8598314396
 20
182.540271798
 30
0.0
 11
54.258266932
 21
180.2952024918
 31
0.0
  0
LINE
  5
6A
330
1F
100
AcDbEntity
  8
0
  6
Continuous
 62
     7
100
AcDbLine
 10
62.258266932
 20
186.9742860258
 30
0.0
 11
62.258266932
 21
189.9742860258
 31
0.0
  0
LINE
  5
6B
330
1F
100
AcDbEntity
  8
0
  6
Continuous
 62
     7
100
AcDbLine
 10
95.8922489013
 20
147.4104021098
 30
0.0
 11
152.358266932
 21
147.4104021098
 31
0.0
  0
LINE
  5
6C
330
1F
100
AcDbEntity
  8
0
  6
Continuous
 62
     7
100
AcDbLine
 10
92.358266932
 20
147.5018860258
 30
0.0
 11
42.35826693200001
 21
147.5018860258
 31
0.0
  0
LINE
  5
6D
330
1F
100
AcDbEntity
  8
A_RUNDUNGEN
  6
Continuous
 62
     7
100
AcDbLine
 10
64.5190897025
 20
179.952081347
 30
0.0
 11
62.7073563868
 21
173.190600563
 31
0.0
  0
LINE
  5
6E
330
1F
100
AcDbEntity
  8
0
  6
Continuous
 62
     7
100
AcDbLine
 10
42.35826693200001
 20
155.5018860258
 30
0.0
 11
92.358266932
 21
155.5018860258
 31
0.0
  0
LINE
  5
6F
330
1F
100
AcDbEntity
  8
A_RUNDUNGEN
  6
Continuous
 62
     7
100
AcDbLine
 10
79.858266932
 20
156.7518860258
 30
0.0
 11
85.3725778428
 21
156.7518860258
 31
0.0
  0
LINE
  5
70
330
1F
100
AcDbEntity
  8
A_RUNDUNGEN
  6
Continuous
 62
     7
100
AcDbLine
 10
87.15758792061898
 20
156.7518860258
 30
0.0
 11
91.958266932
 21
156.7518860258
 31
0.0
  0
LINE
  5
71
330
1F
100
AcDbEntity
  8
A_RUNDUNGEN
  6
Continuous
 62
     7
100
AcDbLine
 10
105.4505162109
 20
155.9033321155
 30
0.0
 11
96.5727193679
 21
155.9322811453
 31
0.0
  0
LINE
  5
72
330
1F
100
AcDbEntity
  8
A_RUNDUNGEN
  6
Continuous
 62
     7
100
AcDbLine
 10
55.8618203226
 20
186.8278394164
 30
0.0
 11
54.4047135414
 21
185.3707326352
 31
0.0
  0
LINE
  5
73
330
1F
100
AcDbEntity
  8
0
  6
Continuous
 62
     7
100
AcDbLine
 10
95.8922489013
 20
160.4104021098
 30
0.0
 11
96.287320186
 21
160.4104021098
 31
0.0
  0
LINE
  5
74
330
1F
100
AcDbEntity
  8
0
  6
Continuous
 62
     7
100
AcDbLine
 10
111.0891478329
 20
160.4104021098
 30
0.0
 11
139.8922489013
 21
160.4104021098
 31
0.0
  0
LINE
  5
75
330
1F
100
AcDbEntity
  8
0
  6
Continuous
 62
     7
100
AcDbLine
 10
92.358266932
 20
160.5018860258
 30
0.0
 11
92.258266932
 21
160.5018860258
 31
0.0
  0
LINE
  5
76
330
1F
100
AcDbEntity
  8
0
  6
Continuous
 62
     7
100
AcDbLine
 10
50.358266932
 20
160.5018860258
 30
0.0
 11
79.358266932
 21
160.5018860258
 31
0.0
  0
LINE
  5
77
330
1F
100
AcDbEntity
  8
A_RUNDUNGEN
  6
Continuous
 62
     7
100
AcDbLine
 10
92.358266932
 20
160.6018860258
 30
0.0
 11
92.258266932
 21
160.6018860258
 31
0.0
  0
LINE
  5
78
330
1F
100
AcDbEntity
  8
0
  6
Continuous
 62
     7
100
AcDbLine
 10
54.258266932
 20
161.5742860258
 30
0.0
 11
51.258266932
 21
161.5742860258
 31
0.0
  0
LINE
  5
79
330
1F
100
AcDbEntity
  8
A_RUNDUNGEN
  6
Continuous
 62
     7
100
AcDbLine
 10
54.758266932
 20
161.5742860258
 30
0.0
 11
78.858266932
 21
161.5742860258
 31
0.0
  0
LINE
  5
7A
330
1F
100
AcDbEntity
  8
A_ACHSEN
  6
DOT_CENTER
 62
     2
100
AcDbLine
 10
94.98952276
 20
161.9104017687
 30
0.0
 11
111.5949745456
 21
161.9104017687
 31
0.0
  0
LINE
  5
7B
330
1F
100
AcDbEntity
  8
A_ACHSEN
  6
DOT_CENTER
 62
     2
100
AcDbLine
 10
81.008266932
 20
161.9242860258
 30
0.0
 11
91.508266932
 21
161.9242860258
 31
0.0
  0
LINE
  5
7C
330
1F
100
AcDbEntity
  8
A_RUNDUNGEN
  6
Continuous
 62
     7
100
AcDbLine
 10
118.6232763091
 20
160.4104021098
 30
0.0
 11
111.2874779355
 21
160.4343229372
 31
0.0
  0
LINE
  5
7D
330
1F
100
AcDbEntity
  8
0
  6
Continuous
 62
     7
100
AcDbLine
 10
133.9876833332
 20
160.4603018469
 30
0.0
 11
136.9876673837
 21
160.4505193942
 31
0.0
  0
LINE
  5
7E
330
1F
100
AcDbEntity
  8
A_RUNDUNGEN
  6
Continuous
 62
     7
100
AcDbLine
 10
111.2956299794
 20
162.934309646
 30
0.0
 11
128.4884317925
 21
162.8782467579
 31
0.0
  0
LINE
  5
7F
330
1F
100
AcDbEntity
  8
A_RUNDUNGEN
  6
Continuous
 62
     7
100
AcDbLine
 10
54.258266932
 20
173.3322110893
 30
0.0
 11
81.0147809623
 21
166.1628247627
 31
0.0
  0
LINE
  5
80
330
1F
100
AcDbEntity
  8
A_RUNDUNGEN
  6
Continuous
 62
     7
100
AcDbLine
 10
54.4623116863
 20
173.3293012712
 30
0.0
 11
60.257866644
 21
171.7763870006
 31
0.0
  0
LINE
  5
81
330
1F
100
AcDbEntity
  8
0
  6
Continuous
 62
     7
100
AcDbLine
 10
62.1429599171
 20
172.2547901518
 30
0.0
 11
81.0163728953
 21
167.1976743859
 31
0.0
  0
LINE
  5
82
330
1F
100
AcDbEntity
  8
0
  6
Continuous
 62
     7
100
AcDbLine
 10
76.358266932
 20
155.5018860258
 30
0.0
 11
76.358266932
 21
160.5018860258
 31
0.0
  0
LINE
  5
83
330
1F
100
AcDbEntity
  8
A_RUNDUNGEN
  6
Continuous
 62
     7
100
AcDbLine
 10
79.358266932
 20
161.0742860258
 30
0.0
 11
79.358266932
 21
157.2518860258
 31
0.0
  0
LINE
  5
84
330
1F
100
AcDbEntity
  8
A_RUNDUNGEN
  6
Continuous
 62
     7
100
AcDbLine
 10
81.0300076431
 20
176.0610579268
 30
0.0
 11
81.0110517123
 21
163.7385941886
 31
0.0
  0
LINE
  5
85
330
1F
100
AcDbEntity
  8
0
  6
Continuous
 62
     7
100
AcDbLine
 10
81.0116105402
 20
164.1018650227
 30
0.0
 11
81.0082731439
 21
161.9323622126
 31
0.0
  0
LINE
  5
86
330
1F
100
AcDbEntity
  8
0
  6
Continuous
 62
     7
100
AcDbLine
 10
55.9655457504
 20
180.7431708798
 30
0.0
 11
62.7339041931
 21
187.5103126265
 31
0.0
  0
LINE
  5
87
330
1F
100
AcDbEntity
  8
A_RUNDUNGEN
  6
Continuous
 62
     7
100
AcDbLine
 10
108.5426362918
 20
166.1299973983
 30
0.0
 11
134.0281487458
 21
172.869826985
 31
0.0
  0
LINE
  5
88
330
1F
100
AcDbEntity
  8
A_RUNDUNGEN
  6
Continuous
 62
     7
100
AcDbLine
 10
134.0286551179
 20
173.0251160972
 30
0.0
 11
129.2887072483
 21
171.7716023235
 31
0.0
  0
LINE
  5
89
330
1F
100
AcDbEntity
  8
0
  6
Continuous
 62
     7
100
AcDbLine
 10
127.4984430269
 20
172.1773766078
 30
0.0
 11
108.5427313132
 21
167.1644004365
 31
0.0
  0
LINE
  5
8A
330
1F
100
AcDbEntity
  8
A_RUNDUNGEN
  6
Continuous
 62
     7
100
AcDbLine
 10
87.5900939959
 20
171.1970008609
 30
0.0
 11
87.765842432
 21
170.8352518421
 31
0.0
  0
LINE
  5
8B
330
1F
100
AcDbEntity
  8
0
  6
Continuous
 62
     7
100
AcDbLine
 10
90.9804704592
 20
164.2184729947
 30
0.0
 11
87.765842432
 21
170.8352518421
 31
0.0
  0
LINE
  5
8C
330
1F
100
AcDbEntity
  8
0
  6
Continuous
 62
     7
100
AcDbLine
 10
82.358266932
 20
190.4742860258
 30
0.0
 11
82.358266932
 21
192.5018860258
 31
0.0
  0
LINE
  5
8D
330
1F
100
AcDbEntity
  8
A_RUNDUNGEN
  6
Continuous
 62
     7
100
AcDbLine
 10
85.958266932
 20
189.4119942038
 30
0.0
 11
85.958266932
 21
189.9742860258
 31
0.0
  0
LINE
  5
8E
330
1F
100
AcDbEntity
  8
0
  6
Continuous
 62
     7
100
AcDbLine
 10
85.958266932
 20
189.9742860258
 30
0.0
 11
85.958266932
 21
190.4742860258
 31
0.0
  0
LINE
  5
8F
330
1F
100
AcDbEntity
  8
A_RUNDUNGEN
  6
Continuous
 62
     7
100
AcDbLine
 10
86.058266932
 20
190.0742860258
 30
0.0
 11
86.058266932
 21
189.4119850177
 31
0.0
  0
LINE
  5
90
330
1F
100
AcDbEntity
  8
A_ACHSEN
  6
DOT_CENTER
 62
     2
100
AcDbLine
 10
86.258266932
 20
155.6742860258
 30
0.0
 11
86.258266932
 21
167.1742860258
 31
0.0
  0
LINE
  5
91
330
1F
100
AcDbEntity
  8
0
  6
Continuous
 62
     7
100
AcDbLine
 10
64.74391722
 20
183.1565752727
 30
0.0
 11
63.0043990526
 21
181.4173698051
 31
0.0
  0
LINE
  5
92
330
1F
100
AcDbEntity
  8
0
  6
Continuous
 62
     7
100
AcDbLine
 10
81.0940703779
 20
176.701396268
 30
0.0
 11
64.4564602775
 21
181.1594304583
 31
0.0
  0
LINE
  5
93
330
1F
100
AcDbEntity
  8
0
  6
Continuous
 62
     7
100
AcDbLine
 10
55.5177446683
 20
183.5545520872
 30
0.0
 11
54.258266932
 21
183.8920281295
 31
0.0
  0
LINE
  5
94
330
1F
100
AcDbEntity
  8
A_RUNDUNGEN
  6
Continuous
 62
     7
100
AcDbLine
 10
57.3093211824
 20
183.9544853604
 30
0.0
 11
58.7826021785
 21
183.5597209073
 31
0.0
  0
LINE
  5
95
330
1F
100
AcDbEntity
  8
A_RUNDUNGEN
  6
Continuous
 62
     7
100
AcDbLine
 10
58.9050940318
 20
183.6821907412
 30
0.0
 11
54.258266932
 21
184.9273043099
 31
0.0
  0
LINE
  5
96
330
1F
100
AcDbEntity
  8
A_RUNDUNGEN
  6
Continuous
 62
     7
100
AcDbLine
 10
63.9244523671
 20
182.3372577287
 30
0.0
 11
81.2670795758
 21
177.6903147735
 31
0.0
  0
LINE
  5
97
330
1F
100
AcDbEntity
  8
A_RUNDUNGEN
  6
Continuous
 62
     7
100
AcDbLine
 10
90.858266932
 20
190.5742860258
 30
0.0
 11
90.858266932
 21
192.4018860258
 31
0.0
  0
LINE
  5
98
330
1F
100
AcDbEntity
  8
A_RUNDUNGEN
  6
Continuous
 62
     7
100
AcDbLine
 10
86.2582669325
 20
190.4742860261
 30
0.0
 11
86.1582669335
 21
190.3742860277
 31
0.0
  0
LINE
  5
99
330
1F
100
AcDbEntity
  8
0
  6
Continuous
 62
     7
100
AcDbLine
 10
108.481951584
 20
176.6646035577
 30
0.0
 11
125.0786061417
 21
181.0537098639
 31
0.0
  0
LINE
  5
9A
330
1F
100
AcDbEntity
  8
A_RUNDUNGEN
  6
Continuous
 62
     7
100
AcDbLine
 10
132.2769475909
 20
183.9400212699
 30
0.0
 11
130.7642948171
 21
183.5399892149
 31
0.0
  0
LINE
  5
9B
330
1F
100
AcDbEntity
  8
A_RUNDUNGEN
  6
Continuous
 62
     7
100
AcDbLine
 10
108.3133405473
 20
177.6543910488
 30
0.0
 11
125.6950322104
 21
182.2511061413
 31
0.0
  0
LINE
  5
9C
330
1F
100
AcDbEntity
  8
A_RUNDUNGEN
  6
Continuous
 62
     7
100
AcDbLine
 10
130.7234911533
 20
183.5809187719
 30
0.0
 11
134.0659582293
 21
184.4648585605
 31
0.0
  0
LINE
  5
9D
330
1F
100
AcDbEntity
  8
A_ACHSEN
  6
DOT_CENTER
 62
     2
100
AcDbLine
 10
122.4662283712
 20
177.8558117967
 30
0.0
 11
139.099426468
 21
177.8558117967
 31
0.0
  0
LINE
  5
9E
330
1F
100
AcDbEntity
  8
A_ACHSEN
  6
DOT_CENTER
 62
     2
100
AcDbLine
 10
51.0142384979
 20
177.9144895213
 30
0.0
 11
66.5731987392
 21
177.9144895213
 31
0.0
  0
LINE
  5
9F
330
1F
100
AcDbEntity
  8
0
  6
Continuous
 62
     7
100
AcDbLine
 10
134.035943433
 20
175.260223163
 30
0.0
 11
137.0359274836
 21
175.2504407103
 31
0.0
  0
LINE
  5
A0
330
1F
100
AcDbEntity
  8
0
  6
Continuous
 62
     7
100
AcDbLine
 10
99.0038892142
 20
178.7312820678
 30
0.0
 11
83.9444101751
 21
184.5136617373
 31
0.0
  0
LINE
  5
A1
330
1F
100
AcDbEntity
  8
A_RUNDUNGEN
  6
Continuous
 62
     7
100
AcDbLine
 10
92.258266932
 20
157.0518860258
 30
0.0
 11
92.258266932
 21
179.3816957327
 31
0.0
  0
LINE
  5
A2
330
1F
100
AcDbEntity
  8
A_RUNDUNGEN
  6
Continuous
 62
     7
100
AcDbLine
 10
92.258266932
 20
185.2995008141
 30
0.0
 11
92.258266932
 21
185.527774914
 31
0.0
  0
LINE
  5
A3
330
1F
100
AcDbEntity
  8
A_RUNDUNGEN
  6
Continuous
 62
     7
100
AcDbLine
 10
92.258266932
 20
189.8402792915
 30
0.0
 11
92.258266932
 21
190.2742860258
 31
0.0
  0
LINE
  5
A4
330
1F
100
AcDbEntity
  8
A_RUNDUNGEN
  6
Continuous
 62
     7
100
AcDbLine
 10
92.358266932
 20
192.4018860258
 30
0.0
 11
92.358266932
 21
189.8723400024
 31
0.0
  0
LINE
  5
A5
330
1F
100
AcDbEntity
  8
A_RUNDUNGEN
  6
Continuous
 62
     7
100
AcDbLine
 10
92.358266932
 20
179.4199057406
 30
0.0
 11
92.358266932
 21
160.6018860258
 31
0.0
  0
LINE
  5
A6
330
1F
100
AcDbEntity
  8
0
  6
Continuous
 62
     7
100
AcDbLine
 10
92.358266932
 20
147.5018860258
 30
0.0
 11
92.358266932
 21
160.6185440402
 31
0.0
  0
LINE
  5
A7
330
1F
100
AcDbEntity
  8
0
  6
Continuous
 62
     7
100
AcDbLine
 10
92.358266932
 20
192.3852280113
 30
0.0
 11
92.358266932
 21
217.4143860258
 31
0.0
  0
LINE
  5
A8
330
1F
100
AcDbEntity
  8
A_ACHSEN
  6
DOT_CENTER
 62
     2
100
AcDbLine
 10
94.7944074251
 20
190.6611824892
 30
0.0
 11
94.7944074251
 21
181.3111824892
 31
0.0
  0
LINE
  5
A9
330
1F
100
AcDbEntity
  8
A_ACHSEN
  6
DOT_CENTER
 62
     2
100
AcDbLine
 10
94.7944074251
 20
190.6611824892
 30
0.0
 11
94.79440742510002
 21
189.5111824892
 31
0.0
  0
LINE
  5
AA
330
1F
100
AcDbEntity
  8
0
  6
Continuous
 62
     7
100
AcDbLine
 10
95.8922489013
 20
147.4104021098
 30
0.0
 11
95.8922489013
 21
179.926056843
 31
0.0
  0
LINE
  5
AB
330
1F
100
AcDbEntity
  8
0
  6
Continuous
 62
     7
100
AcDbLine
 10
95.8922489013
 20
190.2767359719
 30
0.0
 11
95.8922489013
 21
212.5604021098
 31
0.0
  0
LINE
  5
AC
330
1F
100
AcDbEntity
  8
A_RUNDUNGEN
  6
Continuous
 62
     7
100
AcDbLine
 10
96.2736992081
 20
156.2332577956
 30
0.0
 11
96.350383901
 21
179.7501470057
 31
0.0
  0
LINE
  5
AD
330
1F
100
AcDbEntity
  8
A_RUNDUNGEN
  6
Continuous
 62
     7
100
AcDbLine
 10
96.3842257501
 20
190.1284243945
 30
0.0
 11
96.3914147219
 21
192.3330658707
 31
0.0
  0
LINE
  5
AE
330
1F
100
AcDbEntity
  8
A_RUNDUNGEN
  6
Continuous
 62
     7
100
AcDbLine
 10
86.0147377779
 20
183.7187192158
 30
0.0
 11
82.9408908131
 21
180.6543269501
 31
0.0
  0
LINE
  5
AF
330
1F
100
AcDbEntity
  8
A_ACHSEN
  6
DOT_CENTER
 62
     2
100
AcDbLine
 10
92.5444074251
 20
185.4111824892
 30
0.0
 11
89.6944074251
 21
185.4111824892
 31
0.0
  0
LINE
  5
B0
330
1F
100
AcDbEntity
  8
A_ACHSEN
  6
DOT_CENTER
 62
     2
100
AcDbLine
 10
92.5444074251
 20
185.4111824892
 30
0.0
 11
99.8944074251
 21
185.4111824892
 31
0.0
  0
LINE
  5
B1
330
1F
100
AcDbEntity
  8
0
  6
Continuous
 62
     7
100
AcDbLine
 10
81.7942390952
 20
184.9123766972
 30
0.0
 11
68.9867276889
 21
184.9135532096
 31
0.0
  0
LINE
  5
B2
330
1F
100
AcDbEntity
  8
A_RUNDUNGEN
  6
Continuous
 62
     7
100
AcDbLine
 10
120.6012416429
 20
184.8714826479
 30
0.0
 11
107.7937453368
 21
184.8911847156
 31
0.0
  0
LINE
  5
B3
330
1F
100
AcDbEntity
  8
0
  6
Continuous
 62
     7
100
AcDbLine
 10
107.7937453368
 20
184.8911847156
 30
0.0
 11
120.6012416429
 21
184.8714826479
 31
0.0
  0
LINE
  5
B4
330
1F
100
AcDbEntity
  8
0
  6
Continuous
 62
     7
100
AcDbLine
 10
134.0542040114
 20
180.8601933907
 30
0.0
 11
137.0541880619
 21
180.8504109381
 31
0.0
  0
LINE
  5
B5
330
1F
100
AcDbEntity
  8
A_ACHSEN
  6
DOT_CENTER
 62
     2
100
AcDbLine
 10
103.2922486528
 20
156.6076758759
 30
0.0
 11
103.2922486528
 21
167.1742860258
 31
0.0
  0
LINE
  5
B6
330
1F
100
AcDbEntity
  8
A_RUNDUNGEN
  6
Continuous
 62
     7
100
AcDbLine
 10
100.8818803463
 20
189.4018227217
 30
0.0
 11
100.8899234299
 21
191.8683945841
 31
0.0
  0
LINE
  5
B7
330
1F
100
AcDbEntity
  8
0
  6
Continuous
 62
     7
100
AcDbLine
 10
100.9818803763
 20
189.4016688894
 30
0.0
 11
100.9899228982
 21
191.8680685023
 31
0.0
  0
LINE
  5
B8
330
1F
100
AcDbEntity
  8
A_RUNDUNGEN
  6
Continuous
 62
     7
100
AcDbLine
 10
100.9818803763
 20
189.4016688894
 30
0.0
 11
100.9899228982
 21
191.8680685023
 31
0.0
  0
LINE
  5
B9
330
1F
100
AcDbEntity
  8
0
  6
Continuous
 62
     7
100
AcDbLine
 10
81.2029386945
 20
164.3260849521
 30
0.0
 11
86.058263259
 21
170.9872929329
 31
0.0
  0
LINE
  5
BA
330
1F
100
AcDbEntity
  8
0
  6
Continuous
 62
     7
100
AcDbLine
 10
62.258266932
 20
186.9742860258
 30
0.0
 11
55.258266932
 21
186.9742860258
 31
0.0
  0
LINE
  5
BB
330
1F
100
AcDbEntity
  8
0
  6
Continuous
 62
     7
100
AcDbLine
 10
85.958266932
 20
189.9742860258
 30
0.0
 11
55.258266932
 21
189.9742860258
 31
0.0
  0
LINE
  5
BC
330
1F
100
AcDbEntity
  8
0
  6
Continuous
 62
     7
100
AcDbLine
 10
85.958266932
 20
190.4742860258
 30
0.0
 11
56.458266932
 21
190.4742860258
 31
0.0
  0
LINE
  5
BD
330
1F
100
AcDbEntity
  8
A_RUNDUNGEN
  6
Continuous
 62
     7
100
AcDbLine
 10
86.558266932
 20
190.5742860258
 30
0.0
 11
91.958266932
 21
190.5742860258
 31
0.0
  0
LINE
  5
BE
330
1F
100
AcDbEntity
  8
0
  6
Continuous
 62
     7
100
AcDbLine
 10
67.3302822011
 20
189.4137053915
 30
0.0
 11
89.4096100852
 21
189.4116771596
 31
0.0
  0
LINE
  5
BF
330
1F
100
AcDbEntity
  8
0
  6
Continuous
 62
     7
100
AcDbLine
 10
100.1857191456
 20
189.4028936426
 30
0.0
 11
122.2650209982
 21
189.3689285422
 31
0.0
  0
LINE
  5
C0
330
1F
100
AcDbEntity
  8
A_RUNDUNGEN
  6
Continuous
 62
     7
100
AcDbLine
 10
100.1857191456
 20
189.4028936426
 30
0.0
 11
120.9493773588
 21
189.3709524272
 31
0.0
  0
LINE
  5
C1
330
1F
100
AcDbEntity
  8
A_RUNDUNGEN
  6
Continuous
 62
     7
100
AcDbLine
 10
131.8725433412
 20
188.6673488947
 30
0.0
 11
125.088797804
 21
188.6894695689
 31
0.0
  0
LINE
  5
C2
330
1F
100
AcDbEntity
  8
A_RUNDUNGEN
  6
Continuous
 62
     7
100
AcDbLine
 10
124.9012609434
 20
188.7900816273
 30
0.0
 11
128.5799937107
 21
188.7780858871
 31
0.0
  0
LINE
  5
C3
330
1F
100
AcDbEntity
  8
0
  6
Continuous
 62
     7
100
AcDbLine
 10
128.5799937107
 20
188.7780858871
 30
0.0
 11
133.0799697866
 21
188.7634122081
 31
0.0
  0
LINE
  5
C4
330
1F
100
AcDbEntity
  8
0
  6
Continuous
 62
     7
100
AcDbLine
 10
98.3302591233
 20
188.9463985743
 30
0.0
 11
106.6401537451
 21
180.6350098778
 31
0.0
  0
LINE
  5
C5
330
1F
100
AcDbEntity
  8
0
  6
Continuous
 62
     7
100
AcDbLine
 10
105.8922489013
 20
192.4104021098
 30
0.0
 11
105.8922489013
 21
192.3520854849
 31
0.0
  0
LINE
  5
C6
330
1F
100
AcDbEntity
  8
0
  6
Continuous
 62
     7
100
AcDbLine
 10
108.5435465101
 20
176.0386318697
 30
0.0
 11
108.5422486306
 21
161.9099194978
 31
0.0
  0
LINE
  5
C7
330
1F
100
AcDbEntity
  8
A_RUNDUNGEN
  6
Continuous
 62
     7
100
AcDbLine
 10
92.358266932
 20
192.4018860258
 30
0.0
 11
90.858266932
 21
192.4018860258
 31
0.0
  0
LINE
  5
C8
330
1F
100
AcDbEntity
  8
0
  6
Continuous
 62
     7
100
AcDbLine
 10
139.8922489013
 20
192.4104021098
 30
0.0
 11
95.8922489013
 21
192.4104021098
 31
0.0
  0
LINE
  5
C9
330
1F
100
AcDbEntity
  8
0
  6
Continuous
 62
     7
100
AcDbLine
 10
50.358266932
 20
192.5018860258
 30
0.0
 11
92.358266932
 21
192.5018860258
 31
0.0
  0
LINE
  5
CA
330
1F
100
AcDbEntity
  8
A_RUNDUNGEN
  6
Continuous
 62
     7
100
AcDbLine
 10
100.9899228982
 20
191.8680685023
 30
0.0
 11
128.5897761634
 21
191.7780699377
 31
0.0
  0
LINE
  5
CB
330
1F
100
AcDbEntity
  8
0
  6
Continuous
 62
     7
100
AcDbLine
 10
128.5897761634
 20
191.7780699377
 30
0.0
 11
133.0897522392
 21
191.7633962587
 31
0.0
  0
LINE
  5
CC
330
1F
100
AcDbEntity
  8
A_RUNDUNGEN
  6
Continuous
 62
     7
100
AcDbLine
 10
96.3914147219
 20
192.3330658707
 30
0.0
 11
96.5359553348
 21
192.3325945476
 31
0.0
  0
LINE
  5
CD
330
1F
100
AcDbEntity
  8
A_RUNDUNGEN
  6
Continuous
 62
     7
100
AcDbLine
 10
96.6915761679
 20
192.3820873596
 30
0.0
 11
128.2247418549
 21
192.2792629125
 31
0.0
  0
LINE
  5
CE
330
1F
100
AcDbEntity
  8
0
  6
Continuous
 62
     7
100
AcDbLine
 10
111.358266932
 20
217.4143860258
 30
0.0
 11
111.358266932
 21
228.400687851905
 31
0.0
  0
LINE
  5
CF
330
1F
100
AcDbEntity
  8
0
  6
Continuous
 62
     7
100
AcDbLine
 10
111.8922489013
 20
155.4104021098
 30
0.0
 11
111.8922489013
 21
160.4104021098
 31
0.0
  0
LINE
  5
D0
330
1F
100
AcDbEntity
  8
0
  6
Continuous
 62
     7
100
AcDbLine
 10
98.5737913433
 20
164.2122837419
 30
0.0
 11
101.9755395742
 21
171.1852754037
 31
0.0
  0
LINE
  5
D1
330
1F
100
AcDbEntity
  8
A_RUNDUNGEN
  6
Continuous
 62
     7
100
AcDbLine
 10
96.6039552858
 20
160.8509361762
 30
0.0
 11
98.7891446743
 21
165.1981904888
 31
0.0
  0
LINE
  5
D2
330
1F
100
AcDbEntity
  8
0
  6
Continuous
 62
     7
100
AcDbLine
 10
105.6429271358
 20
184.4959754564
 30
0.0
 11
103.5713063827
 21
183.7044090026
 31
0.0
  0
LINE
  5
D3
330
1F
100
AcDbEntity
  8
A_RUNDUNGEN
  6
Continuous
 62
     7
100
AcDbLine
 10
105.6429271358
 20
184.4959754564
 30
0.0
 11
103.5713063827
 21
183.7044090026
 31
0.0
  0
LINE
  5
D4
330
1F
100
AcDbEntity
  8
0
  6
Continuous
 62
     7
100
AcDbLine
 10
94.7902814279
 20
180.349178672
 30
0.0
 11
90.5740417739
 21
178.7381531664
 31
0.0
  0
LINE
  5
D5
330
1F
100
AcDbEntity
  8
A_RUNDUNGEN
  6
Continuous
 62
     7
100
AcDbLine
 10
94.7902814279
 20
180.349178672
 30
0.0
 11
90.5740417739
 21
178.7381531664
 31
0.0
  0
LINE
  5
D6
330
1F
100
AcDbEntity
  8
0
  6
Continuous
 62
     7
100
AcDbLine
 10
124.8411822799
 20
183.1075904911
 30
0.0
 11
126.577862914
 21
181.3655516027
 31
0.0
  0
LINE
  5
D7
330
1F
100
AcDbEntity
  8
A_RUNDUNGEN
  6
Continuous
 62
     7
100
AcDbLine
 10
108.3689970732
 20
158.1688275263
 30
0.0
 11
108.4277983865
 21
158.3714016061
 31
0.0
  0
LINE
  5
D8
330
1F
100
AcDbEntity
  8
A_RUNDUNGEN
  6
Continuous
 62
     7
100
AcDbLine
 10
128.5244141782
 20
192.1782851989
 30
0.0
 11
129.056440349
 21
191.7765482228
 31
0.0
  0
LINE
  5
D9
330
1F
100
AcDbEntity
  8
0
  6
Continuous
 62
     7
100
AcDbLine
 10
133.6156077961
 20
180.6798789592
 30
0.0
 11
126.8582900216
 21
187.4580453722
 31
0.0
  0
LINE
  5
DA
330
1F
100
AcDbEntity
  8
0
  6
Continuous
 62
     7
100
AcDbLine
 10
120.5056379268
 20
185.6090123373
 30
0.0
 11
119.9691550099
 21
188.1655818158
 31
0.0
  0
LINE
  5
DB
330
1F
100
AcDbEntity
  8
0
  6
Continuous
 62
     7
100
AcDbLine
 10
95.8922489013
 20
212.5604021098
 30
0.0
 11
152.358266932
 21
212.5604021098
 31
0.0
  0
LINE
  5
DC
330
1F
100
AcDbEntity
  8
A_RUNDUNGEN
  6
Continuous
 62
     7
100
AcDbLine
 10
133.9271484581
 20
186.8070859217
 30
0.0
 11
132.2256173164
 21
188.5197501908
 31
0.0
  0
LINE
  5
DD
330
1F
100
AcDbEntity
  8
A_RUNDUNGEN
  6
Continuous
 62
     7
100
AcDbLine
 10
126.8438420205
 20
173.1937957064
 30
0.0
 11
125.0541662921
 21
179.9611482749
 31
0.0
  0
LINE
  5
DE
330
1F
100
AcDbEntity
  8
A_ACHSEN
  6
DOT_CENTER
 62
     2
100
AcDbLine
 10
130.7828274196
 20
169.5392127483
 30
0.0
 11
130.7828274196
 21
186.1724108451
 31
0.0
  0
LINE
  5
DF
330
1F
100
AcDbEntity
  8
0
  6
Continuous
 62
     7
100
AcDbLine
 10
128.5799937107
 20
188.7780858871
 30
0.0
 11
128.5897761634
 21
191.7780699377
 31
0.0
  0
LINE
  5
E0
330
1F
100
AcDbEntity
  8
A_RUNDUNGEN
  6
Continuous
 62
     7
100
AcDbLine
 10
129.3799894575
 20
188.7754772331
 30
0.0
 11
129.3796633758
 21
188.6754777647
 31
0.0
  0
LINE
  5
E1
330
1F
100
AcDbEntity
  8
0
  6
Continuous
 62
     7
100
AcDbLine
 10
92.358266932
 20
217.4143860258
 30
0.0
 11
111.358266932
 21
217.4143860258
 31
0.0
  0
LINE
  5
E2
330
1F
100
AcDbEntity
  8
0
  6
Continuous
 62
     7
100
AcDbLine
 10
134.0767036525
 20
187.760156707
 30
0.0
 11
134.0542040114
 21
180.8601933907
 31
0.0
  0
LINE
  5
E3
330
1F
100
AcDbEntity
  8
0
  6
Continuous
 62
     7
100
AcDbLine
 10
134.035943433
 20
175.260223163
 30
0.0
 11
133.9876833332
 21
160.4603018469
 31
0.0
  0
LINE
  5
E4
330
1F
100
AcDbEntity
  8
A_RUNDUNGEN
  6
Continuous
 62
     7
100
AcDbLine
 10
136.5114885471
 20
175.7504753184
 30
0.0
 11
135.161140916
 21
180.8565838522
 31
0.0
  0
LINE
  5
E5
330
1F
100
AcDbEntity
  8
0
  6
Continuous
 62
     7
100
AcDbLine
 10
139.8922489013
 20
160.4104021098
 30
0.0
 11
139.8922489013
 21
192.4104021098
 31
0.0
  0
LINE
  5
E6
330
1F
100
AcDbEntity
  8
0
  6
Continuous
 62
     7
100
AcDbLine
 10
136.9876673837
 20
160.4505193942
 30
0.0
 11
137.0766877031
 21
187.7503742543
 31
0.0
  0
LINE
  5
E7
330
1F
100
AcDbEntity
  8
1
  6
DOT_CENTER
 62
     2
100
AcDbLine
 10
152.358266932
 20
216.334560222272
 30
0.0
 11
152.358266932
 21
212.5604021098
 31
0.0
  0
LINE
  5
E8
330
1F
100
AcDbEntity
  8
1
  6
DOT_CENTER
 62
     2
100
AcDbLine
 10
152.358266932
 20
212.5604021098
 30
0.0
 11
152.358266932
 21
155.4104021098
 31
0.0
  0
LINE
  5
E9
330
1F
100
AcDbEntity
  8
0
  6
Continuous
 62
     7
100
AcDbLine
 10
152.358266932
 20
155.4104021098
 30
0.0
 11
95.8922489013
 21
155.4104021098
 31
0.0
  0
LINE
  5
EA
330
1F
100
AcDbEntity
  8
1
  6
DOT_CENTER
 62
     2
100
AcDbLine
 10
152.358266932
 20
155.4104021098
 30
0.0
 11
152.358266932
 21
147.4104021098
 31
0.0
  0
LINE
  5
EB
330
1F
100
AcDbEntity
  8
1
  6
DOT_CENTER
 62
     2
100
AcDbLine
 10
152.358266932
 20
147.4104021098
 30
0.0
 11
152.358266932
 21
142.4104021098
 31
0.0
  0
LINE
  5
EC
330
1F
100
AcDbEntity
  8
1
  6
DOT_CENTER
 62
     2
100
AcDbLine
 10
39.0858986953881
 20
228.400687851905
 30
0.0
 11
42.35826693200001
 21
228.400687851905
 31
0.0
  0
LINE
  5
ED
330
1F
100
AcDbEntity
  8
1
  6
DOT_CENTER
 62
     2
100
AcDbLine
 10
42.35826693200001
 20
228.400687851905
 30
0.0
 11
111.358266932
 21
228.400687851905
 31
0.0
  0
LINE
  5
EE
330
1F
100
AcDbEntity
  8
1
  6
DOT_CENTER
 62
     2
100
AcDbLine
 10
111.358266932
 20
228.400687851905
 30
0.0
 11
114.358266932
 21
228.400687851905
 31
0.0
  0
ARC
  5
EF
330
1F
100
AcDbEntity
  8
A_RUNDUNGEN
  6
Continuous
 62
     7
100
AcDbCircle
 10
54.758266932
 20
162.0742860258
 30
0.0
 40
0.5
100
AcDbArc
 50
180.0
 51
270.0
  0
ARC
  5
F0
330
1F
100
AcDbEntity
  8
A_RUNDUNGEN
  6
Continuous
 62
     7
100
AcDbCircle
 10
54.9799497765
 20
175.2611529238
 30
0.0
 40
2.000000000000242
100
AcDbArc
 50
248.7551198115021
 51
255.0000000003017
  0
ARC
  5
F1
330
1F
100
AcDbEntity
  8
A_RUNDUNGEN
  6
Continuous
 62
     7
100
AcDbCircle
 10
60.7755047342
 20
173.7082386532
 30
0.0
 40
2.000000000019801
100
AcDbArc
 50
255.0000000003017
 51
345.0000000003018
  0
ARC
  5
F2
330
1F
100
AcDbEntity
  8
0
  6
Continuous
 62
     7
100
AcDbCircle
 10
86.258266932
 20
161.9242860258
 30
0.0
 40
5.250000000054355
100
AcDbArc
 50
279.8633679660839
 51
25.91186064698783
  0
ARC
  5
F3
330
1F
100
AcDbEntity
  8
0
  6
Continuous
 62
     7
100
AcDbCircle
 10
82.0110505291
 20
163.7370558673
 30
0.0
 40
0.9999999999804439
100
AcDbArc
 50
143.9118606527442
 51
179.9118606472144
  0
ARC
  5
F4
330
1F
100
AcDbEntity
  8
A_RUNDUNGEN
  6
Continuous
 62
     7
100
AcDbCircle
 10
78.858266932
 20
161.0742860258
 30
0.0
 40
0.5
100
AcDbArc
 50
0.0
 51
90.0
  0
ARC
  5
F5
330
1F
100
AcDbEntity
  8
A_RUNDUNGEN
  6
Continuous
 62
     7
100
AcDbCircle
 10
79.858266932
 20
157.2518860258
 30
0.0
 40
0.5
100
AcDbArc
 50
180.0
 51
270.0
  0
ARC
  5
F6
330
1F
100
AcDbEntity
  8
A_RUNDUNGEN
  6
Continuous
 62
     7
100
AcDbCircle
 10
91.958266932
 20
157.0518860258
 30
0.0
 40
0.3000000000000114
100
AcDbArc
 50
270.0
 51
0.0
  0
ARC
  5
F7
330
1F
100
AcDbEntity
  8
0
  6
Continuous
 62
     7
100
AcDbCircle
 10
87.5299999522
 20
176.0510588383
 30
0.0
 40
6.499999999975834
100
AcDbArc
 50
134.9117476671982
 51
179.9118606467717
  0
ARC
  5
F8
330
1F
100
AcDbEntity
  8
A_RUNDUNGEN
  6
Continuous
 62
     7
100
AcDbCircle
 10
87.5299999522
 20
176.0510588383
 30
0.0
 40
6.499999999975834
100
AcDbArc
 50
134.9117476671982
 51
179.9118606467717
  0
ARC
  5
F9
330
1F
100
AcDbEntity
  8
A_ACHSEN
  6
Continuous
 62
     7
100
AcDbCircle
 10
84.1659676754
 20
171.116013438
 30
0.0
 40
5.600000000000211
100
AcDbArc
 50
329.7485498635958
 51
54.20505810150044
  0
ARC
  5
FA
330
1F
100
AcDbEntity
  8
0
  6
Continuous
 62
     7
100
AcDbCircle
 10
92.5371643577
 20
173.6004348284
 30
0.0
 40
5.500000000000147
100
AcDbArc
 50
194.1130078025047
 51
205.9118606478766
  0
ARC
  5
FB
330
1F
100
AcDbEntity
  8
A_RUNDUNGEN
  6
Continuous
 62
     7
100
AcDbCircle
 10
92.5371643577
 20
173.6004348284
 30
0.0
 40
5.499999999967897
100
AcDbArc
 50
110.9118606479403
 51
205.9118606478766
  0
ARC
  5
FC
330
1F
100
AcDbEntity
  8
0
  6
Continuous
 62
     7
100
AcDbCircle
 10
84.1659676754
 20
171.116013438
 30
0.0
 40
4.599999999999803
100
AcDbArc
 50
338.7927553729056
 51
49.57991721889861
  0
ARC
  5
FD
330
1F
100
AcDbEntity
  8
0
  6
Continuous
 62
     7
100
AcDbCircle
 10
86.8663750935
 20
170.3982638481
 30
0.0
 40
0.9999999999642201
100
AcDbArc
 50
25.91186064342007
 51
143.9118606493679
  0
ARC
  5
FE
330
1F
100
AcDbEntity
  8
0
  6
Continuous
 62
     7
100
AcDbCircle
 10
67.3296851038
 20
182.9137054189
 30
0.0
 40
6.500000000025008
100
AcDbArc
 50
89.99473674533897
 51
134.9948497252012
  0
ARC
  5
FF
330
1F
100
AcDbEntity
  8
0
  6
Continuous
 62
     7
100
AcDbCircle
 10
68.9861765222
 20
178.9135532349
 30
0.0
 40
6.000000000015383
100
AcDbArc
 50
89.99473674570619
 51
134.9948497252012
  0
ARC
  5
100
330
1F
100
AcDbEntity
  8
A_ACHSEN
  6
Continuous
 62
     7
100
AcDbCircle
 10
58.7937186186
 20
177.9144895213
 30
0.0
 40
4.749999999999819
100
AcDbArc
 50
102.5363384352004
 51
163.1558308745037
  0
ARC
  5
101
330
1F
100
AcDbEntity
  8
A_ACHSEN
  6
Continuous
 62
     7
100
AcDbCircle
 10
58.7937186186
 20
177.9144895213
 30
0.0
 40
4.750000000000045
100
AcDbArc
 50
196.8460555907006
 51
36.99821349230307
  0
ARC
  5
102
330
1F
100
AcDbEntity
  8
0
  6
Continuous
 62
     7
100
AcDbCircle
 10
55.258266932
 20
185.9742860258
 30
0.0
 40
4.0
100
AcDbArc
 50
90.0
 51
180.0
  0
ARC
  5
103
330
1F
100
AcDbEntity
  8
0
  6
Continuous
 62
     7
100
AcDbCircle
 10
58.7937186186
 20
177.9144895213
 30
0.0
 40
4.000000000043511
100
AcDbArc
 50
134.994849726214
 51
20.37053137309796
  0
ARC
  5
104
330
1F
100
AcDbEntity
  8
A_RUNDUNGEN
  6
Continuous
 62
     7
100
AcDbCircle
 10
56.7916830922
 20
182.0226337078
 30
0.0
 40
2.000000000019828
100
AcDbArc
 50
75.0000000003019
 51
165.0000000003018
  0
ARC
  5
105
330
1F
100
AcDbEntity
  8
A_RUNDUNGEN
  6
Continuous
 62
     7
100
AcDbCircle
 10
62.5872380499
 20
180.4697194372
 30
0.0
 40
2.000000000019815
100
AcDbArc
 50
345.0000000003009
 51
55.8201707710986
  0
ARC
  5
106
330
1F
100
AcDbEntity
  8
0
  6
Continuous
 62
     7
100
AcDbCircle
 10
64.4184854867
 20
180.0030291259
 30
0.0
 40
1.999999999986394
100
AcDbArc
 50
134.994849727227
 51
200.3705313750299
  0
ARC
  5
107
330
1F
100
AcDbEntity
  8
0
  6
Continuous
 62
     7
100
AcDbCircle
 10
55.258266932
 20
185.9742860258
 30
0.0
 40
1.0
100
AcDbArc
 50
90.0
 51
180.0
  0
ARC
  5
108
330
1F
100
AcDbEntity
  8
A_RUNDUNGEN
  6
Continuous
 62
     7
100
AcDbCircle
 10
56.2153737132
 20
186.4742860258
 30
0.0
 40
0.4999999999998771
100
AcDbArc
 50
104.9999970196048
 51
135.0000000000011
  0
ARC
  5
109
330
1F
100
AcDbEntity
  8
A_RUNDUNGEN
  6
Continuous
 62
     7
100
AcDbCircle
 10
54.758266932
 20
185.0171792446
 30
0.0
 40
0.50000000000952
100
AcDbArc
 50
134.9999999999989
 51
180.0
  0
ARC
  5
10A
330
1F
100
AcDbEntity
  8
0
  6
Continuous
 62
     7
100
AcDbCircle
 10
81.7936879284
 20
178.9123767225
 30
0.0
 40
5.999999999956109
100
AcDbArc
 50
68.99473674495646
 51
89.99473674475138
  0
ARC
  5
10B
330
1F
100
AcDbEntity
  8
0
  6
Continuous
 62
     7
100
AcDbCircle
 10
89.4105286965
 20
199.4116771174
 30
0.0
 40
9.999999999992323
100
AcDbArc
 50
269.9947367449423
 51
291.0342065265008
  0
ARC
  5
10C
330
1F
100
AcDbEntity
  8
A_RUNDUNGEN
  6
Continuous
 62
     7
100
AcDbCircle
 10
86.558266932
 20
190.0742860258
 30
0.0
 40
0.5
100
AcDbArc
 50
90.0
 51
180.0
  0
ARC
  5
10D
330
1F
100
AcDbEntity
  8
A_RUNDUNGEN
  6
Continuous
 62
     7
100
AcDbCircle
 10
91.958266932
 20
190.2742860258
 30
0.0
 40
0.2999999999999972
100
AcDbArc
 50
0.0
 51
90.0
  0
ARC
  5
10E
330
1F
100
AcDbEntity
  8
A_RUNDUNGEN
  6
Continuous
 62
     7
100
AcDbCircle
 10
99.2843791879
 20
159.5035952004
 30
0.0
 40
3.000000000003114
100
AcDbArc
 50
153.3131685843143
 51
179.8131685849929
  0
ARC
  5
10F
330
1F
100
AcDbEntity
  8
A_RUNDUNGEN
  6
Continuous
 62
     7
100
AcDbCircle
 10
96.5736976131
 20
156.2322795503
 30
0.0
 40
0.2999999999440149
100
AcDbArc
 50
179.8131685788101
 51
269.8131685979089
  0
ARC
  5
110
330
1F
100
AcDbEntity
  8
0
  6
Continuous
 62
     7
100
AcDbCircle
 10
103.2922486528
 20
161.9104017687
 30
0.0
 40
5.250000000011141
100
AcDbArc
 50
153.9947367447
 51
359.9947367452967
  0
ARC
  5
111
330
1F
100
AcDbEntity
  8
A_RUNDUNGEN
  6
Continuous
 62
     7
100
AcDbCircle
 10
101.4695685764
 20
163.8508495131
 30
0.0
 40
2.999999999999733
100
AcDbArc
 50
132.1446772328052
 51
153.3131685860204
  0
ARC
  5
112
330
1F
100
AcDbEntity
  8
A_RUNDUNGEN
  6
Continuous
 62
     7
100
AcDbCircle
 10
111.2776954828
 20
157.4343388866
 30
0.0
 40
3.000000000039207
100
AcDbArc
 50
89.81316858457518
 51
165.8282393120384
  0
ARC
  5
113
330
1F
100
AcDbEntity
  8
A_RUNDUNGEN
  6
Continuous
 62
     7
100
AcDbCircle
 10
105.4602986636
 20
158.9033161661
 30
0.0
 40
3.000000000039207
100
AcDbArc
 50
269.8131685845752
 51
345.8282393101865
  0
ARC
  5
114
330
1F
100
AcDbEntity
  8
A_RUNDUNGEN
  6
Continuous
 62
     7
100
AcDbCircle
 10
111.3054124321
 20
165.9342936965
 30
0.0
 40
2.999999999999825
100
AcDbArc
 50
213.3898225613013
 51
269.8131685845689
  0
ARC
  5
115
330
1F
100
AcDbEntity
  8
A_RUNDUNGEN
  6
Continuous
 62
     7
100
AcDbCircle
 10
106.2957386408
 20
162.6322990713
 30
0.0
 40
3.000000000007491
100
AcDbArc
 50
33.38982256166245
 51
41.49089772110318
  0
ARC
  5
116
330
1F
100
AcDbEntity
  8
0
  6
Continuous
 62
     7
100
AcDbCircle
 10
102.0435465375
 20
176.0392289671
 30
0.0
 40
6.500000000025017
100
AcDbArc
 50
359.9947367444575
 51
44.99484972520121
  0
ARC
  5
117
330
1F
100
AcDbEntity
  8
A_RUNDUNGEN
  6
Continuous
 62
     7
100
AcDbCircle
 10
105.8978916582
 20
171.2230916878
 30
0.0
 40
5.59999999999955
100
AcDbArc
 50
131.3895644285016
 51
205.150039926804
  0
ARC
  5
118
330
1F
100
AcDbEntity
  8
0
  6
Continuous
 62
     7
100
AcDbCircle
 10
97.0323938214
 20
173.5967708042
 30
0.0
 40
5.500000000005206
100
AcDbArc
 50
333.9947367446117
 51
68.9947367451621
  0
ARC
  5
119
330
1F
100
AcDbEntity
  8
0
  6
Continuous
 62
     7
100
AcDbCircle
 10
105.8978916582
 20
171.2230916878
 30
0.0
 40
4.59999999999992
100
AcDbArc
 50
138.5479580877052
 51
194.1954645295966
  0
ARC
  5
11A
330
1F
100
AcDbEntity
  8
A_RUNDUNGEN
  6
Continuous
 62
     7
100
AcDbCircle
 10
133.4889903184
 20
160.8619301291
 30
0.0
 40
0.4999999999997895
100
AcDbArc
 50
294.6148056866855
 51
359.8131685849559
  0
ARC
  5
11B
330
1F
100
AcDbEntity
  8
A_RUNDUNGEN
  6
Continuous
 62
     7
100
AcDbCircle
 10
134.5779592418
 20
175.239139396
 30
0.0
 40
1.999999999999938
100
AcDbArc
 50
0.3686344854057
 51
14.81316858495429
  0
ARC
  5
11C
330
1F
100
AcDbEntity
  8
A_RUNDUNGEN
  6
Continuous
 62
     7
100
AcDbCircle
 10
128.7773713259
 20
173.7051316288
 30
0.0
 40
2.000000000094297
100
AcDbArc
 50
194.813168584222
 51
284.8131685849551
  0
ARC
  5
11D
330
1F
100
AcDbEntity
  8
A_RUNDUNGEN
  6
Continuous
 62
     7
100
AcDbCircle
 10
107.784515409
 20
178.8911918149
 30
0.0
 40
6.000000000001459
100
AcDbArc
 50
89.91186064721222
 51
110.9118606474611
  0
ARC
  5
11E
330
1F
100
AcDbEntity
  8
A_RUNDUNGEN
  6
Continuous
 62
     7
100
AcDbCircle
 10
94.7944074251
 20
185.4111824892
 30
0.0
 40
5.00000000000031
100
AcDbArc
 50
230.5848463077022
 51
267.3090589771999
  0
ARC
  5
11F
330
1F
100
AcDbEntity
  8
0
  6
Continuous
 62
     7
100
AcDbCircle
 10
94.7944074251
 20
185.4111824892
 30
0.0
 40
5.000000000001346
100
AcDbArc
 50
44.99484972439082
 51
111.0342065260763
  0
ARC
  5
120
330
1F
100
AcDbEntity
  8
A_RUNDUNGEN
  6
Continuous
 62
     7
100
AcDbCircle
 10
100.2011023586
 20
199.4028818104
 30
0.0
 40
9.999999999999883
100
AcDbArc
 50
248.8723908661998
 51
269.9118606472121
  0
ARC
  5
121
330
1F
100
AcDbEntity
  8
A_RUNDUNGEN
  6
Continuous
 62
     7
100
AcDbCircle
 10
100.3899260881
 20
191.8700249928
 30
0.0
 40
0.5000000000395918
100
AcDbArc
 50
359.8131685941357
 51
89.81316858495425
  0
ARC
  5
122
330
1F
100
AcDbEntity
  8
A_RUNDUNGEN
  6
Continuous
 62
     7
100
AcDbCircle
 10
96.6905979226
 20
192.0820889545
 30
0.0
 40
0.3000000000440304
100
AcDbArc
 50
89.81316857887235
 51
179.8131685849516
  0
ARC
  5
123
330
1F
100
AcDbEntity
  8
0
  6
Continuous
 62
     7
100
AcDbCircle
 10
122.2550219098
 20
182.8689362331
 30
0.0
 40
6.499999999975834
100
AcDbArc
 50
44.91174766719823
 51
89.91186064765319
  0
ARC
  5
124
330
1F
100
AcDbEntity
  8
A_RUNDUNGEN
  6
Continuous
 62
     7
100
AcDbCircle
 10
120.5920117152
 20
178.8714897472
 30
0.0
 40
5.999999999999605
100
AcDbArc
 50
82.67641533909828
 51
89.91186064816716
  0
ARC
  5
125
330
1F
100
AcDbEntity
  8
0
  6
Continuous
 62
     7
100
AcDbCircle
 10
120.5920117152
 20
178.8714897472
 30
0.0
 40
6.000000000031925
100
AcDbArc
 50
44.9117476682379
 51
89.91186064816716
  0
ARC
  5
126
330
1F
100
AcDbEntity
  8
A_ACHSEN
  6
Continuous
 62
     7
100
AcDbCircle
 10
130.7828274196
 20
177.8558117967
 30
0.0
 40
4.749999999999853
100
AcDbArc
 50
142.9083839003011
 51
313.2279942796027
  0
ARC
  5
127
330
1F
100
AcDbEntity
  8
A_ACHSEN
  6
Continuous
 62
     7
100
AcDbCircle
 10
130.7828274196
 20
177.8558117967
 30
0.0
 40
4.749999999999829
100
AcDbArc
 50
46.38455500359444
 51
77.3702589574995
  0
ARC
  5
128
330
1F
100
AcDbEntity
  8
A_ACHSEN
  6
Continuous
 62
     7
100
AcDbCircle
 10
130.7828274196
 20
177.8558117967
 30
0.0
 40
4.749999999999988
100
AcDbArc
 50
326.7154529870052
 51
39.29985089639958
  0
ARC
  5
129
330
1F
100
AcDbEntity
  8
0
  6
Continuous
 62
     7
100
AcDbCircle
 10
133.076708969
 20
187.7634175246
 30
0.0
 40
4.000000000019027
100
AcDbArc
 50
359.8131685840962
 51
89.81316858552842
  0
ARC
  5
12A
330
1F
100
AcDbEntity
  8
0
  6
Continuous
 62
     7
100
AcDbCircle
 10
130.7828274196
 20
177.8558117967
 30
0.0
 40
4.00000000000052
100
AcDbArc
 50
159.5360660195981
 51
44.91174766688646
  0
ARC
  5
12B
330
1F
100
AcDbEntity
  8
A_RUNDUNGEN
  6
Continuous
 62
     7
100
AcDbCircle
 10
132.7882835133
 20
182.0064919646
 30
0.0
 40
1.999999999999651
100
AcDbArc
 50
50.22728702610495
 51
104.8131685849551
  0
ARC
  5
12C
330
1F
100
AcDbEntity
  8
A_RUNDUNGEN
  6
Continuous
 62
     7
100
AcDbCircle
 10
126.9876955974
 20
180.4724841973
 30
0.0
 40
1.999999999999866
100
AcDbArc
 50
125.1114435867147
 51
194.8131685849543
  0
ARC
  5
12D
330
1F
100
AcDbEntity
  8
0
  6
Continuous
 62
     7
100
AcDbCircle
 10
125.1614727257
 20
179.9535180215
 30
0.0
 40
2.000000000015845
100
AcDbArc
 50
339.5360660197956
 51
44.91174766486071
  0
ARC
  5
12E
330
1F
100
AcDbEntity
  8
0
  6
Continuous
 62
     7
100
AcDbCircle
 10
133.076708969
 20
187.7634175246
 30
0.0
 40
0.9999999999798204
100
AcDbArc
 50
359.8131685826593
 51
89.81316858265933
  0
ARC
  5
12F
330
1F
100
AcDbEntity
  8
0
  6
Continuous
 62
     7
100
AcDbCircle
 10
121.4843219544
 20
185.8143841319
 30
0.0
 40
0.99999999994829
100
AcDbArc
 50
191.8512644120871
 51
262.6764153415219
  0
ARC
  5
130
330
1F
100
AcDbEntity
  8
0
  6
Continuous
 62
     7
100
AcDbCircle
 10
120.9478390376
 20
188.3709536104
 30
0.0
 40
1.000000000016759
100
AcDbArc
 50
89.91186065294323
 51
191.8512644109088
  0
ARC
  5
131
330
1F
100
AcDbEntity
  8
A_RUNDUNGEN
  6
Continuous
 62
     7
100
AcDbCircle
 10
133.572444074
 20
186.4546872838
 30
0.0
 40
0.4999999999998636
100
AcDbArc
 50
359.8131685849526
 51
44.81316858571022
  0
ARC
  5
132
330
1F
100
AcDbEntity
  8
A_RUNDUNGEN
  6
Continuous
 62
     7
100
AcDbCircle
 10
131.8709129324
 20
188.167351553
 30
0.0
 40
0.4999999999521214
100
AcDbArc
 50
44.81316858565739
 51
89.81316858264066
  0
ARC
  5
133
330
1F
100
AcDbEntity
  8
A_RUNDUNGEN
  6
Continuous
 62
     7
100
AcDbCircle
 10
128.2231114461
 20
191.7792655708
 30
0.0
 40
0.4999999999799909
100
AcDbArc
 50
52.94327093452004
 51
89.81316858264066
  0
ARC
  5
134
330
1F
100
AcDbEntity
  8
0
  6
Continuous
 62
     7
100
AcDbCircle
 10
86.258266932
 20
161.9242860258
 30
0.0
 40
5.249999999988743
100
AcDbArc
 50
179.911860647485
 51
279.8633679660839
  0
CIRCLE
  5
135
330
1F
100
AcDbEntity
  8
A_ACHSEN
  6
Continuous
 62
     7
100
AcDbCircle
 10
86.258266932
 20
161.9242860258
 30
0.0
 40
2.475000000000009
  0
CIRCLE
  5
136
330
1F
100
AcDbEntity
  8
0
  6
Continuous
 62
     7
100
AcDbCircle
 10
103.2922486528
 20
161.9104017687
 30
0.0
 40
2.475000000000009
  0
CIRCLE
  5
137
330
1F
100
AcDbEntity
  8
0
  6
Continuous
 62
     7
100
AcDbCircle
 10
94.7944074251
 20
185.4111824892
 30
0.0
 40
2.549999999999997
  0
CIRCLE
  5
138
330
1F
100
AcDbEntity
  8
1
  6
Continuous
 62
     2
100
AcDbCircle
 10
48.98988161291268
 20
154.2871480023764
 30
0.0
 40
0.5
  0
CIRCLE
  5
139
330
1F
100
AcDbEntity
  8
1
  6
Continuous
 62
     2
100
AcDbCircle
 10
47.98988161291268
 20
151.2871480023764
 30
0.0
 40
0.5
  0
CIRCLE
  5
13A
330
1F
100
AcDbEntity
  8
1
  6
Continuous
 62
     2
100
AcDbCircle
 10
47.98988161291268
 20
149.2871480023764
 30
0.0
 40
0.5
  0
CIRCLE
  5
13B
330
1F
100
AcDbEntity
  8
1
  6
Continuous
 62
     2
100
AcDbCircle
 10
50.98988161291268
 20
149.2871480023764
 30
0.0
 40
0.5
  0
CIRCLE
  5
13C
330
1F
100
AcDbEntity
  8
1
  6
Continuous
 62
     2
100
AcDbCircle
 10
50.98988161291268
 20
152.2871480023764
 30
0.0
 40
0.5
  0
CIRCLE
  5
13D
330
1F
100
AcDbEntity
  8
1
  6
Continuous
 62
     2
100
AcDbCircle
 10
52.98988161291268
 20
153.2871480023764
 30
0.0
 40
0.5
  0
CIRCLE
  5
13E
330
1F
100
AcDbEntity
  8
1
  6
Continuous
 62
     2
100
AcDbCircle
 10
52.98988161291268
 20
151.2871480023764
 30
0.0
 40
0.5
  0
CIRCLE
  5
13F
330
1F
100
AcDbEntity
  8
1
  6
Continuous
 62
     2
100
AcDbCircle
 10
53.98988161291268
 20
149.2871480023764
 30
0.0
 40
0.5
  0
CIRCLE
  5
140
330
1F
100
AcDbEntity
  8
1
  6
Continuous
 62
     2
100
AcDbCircle
 10
55.98988161291268
 20
152.2871480023764
 30
0.0
 40
0.5
  0
CIRCLE
  5
141
330
1F
100
AcDbEntity
  8
1
  6
Continuous
 62
     2
100
AcDbCircle
 10
55.98988161291268
 20
154.2871480023764
 30
0.0
 40
0.5
  0
CIRCLE
  5
142
330
1F
100
AcDbEntity
  8
1
  6
Continuous
 62
     2
100
AcDbCircle
 10
56.98988161291268
 20
149.2871480023764
 30
0.0
 40
0.5
  0
CIRCLE
  5
143
330
1F
100
AcDbEntity
  8
1
  6
Continuous
 62
     2
100
AcDbCircle
 10
59.98988161291268
 20
149.2871480023764
 30
0.0
 40
0.5
  0
CIRCLE
  5
144
330
1F
100
AcDbEntity
  8
1
  6
Continuous
 62
     2
100
AcDbCircle
 10
58.98988161291268
 20
152.2871480023764
 30
0.0
 40
0.5
  0
CIRCLE
  5
145
330
1F
100
AcDbEntity
  8
1
  6
Continuous
 62
     2
100
AcDbCircle
 10
58.98988161291268
 20
154.2871480023764
 30
0.0
 40
0.5
  0
CIRCLE
  5
146
330
1F
100
AcDbEntity
  8
1
  6
Continuous
 62
     2
100
AcDbCircle
 10
64.12378326455283
 20
154.8104816486594
 30
0.0
 40
0.5
  0
CIRCLE
  5
147
330
1F
100
AcDbEntity
  8
1
  6
Continuous
 62
     2
100
AcDbCircle
 10
63.12378326455283
 20
151.8104816486594
 30
0.0
 40
0.5
  0
CIRCLE
  5
148
330
1F
100
AcDbEntity
  8
1
  6
Continuous
 62
     2
100
AcDbCircle
 10
63.12378326455283
 20
149.8104816486594
 30
0.0
 40
0.5
  0
CIRCLE
  5
149
330
1F
100
AcDbEntity
  8
1
  6
Continuous
 62
     2
100
AcDbCircle
 10
66.12378326455283
 20
149.8104816486594
 30
0.0
 40
0.5
  0
CIRCLE
  5
14A
330
1F
100
AcDbEntity
  8
1
  6
Continuous
 62
     2
100
AcDbCircle
 10
66.12378326455283
 20
152.8104816486594
 30
0.0
 40
0.5
  0
CIRCLE
  5
14B
330
1F
100
AcDbEntity
  8
1
  6
Continuous
 62
     2
100
AcDbCircle
 10
68.12378326455283
 20
153.8104816486594
 30
0.0
 40
0.5
  0
CIRCLE
  5
14C
330
1F
100
AcDbEntity
  8
1
  6
Continuous
 62
     2
100
AcDbCircle
 10
68.12378326455283
 20
151.8104816486594
 30
0.0
 40
0.5
  0
CIRCLE
  5
14D
330
1F
100
AcDbEntity
  8
1
  6
Continuous
 62
     2
100
AcDbCircle
 10
69.12378326455283
 20
149.8104816486594
 30
0.0
 40
0.5
  0
CIRCLE
  5
14E
330
1F
100
AcDbEntity
  8
1
  6
Continuous
 62
     2
100
AcDbCircle
 10
71.12378326455283
 20
152.8104816486594
 30
0.0
 40
0.5
  0
CIRCLE
  5
14F
330
1F
100
AcDbEntity
  8
1
  6
Continuous
 62
     2
100
AcDbCircle
 10
71.12378326455283
 20
154.8104816486594
 30
0.0
 40
0.5
  0
CIRCLE
  5
150
330
1F
100
AcDbEntity
  8
1
  6
Continuous
 62
     2
100
AcDbCircle
 10
72.12378326455283
 20
149.8104816486594
 30
0.0
 40
0.5
  0
CIRCLE
  5
151
330
1F
100
AcDbEntity
  8
1
  6
Continuous
 62
     2
100
AcDbCircle
 10
74.12378326455283
 20
152.8104816486594
 30
0.0
 40
0.5
  0
CIRCLE
  5
152
330
1F
100
AcDbEntity
  8
1
  6
Continuous
 62
     2
100
AcDbCircle
 10
74.12378326455283
 20
154.8104816486594
 30
0.0
 40
0.5
  0
CIRCLE
  5
153
330
1F
100
AcDbEntity
  8
1
  6
Continuous
 62
     2
100
AcDbCircle
 10
75.12378326455283
 20
149.8104816486594
 30
0.0
 40
0.5
  0
CIRCLE
  5
154
330
1F
100
AcDbEntity
  8
1
  6
Continuous
 62
     2
100
AcDbCircle
 10
79.12378326455283
 20
153.8104816486594
 30
0.0
 40
0.5
  0
CIRCLE
  5
155
330
1F
100
AcDbEntity
  8
1
  6
Continuous
 62
     2
100
AcDbCircle
 10
78.12378326455283
 20
150.8104816486594
 30
0.0
 40
0.5
  0
CIRCLE
  5
156
330
1F
100
AcDbEntity
  8
1
  6
Continuous
 62
     2
100
AcDbCircle
 10
78.12378326455283
 20
148.8104816486594
 30
0.0
 40
0.5
  0
CIRCLE
  5
157
330
1F
100
AcDbEntity
  8
1
  6
Continuous
 62
     2
100
AcDbCircle
 10
81.12378326455283
 20
151.8104816486594
 30
0.0
 40
0.5
  0
CIRCLE
  5
158
330
1F
100
AcDbEntity
  8
1
  6
Continuous
 62
     2
100
AcDbCircle
 10
81.12378326455283
 20
148.8104816486594
 30
0.0
 40
0.5
  0
CIRCLE
  5
159
330
1F
100
AcDbEntity
  8
1
  6
Continuous
 62
     2
100
AcDbCircle
 10
83.12378326455283
 20
150.8104816486594
 30
0.0
 40
0.5
  0
CIRCLE
  5
15A
330
1F
100
AcDbEntity
  8
1
  6
Continuous
 62
     2
100
AcDbCircle
 10
84.12378326455283
 20
148.8104816486594
 30
0.0
 40
0.5
  0
CIRCLE
  5
15B
330
1F
100
AcDbEntity
  8
1
  6
Continuous
 62
     2
100
AcDbCircle
 10
87.12378326455283
 20
148.8104816486594
 30
0.0
 40
0.5
  0
CIRCLE
  5
15C
330
1F
100
AcDbEntity
  8
1
  6
Continuous
 62
     2
100
AcDbCircle
 10
90.12378326455283
 20
148.8104816486594
 30
0.0
 40
0.5
  0
CIRCLE
  5
15D
330
1F
100
AcDbEntity
  8
1
  6
Continuous
 62
     2
100
AcDbCircle
 10
89.12378326455283
 20
151.8104816486594
 30
0.0
 40
0.5
  0
CIRCLE
  5
15E
330
1F
100
AcDbEntity
  8
1
  6
Continuous
 62
     2
100
AcDbCircle
 10
89.12378326455283
 20
153.8104816486594
 30
0.0
 40
0.5
  0
CIRCLE
  5
15F
330
1F
100
AcDbEntity
  8
1
  6
Continuous
 62
     2
100
AcDbCircle
 10
86.12378326455283
 20
151.8104816486594
 30
0.0
 40
0.5
  0
CIRCLE
  5
160
330
1F
100
AcDbEntity
  8
1
  6
Continuous
 62
     2
100
AcDbCircle
 10
86.12378326455283
 20
153.8104816486594
 30
0.0
 40
0.5
  0
CIRCLE
  5
161
330
1F
100
AcDbEntity
  8
1
  6
Continuous
 62
     2
100
AcDbCircle
 10
83.12378326455283
 20
152.8104816486594
 30
0.0
 40
0.5
  0
CIRCLE
  5
162
330
1F
100
AcDbEntity
  8
1
  6
Continuous
 62
     2
100
AcDbCircle
 10
99.6493688576044
 20
154.0936774923782
 30
0.0
 40
0.5
  0
CIRCLE
  5
163
330
1F
100
AcDbEntity
  8
1
  6
Continuous
 62
     2
100
AcDbCircle
 10
98.6493688576044
 20
151.0936774923782
 30
0.0
 40
0.5
  0
CIRCLE
  5
164
330
1F
100
AcDbEntity
  8
1
  6
Continuous
 62
     2
100
AcDbCircle
 10
98.6493688576044
 20
149.0936774923782
 30
0.0
 40
0.5
  0
CIRCLE
  5
165
330
1F
100
AcDbEntity
  8
1
  6
Continuous
 62
     2
100
AcDbCircle
 10
101.6493688576044
 20
152.0936774923782
 30
0.0
 40
0.5
  0
CIRCLE
  5
166
330
1F
100
AcDbEntity
  8
1
  6
Continuous
 62
     2
100
AcDbCircle
 10
101.6493688576044
 20
149.0936774923782
 30
0.0
 40
0.5
  0
CIRCLE
  5
167
330
1F
100
AcDbEntity
  8
1
  6
Continuous
 62
     2
100
AcDbCircle
 10
103.6493688576044
 20
153.0936774923782
 30
0.0
 40
0.5
  0
CIRCLE
  5
168
330
1F
100
AcDbEntity
  8
1
  6
Continuous
 62
     2
100
AcDbCircle
 10
103.6493688576044
 20
151.0936774923782
 30
0.0
 40
0.5
  0
CIRCLE
  5
169
330
1F
100
AcDbEntity
  8
1
  6
Continuous
 62
     2
100
AcDbCircle
 10
104.6493688576044
 20
149.0936774923782
 30
0.0
 40
0.5
  0
CIRCLE
  5
16A
330
1F
100
AcDbEntity
  8
1
  6
Continuous
 62
     2
100
AcDbCircle
 10
106.6493688576044
 20
152.0936774923782
 30
0.0
 40
0.5
  0
CIRCLE
  5
16B
330
1F
100
AcDbEntity
  8
1
  6
Continuous
 62
     2
100
AcDbCircle
 10
106.6493688576044
 20
154.0936774923782
 30
0.0
 40
0.5
  0
CIRCLE
  5
16C
330
1F
100
AcDbEntity
  8
1
  6
Continuous
 62
     2
100
AcDbCircle
 10
107.6493688576044
 20
149.0936774923782
 30
0.0
 40
0.5
  0
CIRCLE
  5
16D
330
1F
100
AcDbEntity
  8
1
  6
Continuous
 62
     2
100
AcDbCircle
 10
109.6493688576044
 20
152.0936774923782
 30
0.0
 40
0.5
  0
CIRCLE
  5
16E
330
1F
100
AcDbEntity
  8
1
  6
Continuous
 62
     2
100
AcDbCircle
 10
109.6493688576044
 20
154.0936774923782
 30
0.0
 40
0.5
  0
CIRCLE
  5
16F
330
1F
100
AcDbEntity
  8
1
  6
Continuous
 62
     2
100
AcDbCircle
 10
110.6493688576044
 20
149.0936774923782
 30
0.0
 40
0.5
  0
CIRCLE
  5
170
330
1F
100
AcDbEntity
  8
1
  6
Continuous
 62
     2
100
AcDbCircle
 10
112.4553741599018
 20
151.4281211366778
 30
0.0
 40
0.5
  0
CIRCLE
  5
171
330
1F
100
AcDbEntity
  8
1
  6
Continuous
 62
     2
100
AcDbCircle
 10
113.4553741599018
 20
154.4281211366778
 30
0.0
 40
0.5
  0
CIRCLE
  5
172
330
1F
100
AcDbEntity
  8
1
  6
Continuous
 62
     2
100
AcDbCircle
 10
112.4553741599018
 20
149.4281211366778
 30
0.0
 40
0.5
  0
CIRCLE
  5
173
330
1F
100
AcDbEntity
  8
1
  6
Continuous
 62
     2
100
AcDbCircle
 10
115.4553741599018
 20
152.4281211366778
 30
0.0
 40
0.5
  0
CIRCLE
  5
174
330
1F
100
AcDbEntity
  8
1
  6
Continuous
 62
     2
100
AcDbCircle
 10
115.4553741599018
 20
149.4281211366778
 30
0.0
 40
0.5
  0
CIRCLE
  5
175
330
1F
100
AcDbEntity
  8
1
  6
Continuous
 62
     2
100
AcDbCircle
 10
117.4553741599018
 20
153.4281211366778
 30
0.0
 40
0.5
  0
CIRCLE
  5
176
330
1F
100
AcDbEntity
  8
1
  6
Continuous
 62
     2
100
AcDbCircle
 10
117.4553741599018
 20
151.4281211366778
 30
0.0
 40
0.5
  0
CIRCLE
  5
177
330
1F
100
AcDbEntity
  8
1
  6
Continuous
 62
     2
100
AcDbCircle
 10
118.4553741599018
 20
149.4281211366778
 30
0.0
 40
0.5
  0
CIRCLE
  5
178
330
1F
100
AcDbEntity
  8
1
  6
Continuous
 62
     2
100
AcDbCircle
 10
120.4553741599018
 20
152.4281211366778
 30
0.0
 40
0.5
  0
CIRCLE
  5
179
330
1F
100
AcDbEntity
  8
1
  6
Continuous
 62
     2
100
AcDbCircle
 10
120.4553741599018
 20
154.4281211366778
 30
0.0
 40
0.5
  0
CIRCLE
  5
17A
330
1F
100
AcDbEntity
  8
1
  6
Continuous
 62
     2
100
AcDbCircle
 10
123.4553741599018
 20
154.4281211366778
 30
0.0
 40
0.5
  0
CIRCLE
  5
17B
330
1F
100
AcDbEntity
  8
1
  6
Continuous
 62
     2
100
AcDbCircle
 10
123.4553741599018
 20
152.4281211366778
 30
0.0
 40
0.5
  0
CIRCLE
  5
17C
330
1F
100
AcDbEntity
  8
1
  6
Continuous
 62
     2
100
AcDbCircle
 10
121.4553741599018
 20
149.4281211366778
 30
0.0
 40
0.5
  0
CIRCLE
  5
17D
330
1F
100
AcDbEntity
  8
1
  6
Continuous
 62
     2
100
AcDbCircle
 10
124.4553741599018
 20
149.4281211366778
 30
0.0
 40
0.5
  0
CIRCLE
  5
17E
330
1F
100
AcDbEntity
  8
1
  6
Continuous
 62
     2
100
AcDbCircle
 10
127.1237832645528
 20
150.8104816486594
 30
0.0
 40
0.5
  0
CIRCLE
  5
17F
330
1F
100
AcDbEntity
  8
1
  6
Continuous
 62
     2
100
AcDbCircle
 10
128.1237832645528
 20
153.8104816486594
 30
0.0
 40
0.5
  0
CIRCLE
  5
180
330
1F
100
AcDbEntity
  8
1
  6
Continuous
 62
     2
100
AcDbCircle
 10
130.1237832645528
 20
151.8104816486594
 30
0.0
 40
0.5
  0
CIRCLE
  5
181
330
1F
100
AcDbEntity
  8
1
  6
Continuous
 62
     2
100
AcDbCircle
 10
132.1237832645528
 20
152.8104816486594
 30
0.0
 40
0.5
  0
CIRCLE
  5
182
330
1F
100
AcDbEntity
  8
1
  6
Continuous
 62
     2
100
AcDbCircle
 10
135.1237832645528
 20
153.8104816486594
 30
0.0
 40
0.5
  0
CIRCLE
  5
183
330
1F
100
AcDbEntity
  8
1
  6
Continuous
 62
     2
100
AcDbCircle
 10
138.1237832645528
 20
153.8104816486594
 30
0.0
 40
0.5
  0
CIRCLE
  5
184
330
1F
100
AcDbEntity
  8
1
  6
Continuous
 62
     2
100
AcDbCircle
 10
138.1237832645528
 20
151.8104816486594
 30
0.0
 40
0.5
  0
CIRCLE
  5
185
330
1F
100
AcDbEntity
  8
1
  6
Continuous
 62
     2
100
AcDbCircle
 10
139.1237832645528
 20
148.8104816486594
 30
0.0
 40
0.5
  0
CIRCLE
  5
186
330
1F
100
AcDbEntity
  8
1
  6
Continuous
 62
     2
100
AcDbCircle
 10
136.1237832645528
 20
148.8104816486594
 30
0.0
 40
0.5
  0
CIRCLE
  5
187
330
1F
100
AcDbEntity
  8
1
  6
Continuous
 62
     2
100
AcDbCircle
 10
135.1237832645528
 20
151.8104816486594
 30
0.0
 40
0.5
  0
CIRCLE
  5
188
330
1F
100
AcDbEntity
  8
1
  6
Continuous
 62
     2
100
AcDbCircle
 10
132.1237832645528
 20
150.8104816486594
 30
0.0
 40
0.5
  0
CIRCLE
  5
189
330
1F
100
AcDbEntity
  8
1
  6
Continuous
 62
     2
100
AcDbCircle
 10
133.1237832645528
 20
148.8104816486594
 30
0.0
 40
0.5
  0
CIRCLE
  5
18A
330
1F
100
AcDbEntity
  8
1
  6
Continuous
 62
     2
100
AcDbCircle
 10
130.1237832645528
 20
148.8104816486594
 30
0.0
 40
0.5
  0
CIRCLE
  5
18B
330
1F
100
AcDbEntity
  8
1
  6
Continuous
 62
     2
100
AcDbCircle
 10
127.1237832645528
 20
148.8104816486594
 30
0.0
 40
0.5
  0
CIRCLE
  5
18C
330
1F
100
AcDbEntity
  8
1
  6
Continuous
 62
     2
100
AcDbCircle
 10
46.98988161291268
 20
154.2871480023764
 30
0.0
 40
0.5
  0
CIRCLE
  5
18D
330
1F
100
AcDbEntity
  8
1
  6
Continuous
 62
     2
100
AcDbCircle
 10
44.38287383615444
 20
153.166089455612
 30
0.0
 40
0.5
  0
CIRCLE
  5
18E
330
1F
100
AcDbEntity
  8
1
  6
Continuous
 62
     2
100
AcDbCircle
 10
43.98988161291268
 20
150.2871480023764
 30
0.0
 40
0.5
  0
CIRCLE
  5
18F
330
1F
100
AcDbEntity
  8
1
  6
Continuous
 62
     2
100
AcDbCircle
 10
45.98988161291268
 20
149.2871480023764
 30
0.0
 40
0.5
  0
CIRCLE
  5
190
330
1F
100
AcDbEntity
  8
1
  6
Continuous
 62
     2
100
AcDbCircle
 10
46.61716849451543
 20
151.4784606097561
 30
0.0
 40
0.5
  0
CIRCLE
  5
191
330
1F
100
AcDbEntity
  8
1
  6
Continuous
 62
     2
100
AcDbCircle
 10
141.9898816129127
 20
154.2871480023764
 30
0.0
 40
0.5
  0
CIRCLE
  5
192
330
1F
100
AcDbEntity
  8
1
  6
Continuous
 62
     2
100
AcDbCircle
 10
140.9898816129127
 20
151.2871480023764
 30
0.0
 40
0.5
  0
CIRCLE
  5
193
330
1F
100
AcDbEntity
  8
1
  6
Continuous
 62
     2
100
AcDbCircle
 10
141.9898816129127
 20
149.2871480023764
 30
0.0
 40
0.5
  0
CIRCLE
  5
194
330
1F
100
AcDbEntity
  8
1
  6
Continuous
 62
     2
100
AcDbCircle
 10
145.9898816129127
 20
149.2871480023764
 30
0.0
 40
0.5
  0
CIRCLE
  5
195
330
1F
100
AcDbEntity
  8
1
  6
Continuous
 62
     2
100
AcDbCircle
 10
143.9898816129127
 20
152.2871480023764
 30
0.0
 40
0.5
  0
CIRCLE
  5
196
330
1F
100
AcDbEntity
  8
1
  6
Continuous
 62
     2
100
AcDbCircle
 10
145.9898816129127
 20
154.2871480023764
 30
0.0
 40
0.5
  0
CIRCLE
  5
197
330
1F
100
AcDbEntity
  8
1
  6
Continuous
 62
     2
100
AcDbCircle
 10
149.9898816129127
 20
154.2871480023764
 30
0.0
 40
0.5
  0
CIRCLE
  5
198
330
1F
100
AcDbEntity
  8
1
  6
Continuous
 62
     2
100
AcDbCircle
 10
150.9898816129127
 20
152.2871480023764
 30
0.0
 40
0.5
  0
CIRCLE
  5
199
330
1F
100
AcDbEntity
  8
1
  6
Continuous
 62
     2
100
AcDbCircle
 10
147.9898816129127
 20
152.2871480023764
 30
0.0
 40
0.5
  0
CIRCLE
  5
19A
330
1F
100
AcDbEntity
  8
1
  6
Continuous
 62
     2
100
AcDbCircle
 10
147.9898816129127
 20
150.2871480023764
 30
0.0
 40
0.5
  0
CIRCLE
  5
19B
330
1F
100
AcDbEntity
  8
1
  6
Continuous
 62
     2
100
AcDbCircle
 10
149.9898816129127
 20
149.2871480023764
 30
0.0
 40
0.5
  0
CIRCLE
  5
19C
330
1F
100
AcDbEntity
  8
1
  6
Continuous
 62
     2
100
AcDbCircle
 10
143.9898816129127
 20
148.2871480023764
 30
0.0
 40
0.5
  0
SPLINE
  5
19D
330
1F
100
AcDbEntity
  8
A_NOTIZEN_SYMB
  6
Continuous
 62
     7
100
AcDbSpline
210
0.0
220
0.0
230
1.0
 70
     8
 71
     3
 72
    23
 73
    19
 74
    17
 42
0.000000001
 43
0.0000000001
 44
0.00000001
 40
0.0
 40
0.0
 40
0.0
 40
0.0
 40
0.045199421066781
 40
0.0907365974515817
 40
0.1474907578273333
 40
0.2043703627448869
 40
0.2770693763524139
 40
0.3497253172564835
 40
0.4393966543373453
 40
0.5290900074756665
 40
0.6358298913293872
 40
0.7425670015171323
 40
0.8665612060738264
 40
0.9905602418638045
 40
1.131750322265608
 40
1.272950512987079
 40
1.431429845249961
 40
1.589883545036208
 40
1.589883545036208
 40
1.589883545036208
 40
1.589883545036208
 10
129.9010074275
 20
162.3736379237
 30
0.0
 10
129.8998302349146
 20
162.3887306993507
 30
0.0
 10
129.8974670519696
 20
162.4190290314205
 30
0.0
 10
129.8793598146903
 20
162.4653899769899
 30
0.0
 10
129.850335842135
 20
162.5101689632441
 30
0.0
 10
129.8073478125817
 20
162.5553398588937
 30
0.0
 10
129.7547658708484
 20
162.5978052589829
 30
0.0
 10
129.6884844857338
 20
162.6397910635807
 30
0.0
 10
129.6137593904558
 20
162.6784016419328
 30
0.0
 10
129.5258530212402
 20
162.7155555451277
 30
0.0
 10
129.4304370200323
 20
162.7490434518771
 30
0.0
 10
129.3223135459701
 20
162.7802491139114
 30
0.0
 10
129.2071905974804
 20
162.8074477158532
 30
0.0
 10
129.0796640457252
 20
162.8314435826746
 30
0.0
 10
128.9455603860195
 20
162.8509040309493
 30
0.0
 10
128.7993454092004
 20
162.8659242761124
 30
0.0
 10
128.6468982325479
 20
162.875940240855
 30
0.0
 10
128.5412510910302
 20
162.8774779591562
 30
0.0
 10
128.4884317925
 20
162.8782467579
 30
0.0
 11
129.9010074275
 21
162.3736379237
 31
0.0
 11
129.8952980439438
 21
162.4184753132027
 31
0.0
 11
129.8795291822769
 21
162.4611950636408
 31
0.0
 11
129.8489878771254
 21
162.5090308580318
 31
0.0
 11
129.8102658978484
 21
162.55069496354
 31
0.0
 11
129.7539542932865
 21
162.5966748470827
 31
0.0
 11
129.6928119880557
 21
162.6359241045002
 31
0.0
 11
129.6132840424708
 21
162.6773518067426
 31
0.0
 11
129.5307844738161
 21
162.7125472429948
 31
0.0
 11
129.4301337481559
 21
162.7480836214574
 31
0.0
 11
129.3276380076153
 21
162.7778734492145
 31
0.0
 11
129.2069974376163
 21
162.806516347325
 31
0.0
 11
129.0851631691299
 21
162.8295851983211
 31
0.0
 11
128.9454463076528
 21
162.8499281926606
 31
0.0
 11
128.805002467542
 21
162.8645234538192
 31
0.0
 11
128.6468433459814
 21
162.8745927686467
 31
0.0
 11
128.4884317925
 21
162.8782467579
 31
0.0
  0
DIMENSION
  5
1AB
330
1F
100
AcDbEntity
  8
1
100
AcDbDimension
280
     0
  2
*D1
 10
21.5908680694532
 20
155.5018860258
 30
0.0
 11
17.8408680694532
 21
151.948664101277
 31
0.0
 70
    32
  1
<>
 71
     5
 42
-1.0
 73
     0
 74
     0
 75
     0
 53
90.0
  3
ME10_DIM_10
100
AcDbAlignedDimension
 13
42.35826693200001
 23
147.5018860258
 33
0.0
 14
42.35826693200001
 24
155.5018860258
 34
0.0
 50
90.0
100
AcDbRotatedDimension
  0
DIMENSION
  5
1B6
330
1F
100
AcDbEntity
  8
1
100
AcDbDimension
280
     0
  2
*D2
 10
21.5908680694532
 20
192.5018860258
 30
0.0
 11
17.8408680694532
 21
173.434968813731
 31
0.0
 70
    32
  1
<>
 71
     5
 42
-1.0
 73
     0
 74
     0
 75
     0
 53
90.0
  3
ME10_DIM_11
100
AcDbAlignedDimension
 13
42.35826693200001
 23
155.5018860258
 33
0.0
 14
50.358266932
 24
192.5018860258
 34
0.0
 50
90.0
100
AcDbRotatedDimension
  0
DIMENSION
  5
1C1
330
1F
100
AcDbEntity
  8
1
100
AcDbDimension
280
     0
  2
*D3
 10
32.0944093488406
 20
192.5018860258
 30
0.0
 11
28.3444093488406
 21
174.658881086075
 31
0.0
 70
    32
  1
<>
 71
     5
 42
-1.0
 73
     0
 74
     0
 75
     0
 53
90.0
  3
ME10_DIM_12
100
AcDbAlignedDimension
 13
50.358266932
 23
160.5018860258
 33
0.0
 14
50.358266932
 24
192.5018860258
 34
0.0
 50
90.0
100
AcDbRotatedDimension
  0
DIMENSION
  5
1CC
330
1F
100
AcDbEntity
  8
1
100
AcDbDimension
280
     0
  2
*D4
 10
162.237080974753
 20
192.4104021098
 30
0.0
 11
158.487080974753
 21
175.474822600971
 31
0.0
 70
    32
  1
<>
 71
     5
 42
-1.0
 73
     0
 74
     0
 75
     0
 53
90.0
  3
ME10_DIM_13
100
AcDbAlignedDimension
 13
139.8922489013
 23
160.4104021098
 33
0.0
 14
139.8922489013
 24
192.4104021098
 34
0.0
 50
90.0
100
AcDbRotatedDimension
  0
DIMENSION
  5
1D7
330
1F
100
AcDbEntity
  8
1
100
AcDbDimension
280
     0
  2
*D5
 10
172.640335289677
 20
192.4104021098
 30
0.0
 11
168.890335289677
 21
173.230983435007
 31
0.0
 70
    32
  1
<>
 71
     5
 42
-1.0
 73
     0
 74
     0
 75
     0
 53
90.0
  3
ME10_DIM_14
100
AcDbAlignedDimension
 13
152.358266932
 23
155.4104021098
 33
0.0
 14
139.8922489013
 24
192.4104021098
 34
0.0
 50
90.0
100
AcDbRotatedDimension
  0
DIMENSION
  5
1E4
330
1F
100
AcDbEntity
  8
1
100
AcDbDimension
280
     0
  2
*D6
 10
172.640335289677
 20
155.4104021098
 30
0.0
 11
168.890335289677
 21
141.817235111511
 31
0.0
 70
    32
  1
<>
 71
     5
 42
-1.0
 73
     0
 74
     0
 75
     0
 53
90.0
  3
ME10_DIM_15
100
AcDbAlignedDimension
 13
152.358266932
 23
147.4104021098
 33
0.0
 14
152.358266932
 24
155.4104021098
 34
0.0
 50
90.0
100
AcDbRotatedDimension
  0
DIMENSION
  5
1EF
330
1F
100
AcDbEntity
  8
1
100
AcDbDimension
280
     0
  2
*D7
 10
50.35826693200001
 20
137.455278975339
 30
0.0
 11
70.7733681234327
 21
141.205278975339
 31
0.0
 70
    32
  1
<>
 71
     5
 42
-1.0
 73
     0
 74
     0
 75
     0
 53
0.00013888888889
  3
ME10_DIM_16
100
AcDbAlignedDimension
 13
92.358266932
 23
147.5018860258
 33
0.0
 14
50.358266932
 24
160.5018860258
 34
0.0
100
AcDbRotatedDimension
  0
DIMENSION
  5
1FC
330
1F
100
AcDbEntity
  8
1
100
AcDbDimension
280
     0
  2
*D8
 10
92.358266932
 20
137.455278975339
 30
0.0
 11
94.2316866766929
 21
132.025936932759
 31
0.0
 70
    32
  1
3.5
 71
     5
 42
-1.0
 73
     0
 74
     0
 75
     0
 53
0.00013888888889
  3
ME10_DIM_17
100
AcDbAlignedDimension
 13
95.8922489013
 23
147.4104021098
 33
0.0
 14
92.358266932
 24
147.5018860258
 34
0.0
100
AcDbRotatedDimension
  0
DIMENSION
  5
207
330
1F
100
AcDbEntity
  8
1
100
AcDbDimension
280
     0
  2
*D9
 10
95.8922489013
 20
137.455278975339
 30
0.0
 11
120.545800532089
 21
141.205278975339
 31
0.0
 70
    32
  1
<>
 71
     5
 42
-1.0
 73
     0
 74
     0
 75
     0
 53
0.00013888888889
  3
ME10_DIM_18
100
AcDbAlignedDimension
 13
139.8922489013
 23
160.4104021098
 33
0.0
 14
95.8922489013
 24
147.4104021098
 34
0.0
100
AcDbRotatedDimension
  0
ENDSEC
  0
SECTION
  2
OBJECTS
  0
DICTIONARY
  5
C
330
0
100
AcDbDictionary
281
     1
  3
ACAD_GROUP
350
D
  3
ACAD_LAYOUT
350
1A
  3
ACAD_MATERIAL
350
3B
  3
ACAD_MLEADERSTYLE
350
209
  3
ACAD_MLINESTYLE
350
17
  3
ACAD_PLOTSETTINGS
350
19
  3
ACAD_PLOTSTYLENAME
350
E
  3
ACAD_TABLESTYLE
350
208
  3
ACAD_VISUALSTYLE
350
2A
  0
DICTIONARY
  5
D
102
{ACAD_REACTORS
330
C
102
}
330
C
100
AcDbDictionary
281
     1
  0
DICTIONARY
  5
1A
102
{ACAD_REACTORS
330
C
102
}
330
C
100
AcDbDictionary
281
     1
  3
Layout1
350
1E
  3
Layout2
350
26
  3
Model
350
22
  0
DICTIONARY
  5
3B
102
{ACAD_REACTORS
330
C
102
}
330
C
100
AcDbDictionary
281
     1
  3
ByBlock
350
3D
  3
ByLayer
350
3C
  3
Global
350
3E
  0
DICTIONARY
  5
209
102
{ACAD_REACTORS
330
C
102
}
330
C
100
AcDbDictionary
281
     1
  0
DICTIONARY
  5
17
102
{ACAD_REACTORS
330
C
102
}
330
C
100
AcDbDictionary
281
     1
  3
Standard
350
18
  0
DICTIONARY
  5
19
102
{ACAD_REACTORS
330
C
102
}
330
C
100
AcDbDictionary
281
     1
  0
ACDBDICTIONARYWDFLT
  5
E
102
{ACAD_REACTORS
330
C
102
}
330
C
100
AcDbDictionary
281
     1
  3
Normal
350
F
100
AcDbDictionaryWithDefault
340
F
  0
DICTIONARY
  5
208
102
{ACAD_REACTORS
330
C
102
}
330
C
100
AcDbDictionary
281
     1
  0
DICTIONARY
  5
2A
102
{ACAD_REACTORS
330
C
102
}
330
C
100
AcDbDictionary
281
     1
  3
2dWireframe
350
2F
  3
3D Hidden
350
31
  3
3dWireframe
350
30
  3
Basic
350
32
  3
Brighten
350
36
  3
ColorChange
350
3A
  3
Conceptual
350
34
  3
Dim
350
35
  3
Facepattern
350
39
  3
Flat
350
2B
  3
FlatWithEdges
350
2C
  3
Gouraud
350
2D
  3
GouraudWithEdges
350
2E
  3
Linepattern
350
38
  3
Realistic
350
33
  3
Thicken
350
37
  0
LAYOUT
  5
1E
102
{ACAD_REACTORS
330
1A
102
}
330
1A
100
AcDbPlotSettings
  1

  2
none_device
  4

  6

 40
0.0
 41
0.0
 42
0.0
 43
0.0
 44
0.0
 45
0.0
 46
0.0
 47
0.0
 48
0.0
 49
0.0
140
0.0
141
0.0
142
1.0
143
1.0
 70
   688
 72
     0
 73
     0
 74
     5
  7

 75
    16
 76
     0
 77
     2
 78
   300
147
1.0
148
0.0
149
0.0
100
AcDbLayout
  1
Layout1
 70
     1
 71
     1
 10
0.0
 20
0.0
 11
12.0
 21
9.0
 12
0.0
 22
0.0
 32
0.0
 14
1.00000000000000E+20
 24
1.00000000000000E+20
 34
1.00000000000000E+20
 15
-1.00000000000000E+20
 25
-1.00000000000000E+20
 35
-1.00000000000000E+20
146
0.0
 13
0.0
 23
0.0
 33
0.0
 16
1.0
 26
0.0
 36
0.0
 17
0.0
 27
1.0
 37
0.0
 76
     0
330
1B
  0
LAYOUT
  5
26
102
{ACAD_REACTORS
330
1A
102
}
330
1A
100
AcDbPlotSettings
  1

  2
none_device
  4

  6

 40
0.0
 41
0.0
 42
0.0
 43
0.0
 44
0.0
 45
0.0
 46
0.0
 47
0.0
 48
0.0
 49
0.0
140
0.0
141
0.0
142
1.0
143
1.0
 70
   688
 72
     0
 73
     0
 74
     5
  7

 75
    16
 76
     0
 77
     2
 78
   300
147
1.0
148
0.0
149
0.0
100
AcDbLayout
  1
Layout2
 70
     1
 71
     2
 10
0.0
 20
0.0
 11
0.0
 21
0.0
 12
0.0
 22
0.0
 32
0.0
 14
0.0
 24
0.0
 34
0.0
 15
0.0
 25
0.0
 35
0.0
146
0.0
 13
0.0
 23
0.0
 33
0.0
 16
1.0
 26
0.0
 36
0.0
 17
0.0
 27
1.0
 37
0.0
 76
     0
330
23
  0
LAYOUT
  5
22
102
{ACAD_REACTORS
330
1A
102
}
330
1A
100
AcDbPlotSettings
  1

  2
none_device
  4

  6

 40
0.0
 41
0.0
 42
0.0
 43
0.0
 44
0.0
 45
0.0
 46
0.0
 47
0.0
 48
0.0
 49
0.0
140
0.0
141
0.0
142
1.0
143
1.0
 70
  1712
 72
     0
 73
     0
 74
     0
  7

 75
     0
 76
     0
 77
     2
 78
   300
147
1.0
148
0.0
149
0.0
100
AcDbLayout
  1
Model
 70
     1
 71
     0
 10
0.0
 20
0.0
 11
12.0
 21
9.0
 12
0.0
 22
0.0
 32
0.0
 14
16.0908680694532
 24
130.275936932759
 34
0.0
 15
174.640335289677
 25
228.400687851905
 35
0.0
146
0.0
 13
0.0
 23
0.0
 33
0.0
 16
1.0
 26
0.0
 36
0.0
 17
0.0
 27
1.0
 37
0.0
 76
     0
330
1F
331
29
  0
MATERIAL
  5
3D
102
{ACAD_REACTORS
330
3B
102
}
330
3B
100
AcDbMaterial
  1
ByBlock
 72
     1
 94
      127
  0
MATERIAL
  5
3C
102
{ACAD_REACTORS
330
3B
102
}
330
3B
100
AcDbMaterial
  1
ByLayer
 72
     1
 94
      127
  0
MATERIAL
  5
3E
102
{ACAD_REACTORS
330
3B
102
}
330
3B
100
AcDbMaterial
  1
Global
 72
     1
 94
      127
  0
MLINESTYLE
  5
18
102
{ACAD_REACTORS
330
17
102
}
330
17
100
AcDbMlineStyle
  2
Standard
 70
     0
  3

 62
   256
 51
90.0
 52
90.0
 71
     2
 49
0.5
 62
   256
  6
BYLAYER
 49
-0.5
 62
   256
  6
BYLAYER
  0
ACDBPLACEHOLDER
  5
F
102
{ACAD_REACTORS
330
E
102
}
330
E
  0
VISUALSTYLE
  5
2F
102
{ACAD_REACTORS
330
2A
102
}
330
2A
100
AcDbVisualStyle
  2
2dWireframe
 70
     4
177
     2
291
     0
 71
     0
176
     1
 72
     2
176
     1
 73
     0
176
     1
 90
        0
176
     1
 40
-0.6
176
     1
 41
-30.0
176
     1
 62
     5
 63
     7
421
 16777215
176
     1
 74
     1
176
     1
 91
        4
176
     1
 64
     7
176
     1
 65
   257
176
     1
 75
     1
176
     1
175
     1
176
     1
 42
1.0
176
     1
 92
        0
176
     1
 66
   257
176
     1
 43
1.0
176
     1
 76
     1
176
     1
 77
     6
176
     1
 78
     2
176
     1
 67
     7
176
     1
 79
     5
176
     1
170
     0
176
     1
171
     0
176
     1
290
     0
176
     1
 93
        1
176
     1
 44
0.0
176
     1
173
     0
176
     1
  0
VISUALSTYLE
  5
31
102
{ACAD_REACTORS
330
2A
102
}
330
2A
100
AcDbVisualStyle
  2
3D Hidden
 70
     6
177
     2
291
     0
 71
     1
176
     1
 72
     2
176
     1
 73
     2
176
     1
 90
        0
176
     1
 40
-0.6
176
     1
 41
-30.0
176
     1
 62
     5
 63
     7
421
 16777215
176
     1
 74
     2
176
     1
 91
        2
176
     1
 64
     7
176
     1
 65
   257
176
     1
 75
     2
176
     1
175
     1
176
     1
 42
40.0
176
     1
 92
        0
176
     1
 66
   257
176
     1
 43
1.0
176
     1
 76
     1
176
     1
 77
     6
176
     1
 78
     2
176
     1
 67
     7
176
     1
 79
     3
176
     1
170
     0
176
     1
171
     0
176
     1
290
     0
176
     1
 93
        1
176
     1
 44
0.0
176
     1
173
     0
176
     1
  0
VISUALSTYLE
  5
30
102
{ACAD_REACTORS
330
2A
102
}
330
2A
100
AcDbVisualStyle
  2
3dWireframe
 70
     5
177
     2
291
     0
 71
     0
176
     1
 72
     2
176
     1
 73
     0
176
     1
 90
        0
176
     1
 40
-0.6
176
     1
 41
-30.0
176
     1
 62
     5
 63
     7
421
 16777215
176
     1
 74
     1
176
     1
 91
        4
176
     1
 64
     7
176
     1
 65
   257
176
     1
 75
     1
176
     1
175
     1
176
     1
 42
1.0
176
     1
 92
        0
176
     1
 66
   257
176
     1
 43
1.0
176
     1
 76
     1
176
     1
 77
     6
176
     1
 78
     2
176
     1
 67
     7
176
     1
 79
     5
176
     1
170
     0
176
     1
171
     0
176
     1
290
     0
176
     1
 93
        1
176
     1
 44
0.0
176
     1
173
     0
176
     1
  0
VISUALSTYLE
  5
32
102
{ACAD_REACTORS
330
2A
102
}
330
2A
100
AcDbVisualStyle
  2
Basic
 70
     7
177
     2
291
     1
 71
     1
176
     1
 72
     0
176
     1
 73
     1
176
     1
 90
        0
176
     1
 40
-0.6
176
     1
 41
-30.0
176
     1
 62
     5
 63
     7
421
 16777215
176
     1
 74
     0
176
     1
 91
        4
176
     1
 64
     7
176
     1
 65
   257
176
     1
 75
     1
176
     1
175
     1
176
     1
 42
1.0
176
     1
 92
        8
176
     1
 66
     7
176
     1
 43
1.0
176
     1
 76
     1
176
     1
 77
     6
176
     1
 78
     2
176
     1
 67
     7
176
     1
 79
     5
176
     1
170
     0
176
     1
171
     0
176
     1
290
     0
176
     1
 93
        1
176
     1
 44
0.0
176
     1
173
     0
176
     1
  0
VISUALSTYLE
  5
36
102
{ACAD_REACTORS
330
2A
102
}
330
2A
100
AcDbVisualStyle
  2
Brighten
 70
    12
177
     2
291
     1
 71
     2
176
     1
 72
     2
176
     1
 73
     0
176
     1
 90
        0
176
     1
 40
-0.6
176
     1
 41
-30.0
176
     1
 62
     5
 63
     7
421
 16777215
176
     1
 74
     1
176
     1
 91
        4
176
     1
 64
     7
176
     1
 65
   257
176
     1
 75
     1
176
     1
175
     1
176
     1
 42
1.0
176
     1
 92
        8
176
     1
 66
     7
176
     1
 43
1.0
176
     1
 76
     1
176
     1
 77
     6
176
     1
 78
     2
176
     1
 67
     7
176
     1
 79
     5
176
     1
170
     0
176
     1
171
     0
176
     1
290
     0
176
     1
 93
        1
176
     1
 44
50.0
176
     1
173
     0
176
     1
  0
VISUALSTYLE
  5
3A
102
{ACAD_REACTORS
330
2A
102
}
330
2A
100
AcDbVisualStyle
  2
ColorChange
 70
    16
177
     2
291
     1
 71
     2
176
     1
 72
     2
176
     1
 73
     3
176
     1
 90
        0
176
     1
 40
-0.6
176
     1
 41
-30.0
176
     1
 62
     5
 63
     8
421
  8421504
176
     1
 74
     1
176
     1
 91
        4
176
     1
 64
     7
176
     1
 65
   257
176
     1
 75
     1
176
     1
175
     1
176
     1
 42
1.0
176
     1
 92
        8
176
     1
 66
     8
424
  8421504
176
     1
 43
1.0
176
     1
 76
     1
176
     1
 77
     6
176
     1
 78
     2
176
     1
 67
     7
176
     1
 79
     5
176
     1
170
     0
176
     1
171
     0
176
     1
290
     0
176
     1
 93
        1
176
     1
 44
0.0
176
     1
173
     0
176
     1
  0
VISUALSTYLE
  5
34
102
{ACAD_REACTORS
330
2A
102
}
330
2A
100
AcDbVisualStyle
  2
Conceptual
 70
     9
177
     2
291
     0
 71
     3
176
     1
 72
     2
176
     1
 73
     0
176
     1
 90
        0
176
     1
 40
-0.6
176
     1
 41
-30.0
176
     1
 62
     5
 63
     7
421
 16777215
176
     1
 74
     2
176
     1
 91
        2
176
     1
 64
     7
176
     1
 65
   257
176
     1
 75
     1
176
     1
175
     1
176
     1
 42
40.0
176
     1
 92
        8
176
     1
 66
     7
176
     1
 43
1.0
176
     1
 76
     1
176
     1
 77
     6
176
     1
 78
     2
176
     1
 67
     7
176
     1
 79
     3
176
     1
170
     0
176
     1
171
     0
176
     1
290
     0
176
     1
 93
        1
176
     1
 44
0.0
176
     1
173
     0
176
     1
  0
VISUALSTYLE
  5
35
102
{ACAD_REACTORS
330
2A
102
}
330
2A
100
AcDbVisualStyle
  2
Dim
 70
    11
177
     2
291
     1
 71
     2
176
     1
 72
     2
176
     1
 73
     0
176
     1
 90
        0
176
     1
 40
-0.6
176
     1
 41
-30.0
176
     1
 62
     5
 63
     7
421
 16777215
176
     1
 74
     1
176
     1
 91
        4
176
     1
 64
     7
176
     1
 65
   257
176
     1
 75
     1
176
     1
175
     1
176
     1
 42
1.0
176
     1
 92
        8
176
     1
 66
     7
176
     1
 43
1.0
176
     1
 76
     1
176
     1
 77
     6
176
     1
 78
     2
176
     1
 67
     7
176
     1
 79
     5
176
     1
170
     0
176
     1
171
     0
176
     1
290
     0
176
     1
 93
        1
176
     1
 44
-50.0
176
     1
173
     0
176
     1
  0
VISUALSTYLE
  5
39
102
{ACAD_REACTORS
330
2A
102
}
330
2A
100
AcDbVisualStyle
  2
Facepattern
 70
    15
177
     2
291
     1
 71
     2
176
     1
 72
     2
176
     1
 73
     0
176
     1
 90
        0
176
     1
 40
-0.6
176
     1
 41
-30.0
176
     1
 62
     5
 63
     7
421
 16777215
176
     1
 74
     1
176
     1
 91
        4
176
     1
 64
     7
176
     1
 65
   257
176
     1
 75
     1
176
     1
175
     1
176
     1
 42
1.0
176
     1
 92
        8
176
     1
 66
     7
176
     1
 43
1.0
176
     1
 76
     1
176
     1
 77
     6
176
     1
 78
     2
176
     1
 67
     7
176
     1
 79
     5
176
     1
170
     0
176
     1
171
     0
176
     1
290
     0
176
     1
 93
        1
176
     1
 44
0.0
176
     1
173
     0
176
     1
  0
VISUALSTYLE
  5
2B
102
{ACAD_REACTORS
330
2A
102
}
330
2A
100
AcDbVisualStyle
  2
Flat
 70
     0
177
     2
291
     1
 71
     2
176
     1
 72
     1
176
     1
 73
     1
176
     1
 90
        2
176
     1
 40
-0.6
176
     1
 41
30.0
176
     1
 62
     5
 63
     7
421
 16777215
176
     1
 74
     0
176
     1
 91
        4
176
     1
 64
     7
176
     1
 65
   257
176
     1
 75
     1
176
     1
175
     1
176
     1
 42
1.0
176
     1
 92
        8
176
     1
 66
     7
176
     1
 43
1.0
176
     1
 76
     1
176
     1
 77
     6
176
     1
 78
     2
176
     1
 67
     7
176
     1
 79
     5
176
     1
170
     0
176
     1
171
     0
176
     1
290
     0
176
     1
 93
       13
176
     1
 44
0.0
176
     1
173
     0
176
     1
  0
VISUALSTYLE
  5
2C
102
{ACAD_REACTORS
330
2A
102
}
330
2A
100
AcDbVisualStyle
  2
FlatWithEdges
 70
     1
177
     2
291
     1
 71
     2
176
     1
 72
     1
176
     1
 73
     1
176
     1
 90
        2
176
     1
 40
-0.6
176
     1
 41
30.0
176
     1
 62
     5
 63
     7
421
 16777215
176
     1
 74
     1
176
     1
 91
        4
176
     1
 64
     7
176
     1
 65
   257
176
     1
 75
     1
176
     1
175
     1
176
     1
 42
1.0
176
     1
 92
        0
176
     1
 66
   257
176
     1
 43
1.0
176
     1
 76
     1
176
     1
 77
     6
176
     1
 78
     2
176
     1
 67
     7
176
     1
 79
     5
176
     1
170
     0
176
     1
171
     0
176
     1
290
     0
176
     1
 93
       13
176
     1
 44
0.0
176
     1
173
     0
176
     1
  0
VISUALSTYLE
  5
2D
102
{ACAD_REACTORS
330
2A
102
}
330
2A
100
AcDbVisualStyle
  2
Gouraud
 70
     2
177
     2
291
     1
 71
     2
176
     1
 72
     2
176
     1
 73
     1
176
     1
 90
        2
176
     1
 40
-0.6
176
     1
 41
30.0
176
     1
 62
     5
 63
     7
421
 16777215
176
     1
 74
     0
176
     1
 91
        4
176
     1
 64
     7
176
     1
 65
   257
176
     1
 75
     1
176
     1
175
     1
176
     1
 42
1.0
176
     1
 92
        0
176
     1
 66
     7
176
     1
 43
1.0
176
     1
 76
     1
176
     1
 77
     6
176
     1
 78
     2
176
     1
 67
     7
176
     1
 79
     5
176
     1
170
     0
176
     1
171
     0
176
     1
290
     0
176
     1
 93
       13
176
     1
 44
0.0
176
     1
173
     0
176
     1
  0
VISUALSTYLE
  5
2E
102
{ACAD_REACTORS
330
2A
102
}
330
2A
100
AcDbVisualStyle
  2
GouraudWithEdges
 70
     3
177
     2
291
     1
 71
     2
176
     1
 72
     2
176
     1
 73
     1
176
     1
 90
        2
176
     1
 40
-0.6
176
     1
 41
30.0
176
     1
 62
     5
 63
     7
421
 16777215
176
     1
 74
     1
176
     1
 91
        4
176
     1
 64
     7
176
     1
 65
   257
176
     1
 75
     1
176
     1
175
     1
176
     1
 42
1.0
176
     1
 92
        0
176
     1
 66
   257
176
     1
 43
1.0
176
     1
 76
     1
176
     1
 77
     6
176
     1
 78
     2
176
     1
 67
     7
176
     1
 79
     5
176
     1
170
     0
176
     1
171
     0
176
     1
290
     0
176
     1
 93
       13
176
     1
 44
0.0
176
     1
173
     0
176
     1
  0
VISUALSTYLE
  5
38
102
{ACAD_REACTORS
330
2A
102
}
330
2A
100
AcDbVisualStyle
  2
Linepattern
 70
    14
177
     2
291
     1
 71
     2
176
     1
 72
     2
176
     1
 73
     0
176
     1
 90
        0
176
     1
 40
-0.6
176
     1
 41
-30.0
176
     1
 62
     5
 63
     7
421
 16777215
176
     1
 74
     1
176
     1
 91
        4
176
     1
 64
     7
176
     1
 65
   257
176
     1
 75
     7
176
     1
175
     7
176
     1
 42
1.0
176
     1
 92
        8
176
     1
 66
     7
176
     1
 43
1.0
176
     1
 76
     1
176
     1
 77
     6
176
     1
 78
     2
176
     1
 67
     7
176
     1
 79
     5
176
     1
170
     0
176
     1
171
     0
176
     1
290
     0
176
     1
 93
        1
176
     1
 44
0.0
176
     1
173
     0
176
     1
  0
VISUALSTYLE
  5
33
102
{ACAD_REACTORS
330
2A
102
}
330
2A
100
AcDbVisualStyle
  2
Realistic
 70
     8
177
     2
291
     0
 71
     2
176
     1
 72
     2
176
     1
 73
     0
176
     1
 90
        0
176
     1
 40
-0.6
176
     1
 41
-30.0
176
     1
 62
     5
 63
     7
421
 16777215
176
     1
 74
     1
176
     1
 91
        0
176
     1
 64
     7
176
     1
 65
   257
176
     1
 75
     1
176
     1
175
     1
176
     1
 42
1.0
176
     1
 92
        8
176
     1
 66
     8
424
  7895160
176
     1
 43
1.0
176
     1
 76
     1
176
     1
 77
     6
176
     1
 78
     2
176
     1
 67
     7
176
     1
 79
     5
176
     1
170
     0
176
     1
171
     0
176
     1
290
     0
176
     1
 93
       13
176
     1
 44
0.0
176
     1
173
     0
176
     1
  0
VISUALSTYLE
  5
37
102
{ACAD_REACTORS
330
2A
102
}
330
2A
100
AcDbVisualStyle
  2
Thicken
 70
    13
177
     2
291
     1
 71
     2
176
     1
 72
     2
176
     1
 73
     0
176
     1
 90
        0
176
     1
 40
-0.6
176
     1
 41
-30.0
176
     1
 62
     5
 63
     7
421
 16777215
176
     1
 74
     1
176
     1
 91
        4
176
     1
 64
     7
176
     1
 65
   257
176
     1
 75
     1
176
     1
175
     1
176
     1
 42
1.0
176
     1
 92
       12
176
     1
 66
     7
176
     1
 43
1.0
176
     1
 76
     1
176
     1
 77
     6
176
     1
 78
     2
176
     1
 67
     7
176
     1
 79
     5
176
     1
170
     0
176
     1
171
     0
176
     1
290
     0
176
     1
 93
        1
176
     1
 44
0.0
176
     1
173
     0
176
     1
  0
ENDSEC
  0
EOF
