  0
SECTION
  2
HEADER
  9
$ACADVER
  1
AC1018
  9
$ACADMAINTVER
 70
     0
  9
$DWGCODEPAGE
  3
ANSI_1252
  9
$INSBASE
 10
0.0
 20
0.0
 30
0.0
  9
$EXTMIN
 10
152.297218821672
 20
181.087157075627
 30
0.0
  9
$EXTMAX
 10
266.289601624481
 20
378.210691725947
 30
0.0
  9
$LIMMIN
 10
0.0
 20
0.0
  9
$LIMMAX
 10
12.0
 20
9.0
  9
$ORTHOMODE
 70
     0
  9
$REGENMODE
 70
     1
  9
$FILLMODE
 70
     1
  9
$QTEXTMODE
 70
     0
  9
$MIRRTEXT
 70
     1
  9
$LTSCALE
 40
1.0
  9
$ATTMODE
 70
     1
  9
$TEXTSIZE
 40
0.2
  9
$TRACEWID
 40
0.05
  9
$TEXTSTYLE
  7
Standard
  9
$CLAYER
  8
0
  9
$CELTYPE
  6
ByLayer
  9
$CECOLOR
 62
   256
  9
$CELTSCALE
 40
1.0
  9
$DISPSILH
 70
     0
  9
$DIMSCALE
 40
1.0
  9
$DIMASZ
 40
0.18
  9
$DIMEXO
 40
0.0625
  9
$DIMDLI
 40
0.38
  9
$DIMRND
 40
0.0
  9
$DIMDLE
 40
0.0
  9
$DIMEXE
 40
0.18
  9
$DIMTP
 40
0.0
  9
$DIMTM
 40
0.0
  9
$DIMTXT
 40
0.18
  9
$DIMCEN
 40
0.09
  9
$DIMTSZ
 40
0.0
  9
$DIMTOL
 70
     0
  9
$DIMLIM
 70
     0
  9
$DIMTIH
 70
     1
  9
$DIMTOH
 70
     1
  9
$DIMSE1
 70
     0
  9
$DIMSE2
 70
     0
  9
$DIMTAD
 70
     0
  9
$DIMZIN
 70
     0
  9
$DIMBLK
  1

  9
$DIMASO
 70
     1
  9
$DIMSHO
 70
     1
  9
$DIMPOST
  1

  9
$DIMAPOST
  1

  9
$DIMALT
 70
     0
  9
$DIMALTD
 70
     2
  9
$DIMALTF
 40
25.4
  9
$DIMLFAC
 40
1.0
  9
$DIMTOFL
 70
     0
  9
$DIMTVP
 40
0.0
  9
$DIMTIX
 70
     0
  9
$DIMSOXD
 70
     0
  9
$DIMSAH
 70
     0
  9
$DIMBLK1
  1

  9
$DIMBLK2
  1

  9
$DIMSTYLE
  2
Standard
  9
$DIMCLRD
 70
     0
  9
$DIMCLRE
 70
     0
  9
$DIMCLRT
 70
     0
  9
$DIMTFAC
 40
1.0
  9
$DIMGAP
 40
0.09
  9
$DIMJUST
 70
     0
  9
$DIMSD1
 70
     0
  9
$DIMSD2
 70
     0
  9
$DIMTOLJ
 70
     1
  9
$DIMTZIN
 70
     0
  9
$DIMALTZ
 70
     0
  9
$DIMALTTZ
 70
     0
  9
$DIMUPT
 70
     0
  9
$DIMDEC
 70
     4
  9
$DIMTDEC
 70
     4
  9
$DIMALTU
 70
     2
  9
$DIMALTTD
 70
     2
  9
$DIMTXSTY
  7
Standard
  9
$DIMAUNIT
 70
     0
  9
$DIMADEC
 70
     0
  9
$DIMALTRND
 40
0.0
  9
$DIMAZIN
 70
     0
  9
$DIMDSEP
 70
    46
  9
$DIMATFIT
 70
     3
  9
$DIMFRAC
 70
     0
  9
$DIMLDRBLK
  1

  9
$DIMLUNIT
 70
     2
  9
$DIMLWD
 70
    -2
  9
$DIMLWE
 70
    -2
  9
$DIMTMOVE
 70
     0
  9
$LUNITS
 70
     2
  9
$LUPREC
 70
     4
  9
$SKETCHINC
 40
0.1
  9
$FILLETRAD
 40
0.5
  9
$AUNITS
 70
     0
  9
$AUPREC
 70
     0
  9
$MENU
  1
.
  9
$ELEVATION
 40
0.0
  9
$PELEVATION
 40
0.0
  9
$THICKNESS
 40
0.0
  9
$LIMCHECK
 70
     0
  9
$CHAMFERA
 40
0.5
  9
$CHAMFERB
 40
0.5
  9
$CHAMFERC
 40
1.0
  9
$CHAMFERD
 40
0.0
  9
$SKPOLY
 70
     0
  9
$TDCREATE
 40
2456995.33170125
  9
$TDUCREATE
 40
2456995.290034583
  9
$TDUPDATE
 40
2456995.331701261
  9
$TDUUPDATE
 40
2456995.290034595
  9
$TDINDWG
 40
0.0000000116
  9
$TDUSRTIMER
 40
0.0000000116
  9
$USRTIMER
 70
     1
  9
$ANGBASE
 50
0.0
  9
$ANGDIR
 70
     0
  9
$PDMODE
 70
     0
  9
$PDSIZE
 40
0.0
  9
$PLINEWID
 40
0.0
  9
$SPLFRAME
 70
     0
  9
$SPLINETYPE
 70
     6
  9
$SPLINESEGS
 70
     8
  9
$HANDSEED
  5
226
  9
$SURFTAB1
 70
     6
  9
$SURFTAB2
 70
     6
  9
$SURFTYPE
 70
     6
  9
$SURFU
 70
     6
  9
$SURFV
 70
     6
  9
$UCSBASE
  2

  9
$UCSNAME
  2

  9
$UCSORG
 10
0.0
 20
0.0
 30
0.0
  9
$UCSXDIR
 10
1.0
 20
0.0
 30
0.0
  9
$UCSYDIR
 10
0.0
 20
1.0
 30
0.0
  9
$UCSORTHOREF
  2

  9
$UCSORTHOVIEW
 70
     0
  9
$UCSORGTOP
 10
0.0
 20
0.0
 30
0.0
  9
$UCSORGBOTTOM
 10
0.0
 20
0.0
 30
0.0
  9
$UCSORGLEFT
 10
0.0
 20
0.0
 30
0.0
  9
$UCSORGRIGHT
 10
0.0
 20
0.0
 30
0.0
  9
$UCSORGFRONT
 10
0.0
 20
0.0
 30
0.0
  9
$UCSORGBACK
 10
0.0
 20
0.0
 30
0.0
  9
$PUCSBASE
  2

  9
$PUCSNAME
  2

  9
$PUCSORG
 10
0.0
 20
0.0
 30
0.0
  9
$PUCSXDIR
 10
1.0
 20
0.0
 30
0.0
  9
$PUCSYDIR
 10
0.0
 20
1.0
 30
0.0
  9
$PUCSORTHOREF
  2

  9
$PUCSORTHOVIEW
 70
     0
  9
$PUCSORGTOP
 10
0.0
 20
0.0
 30
0.0
  9
$PUCSORGBOTTOM
 10
0.0
 20
0.0
 30
0.0
  9
$PUCSORGLEFT
 10
0.0
 20
0.0
 30
0.0
  9
$PUCSORGRIGHT
 10
0.0
 20
0.0
 30
0.0
  9
$PUCSORGFRONT
 10
0.0
 20
0.0
 30
0.0
  9
$PUCSORGBACK
 10
0.0
 20
0.0
 30
0.0
  9
$USERI1
 70
     0
  9
$USERI2
 70
     0
  9
$USERI3
 70
     0
  9
$USERI4
 70
     0
  9
$USERI5
 70
     0
  9
$USERR1
 40
14.5
  9
$USERR2
 40
0.0
  9
$USERR3
 40
0.0
  9
$USERR4
 40
0.0
  9
$USERR5
 40
0.0
  9
$WORLDVIEW
 70
     1
  9
$SHADEDGE
 70
     3
  9
$SHADEDIF
 70
    70
  9
$TILEMODE
 70
     1
  9
$MAXACTVP
 70
    64
  9
$PINSBASE
 10
0.0
 20
0.0
 30
0.0
  9
$PLIMCHECK
 70
     0
  9
$PEXTMIN
 10
1.00000000000000E+20
 20
1.00000000000000E+20
 30
1.00000000000000E+20
  9
$PEXTMAX
 10
-1.00000000000000E+20
 20
-1.00000000000000E+20
 30
-1.00000000000000E+20
  9
$PLIMMIN
 10
0.0
 20
0.0
  9
$PLIMMAX
 10
12.0
 20
9.0
  9
$UNITMODE
 70
     0
  9
$VISRETAIN
 70
     1
  9
$PLINEGEN
 70
     0
  9
$PSLTSCALE
 70
     1
  9
$TREEDEPTH
 70
  3020
  9
$CMLSTYLE
  2
Standard
  9
$CMLJUST
 70
     0
  9
$CMLSCALE
 40
1.0
  9
$PROXYGRAPHICS
 70
     1
  9
$MEASUREMENT
 70
     1
  9
$CELWEIGHT
370
    -1
  9
$ENDCAPS
280
     0
  9
$JOINSTYLE
280
     0
  9
$LWDISPLAY
290
     0
  9
$INSUNITS
 70
     1
  9
$HYPERLINKBASE
  1

  9
$STYLESHEET
  1

  9
$XEDIT
290
     1
  9
$CEPSNTYPE
380
     0
  9
$PSTYLEMODE
290
     1
  9
$FINGERPRINTGUID
  2
{075612CC-AE4F-4A9B-A2DA-7E1753588917}
  9
$VERSIONGUID
  2
{FAEB1C32-E019-11D5-929B-00C0DF256EC4}
  9
$EXTNAMES
290
     1
  9
$PSVPSCALE
 40
0.0
  9
$OLESTARTUP
290
     0
  9
$SORTENTS
280
   127
  9
$INDEXCTL
280
     0
  9
$HIDETEXT
280
     1
  9
$XCLIPFRAME
290
     0
  9
$HALOGAP
280
     0
  9
$OBSCOLOR
 70
   257
  9
$OBSLTYPE
280
     0
  9
$INTERSECTIONDISPLAY
280
     0
  9
$INTERSECTIONCOLOR
 70
   257
  9
$DIMASSOC
280
     2
  9
$PROJECTNAME
  1

  0
ENDSEC
  0
SECTION
  2
CLASSES
  0
CLASS
  1
ACDBDICTIONARYWDFLT
  2
AcDbDictionaryWithDefault
  3
ObjectDBX Classes
 90
        0
 91
        3
280
     0
281
     0
  0
CLASS
  1

  2
exOdDbCircle
  3

 90
        0
 91
        3
280
     0
281
     1
  0
CLASS
  1

  2
exOdDbSpline
  3

 90
        0
 91
        3
280
     0
281
     1
  0
ENDSEC
  0
SECTION
  2
TABLES
  0
TABLE
  2
VPORT
  5
8
330
0
100
AcDbSymbolTable
 70
     1
  0
VPORT
  5
29
330
8
100
AcDbSymbolTableRecord
100
AcDbViewportTableRecord
  2
*Active
 70
     0
 10
0.0
 20
0.0
 11
1.0
 21
1.0
 12
209.2934102230765
 22
279.648924400787
 13
0.0
 23
0.0
 14
0.5
 24
0.5
 15
0.5
 25
0.5
 16
0.0
 26
0.0
 36
1.0
 17
0.0
 27
0.0
 37
0.0
 40
216.835888115352
 41
1.60267857142857
 42
50.0
 43
0.0
 44
0.0
 50
0.0
 51
0.0
 71
     0
 72
   100
 73
     1
 74
     3
 75
     0
 76
     0
 77
     0
 78
     0
281
     0
 65
     1
110
0.0
120
0.0
130
0.0
111
1.0
121
0.0
131
0.0
112
0.0
122
1.0
132
0.0
 79
     0
146
0.0
  0
ENDTAB
  0
TABLE
  2
LTYPE
  5
5
330
0
100
AcDbSymbolTable
 70
     9
  0
LTYPE
  5
14
330
5
100
AcDbSymbolTableRecord
100
AcDbLinetypeTableRecord
  2
ByBlock
 70
     0
  3

 72
    65
 73
     0
 40
0.0
  0
LTYPE
  5
15
330
5
100
AcDbSymbolTableRecord
100
AcDbLinetypeTableRecord
  2
ByLayer
 70
     0
  3

 72
    65
 73
     0
 40
0.0
  0
LTYPE
  5
16
330
5
100
AcDbSymbolTableRecord
100
AcDbLinetypeTableRecord
  2
Continuous
 70
     0
  3
Solid line
 72
    65
 73
     0
 40
0.0
  0
LTYPE
  5
2A
330
5
100
AcDbSymbolTableRecord
100
AcDbLinetypeTableRecord
  2
DASHED
 70
     0
  3
Dashed
 72
    65
 73
     2
 40
15.0
 49
7.0
 74
     0
 49
-8.0
 74
     0
  0
LTYPE
  5
2B
330
5
100
AcDbSymbolTableRecord
100
AcDbLinetypeTableRecord
  2
DOTTED
 70
     0
  3
Dotted
 72
    65
 73
     2
 40
1.0
 49
0.0
 74
     0
 49
-1.0
 74
     0
  0
LTYPE
  5
2C
330
5
100
AcDbSymbolTableRecord
100
AcDbLinetypeTableRecord
  2
DOT_CENTER
 70
     0
  3
Dot_Center
 72
    65
 73
     4
 40
14.0
 49
12.0
 74
     0
 49
-1.0
 74
     0
 49
0.0
 74
     0
 49
-1.0
 74
     0
  0
LTYPE
  5
2D
330
5
100
AcDbSymbolTableRecord
100
AcDbLinetypeTableRecord
  2
LONG_DASHED
 70
     0
  3
Long_Dashed
 72
    65
 73
     2
 40
15.0
 49
10.0
 74
     0
 49
-5.0
 74
     0
  0
LTYPE
  5
2E
330
5
100
AcDbSymbolTableRecord
100
AcDbLinetypeTableRecord
  2
DASH_CENTER
 70
     0
  3
Dash_Center
 72
    65
 73
     4
 40
14.0
 49
11.0
 74
     0
 49
-1.0
 74
     0
 49
1.0
 74
     0
 49
-1.0
 74
     0
  0
LTYPE
  5
2F
330
5
100
AcDbSymbolTableRecord
100
AcDbLinetypeTableRecord
  2
PHANTOM
 70
     0
  3
Phantom
 72
    65
 73
     6
 40
13.0
 49
10.0
 74
     0
 49
-1.0
 74
     0
 49
0.0
 74
     0
 49
-1.0
 74
     0
 49
0.0
 74
     0
 49
-1.0
 74
     0
  0
LTYPE
  5
30
330
5
100
AcDbSymbolTableRecord
100
AcDbLinetypeTableRecord
  2
CENTER_DASH_DASH
 70
     0
  3
Center_Dash_Dash
 72
    65
 73
     6
 40
14.0
 49
9.0
 74
     0
 49
-1.0
 74
     0
 49
1.0
 74
     0
 49
-1.0
 74
     0
 49
1.0
 74
     0
 49
-1.0
 74
     0
  0
LTYPE
  5
31
330
5
100
AcDbSymbolTableRecord
100
AcDbLinetypeTableRecord
  2
HIDDEN
 70
     0
  3
HIDDEN
 72
    65
 73
     2
 40
6.0
 49
3.0
 74
     0
 49
-3.0
 74
     0
  0
ENDTAB
  0
TABLE
  2
LAYER
  5
2
330
0
100
AcDbSymbolTable
 70
     5
  0
LAYER
  5
10
330
2
100
AcDbSymbolTableRecord
100
AcDbLayerTableRecord
  2
0
 70
     0
 62
     7
  6
Continuous
370
    -3
390
F
  0
LAYER
  5
32
330
2
100
AcDbSymbolTableRecord
100
AcDbLayerTableRecord
  2
1
 70
     0
 62
     7
  6
Continuous
370
    -3
390
F
  0
LAYER
  5
33
330
2
100
AcDbSymbolTableRecord
100
AcDbLayerTableRecord
  2
A_ACHSEN
 70
     0
 62
     7
  6
Continuous
370
    -3
390
F
  0
LAYER
  5
34
330
2
100
AcDbSymbolTableRecord
100
AcDbLayerTableRecord
  2
A_RUNDUNGEN
 70
     0
 62
     7
  6
Continuous
370
    -3
390
F
  0
LAYER
  5
35
330
2
100
AcDbSymbolTableRecord
100
AcDbLayerTableRecord
  2
DEFAULT_1
 70
     0
 62
     7
  6
Continuous
370
    -3
390
F
  0
ENDTAB
  0
TABLE
  2
STYLE
  5
3
330
0
100
AcDbSymbolTable
 70
     2
  0
STYLE
  5
11
330
3
100
AcDbSymbolTableRecord
100
AcDbTextStyleTableRecord
  2
Standard
 70
     0
 40
0.0
 41
1.0
 50
0.0
 71
     0
 42
0.2
  3
txt
  4

  0
STYLE
  5
1EC
330
3
100
AcDbSymbolTableRecord
100
AcDbTextStyleTableRecord
  2
CONVERTER_11
 70
     0
 40
0.0
 41
0.9
 50
0.0
 71
     0
 42
0.2
  3
txt.shx
  4

  0
ENDTAB
  0
TABLE
  2
VIEW
  5
6
330
0
100
AcDbSymbolTable
 70
     0
  0
ENDTAB
  0
TABLE
  2
UCS
  5
7
330
0
100
AcDbSymbolTable
 70
     0
  0
ENDTAB
  0
TABLE
  2
APPID
  5
9
330
0
100
AcDbSymbolTable
 70
     1
  0
APPID
  5
12
330
9
100
AcDbSymbolTableRecord
100
AcDbRegAppTableRecord
  2
ACAD
 70
     0
  0
ENDTAB
  0
TABLE
  2
DIMSTYLE
  5
A
330
0
100
AcDbSymbolTable
 70
     6
100
AcDbDimStyleTable
  0
DIMSTYLE
105
27
330
A
100
AcDbSymbolTableRecord
100
AcDbDimStyleTableRecord
  2
Standard
 70
     0
340
11
  0
DIMSTYLE
105
1F7
102
{ACAD_REACTORS
330
1F8
102
}
330
A
100
AcDbSymbolTableRecord
100
AcDbDimStyleTableRecord
  2
ME10_DIM_10
 70
     0
 41
3.5
 42
0.0
 44
2.0
 73
     0
 74
     0
 77
     1
 78
     8
140
3.5
147
2.0
172
     1
173
     1
176
     2
177
     2
178
     2
271
     3
340
1EC
  0
DIMSTYLE
105
202
102
{ACAD_REACTORS
330
203
102
}
330
A
100
AcDbSymbolTableRecord
100
AcDbDimStyleTableRecord
  2
ME10_DIM_11
 70
     0
 41
3.5
 42
0.0
 44
2.0
 73
     0
 74
     0
 77
     1
 78
     8
140
3.5
147
2.0
172
     1
173
     1
176
     2
177
     2
178
     2
271
     3
340
1EC
  0
DIMSTYLE
105
20E
102
{ACAD_REACTORS
330
20F
102
}
330
A
100
AcDbSymbolTableRecord
100
AcDbDimStyleTableRecord
  2
ME10_DIM_12
 70
     0
 41
3.5
 42
0.0
 44
2.0
 73
     0
 74
     0
 77
     1
 78
     8
140
3.5
147
2.0
172
     1
173
     1
176
     2
177
     2
178
     2
271
     3
340
1EC
  0
DIMSTYLE
105
219
102
{ACAD_REACTORS
330
21A
102
}
330
A
100
AcDbSymbolTableRecord
100
AcDbDimStyleTableRecord
  2
ME10_DIM_13
 70
     0
 41
3.5
 42
0.0
 44
2.0
 73
     0
 74
     0
 77
     1
 78
     8
140
3.5
147
2.0
172
     1
173
     1
176
     2
177
     2
178
     2
271
     3
340
1EC
  0
DIMSTYLE
105
224
102
{ACAD_REACTORS
330
225
102
}
330
A
100
AcDbSymbolTableRecord
100
AcDbDimStyleTableRecord
  2
ME10_DIM_14
 70
     0
 41
3.5
 42
0.0
 44
2.0
 73
     0
 74
     0
 77
     1
 78
     8
140
3.5
147
2.0
172
     1
173
     1
176
     2
177
     2
178
     2
271
     3
340
1EC
  0
ENDTAB
  0
TABLE
  2
BLOCK_RECORD
  5
1
330
0
100
AcDbSymbolTable
 70
     6
  0
BLOCK_RECORD
  5
1F
330
1
100
AcDbSymbolTableRecord
100
AcDbBlockTableRecord
  2
*Model_Space
340
22
  0
BLOCK_RECORD
  5
1B
330
1
100
AcDbSymbolTableRecord
100
AcDbBlockTableRecord
  2
*Paper_Space
340
1E
  0
BLOCK_RECORD
  5
23
330
1
100
AcDbSymbolTableRecord
100
AcDbBlockTableRecord
  2
*Paper_Space0
340
26
  0
BLOCK_RECORD
  5
1EE
330
1
100
AcDbSymbolTableRecord
100
AcDbBlockTableRecord
  2
*D1
340
0
  0
BLOCK_RECORD
  5
1F9
330
1
100
AcDbSymbolTableRecord
100
AcDbBlockTableRecord
  2
*D2
340
0
  0
BLOCK_RECORD
  5
204
330
1
100
AcDbSymbolTableRecord
100
AcDbBlockTableRecord
  2
*D3
340
0
  0
BLOCK_RECORD
  5
210
330
1
100
AcDbSymbolTableRecord
100
AcDbBlockTableRecord
  2
*D4
340
0
  0
BLOCK_RECORD
  5
21B
330
1
100
AcDbSymbolTableRecord
100
AcDbBlockTableRecord
  2
*D5
340
0
  0
ENDTAB
  0
ENDSEC
  0
SECTION
  2
BLOCKS
  0
BLOCK
  5
20
330
1F
100
AcDbEntity
  8
0
100
AcDbBlockBegin
  2
*Model_Space
 70
     0
 71
     0
 10
0.0
 20
0.0
 30
0.0
  3
*Model_Space
  1

  0
ENDBLK
  5
21
330
1F
100
AcDbEntity
  8
0
100
AcDbBlockEnd
  0
BLOCK
  5
1C
330
1B
100
AcDbEntity
 67
     1
  8
0
100
AcDbBlockBegin
  2
*Paper_Space
 70
     0
 71
     0
 10
0.0
 20
0.0
 30
0.0
  3
*Paper_Space
  1

  0
ENDBLK
  5
1D
330
1B
100
AcDbEntity
 67
     1
  8
0
100
AcDbBlockEnd
  0
BLOCK
  5
24
330
23
100
AcDbEntity
  8
0
100
AcDbBlockBegin
  2
*Paper_Space0
 70
     0
 71
     0
 10
0.0
 20
0.0
 30
0.0
  3
*Paper_Space0
  1

  0
ENDBLK
  5
25
330
23
100
AcDbEntity
  8
0
100
AcDbBlockEnd
  0
BLOCK
  5
1F5
330
1EE
100
AcDbEntity
  8
0
100
AcDbBlockBegin
  2
*D1
 70
     1
 71
     0
 10
0.0
 20
0.0
 30
0.0
  3
*D1
  1

  0
LINE
  5
1EF
330
1EE
100
AcDbEntity
  8
1
  6
Continuous
 62
     2
100
AcDbLine
 10
157.797218821672
 20
193.2106021205
 30
0.0
 11
157.797218821672
 21
378.2106021205
 31
0.0
  0
LINE
  5
1F0
330
1EE
100
AcDbEntity
  8
1
  6
Continuous
 62
     2
100
AcDbLine
 10
182.2398190144
 20
378.2106021205
 30
0.0
 11
155.797218821672
 21
378.2106021205
 31
0.0
  0
LINE
  5
1F1
330
1EE
100
AcDbEntity
  8
1
  6
Continuous
 62
     2
100
AcDbLine
 10
182.2398190144
 20
193.2106021205
 30
0.0
 11
155.797218821672
 21
193.2106021205
 31
0.0
  0
SOLID
  5
1F2
330
1EE
100
AcDbEntity
  8
1
 62
     2
100
AcDbTrace
 10
157.3364350801161
 20
196.7106021205
 30
0.0
 11
158.2580025632279
 21
196.7106021205
 31
0.0
 12
157.797218821672
 22
193.2106021205
 32
0.0
 13
157.797218821672
 23
193.2106021205
 33
0.0
  0
SOLID
  5
1F3
330
1EE
100
AcDbEntity
  8
1
 62
     2
100
AcDbTrace
 10
158.2580025632279
 20
374.7106021205
 30
0.0
 11
157.3364350801161
 21
374.7106021205
 31
0.0
 12
157.797218821672
 22
378.2106021205
 32
0.0
 13
157.797218821672
 23
378.2106021205
 33
0.0
  0
MTEXT
  5
1F4
330
1EE
100
AcDbEntity
  8
1
 62
     2
100
AcDbMText
 10
155.797218821672
 20
279.259539500194
 30
0.0
 40
3.5
 41
0.0
 71
     7
 72
     1
  1
185
  7
CONVERTER_11
 11
0.0
 21
1.0
 31
0.0
 73
     1
 44
0.60024009603842
  0
ENDBLK
  5
1F6
330
1EE
100
AcDbEntity
  8
0
100
AcDbBlockEnd
  0
BLOCK
  5
200
330
1F9
100
AcDbEntity
  8
0
100
AcDbBlockBegin
  2
*D2
 70
     1
 71
     0
 10
0.0
 20
0.0
 30
0.0
  3
*D2
  1

  0
LINE
  5
1FA
330
1F9
100
AcDbEntity
  8
1
  6
Continuous
 62
     2
100
AcDbLine
 10
200.1398190144
 20
225.693899517372
 30
0.0
 11
222.4021334498
 21
225.693899517372
 31
0.0
  0
LINE
  5
1FB
330
1F9
100
AcDbEntity
  8
1
  6
Continuous
 62
     2
100
AcDbLine
 10
222.4021334498
 20
254.5606021205
 30
0.0
 11
222.4021334498
 21
223.693899517372
 31
0.0
  0
LINE
  5
1FC
330
1F9
100
AcDbEntity
  8
1
  6
Continuous
 62
     2
100
AcDbLine
 10
200.1398190144
 20
254.5606021205
 30
0.0
 11
200.1398190144
 21
223.693899517372
 31
0.0
  0
SOLID
  5
1FD
330
1F9
100
AcDbEntity
  8
1
 62
     2
100
AcDbTrace
 10
203.6398190144
 20
226.1546832589279
 30
0.0
 11
203.6398190144
 21
225.2331157758161
 31
0.0
 12
200.1398190144
 22
225.693899517372
 32
0.0
 13
200.1398190144
 23
225.693899517372
 33
0.0
  0
SOLID
  5
1FE
330
1F9
100
AcDbEntity
  8
1
 62
     2
100
AcDbTrace
 10
218.9021334498
 20
225.2331157758161
 30
0.0
 11
218.9021334498
 21
226.1546832589279
 31
0.0
 12
222.4021334498
 22
225.693899517372
 32
0.0
 13
222.4021334498
 23
225.693899517372
 33
0.0
  0
MTEXT
  5
1FF
330
1F9
100
AcDbEntity
  8
1
 62
     2
100
AcDbMText
 10
206.632156896004
 20
227.693899517372
 30
0.0
 40
3.5
 41
0.0
 71
     7
 72
     1
  1
22.3
  7
CONVERTER_11
 11
0.9999999999970621
 21
2.424068405545307E-6
 31
0.0
 73
     1
 44
0.60024009603842
  0
ENDBLK
  5
201
330
1F9
100
AcDbEntity
  8
0
100
AcDbBlockEnd
  0
BLOCK
  5
20C
330
204
100
AcDbEntity
  8
0
100
AcDbBlockBegin
  2
*D3
 70
     1
 71
     0
 10
0.0
 20
0.0
 30
0.0
  3
*D3
  1

  0
LINE
  5
205
330
204
100
AcDbEntity
  8
1
  6
Continuous
 62
     2
100
AcDbLine
 10
168.2398190144
 20
183.087157075627
 30
0.0
 11
196.2398190144
 21
183.087157075627
 31
0.0
  0
LINE
  5
206
330
204
100
AcDbEntity
  8
1
  6
Continuous
 62
     2
100
AcDbLine
 10
196.2398190144
 20
207.1106021205
 30
0.0
 11
196.2398190144
 21
181.087157075627
 31
0.0
  0
LINE
  5
207
330
204
100
AcDbEntity
  8
1
  6
Continuous
 62
     2
100
AcDbLine
 10
168.2398190144
 20
207.1106021205
 30
0.0
 11
168.2398190144
 21
195.189111395303
 31
0.0
  0
LINE
  5
208
330
204
100
AcDbEntity
  8
1
  6
Continuous
 62
     2
100
AcDbLine
 10
168.2398190144
 20
190.697321520525
 30
0.0
 11
168.2398190144
 21
181.087157075627
 31
0.0
  0
SOLID
  5
209
330
204
100
AcDbEntity
  8
1
 62
     2
100
AcDbTrace
 10
171.7398190144
 20
183.5479408171829
 30
0.0
 11
171.7398190144
 21
182.6263733340711
 31
0.0
 12
168.2398190144
 22
183.087157075627
 32
0.0
 13
168.2398190144
 23
183.087157075627
 33
0.0
  0
SOLID
  5
20A
330
204
100
AcDbEntity
  8
1
 62
     2
100
AcDbTrace
 10
192.7398190144
 20
182.6263733340711
 30
0.0
 11
192.7398190144
 21
183.5479408171829
 31
0.0
 12
196.2398190144
 22
183.087157075627
 32
0.0
 13
196.2398190144
 23
183.087157075627
 33
0.0
  0
MTEXT
  5
20B
330
204
100
AcDbEntity
  8
1
 62
     2
100
AcDbMText
 10
178.5127034459557
 20
185.087157075627
 30
0.0
 40
3.5
 41
0.0
 71
     7
 72
     1
  1
28
  7
CONVERTER_11
 11
0.9999999999970621
 21
2.424068405545307E-6
 31
0.0
 73
     1
 44
0.60024009603842
  0
ENDBLK
  5
20D
330
204
100
AcDbEntity
  8
0
100
AcDbBlockEnd
  0
BLOCK
  5
217
330
210
100
AcDbEntity
  8
0
100
AcDbBlockBegin
  2
*D4
 70
     1
 71
     0
 10
0.0
 20
0.0
 30
0.0
  3
*D4
  1

  0
LINE
  5
211
330
210
100
AcDbEntity
  8
1
  6
Continuous
 62
     2
100
AcDbLine
 10
226.4021334498
 20
183.087157075627
 30
0.0
 11
254.4021334498
 21
183.087157075627
 31
0.0
  0
LINE
  5
212
330
210
100
AcDbEntity
  8
1
  6
Continuous
 62
     2
100
AcDbLine
 10
254.4021334498
 20
243.3106021205
 30
0.0
 11
254.4021334498
 21
181.087157075627
 31
0.0
  0
LINE
  5
213
330
210
100
AcDbEntity
  8
1
  6
Continuous
 62
     2
100
AcDbLine
 10
226.4021334498
 20
207.2106021205
 30
0.0
 11
226.4021334498
 21
181.087157075627
 31
0.0
  0
SOLID
  5
214
330
210
100
AcDbEntity
  8
1
 62
     2
100
AcDbTrace
 10
229.9021334498
 20
183.5479408171829
 30
0.0
 11
229.9021334498
 21
182.6263733340711
 31
0.0
 12
226.4021334498
 22
183.087157075627
 32
0.0
 13
226.4021334498
 23
183.087157075627
 33
0.0
  0
SOLID
  5
215
330
210
100
AcDbEntity
  8
1
 62
     2
100
AcDbTrace
 10
250.9021334498
 20
182.6263733340711
 30
0.0
 11
250.9021334498
 21
183.5479408171829
 31
0.0
 12
254.4021334498
 22
183.087157075627
 32
0.0
 13
254.4021334498
 23
183.087157075627
 33
0.0
  0
MTEXT
  5
216
330
210
100
AcDbEntity
  8
1
 62
     2
100
AcDbMText
 10
237.7771334498
 20
185.087157075627
 30
0.0
 40
3.5
 41
0.0
 71
     7
 72
     1
  1
28
  7
CONVERTER_11
 11
0.9999999999970621
 21
2.424068405545307E-6
 31
0.0
 73
     1
 44
0.60024009603842
  0
ENDBLK
  5
218
330
210
100
AcDbEntity
  8
0
100
AcDbBlockEnd
  0
BLOCK
  5
222
330
21B
100
AcDbEntity
  8
0
100
AcDbBlockBegin
  2
*D5
 70
     1
 71
     0
 10
0.0
 20
0.0
 30
0.0
  3
*D5
  1

  0
LINE
  5
21C
330
21B
100
AcDbEntity
  8
1
  6
Continuous
 62
     2
100
AcDbLine
 10
196.2398190144
 20
183.087157075627
 30
0.0
 11
226.4021334498
 21
183.087157075627
 31
0.0
  0
LINE
  5
21D
330
21B
100
AcDbEntity
  8
1
  6
Continuous
 62
     2
100
AcDbLine
 10
226.4021334498
 20
207.2106021205
 30
0.0
 11
226.4021334498
 21
181.087157075627
 31
0.0
  0
LINE
  5
21E
330
21B
100
AcDbEntity
  8
1
  6
Continuous
 62
     2
100
AcDbLine
 10
196.2398190144
 20
207.1106021205
 30
0.0
 11
196.2398190144
 21
181.087157075627
 31
0.0
  0
SOLID
  5
21F
330
21B
100
AcDbEntity
  8
1
 62
     2
100
AcDbTrace
 10
199.7398190144
 20
183.5479408171829
 30
0.0
 11
199.7398190144
 21
182.6263733340711
 31
0.0
 12
196.2398190144
 22
183.087157075627
 32
0.0
 13
196.2398190144
 23
183.087157075627
 33
0.0
  0
SOLID
  5
220
330
21B
100
AcDbEntity
  8
1
 62
     2
100
AcDbTrace
 10
222.9021334498
 20
182.6263733340711
 30
0.0
 11
222.9021334498
 21
183.5479408171829
 31
0.0
 12
226.4021334498
 22
183.087157075627
 32
0.0
 13
226.4021334498
 23
183.087157075627
 33
0.0
  0
MTEXT
  5
221
330
21B
100
AcDbEntity
  8
1
 62
     2
100
AcDbMText
 10
208.6959762321
 20
185.087157075627
 30
0.0
 40
3.5
 41
0.0
 71
     7
 72
     1
  1
30
  7
CONVERTER_11
 11
0.9999999999970621
 21
2.424068405545307E-6
 31
0.0
 73
     1
 44
0.60024009603842
  0
ENDBLK
  5
223
330
21B
100
AcDbEntity
  8
0
100
AcDbBlockEnd
  0
ENDSEC
  0
SECTION
  2
ENTITIES
  0
POINT
  5
36
330
1F
100
AcDbEntity
  8
1
 62
     3
 60
     1
100
AcDbPoint
 10
220.8799704006
 20
267.8106021205
 30
0.0
  0
POINT
  5
37
330
1F
100
AcDbEntity
  8
1
 62
     3
 60
     1
100
AcDbPoint
 10
220.8799704006
 20
269.1106021205
 30
0.0
  0
POINT
  5
38
330
1F
100
AcDbEntity
  8
1
 62
     3
 60
     1
100
AcDbPoint
 10
212.8799704006
 20
267.8106021205
 30
0.0
  0
POINT
  5
39
330
1F
100
AcDbEntity
  8
1
 62
     3
 60
     1
100
AcDbPoint
 10
212.8799704006
 20
269.1106021205
 30
0.0
  0
POINT
  5
3A
330
1F
100
AcDbEntity
  8
1
 62
     3
 60
     1
100
AcDbPoint
 10
220.8799704006
 20
302.3106021205
 30
0.0
  0
POINT
  5
3B
330
1F
100
AcDbEntity
  8
1
 62
     3
 60
     1
100
AcDbPoint
 10
220.8799704006
 20
303.6106021205
 30
0.0
  0
POINT
  5
3C
330
1F
100
AcDbEntity
  8
1
 62
     3
 60
     1
100
AcDbPoint
 10
212.8799704006
 20
302.3106021205
 30
0.0
  0
POINT
  5
3D
330
1F
100
AcDbEntity
  8
1
 62
     3
 60
     1
100
AcDbPoint
 10
212.8799704006
 20
303.6106021205
 30
0.0
  0
POINT
  5
3E
330
1F
100
AcDbEntity
  8
1
 62
     3
 60
     1
100
AcDbPoint
 10
239.2293471629
 20
316.5106021205
 30
0.0
  0
POINT
  5
3F
330
1F
100
AcDbEntity
  8
1
 62
     3
 60
     1
100
AcDbPoint
 10
239.2293471629
 20
254.9106021205
 30
0.0
  0
POINT
  5
40
330
1F
100
AcDbEntity
  8
1
 62
     3
 60
     1
100
AcDbPoint
 10
239.9793471629
 20
253.3106021205
 30
0.0
  0
POINT
  5
41
330
1F
100
AcDbEntity
  8
1
 62
     3
 60
     1
100
AcDbPoint
 10
239.9793471629
 20
254.9106021205
 30
0.0
  0
POINT
  5
42
330
1F
100
AcDbEntity
  8
1
 62
     3
 60
     1
100
AcDbPoint
 10
231.1021334498
 20
254.9106021205
 30
0.0
  0
POINT
  5
43
330
1F
100
AcDbEntity
  8
1
 62
     3
 60
     1
100
AcDbPoint
 10
239.9793471629
 20
318.1106021205
 30
0.0
  0
POINT
  5
44
330
1F
100
AcDbEntity
  8
1
 62
     3
 60
     1
100
AcDbPoint
 10
239.9793471629
 20
316.5106021205
 30
0.0
  0
POINT
  5
45
330
1F
100
AcDbEntity
  8
1
 62
     3
 60
     1
100
AcDbPoint
 10
231.1021334498
 20
316.5106021205
 30
0.0
  0
POINT
  5
46
330
1F
100
AcDbEntity
  8
1
 62
     3
 60
     1
100
AcDbPoint
 10
190.7723503765
 20
254.5606021205
 30
0.0
  0
POINT
  5
47
330
1F
100
AcDbEntity
  8
1
 62
     3
 60
     1
100
AcDbPoint
 10
179.7723503765
 20
253.3106021205
 30
0.0
  0
POINT
  5
48
330
1F
100
AcDbEntity
  8
1
 62
     3
 60
     1
100
AcDbPoint
 10
190.6398190144
 20
253.3106021205
 30
0.0
  0
POINT
  5
49
330
1F
100
AcDbEntity
  8
1
 62
     3
 60
     1
100
AcDbPoint
 10
169.5398190144
 20
253.3106021205
 30
0.0
  0
POINT
  5
4A
330
1F
100
AcDbEntity
  8
1
 62
     3
 60
     1
100
AcDbPoint
 10
180.0898190144
 20
253.3106021205
 30
0.0
  0
POINT
  5
4B
330
1F
100
AcDbEntity
  8
1
 62
     3
 60
     1
100
AcDbPoint
 10
179.7723503765
 20
318.1106021205
 30
0.0
  0
POINT
  5
4C
330
1F
100
AcDbEntity
  8
1
 62
     3
 60
     1
100
AcDbPoint
 10
180.4131330472
 20
318.1106021205
 30
0.0
  0
POINT
  5
4D
330
1F
100
AcDbEntity
  8
1
 62
     3
 60
     1
100
AcDbPoint
 10
190.7723503765
 20
316.8606021205
 30
0.0
  0
POINT
  5
4E
330
1F
100
AcDbEntity
  8
1
 62
     3
 60
     1
100
AcDbPoint
 10
266.289601624481
 20
285.7106021205
 30
0.0
  0
POINT
  5
4F
330
1F
100
AcDbEntity
  8
1
 62
     3
 60
     1
100
AcDbPoint
 10
266.289601624481
 20
285.7106021205
 30
0.0
  0
LINE
  5
50
330
1F
100
AcDbEntity
  8
0
  6
Continuous
 62
     7
100
AcDbLine
 10
220.8799704006
 20
267.8106021205
 30
0.0
 11
231.7561362077828
 21
267.8106021205
 31
0.0
  0
LINE
  5
51
330
1F
100
AcDbEntity
  8
0
  6
Continuous
 62
     7
100
AcDbLine
 10
220.8799704006
 20
269.1106021205
 30
0.0
 11
212.8799704006
 21
269.1106021205
 31
0.0
  0
LINE
  5
52
330
1F
100
AcDbEntity
  8
1
  6
Continuous
 62
     7
100
AcDbLine
 10
220.8799704006
 20
269.1106021205
 30
0.0
 11
220.8799704006
 21
267.8106021205
 31
0.0
  0
LINE
  5
53
330
1F
100
AcDbEntity
  8
0
  6
Continuous
 62
     7
100
AcDbLine
 10
212.8799704006
 20
269.1106021205
 30
0.0
 11
190.4529270762291
 21
269.1106021205
 31
0.0
  0
LINE
  5
54
330
1F
100
AcDbEntity
  8
0
  6
Continuous
 62
     7
100
AcDbLine
 10
212.8799704006
 20
267.8106021205
 30
0.0
 11
220.8799704006
 21
267.8106021205
 31
0.0
  0
LINE
  5
55
330
1F
100
AcDbEntity
  8
1
  6
Continuous
 62
     7
100
AcDbLine
 10
212.8799704006
 20
269.1106021205
 30
0.0
 11
212.8799704006
 21
267.8106021205
 31
0.0
  0
LINE
  5
56
330
1F
100
AcDbEntity
  8
0
  6
Continuous
 62
     7
100
AcDbLine
 10
220.8799704006
 20
302.3106021205
 30
0.0
 11
228.6984449171
 21
302.3106021205
 31
0.0
  0
LINE
  5
57
330
1F
100
AcDbEntity
  8
0
  6
Continuous
 62
     7
100
AcDbLine
 10
220.8799704006
 20
303.6106021205
 30
0.0
 11
212.8799704006
 21
303.6106021205
 31
0.0
  0
LINE
  5
58
330
1F
100
AcDbEntity
  8
1
  6
Continuous
 62
     7
100
AcDbLine
 10
220.8799704006
 20
303.6106021205
 30
0.0
 11
220.8799704006
 21
302.3106021205
 31
0.0
  0
LINE
  5
59
330
1F
100
AcDbEntity
  8
0
  6
Continuous
 62
     7
100
AcDbLine
 10
212.8799704006
 20
303.6106021205
 30
0.0
 11
202.0328033634
 21
303.6106021205
 31
0.0
  0
LINE
  5
5A
330
1F
100
AcDbEntity
  8
0
  6
Continuous
 62
     7
100
AcDbLine
 10
212.8799704006
 20
302.3106021205
 30
0.0
 11
220.8799704006
 21
302.3106021205
 31
0.0
  0
LINE
  5
5B
330
1F
100
AcDbEntity
  8
1
  6
Continuous
 62
     7
100
AcDbLine
 10
212.8799704006
 20
303.6106021205
 30
0.0
 11
212.8799704006
 21
302.3106021205
 31
0.0
  0
LINE
  5
5C
330
1F
100
AcDbEntity
  8
1
  6
Continuous
 62
     7
100
AcDbLine
 10
239.2293471629
 20
316.5106021205
 30
0.0
 11
239.9793471629
 21
316.5106021205
 31
0.0
  0
LINE
  5
5D
330
1F
100
AcDbEntity
  8
1
  6
Continuous
 62
     7
100
AcDbLine
 10
239.2293471629
 20
315.6106021205
 30
0.0
 11
239.2293471629
 21
316.5106021205
 31
0.0
  0
LINE
  5
5E
330
1F
100
AcDbEntity
  8
1
  6
Continuous
 62
     7
100
AcDbLine
 10
238.4793471629
 20
315.6106021205
 30
0.0
 11
239.2293471629
 21
315.6106021205
 31
0.0
  0
LINE
  5
5F
330
1F
100
AcDbEntity
  8
1
  6
Continuous
 62
     7
100
AcDbLine
 10
239.2293471629
 20
254.9106021205
 30
0.0
 11
231.1021334498
 21
254.9106021205
 31
0.0
  0
LINE
  5
60
330
1F
100
AcDbEntity
  8
1
  6
Continuous
 62
     7
100
AcDbLine
 10
239.2293471629
 20
255.8106021205
 30
0.0
 11
239.2293471629
 21
254.9106021205
 31
0.0
  0
LINE
  5
61
330
1F
100
AcDbEntity
  8
1
  6
Continuous
 62
     7
100
AcDbLine
 10
238.4793471629
 20
255.8106021205
 30
0.0
 11
239.2293471629
 21
255.8106021205
 31
0.0
  0
LINE
  5
62
330
1F
100
AcDbEntity
  8
1
  6
Continuous
 62
     7
100
AcDbLine
 10
239.9793471629
 20
253.3106021205
 30
0.0
 11
239.9793471629
 21
254.9106021205
 31
0.0
  0
LINE
  5
63
330
1F
100
AcDbEntity
  8
1
  6
Continuous
 62
     7
100
AcDbLine
 10
239.9793471629
 20
254.9106021205
 30
0.0
 11
239.2293471629
 21
254.9106021205
 31
0.0
  0
LINE
  5
64
330
1F
100
AcDbEntity
  8
0
  6
Continuous
 62
     7
100
AcDbLine
 10
239.9793471629
 20
318.1106021205
 30
0.0
 11
231.9021334498
 21
318.1106021205
 31
0.0
  0
LINE
  5
65
330
1F
100
AcDbEntity
  8
1
  6
Continuous
 62
     7
100
AcDbLine
 10
239.9793471629
 20
316.5106021205
 30
0.0
 11
239.9793471629
 21
318.1106021205
 31
0.0
  0
LINE
  5
66
330
1F
100
AcDbEntity
  8
A_ACHSEN
  6
Continuous
 62
     7
100
AcDbLine
 10
231.1021334498
 20
316.5106021205
 30
0.0
 11
231.1021334498
 21
316.8606021205
 31
0.0
  0
LINE
  5
67
330
1F
100
AcDbEntity
  8
1
  6
Continuous
 62
     7
100
AcDbLine
 10
231.1021334498
 20
316.5106021205
 30
0.0
 11
239.2293471629
 21
316.5106021205
 31
0.0
  0
LINE
  5
68
330
1F
100
AcDbEntity
  8
0
  6
Continuous
 62
     7
100
AcDbLine
 10
190.7723503765
 20
254.5606021205
 30
0.0
 11
190.6398190144
 21
254.5606021205
 31
0.0
  0
LINE
  5
69
330
1F
100
AcDbEntity
  8
1
  6
Continuous
 62
     7
100
AcDbLine
 10
190.7723503765
 20
254.9106021205
 30
0.0
 11
190.7723503765
 21
254.5606021205
 31
0.0
  0
LINE
  5
6A
330
1F
100
AcDbEntity
  8
0
  6
Continuous
 62
     7
100
AcDbLine
 10
179.7723503765
 20
253.3106021205
 30
0.0
 11
190.6398190144
 21
253.3106021205
 31
0.0
  0
LINE
  5
6B
330
1F
100
AcDbEntity
  8
1
  6
Continuous
 62
     7
100
AcDbLine
 10
179.7723503765
 20
254.9106021205
 30
0.0
 11
179.7723503765
 21
253.3106021205
 31
0.0
  0
LINE
  5
6C
330
1F
100
AcDbEntity
  8
1
  6
Continuous
 62
     7
100
AcDbLine
 10
190.0223503765
 20
254.9106021205
 30
0.0
 11
190.7723503765
 21
254.9106021205
 31
0.0
  0
LINE
  5
6D
330
1F
100
AcDbEntity
  8
1
  6
Continuous
 62
     7
100
AcDbLine
 10
180.5223503765
 20
254.9106021205
 30
0.0
 11
179.7723503765
 21
254.9106021205
 31
0.0
  0
LINE
  5
6E
330
1F
100
AcDbEntity
  8
0
  6
Continuous
 62
     7
100
AcDbLine
 10
179.7723503765
 20
318.1106021205
 30
0.0
 11
169.5398190144
 21
318.1106021205
 31
0.0
  0
LINE
  5
6F
330
1F
100
AcDbEntity
  8
1
  6
Continuous
 62
     7
100
AcDbLine
 10
179.7723503765
 20
316.5106021205
 30
0.0
 11
179.7723503765
 21
318.1106021205
 31
0.0
  0
LINE
  5
70
330
1F
100
AcDbEntity
  8
0
  6
Continuous
 62
     7
100
AcDbLine
 10
190.7723503765
 20
316.8606021205
 30
0.0
 11
200.1398190144
 21
316.8606021205
 31
0.0
  0
LINE
  5
71
330
1F
100
AcDbEntity
  8
1
  6
Continuous
 62
     7
100
AcDbLine
 10
190.7723503765
 20
316.5106021205
 30
0.0
 11
190.7723503765
 21
316.8606021205
 31
0.0
  0
LINE
  5
72
330
1F
100
AcDbEntity
  8
1
  6
Continuous
 62
     7
100
AcDbLine
 10
190.0222400114
 20
316.5106021205
 30
0.0
 11
190.7723503765
 21
316.5106021205
 31
0.0
  0
LINE
  5
73
330
1F
100
AcDbEntity
  8
1
  6
Continuous
 62
     7
100
AcDbLine
 10
180.5223503765
 20
316.5106021205
 30
0.0
 11
179.7723503765
 21
316.5106021205
 31
0.0
  0
LINE
  5
74
330
1F
100
AcDbEntity
  8
A_ACHSEN
  6
Continuous
 62
     7
100
AcDbLine
 10
180.2728506329
 20
255.8106021205
 30
0.0
 11
238.4793471629
 21
255.8106021205
 31
0.0
  0
LINE
  5
75
330
1F
100
AcDbEntity
  8
0
  6
Continuous
 62
     7
100
AcDbLine
 10
169.5398190144
 20
253.3106021205
 30
0.0
 11
179.7723503765
 21
253.3106021205
 31
0.0
  0
LINE
  5
76
330
1F
100
AcDbEntity
  8
A_ACHSEN
  6
Continuous
 62
     7
100
AcDbLine
 10
231.6352606306
 20
315.6106021205
 30
0.0
 11
180.2728506329
 21
315.6106021205
 31
0.0
  0
LINE
  5
77
330
1F
100
AcDbEntity
  8
1
  6
DOT_CENTER
 62
     7
100
AcDbLine
 10
166.192805460051
 20
285.7106021205
 30
0.0
 11
254.3021334498
 21
285.7106021205
 31
0.0
  0
LINE
  5
78
330
1F
100
AcDbEntity
  8
A_ACHSEN
  6
DOT_CENTER
 62
     2
100
AcDbLine
 10
180.936811655616
 20
367.2106021205
 30
0.0
 11
174.7398190144
 21
367.2106021205
 31
0.0
  0
LINE
  5
79
330
1F
100
AcDbEntity
  8
A_ACHSEN
  6
DOT_CENTER
 62
     2
100
AcDbLine
 10
195.8398190144
 20
367.2106021205
 30
0.0
 11
189.7398190144
 21
367.2106021205
 31
0.0
  0
LINE
  5
7A
330
1F
100
AcDbEntity
  8
A_ACHSEN
  6
DOT_CENTER
 62
     2
100
AcDbLine
 10
239.3603276642
 20
367.2106021205
 30
0.0
 11
232.9021334498
 21
367.2106021205
 31
0.0
  0
LINE
  5
7B
330
1F
100
AcDbEntity
  8
A_ACHSEN
  6
DOT_CENTER
 62
     2
100
AcDbLine
 10
254.3238150863
 20
367.2106021205
 30
0.0
 11
247.9021334498
 21
367.2106021205
 31
0.0
  0
LINE
  5
7C
330
1F
100
AcDbEntity
  8
A_ACHSEN
  6
DOT_CENTER
 62
     2
100
AcDbLine
 10
241.8832412412
 20
367.2106021205
 30
0.0
 11
247.9021334498
 21
367.2106021205
 31
0.0
  0
LINE
  5
7D
330
1F
100
AcDbEntity
  8
A_ACHSEN
  6
DOT_CENTER
 62
     2
100
AcDbLine
 10
226.22377766
 20
367.2106021205
 30
0.0
 11
232.9021334498
 21
367.2106021205
 31
0.0
  0
LINE
  5
7E
330
1F
100
AcDbEntity
  8
A_ACHSEN
  6
DOT_CENTER
 62
     2
100
AcDbLine
 10
183.913108079553
 20
367.2106021205
 30
0.0
 11
189.7398190144
 21
367.2106021205
 31
0.0
  0
LINE
  5
7F
330
1F
100
AcDbEntity
  8
A_ACHSEN
  6
DOT_CENTER
 62
     2
100
AcDbLine
 10
167.6398190144
 20
367.2106021205
 30
0.0
 11
174.7398190144
 21
367.2106021205
 31
0.0
  0
LINE
  5
80
330
1F
100
AcDbEntity
  8
A_ACHSEN
  6
DOT_CENTER
 62
     2
100
AcDbLine
 10
238.0271334498
 20
353.6106021205002
 30
0.0
 11
232.2521334498
 21
353.6106021205002
 31
0.0
  0
LINE
  5
81
330
1F
100
AcDbEntity
  8
A_ACHSEN
  6
DOT_CENTER
 62
     2
100
AcDbLine
 10
226.4771334498
 20
353.6106021205002
 30
0.0
 11
232.2521334498
 21
353.6106021205002
 31
0.0
  0
LINE
  5
82
330
1F
100
AcDbEntity
  8
0
  6
Continuous
 62
     7
100
AcDbLine
 10
199.872722614386
 20
328.3106021205
 30
0.0
 11
200.1016994609
 21
328.3106021205
 31
0.0
  0
LINE
  5
83
330
1F
100
AcDbEntity
  8
A_RUNDUNGEN
  6
HIDDEN
 62
   252
420
  8685188
100
AcDbLine
 10
230.4150550144
 20
328.1106021205
 30
0.0
 11
251.3892118853
 21
328.1106021205
 31
0.0
  0
LINE
  5
84
330
1F
100
AcDbEntity
  8
0
  6
Continuous
 62
     7
100
AcDbLine
 10
253.2021334498
 20
328.1106021205
 30
0.0
 11
254.4021334498
 21
328.1106021205
 31
0.0
  0
LINE
  5
85
330
1F
100
AcDbEntity
  8
0
  6
Continuous
 62
     7
100
AcDbLine
 10
251.7201412949
 20
325.0606021205
 30
0.0
 11
222.5841256047
 21
325.0606021205
 31
0.0
  0
LINE
  5
86
330
1F
100
AcDbEntity
  8
0
  6
Continuous
 62
     7
100
AcDbLine
 10
190.6398190144
 20
318.1106021205
 30
0.0
 11
179.7723503765
 21
318.1106021205
 31
0.0
  0
LINE
  5
87
330
1F
100
AcDbEntity
  8
0
  6
Continuous
 62
     7
100
AcDbLine
 10
251.9021334498
 20
318.1106021205
 30
0.0
 11
239.9793471629
 21
318.1106021205
 31
0.0
  0
LINE
  5
88
330
1F
100
AcDbEntity
  8
A_ACHSEN
  6
HIDDEN
 62
   252
420
  8685188
100
AcDbLine
 10
180.4131330472
 20
318.1106021205
 30
0.0
 11
183.0005143618
 21
318.1106021205
 31
0.0
  0
LINE
  5
89
330
1F
100
AcDbEntity
  8
0
  6
Continuous
 62
     7
100
AcDbLine
 10
231.9021334498
 20
316.8606021205
 30
0.0
 11
222.4021334498
 21
316.8606021205
 31
0.0
  0
LINE
  5
8A
330
1F
100
AcDbEntity
  8
A_ACHSEN
  6
HIDDEN
 62
   252
420
  8685188
100
AcDbLine
 10
223.102176301
 20
316.8606021205
 30
0.0
 11
231.1020905987
 21
316.8606021205
 31
0.0
  0
LINE
  5
8B
330
1F
100
AcDbEntity
  8
0
  6
Continuous
 62
     7
100
AcDbLine
 10
190.6398190144
 20
316.8606021205
 30
0.0
 11
190.7723503765
 21
316.8606021205
 31
0.0
  0
LINE
  5
8C
330
1F
100
AcDbEntity
  8
A_ACHSEN
  6
Continuous
 62
     7
100
AcDbLine
 10
180.5224607417
 20
316.5106021205
 30
0.0
 11
190.0222400114
 21
316.5106021205
 31
0.0
  0
LINE
  5
8D
330
1F
100
AcDbEntity
  8
A_RUNDUNGEN
  6
Continuous
 62
     7
100
AcDbLine
 10
231.6352606306
 20
315.6106021205
 30
0.0
 11
238.4793471629
 21
315.6106021205
 31
0.0
  0
LINE
  5
8E
330
1F
100
AcDbEntity
  8
0
  6
Continuous
 62
     7
100
AcDbLine
 10
231.7561362077828
 20
303.6106021205
 30
0.0
 11
220.8799704006
 21
303.6106021205
 31
0.0
  0
LINE
  5
8F
330
1F
100
AcDbEntity
  8
A_RUNDUNGEN
  6
Continuous
 62
     7
100
AcDbLine
 10
199.8471740939
 20
303.6106021205
 30
0.0
 11
202.0328033634
 21
303.6106021205
 31
0.0
  0
LINE
  5
90
330
1F
100
AcDbEntity
  8
A_RUNDUNGEN
  6
Continuous
 62
     7
100
AcDbLine
 10
230.8403116527
 20
302.3106021205
 30
0.0
 11
228.6984449171
 21
302.3106021205
 31
0.0
  0
LINE
  5
91
330
1F
100
AcDbEntity
  8
0
  6
Continuous
 62
     7
100
AcDbLine
 10
190.4529270762291
 20
302.3106021205001
 30
0.0
 11
212.8799704006
 21
302.3106021205
 31
0.0
  0
LINE
  5
92
330
1F
100
AcDbEntity
  8
0
  6
Continuous
 62
     7
100
AcDbLine
 10
254.4021334498
 20
328.1106021205
 30
0.0
 11
254.4021334498
 21
364.2106021205
 31
0.0
  0
LINE
  5
93
330
1F
100
AcDbEntity
  8
0
  6
Continuous
 62
     7
100
AcDbLine
 10
251.9021334498
 20
318.1106021205
 30
0.0
 11
251.6402742341
 21
328.1106021205
 31
0.0
  0
LINE
  5
94
330
1F
100
AcDbEntity
  8
A_ACHSEN
  6
DOT_CENTER
 62
     2
100
AcDbLine
 10
247.9021334498
 20
373.0970724655
 30
0.0
 11
247.9021334498
 21
367.2106021205
 31
0.0
  0
LINE
  5
95
330
1F
100
AcDbEntity
  8
A_ACHSEN
  6
DOT_CENTER
 62
     2
100
AcDbLine
 10
247.9021334498
 20
360.7434956403
 30
0.0
 11
247.9021334498
 21
367.2106021205
 31
0.0
  0
LINE
  5
96
330
1F
100
AcDbEntity
  8
0
  6
Continuous
 62
     7
100
AcDbLine
 10
238.4793471629
 20
285.7106021205
 30
0.0
 11
238.4793471629
 21
315.6106021205
 31
0.0
  0
LINE
  5
97
330
1F
100
AcDbEntity
  8
0
  6
DASHED
 62
     2
100
AcDbLine
 10
236.5021334498
 20
350.1106021205
 30
0.0
 11
236.5021334498
 21
357.1106021205
 31
0.0
  0
LINE
  5
98
330
1F
100
AcDbEntity
  8
A_ACHSEN
  6
DASHED
 62
     2
100
AcDbLine
 10
234.8521334498
 20
356.4473003897
 30
0.0
 11
234.8521334498
 21
357.1106021205
 31
0.0
  0
LINE
  5
99
330
1F
100
AcDbEntity
  8
A_ACHSEN
  6
DASHED
 62
     2
100
AcDbLine
 10
234.8521334498
 20
350.1106021205
 30
0.0
 11
234.8521334498
 21
356.4473003897
 31
0.0
  0
LINE
  5
9A
330
1F
100
AcDbEntity
  8
A_ACHSEN
  6
DOT_CENTER
 62
     2
100
AcDbLine
 10
232.9021334498
 20
373.4450605451
 30
0.0
 11
232.9021334498
 21
367.2106021205
 31
0.0
  0
LINE
  5
9B
330
1F
100
AcDbEntity
  8
A_ACHSEN
  6
DOT_CENTER
 62
     2
100
AcDbLine
 10
232.9021334498
 20
359.7865284215
 30
0.0
 11
232.9021334498
 21
367.2106021205
 31
0.0
  0
LINE
  5
9C
330
1F
100
AcDbEntity
  8
A_ACHSEN
  6
DOT_CENTER
 62
     2
100
AcDbLine
 10
232.2521334498
 20
361.8856021204999
 30
0.0
 11
232.2521334498
 21
353.1106021205
 31
0.0
  0
LINE
  5
9D
330
1F
100
AcDbEntity
  8
A_ACHSEN
  6
DOT_CENTER
 62
     2
100
AcDbLine
 10
232.2521334498
 20
345.3356021205
 30
0.0
 11
232.2521334498
 21
353.1106021205
 31
0.0
  0
LINE
  5
9E
330
1F
100
AcDbEntity
  8
0
  6
Continuous
 62
     7
100
AcDbLine
 10
231.9021334498
 20
316.8606021205
 30
0.0
 11
231.9021334498
 21
318.1106021205
 31
0.0
  0
LINE
  5
9F
330
1F
100
AcDbEntity
  8
A_ACHSEN
  6
Continuous
 62
     7
100
AcDbLine
 10
231.7561362077828
 20
303.6106021205
 30
0.0
 11
231.7561362077828
 21
315.6106021205
 31
0.0
  0
LINE
  5
A0
330
1F
100
AcDbEntity
  8
A_ACHSEN
  6
Continuous
 62
     7
100
AcDbLine
 10
231.1021334498
 20
315.6106021205
 30
0.0
 11
231.1021334498
 21
316.5106021205
 31
0.0
  0
LINE
  5
A1
330
1F
100
AcDbEntity
  8
A_ACHSEN
  6
DASHED
 62
     2
100
AcDbLine
 10
229.6521334498
 20
356.4472087982
 30
0.0
 11
229.6521334498
 21
350.1106021205
 31
0.0
  0
LINE
  5
A2
330
1F
100
AcDbEntity
  8
A_ACHSEN
  6
DASHED
 62
     2
100
AcDbLine
 10
229.6521334498
 20
357.1106021205
 30
0.0
 11
229.6521334498
 21
356.4472087982
 31
0.0
  0
LINE
  5
A3
330
1F
100
AcDbEntity
  8
0
  6
DASHED
 62
     2
100
AcDbLine
 10
228.0021334498
 20
357.1106021205
 30
0.0
 11
228.0021334498
 21
350.1106021205
 31
0.0
  0
LINE
  5
A4
330
1F
100
AcDbEntity
  8
0
  6
Continuous
 62
     7
100
AcDbLine
 10
226.4021334498
 20
328.1106021205
 30
0.0
 11
226.4021334498
 21
364.2106021205
 31
0.0
  0
LINE
  5
A5
330
1F
100
AcDbEntity
  8
A_ACHSEN
  6
Continuous
 62
     7
100
AcDbLine
 10
223.1021334498
 20
315.6106021205
 30
0.0
 11
223.1021334498
 21
316.8606021205
 31
0.0
  0
LINE
  5
A6
330
1F
100
AcDbEntity
  8
0
  6
Continuous
 62
     7
100
AcDbLine
 10
222.4021334498
 20
316.8606021205
 30
0.0
 11
222.4021334498
 21
318.1106021205
 31
0.0
  0
LINE
  5
A7
330
1F
100
AcDbEntity
  8
0
  6
Continuous
 62
     7
100
AcDbLine
 10
222.4021334498
 20
318.1106021205
 30
0.0
 11
222.6639926655
 21
328.1106021205
 31
0.0
  0
LINE
  5
A8
330
1F
100
AcDbEntity
  8
0
  6
Continuous
 62
     7
100
AcDbLine
 10
214.0849367752
 20
303.6106021205
 30
0.0
 11
214.0849367752
 21
315.6106021205
 31
0.0
  0
LINE
  5
A9
330
1F
100
AcDbEntity
  8
A_RUNDUNGEN
  6
Continuous
 62
     7
100
AcDbLine
 10
199.8471740939
 20
303.2842929626
 30
0.0
 11
199.8447977327
 21
303.175961738
 31
0.0
  0
LINE
  5
AA
330
1F
100
AcDbEntity
  8
0
  6
Continuous
 62
     7
100
AcDbLine
 10
200.1398190144
 20
318.1106021205
 30
0.0
 11
200.1398190144
 21
316.8606021205
 31
0.0
  0
LINE
  5
AB
330
1F
100
AcDbEntity
  8
A_RUNDUNGEN
  6
Continuous
 62
     7
100
AcDbLine
 10
199.8471740939
 20
303.6106021205
 30
0.0
 11
199.8471740939
 21
303.175961738
 31
0.0
  0
LINE
  5
AC
330
1F
100
AcDbEntity
  8
0
  6
Continuous
 62
     7
100
AcDbLine
 10
196.2398190144
 20
338.2106021204999
 30
0.0
 11
196.2398190144
 21
364.3106021205
 31
0.0
  0
LINE
  5
AD
330
1F
100
AcDbEntity
  8
0
  6
Continuous
 62
     7
100
AcDbLine
 10
199.872722614386
 20
328.3106021205
 30
0.0
 11
200.1398190144
 21
318.1106021205
 31
0.0
  0
LINE
  5
AE
330
1F
100
AcDbEntity
  8
0
  6
Continuous
 62
     7
100
AcDbLine
 10
190.6398190144
 20
318.1106021205
 30
0.0
 11
190.6398190144
 21
316.8606021205
 31
0.0
  0
LINE
  5
AF
330
1F
100
AcDbEntity
  8
A_RUNDUNGEN
  6
Continuous
 62
     7
100
AcDbLine
 10
190.3263577307
 20
285.7106021205
 30
0.0
 11
190.3263577307
 21
301.6106021205
 31
0.0
  0
LINE
  5
B0
330
1F
100
AcDbEntity
  8
A_ACHSEN
  6
Continuous
 62
     7
100
AcDbLine
 10
190.0223503765
 20
315.6106021205
 30
0.0
 11
190.0223503765
 21
316.5106021205
 31
0.0
  0
LINE
  5
B1
330
1F
100
AcDbEntity
  8
A_ACHSEN
  6
DOT_CENTER
 62
     2
100
AcDbLine
 10
189.7398190144
 20
374.3106021205
 30
0.0
 11
189.7398190144
 21
367.2106021205
 31
0.0
  0
LINE
  5
B2
330
1F
100
AcDbEntity
  8
A_ACHSEN
  6
DOT_CENTER
 62
     2
100
AcDbLine
 10
189.7398190144
 20
361.2032590645
 30
0.0
 11
189.7398190144
 21
367.2106021205
 31
0.0
  0
LINE
  5
B3
330
1F
100
AcDbEntity
  8
A_ACHSEN
  6
Continuous
 62
     7
100
AcDbLine
 10
180.5223503765
 20
315.6106021205
 30
0.0
 11
180.5223503765
 21
316.5106021205
 31
0.0
  0
LINE
  5
B4
330
1F
100
AcDbEntity
  8
A_ACHSEN
  6
Continuous
 62
     7
100
AcDbLine
 10
180.2723503765
 20
285.7106021205
 30
0.0
 11
180.2723503765
 21
315.6106021205
 31
0.0
  0
LINE
  5
B5
330
1F
100
AcDbEntity
  8
A_ACHSEN
  6
DOT_CENTER
 62
     2
100
AcDbLine
 10
174.7398190144
 20
374.3106021205
 30
0.0
 11
174.7398190144
 21
367.2106021205
 31
0.0
  0
LINE
  5
B6
330
1F
100
AcDbEntity
  8
A_ACHSEN
  6
DOT_CENTER
 62
     2
100
AcDbLine
 10
174.7398190144
 20
360.1106021205
 30
0.0
 11
174.7398190144
 21
367.2106021205
 31
0.0
  0
LINE
  5
B7
330
1F
100
AcDbEntity
  8
0
  6
Continuous
 62
     7
100
AcDbLine
 10
169.5398190144
 20
318.1106021205
 30
0.0
 11
169.5398190144
 21
328.3106021205
 31
0.0
  0
LINE
  5
B8
330
1F
100
AcDbEntity
  8
A_RUNDUNGEN
  6
Continuous
 62
     7
100
AcDbLine
 10
168.7398190144
 20
285.7106021205
 30
0.0
 11
168.7398190144
 21
328.3106021205
 31
0.0
  0
LINE
  5
B9
330
1F
100
AcDbEntity
  8
0
  6
Continuous
 62
     7
100
AcDbLine
 10
168.2398190144
 20
364.3106021204999
 30
0.0
 11
168.2398190144
 21
328.3106021205
 31
0.0
  0
LINE
  5
BA
330
1F
100
AcDbEntity
  8
A_ACHSEN
  6
DOT_CENTER
 62
     2
100
AcDbLine
 10
183.8398190144
 20
367.2106021205
 30
0.0
 11
183.913108079553
 21
367.2106021205
 31
0.0
  0
LINE
  5
BB
330
1F
100
AcDbEntity
  8
0
  6
Continuous
 62
     7
100
AcDbLine
 10
169.5398190144
 20
285.7106021205
 30
0.0
 11
169.5398190144
 21
318.1106021205
 31
0.0
  0
LINE
  5
BC
330
1F
100
AcDbEntity
  8
0
  6
Continuous
 62
     7
100
AcDbLine
 10
168.2398190144
 20
328.3106021205
 30
0.0
 11
168.7398190144
 21
328.3106021205
 31
0.0
  0
LINE
  5
BD
330
1F
100
AcDbEntity
  8
0
  6
Continuous
 62
     7
100
AcDbLine
 10
168.7398190144
 20
328.3106021205
 30
0.0
 11
169.5398190144
 21
328.3106021205
 31
0.0
  0
LINE
  5
BE
330
1F
100
AcDbEntity
  8
0
  6
Continuous
 62
     7
100
AcDbLine
 10
169.5398190144
 20
328.3106021205
 30
0.0
 11
199.872722614386
 21
328.3106021205
 31
0.0
  0
LINE
  5
BF
330
1F
100
AcDbEntity
  8
A_ACHSEN
  6
DOT_CENTER
 62
     2
100
AcDbLine
 10
185.2723503765
 20
285.7106021205
 30
0.0
 11
185.2723503765
 21
324.317388239
 31
0.0
  0
LINE
  5
C0
330
1F
100
AcDbEntity
  8
A_ACHSEN
  6
Continuous
 62
     7
100
AcDbLine
 10
191.5398190144
 20
315.6106021205
 30
0.0
 11
191.5398190144
 21
316.8606021205
 31
0.0
  0
LINE
  5
C1
330
1F
100
AcDbEntity
  8
A_ACHSEN
  6
Continuous
 62
     7
100
AcDbLine
 10
199.5398190144
 20
315.6106021205
 30
0.0
 11
199.5398190144
 21
316.8606021205
 31
0.0
  0
LINE
  5
C2
330
1F
100
AcDbEntity
  8
A_RUNDUNGEN
  6
Continuous
 62
     7
100
AcDbLine
 10
192.3274595483
 20
303.6106021205
 30
0.0
 11
199.8471740939
 21
303.6106021205
 31
0.0
  0
LINE
  5
C3
330
1F
100
AcDbEntity
  8
DEFAULT_1
  6
DOT_CENTER
 62
     2
100
AcDbLine
 10
195.5398190144
 20
317.6106021205
 30
0.0
 11
195.5398190144
 21
285.7106021205
 31
0.0
  0
LINE
  5
C4
330
1F
100
AcDbEntity
  8
DEFAULT_1
  6
DOT_CENTER
 62
     2
100
AcDbLine
 10
216.8799704006
 20
317.6106021205
 30
0.0
 11
216.8799704006
 21
285.7106021205
 31
0.0
  0
LINE
  5
C5
330
1F
100
AcDbEntity
  8
A_ACHSEN
  6
Continuous
 62
     7
100
AcDbLine
 10
223.1021334498
 20
302.3606021205
 30
0.0
 11
223.1021334498
 21
303.6106021205
 31
0.0
  0
LINE
  5
C6
330
1F
100
AcDbEntity
  8
DEFAULT_1
  6
DOT_CENTER
 62
     2
100
AcDbLine
 10
227.1021334498
 20
317.6106021205
 30
0.0
 11
227.1021334498
 21
285.7106021205
 31
0.0
  0
LINE
  5
C7
330
1F
100
AcDbEntity
  8
DEFAULT_1
  6
DOT_CENTER
 62
     2
100
AcDbLine
 10
234.4793471629
 20
325.9245406051
 30
0.0
 11
234.4793471629
 21
285.7106021205
 31
0.0
  0
LINE
  5
C8
330
1F
100
AcDbEntity
  8
A_RUNDUNGEN
  6
Continuous
 62
     7
100
AcDbLine
 10
253.2021334498
 20
328.1106021205
 30
0.0
 11
253.2021334498
 21
285.7106021205
 31
0.0
  0
LINE
  5
C9
330
1F
100
AcDbEntity
  8
0
  6
Continuous
 62
     7
100
AcDbLine
 10
222.6639926655
 20
328.1106021205
 30
0.0
 11
226.4021334498
 21
328.1106021205
 31
0.0
  0
LINE
  5
CA
330
1F
100
AcDbEntity
  8
A_ACHSEN
  6
DOT_CENTER
 62
     2
100
AcDbLine
 10
226.4771334498
 20
357.1106021205
 30
0.0
 11
232.2521334498
 21
357.1106021205
 31
0.0
  0
LINE
  5
CB
330
1F
100
AcDbEntity
  8
A_ACHSEN
  6
DOT_CENTER
 62
     2
100
AcDbLine
 10
238.0271334498
 20
357.1106021205
 30
0.0
 11
232.2521334498
 21
357.1106021205
 31
0.0
  0
LINE
  5
CC
330
1F
100
AcDbEntity
  8
A_ACHSEN
  6
DOT_CENTER
 62
     2
100
AcDbLine
 10
226.4771334498
 20
350.1106021205
 30
0.0
 11
232.2521334498
 21
350.1106021205
 31
0.0
  0
LINE
  5
CD
330
1F
100
AcDbEntity
  8
A_ACHSEN
  6
DOT_CENTER
 62
     2
100
AcDbLine
 10
238.0271334498
 20
350.1106021205
 30
0.0
 11
232.2521334498
 21
350.1106021205
 31
0.0
  0
LINE
  5
CE
330
1F
100
AcDbEntity
  8
A_ACHSEN
  6
DOT_CENTER
 62
     2
100
AcDbLine
 10
248.5521334498
 20
350.1106021205
 30
0.0
 11
242.7771334498
 21
350.1106021205
 31
0.0
  0
LINE
  5
CF
330
1F
100
AcDbEntity
  8
A_ACHSEN
  6
DOT_CENTER
 62
     2
100
AcDbLine
 10
248.5521334498
 20
350.1106021205
 30
0.0
 11
254.3271334498
 21
350.1106021205
 31
0.0
  0
LINE
  5
D0
330
1F
100
AcDbEntity
  8
A_ACHSEN
  6
DOT_CENTER
 62
     2
100
AcDbLine
 10
248.5521334498
 20
357.1106021205
 30
0.0
 11
242.7771334498
 21
357.1106021205
 31
0.0
  0
LINE
  5
D1
330
1F
100
AcDbEntity
  8
A_ACHSEN
  6
DOT_CENTER
 62
     2
100
AcDbLine
 10
248.5521334498
 20
357.1106021205
 30
0.0
 11
254.3271334498
 21
357.1106021205
 31
0.0
  0
LINE
  5
D2
330
1F
100
AcDbEntity
  8
0
  6
DASHED
 62
     2
100
AcDbLine
 10
252.8021334498
 20
350.1106021205
 30
0.0
 11
252.8021334498
 21
357.1106021205
 31
0.0
  0
LINE
  5
D3
330
1F
100
AcDbEntity
  8
A_ACHSEN
  6
DASHED
 62
     2
100
AcDbLine
 10
251.1521334498
 20
356.4472087982
 30
0.0
 11
251.1521334498
 21
357.1106021205
 31
0.0
  0
LINE
  5
D4
330
1F
100
AcDbEntity
  8
A_ACHSEN
  6
DASHED
 62
     2
100
AcDbLine
 10
251.1521334498
 20
350.1106021205
 30
0.0
 11
251.1521334498
 21
356.4472087982
 31
0.0
  0
LINE
  5
D5
330
1F
100
AcDbEntity
  8
A_ACHSEN
  6
DOT_CENTER
 62
     2
100
AcDbLine
 10
248.5521334498
 20
353.1106021205
 30
0.0
 11
248.5521334498
 21
345.3356021205
 31
0.0
  0
LINE
  5
D6
330
1F
100
AcDbEntity
  8
A_ACHSEN
  6
DASHED
 62
     2
100
AcDbLine
 10
245.9521334498
 20
356.4473003897
 30
0.0
 11
245.9521334498
 21
350.1106021205
 31
0.0
  0
LINE
  5
D7
330
1F
100
AcDbEntity
  8
A_ACHSEN
  6
DASHED
 62
     2
100
AcDbLine
 10
245.9521334498
 20
357.1106021205
 30
0.0
 11
245.9521334498
 21
356.4473003897
 31
0.0
  0
LINE
  5
D8
330
1F
100
AcDbEntity
  8
0
  6
DASHED
 62
     2
100
AcDbLine
 10
244.3021334498
 20
357.1106021205
 30
0.0
 11
244.3021334498
 21
350.1106021205
 31
0.0
  0
LINE
  5
D9
330
1F
100
AcDbEntity
  8
A_ACHSEN
  6
DOT_CENTER
 62
     2
100
AcDbLine
 10
248.5521334498
 20
353.6106021205002
 30
0.0
 11
254.3271334498
 21
353.6106021205002
 31
0.0
  0
LINE
  5
DA
330
1F
100
AcDbEntity
  8
A_ACHSEN
  6
DOT_CENTER
 62
     2
100
AcDbLine
 10
248.5521334498
 20
353.6106021205002
 30
0.0
 11
242.7771334498
 21
353.6106021205002
 31
0.0
  0
LINE
  5
DB
330
1F
100
AcDbEntity
  8
A_ACHSEN
  6
DOT_CENTER
 62
     2
100
AcDbLine
 10
248.5521334498
 20
353.1106021205
 30
0.0
 11
248.5521334498
 21
361.8856021204999
 31
0.0
  0
LINE
  5
DC
330
1F
100
AcDbEntity
  8
0
  6
Continuous
 62
     7
100
AcDbLine
 10
254.3021334498
 20
285.7106021205
 30
0.0
 11
254.4021334498
 21
328.1106021205
 31
0.0
  0
LINE
  5
DD
330
1F
100
AcDbEntity
  8
0
  6
Continuous
 62
     7
100
AcDbLine
 10
226.4021334498
 20
328.1106021205
 30
0.0
 11
253.2021334498
 21
328.1106021205
 31
0.0
  0
LINE
  5
DE
330
1F
100
AcDbEntity
  8
1
  6
DOT_CENTER
 62
     2
100
AcDbLine
 10
188.6660157616149
 20
362.1106021205
 30
0.0
 11
176.5426404185107
 21
362.1106021204998
 31
0.0
  0
LINE
  5
DF
330
1F
100
AcDbEntity
  8
1
  6
DOT_CENTER
 62
     2
100
AcDbLine
 10
182.2398190144
 20
355.7521056967948
 30
0.0
 11
182.2398190144
 21
368.255973353266
 31
0.0
  0
LINE
  5
E0
330
1F
100
AcDbEntity
  8
1
  6
Continuous
 62
     7
100
AcDbLine
 10
182.7398190144
 20
363.1106021205
 30
0.0
 11
182.9898190144
 21
362.8606021205
 31
0.0
  0
LINE
  5
E1
330
1F
100
AcDbEntity
  8
1
  6
Continuous
 62
     2
100
AcDbLine
 10
183.8308092720697
 20
363.7015923781697
 30
0.0
 11
182.9898190144
 21
362.8606021205
 31
0.0
  0
LINE
  5
E2
330
1F
100
AcDbEntity
  8
1
  6
Continuous
 62
     7
100
AcDbLine
 10
181.2398190144
 20
362.6106021205
 30
0.0
 11
181.4898190144
 21
362.8606021205
 31
0.0
  0
LINE
  5
E3
330
1F
100
AcDbEntity
  8
1
  6
Continuous
 62
     2
100
AcDbLine
 10
180.6488287567303
 20
363.7015923781697
 30
0.0
 11
181.4898190144
 21
362.8606021205
 31
0.0
  0
LINE
  5
E4
330
1F
100
AcDbEntity
  8
1
  6
Continuous
 62
     7
100
AcDbLine
 10
181.2398190144
 20
361.6106021205
 30
0.0
 11
181.4898190144
 21
361.3606021205
 31
0.0
  0
LINE
  5
E5
330
1F
100
AcDbEntity
  8
1
  6
Continuous
 62
     2
100
AcDbLine
 10
180.6488287567303
 20
360.5196118628302
 30
0.0
 11
181.4898190144
 21
361.3606021205
 31
0.0
  0
LINE
  5
E6
330
1F
100
AcDbEntity
  8
1
  6
Continuous
 62
     7
100
AcDbLine
 10
183.2398190144
 20
361.6106021205
 30
0.0
 11
182.9898190144
 21
361.3606021205
 31
0.0
  0
LINE
  5
E7
330
1F
100
AcDbEntity
  8
1
  6
Continuous
 62
     2
100
AcDbLine
 10
183.8308092720697
 20
360.5196118628302
 30
0.0
 11
182.9898190144
 21
361.3606021205
 31
0.0
  0
LINE
  5
E8
330
1F
100
AcDbEntity
  8
1
  6
Continuous
 62
     7
100
AcDbLine
 10
181.4898190144
 20
362.8606021205
 30
0.0
 11
181.7398190144
 21
363.1106021205
 31
0.0
  0
LINE
  5
E9
330
1F
100
AcDbEntity
  8
1
  6
Continuous
 62
     7
100
AcDbLine
 10
182.9898190144
 20
362.8606021205
 30
0.0
 11
183.2398190144
 21
362.6106021205
 31
0.0
  0
LINE
  5
EA
330
1F
100
AcDbEntity
  8
1
  6
Continuous
 62
     7
100
AcDbLine
 10
182.9898190144
 20
361.3606021205
 30
0.0
 11
182.7398190144
 21
361.1106021205
 31
0.0
  0
LINE
  5
EB
330
1F
100
AcDbEntity
  8
1
  6
Continuous
 62
     7
100
AcDbLine
 10
181.4898190144
 20
361.3606021205
 30
0.0
 11
181.7398190144
 21
361.1106021205
 31
0.0
  0
LINE
  5
EC
330
1F
100
AcDbEntity
  8
1
  6
Continuous
 62
     7
100
AcDbLine
 10
181.7398190144
 20
359.8606021205
 30
0.0
 11
181.7398190144
 21
361.1106021205
 31
0.0
  0
LINE
  5
ED
330
1F
100
AcDbEntity
  8
1
  6
Continuous
 62
     7
100
AcDbLine
 10
181.2398190144
 20
361.6106021205
 30
0.0
 11
179.9898190144
 21
361.6106021205
 31
0.0
  0
LINE
  5
EE
330
1F
100
AcDbEntity
  8
1
  6
Continuous
 62
     7
100
AcDbLine
 10
179.9898190144
 20
361.6106021205
 30
0.0
 11
179.9898190144
 21
362.6106021205
 31
0.0
  0
LINE
  5
EF
330
1F
100
AcDbEntity
  8
1
  6
Continuous
 62
     7
100
AcDbLine
 10
179.9898190144
 20
362.6106021205
 30
0.0
 11
181.2398190144
 21
362.6106021205
 31
0.0
  0
LINE
  5
F0
330
1F
100
AcDbEntity
  8
1
  6
Continuous
 62
     7
100
AcDbLine
 10
181.7398190144
 20
363.1106021205
 30
0.0
 11
181.7398190144
 21
364.3606021205
 31
0.0
  0
LINE
  5
F1
330
1F
100
AcDbEntity
  8
1
  6
Continuous
 62
     7
100
AcDbLine
 10
181.7398190144
 20
364.3606021205
 30
0.0
 11
182.7398190144
 21
364.3606021205
 31
0.0
  0
LINE
  5
F2
330
1F
100
AcDbEntity
  8
1
  6
Continuous
 62
     7
100
AcDbLine
 10
182.7398190144
 20
364.3606021205
 30
0.0
 11
182.7398190144
 21
363.1106021205
 31
0.0
  0
LINE
  5
F3
330
1F
100
AcDbEntity
  8
1
  6
Continuous
 62
     7
100
AcDbLine
 10
183.2398190144
 20
362.6106021205
 30
0.0
 11
184.4898190144
 21
362.6106021205
 31
0.0
  0
LINE
  5
F4
330
1F
100
AcDbEntity
  8
1
  6
Continuous
 62
     7
100
AcDbLine
 10
184.4898190144
 20
362.6106021205
 30
0.0
 11
184.4898190144
 21
361.6106021205
 31
0.0
  0
LINE
  5
F5
330
1F
100
AcDbEntity
  8
1
  6
Continuous
 62
     7
100
AcDbLine
 10
184.4898190144
 20
361.6106021205
 30
0.0
 11
183.2398190144
 21
361.6106021205
 31
0.0
  0
LINE
  5
F6
330
1F
100
AcDbEntity
  8
1
  6
Continuous
 62
     7
100
AcDbLine
 10
182.7398190144
 20
361.1106021205
 30
0.0
 11
182.7398190144
 21
359.8606021205
 31
0.0
  0
LINE
  5
F7
330
1F
100
AcDbEntity
  8
1
  6
Continuous
 62
     7
100
AcDbLine
 10
182.7398190144
 20
359.8606021205
 30
0.0
 11
181.7398190144
 21
359.8606021205
 31
0.0
  0
LINE
  5
F8
330
1F
100
AcDbEntity
  8
1
  6
Continuous
 62
     7
100
AcDbLine
 10
240.9021334498
 20
363.1106021205001
 30
0.0
 11
241.1521334498
 21
362.8606021205001
 31
0.0
  0
LINE
  5
F9
330
1F
100
AcDbEntity
  8
1
  6
Continuous
 62
     2
100
AcDbLine
 10
241.9931237074697
 20
363.7015923781698
 30
0.0
 11
241.1521334498
 21
362.8606021205001
 31
0.0
  0
LINE
  5
FA
330
1F
100
AcDbEntity
  8
1
  6
Continuous
 62
     7
100
AcDbLine
 10
239.4021334498
 20
362.6106021205001
 30
0.0
 11
239.6521334498
 21
362.8606021205001
 31
0.0
  0
LINE
  5
FB
330
1F
100
AcDbEntity
  8
1
  6
Continuous
 62
     2
100
AcDbLine
 10
238.8111431921302
 20
363.7015923781698
 30
0.0
 11
239.6521334498
 21
362.8606021205001
 31
0.0
  0
LINE
  5
FC
330
1F
100
AcDbEntity
  8
1
  6
Continuous
 62
     7
100
AcDbLine
 10
239.4021334498
 20
361.6106021205001
 30
0.0
 11
239.6521334498
 21
361.3606021205001
 31
0.0
  0
LINE
  5
FD
330
1F
100
AcDbEntity
  8
1
  6
Continuous
 62
     2
100
AcDbLine
 10
238.8111431921302
 20
360.5196118628303
 30
0.0
 11
239.6521334498
 21
361.3606021205001
 31
0.0
  0
LINE
  5
FE
330
1F
100
AcDbEntity
  8
1
  6
Continuous
 62
     7
100
AcDbLine
 10
241.4021334498
 20
361.6106021205001
 30
0.0
 11
241.1521334498
 21
361.3606021205001
 31
0.0
  0
LINE
  5
FF
330
1F
100
AcDbEntity
  8
1
  6
Continuous
 62
     2
100
AcDbLine
 10
241.9931237074697
 20
360.5196118628303
 30
0.0
 11
241.1521334498
 21
361.3606021205001
 31
0.0
  0
LINE
  5
100
330
1F
100
AcDbEntity
  8
1
  6
Continuous
 62
     7
100
AcDbLine
 10
239.6521334498
 20
362.8606021205001
 30
0.0
 11
239.9021334498
 21
363.1106021205001
 31
0.0
  0
LINE
  5
101
330
1F
100
AcDbEntity
  8
1
  6
Continuous
 62
     7
100
AcDbLine
 10
241.1521334498
 20
362.8606021205001
 30
0.0
 11
241.4021334498
 21
362.6106021205001
 31
0.0
  0
LINE
  5
102
330
1F
100
AcDbEntity
  8
1
  6
Continuous
 62
     7
100
AcDbLine
 10
241.1521334498
 20
361.3606021205001
 30
0.0
 11
240.9021334498
 21
361.1106021205001
 31
0.0
  0
LINE
  5
103
330
1F
100
AcDbEntity
  8
1
  6
Continuous
 62
     7
100
AcDbLine
 10
239.6521334498
 20
361.3606021205001
 30
0.0
 11
239.9021334498
 21
361.1106021205001
 31
0.0
  0
LINE
  5
104
330
1F
100
AcDbEntity
  8
1
  6
Continuous
 62
     7
100
AcDbLine
 10
239.9021334498
 20
359.8606021205001
 30
0.0
 11
239.9021334498
 21
361.1106021205001
 31
0.0
  0
LINE
  5
105
330
1F
100
AcDbEntity
  8
1
  6
Continuous
 62
     7
100
AcDbLine
 10
239.4021334498
 20
361.6106021205001
 30
0.0
 11
238.1521334498
 21
361.6106021205001
 31
0.0
  0
LINE
  5
106
330
1F
100
AcDbEntity
  8
1
  6
Continuous
 62
     7
100
AcDbLine
 10
238.1521334498
 20
361.6106021205001
 30
0.0
 11
238.1521334498
 21
362.6106021205001
 31
0.0
  0
LINE
  5
107
330
1F
100
AcDbEntity
  8
1
  6
Continuous
 62
     7
100
AcDbLine
 10
238.1521334498
 20
362.6106021205001
 30
0.0
 11
239.4021334498
 21
362.6106021205001
 31
0.0
  0
LINE
  5
108
330
1F
100
AcDbEntity
  8
1
  6
Continuous
 62
     7
100
AcDbLine
 10
239.9021334498
 20
363.1106021205001
 30
0.0
 11
239.9021334498
 21
364.3606021205001
 31
0.0
  0
LINE
  5
109
330
1F
100
AcDbEntity
  8
1
  6
Continuous
 62
     7
100
AcDbLine
 10
239.9021334498
 20
364.3606021205001
 30
0.0
 11
240.9021334498
 21
364.3606021205001
 31
0.0
  0
LINE
  5
10A
330
1F
100
AcDbEntity
  8
1
  6
Continuous
 62
     7
100
AcDbLine
 10
240.9021334498
 20
364.3606021205001
 30
0.0
 11
240.9021334498
 21
363.1106021205001
 31
0.0
  0
LINE
  5
10B
330
1F
100
AcDbEntity
  8
1
  6
Continuous
 62
     7
100
AcDbLine
 10
241.4021334498
 20
362.6106021205001
 30
0.0
 11
242.6521334498
 21
362.6106021205001
 31
0.0
  0
LINE
  5
10C
330
1F
100
AcDbEntity
  8
1
  6
Continuous
 62
     7
100
AcDbLine
 10
242.6521334498
 20
362.6106021205001
 30
0.0
 11
242.6521334498
 21
361.6106021205001
 31
0.0
  0
LINE
  5
10D
330
1F
100
AcDbEntity
  8
1
  6
Continuous
 62
     7
100
AcDbLine
 10
242.6521334498
 20
361.6106021205001
 30
0.0
 11
241.4021334498
 21
361.6106021205001
 31
0.0
  0
LINE
  5
10E
330
1F
100
AcDbEntity
  8
1
  6
Continuous
 62
     7
100
AcDbLine
 10
240.9021334498
 20
361.1106021205001
 30
0.0
 11
240.9021334498
 21
359.8606021205001
 31
0.0
  0
LINE
  5
10F
330
1F
100
AcDbEntity
  8
1
  6
Continuous
 62
     7
100
AcDbLine
 10
240.9021334498
 20
359.8606021205001
 30
0.0
 11
239.9021334498
 21
359.8606021205001
 31
0.0
  0
LINE
  5
110
330
1F
100
AcDbEntity
  8
1
  6
DOT_CENTER
 62
     2
100
AcDbLine
 10
240.4021334498
 20
355.7521056967948
 30
0.0
 11
240.4021334498
 21
368.2559733532661
 31
0.0
  0
LINE
  5
111
330
1F
100
AcDbEntity
  8
1
  6
DOT_CENTER
 62
     2
100
AcDbLine
 10
246.8283301970148
 20
362.1106021205001
 30
0.0
 11
234.7049548539107
 21
362.1106021204998
 31
0.0
  0
LINE
  5
112
330
1F
100
AcDbEntity
  8
1
  6
DOT_CENTER
 62
     2
100
AcDbLine
 10
234.7049548539107
 20
209.3106021205001
 30
0.0
 11
246.8283301970148
 21
209.3106021204999
 31
0.0
  0
LINE
  5
113
330
1F
100
AcDbEntity
  8
1
  6
DOT_CENTER
 62
     2
100
AcDbLine
 10
240.4021334498
 20
203.1652308877339
 30
0.0
 11
240.4021334498
 21
215.6690985442051
 31
0.0
  0
LINE
  5
114
330
1F
100
AcDbEntity
  8
1
  6
Continuous
 62
     7
100
AcDbLine
 10
239.9021334498
 20
211.5606021204999
 30
0.0
 11
240.9021334498
 21
211.5606021204999
 31
0.0
  0
LINE
  5
115
330
1F
100
AcDbEntity
  8
1
  6
Continuous
 62
     7
100
AcDbLine
 10
240.9021334498
 20
211.5606021204999
 30
0.0
 11
240.9021334498
 21
210.3106021204999
 31
0.0
  0
LINE
  5
116
330
1F
100
AcDbEntity
  8
1
  6
Continuous
 62
     7
100
AcDbLine
 10
241.4021334498
 20
209.8106021204999
 30
0.0
 11
242.6521334498
 21
209.8106021204999
 31
0.0
  0
LINE
  5
117
330
1F
100
AcDbEntity
  8
1
  6
Continuous
 62
     7
100
AcDbLine
 10
242.6521334498
 20
209.8106021204999
 30
0.0
 11
242.6521334498
 21
208.8106021204999
 31
0.0
  0
LINE
  5
118
330
1F
100
AcDbEntity
  8
1
  6
Continuous
 62
     7
100
AcDbLine
 10
242.6521334498
 20
208.8106021204999
 30
0.0
 11
241.4021334498
 21
208.8106021204999
 31
0.0
  0
LINE
  5
119
330
1F
100
AcDbEntity
  8
1
  6
Continuous
 62
     7
100
AcDbLine
 10
240.9021334498
 20
208.3106021204999
 30
0.0
 11
240.9021334498
 21
207.0606021204999
 31
0.0
  0
LINE
  5
11A
330
1F
100
AcDbEntity
  8
1
  6
Continuous
 62
     7
100
AcDbLine
 10
240.9021334498
 20
207.0606021204999
 30
0.0
 11
239.9021334498
 21
207.0606021204999
 31
0.0
  0
LINE
  5
11B
330
1F
100
AcDbEntity
  8
1
  6
Continuous
 62
     7
100
AcDbLine
 10
239.9021334498
 20
207.0606021204999
 30
0.0
 11
239.9021334498
 21
208.3106021204999
 31
0.0
  0
LINE
  5
11C
330
1F
100
AcDbEntity
  8
1
  6
Continuous
 62
     7
100
AcDbLine
 10
239.4021334498
 20
208.8106021204999
 30
0.0
 11
238.1521334498
 21
208.8106021204999
 31
0.0
  0
LINE
  5
11D
330
1F
100
AcDbEntity
  8
1
  6
Continuous
 62
     7
100
AcDbLine
 10
238.1521334498
 20
208.8106021204999
 30
0.0
 11
238.1521334498
 21
209.8106021204999
 31
0.0
  0
LINE
  5
11E
330
1F
100
AcDbEntity
  8
1
  6
Continuous
 62
     7
100
AcDbLine
 10
238.1521334498
 20
209.8106021204999
 30
0.0
 11
239.4021334498
 21
209.8106021204999
 31
0.0
  0
LINE
  5
11F
330
1F
100
AcDbEntity
  8
1
  6
Continuous
 62
     7
100
AcDbLine
 10
239.9021334498
 20
210.3106021204999
 30
0.0
 11
239.9021334498
 21
211.5606021204999
 31
0.0
  0
LINE
  5
120
330
1F
100
AcDbEntity
  8
1
  6
Continuous
 62
     7
100
AcDbLine
 10
239.9021334498
 20
210.3106021204999
 30
0.0
 11
239.6521334498
 21
210.0606021204999
 31
0.0
  0
LINE
  5
121
330
1F
100
AcDbEntity
  8
1
  6
Continuous
 62
     7
100
AcDbLine
 10
240.9021334498
 20
210.3106021204999
 30
0.0
 11
241.1521334498
 21
210.0606021204999
 31
0.0
  0
LINE
  5
122
330
1F
100
AcDbEntity
  8
1
  6
Continuous
 62
     7
100
AcDbLine
 10
241.4021334498
 20
208.8106021204999
 30
0.0
 11
241.1521334498
 21
208.5606021204999
 31
0.0
  0
LINE
  5
123
330
1F
100
AcDbEntity
  8
1
  6
Continuous
 62
     7
100
AcDbLine
 10
239.9021334498
 20
208.3106021204999
 30
0.0
 11
239.6521334498
 21
208.5606021204999
 31
0.0
  0
LINE
  5
124
330
1F
100
AcDbEntity
  8
1
  6
Continuous
 62
     2
100
AcDbLine
 10
241.1521334498
 20
210.0606021204999
 30
0.0
 11
241.9931237074697
 21
210.9015923781697
 31
0.0
  0
LINE
  5
125
330
1F
100
AcDbEntity
  8
1
  6
Continuous
 62
     7
100
AcDbLine
 10
241.1521334498
 20
210.0606021204999
 30
0.0
 11
241.4021334498
 21
209.8106021204999
 31
0.0
  0
LINE
  5
126
330
1F
100
AcDbEntity
  8
1
  6
Continuous
 62
     2
100
AcDbLine
 10
239.6521334498
 20
210.0606021204999
 30
0.0
 11
238.8111431921302
 21
210.9015923781697
 31
0.0
  0
LINE
  5
127
330
1F
100
AcDbEntity
  8
1
  6
Continuous
 62
     7
100
AcDbLine
 10
239.6521334498
 20
210.0606021204999
 30
0.0
 11
239.4021334498
 21
209.8106021204999
 31
0.0
  0
LINE
  5
128
330
1F
100
AcDbEntity
  8
1
  6
Continuous
 62
     2
100
AcDbLine
 10
239.6521334498
 20
208.5606021204999
 30
0.0
 11
238.8111431921302
 21
207.7196118628302
 31
0.0
  0
LINE
  5
129
330
1F
100
AcDbEntity
  8
1
  6
Continuous
 62
     7
100
AcDbLine
 10
239.6521334498
 20
208.5606021204999
 30
0.0
 11
239.4021334498
 21
208.8106021204999
 31
0.0
  0
LINE
  5
12A
330
1F
100
AcDbEntity
  8
1
  6
Continuous
 62
     2
100
AcDbLine
 10
241.1521334498
 20
208.5606021204999
 30
0.0
 11
241.9931237074697
 21
207.7196118628302
 31
0.0
  0
LINE
  5
12B
330
1F
100
AcDbEntity
  8
1
  6
Continuous
 62
     7
100
AcDbLine
 10
241.1521334498
 20
208.5606021204999
 30
0.0
 11
240.9021334498
 21
208.3106021204999
 31
0.0
  0
LINE
  5
12C
330
1F
100
AcDbEntity
  8
1
  6
Continuous
 62
     7
100
AcDbLine
 10
181.7398190144
 20
211.5606021204999
 30
0.0
 11
182.7398190144
 21
211.5606021204999
 31
0.0
  0
LINE
  5
12D
330
1F
100
AcDbEntity
  8
1
  6
Continuous
 62
     7
100
AcDbLine
 10
182.7398190144
 20
211.5606021204999
 30
0.0
 11
182.7398190144
 21
210.3106021204999
 31
0.0
  0
LINE
  5
12E
330
1F
100
AcDbEntity
  8
1
  6
Continuous
 62
     7
100
AcDbLine
 10
183.2398190144
 20
209.8106021204999
 30
0.0
 11
184.4898190144
 21
209.8106021204999
 31
0.0
  0
LINE
  5
12F
330
1F
100
AcDbEntity
  8
1
  6
Continuous
 62
     7
100
AcDbLine
 10
184.4898190144
 20
209.8106021204999
 30
0.0
 11
184.4898190144
 21
208.8106021204999
 31
0.0
  0
LINE
  5
130
330
1F
100
AcDbEntity
  8
1
  6
Continuous
 62
     7
100
AcDbLine
 10
184.4898190144
 20
208.8106021204999
 30
0.0
 11
183.2398190144
 21
208.8106021204999
 31
0.0
  0
LINE
  5
131
330
1F
100
AcDbEntity
  8
1
  6
Continuous
 62
     7
100
AcDbLine
 10
182.7398190144
 20
208.3106021204999
 30
0.0
 11
182.7398190144
 21
207.0606021204999
 31
0.0
  0
LINE
  5
132
330
1F
100
AcDbEntity
  8
1
  6
Continuous
 62
     7
100
AcDbLine
 10
182.7398190144
 20
207.0606021204999
 30
0.0
 11
181.7398190144
 21
207.0606021204999
 31
0.0
  0
LINE
  5
133
330
1F
100
AcDbEntity
  8
1
  6
Continuous
 62
     7
100
AcDbLine
 10
181.7398190144
 20
207.0606021204999
 30
0.0
 11
181.7398190144
 21
208.3106021204999
 31
0.0
  0
LINE
  5
134
330
1F
100
AcDbEntity
  8
1
  6
Continuous
 62
     7
100
AcDbLine
 10
181.2398190144
 20
208.8106021204999
 30
0.0
 11
179.9898190144
 21
208.8106021204999
 31
0.0
  0
LINE
  5
135
330
1F
100
AcDbEntity
  8
1
  6
Continuous
 62
     7
100
AcDbLine
 10
179.9898190144
 20
208.8106021204999
 30
0.0
 11
179.9898190144
 21
209.8106021204999
 31
0.0
  0
LINE
  5
136
330
1F
100
AcDbEntity
  8
1
  6
Continuous
 62
     7
100
AcDbLine
 10
179.9898190144
 20
209.8106021204999
 30
0.0
 11
181.2398190144
 21
209.8106021204999
 31
0.0
  0
LINE
  5
137
330
1F
100
AcDbEntity
  8
1
  6
Continuous
 62
     7
100
AcDbLine
 10
181.7398190144
 20
210.3106021204999
 30
0.0
 11
181.7398190144
 21
211.5606021204999
 31
0.0
  0
LINE
  5
138
330
1F
100
AcDbEntity
  8
1
  6
Continuous
 62
     7
100
AcDbLine
 10
181.7398190144
 20
210.3106021204999
 30
0.0
 11
181.4898190144
 21
210.0606021204999
 31
0.0
  0
LINE
  5
139
330
1F
100
AcDbEntity
  8
1
  6
Continuous
 62
     7
100
AcDbLine
 10
182.7398190144
 20
210.3106021204999
 30
0.0
 11
182.9898190144
 21
210.0606021204999
 31
0.0
  0
LINE
  5
13A
330
1F
100
AcDbEntity
  8
1
  6
Continuous
 62
     7
100
AcDbLine
 10
183.2398190144
 20
208.8106021204999
 30
0.0
 11
182.9898190144
 21
208.5606021204999
 31
0.0
  0
LINE
  5
13B
330
1F
100
AcDbEntity
  8
1
  6
Continuous
 62
     7
100
AcDbLine
 10
181.7398190144
 20
208.3106021204999
 30
0.0
 11
181.4898190144
 21
208.5606021204999
 31
0.0
  0
LINE
  5
13C
330
1F
100
AcDbEntity
  8
1
  6
Continuous
 62
     2
100
AcDbLine
 10
182.9898190144
 20
210.0606021204999
 30
0.0
 11
183.8308092720697
 21
210.9015923781697
 31
0.0
  0
LINE
  5
13D
330
1F
100
AcDbEntity
  8
1
  6
Continuous
 62
     7
100
AcDbLine
 10
182.9898190144
 20
210.0606021204999
 30
0.0
 11
183.2398190144
 21
209.8106021204999
 31
0.0
  0
LINE
  5
13E
330
1F
100
AcDbEntity
  8
1
  6
Continuous
 62
     2
100
AcDbLine
 10
181.4898190144
 20
210.0606021204999
 30
0.0
 11
180.6488287567303
 21
210.9015923781697
 31
0.0
  0
LINE
  5
13F
330
1F
100
AcDbEntity
  8
1
  6
Continuous
 62
     7
100
AcDbLine
 10
181.4898190144
 20
210.0606021204999
 30
0.0
 11
181.2398190144
 21
209.8106021204999
 31
0.0
  0
LINE
  5
140
330
1F
100
AcDbEntity
  8
1
  6
Continuous
 62
     2
100
AcDbLine
 10
181.4898190144
 20
208.5606021204999
 30
0.0
 11
180.6488287567303
 21
207.7196118628302
 31
0.0
  0
LINE
  5
141
330
1F
100
AcDbEntity
  8
1
  6
Continuous
 62
     7
100
AcDbLine
 10
181.4898190144
 20
208.5606021204999
 30
0.0
 11
181.2398190144
 21
208.8106021204999
 31
0.0
  0
LINE
  5
142
330
1F
100
AcDbEntity
  8
1
  6
Continuous
 62
     2
100
AcDbLine
 10
182.9898190144
 20
208.5606021204999
 30
0.0
 11
183.8308092720697
 21
207.7196118628302
 31
0.0
  0
LINE
  5
143
330
1F
100
AcDbEntity
  8
1
  6
Continuous
 62
     7
100
AcDbLine
 10
182.9898190144
 20
208.5606021204999
 30
0.0
 11
182.7398190144
 21
208.3106021204999
 31
0.0
  0
LINE
  5
144
330
1F
100
AcDbEntity
  8
1
  6
DOT_CENTER
 62
     2
100
AcDbLine
 10
182.2398190144
 20
203.1652308877339
 30
0.0
 11
182.2398190144
 21
215.6690985442051
 31
0.0
  0
LINE
  5
145
330
1F
100
AcDbEntity
  8
1
  6
DOT_CENTER
 62
     2
100
AcDbLine
 10
176.5426404185107
 20
209.3106021205001
 30
0.0
 11
188.6660157616149
 21
209.3106021204999
 31
0.0
  0
LINE
  5
146
330
1F
100
AcDbEntity
  8
0
  6
Continuous
 62
     7
100
AcDbLine
 10
253.2021334498
 20
243.3106021205
 30
0.0
 11
226.4021334498
 21
243.3106021205
 31
0.0
  0
LINE
  5
147
330
1F
100
AcDbEntity
  8
0
  6
Continuous
 62
     7
100
AcDbLine
 10
254.4021334498
 20
243.3106021205
 30
0.0
 11
254.3021334498
 21
285.7106021205
 31
0.0
  0
LINE
  5
148
330
1F
100
AcDbEntity
  8
A_ACHSEN
  6
DOT_CENTER
 62
     2
100
AcDbLine
 10
248.5521334498
 20
209.5356021205
 30
0.0
 11
248.5521334498
 21
218.3106021205
 31
0.0
  0
LINE
  5
149
330
1F
100
AcDbEntity
  8
A_ACHSEN
  6
DOT_CENTER
 62
     2
100
AcDbLine
 10
242.7771334498
 20
217.8106021204997
 30
0.0
 11
248.5521334498
 21
217.8106021204997
 31
0.0
  0
LINE
  5
14A
330
1F
100
AcDbEntity
  8
A_ACHSEN
  6
DOT_CENTER
 62
     2
100
AcDbLine
 10
254.3271334498
 20
217.8106021204997
 30
0.0
 11
248.5521334498
 21
217.8106021204997
 31
0.0
  0
LINE
  5
14B
330
1F
100
AcDbEntity
  8
0
  6
DASHED
 62
     2
100
AcDbLine
 10
244.3021334498
 20
221.3106021205
 30
0.0
 11
244.3021334498
 21
214.3106021205
 31
0.0
  0
LINE
  5
14C
330
1F
100
AcDbEntity
  8
A_ACHSEN
  6
DASHED
 62
     2
100
AcDbLine
 10
245.9521334498
 20
214.9739038513
 30
0.0
 11
245.9521334498
 21
214.3106021205
 31
0.0
  0
LINE
  5
14D
330
1F
100
AcDbEntity
  8
A_ACHSEN
  6
DASHED
 62
     2
100
AcDbLine
 10
245.9521334498
 20
221.3106021205
 30
0.0
 11
245.9521334498
 21
214.9739038513
 31
0.0
  0
LINE
  5
14E
330
1F
100
AcDbEntity
  8
A_ACHSEN
  6
DOT_CENTER
 62
     2
100
AcDbLine
 10
248.5521334498
 20
226.0856021205
 30
0.0
 11
248.5521334498
 21
218.3106021205
 31
0.0
  0
LINE
  5
14F
330
1F
100
AcDbEntity
  8
A_ACHSEN
  6
DASHED
 62
     2
100
AcDbLine
 10
251.1521334498
 20
214.9739954428
 30
0.0
 11
251.1521334498
 21
221.3106021205
 31
0.0
  0
LINE
  5
150
330
1F
100
AcDbEntity
  8
A_ACHSEN
  6
DASHED
 62
     2
100
AcDbLine
 10
251.1521334498
 20
214.3106021205
 30
0.0
 11
251.1521334498
 21
214.9739954428
 31
0.0
  0
LINE
  5
151
330
1F
100
AcDbEntity
  8
0
  6
DASHED
 62
     2
100
AcDbLine
 10
252.8021334498
 20
214.3106021205
 30
0.0
 11
252.8021334498
 21
221.3106021205
 31
0.0
  0
LINE
  5
152
330
1F
100
AcDbEntity
  8
A_ACHSEN
  6
DOT_CENTER
 62
     2
100
AcDbLine
 10
254.3271334498
 20
214.3106021205
 30
0.0
 11
248.5521334498
 21
214.3106021205
 31
0.0
  0
LINE
  5
153
330
1F
100
AcDbEntity
  8
A_ACHSEN
  6
DOT_CENTER
 62
     2
100
AcDbLine
 10
242.7771334498
 20
214.3106021205
 30
0.0
 11
248.5521334498
 21
214.3106021205
 31
0.0
  0
LINE
  5
154
330
1F
100
AcDbEntity
  8
A_ACHSEN
  6
DOT_CENTER
 62
     2
100
AcDbLine
 10
254.3271334498
 20
221.3106021205
 30
0.0
 11
248.5521334498
 21
221.3106021205
 31
0.0
  0
LINE
  5
155
330
1F
100
AcDbEntity
  8
A_ACHSEN
  6
DOT_CENTER
 62
     2
100
AcDbLine
 10
242.7771334498
 20
221.3106021205
 30
0.0
 11
248.5521334498
 21
221.3106021205
 31
0.0
  0
LINE
  5
156
330
1F
100
AcDbEntity
  8
1
  6
DOT_CENTER
 62
     7
100
AcDbLine
 10
254.3021334498
 20
285.7106021205
 30
0.0
 11
266.289601624481
 21
285.7106021205
 31
0.0
  0
LINE
  5
157
330
1F
100
AcDbEntity
  8
A_ACHSEN
  6
DOT_CENTER
 62
     2
100
AcDbLine
 10
232.2521334498
 20
221.3106021205
 30
0.0
 11
238.0271334498
 21
221.3106021205
 31
0.0
  0
LINE
  5
158
330
1F
100
AcDbEntity
  8
A_ACHSEN
  6
DOT_CENTER
 62
     2
100
AcDbLine
 10
232.2521334498
 20
221.3106021205
 30
0.0
 11
226.4771334498
 21
221.3106021205
 31
0.0
  0
LINE
  5
159
330
1F
100
AcDbEntity
  8
A_ACHSEN
  6
DOT_CENTER
 62
     2
100
AcDbLine
 10
232.2521334498
 20
214.3106021205
 30
0.0
 11
238.0271334498
 21
214.3106021205
 31
0.0
  0
LINE
  5
15A
330
1F
100
AcDbEntity
  8
A_ACHSEN
  6
DOT_CENTER
 62
     2
100
AcDbLine
 10
232.2521334498
 20
214.3106021205
 30
0.0
 11
226.4771334498
 21
214.3106021205
 31
0.0
  0
LINE
  5
15B
330
1F
100
AcDbEntity
  8
0
  6
Continuous
 62
     7
100
AcDbLine
 10
226.4021334498
 20
243.3106021205
 30
0.0
 11
222.6639926655
 21
243.3106021205
 31
0.0
  0
LINE
  5
15C
330
1F
100
AcDbEntity
  8
A_RUNDUNGEN
  6
Continuous
 62
     7
100
AcDbLine
 10
253.2021334498
 20
285.7106021205
 30
0.0
 11
253.2021334498
 21
243.3106021205
 31
0.0
  0
LINE
  5
15D
330
1F
100
AcDbEntity
  8
DEFAULT_1
  6
DOT_CENTER
 62
     2
100
AcDbLine
 10
234.4793471629
 20
285.7106021205
 30
0.0
 11
234.4793471629
 21
245.4966636359
 31
0.0
  0
LINE
  5
15E
330
1F
100
AcDbEntity
  8
DEFAULT_1
  6
DOT_CENTER
 62
     2
100
AcDbLine
 10
227.1021334498
 20
285.7106021205
 30
0.0
 11
227.1021334498
 21
253.8106021205
 31
0.0
  0
LINE
  5
15F
330
1F
100
AcDbEntity
  8
A_ACHSEN
  6
Continuous
 62
     7
100
AcDbLine
 10
223.1021334498
 20
267.8106021205
 30
0.0
 11
223.1021334498
 21
269.0606021205
 31
0.0
  0
LINE
  5
160
330
1F
100
AcDbEntity
  8
DEFAULT_1
  6
DOT_CENTER
 62
     2
100
AcDbLine
 10
216.8799704006
 20
285.7106021205
 30
0.0
 11
216.8799704006
 21
253.8106021205
 31
0.0
  0
LINE
  5
161
330
1F
100
AcDbEntity
  8
DEFAULT_1
  6
DOT_CENTER
 62
     2
100
AcDbLine
 10
195.5398190144
 20
285.7106021205
 30
0.0
 11
195.5398190144
 21
253.8106021205
 31
0.0
  0
LINE
  5
162
330
1F
100
AcDbEntity
  8
A_RUNDUNGEN
  6
Continuous
 62
     7
100
AcDbLine
 10
199.8471740939
 20
267.8106021205
 30
0.0
 11
192.3274595483
 21
267.8106021205
 31
0.0
  0
LINE
  5
163
330
1F
100
AcDbEntity
  8
A_ACHSEN
  6
Continuous
 62
     7
100
AcDbLine
 10
199.5398190144
 20
254.5606021205
 30
0.0
 11
199.5398190144
 21
255.8106021205
 31
0.0
  0
LINE
  5
164
330
1F
100
AcDbEntity
  8
A_ACHSEN
  6
Continuous
 62
     7
100
AcDbLine
 10
191.5398190144
 20
254.5606021205
 30
0.0
 11
191.5398190144
 21
255.8106021205
 31
0.0
  0
LINE
  5
165
330
1F
100
AcDbEntity
  8
A_ACHSEN
  6
DOT_CENTER
 62
     2
100
AcDbLine
 10
185.2723503765
 20
247.103816002
 30
0.0
 11
185.2723503765
 21
285.7106021205
 31
0.0
  0
LINE
  5
166
330
1F
100
AcDbEntity
  8
0
  6
Continuous
 62
     7
100
AcDbLine
 10
199.872722614386
 20
243.1106021205
 30
0.0
 11
169.5398190144
 21
243.1106021205
 31
0.0
  0
LINE
  5
167
330
1F
100
AcDbEntity
  8
0
  6
Continuous
 62
     7
100
AcDbLine
 10
169.5398190144
 20
243.1106021205
 30
0.0
 11
168.7398190144
 21
243.1106021205
 31
0.0
  0
LINE
  5
168
330
1F
100
AcDbEntity
  8
0
  6
Continuous
 62
     7
100
AcDbLine
 10
168.7398190144
 20
243.1106021205
 30
0.0
 11
168.2398190144
 21
243.1106021205
 31
0.0
  0
LINE
  5
169
330
1F
100
AcDbEntity
  8
0
  6
Continuous
 62
     7
100
AcDbLine
 10
169.5398190144
 20
253.3106021205
 30
0.0
 11
169.5398190144
 21
285.7106021205
 31
0.0
  0
LINE
  5
16A
330
1F
100
AcDbEntity
  8
A_ACHSEN
  6
DOT_CENTER
 62
     2
100
AcDbLine
 10
183.913108079553
 20
204.2106021205
 30
0.0
 11
183.8398190144
 21
204.2106021205
 31
0.0
  0
LINE
  5
16B
330
1F
100
AcDbEntity
  8
0
  6
Continuous
 62
     7
100
AcDbLine
 10
168.2398190144
 20
243.1106021205
 30
0.0
 11
168.2398190144
 21
207.1106021205
 31
0.0
  0
LINE
  5
16C
330
1F
100
AcDbEntity
  8
A_RUNDUNGEN
  6
Continuous
 62
     7
100
AcDbLine
 10
168.7398190144
 20
243.1106021205
 30
0.0
 11
168.7398190144
 21
285.7106021205
 31
0.0
  0
LINE
  5
16D
330
1F
100
AcDbEntity
  8
0
  6
Continuous
 62
     7
100
AcDbLine
 10
169.5398190144
 20
243.1106021205
 30
0.0
 11
169.5398190144
 21
253.3106021205
 31
0.0
  0
LINE
  5
16E
330
1F
100
AcDbEntity
  8
A_ACHSEN
  6
DOT_CENTER
 62
     2
100
AcDbLine
 10
174.7398190144
 20
204.2106021205
 30
0.0
 11
174.7398190144
 21
211.3106021205
 31
0.0
  0
LINE
  5
16F
330
1F
100
AcDbEntity
  8
A_ACHSEN
  6
DOT_CENTER
 62
     2
100
AcDbLine
 10
174.7398190144
 20
204.2106021205
 30
0.0
 11
174.7398190144
 21
197.1106021205
 31
0.0
  0
LINE
  5
170
330
1F
100
AcDbEntity
  8
A_ACHSEN
  6
Continuous
 62
     7
100
AcDbLine
 10
180.2723503765
 20
255.8106021205
 30
0.0
 11
180.2723503765
 21
285.7106021205
 31
0.0
  0
LINE
  5
171
330
1F
100
AcDbEntity
  8
A_ACHSEN
  6
Continuous
 62
     7
100
AcDbLine
 10
180.5223503765
 20
254.9106021205
 30
0.0
 11
180.5223503765
 21
255.8106021205
 31
0.0
  0
LINE
  5
172
330
1F
100
AcDbEntity
  8
A_ACHSEN
  6
DOT_CENTER
 62
     2
100
AcDbLine
 10
189.7398190144
 20
204.2106021205
 30
0.0
 11
189.7398190144
 21
210.2179451765
 31
0.0
  0
LINE
  5
173
330
1F
100
AcDbEntity
  8
A_ACHSEN
  6
DOT_CENTER
 62
     2
100
AcDbLine
 10
189.7398190144
 20
204.2106021205
 30
0.0
 11
189.7398190144
 21
197.1106021205
 31
0.0
  0
LINE
  5
174
330
1F
100
AcDbEntity
  8
A_ACHSEN
  6
Continuous
 62
     7
100
AcDbLine
 10
190.0223503765
 20
254.9106021205
 30
0.0
 11
190.0223503765
 21
255.8106021205
 31
0.0
  0
LINE
  5
175
330
1F
100
AcDbEntity
  8
A_RUNDUNGEN
  6
Continuous
 62
     7
100
AcDbLine
 10
190.3263577307
 20
269.8106021205
 30
0.0
 11
190.3263577307
 21
285.7106021205
 31
0.0
  0
LINE
  5
176
330
1F
100
AcDbEntity
  8
0
  6
Continuous
 62
     7
100
AcDbLine
 10
190.6398190144
 20
254.5606021205
 30
0.0
 11
190.6398190144
 21
253.3106021205
 31
0.0
  0
LINE
  5
177
330
1F
100
AcDbEntity
  8
0
  6
Continuous
 62
     7
100
AcDbLine
 10
200.1398190144
 20
253.3106021205
 30
0.0
 11
199.872722614386
 21
243.1106021205
 31
0.0
  0
LINE
  5
178
330
1F
100
AcDbEntity
  8
0
  6
Continuous
 62
     7
100
AcDbLine
 10
196.2398190144
 20
207.1106021205
 30
0.0
 11
196.2398190144
 21
233.2106021205
 31
0.0
  0
LINE
  5
179
330
1F
100
AcDbEntity
  8
A_RUNDUNGEN
  6
Continuous
 62
     9
420
 12434109
100
AcDbLine
 10
199.8471740939
 20
268.245242503
 30
0.0
 11
199.8471740939
 21
267.8106021205
 31
0.0
  0
LINE
  5
17A
330
1F
100
AcDbEntity
  8
0
  6
Continuous
 62
     7
100
AcDbLine
 10
200.1398190144
 20
254.5606021205
 30
0.0
 11
200.1398190144
 21
253.3106021205
 31
0.0
  0
LINE
  5
17B
330
1F
100
AcDbEntity
  8
A_RUNDUNGEN
  6
Continuous
 62
     7
100
AcDbLine
 10
199.8447977327
 20
268.245242503
 30
0.0
 11
199.8471740939
 21
268.1369112784
 31
0.0
  0
LINE
  5
17C
330
1F
100
AcDbEntity
  8
0
  6
Continuous
 62
     7
100
AcDbLine
 10
214.0849367752
 20
255.8106021205
 30
0.0
 11
214.0849367752
 21
267.8106021205
 31
0.0
  0
LINE
  5
17D
330
1F
100
AcDbEntity
  8
0
  6
Continuous
 62
     7
100
AcDbLine
 10
222.6639926655
 20
243.3106021205
 30
0.0
 11
222.4021334498
 21
253.3106021205
 31
0.0
  0
LINE
  5
17E
330
1F
100
AcDbEntity
  8
0
  6
Continuous
 62
     7
100
AcDbLine
 10
222.4021334498
 20
253.3106021205
 30
0.0
 11
222.4021334498
 21
254.5606021205
 31
0.0
  0
LINE
  5
17F
330
1F
100
AcDbEntity
  8
A_ACHSEN
  6
Continuous
 62
     7
100
AcDbLine
 10
223.1021334498
 20
254.5606021205
 30
0.0
 11
223.1021334498
 21
255.8106021205
 31
0.0
  0
LINE
  5
180
330
1F
100
AcDbEntity
  8
0
  6
Continuous
 62
     7
100
AcDbLine
 10
226.4021334498
 20
207.2106021205
 30
0.0
 11
226.4021334498
 21
243.3106021205
 31
0.0
  0
LINE
  5
181
330
1F
100
AcDbEntity
  8
0
  6
DASHED
 62
     2
100
AcDbLine
 10
228.0021334498
 20
221.3106021205
 30
0.0
 11
228.0021334498
 21
214.3106021205
 31
0.0
  0
LINE
  5
182
330
1F
100
AcDbEntity
  8
A_ACHSEN
  6
DASHED
 62
     2
100
AcDbLine
 10
229.6521334498
 20
214.9739954428
 30
0.0
 11
229.6521334498
 21
214.3106021205
 31
0.0
  0
LINE
  5
183
330
1F
100
AcDbEntity
  8
A_ACHSEN
  6
DASHED
 62
     2
100
AcDbLine
 10
229.6521334498
 20
221.3106021205
 30
0.0
 11
229.6521334498
 21
214.9739954428
 31
0.0
  0
LINE
  5
184
330
1F
100
AcDbEntity
  8
A_ACHSEN
  6
Continuous
 62
     7
100
AcDbLine
 10
231.1021334498
 20
254.5606021205
 30
0.0
 11
231.1021334498
 21
255.8106021205
 31
0.0
  0
LINE
  5
185
330
1F
100
AcDbEntity
  8
A_ACHSEN
  6
Continuous
 62
     7
100
AcDbLine
 10
231.7561362077828
 20
255.8106021205
 30
0.0
 11
231.7561362077828
 21
267.8106021205
 31
0.0
  0
LINE
  5
186
330
1F
100
AcDbEntity
  8
0
  6
Continuous
 62
     7
100
AcDbLine
 10
231.9021334498
 20
253.3106021205
 30
0.0
 11
231.9021334498
 21
254.5606021205
 31
0.0
  0
LINE
  5
187
330
1F
100
AcDbEntity
  8
A_ACHSEN
  6
DOT_CENTER
 62
     2
100
AcDbLine
 10
232.2521334498
 20
218.3106021205
 30
0.0
 11
232.2521334498
 21
226.0856021205
 31
0.0
  0
LINE
  5
188
330
1F
100
AcDbEntity
  8
A_ACHSEN
  6
DOT_CENTER
 62
     2
100
AcDbLine
 10
232.2521334498
 20
218.3106021205
 30
0.0
 11
232.2521334498
 21
209.5356021205
 31
0.0
  0
LINE
  5
189
330
1F
100
AcDbEntity
  8
A_ACHSEN
  6
DOT_CENTER
 62
     2
100
AcDbLine
 10
232.9021334498
 20
204.2106021205
 30
0.0
 11
232.9021334498
 21
211.6346758195
 31
0.0
  0
LINE
  5
18A
330
1F
100
AcDbEntity
  8
A_ACHSEN
  6
DOT_CENTER
 62
     2
100
AcDbLine
 10
232.9021334498
 20
204.2106021205
 30
0.0
 11
232.9021334498
 21
197.9761436959
 31
0.0
  0
LINE
  5
18B
330
1F
100
AcDbEntity
  8
A_ACHSEN
  6
DASHED
 62
     2
100
AcDbLine
 10
234.8521334498
 20
214.9739038513
 30
0.0
 11
234.8521334498
 21
221.3106021205
 31
0.0
  0
LINE
  5
18C
330
1F
100
AcDbEntity
  8
A_ACHSEN
  6
DASHED
 62
     2
100
AcDbLine
 10
234.8521334498
 20
214.3106021205
 30
0.0
 11
234.8521334498
 21
214.9739038513
 31
0.0
  0
LINE
  5
18D
330
1F
100
AcDbEntity
  8
0
  6
DASHED
 62
     2
100
AcDbLine
 10
236.5021334498
 20
214.3106021205
 30
0.0
 11
236.5021334498
 21
221.3106021205
 31
0.0
  0
LINE
  5
18E
330
1F
100
AcDbEntity
  8
0
  6
Continuous
 62
     7
100
AcDbLine
 10
238.4793471629
 20
255.8106021205
 30
0.0
 11
238.4793471629
 21
285.7106021205
 31
0.0
  0
LINE
  5
18F
330
1F
100
AcDbEntity
  8
A_ACHSEN
  6
DOT_CENTER
 62
     2
100
AcDbLine
 10
247.9021334498
 20
204.2106021205
 30
0.0
 11
247.9021334498
 21
210.6777086007
 31
0.0
  0
LINE
  5
190
330
1F
100
AcDbEntity
  8
A_ACHSEN
  6
DOT_CENTER
 62
     2
100
AcDbLine
 10
247.9021334498
 20
204.2106021205
 30
0.0
 11
247.9021334498
 21
198.3241317755
 31
0.0
  0
LINE
  5
191
330
1F
100
AcDbEntity
  8
0
  6
Continuous
 62
     7
100
AcDbLine
 10
251.6402742341
 20
243.3106021205
 30
0.0
 11
251.9021334498
 21
253.3106021205
 31
0.0
  0
LINE
  5
192
330
1F
100
AcDbEntity
  8
0
  6
Continuous
 62
     7
100
AcDbLine
 10
254.4021334498
 20
207.2106021205
 30
0.0
 11
254.4021334498
 21
243.3106021205
 31
0.0
  0
LINE
  5
193
330
1F
100
AcDbEntity
  8
0
  6
Continuous
 62
     7
100
AcDbLine
 10
228.6984449171
 20
269.1106021205
 30
0.0
 11
220.8799704006
 21
269.1106021205
 31
0.0
  0
LINE
  5
194
330
1F
100
AcDbEntity
  8
A_RUNDUNGEN
  6
Continuous
 62
     7
100
AcDbLine
 10
228.6984449171
 20
269.1106021205
 30
0.0
 11
230.8403116527
 21
269.1106021205
 31
0.0
  0
LINE
  5
195
330
1F
100
AcDbEntity
  8
A_RUNDUNGEN
  6
HIDDEN
 62
   252
420
  8685188
100
AcDbLine
 10
190.7987019536
 20
269.1106021205
 30
0.0
 11
200.6428469201
 21
269.1106021205
 31
0.0
  0
LINE
  5
196
330
1F
100
AcDbEntity
  8
A_RUNDUNGEN
  6
Continuous
 62
     7
100
AcDbLine
 10
202.0328033634
 20
267.8106021205
 30
0.0
 11
199.8471740939
 21
267.8106021205
 31
0.0
  0
LINE
  5
197
330
1F
100
AcDbEntity
  8
0
  6
Continuous
 62
     7
100
AcDbLine
 10
202.0328033634
 20
267.8106021205
 30
0.0
 11
212.8799704006
 21
267.8106021205
 31
0.0
  0
LINE
  5
198
330
1F
100
AcDbEntity
  8
A_ACHSEN
  6
Continuous
 62
     7
100
AcDbLine
 10
190.0222400114
 20
254.9106021205
 30
0.0
 11
180.5224607417
 21
254.9106021205
 31
0.0
  0
LINE
  5
199
330
1F
100
AcDbEntity
  8
0
  6
Continuous
 62
     7
100
AcDbLine
 10
200.1398190144
 20
254.5606021205
 30
0.0
 11
190.7723503765
 21
254.5606021205
 31
0.0
  0
LINE
  5
19A
330
1F
100
AcDbEntity
  8
A_ACHSEN
  6
HIDDEN
 62
   252
420
  8685188
100
AcDbLine
 10
231.1020905987
 20
254.5606021205
 30
0.0
 11
223.102176301
 21
254.5606021205
 31
0.0
  0
LINE
  5
19B
330
1F
100
AcDbEntity
  8
0
  6
Continuous
 62
     7
100
AcDbLine
 10
222.4021334498
 20
254.5606021205
 30
0.0
 11
231.9021334498
 21
254.5606021205
 31
0.0
  0
LINE
  5
19C
330
1F
100
AcDbEntity
  8
0
  6
Continuous
 62
     7
100
AcDbLine
 10
231.9021334498
 20
253.3106021205
 30
0.0
 11
251.9021334498
 21
253.3106021205
 31
0.0
  0
LINE
  5
19D
330
1F
100
AcDbEntity
  8
0
  6
Continuous
 62
     7
100
AcDbLine
 10
222.5841256047
 20
246.3606021205
 30
0.0
 11
251.7201412949
 21
246.3606021205
 31
0.0
  0
LINE
  5
19E
330
1F
100
AcDbEntity
  8
0
  6
Continuous
 62
     7
100
AcDbLine
 10
254.4021334498
 20
243.3106021205
 30
0.0
 11
253.2021334498
 21
243.3106021205
 31
0.0
  0
LINE
  5
19F
330
1F
100
AcDbEntity
  8
0
  6
Continuous
 62
     7
100
AcDbLine
 10
200.1016994609
 20
243.1106021205
 30
0.0
 11
199.872722614386
 21
243.1106021205
 31
0.0
  0
LINE
  5
1A0
330
1F
100
AcDbEntity
  8
A_ACHSEN
  6
DOT_CENTER
 62
     2
100
AcDbLine
 10
232.2521334498
 20
217.8106021204997
 30
0.0
 11
226.4771334498
 21
217.8106021204997
 31
0.0
  0
LINE
  5
1A1
330
1F
100
AcDbEntity
  8
A_ACHSEN
  6
DOT_CENTER
 62
     2
100
AcDbLine
 10
232.2521334498
 20
217.8106021204997
 30
0.0
 11
238.0271334498
 21
217.8106021204997
 31
0.0
  0
LINE
  5
1A2
330
1F
100
AcDbEntity
  8
A_ACHSEN
  6
DOT_CENTER
 62
     2
100
AcDbLine
 10
174.7398190144
 20
204.2106021205
 30
0.0
 11
167.6398190144
 21
204.2106021205
 31
0.0
  0
LINE
  5
1A3
330
1F
100
AcDbEntity
  8
A_ACHSEN
  6
DOT_CENTER
 62
     2
100
AcDbLine
 10
189.7398190144
 20
204.2106021205
 30
0.0
 11
183.913108079553
 21
204.2106021205
 31
0.0
  0
LINE
  5
1A4
330
1F
100
AcDbEntity
  8
A_ACHSEN
  6
DOT_CENTER
 62
     2
100
AcDbLine
 10
232.9021334498
 20
204.2106021205
 30
0.0
 11
226.22377766
 21
204.2106021205
 31
0.0
  0
LINE
  5
1A5
330
1F
100
AcDbEntity
  8
A_ACHSEN
  6
DOT_CENTER
 62
     2
100
AcDbLine
 10
247.9021334498
 20
204.2106021205
 30
0.0
 11
241.8832412412
 21
204.2106021205
 31
0.0
  0
LINE
  5
1A6
330
1F
100
AcDbEntity
  8
A_ACHSEN
  6
DOT_CENTER
 62
     2
100
AcDbLine
 10
247.9021334498
 20
204.2106021205
 30
0.0
 11
254.3238150863
 21
204.2106021205
 31
0.0
  0
LINE
  5
1A7
330
1F
100
AcDbEntity
  8
A_ACHSEN
  6
DOT_CENTER
 62
     2
100
AcDbLine
 10
232.9021334498
 20
204.2106021205
 30
0.0
 11
239.3603276642
 21
204.2106021205
 31
0.0
  0
LINE
  5
1A8
330
1F
100
AcDbEntity
  8
A_ACHSEN
  6
DOT_CENTER
 62
     2
100
AcDbLine
 10
189.7398190144
 20
204.2106021205
 30
0.0
 11
195.8398190144
 21
204.2106021205
 31
0.0
  0
LINE
  5
1A9
330
1F
100
AcDbEntity
  8
A_ACHSEN
  6
DOT_CENTER
 62
     2
100
AcDbLine
 10
174.7398190144
 20
204.2106021205
 30
0.0
 11
180.936811655616
 21
204.2106021205
 31
0.0
  0
ARC
  5
1AA
330
1F
100
AcDbEntity
  8
0
  6
Continuous
 62
     7
100
AcDbCircle
 10
182.1898190144
 20
207.1606021205
 30
0.0
 40
13.95008960544697
100
AcDbArc
 50
-179.7946396625052
 51
-89.79463966250509
  0
ARC
  5
1AB
330
1F
100
AcDbEntity
  8
0
  6
Continuous
 62
     7
100
AcDbCircle
 10
182.2898190144
 20
364.2606021205
 30
0.0
 40
13.950089605447
100
AcDbArc
 50
0.20536033749492
 51
90.20536033749481
  0
ARC
  5
1AC
330
1F
100
AcDbEntity
  8
0
  6
Continuous
 62
     7
100
AcDbCircle
 10
240.4021334498
 20
364.2106021205
 30
0.0
 40
14.0
100
AcDbArc
 50
0.0
 51
180.0
  0
ARC
  5
1AD
330
1F
100
AcDbEntity
  8
0
  6
Continuous
 62
     7
100
AcDbCircle
 10
182.1898190144
 20
364.2606021205
 30
0.0
 40
13.95008960544703
100
AcDbArc
 50
89.79463966250509
 51
179.7946396625055
  0
ARC
  5
1AE
330
1F
100
AcDbEntity
  8
0
  6
DASHED
 62
     2
100
AcDbCircle
 10
232.2521334498
 20
357.1106021205
 30
0.0
 40
4.25
100
AcDbArc
 50
0.0
 51
180.0
  0
ARC
  5
1AF
330
1F
100
AcDbEntity
  8
A_ACHSEN
  6
DASHED
 62
     2
100
AcDbCircle
 10
232.2521334498
 20
357.1106021205
 30
0.0
 40
2.599999999999994
100
AcDbArc
 50
0.0
 51
180.0
  0
ARC
  5
1B0
330
1F
100
AcDbEntity
  8
0
  6
DASHED
 62
     2
100
AcDbCircle
 10
232.2521334498
 20
350.1106021205
 30
0.0
 40
4.25
100
AcDbArc
 50
180.0
 51
0.0
  0
ARC
  5
1B1
330
1F
100
AcDbEntity
  8
A_ACHSEN
  6
DASHED
 62
     2
100
AcDbCircle
 10
232.2521334498
 20
350.1106021205
 30
0.0
 40
2.600000000000053
100
AcDbArc
 50
-8.37510496240045
 51
0.0
  0
ARC
  5
1B2
330
1F
100
AcDbEntity
  8
A_ACHSEN
  6
DASHED
 62
     2
100
AcDbCircle
 10
232.2521334498
 20
350.1106021205
 30
0.0
 40
2.599999999999994
100
AcDbArc
 50
180.0
 51
-171.6223820277987
  0
ARC
  5
1B3
330
1F
100
AcDbEntity
  8
A_ACHSEN
  6
DASHED
 62
     2
100
AcDbCircle
 10
232.2521334498
 20
350.1106021205
 30
0.0
 40
2.599999999999523
100
AcDbArc
 50
-171.6223820277987
 51
-8.37510496240045
  0
ARC
  5
1B4
330
1F
100
AcDbEntity
  8
0
  6
Continuous
 62
     7
100
AcDbCircle
 10
188.1898190143993
 20
329.3671477885129
 30
0.0
 40
11.95864476102216
100
AcDbArc
 50
-5.06868802519531
 51
47.68910065491142
  0
ARC
  5
1B5
330
1F
100
AcDbEntity
  8
A_ACHSEN
  6
DASHED
 62
     2
100
AcDbCircle
 10
248.5521334498
 20
350.1106021205
 30
0.0
 40
2.600000000000081
100
AcDbArc
 50
-171.6248950375997
 51
-8.37761797220132
  0
ARC
  5
1B6
330
1F
100
AcDbEntity
  8
A_ACHSEN
  6
DASHED
 62
     2
100
AcDbCircle
 10
248.5521334498
 20
350.1106021205
 30
0.0
 40
2.599999999999523
100
AcDbArc
 50
-8.37761797220132
 51
0.0
  0
ARC
  5
1B7
330
1F
100
AcDbEntity
  8
A_ACHSEN
  6
DASHED
 62
     2
100
AcDbCircle
 10
248.5521334498
 20
350.1106021205
 30
0.0
 40
2.600000000000023
100
AcDbArc
 50
180.0
 51
-171.6248950375997
  0
ARC
  5
1B8
330
1F
100
AcDbEntity
  8
0
  6
DASHED
 62
     2
100
AcDbCircle
 10
248.5521334498
 20
350.1106021205
 30
0.0
 40
4.25
100
AcDbArc
 50
180.0
 51
0.0
  0
ARC
  5
1B9
330
1F
100
AcDbEntity
  8
A_ACHSEN
  6
DASHED
 62
     2
100
AcDbCircle
 10
248.5521334498
 20
357.1106021205
 30
0.0
 40
2.599999999999994
100
AcDbArc
 50
0.0
 51
180.0
  0
ARC
  5
1BA
330
1F
100
AcDbEntity
  8
0
  6
DASHED
 62
     2
100
AcDbCircle
 10
248.5521334498
 20
357.1106021205
 30
0.0
 40
4.25
100
AcDbArc
 50
0.0
 51
180.0
  0
ARC
  5
1BB
330
1F
100
AcDbEntity
  8
0
  6
DASHED
 62
     2
100
AcDbCircle
 10
248.5521334498
 20
214.3106021205
 30
0.0
 40
4.25
100
AcDbArc
 50
180.0
 51
0.0
  0
ARC
  5
1BC
330
1F
100
AcDbEntity
  8
A_ACHSEN
  6
DASHED
 62
     2
100
AcDbCircle
 10
248.5521334498
 20
214.3106021205
 30
0.0
 40
2.600000000000023
100
AcDbArc
 50
180.0
 51
0.0
  0
ARC
  5
1BD
330
1F
100
AcDbEntity
  8
0
  6
DASHED
 62
     2
100
AcDbCircle
 10
248.5521334498
 20
221.3106021205
 30
0.0
 40
4.25
100
AcDbArc
 50
0.0
 51
180.0
  0
ARC
  5
1BE
330
1F
100
AcDbEntity
  8
A_ACHSEN
  6
DASHED
 62
     2
100
AcDbCircle
 10
248.5521334498
 20
221.3106021205
 30
0.0
 40
2.600000000000077
100
AcDbArc
 50
171.6248950376003
 51
180.0
  0
ARC
  5
1BF
330
1F
100
AcDbEntity
  8
A_ACHSEN
  6
DASHED
 62
     2
100
AcDbCircle
 10
248.5521334498
 20
221.3106021205
 30
0.0
 40
2.599999999999994
100
AcDbArc
 50
0.0
 51
8.3776179722007
  0
ARC
  5
1C0
330
1F
100
AcDbEntity
  8
A_ACHSEN
  6
DASHED
 62
     2
100
AcDbCircle
 10
248.5521334498
 20
221.3106021205
 30
0.0
 40
2.599999999999518
100
AcDbArc
 50
8.3776179722007
 51
171.6248950376003
  0
ARC
  5
1C1
330
1F
100
AcDbEntity
  8
0
  6
Continuous
 62
     7
100
AcDbCircle
 10
188.1898190143993
 20
242.0540564524871
 30
0.0
 40
11.95864476109032
100
AcDbArc
 50
-47.68910065491169
 51
5.06868802519531
  0
ARC
  5
1C2
330
1F
100
AcDbEntity
  8
A_ACHSEN
  6
DASHED
 62
     2
100
AcDbCircle
 10
232.2521334498
 20
221.3106021205
 30
0.0
 40
2.600000000000048
100
AcDbArc
 50
8.37510496239983
 51
171.6223820277993
  0
ARC
  5
1C3
330
1F
100
AcDbEntity
  8
A_ACHSEN
  6
DASHED
 62
     2
100
AcDbCircle
 10
232.2521334498
 20
221.3106021205
 30
0.0
 40
2.599999999999518
100
AcDbArc
 50
171.6223820277993
 51
180.0
  0
ARC
  5
1C4
330
1F
100
AcDbEntity
  8
A_ACHSEN
  6
DASHED
 62
     2
100
AcDbCircle
 10
232.2521334498
 20
221.3106021205
 30
0.0
 40
2.599999999999994
100
AcDbArc
 50
0.0
 51
8.37510496239983
  0
ARC
  5
1C5
330
1F
100
AcDbEntity
  8
0
  6
DASHED
 62
     2
100
AcDbCircle
 10
232.2521334498
 20
221.3106021205
 30
0.0
 40
4.25
100
AcDbArc
 50
0.0
 51
180.0
  0
ARC
  5
1C6
330
1F
100
AcDbEntity
  8
A_ACHSEN
  6
DASHED
 62
     2
100
AcDbCircle
 10
232.2521334498
 20
214.3106021205
 30
0.0
 40
2.599999999999994
100
AcDbArc
 50
180.0
 51
0.0
  0
ARC
  5
1C7
330
1F
100
AcDbEntity
  8
0
  6
DASHED
 62
     2
100
AcDbCircle
 10
232.2521334498
 20
214.3106021205
 30
0.0
 40
4.25
100
AcDbArc
 50
180.0
 51
0.0
  0
ARC
  5
1C8
330
1F
100
AcDbEntity
  8
0
  6
Continuous
 62
     7
100
AcDbCircle
 10
182.2898190144
 20
207.1606021205
 30
0.0
 40
13.95008960544697
100
AcDbArc
 50
-90.20536033749481
 51
-0.20536033749481
  0
ARC
  5
1C9
330
1F
100
AcDbEntity
  8
0
  6
Continuous
 62
     7
100
AcDbCircle
 10
240.4021334498
 20
207.2106021205
 30
0.0
 40
14.0
100
AcDbArc
 50
180.0
 51
0.0
  0
CIRCLE
  5
1CA
330
1F
100
AcDbEntity
  8
A_ACHSEN
  6
DASHED
 62
     2
100
AcDbCircle
 10
232.9021334498
 20
367.2106021205
 30
0.0
 40
5.200000000000045
  0
CIRCLE
  5
1CB
330
1F
100
AcDbEntity
  8
A_ACHSEN
  6
DASHED
 62
     2
100
AcDbCircle
 10
247.9021334498
 20
367.2106021205
 30
0.0
 40
5.200000000000045
  0
CIRCLE
  5
1CC
330
1F
100
AcDbEntity
  8
A_ACHSEN
  6
DASHED
 62
     2
100
AcDbCircle
 10
232.9021334498
 20
367.2106021205
 30
0.0
 40
2.75
  0
CIRCLE
  5
1CD
330
1F
100
AcDbEntity
  8
A_ACHSEN
  6
DASHED
 62
     2
100
AcDbCircle
 10
247.9021334498
 20
367.2106021205
 30
0.0
 40
2.75
  0
CIRCLE
  5
1CE
330
1F
100
AcDbEntity
  8
A_ACHSEN
  6
DASHED
 62
     2
100
AcDbCircle
 10
189.7398190144
 20
367.2106021205
 30
0.0
 40
5.100000000000023
  0
CIRCLE
  5
1CF
330
1F
100
AcDbEntity
  8
A_ACHSEN
  6
DASHED
 62
     2
100
AcDbCircle
 10
189.7398190144
 20
367.2106021205
 30
0.0
 40
2.75
  0
CIRCLE
  5
1D0
330
1F
100
AcDbEntity
  8
A_ACHSEN
  6
DASHED
 62
     2
100
AcDbCircle
 10
174.7398190144
 20
367.2106021205
 30
0.0
 40
5.100000000000023
  0
CIRCLE
  5
1D1
330
1F
100
AcDbEntity
  8
A_ACHSEN
  6
DASHED
 62
     2
100
AcDbCircle
 10
174.7398190144
 20
367.2106021205
 30
0.0
 40
2.75
  0
CIRCLE
  5
1D2
330
1F
100
AcDbEntity
  8
1
  6
Continuous
 62
     7
100
AcDbCircle
 10
182.2398190144
 20
362.1106021205
 30
0.0
 40
4.0
  0
CIRCLE
  5
1D3
330
1F
100
AcDbEntity
  8
1
  6
Continuous
 62
     7
100
AcDbCircle
 10
240.4021334498
 20
362.1106021205
 30
0.0
 40
3.999999999999886
  0
CIRCLE
  5
1D4
330
1F
100
AcDbEntity
  8
1
  6
Continuous
 62
     7
100
AcDbCircle
 10
240.4021334498
 20
209.3106021205
 30
0.0
 40
3.999999999999915
  0
CIRCLE
  5
1D5
330
1F
100
AcDbEntity
  8
1
  6
Continuous
 62
     7
100
AcDbCircle
 10
182.2398190144
 20
209.3106021205
 30
0.0
 40
3.999999999999915
  0
CIRCLE
  5
1D6
330
1F
100
AcDbEntity
  8
A_ACHSEN
  6
DASHED
 62
     2
100
AcDbCircle
 10
174.7398190144
 20
204.2106021205
 30
0.0
 40
2.75
  0
CIRCLE
  5
1D7
330
1F
100
AcDbEntity
  8
A_ACHSEN
  6
DASHED
 62
     2
100
AcDbCircle
 10
174.7398190144
 20
204.2106021205
 30
0.0
 40
5.099999999999994
  0
CIRCLE
  5
1D8
330
1F
100
AcDbEntity
  8
A_ACHSEN
  6
DASHED
 62
     2
100
AcDbCircle
 10
189.7398190144
 20
204.2106021205
 30
0.0
 40
2.75
  0
CIRCLE
  5
1D9
330
1F
100
AcDbEntity
  8
A_ACHSEN
  6
DASHED
 62
     2
100
AcDbCircle
 10
189.7398190144
 20
204.2106021205
 30
0.0
 40
5.099999999999994
  0
CIRCLE
  5
1DA
330
1F
100
AcDbEntity
  8
A_ACHSEN
  6
DASHED
 62
     2
100
AcDbCircle
 10
247.9021334498
 20
204.2106021205
 30
0.0
 40
2.75
  0
CIRCLE
  5
1DB
330
1F
100
AcDbEntity
  8
A_ACHSEN
  6
DASHED
 62
     2
100
AcDbCircle
 10
232.9021334498
 20
204.2106021205
 30
0.0
 40
2.75
  0
CIRCLE
  5
1DC
330
1F
100
AcDbEntity
  8
A_ACHSEN
  6
DASHED
 62
     2
100
AcDbCircle
 10
247.9021334498
 20
204.2106021205
 30
0.0
 40
5.199999999999989
  0
CIRCLE
  5
1DD
330
1F
100
AcDbEntity
  8
A_ACHSEN
  6
DASHED
 62
     2
100
AcDbCircle
 10
232.9021334498
 20
204.2106021205
 30
0.0
 40
5.199999999999989
  0
SPLINE
  5
1DE
330
1F
100
AcDbEntity
  8
A_RUNDUNGEN
  6
Continuous
 62
     7
100
AcDbSpline
210
0.0
220
0.0
230
1.0
 70
     8
 71
     3
 72
    15
 73
    11
 74
     9
 42
0.0000000001
 43
0.0000000001
 44
0.00000001
 40
0.0
 40
0.0
 40
0.0
 40
0.0
 40
0.1868751206028332
 40
0.3741098368511179
 40
0.5572411982669426
 40
0.7401634579064627
 40
0.9310271941254364
 40
1.122140250069181
 40
1.341668411805182
 40
1.560477812227944
 40
1.560477812227944
 40
1.560477812227944
 40
1.560477812227944
 10
231.7811225978
 20
303.3428978403
 30
0.0
 10
231.778677036583
 20
303.2805472707722
 30
0.0
 10
231.7737812082624
 20
303.1557261532349
 30
0.0
 10
231.7317986518866
 20
302.9736221622933
 30
0.0
 10
231.6620300177886
 20
302.8020415464766
 30
0.0
 10
231.5611629136942
 20
302.6448004794452
 30
0.0
 10
231.4282934815825
 20
302.5092411773466
 30
0.0
 10
231.2595046485567
 20
302.3987060832865
 30
0.0
 10
231.0597791854602
 20
302.3249338094747
 30
0.0
 10
230.9133874819892
 20
302.3153741250138
 30
0.0
 10
230.8403116527
 20
302.3106021205
 30
0.0
 11
231.7811225978
 21
303.3428978403
 31
0.0
 11
231.7679746993439
 21
303.156485814222
 31
0.0
 11
231.7266850156763
 21
302.973860512056
 31
0.0
 11
231.6569629498801
 21
302.8045208265859
 31
0.0
 11
231.5577590142088
 21
302.650835654175
 31
0.0
 11
231.4240221812839
 21
302.5146614079951
 31
0.0
 11
231.2642148371289
 21
302.4098481793152
 31
0.0
 11
231.0577184635619
 21
302.3353373646717
 31
0.0
 11
230.8403116527
 21
302.3106021205
 31
0.0
  0
SPLINE
  5
1DF
330
1F
100
AcDbEntity
  8
A_RUNDUNGEN
  6
Continuous
 62
     7
100
AcDbSpline
210
0.0
220
0.0
230
1.0
 70
     8
 71
     3
 72
    21
 73
    17
 74
    15
 42
0.0000000001
 43
0.0000000001
 44
0.00000001
 40
0.0
 40
0.0
 40
0.0
 40
0.0
 40
0.1033000904630846
 40
0.2066110911630158
 40
0.2982973940456426
 40
0.3900043623149184
 40
0.4698036808976204
 40
0.5495499969935685
 40
0.6221322220313624
 40
0.6944060227964786
 40
0.8499509066030421
 40
1.008805752170825
 40
1.10483819217009
 40
1.200077116881322
 40
1.306659534255085
 40
1.413409392262394
 40
1.413409392262394
 40
1.413409392262394
 40
1.413409392262394
 10
200.6428469201
 20
302.3106021205
 30
0.0
 10
200.608411623207
 20
302.3108001775518
 30
0.0
 10
200.5395373924713
 20
302.3111963125737
 30
0.0
 10
200.4401818656227
 20
302.3159844996297
 30
0.0
 10
200.3450157324172
 20
302.3253098722877
 30
0.0
 10
200.2584950755884
 20
302.3405341089222
 30
0.0
 10
200.1776493378348
 20
302.3629873258982
 30
0.0
 10
200.1062115586414
 20
302.3935855082811
 30
0.0
 10
200.043072173349
 20
302.4344409308753
 30
0.0
 10
199.9691099699326
 20
302.5028640501631
 30
0.0
 10
199.9048742446058
 20
302.6181532429637
 30
0.0
 10
199.8717452520833
 20
302.7515484472197
 30
0.0
 10
199.8564305337616
 20
302.8673275136582
 30
0.0
 10
199.849792253567
 20
302.9664324435656
 30
0.0
 10
199.8464330657735
 20
303.0692499702667
 30
0.0
 10
199.8462947191198
 20
303.1403640690335
 30
0.0
 10
199.8462254915
 20
303.1759490265
 30
0.0
 11
200.6428469201
 21
302.3106021205
 31
0.0
 11
200.5395553171167
 21
302.3119262967834
 31
0.0
 11
200.4363725852082
 21
302.317072820028
 31
0.0
 11
200.3451690985912
 21
302.3264697432048
 31
0.0
 11
200.2549221267797
 21
302.3427685808319
 31
0.0
 11
200.1781918180628
 21
302.3646864039554
 31
0.0
 11
200.1051187873507
 21
302.3966208229015
 31
0.0
 11
200.0442548969121
 21
302.4361653071201
 31
0.0
 11
199.9914485584591
 21
302.4855109543063
 31
0.0
 11
199.9119964582705
 21
302.6192329594289
 31
0.0
 11
199.8703352433544
 21
302.7725274640013
 31
0.0
 11
199.8574302155523
 21
302.867688852125
 31
0.0
 11
199.8505574514634
 21
302.9626794721563
 31
0.0
 11
199.8469800430509
 21
303.0692018352651
 31
0.0
 11
199.8462254915
 21
303.1759490265
 31
0.0
  0
SPLINE
  5
1E0
330
1F
100
AcDbEntity
  8
A_RUNDUNGEN
  6
Continuous
 62
     7
100
AcDbSpline
210
0.0
220
0.0
230
1.0
 70
     8
 71
     3
 72
    11
 73
     7
 74
     5
 42
0.0000000001
 43
0.0000000001
 44
0.00000001
 40
0.0
 40
0.0
 40
0.0
 40
0.0
 40
0.0238709165797961
 40
0.0477482559399258
 40
0.1584863084802247
 40
0.269183496639872
 40
0.269183496639872
 40
0.269183496639872
 40
0.269183496639872
 10
231.7561362077996
 20
303.6106021204084
 30
0.0
 10
231.7575401888877
 20
303.6027696705175
 30
0.0
 10
231.7603485288233
 20
303.5871026633135
 30
0.0
 10
231.7686524122051
 20
303.5349327245002
 30
0.0
 10
231.7785639292221
 20
303.4536326408067
 30
0.0
 10
231.7802698132105
 20
303.3798048989983
 30
0.0
 10
231.7811225978
 20
303.3428978403
 30
0.0
 11
231.7561362077996
 21
303.6106021204084
 31
0.0
 11
231.7602715286567
 21
303.5870921272189
 31
0.0
 11
231.7640505627622
 21
303.5635157357192
 31
0.0
 11
231.7767546865973
 21
303.4535088199457
 31
0.0
 11
231.7811225978
 21
303.3428978403
 31
0.0
  0
SPLINE
  5
1E1
330
1F
100
AcDbEntity
  8
A_RUNDUNGEN
  6
HIDDEN
 62
   252
420
  8685188
100
AcDbSpline
210
0.0
220
0.0
230
1.0
 70
    24
 71
     3
 72
     9
 73
     5
 74
     3
 42
0.0000000001
 43
0.0000000001
 44
0.00000001
 40
0.0
 40
0.0
 40
0.0
 40
0.0
 40
0.0110783534394488
 40
0.0221567068788002
 40
0.0221567068788002
 40
0.0221567068788002
 40
0.0221567068788002
 10
251.312367892309
 20
328.116542406759
 30
0.0
 10
251.3088103000409
 20
328.1155523590492
 30
0.0
 10
251.3016951155045
 20
328.1135722636295
 30
0.0
 10
251.2945799309682
 20
328.1115921682098
 30
0.0
 10
251.2910223387
 20
328.1106021205
 30
0.0
 11
251.312367892309
 21
328.116542406759
 31
0.0
 11
251.3016951155045
 21
328.1135722636295
 31
0.0
 11
251.2910223387
 21
328.1106021205
 31
0.0
  0
SPLINE
  5
1E2
330
1F
100
AcDbEntity
  8
A_RUNDUNGEN
  6
Continuous
 62
     7
100
AcDbSpline
210
0.0
220
0.0
230
1.0
 70
     8
 71
     3
 72
    23
 73
    19
 74
    17
 42
0.0000000001
 43
0.0000000001
 44
0.00000001
 40
0.0
 40
0.0
 40
0.0
 40
0.0
 40
0.3486301204259306
 40
0.6972602699248359
 40
0.8717541039132691
 40
1.0462498380516
 40
1.220759078742272
 40
1.395267826242157
 40
1.569793778338694
 40
1.744318615905214
 40
1.918857528464832
 40
2.0934022693784
 40
2.26796992292401
 40
2.442514425057692
 40
2.617037196161629
 40
2.791648233039771
 40
2.966384687709922
 40
3.140795532313324
 40
3.140795532313324
 40
3.140795532313324
 40
3.140795532313324
 10
190.3263577307
 20
301.6106021205
 30
0.0
 10
190.3322139546356
 20
301.7269497433408
 30
0.0
 10
190.343926402995
 20
301.9596449987247
 30
0.0
 10
190.422750908536
 20
302.2418674997688
 30
0.0
 10
190.5114796269575
 20
302.4569058622195
 30
0.0
 10
190.5922714068955
 20
302.6118812578709
 30
0.0
 10
190.6861779577662
 20
302.7592095516472
 30
0.0
 10
190.7925816484967
 20
302.8978190137175
 30
0.0
 10
190.9106806425177
 20
303.0266087833556
 30
0.0
 10
191.0395443218832
 20
303.1446440785111
 30
0.0
 10
191.1782250763821
 20
303.2509829861967
 30
0.0
 10
191.3256428797969
 20
303.3448609928984
 30
0.0
 10
191.4806963486137
 20
303.425514818891
 30
0.0
 10
191.6421656704083
 20
303.4923624903273
 30
0.0
 10
191.8088687700286
 20
303.5449479535936
 30
0.0
 10
191.9795721389967
 20
303.5825402814079
 30
0.0
 10
192.1528831653472
 20
303.606239644812
 30
0.0
 10
192.2693036113621
 20
303.6091488663043
 30
0.0
 10
192.3274595483
 20
303.6106021205
 30
0.0
 11
190.3263577307
 21
301.6106021205
 31
0.0
 11
190.3567599576208
 21
301.9579041007225
 31
0.0
 11
190.4470389368599
 21
302.2946424071968
 31
0.0
 11
190.5138474802901
 21
302.4558401634613
 31
0.0
 11
190.5944545386989
 21
302.6106021205669
 31
0.0
 11
190.6882599379211
 21
302.7577551774947
 31
0.0
 11
190.7945266208122
 21
302.896177339959
 31
0.0
 11
190.9124738392531
 21
303.024815443246
 31
0.0
 11
191.0411760942255
 21
303.1426910068401
 31
0.0
 11
191.1796776972324
 21
303.2489037083499
 31
0.0
 11
191.3269086395
 21
303.3426529281845
 31
0.0
 11
191.4817738067825
 21
303.4232174714215
 31
0.0
 11
191.6430424178354
 21
303.4899873621969
 31
0.0
 11
191.809496655473
 21
303.5424390962606
 31
0.0
 11
191.9799718643476
 21
303.5802176266554
 31
0.0
 11
192.1532133259512
 21
303.6030260586959
 31
0.0
 11
192.3274595483
 21
303.6106021205
 31
0.0
  0
SPLINE
  5
1E3
330
1F
100
AcDbEntity
  8
A_RUNDUNGEN
  6
Continuous
 62
     7
100
AcDbSpline
210
0.0
220
0.0
230
1.0
 70
     8
 71
     3
 72
    23
 73
    19
 74
    17
 42
0.0000000001
 43
0.0000000001
 44
0.00000001
 40
0.0
 40
0.0
 40
0.0
 40
0.0
 40
0.3486301204260439
 40
0.6972602699248394
 40
0.8717541039133776
 40
1.046249838051658
 40
1.22075907874233
 40
1.39526782624217
 40
1.569793778338749
 40
1.744318615905192
 40
1.918857528464879
 40
2.093402269378447
 40
2.267969922924083
 40
2.442514425057722
 40
2.617037196161676
 40
2.791648233039806
 40
2.96638468770995
 40
3.140795532313355
 40
3.140795532313355
 40
3.140795532313355
 40
3.140795532313355
 10
190.3263577307
 20
269.8106021205
 30
0.0
 10
190.3322139546356
 20
269.6942544976592
 30
0.0
 10
190.343926402995
 20
269.4615592422752
 30
0.0
 10
190.4227509085362
 20
269.1793367412314
 30
0.0
 10
190.5114796269574
 20
268.9642983787804
 30
0.0
 10
190.5922714068955
 20
268.8093229831291
 30
0.0
 10
190.6861779577663
 20
268.6619946893526
 30
0.0
 10
190.7925816484967
 20
268.5233852272826
 30
0.0
 10
190.9106806425177
 20
268.3945954576443
 30
0.0
 10
191.0395443218831
 20
268.2765601624889
 30
0.0
 10
191.1782250763821
 20
268.1702212548032
 30
0.0
 10
191.3256428797968
 20
268.0763432481016
 30
0.0
 10
191.4806963486136
 20
267.9956894221088
 30
0.0
 10
191.6421656704084
 20
267.9288417506729
 30
0.0
 10
191.8088687700286
 20
267.8762562874063
 30
0.0
 10
191.9795721389967
 20
267.8386639595922
 30
0.0
 10
192.1528831653472
 20
267.8149645961879
 30
0.0
 10
192.2693036113622
 20
267.8120553746957
 30
0.0
 10
192.3274595483
 20
267.8106021205
 30
0.0
 11
190.3263577307
 21
269.8106021205
 31
0.0
 11
190.3567599576208
 21
269.4633001402774
 31
0.0
 11
190.4470389368599
 21
269.1265618338032
 31
0.0
 11
190.5138474802901
 21
268.9653640775386
 31
0.0
 11
190.5944545386989
 21
268.810602120433
 31
0.0
 11
190.6882599379211
 21
268.6634490635053
 31
0.0
 11
190.7945266208122
 21
268.525026901041
 31
0.0
 11
190.9124738392531
 21
268.396388797754
 31
0.0
 11
191.0411760942255
 21
268.27851323416
 31
0.0
 11
191.1796776972324
 21
268.17230053265
 31
0.0
 11
191.3269086395
 21
268.0785513128155
 31
0.0
 11
191.4817738067825
 21
267.9979867695783
 31
0.0
 11
191.6430424178354
 21
267.9312168788031
 31
0.0
 11
191.809496655473
 21
267.8787651447394
 31
0.0
 11
191.9799718643476
 21
267.8409866143446
 31
0.0
 11
192.1532133259512
 21
267.8181781823042
 31
0.0
 11
192.3274595483
 21
267.8106021205
 31
0.0
  0
SPLINE
  5
1E4
330
1F
100
AcDbEntity
  8
A_RUNDUNGEN
  6
Continuous
 62
     7
100
AcDbSpline
210
0.0
220
0.0
230
1.0
 70
     8
 71
     3
 72
    11
 73
     7
 74
     5
 42
0.0000000001
 43
0.0000000001
 44
0.00000001
 40
0.0
 40
0.0
 40
0.0
 40
0.0
 40
0.0238709165799081
 40
0.0477482559400939
 40
0.1584863084803363
 40
0.26918349663987
 40
0.26918349663987
 40
0.26918349663987
 40
0.26918349663987
 10
231.7561362077996
 20
267.8106021205915
 30
0.0
 10
231.7575401888877
 20
267.8184345704824
 30
0.0
 10
231.7603485288233
 20
267.8341015776865
 30
0.0
 10
231.768652412205
 20
267.8862715164998
 30
0.0
 10
231.7785639292221
 20
267.9675716001932
 30
0.0
 10
231.7802698132106
 20
268.0413993420017
 30
0.0
 10
231.7811225978
 20
268.0783064006999
 30
0.0
 11
231.7561362077996
 21
267.8106021205915
 31
0.0
 11
231.7602715286567
 21
267.8341121137811
 31
0.0
 11
231.7640505627622
 21
267.8576885052809
 31
0.0
 11
231.7767546865973
 21
267.9676954210543
 31
0.0
 11
231.7811225978
 21
268.0783064006999
 31
0.0
  0
SPLINE
  5
1E5
330
1F
100
AcDbEntity
  8
A_RUNDUNGEN
  6
Continuous
 62
     7
100
AcDbSpline
210
0.0
220
0.0
230
1.0
 70
     8
 71
     3
 72
    21
 73
    17
 74
    15
 42
0.0000000001
 43
0.0000000001
 44
0.00000001
 40
0.0
 40
0.0
 40
0.0
 40
0.0
 40
0.1033000904630846
 40
0.2066110911630215
 40
0.2982973940456541
 40
0.3900043623149096
 40
0.4698036808976273
 40
0.5495499969935527
 40
0.6221322220313775
 40
0.6944060227964161
 40
0.8499509066029796
 40
1.008805752170707
 40
1.104838192170086
 40
1.200077116881261
 40
1.306659534254966
 40
1.413409392262446
 40
1.413409392262446
 40
1.413409392262446
 40
1.413409392262446
 10
200.6428469201
 20
269.1106021205
 30
0.0
 10
200.608411623207
 20
269.1104040634482
 30
0.0
 10
200.5395373924712
 20
269.1100079284264
 30
0.0
 10
200.4401818656227
 20
269.1052197413701
 30
0.0
 10
200.3450157324172
 20
269.0958943687122
 30
0.0
 10
200.2584950755884
 20
269.0806701320778
 30
0.0
 10
200.1776493378347
 20
269.0582169151016
 30
0.0
 10
200.1062115586415
 20
269.0276187327189
 30
0.0
 10
200.043072173349
 20
268.9867633101245
 30
0.0
 10
199.9691099699325
 20
268.9183401908371
 30
0.0
 10
199.9048742446058
 20
268.8030509980363
 30
0.0
 10
199.8717452520834
 20
268.6696557937803
 30
0.0
 10
199.8564305337616
 20
268.5538767273418
 30
0.0
 10
199.849792253567
 20
268.4547717974345
 30
0.0
 10
199.8464330657736
 20
268.3519542707332
 30
0.0
 10
199.8462947191198
 20
268.2808401719665
 30
0.0
 10
199.8462254915
 20
268.2452552144999
 30
0.0
 11
200.6428469201
 21
269.1106021205
 31
0.0
 11
200.5395553171167
 21
269.1092779442166
 31
0.0
 11
200.4363725852082
 21
269.1041314209718
 31
0.0
 11
200.3451690985912
 21
269.0947344977951
 31
0.0
 11
200.2549221267797
 21
269.078435660168
 31
0.0
 11
200.1781918180628
 21
269.0565178370445
 31
0.0
 11
200.1051187873507
 21
269.0245834180984
 31
0.0
 11
200.0442548969121
 21
268.9850389338798
 31
0.0
 11
199.9914485584591
 21
268.9356932866937
 31
0.0
 11
199.9119964582705
 21
268.8019712815711
 31
0.0
 11
199.8703352433544
 21
268.6486767769988
 31
0.0
 11
199.8574302155523
 21
268.5535153888749
 31
0.0
 11
199.8505574514634
 21
268.4585247688437
 31
0.0
 11
199.8469800430509
 21
268.3520024057349
 31
0.0
 11
199.8462254915
 21
268.2452552144999
 31
0.0
  0
SPLINE
  5
1E6
330
1F
100
AcDbEntity
  8
A_RUNDUNGEN
  6
Continuous
 62
     7
100
AcDbSpline
210
0.0
220
0.0
230
1.0
 70
     8
 71
     3
 72
    15
 73
    11
 74
     9
 42
0.0000000001
 43
0.0000000001
 44
0.00000001
 40
0.0
 40
0.0
 40
0.0
 40
0.0
 40
0.1868751206028332
 40
0.3741098368512288
 40
0.5572411982670009
 40
0.7401634579065688
 40
0.9310271941255426
 40
1.122140250069256
 40
1.341668411805295
 40
1.560477812228051
 40
1.560477812228051
 40
1.560477812228051
 40
1.560477812228051
 10
231.7811225978
 20
268.0783064006999
 30
0.0
 10
231.7786770365831
 20
268.1406569702276
 30
0.0
 10
231.7737812082624
 20
268.2654780877649
 30
0.0
 10
231.7317986518866
 20
268.4475820787068
 30
0.0
 10
231.6620300177886
 20
268.6191626945232
 30
0.0
 10
231.5611629136942
 20
268.7764037615549
 30
0.0
 10
231.4282934815825
 20
268.9119630636535
 30
0.0
 10
231.2595046485567
 20
269.0224981577134
 30
0.0
 10
231.0597791854602
 20
269.0962704315254
 30
0.0
 10
230.9133874819892
 20
269.1058301159864
 30
0.0
 10
230.8403116527
 20
269.1106021205
 30
0.0
 11
231.7811225978
 21
268.0783064006999
 31
0.0
 11
231.7679746993439
 21
268.2647184267779
 31
0.0
 11
231.7266850156763
 21
268.447343728944
 31
0.0
 11
231.6569629498801
 21
268.6166834144141
 31
0.0
 11
231.5577590142088
 21
268.770368586825
 31
0.0
 11
231.4240221812839
 21
268.9065428330049
 31
0.0
 11
231.2642148371289
 21
269.0113560616847
 31
0.0
 11
231.0577184635619
 21
269.0858668763284
 31
0.0
 11
230.8403116527
 21
269.1106021205
 31
0.0
  0
XLINE
  5
1E7
330
1F
100
AcDbEntity
  8
1
  6
DOT_CENTER
 62
     3
 60
     1
100
AcDbXline
 10
166.192805460051
 20
285.7106021205
 30
0.0
 11
1.0
 21
0.0
 31
0.0
  0
XLINE
  5
1E8
330
1F
100
AcDbEntity
  8
1
  6
DOT_CENTER
 62
     3
 60
     1
100
AcDbXline
 10
180.0898190144
 20
253.3106021205
 30
0.0
 11
0.0
 21
1.0
 31
0.0
  0
XLINE
  5
1E9
330
1F
100
AcDbEntity
  8
1
  6
DOT_CENTER
 62
     3
 60
     1
100
AcDbXline
 10
179.7723503765
 20
253.3106021205
 30
0.0
 11
-1.0
 21
0.0
 31
0.0
  0
XLINE
  5
1EA
330
1F
100
AcDbEntity
  8
1
  6
DOT_CENTER
 62
     3
 60
     1
100
AcDbXline
 10
179.7723503765
 20
318.1106021205
 30
0.0
 11
-1.0
 21
0.0
 31
0.0
  0
XLINE
  5
1EB
330
1F
100
AcDbEntity
  8
1
  6
DOT_CENTER
 62
     3
 60
     1
100
AcDbXline
 10
166.192805460051
 20
285.7106021205
 30
0.0
 11
1.0
 21
0.0
 31
0.0
  0
MTEXT
  5
1ED
330
1F
100
AcDbEntity
  8
1
 62
     2
100
AcDbMText
 10
260.341025961108
 20
288.793034011551
 30
0.0
 40
2.5
 41
0.0
 71
     5
 72
     1
  1
BBL
  7
CONVERTER_11
 73
     1
 44
1.32052821128451
  0
DIMENSION
  5
1F8
330
1F
100
AcDbEntity
  8
1
100
AcDbDimension
  2
*D1
 10
157.797218821672
 20
193.2106021205
 30
0.0
 11
154.047218821672
 21
282.934539500194
 31
0.0
 70
    32
  1
<>
 71
     5
 42
-1.0
 53
90.0
  3
ME10_DIM_10
100
AcDbAlignedDimension
 13
182.2398190144
 23
378.2106021205
 33
0.0
 14
182.2398190144
 24
193.2106021205
 34
0.0
 50
90.0
100
AcDbRotatedDimension
  0
DIMENSION
  5
203
330
1F
100
AcDbEntity
  8
1
100
AcDbDimension
  2
*D2
 10
200.1398190144
 20
225.693899517372
 30
0.0
 11
211.400906896004
 21
229.443899517372
 31
0.0
 70
    32
  1
22.3
 71
     5
 42
-1.0
 53
0.00013888888889
  3
ME10_DIM_11
100
AcDbAlignedDimension
 13
222.4021334498
 23
254.5606021205
 33
0.0
 14
200.1398190144
 24
254.5606021205
 34
0.0
100
AcDbRotatedDimension
  0
DIMENSION
  5
20F
330
1F
100
AcDbEntity
  8
1
100
AcDbDimension
  2
*D3
 10
168.2398190144
 20
183.087157075627
 30
0.0
 11
181.1377034459557
 21
186.837157075627
 31
0.0
 70
    32
  1
<>
 71
     5
 42
-1.0
 53
0.00013888888889
  3
ME10_DIM_12
100
AcDbAlignedDimension
 13
196.2398190144
 23
207.1106021205
 33
0.0
 14
168.2398190144
 24
207.1106021205
 34
0.0
100
AcDbRotatedDimension
  0
DIMENSION
  5
21A
330
1F
100
AcDbEntity
  8
1
100
AcDbDimension
  2
*D4
 10
226.4021334498
 20
183.087157075627
 30
0.0
 11
240.4021334498
 21
186.837157075627
 31
0.0
 70
    32
  1
<>
 71
     5
 42
-1.0
 53
0.00013888888889
  3
ME10_DIM_13
100
AcDbAlignedDimension
 13
254.4021334498
 23
243.3106021205
 33
0.0
 14
226.4021334498
 24
207.2106021205
 34
0.0
100
AcDbRotatedDimension
  0
DIMENSION
  5
225
330
1F
100
AcDbEntity
  8
1
100
AcDbDimension
  2
*D5
 10
196.2398190144
 20
183.087157075627
 30
0.0
 11
211.3209762321
 21
186.837157075627
 31
0.0
 70
    32
  1
30
 71
     5
 42
-1.0
 53
0.00013888888889
  3
ME10_DIM_14
100
AcDbAlignedDimension
 13
226.4021334498
 23
207.2106021205
 33
0.0
 14
196.2398190144
 24
207.1106021205
 34
0.0
100
AcDbRotatedDimension
  0
ENDSEC
  0
SECTION
  2
OBJECTS
  0
DICTIONARY
  5
C
330
0
100
AcDbDictionary
281
     1
  3
ACAD_GROUP
350
D
  3
ACAD_LAYOUT
350
1A
  3
ACAD_MLINESTYLE
350
17
  3
ACAD_PLOTSETTINGS
350
19
  3
ACAD_PLOTSTYLENAME
350
E
  0
DICTIONARY
  5
D
102
{ACAD_REACTORS
330
C
102
}
330
C
100
AcDbDictionary
281
     1
  0
DICTIONARY
  5
1A
102
{ACAD_REACTORS
330
C
102
}
330
C
100
AcDbDictionary
281
     1
  3
Layout1
350
1E
  3
Layout2
350
26
  3
Model
350
22
  0
DICTIONARY
  5
17
102
{ACAD_REACTORS
330
C
102
}
330
C
100
AcDbDictionary
281
     1
  3
Standard
350
18
  0
DICTIONARY
  5
19
102
{ACAD_REACTORS
330
C
102
}
330
C
100
AcDbDictionary
281
     1
  0
ACDBDICTIONARYWDFLT
  5
E
102
{ACAD_REACTORS
330
C
102
}
330
C
100
AcDbDictionary
281
     1
  3
Normal
350
F
100
AcDbDictionaryWithDefault
340
F
  0
LAYOUT
  5
1E
102
{ACAD_REACTORS
330
1A
102
}
330
1A
100
AcDbPlotSettings
  1

  2

  4

  6

 40
0.0
 41
0.0
 42
0.0
 43
0.0
 44
0.0
 45
0.0
 46
0.0
 47
0.0
 48
0.0
 49
0.0
140
0.0
141
0.0
142
1.0
143
1.0
 70
   688
 72
     0
 73
     0
 74
     5
  7

 75
    16
 76
     0
 77
     2
 78
   300
147
1.0
148
0.0
149
0.0
100
AcDbLayout
  1
Layout1
 70
     1
 71
     1
 10
0.0
 20
0.0
 11
0.0
 21
0.0
 12
0.0
 22
0.0
 32
0.0
 14
0.0
 24
0.0
 34
0.0
 15
0.0
 25
0.0
 35
0.0
146
0.0
 13
0.0
 23
0.0
 33
0.0
 16
1.0
 26
0.0
 36
0.0
 17
0.0
 27
1.0
 37
0.0
 76
     0
330
1B
  0
LAYOUT
  5
26
102
{ACAD_REACTORS
330
1A
102
}
330
1A
100
AcDbPlotSettings
  1

  2

  4

  6

 40
0.0
 41
0.0
 42
0.0
 43
0.0
 44
0.0
 45
0.0
 46
0.0
 47
0.0
 48
0.0
 49
0.0
140
0.0
141
0.0
142
1.0
143
1.0
 70
   688
 72
     0
 73
     0
 74
     5
  7

 75
    16
 76
     0
 77
     2
 78
   300
147
1.0
148
0.0
149
0.0
100
AcDbLayout
  1
Layout2
 70
     1
 71
     2
 10
0.0
 20
0.0
 11
0.0
 21
0.0
 12
0.0
 22
0.0
 32
0.0
 14
0.0
 24
0.0
 34
0.0
 15
0.0
 25
0.0
 35
0.0
146
0.0
 13
0.0
 23
0.0
 33
0.0
 16
1.0
 26
0.0
 36
0.0
 17
0.0
 27
1.0
 37
0.0
 76
     0
330
23
  0
LAYOUT
  5
22
102
{ACAD_REACTORS
330
1A
102
}
330
1A
100
AcDbPlotSettings
  1

  2

  4

  6

 40
0.0
 41
0.0
 42
0.0
 43
0.0
 44
0.0
 45
0.0
 46
0.0
 47
0.0
 48
0.0
 49
0.0
140
0.0
141
0.0
142
1.0
143
1.0
 70
  1712
 72
     0
 73
     0
 74
     0
  7

 75
     0
 76
     0
 77
     2
 78
   300
147
1.0
148
0.0
149
0.0
100
AcDbLayout
  1
Model
 70
     1
 71
     0
 10
0.0
 20
0.0
 11
0.0
 21
0.0
 12
0.0
 22
0.0
 32
0.0
 14
152.297218821672
 24
181.087157075627
 34
0.0
 15
266.289601624481
 25
378.210691725947
 35
0.0
146
0.0
 13
0.0
 23
0.0
 33
0.0
 16
1.0
 26
0.0
 36
0.0
 17
0.0
 27
1.0
 37
0.0
 76
     0
330
1F
  0
MLINESTYLE
  5
18
102
{ACAD_REACTORS
330
17
102
}
330
17
100
AcDbMlineStyle
  2
Standard
 70
     0
  3

 62
   256
 51
90.0
 52
90.0
 71
     2
 49
0.5
 62
   256
  6
BYLAYER
 49
-0.5
 62
   256
  6
BYLAYER
  0
ACDBPLACEHOLDER
  5
F
102
{ACAD_REACTORS
330
E
102
}
330
E
  0
ENDSEC
  0
EOF
