  0
SECTION
  2
HEADER
  9
$ACADVER
  1
AC1018
  9
$ACADMAINTVER
 70
     0
  9
$DWGCODEPAGE
  3
ANSI_1252
  9
$INSBASE
 10
0.0
 20
0.0
 30
0.0
  9
$EXTMIN
 10
27.9563214214294
 20
148.527963833315
 30
0.0
  9
$EXTMAX
 10
189.314724567864
 20
250.8603847856
 30
0.0
  9
$LIMMIN
 10
0.0
 20
0.0
  9
$LIMMAX
 10
12.0
 20
9.0
  9
$ORTHOMODE
 70
     0
  9
$REGENMODE
 70
     1
  9
$FILLMODE
 70
     1
  9
$QTEXTMODE
 70
     0
  9
$MIRRTEXT
 70
     1
  9
$LTSCALE
 40
1.0
  9
$ATTMODE
 70
     1
  9
$TEXTSIZE
 40
0.2
  9
$TRACEWID
 40
0.05
  9
$TEXTSTYLE
  7
Standard
  9
$CLAYER
  8
0
  9
$CELTYPE
  6
ByLayer
  9
$CECOLOR
 62
   256
  9
$CELTSCALE
 40
1.0
  9
$DISPSILH
 70
     0
  9
$DIMSCALE
 40
1.0
  9
$DIMASZ
 40
0.18
  9
$DIMEXO
 40
0.0625
  9
$DIMDLI
 40
0.38
  9
$DIMRND
 40
0.0
  9
$DIMDLE
 40
0.0
  9
$DIMEXE
 40
0.18
  9
$DIMTP
 40
0.0
  9
$DIMTM
 40
0.0
  9
$DIMTXT
 40
0.18
  9
$DIMCEN
 40
0.09
  9
$DIMTSZ
 40
0.0
  9
$DIMTOL
 70
     0
  9
$DIMLIM
 70
     0
  9
$DIMTIH
 70
     1
  9
$DIMTOH
 70
     1
  9
$DIMSE1
 70
     0
  9
$DIMSE2
 70
     0
  9
$DIMTAD
 70
     0
  9
$DIMZIN
 70
     0
  9
$DIMBLK
  1

  9
$DIMASO
 70
     1
  9
$DIMSHO
 70
     1
  9
$DIMPOST
  1

  9
$DIMAPOST
  1

  9
$DIMALT
 70
     0
  9
$DIMALTD
 70
     2
  9
$DIMALTF
 40
25.4
  9
$DIMLFAC
 40
1.0
  9
$DIMTOFL
 70
     0
  9
$DIMTVP
 40
0.0
  9
$DIMTIX
 70
     0
  9
$DIMSOXD
 70
     0
  9
$DIMSAH
 70
     0
  9
$DIMBLK1
  1

  9
$DIMBLK2
  1

  9
$DIMSTYLE
  2
Standard
  9
$DIMCLRD
 70
     0
  9
$DIMCLRE
 70
     0
  9
$DIMCLRT
 70
     0
  9
$DIMTFAC
 40
1.0
  9
$DIMGAP
 40
0.09
  9
$DIMJUST
 70
     0
  9
$DIMSD1
 70
     0
  9
$DIMSD2
 70
     0
  9
$DIMTOLJ
 70
     1
  9
$DIMTZIN
 70
     0
  9
$DIMALTZ
 70
     0
  9
$DIMALTTZ
 70
     0
  9
$DIMUPT
 70
     0
  9
$DIMDEC
 70
     4
  9
$DIMTDEC
 70
     4
  9
$DIMALTU
 70
     2
  9
$DIMALTTD
 70
     2
  9
$DIMTXSTY
  7
Standard
  9
$DIMAUNIT
 70
     0
  9
$DIMADEC
 70
     0
  9
$DIMALTRND
 40
0.0
  9
$DIMAZIN
 70
     0
  9
$DIMDSEP
 70
    46
  9
$DIMATFIT
 70
     3
  9
$DIMFRAC
 70
     0
  9
$DIMLDRBLK
  1

  9
$DIMLUNIT
 70
     2
  9
$DIMLWD
 70
    -2
  9
$DIMLWE
 70
    -2
  9
$DIMTMOVE
 70
     0
  9
$LUNITS
 70
     2
  9
$LUPREC
 70
     4
  9
$SKETCHINC
 40
0.1
  9
$FILLETRAD
 40
0.5
  9
$AUNITS
 70
     0
  9
$AUPREC
 70
     0
  9
$MENU
  1
.
  9
$ELEVATION
 40
0.0
  9
$PELEVATION
 40
0.0
  9
$THICKNESS
 40
0.0
  9
$LIMCHECK
 70
     0
  9
$CHAMFERA
 40
0.5
  9
$CHAMFERB
 40
0.5
  9
$CHAMFERC
 40
1.0
  9
$CHAMFERD
 40
0.0
  9
$SKPOLY
 70
     0
  9
$TDCREATE
 40
2455820.474044387
  9
$TDUCREATE
 40
2455820.390711053
  9
$TDUPDATE
 40
2455820.474044398
  9
$TDUUPDATE
 40
2455820.390711065
  9
$TDINDWG
 40
0.0000000116
  9
$TDUSRTIMER
 40
0.0000000116
  9
$USRTIMER
 70
     1
  9
$ANGBASE
 50
0.0
  9
$ANGDIR
 70
     0
  9
$PDMODE
 70
     0
  9
$PDSIZE
 40
0.0
  9
$PLINEWID
 40
0.0
  9
$SPLFRAME
 70
     0
  9
$SPLINETYPE
 70
     6
  9
$SPLINESEGS
 70
     8
  9
$HANDSEED
  5
1E0
  9
$SURFTAB1
 70
     6
  9
$SURFTAB2
 70
     6
  9
$SURFTYPE
 70
     6
  9
$SURFU
 70
     6
  9
$SURFV
 70
     6
  9
$UCSBASE
  2

  9
$UCSNAME
  2

  9
$UCSORG
 10
0.0
 20
0.0
 30
0.0
  9
$UCSXDIR
 10
1.0
 20
0.0
 30
0.0
  9
$UCSYDIR
 10
0.0
 20
1.0
 30
0.0
  9
$UCSORTHOREF
  2

  9
$UCSORTHOVIEW
 70
     0
  9
$UCSORGTOP
 10
0.0
 20
0.0
 30
0.0
  9
$UCSORGBOTTOM
 10
0.0
 20
0.0
 30
0.0
  9
$UCSORGLEFT
 10
0.0
 20
0.0
 30
0.0
  9
$UCSORGRIGHT
 10
0.0
 20
0.0
 30
0.0
  9
$UCSORGFRONT
 10
0.0
 20
0.0
 30
0.0
  9
$UCSORGBACK
 10
0.0
 20
0.0
 30
0.0
  9
$PUCSBASE
  2

  9
$PUCSNAME
  2

  9
$PUCSORG
 10
0.0
 20
0.0
 30
0.0
  9
$PUCSXDIR
 10
1.0
 20
0.0
 30
0.0
  9
$PUCSYDIR
 10
0.0
 20
1.0
 30
0.0
  9
$PUCSORTHOREF
  2

  9
$PUCSORTHOVIEW
 70
     0
  9
$PUCSORGTOP
 10
0.0
 20
0.0
 30
0.0
  9
$PUCSORGBOTTOM
 10
0.0
 20
0.0
 30
0.0
  9
$PUCSORGLEFT
 10
0.0
 20
0.0
 30
0.0
  9
$PUCSORGRIGHT
 10
0.0
 20
0.0
 30
0.0
  9
$PUCSORGFRONT
 10
0.0
 20
0.0
 30
0.0
  9
$PUCSORGBACK
 10
0.0
 20
0.0
 30
0.0
  9
$USERI1
 70
     0
  9
$USERI2
 70
     0
  9
$USERI3
 70
     0
  9
$USERI4
 70
     0
  9
$USERI5
 70
     0
  9
$USERR1
 40
14.5
  9
$USERR2
 40
0.0
  9
$USERR3
 40
0.0
  9
$USERR4
 40
0.0
  9
$USERR5
 40
0.0
  9
$WORLDVIEW
 70
     1
  9
$SHADEDGE
 70
     3
  9
$SHADEDIF
 70
    70
  9
$TILEMODE
 70
     1
  9
$MAXACTVP
 70
    64
  9
$PINSBASE
 10
0.0
 20
0.0
 30
0.0
  9
$PLIMCHECK
 70
     0
  9
$PEXTMIN
 10
1.00000000000000E+20
 20
1.00000000000000E+20
 30
1.00000000000000E+20
  9
$PEXTMAX
 10
-1.00000000000000E+20
 20
-1.00000000000000E+20
 30
-1.00000000000000E+20
  9
$PLIMMIN
 10
0.0
 20
0.0
  9
$PLIMMAX
 10
12.0
 20
9.0
  9
$UNITMODE
 70
     0
  9
$VISRETAIN
 70
     1
  9
$PLINEGEN
 70
     0
  9
$PSLTSCALE
 70
     1
  9
$TREEDEPTH
 70
  3020
  9
$CMLSTYLE
  2
Standard
  9
$CMLJUST
 70
     0
  9
$CMLSCALE
 40
1.0
  9
$PROXYGRAPHICS
 70
     1
  9
$MEASUREMENT
 70
     1
  9
$CELWEIGHT
370
    -1
  9
$ENDCAPS
280
     0
  9
$JOINSTYLE
280
     0
  9
$LWDISPLAY
290
     0
  9
$INSUNITS
 70
     1
  9
$HYPERLINKBASE
  1

  9
$STYLESHEET
  1

  9
$XEDIT
290
     1
  9
$CEPSNTYPE
380
     0
  9
$PSTYLEMODE
290
     1
  9
$FINGERPRINTGUID
  2
{611F5BAE-F588-4424-B698-718AEC89A7D9}
  9
$VERSIONGUID
  2
{FAEB1C32-E019-11D5-929B-00C0DF256EC4}
  9
$EXTNAMES
290
     1
  9
$PSVPSCALE
 40
0.0
  9
$OLESTARTUP
290
     0
  9
$SORTENTS
280
   127
  9
$INDEXCTL
280
     0
  9
$HIDETEXT
280
     1
  9
$XCLIPFRAME
290
     0
  9
$HALOGAP
280
     0
  9
$OBSCOLOR
 70
   257
  9
$OBSLTYPE
280
     0
  9
$INTERSECTIONDISPLAY
280
     0
  9
$INTERSECTIONCOLOR
 70
   257
  9
$DIMASSOC
280
     2
  9
$PROJECTNAME
  1

  0
ENDSEC
  0
SECTION
  2
CLASSES
  0
CLASS
  1
ACDBDICTIONARYWDFLT
  2
AcDbDictionaryWithDefault
  3
ObjectDBX Classes
 90
        0
 91
        3
280
     0
281
     0
  0
CLASS
  1

  2
exOdDbCircle
  3

 90
        0
 91
        3
280
     0
281
     1
  0
CLASS
  1

  2
exOdDbSpline
  3

 90
        0
 91
        3
280
     0
281
     1
  0
ENDSEC
  0
SECTION
  2
TABLES
  0
TABLE
  2
VPORT
  5
8
330
0
100
AcDbSymbolTable
 70
     1
  0
VPORT
  5
29
330
8
100
AcDbSymbolTableRecord
100
AcDbViewportTableRecord
  2
*Active
 70
     0
 10
0.0
 20
0.0
 11
1.0
 21
1.0
 12
108.6355229946467
 22
199.6941743094575
 13
0.0
 23
0.0
 14
0.5
 24
0.5
 15
0.5
 25
0.5
 16
0.0
 26
0.0
 36
1.0
 17
0.0
 27
0.0
 37
0.0
 40
112.5656630475135
 41
1.60267857142857
 42
50.0
 43
0.0
 44
0.0
 50
0.0
 51
0.0
 71
     0
 72
   100
 73
     1
 74
     3
 75
     0
 76
     0
 77
     0
 78
     0
281
     0
 65
     1
110
0.0
120
0.0
130
0.0
111
1.0
121
0.0
131
0.0
112
0.0
122
1.0
132
0.0
 79
     0
146
0.0
  0
ENDTAB
  0
TABLE
  2
LTYPE
  5
5
330
0
100
AcDbSymbolTable
 70
     8
  0
LTYPE
  5
14
330
5
100
AcDbSymbolTableRecord
100
AcDbLinetypeTableRecord
  2
ByBlock
 70
     0
  3

 72
    65
 73
     0
 40
0.0
  0
LTYPE
  5
15
330
5
100
AcDbSymbolTableRecord
100
AcDbLinetypeTableRecord
  2
ByLayer
 70
     0
  3

 72
    65
 73
     0
 40
0.0
  0
LTYPE
  5
16
330
5
100
AcDbSymbolTableRecord
100
AcDbLinetypeTableRecord
  2
Continuous
 70
     0
  3
Solid line
 72
    65
 73
     0
 40
0.0
  0
LTYPE
  5
2A
330
5
100
AcDbSymbolTableRecord
100
AcDbLinetypeTableRecord
  2
DASHED
 70
     0
  3
Dashed
 72
    65
 73
     2
 40
15.0
 49
7.0
 74
     0
 49
-8.0
 74
     0
  0
LTYPE
  5
2B
330
5
100
AcDbSymbolTableRecord
100
AcDbLinetypeTableRecord
  2
DOTTED
 70
     0
  3
Dotted
 72
    65
 73
     2
 40
1.0
 49
0.0
 74
     0
 49
-1.0
 74
     0
  0
LTYPE
  5
2C
330
5
100
AcDbSymbolTableRecord
100
AcDbLinetypeTableRecord
  2
DOT_CENTER
 70
     0
  3
Dot_Center
 72
    65
 73
     4
 40
14.0
 49
12.0
 74
     0
 49
-1.0
 74
     0
 49
0.0
 74
     0
 49
-1.0
 74
     0
  0
LTYPE
  5
2D
330
5
100
AcDbSymbolTableRecord
100
AcDbLinetypeTableRecord
  2
LONG_DASHED
 70
     0
  3
Long_Dashed
 72
    65
 73
     2
 40
15.0
 49
10.0
 74
     0
 49
-5.0
 74
     0
  0
LTYPE
  5
2E
330
5
100
AcDbSymbolTableRecord
100
AcDbLinetypeTableRecord
  2
DASH_CENTER
 70
     0
  3
Dash_Center
 72
    65
 73
     4
 40
14.0
 49
11.0
 74
     0
 49
-1.0
 74
     0
 49
1.0
 74
     0
 49
-1.0
 74
     0
  0
LTYPE
  5
2F
330
5
100
AcDbSymbolTableRecord
100
AcDbLinetypeTableRecord
  2
PHANTOM
 70
     0
  3
Phantom
 72
    65
 73
     6
 40
13.0
 49
10.0
 74
     0
 49
-1.0
 74
     0
 49
0.0
 74
     0
 49
-1.0
 74
     0
 49
0.0
 74
     0
 49
-1.0
 74
     0
  0
LTYPE
  5
30
330
5
100
AcDbSymbolTableRecord
100
AcDbLinetypeTableRecord
  2
CENTER_DASH_DASH
 70
     0
  3
Center_Dash_Dash
 72
    65
 73
     6
 40
14.0
 49
9.0
 74
     0
 49
-1.0
 74
     0
 49
1.0
 74
     0
 49
-1.0
 74
     0
 49
1.0
 74
     0
 49
-1.0
 74
     0
  0
ENDTAB
  0
TABLE
  2
LAYER
  5
2
330
0
100
AcDbSymbolTable
 70
     7
  0
LAYER
  5
10
330
2
100
AcDbSymbolTableRecord
100
AcDbLayerTableRecord
  2
0
 70
     0
 62
     7
  6
Continuous
370
    -3
390
F
  0
LAYER
  5
31
330
2
100
AcDbSymbolTableRecord
100
AcDbLayerTableRecord
  2
1
 70
     0
 62
     7
  6
Continuous
370
    -3
390
F
  0
LAYER
  5
32
330
2
100
AcDbSymbolTableRecord
100
AcDbLayerTableRecord
  2
A_ACHSEN
 70
     0
 62
     7
  6
Continuous
370
    -3
390
F
  0
LAYER
  5
33
330
2
100
AcDbSymbolTableRecord
100
AcDbLayerTableRecord
  2
A_BEMASSUNGEN
 70
     0
 62
     7
  6
Continuous
370
    -3
390
F
  0
LAYER
  5
34
330
2
100
AcDbSymbolTableRecord
100
AcDbLayerTableRecord
  2
A_NOTIZEN_SYMB
 70
     0
 62
     7
  6
Continuous
370
    -3
390
F
  0
LAYER
  5
35
330
2
100
AcDbSymbolTableRecord
100
AcDbLayerTableRecord
  2
A_RUNDUNGEN
 70
     0
 62
     7
  6
Continuous
370
    -3
390
F
  0
LAYER
  5
36
330
2
100
AcDbSymbolTableRecord
100
AcDbLayerTableRecord
  2
DEFAULT_2
 70
     0
 62
     7
  6
Continuous
370
    -3
390
F
  0
ENDTAB
  0
TABLE
  2
STYLE
  5
3
330
0
100
AcDbSymbolTable
 70
     2
  0
STYLE
  5
11
330
3
100
AcDbSymbolTableRecord
100
AcDbTextStyleTableRecord
  2
Standard
 70
     0
 40
0.0
 41
1.0
 50
0.0
 71
     0
 42
0.2
  3
txt
  4

  0
STYLE
  5
17E
330
3
100
AcDbSymbolTableRecord
100
AcDbTextStyleTableRecord
  2
CONVERTER_11
 70
     0
 40
0.0
 41
0.9
 50
0.0
 71
     0
 42
0.2
  3
txt.shx
  4

  0
ENDTAB
  0
TABLE
  2
VIEW
  5
6
330
0
100
AcDbSymbolTable
 70
     0
  0
ENDTAB
  0
TABLE
  2
UCS
  5
7
330
0
100
AcDbSymbolTable
 70
     0
  0
ENDTAB
  0
TABLE
  2
APPID
  5
9
330
0
100
AcDbSymbolTable
 70
     1
  0
APPID
  5
12
330
9
100
AcDbSymbolTableRecord
100
AcDbRegAppTableRecord
  2
ACAD
 70
     0
  0
ENDTAB
  0
TABLE
  2
DIMSTYLE
  5
A
330
0
100
AcDbSymbolTable
 70
    10
100
AcDbDimStyleTable
  0
DIMSTYLE
105
27
330
A
100
AcDbSymbolTableRecord
100
AcDbDimStyleTableRecord
  2
Standard
 70
     0
340
11
  0
DIMSTYLE
105
182
102
{ACAD_REACTORS
330
183
102
}
330
A
100
AcDbSymbolTableRecord
100
AcDbDimStyleTableRecord
  2
ME10_DIM_10
 70
     0
 41
3.5
 42
0.0
 44
2.0
 73
     0
 74
     0
 77
     1
 78
     8
140
3.5
147
2.0
172
     1
173
     1
176
     2
177
     2
178
     2
271
     3
340
17E
  0
DIMSTYLE
105
18D
102
{ACAD_REACTORS
330
18E
102
}
330
A
100
AcDbSymbolTableRecord
100
AcDbDimStyleTableRecord
  2
ME10_DIM_11
 70
     0
 41
3.5
 42
0.0
 44
2.0
 73
     0
 74
     0
 77
     1
 78
     8
140
3.5
147
2.0
172
     1
173
     1
176
     2
177
     2
178
     2
271
     3
340
17E
  0
DIMSTYLE
105
198
102
{ACAD_REACTORS
330
199
102
}
330
A
100
AcDbSymbolTableRecord
100
AcDbDimStyleTableRecord
  2
ME10_DIM_12
 70
     0
 41
3.5
 42
0.0
 44
2.0
 73
     0
 74
     0
 77
     1
 78
     8
140
3.5
147
2.0
172
     1
173
     1
176
     2
177
     2
178
     2
271
     3
340
17E
  0
DIMSTYLE
105
1A3
102
{ACAD_REACTORS
330
1A4
102
}
330
A
100
AcDbSymbolTableRecord
100
AcDbDimStyleTableRecord
  2
ME10_DIM_13
 70
     0
 41
3.5
 42
0.0
 44
2.0
 73
     0
 74
     0
 77
     1
 78
     8
140
3.5
147
2.0
172
     1
173
     1
176
     2
177
     2
178
     2
271
     3
340
17E
  0
DIMSTYLE
105
1B0
102
{ACAD_REACTORS
330
1B1
102
}
330
A
100
AcDbSymbolTableRecord
100
AcDbDimStyleTableRecord
  2
ME10_DIM_14
 70
     0
 41
3.5
 42
0.0
 44
2.0
 73
     0
 74
     0
 77
     1
 78
     8
140
3.5
147
2.0
172
     1
173
     1
176
     2
177
     2
178
     2
271
     3
340
17E
  0
DIMSTYLE
105
1BB
102
{ACAD_REACTORS
330
1BC
102
}
330
A
100
AcDbSymbolTableRecord
100
AcDbDimStyleTableRecord
  2
ME10_DIM_15
 70
     0
 41
3.5
 42
0.0
 44
2.0
 73
     0
 74
     0
 77
     1
 78
     8
140
3.5
147
2.0
172
     1
173
     1
176
     2
177
     2
178
     2
271
     3
340
17E
  0
DIMSTYLE
105
1C6
102
{ACAD_REACTORS
330
1C7
102
}
330
A
100
AcDbSymbolTableRecord
100
AcDbDimStyleTableRecord
  2
ME10_DIM_16
 70
     0
 41
3.5
 42
0.0
 44
2.0
 73
     0
 74
     0
 77
     1
 78
     8
140
3.5
147
2.0
172
     1
173
     1
176
     2
177
     2
178
     2
271
     3
340
17E
  0
DIMSTYLE
105
1D1
102
{ACAD_REACTORS
330
1D2
102
}
330
A
100
AcDbSymbolTableRecord
100
AcDbDimStyleTableRecord
  2
ME10_DIM_17
 70
     0
 41
3.5
 42
0.0
 44
2.0
 73
     0
 74
     0
 77
     1
 78
     8
140
3.5
147
2.0
172
     1
173
     1
176
     2
177
     2
178
     2
271
     3
340
17E
  0
DIMSTYLE
105
1DE
102
{ACAD_REACTORS
330
1DF
102
}
330
A
100
AcDbSymbolTableRecord
100
AcDbDimStyleTableRecord
  2
ME10_DIM_18
 70
     0
 41
3.5
 42
0.0
 44
2.0
 73
     0
 74
     0
 77
     1
 78
     8
140
3.5
147
2.0
172
     1
173
     1
176
     2
177
     2
178
     2
271
     3
340
17E
  0
ENDTAB
  0
TABLE
  2
BLOCK_RECORD
  5
1
330
0
100
AcDbSymbolTable
 70
    10
  0
BLOCK_RECORD
  5
1F
330
1
100
AcDbSymbolTableRecord
100
AcDbBlockTableRecord
  2
*Model_Space
340
22
  0
BLOCK_RECORD
  5
1B
330
1
100
AcDbSymbolTableRecord
100
AcDbBlockTableRecord
  2
*Paper_Space
340
1E
  0
BLOCK_RECORD
  5
23
330
1
100
AcDbSymbolTableRecord
100
AcDbBlockTableRecord
  2
*Paper_Space0
340
26
  0
BLOCK_RECORD
  5
178
330
1
100
AcDbSymbolTableRecord
100
AcDbBlockTableRecord
  2
*D1
340
0
  0
BLOCK_RECORD
  5
184
330
1
100
AcDbSymbolTableRecord
100
AcDbBlockTableRecord
  2
*D2
340
0
  0
BLOCK_RECORD
  5
18F
330
1
100
AcDbSymbolTableRecord
100
AcDbBlockTableRecord
  2
*D3
340
0
  0
BLOCK_RECORD
  5
19A
330
1
100
AcDbSymbolTableRecord
100
AcDbBlockTableRecord
  2
*D4
340
0
  0
BLOCK_RECORD
  5
1A5
330
1
100
AcDbSymbolTableRecord
100
AcDbBlockTableRecord
  2
*D5
340
0
  0
BLOCK_RECORD
  5
1B2
330
1
100
AcDbSymbolTableRecord
100
AcDbBlockTableRecord
  2
*D6
340
0
  0
BLOCK_RECORD
  5
1BD
330
1
100
AcDbSymbolTableRecord
100
AcDbBlockTableRecord
  2
*D7
340
0
  0
BLOCK_RECORD
  5
1C8
330
1
100
AcDbSymbolTableRecord
100
AcDbBlockTableRecord
  2
*D8
340
0
  0
BLOCK_RECORD
  5
1D3
330
1
100
AcDbSymbolTableRecord
100
AcDbBlockTableRecord
  2
*D9
340
0
  0
ENDTAB
  0
ENDSEC
  0
SECTION
  2
BLOCKS
  0
BLOCK
  5
20
330
1F
100
AcDbEntity
  8
0
100
AcDbBlockBegin
  2
*Model_Space
 70
     0
 71
     0
 10
0.0
 20
0.0
 30
0.0
  3
*Model_Space
  1

  0
ENDBLK
  5
21
330
1F
100
AcDbEntity
  8
0
100
AcDbBlockEnd
  0
BLOCK
  5
1C
330
1B
100
AcDbEntity
 67
     1
  8
0
100
AcDbBlockBegin
  2
*Paper_Space
 70
     0
 71
     0
 10
0.0
 20
0.0
 30
0.0
  3
*Paper_Space
  1

  0
ENDBLK
  5
1D
330
1B
100
AcDbEntity
 67
     1
  8
0
100
AcDbBlockEnd
  0
BLOCK
  5
24
330
23
100
AcDbEntity
  8
0
100
AcDbBlockBegin
  2
*Paper_Space0
 70
     0
 71
     0
 10
0.0
 20
0.0
 30
0.0
  3
*Paper_Space0
  1

  0
ENDBLK
  5
25
330
23
100
AcDbEntity
  8
0
100
AcDbBlockEnd
  0
BLOCK
  5
180
330
178
100
AcDbEntity
  8
0
100
AcDbBlockBegin
  2
*D1
 70
     1
 71
     0
 10
0.0
 20
0.0
 30
0.0
  3
*D1
  1

  0
LINE
  5
179
330
178
100
AcDbEntity
  8
1
  6
Continuous
 62
     2
100
AcDbLine
 10
49.1810266502592
 20
213.8603847856
 30
0.0
 11
49.1810266502592
 21
185.8603847856
 31
0.0
  0
LINE
  5
17A
330
178
100
AcDbEntity
  8
1
  6
Continuous
 62
     2
100
AcDbLine
 10
73.6981017396
 20
185.8603847856
 30
0.0
 11
47.1810266502592
 21
185.8603847856
 31
0.0
  0
LINE
  5
17B
330
178
100
AcDbEntity
  8
1
  6
Continuous
 62
     2
100
AcDbLine
 10
73.6981017396
 20
213.8603847856
 30
0.0
 11
47.1810266502592
 21
213.8603847856
 31
0.0
  0
SOLID
  5
17C
330
178
100
AcDbEntity
  8
1
 62
     2
100
AcDbTrace
 10
49.64181039181508
 20
210.3603847856
 30
0.0
 11
48.72024290870331
 21
210.3603847856
 31
0.0
 12
49.1810266502592
 22
213.8603847856
 32
0.0
 13
49.1810266502592
 23
213.8603847856
 33
0.0
  0
SOLID
  5
17D
330
178
100
AcDbEntity
  8
1
 62
     2
100
AcDbTrace
 10
48.72024290870331
 20
189.3603847856
 30
0.0
 11
49.64181039181508
 21
189.3603847856
 31
0.0
 12
49.1810266502592
 22
185.8603847856
 32
0.0
 13
49.1810266502592
 23
185.8603847856
 33
0.0
  0
MTEXT
  5
17F
330
178
100
AcDbEntity
  8
1
 62
     2
100
AcDbMText
 10
47.1810266502592
 20
197.604956105626
 30
0.0
 40
3.5
 41
0.0
 71
     7
 72
     1
  1
28
  7
CONVERTER_11
 11
0.0
 21
1.0
 31
0.0
 73
     1
 44
0.60024009603842
  0
ENDBLK
  5
181
330
178
100
AcDbEntity
  8
0
100
AcDbBlockEnd
  0
BLOCK
  5
18B
330
184
100
AcDbEntity
  8
0
100
AcDbBlockBegin
  2
*D2
 70
     1
 71
     0
 10
0.0
 20
0.0
 30
0.0
  3
*D2
  1

  0
LINE
  5
185
330
184
100
AcDbEntity
  8
1
  6
Continuous
 62
     2
100
AcDbLine
 10
176.930466830718
 20
202.8603847856
 30
0.0
 11
176.930466830718
 21
174.8603847856
 31
0.0
  0
LINE
  5
186
330
184
100
AcDbEntity
  8
1
  6
Continuous
 62
     2
100
AcDbLine
 10
150.1981017396
 20
202.8603847856
 30
0.0
 11
178.930466830718
 21
202.8603847856
 31
0.0
  0
LINE
  5
187
330
184
100
AcDbEntity
  8
1
  6
Continuous
 62
     2
100
AcDbLine
 10
150.1981017396
 20
174.8603847856
 30
0.0
 11
178.930466830718
 21
174.8603847856
 31
0.0
  0
SOLID
  5
188
330
184
100
AcDbEntity
  8
1
 62
     2
100
AcDbTrace
 10
177.3912505722739
 20
199.3603847856
 30
0.0
 11
176.4696830891621
 21
199.3603847856
 31
0.0
 12
176.930466830718
 22
202.8603847856
 32
0.0
 13
176.930466830718
 23
202.8603847856
 33
0.0
  0
SOLID
  5
189
330
184
100
AcDbEntity
  8
1
 62
     2
100
AcDbTrace
 10
176.4696830891621
 20
178.3603847856
 30
0.0
 11
177.3912505722739
 21
178.3603847856
 31
0.0
 12
176.930466830718
 22
174.8603847856
 32
0.0
 13
176.930466830718
 23
174.8603847856
 33
0.0
  0
MTEXT
  5
18A
330
184
100
AcDbEntity
  8
1
 62
     2
100
AcDbMText
 10
174.930466830718
 20
185.560662143615
 30
0.0
 40
3.5
 41
0.0
 71
     7
 72
     1
  1
28
  7
CONVERTER_11
 11
0.0
 21
1.0
 31
0.0
 73
     1
 44
0.60024009603842
  0
ENDBLK
  5
18C
330
184
100
AcDbEntity
  8
0
100
AcDbBlockEnd
  0
BLOCK
  5
196
330
18F
100
AcDbEntity
  8
0
100
AcDbBlockBegin
  2
*D3
 70
     1
 71
     0
 10
0.0
 20
0.0
 30
0.0
  3
*D3
  1

  0
LINE
  5
190
330
18F
100
AcDbEntity
  8
1
  6
Continuous
 62
     2
100
AcDbLine
 10
33.4563214214294
 20
166.8603847856
 30
0.0
 11
33.4563214214294
 21
180.8603847856
 31
0.0
  0
LINE
  5
191
330
18F
100
AcDbEntity
  8
1
  6
Continuous
 62
     2
100
AcDbLine
 10
43.6981017396
 20
166.8603847856
 30
0.0
 11
31.4563214214294
 21
166.8603847856
 31
0.0
  0
LINE
  5
192
330
18F
100
AcDbEntity
  8
1
  6
Continuous
 62
     2
100
AcDbLine
 10
43.6981017396
 20
180.8603847856
 30
0.0
 11
31.4563214214294
 21
180.8603847856
 31
0.0
  0
SOLID
  5
193
330
18F
100
AcDbEntity
  8
1
 62
     2
100
AcDbTrace
 10
32.99553767987351
 20
170.3603847856
 30
0.0
 11
33.91710516298529
 21
170.3603847856
 31
0.0
 12
33.4563214214294
 22
166.8603847856
 32
0.0
 13
33.4563214214294
 23
166.8603847856
 33
0.0
  0
SOLID
  5
194
330
18F
100
AcDbEntity
  8
1
 62
     2
100
AcDbTrace
 10
33.91710516298529
 20
177.3603847856
 30
0.0
 11
32.99553767987351
 21
177.3603847856
 31
0.0
 12
33.4563214214294
 22
180.8603847856
 32
0.0
 13
33.4563214214294
 23
180.8603847856
 33
0.0
  0
MTEXT
  5
195
330
18F
100
AcDbEntity
  8
1
 62
     2
100
AcDbMText
 10
31.4563214214294
 20
172.943815411321
 30
0.0
 40
3.5
 41
0.0
 71
     7
 72
     1
  1
14
  7
CONVERTER_11
 11
0.0
 21
1.0
 31
0.0
 73
     1
 44
0.60024009603842
  0
ENDBLK
  5
197
330
18F
100
AcDbEntity
  8
0
100
AcDbBlockEnd
  0
BLOCK
  5
1A1
330
19A
100
AcDbEntity
  8
0
100
AcDbBlockBegin
  2
*D4
 70
     1
 71
     0
 10
0.0
 20
0.0
 30
0.0
  3
*D4
  1

  0
LINE
  5
19B
330
19A
100
AcDbEntity
  8
1
  6
Continuous
 62
     2
100
AcDbLine
 10
33.4563214214294
 20
180.8603847856
 30
0.0
 11
33.4563214214294
 21
213.8603847856
 31
0.0
  0
LINE
  5
19C
330
19A
100
AcDbEntity
  8
1
  6
Continuous
 62
     2
100
AcDbLine
 10
43.6981017396
 20
180.8603847856
 30
0.0
 11
31.4563214214294
 21
180.8603847856
 31
0.0
  0
LINE
  5
19D
330
19A
100
AcDbEntity
  8
1
  6
Continuous
 62
     2
100
AcDbLine
 10
73.69810173960002
 20
213.8603847856
 30
0.0
 11
31.4563214214294
 21
213.8603847856
 31
0.0
  0
SOLID
  5
19E
330
19A
100
AcDbEntity
  8
1
 62
     2
100
AcDbTrace
 10
32.99553767987351
 20
184.3603847856
 30
0.0
 11
33.91710516298529
 21
184.3603847856
 31
0.0
 12
33.4563214214294
 22
180.8603847856
 32
0.0
 13
33.4563214214294
 23
180.8603847856
 33
0.0
  0
SOLID
  5
19F
330
19A
100
AcDbEntity
  8
1
 62
     2
100
AcDbTrace
 10
33.91710516298529
 20
210.3603847856
 30
0.0
 11
32.99553767987351
 21
210.3603847856
 31
0.0
 12
33.4563214214294
 22
213.8603847856
 32
0.0
 13
33.4563214214294
 23
213.8603847856
 33
0.0
  0
MTEXT
  5
1A0
330
19A
100
AcDbEntity
  8
1
 62
     2
100
AcDbMText
 10
31.4563214214294
 20
192.7353847856
 30
0.0
 40
3.5
 41
0.0
 71
     7
 72
     1
  1
33
  7
CONVERTER_11
 11
0.0
 21
1.0
 31
0.0
 73
     1
 44
0.60024009603842
  0
ENDBLK
  5
1A2
330
19A
100
AcDbEntity
  8
0
100
AcDbBlockEnd
  0
BLOCK
  5
1AE
330
1A5
100
AcDbEntity
  8
0
100
AcDbBlockBegin
  2
*D5
 70
     1
 71
     0
 10
0.0
 20
0.0
 30
0.0
  3
*D5
  1

  0
LINE
  5
1A6
330
1A5
100
AcDbEntity
  8
1
  6
Continuous
 62
     2
100
AcDbLine
 10
187.314724567864
 20
159.8603847856
 30
0.0
 11
187.314724567864
 21
166.8603847856
 31
0.0
  0
LINE
  5
1A7
330
1A5
100
AcDbEntity
  8
1
  6
Continuous
 62
     2
100
AcDbLine
 10
187.314724567864
 20
166.8603847856
 30
0.0
 11
187.314724567864
 21
170.8603847856
 31
0.0
  0
LINE
  5
1A8
330
1A5
100
AcDbEntity
  8
1
  6
Continuous
 62
     2
100
AcDbLine
 10
187.314724567864
 20
170.8603847856
 30
0.0
 11
187.314724567864
 21
177.8603847856
 31
0.0
  0
LINE
  5
1A9
330
1A5
100
AcDbEntity
  8
1
  6
Continuous
 62
     2
100
AcDbLine
 10
167.1981017396
 20
166.8603847856
 30
0.0
 11
189.314724567864
 21
166.8603847856
 31
0.0
  0
LINE
  5
1AA
330
1A5
100
AcDbEntity
  8
1
  6
Continuous
 62
     2
100
AcDbLine
 10
127.1981017396
 20
170.8603847856
 30
0.0
 11
189.314724567864
 21
170.8603847856
 31
0.0
  0
SOLID
  5
1AB
330
1A5
100
AcDbEntity
  8
1
 62
     2
100
AcDbTrace
 10
187.7755083094199
 20
163.3603847856
 30
0.0
 11
186.8539408263081
 21
163.3603847856
 31
0.0
 12
187.314724567864
 22
166.8603847856
 32
0.0
 13
187.314724567864
 23
166.8603847856
 33
0.0
  0
SOLID
  5
1AC
330
1A5
100
AcDbEntity
  8
1
 62
     2
100
AcDbTrace
 10
186.8539408263081
 20
174.3603847856
 30
0.0
 11
187.7755083094199
 21
174.3603847856
 31
0.0
 12
187.314724567864
 22
170.8603847856
 32
0.0
 13
187.314724567864
 23
170.8603847856
 33
0.0
  0
MTEXT
  5
1AD
330
1A5
100
AcDbEntity
  8
1
 62
     2
100
AcDbMText
 10
185.314724567864
 20
160.401439520348
 30
0.0
 40
3.5
 41
0.0
 71
     7
 72
     1
  1
4
  7
CONVERTER_11
 11
0.0
 21
1.0
 31
0.0
 73
     1
 44
0.60024009603842
  0
ENDBLK
  5
1AF
330
1A5
100
AcDbEntity
  8
0
100
AcDbBlockEnd
  0
BLOCK
  5
1B9
330
1B2
100
AcDbEntity
  8
0
100
AcDbBlockBegin
  2
*D6
 70
     1
 71
     0
 10
0.0
 20
0.0
 30
0.0
  3
*D6
  1

  0
LINE
  5
1B3
330
1B2
100
AcDbEntity
  8
1
  6
Continuous
 62
     2
100
AcDbLine
 10
187.314724567864
 20
170.8603847856
 30
0.0
 11
187.314724567864
 21
202.8603847856
 31
0.0
  0
LINE
  5
1B4
330
1B2
100
AcDbEntity
  8
1
  6
Continuous
 62
     2
100
AcDbLine
 10
127.1981017396
 20
170.8603847856
 30
0.0
 11
189.314724567864
 21
170.8603847856
 31
0.0
  0
LINE
  5
1B5
330
1B2
100
AcDbEntity
  8
1
  6
Continuous
 62
     2
100
AcDbLine
 10
150.1981017396
 20
202.8603847856
 30
0.0
 11
189.314724567864
 21
202.8603847856
 31
0.0
  0
SOLID
  5
1B6
330
1B2
100
AcDbEntity
  8
1
 62
     2
100
AcDbTrace
 10
186.8539408263081
 20
174.3603847856
 30
0.0
 11
187.7755083094199
 21
174.3603847856
 31
0.0
 12
187.314724567864
 22
170.8603847856
 32
0.0
 13
187.314724567864
 23
170.8603847856
 33
0.0
  0
SOLID
  5
1B7
330
1B2
100
AcDbEntity
  8
1
 62
     2
100
AcDbTrace
 10
187.7755083094199
 20
199.3603847856
 30
0.0
 11
186.8539408263081
 21
199.3603847856
 31
0.0
 12
187.314724567864
 22
202.8603847856
 32
0.0
 13
187.314724567864
 23
202.8603847856
 33
0.0
  0
MTEXT
  5
1B8
330
1B2
100
AcDbEntity
  8
1
 62
     2
100
AcDbMText
 10
185.314724567864
 20
184.2353847856
 30
0.0
 40
3.5
 41
0.0
 71
     7
 72
     1
  1
32
  7
CONVERTER_11
 11
0.0
 21
1.0
 31
0.0
 73
     1
 44
0.60024009603842
  0
ENDBLK
  5
1BA
330
1B2
100
AcDbEntity
  8
0
100
AcDbBlockEnd
  0
BLOCK
  5
1C4
330
1BD
100
AcDbEntity
  8
0
100
AcDbBlockBegin
  2
*D7
 70
     1
 71
     0
 10
0.0
 20
0.0
 30
0.0
  3
*D7
  1

  0
LINE
  5
1BE
330
1BD
100
AcDbEntity
  8
1
  6
Continuous
 62
     2
100
AcDbLine
 10
73.6981017396
 20
155.841075984492
 30
0.0
 11
103.6981017396
 21
155.841075984492
 31
0.0
  0
LINE
  5
1BF
330
1BD
100
AcDbEntity
  8
1
  6
Continuous
 62
     2
100
AcDbLine
 10
73.6981017396
 20
185.8603847856
 30
0.0
 11
73.6981017396
 21
153.841075984492
 31
0.0
  0
LINE
  5
1C0
330
1BD
100
AcDbEntity
  8
1
  6
Continuous
 62
     2
100
AcDbLine
 10
103.6981017396
 20
166.8603847856
 30
0.0
 11
103.6981017396
 21
153.841075984492
 31
0.0
  0
SOLID
  5
1C1
330
1BD
100
AcDbEntity
  8
1
 62
     2
100
AcDbTrace
 10
77.1981017396
 20
156.3018597260479
 30
0.0
 11
77.1981017396
 21
155.3802922429361
 31
0.0
 12
73.6981017396
 22
155.841075984492
 32
0.0
 13
73.6981017396
 23
155.841075984492
 33
0.0
  0
SOLID
  5
1C2
330
1BD
100
AcDbEntity
  8
1
 62
     2
100
AcDbTrace
 10
100.1981017396
 20
155.3802922429361
 30
0.0
 11
100.1981017396
 21
156.3018597260479
 31
0.0
 12
103.6981017396
 22
155.841075984492
 32
0.0
 13
103.6981017396
 23
155.841075984492
 33
0.0
  0
MTEXT
  5
1C3
330
1BD
100
AcDbEntity
  8
1
 62
     2
100
AcDbMText
 10
83.3909680330158
 20
157.841075984492
 30
0.0
 40
3.5
 41
0.0
 71
     7
 72
     1
  1
30
  7
CONVERTER_11
 11
0.9999999999970621
 21
2.424068405545307E-6
 31
0.0
 73
     1
 44
0.60024009603842
  0
ENDBLK
  5
1C5
330
1BD
100
AcDbEntity
  8
0
100
AcDbBlockEnd
  0
BLOCK
  5
1CF
330
1C8
100
AcDbEntity
  8
0
100
AcDbBlockBegin
  2
*D8
 70
     1
 71
     0
 10
0.0
 20
0.0
 30
0.0
  3
*D8
  1

  0
LINE
  5
1C9
330
1C8
100
AcDbEntity
  8
1
  6
Continuous
 62
     2
100
AcDbLine
 10
107.1981017396
 20
155.841075984492
 30
0.0
 11
150.1981017396
 21
155.841075984492
 31
0.0
  0
LINE
  5
1CA
330
1C8
100
AcDbEntity
  8
1
  6
Continuous
 62
     2
100
AcDbLine
 10
107.1981017396
 20
166.8603847856
 30
0.0
 11
107.1981017396
 21
153.841075984492
 31
0.0
  0
LINE
  5
1CB
330
1C8
100
AcDbEntity
  8
1
  6
Continuous
 62
     2
100
AcDbLine
 10
150.1981017396
 20
174.8603847856
 30
0.0
 11
150.1981017396
 21
153.841075984492
 31
0.0
  0
SOLID
  5
1CC
330
1C8
100
AcDbEntity
  8
1
 62
     2
100
AcDbTrace
 10
110.6981017396
 20
156.3018597260479
 30
0.0
 11
110.6981017396
 21
155.3802922429361
 31
0.0
 12
107.1981017396
 22
155.841075984492
 32
0.0
 13
107.1981017396
 23
155.841075984492
 33
0.0
  0
SOLID
  5
1CD
330
1C8
100
AcDbEntity
  8
1
 62
     2
100
AcDbTrace
 10
146.6981017396
 20
155.3802922429361
 30
0.0
 11
146.6981017396
 21
156.3018597260479
 31
0.0
 12
150.1981017396
 22
155.841075984492
 32
0.0
 13
150.1981017396
 23
155.841075984492
 33
0.0
  0
MTEXT
  5
1CE
330
1C8
100
AcDbEntity
  8
1
 62
     2
100
AcDbMText
 10
126.0731017396
 20
157.841075984492
 30
0.0
 40
3.5
 41
0.0
 71
     7
 72
     1
  1
43
  7
CONVERTER_11
 11
0.9999999999970621
 21
2.424068405545307E-6
 31
0.0
 73
     1
 44
0.60024009603842
  0
ENDBLK
  5
1D0
330
1C8
100
AcDbEntity
  8
0
100
AcDbBlockEnd
  0
BLOCK
  5
1DC
330
1D3
100
AcDbEntity
  8
0
100
AcDbBlockBegin
  2
*D9
 70
     1
 71
     0
 10
0.0
 20
0.0
 30
0.0
  3
*D9
  1

  0
LINE
  5
1D4
330
1D3
100
AcDbEntity
  8
1
  6
Continuous
 62
     2
100
AcDbLine
 10
96.6981017396
 20
155.841075984492
 30
0.0
 11
103.6981017396
 21
155.841075984492
 31
0.0
  0
LINE
  5
1D5
330
1D3
100
AcDbEntity
  8
1
  6
Continuous
 62
     2
100
AcDbLine
 10
103.6981017396
 20
155.841075984492
 30
0.0
 11
107.1981017396
 21
155.841075984492
 31
0.0
  0
LINE
  5
1D6
330
1D3
100
AcDbEntity
  8
1
  6
Continuous
 62
     2
100
AcDbLine
 10
107.1981017396
 20
155.841075984492
 30
0.0
 11
114.1981017396
 21
155.841075984492
 31
0.0
  0
LINE
  5
1D7
330
1D3
100
AcDbEntity
  8
1
  6
Continuous
 62
     2
100
AcDbLine
 10
103.6981017396
 20
166.8603847856
 30
0.0
 11
103.6981017396
 21
153.841075984492
 31
0.0
  0
LINE
  5
1D8
330
1D3
100
AcDbEntity
  8
1
  6
Continuous
 62
     2
100
AcDbLine
 10
107.1981017396
 20
166.8603847856
 30
0.0
 11
107.1981017396
 21
153.841075984492
 31
0.0
  0
SOLID
  5
1D9
330
1D3
100
AcDbEntity
  8
1
 62
     2
100
AcDbTrace
 10
100.1981017396
 20
155.3802922429361
 30
0.0
 11
100.1981017396
 21
156.3018597260479
 31
0.0
 12
103.6981017396
 22
155.841075984492
 32
0.0
 13
103.6981017396
 23
155.841075984492
 33
0.0
  0
SOLID
  5
1DA
330
1D3
100
AcDbEntity
  8
1
 62
     2
100
AcDbTrace
 10
110.6981017396
 20
156.3018597260479
 30
0.0
 11
110.6981017396
 21
155.3802922429361
 31
0.0
 12
107.1981017396
 22
155.841075984492
 32
0.0
 13
107.1981017396
 23
155.841075984492
 33
0.0
  0
MTEXT
  5
1DB
330
1D3
100
AcDbEntity
  8
1
 62
     2
100
AcDbMText
 10
102.357038642802
 20
148.527963833315
 30
0.0
 40
3.5
 41
0.0
 71
     7
 72
     1
  1
3.5
  7
CONVERTER_11
 11
0.9999999999970621
 21
2.424068405545307E-6
 31
0.0
 73
     1
 44
0.60024009603842
  0
ENDBLK
  5
1DD
330
1D3
100
AcDbEntity
  8
0
100
AcDbBlockEnd
  0
ENDSEC
  0
SECTION
  2
ENTITIES
  0
POINT
  5
37
330
1F
100
AcDbEntity
  8
A_BEMASSUNGEN
 62
     7
100
AcDbPoint
 10
73.6981017396
 20
185.8603847856
 30
0.0
  0
POINT
  5
38
330
1F
100
AcDbEntity
  8
A_BEMASSUNGEN
 62
     7
100
AcDbPoint
 10
103.6981017396
 20
166.8603847856
 30
0.0
  0
POINT
  5
39
330
1F
100
AcDbEntity
  8
A_BEMASSUNGEN
 62
     7
100
AcDbPoint
 10
73.6981017396
 20
213.8603847856
 30
0.0
  0
POINT
  5
3A
330
1F
100
AcDbEntity
  8
A_BEMASSUNGEN
 62
     7
100
AcDbPoint
 10
43.6981017396
 20
180.8603847856
 30
0.0
  0
POINT
  5
3B
330
1F
100
AcDbEntity
  8
A_BEMASSUNGEN
 62
     7
100
AcDbPoint
 10
43.6981017396
 20
166.8603847856
 30
0.0
  0
POINT
  5
3C
330
1F
100
AcDbEntity
  8
A_BEMASSUNGEN
 62
     7
100
AcDbPoint
 10
103.6981017396
 20
191.3603847856
 30
0.0
  0
POINT
  5
3D
330
1F
100
AcDbEntity
  8
A_BEMASSUNGEN
 62
     7
100
AcDbPoint
 10
103.6981017396
 20
181.8603847856
 30
0.0
  0
POINT
  5
3E
330
1F
100
AcDbEntity
  8
A_BEMASSUNGEN
 62
     7
100
AcDbPoint
 10
84.12717172800001
 20
210.1100994377
 30
0.0
  0
POINT
  5
3F
330
1F
100
AcDbEntity
  8
A_BEMASSUNGEN
 62
     7
100
AcDbPoint
 10
79.2136916795
 20
204.6084893268
 30
0.0
  0
POINT
  5
40
330
1F
100
AcDbEntity
  8
A_BEMASSUNGEN
 62
     7
100
AcDbPoint
 10
86.8885538364
 20
209.4979157627
 30
0.0
  0
POINT
  5
41
330
1F
100
AcDbEntity
  8
A_BEMASSUNGEN
 62
     7
100
AcDbPoint
 10
94.1981017396
 20
181.8603847856
 30
0.0
  0
POINT
  5
42
330
1F
100
AcDbEntity
  8
A_BEMASSUNGEN
 62
     7
100
AcDbPoint
 10
119.1414889604
 20
175.3703034635
 30
0.0
  0
POINT
  5
43
330
1F
100
AcDbEntity
  8
A_BEMASSUNGEN
 62
     7
100
AcDbPoint
 10
123.6158696957
 20
182.7682969889
 30
0.0
  0
POINT
  5
44
330
1F
100
AcDbEntity
  8
A_BEMASSUNGEN
 62
     7
100
AcDbPoint
 10
106.9481017396
 20
202.0603847856
 30
0.0
  0
POINT
  5
45
330
1F
100
AcDbEntity
  8
A_BEMASSUNGEN
 62
     7
100
AcDbPoint
 10
116.3120332041
 20
183.9813078466
 30
0.0
  0
POINT
  5
46
330
1F
100
AcDbEntity
  8
A_BEMASSUNGEN
 62
     7
100
AcDbPoint
 10
144.1981017396
 20
188.0996894382
 30
0.0
  0
POINT
  5
47
330
1F
100
AcDbEntity
  8
A_BEMASSUNGEN
 62
     7
100
AcDbPoint
 10
150.1981017396
 20
202.8603847856
 30
0.0
  0
POINT
  5
48
330
1F
100
AcDbEntity
  8
A_BEMASSUNGEN
 62
     7
100
AcDbPoint
 10
150.1981017396
 20
174.8603847856
 30
0.0
  0
POINT
  5
49
330
1F
100
AcDbEntity
  8
A_BEMASSUNGEN
 62
     7
100
AcDbPoint
 10
150.1981017396
 20
174.8603847856
 30
0.0
  0
POINT
  5
4A
330
1F
100
AcDbEntity
  8
A_BEMASSUNGEN
 62
     7
100
AcDbPoint
 10
127.1981017396
 20
170.8603847856
 30
0.0
  0
POINT
  5
4B
330
1F
100
AcDbEntity
  8
A_BEMASSUNGEN
 62
     7
100
AcDbPoint
 10
127.1981017396
 20
170.8603847856
 30
0.0
  0
POINT
  5
4C
330
1F
100
AcDbEntity
  8
A_BEMASSUNGEN
 62
     7
100
AcDbPoint
 10
150.1981017396
 20
174.8603847856
 30
0.0
  0
POINT
  5
4D
330
1F
100
AcDbEntity
  8
A_BEMASSUNGEN
 62
     7
100
AcDbPoint
 10
91.43320011840001
 20
210.3603847856
 30
0.0
  0
LINE
  5
4E
330
1F
100
AcDbEntity
  8
0
  6
Continuous
 62
     7
100
AcDbLine
 10
58.6981017396
 20
180.8603847856
 30
0.0
 11
43.6981017396
 21
180.8603847856
 31
0.0
  0
LINE
  5
4F
330
1F
100
AcDbEntity
  8
0
  6
Continuous
 62
     7
100
AcDbLine
 10
89.6981017396
 20
180.8603847856
 30
0.0
 11
58.6981017396
 21
180.8603847856
 31
0.0
  0
LINE
  5
50
330
1F
100
AcDbEntity
  8
0
  6
Continuous
 62
     7
100
AcDbLine
 10
103.6981017396
 20
213.8603847856
 30
0.0
 11
116.6981017396
 21
213.8603847856
 31
0.0
  0
LINE
  5
51
330
1F
100
AcDbEntity
  8
0
  6
Continuous
 62
     7
100
AcDbLine
 10
101.6981017396
 20
213.8603847856
 30
0.0
 11
103.6981017396
 21
213.8603847856
 31
0.0
  0
LINE
  5
52
330
1F
100
AcDbEntity
  8
0
  6
Continuous
 62
     7
100
AcDbLine
 10
81.1981017396
 20
213.8603847856
 30
0.0
 11
101.6981017396
 21
213.8603847856
 31
0.0
  0
LINE
  5
53
330
1F
100
AcDbEntity
  8
0
  6
Continuous
 62
     7
100
AcDbLine
 10
89.1981017396
 20
185.8603847856
 30
0.0
 11
89.6981017396
 21
185.8603847856
 31
0.0
  0
LINE
  5
54
330
1F
100
AcDbEntity
  8
0
  6
Continuous
 62
     7
100
AcDbLine
 10
81.1981017396
 20
185.8603847856
 30
0.0
 11
89.1981017396
 21
185.8603847856
 31
0.0
  0
LINE
  5
55
330
1F
100
AcDbEntity
  8
A_RUNDUNGEN
  6
Continuous
 62
     7
100
AcDbLine
 10
90.22905614819823
 20
204.2543774635558
 30
0.0
 11
96.30212415268265
 21
194.7215702080869
 31
0.0
  0
LINE
  5
56
330
1F
100
AcDbEntity
  8
A_RUNDUNGEN
  6
DASHED
 62
     2
100
AcDbLine
 10
96.30212415268265
 20
194.7215702080869
 30
0.0
 11
96.50621682580001
 21
194.4012088827
 31
0.0
  0
LINE
  5
57
330
1F
100
AcDbEntity
  8
A_ACHSEN
  6
DASHED
 62
     2
100
AcDbLine
 10
94.69079976819968
 20
190.8732825695177
 30
0.0
 11
95.8940331508
 21
191.6398267744
 31
0.0
  0
LINE
  5
58
330
1F
100
AcDbEntity
  8
0
  6
Continuous
 62
     7
100
AcDbLine
 10
103.6981017396
 20
205.4873121754054
 30
0.0
 11
103.6981017396
 21
211.3603847856
 31
0.0
  0
LINE
  5
59
330
1F
100
AcDbEntity
  8
0
  6
DASHED
 62
     2
100
AcDbLine
 10
103.6981017396
 20
192.1832604411323
 30
0.0
 11
103.6981017396
 21
205.4873121754054
 31
0.0
  0
LINE
  5
5A
330
1F
100
AcDbEntity
  8
0
  6
Continuous
 62
     7
100
AcDbLine
 10
73.6981017396
 20
185.8603847856
 30
0.0
 11
81.1981017396
 21
185.8603847856
 31
0.0
  0
LINE
  5
5B
330
1F
100
AcDbEntity
  8
0
  6
Continuous
 62
     7
100
AcDbLine
 10
116.6981017396
 20
250.8603847856
 30
0.0
 11
58.6981017396
 21
250.8603847856
 31
0.0
  0
LINE
  5
5C
330
1F
100
AcDbEntity
  8
0
  6
Continuous
 62
     7
100
AcDbLine
 10
74.6981017396
 20
212.1187150348
 30
0.0
 11
81.1981017396
 21
213.8603847856
 31
0.0
  0
LINE
  5
5D
330
1F
100
AcDbEntity
  8
0
  6
Continuous
 62
     7
100
AcDbLine
 10
76.6981017396
 20
210.3167912462
 30
0.0
 11
84.6981017396
 21
212.4603847856
 31
0.0
  0
LINE
  5
5E
330
1F
100
AcDbEntity
  8
0
  6
Continuous
 62
     7
100
AcDbLine
 10
116.6981017396
 20
213.8603847856
 30
0.0
 11
116.6981017396
 21
250.8603847856
 31
0.0
  0
LINE
  5
5F
330
1F
100
AcDbEntity
  8
0
  6
Continuous
 62
     7
100
AcDbLine
 10
116.6981017396
 20
211.6267321386
 30
0.0
 11
116.6981017396
 21
213.8603847856
 31
0.0
  0
LINE
  5
60
330
1F
100
AcDbEntity
  8
0
  6
Continuous
 62
     7
100
AcDbLine
 10
115.6981017396
 20
212.7603847856
 30
0.0
 11
115.6981017396
 21
212.0603847856
 31
0.0
  0
LINE
  5
61
330
1F
100
AcDbEntity
  8
0
  6
Continuous
 62
     7
100
AcDbLine
 10
73.6981017396
 20
213.8603847856
 30
0.0
 11
81.1981017396
 21
213.8603847856
 31
0.0
  0
LINE
  5
62
330
1F
100
AcDbEntity
  8
0
  6
Continuous
 62
     7
100
AcDbLine
 10
104.6981017396
 20
212.7603847856
 30
0.0
 11
115.6981017396
 21
212.7603847856
 31
0.0
  0
LINE
  5
63
330
1F
100
AcDbEntity
  8
0
  6
Continuous
 62
     7
100
AcDbLine
 10
113.3481017396
 20
209.8603847856
 30
0.0
 11
107.0481017396
 21
209.8603847856
 31
0.0
  0
LINE
  5
64
330
1F
100
AcDbEntity
  8
0
  6
Continuous
 62
     7
100
AcDbLine
 10
84.6981017396
 20
212.4603847856
 30
0.0
 11
98.6981017396
 21
212.6603847856
 31
0.0
  0
LINE
  5
65
330
1F
100
AcDbEntity
  8
0
  6
Continuous
 62
     7
100
AcDbLine
 10
113.7431397944
 20
208.8603847856
 30
0.0
 11
116.6981017396
 21
211.6267321386
 31
0.0
  0
LINE
  5
66
330
1F
100
AcDbEntity
  8
0
  6
Continuous
 62
     7
100
AcDbLine
 10
115.6981017396
 20
212.0603847856
 30
0.0
 11
113.3481017396
 21
209.8603847856
 31
0.0
  0
LINE
  5
67
330
1F
100
AcDbEntity
  8
0
  6
Continuous
 62
     7
100
AcDbLine
 10
107.0481017396
 20
209.8603847856
 30
0.0
 11
104.6981017396
 21
212.0603847856
 31
0.0
  0
LINE
  5
68
330
1F
100
AcDbEntity
  8
0
  6
Continuous
 62
     7
100
AcDbLine
 10
103.6981017396
 20
211.6267321386
 30
0.0
 11
106.6530636848
 21
208.8603847856
 31
0.0
  0
LINE
  5
69
330
1F
100
AcDbEntity
  8
0
  6
Continuous
 62
     7
100
AcDbLine
 10
98.6981017396
 20
212.6603847856
 30
0.0
 11
101.6981017396
 21
213.5603847856
 31
0.0
  0
LINE
  5
6A
330
1F
100
AcDbEntity
  8
0
  6
Continuous
 62
     7
100
AcDbLine
 10
104.6981017396
 20
212.0603847856
 30
0.0
 11
104.6981017396
 21
212.7603847856
 31
0.0
  0
LINE
  5
6B
330
1F
100
AcDbEntity
  8
0
  6
Continuous
 62
     7
100
AcDbLine
 10
103.6981017396
 20
211.3603847856
 30
0.0
 11
103.6981017396
 21
213.8603847856
 31
0.0
  0
LINE
  5
6C
330
1F
100
AcDbEntity
  8
0
  6
Continuous
 62
     7
100
AcDbLine
 10
103.6981017396
 20
166.8603847856
 30
0.0
 11
103.6981017396
 21
181.8603847856
 31
0.0
  0
LINE
  5
6D
330
1F
100
AcDbEntity
  8
0
  6
Continuous
 62
     7
100
AcDbLine
 10
101.6981017396
 20
213.8603847856
 30
0.0
 11
101.6981017396
 21
213.5603847856
 31
0.0
  0
LINE
  5
6E
330
1F
100
AcDbEntity
  8
0
  6
Continuous
 62
     7
100
AcDbLine
 10
89.1981017396
 20
187.1603847856
 30
0.0
 11
84.6981017396
 21
187.2389325778
 31
0.0
  0
LINE
  5
6F
330
1F
100
AcDbEntity
  8
0
  6
Continuous
 62
     7
100
AcDbLine
 10
89.6981017396
 20
180.8603847856
 30
0.0
 11
89.6981017396
 21
185.8603847856
 31
0.0
  0
LINE
  5
70
330
1F
100
AcDbEntity
  8
0
  6
Continuous
 62
     7
100
AcDbLine
 10
89.1981017396
 20
185.8603847856
 30
0.0
 11
89.1981017396
 21
187.1603847856
 31
0.0
  0
LINE
  5
71
330
1F
100
AcDbEntity
  8
0
  6
Continuous
 62
     7
100
AcDbLine
 10
84.6981017396
 20
187.2389325778
 30
0.0
 11
76.6981017396
 21
189.3825261173
 31
0.0
  0
LINE
  5
72
330
1F
100
AcDbEntity
  8
0
  6
Continuous
 62
     7
100
AcDbLine
 10
81.1981017396
 20
185.8603847856
 30
0.0
 11
74.6981017396
 21
187.6020545365
 31
0.0
  0
LINE
  5
73
330
1F
100
AcDbEntity
  8
0
  6
Continuous
 62
     7
100
AcDbLine
 10
103.6981017396
 20
180.8603847856
 30
0.0
 11
89.6981017396
 21
180.8603847856
 31
0.0
  0
LINE
  5
74
330
1F
100
AcDbEntity
  8
0
  6
Continuous
 62
     7
100
AcDbLine
 10
76.6981017396
 20
189.3825261173
 30
0.0
 11
76.6981017396
 21
210.3167912462
 31
0.0
  0
LINE
  5
75
330
1F
100
AcDbEntity
  8
0
  6
Continuous
 62
     7
100
AcDbLine
 10
74.6981017396
 20
212.1187150348
 30
0.0
 11
74.6981017396
 21
187.6020545365
 31
0.0
  0
LINE
  5
76
330
1F
100
AcDbEntity
  8
0
  6
Continuous
 62
     7
100
AcDbLine
 10
73.6981017396
 20
185.8603847856
 30
0.0
 11
73.6981017396
 21
213.8603847856
 31
0.0
  0
LINE
  5
77
330
1F
100
AcDbEntity
  8
0
  6
Continuous
 62
     7
100
AcDbLine
 10
43.6981017396
 20
166.8603847856
 30
0.0
 11
103.6981017396
 21
166.8603847856
 31
0.0
  0
LINE
  5
78
330
1F
100
AcDbEntity
  8
0
  6
Continuous
 62
     7
100
AcDbLine
 10
58.6981017396
 20
250.8603847856
 30
0.0
 11
58.6981017396
 21
180.8603847856
 31
0.0
  0
LINE
  5
79
330
1F
100
AcDbEntity
  8
0
  6
Continuous
 62
     7
100
AcDbLine
 10
43.6981017396
 20
180.8603847856
 30
0.0
 11
43.6981017396
 21
166.8603847856
 31
0.0
  0
LINE
  5
7A
330
1F
100
AcDbEntity
  8
0
  6
Continuous
 62
     7
100
AcDbLine
 10
86.1981017396
 20
211.3603847856
 30
0.0
 11
103.6981017396
 21
211.3603847856
 31
0.0
  0
LINE
  5
7B
330
1F
100
AcDbEntity
  8
0
  6
Continuous
 62
     7
100
AcDbLine
 10
77.1981017396
 20
208.8603847856
 30
0.0
 11
86.1981017396
 21
211.3603847856
 31
0.0
  0
LINE
  5
7C
330
1F
100
AcDbEntity
  8
0
  6
Continuous
 62
     7
100
AcDbLine
 10
103.6981017396
 20
181.8603847856
 30
0.0
 11
103.6981017396
 21
192.1832604411323
 31
0.0
  0
LINE
  5
7D
330
1F
100
AcDbEntity
  8
A_RUNDUNGEN
  6
DASHED
 62
     2
100
AcDbLine
 10
86.8885538364
 20
209.4979157627
 30
0.0
 11
90.22905614819823
 21
204.2543774635558
 31
0.0
  0
LINE
  5
7E
330
1F
100
AcDbEntity
  8
A_RUNDUNGEN
  6
Continuous
 62
     7
100
AcDbLine
 10
92.6981017396
 20
184.3603847856
 30
0.0
 11
92.6981017396
 21
181.8603847856
 31
0.0
  0
LINE
  5
7F
330
1F
100
AcDbEntity
  8
0
  6
Continuous
 62
     7
100
AcDbLine
 10
86.1981017396
 20
188.3603847856
 30
0.0
 11
88.6981017396
 21
188.3603847856
 31
0.0
  0
LINE
  5
80
330
1F
100
AcDbEntity
  8
0
  6
Continuous
 62
     7
100
AcDbLine
 10
86.1981017396
 20
188.3603847856
 30
0.0
 11
77.1981017396
 21
190.8603847856
 31
0.0
  0
LINE
  5
81
330
1F
100
AcDbEntity
  8
0
  6
Continuous
 62
     7
100
AcDbLine
 10
77.1981017396
 20
190.8603847856
 30
0.0
 11
77.1981017396
 21
208.8603847856
 31
0.0
  0
LINE
  5
82
330
1F
100
AcDbEntity
  8
0
  6
Continuous
 62
     7
100
AcDbLine
 10
92.6981017396
 20
181.8603847856
 30
0.0
 11
103.6981017396
 21
181.8603847856
 31
0.0
  0
LINE
  5
83
330
1F
100
AcDbEntity
  8
1
  6
DOT_CENTER
 62
     2
100
AcDbLine
 10
81.53979095052216
 20
209.4255182851365
 30
0.0
 11
94.33007030068522
 21
189.3488012616444
 31
0.0
  0
LINE
  5
84
330
1F
100
AcDbEntity
  8
A_ACHSEN
  6
Continuous
 62
     7
100
AcDbLine
 10
79.2136916795
 20
204.6084893268
 30
0.0
 11
88.8313546689
 21
189.5117824467
 31
0.0
  0
LINE
  5
85
330
1F
100
AcDbEntity
  8
A_ACHSEN
  6
Continuous
 62
     7
100
AcDbLine
 10
84.12717172800001
 20
210.1100994377
 30
0.0
 11
79.8258753544
 21
207.3698714351
 31
0.0
  0
LINE
  5
86
330
1F
100
AcDbEntity
  8
A_ACHSEN
  6
Continuous
 62
     7
100
AcDbLine
 10
91.5927367772
 20
188.8995987718
 30
0.0
 11
94.69079976819968
 21
190.8732825695177
 31
0.0
  0
LINE
  5
87
330
1F
100
AcDbEntity
  8
0
  6
DASHED
 62
     2
100
AcDbLine
 10
116.3766831784365
 20
195.828135175352
 30
0.0
 11
114.1215045096
 21
199.8965851906
 31
0.0
  0
LINE
  5
88
330
1F
100
AcDbEntity
  8
0
  6
DASHED
 62
     2
100
AcDbLine
 10
101.6827888861263
 20
200.0419129203927
 30
0.0
 11
105.4030167677
 21
194.9214585241
 31
0.0
  0
LINE
  5
89
330
1F
100
AcDbEntity
  8
A_RUNDUNGEN
  6
Continuous
 62
     7
100
AcDbLine
 10
114.5998839174
 20
171.4819997439
 30
0.0
 11
120.9038610233
 21
174.4215925452
 31
0.0
  0
LINE
  5
8A
330
1F
100
AcDbEntity
  8
0
  6
Continuous
 62
     7
100
AcDbLine
 10
123.6158696957
 20
182.7682969889
 30
0.0
 11
116.3766831784365
 21
195.828135175352
 31
0.0
  0
LINE
  5
8B
330
1F
100
AcDbEntity
  8
A_RUNDUNGEN
  6
Continuous
 62
     7
100
AcDbLine
 10
115.5473896776
 20
181.8542302067
 30
0.0
 11
115.634031036
 21
181.8946317356
 31
0.0
  0
LINE
  5
8C
330
1F
100
AcDbEntity
  8
0
  6
Continuous
 62
     7
100
AcDbLine
 10
115.5473896776
 20
181.8542302067
 30
0.0
 11
110.7963195618
 21
179.6387698273
 31
0.0
  0
LINE
  5
8D
330
1F
100
AcDbEntity
  8
0
  6
Continuous
 62
     7
100
AcDbLine
 10
110.4481017396
 20
202.0603847856
 30
0.0
 11
106.9481017396
 21
202.0603847856
 31
0.0
  0
LINE
  5
8E
330
1F
100
AcDbEntity
  8
0
  6
Continuous
 62
     7
100
AcDbLine
 10
113.4856787743
 20
189.0801862113
 30
0.0
 11
116.3120332041
 21
183.9813078466
 31
0.0
  0
LINE
  5
8F
330
1F
100
AcDbEntity
  8
0
  6
Continuous
 62
     7
100
AcDbLine
 10
105.2520055473
 20
203.0005462571
 30
0.0
 11
102.4155022841
 21
207.539900371
 31
0.0
  0
LINE
  5
90
330
1F
100
AcDbEntity
  8
A_RUNDUNGEN
  6
Continuous
 62
     7
100
AcDbLine
 10
115.5473896776
 20
181.8542302067
 30
0.0
 11
119.1414889604
 21
175.3703034635
 31
0.0
  0
LINE
  5
91
330
1F
100
AcDbEntity
  8
0
  6
Continuous
 62
     7
100
AcDbLine
 10
98.33316527390001
 20
204.6522743007
 30
0.0
 11
101.6827888861263
 21
200.0419129203927
 31
0.0
  0
LINE
  5
92
330
1F
100
AcDbEntity
  8
1
  6
DOT_CENTER
 62
     2
100
AcDbLine
 10
119.1481017396196
 20
175.5603847856
 30
0.0
 11
106.2481017395804
 21
175.5603847856
 31
0.0
  0
LINE
  5
93
330
1F
100
AcDbEntity
  8
1
  6
DOT_CENTER
 62
     2
100
AcDbLine
 10
112.6981017396
 20
182.0103847856196
 30
0.0
 11
112.6981017396
 21
169.1103847855804
 31
0.0
  0
LINE
  5
94
330
1F
100
AcDbEntity
  8
0
  6
DASHED
 62
     2
100
AcDbLine
 10
139.7606134715944
 20
199.1603847856
 30
0.0
 11
129.1981017396
 21
199.1603847856
 31
0.0
  0
LINE
  5
95
330
1F
100
AcDbEntity
  8
1
  6
DOT_CENTER
 62
     2
100
AcDbLine
 10
167.1981017396
 20
166.8603847856
 30
0.0
 11
167.1981017396
 21
160.25476150632
 31
0.0
  0
LINE
  5
96
330
1F
100
AcDbEntity
  8
1
  6
DOT_CENTER
 62
     2
100
AcDbLine
 10
167.1981017396
 20
208.8603847856
 30
0.0
 11
167.1981017396
 21
213.393091277066
 31
0.0
  0
LINE
  5
97
330
1F
100
AcDbEntity
  8
0
  6
Continuous
 62
     7
100
AcDbLine
 10
139.6981017396
 20
174.8603847856
 30
0.0
 11
127.1981017396
 21
174.8603847856
 31
0.0
  0
LINE
  5
98
330
1F
100
AcDbEntity
  8
0
  6
Continuous
 62
     7
100
AcDbLine
 10
127.1981017396
 20
174.8603847856
 30
0.0
 11
127.1981017396
 21
176.3603847856
 31
0.0
  0
LINE
  5
99
330
1F
100
AcDbEntity
  8
0
  6
Continuous
 62
     7
100
AcDbLine
 10
114.6981017396
 20
202.8603847856
 30
0.0
 11
107.1981017396
 21
202.8603847856
 31
0.0
  0
LINE
  5
9A
330
1F
100
AcDbEntity
  8
0
  6
Continuous
 62
     7
100
AcDbLine
 10
139.6981017396
 20
202.8603847856
 30
0.0
 11
114.6981017396
 21
202.8603847856
 31
0.0
  0
LINE
  5
9B
330
1F
100
AcDbEntity
  8
A_RUNDUNGEN
  6
DASHED
 62
     2
100
AcDbLine
 10
143.760658422
 20
180.1151253518776
 30
0.0
 11
143.760658422
 21
187.6360500426
 31
0.0
  0
LINE
  5
9C
330
1F
100
AcDbEntity
  8
A_RUNDUNGEN
  6
DASHED
 62
     2
100
AcDbLine
 10
142.1167054028948
 20
179.1470248571796
 30
0.0
 11
137.9863992745362
 21
179.5083713465699
 31
0.0
  0
LINE
  5
9D
330
1F
100
AcDbEntity
  8
A_RUNDUNGEN
  6
Continuous
 62
     7
100
AcDbLine
 10
137.9863992745362
 20
179.5083713465699
 30
0.0
 11
124.3082680568616
 21
180.7050247042933
 31
0.0
  0
LINE
  5
9E
330
1F
100
AcDbEntity
  8
A_RUNDUNGEN
  6
DASHED
 62
     2
100
AcDbLine
 10
137.051576526425
 20
188.7249147160504
 30
0.0
 11
143.3284637312806
 21
188.1757711210549
 31
0.0
  0
LINE
  5
9F
330
1F
100
AcDbEntity
  8
A_RUNDUNGEN
  6
Continuous
 62
     7
100
AcDbLine
 10
143.3284637312806
 20
188.1757711210549
 30
0.0
 11
144.1981017396
 21
188.0996894381048
 31
0.0
  0
LINE
  5
A0
330
1F
100
AcDbEntity
  8
A_RUNDUNGEN
  6
Continuous
 62
     7
100
AcDbLine
 10
119.4610149593814
 20
190.2638533494296
 30
0.0
 11
137.051576526425
 21
188.7249147160504
 31
0.0
  0
LINE
  5
A1
330
1F
100
AcDbEntity
  8
A_RUNDUNGEN
  6
Continuous
 62
     7
100
AcDbLine
 10
114.8562558826424
 20
181.5319492253057
 30
0.0
 11
113.9047479289
 21
181.6151934324
 31
0.0
  0
LINE
  5
A2
330
1F
100
AcDbEntity
  8
A_RUNDUNGEN
  6
DASHED
 62
     2
100
AcDbLine
 10
124.3082680568616
 20
180.7050247042933
 30
0.0
 11
114.8562558826424
 21
181.5319492253057
 31
0.0
  0
LINE
  5
A3
330
1F
100
AcDbEntity
  8
0
  6
Continuous
 62
     7
100
AcDbLine
 10
123.4441784841737
 20
176.6603847856
 30
0.0
 11
136.1981017396
 21
176.6603847856
 31
0.0
  0
LINE
  5
A4
330
1F
100
AcDbEntity
  8
0
  6
Continuous
 62
     7
100
AcDbLine
 10
118.1981017396
 20
173.1598762700931
 30
0.0
 11
118.1981017396
 21
170.9603847856
 31
0.0
  0
LINE
  5
A5
330
1F
100
AcDbEntity
  8
1
  6
Continuous
 62
     7
100
AcDbLine
 10
107.1981017396
 20
202.8603847856
 30
0.0
 11
107.1981017396
 21
202.0603847856
 31
0.0
  0
LINE
  5
A6
330
1F
100
AcDbEntity
  8
0
  6
DASHED
 62
     2
100
AcDbLine
 10
107.1981017396
 20
192.8603847856
 30
0.0
 11
107.1981017396
 21
202.0603847856
 31
0.0
  0
LINE
  5
A7
330
1F
100
AcDbEntity
  8
0
  6
Continuous
 62
     7
100
AcDbLine
 10
112.832450036512
 20
201.4603847856
 30
0.0
 11
127.1981017396
 21
201.4603847856
 31
0.0
  0
LINE
  5
A8
330
1F
100
AcDbEntity
  8
A_ACHSEN
  6
Continuous
 62
     7
100
AcDbLine
 10
144.1981017396
 20
178.9649305436046
 30
0.0
 11
144.1981017396
 21
178.1603847856
 31
0.0
  0
LINE
  5
A9
330
1F
100
AcDbEntity
  8
A_ACHSEN
  6
Continuous
 62
     7
100
AcDbLine
 10
144.1981017396
 20
197.1603847856
 30
0.0
 11
144.1981017396
 21
188.0996894381048
 31
0.0
  0
LINE
  5
AA
330
1F
100
AcDbEntity
  8
A_RUNDUNGEN
  6
Continuous
 62
     7
100
AcDbLine
 10
143.760658422
 20
179.5051108068
 30
0.0
 11
143.760658422
 21
180.1151253518776
 31
0.0
  0
LINE
  5
AB
330
1F
100
AcDbEntity
  8
0
  6
Continuous
 62
     7
100
AcDbLine
 10
144.1981017396
 20
197.1603847856
 30
0.0
 11
139.9090878986
 21
199.1603847856
 31
0.0
  0
LINE
  5
AC
330
1F
100
AcDbEntity
  8
0
  6
DASHED
 62
     2
100
AcDbLine
 10
107.1981017396
 20
201.4603847856
 30
0.0
 11
112.832450036512
 21
201.4603847856
 31
0.0
  0
LINE
  5
AD
330
1F
100
AcDbEntity
  8
0
  6
Continuous
 62
     7
100
AcDbLine
 10
139.9090878986
 20
199.1603847856
 30
0.0
 11
139.7606134715944
 21
199.1603847856
 31
0.0
  0
LINE
  5
AE
330
1F
100
AcDbEntity
  8
A_RUNDUNGEN
  6
DASHED
 62
     2
100
AcDbLine
 10
114.6978467306
 20
190.6805667998
 30
0.0
 11
119.4610149593814
 21
190.2638533494296
 31
0.0
  0
LINE
  5
AF
330
1F
100
AcDbEntity
  8
0
  6
Continuous
 62
     7
100
AcDbLine
 10
127.1981017396
 20
201.1603847856
 30
0.0
 11
127.1981017396
 21
201.4603847856
 31
0.0
  0
LINE
  5
B0
330
1F
100
AcDbEntity
  8
A_RUNDUNGEN
  6
Continuous
 62
     7
100
AcDbLine
 10
144.1981017396
 20
178.9649305436046
 30
0.0
 11
142.1167054028948
 21
179.1470248571796
 31
0.0
  0
LINE
  5
B1
330
1F
100
AcDbEntity
  8
DEFAULT_2
  6
Continuous
 62
     7
100
AcDbLine
 10
118.1981017396
 20
175.4603847856
 30
0.0
 11
118.1981017396
 21
175.6603847856
 31
0.0
  0
LINE
  5
B2
330
1F
100
AcDbEntity
  8
0
  6
DASHED
 62
     2
100
AcDbLine
 10
118.1981017396
 20
175.4603847856
 30
0.0
 11
118.1981017396
 21
173.1598762700931
 31
0.0
  0
LINE
  5
B3
330
1F
100
AcDbEntity
  8
0
  6
DASHED
 62
     2
100
AcDbLine
 10
119.1981017396
 20
176.6603847856
 30
0.0
 11
123.4441784841737
 21
176.6603847856
 31
0.0
  0
LINE
  5
B4
330
1F
100
AcDbEntity
  8
0
  6
Continuous
 62
     7
100
AcDbLine
 10
136.1981017396
 20
176.6603847856
 30
0.0
 11
144.1981017396
 21
178.1603847856
 31
0.0
  0
LINE
  5
B5
330
1F
100
AcDbEntity
  8
A_ACHSEN
  6
Continuous
 62
     7
100
AcDbLine
 10
112.5311495506
 20
188.8624844777
 30
0.0
 11
112.0866656067
 21
183.7818906124
 31
0.0
  0
LINE
  5
B6
330
1F
100
AcDbEntity
  8
0
  6
Continuous
 62
     7
100
AcDbLine
 10
118.1981017396
 20
170.9603847856
 30
0.0
 11
107.1981017396
 21
170.9603847856
 31
0.0
  0
LINE
  5
B7
330
1F
100
AcDbEntity
  8
0
  6
Continuous
 62
     7
100
AcDbLine
 10
107.1981017396
 20
170.9603847856
 30
0.0
 11
107.1981017396
 21
192.8603847856
 31
0.0
  0
LINE
  5
B8
330
1F
100
AcDbEntity
  8
1
  6
DOT_CENTER
 62
     2
100
AcDbLine
 10
110.8604034837818
 20
186.4489122606588
 30
0.0
 11
145.9010606598622
 21
183.3833238848873
 31
0.0
  0
LINE
  5
B9
330
1F
100
AcDbEntity
  8
0
  6
Continuous
 62
     7
100
AcDbLine
 10
107.1981017396
 20
166.8603847856
 30
0.0
 11
107.1981017396
 21
170.8603847856
 31
0.0
  0
LINE
  5
BA
330
1F
100
AcDbEntity
  8
0
  6
Continuous
 62
     7
100
AcDbLine
 10
107.1981017396
 20
208.8603847856
 30
0.0
 11
167.1981017396
 21
208.8603847856
 31
0.0
  0
LINE
  5
BB
330
1F
100
AcDbEntity
  8
0
  6
DOT_CENTER
 62
     2
100
AcDbLine
 10
167.1981017396
 20
208.8603847856
 30
0.0
 11
167.1981017396
 21
166.8603847856
 31
0.0
  0
LINE
  5
BC
330
1F
100
AcDbEntity
  8
0
  6
Continuous
 62
     7
100
AcDbLine
 10
167.1981017396
 20
166.8603847856
 30
0.0
 11
107.1981017396
 21
166.8603847856
 31
0.0
  0
LINE
  5
BD
330
1F
100
AcDbEntity
  8
0
  6
Continuous
 62
     7
100
AcDbLine
 10
150.1981017396
 20
174.8603847856
 30
0.0
 11
150.1981017396
 21
202.8603847856
 31
0.0
  0
LINE
  5
BE
330
1F
100
AcDbEntity
  8
0
  6
Continuous
 62
     7
100
AcDbLine
 10
149.6981017396
 20
177.5697232394
 30
0.0
 11
149.6981017396
 21
200.1510463319
 31
0.0
  0
LINE
  5
BF
330
1F
100
AcDbEntity
  8
0
  6
Continuous
 62
     7
100
AcDbLine
 10
148.3981017396
 20
178.0907916427
 30
0.0
 11
148.3981017396
 21
198.7339750715
 31
0.0
  0
LINE
  5
C0
330
1F
100
AcDbEntity
  8
0
  6
Continuous
 62
     7
100
AcDbLine
 10
127.1981017396
 20
170.8603847856
 30
0.0
 11
127.1981017396
 21
174.8603847856
 31
0.0
  0
LINE
  5
C1
330
1F
100
AcDbEntity
  8
0
  6
Continuous
 62
     7
100
AcDbLine
 10
148.3981017396
 20
198.7339750715
 30
0.0
 11
137.3981017396
 21
201.2339750715
 31
0.0
  0
LINE
  5
C2
330
1F
100
AcDbEntity
  8
0
  6
Continuous
 62
     7
100
AcDbLine
 10
148.406861391
 20
201.636448435
 30
0.0
 11
139.6981017396
 21
202.8603847856
 31
0.0
  0
LINE
  5
C3
330
1F
100
AcDbEntity
  8
0
  6
Continuous
 62
     7
100
AcDbLine
 10
150.1981017396
 20
174.8603847856
 30
0.0
 11
139.6981017396
 21
174.8603847856
 31
0.0
  0
LINE
  5
C4
330
1F
100
AcDbEntity
  8
0
  6
Continuous
 62
     7
100
AcDbLine
 10
127.1981017396
 20
176.3603847856
 30
0.0
 11
140.3981017396
 21
176.5907916427
 31
0.0
  0
LINE
  5
C5
330
1F
100
AcDbEntity
  8
0
  6
Continuous
 62
     7
100
AcDbLine
 10
139.6981017396
 20
174.8603847856
 30
0.0
 11
148.406861391
 21
176.0843211363
 31
0.0
  0
LINE
  5
C6
330
1F
100
AcDbEntity
  8
0
  6
Continuous
 62
     7
100
AcDbLine
 10
140.3981017396
 20
176.5907916427
 30
0.0
 11
148.3981017396
 21
178.0907916427
 31
0.0
  0
LINE
  5
C7
330
1F
100
AcDbEntity
  8
0
  6
Continuous
 62
     7
100
AcDbLine
 10
127.1981017396
 20
170.8603847856
 30
0.0
 11
107.1981017396
 21
170.8603847856
 31
0.0
  0
LINE
  5
C8
330
1F
100
AcDbEntity
  8
0
  6
Continuous
 62
     7
100
AcDbLine
 10
150.1981017396
 20
202.8603847856
 30
0.0
 11
139.6981017396
 21
202.8603847856
 31
0.0
  0
LINE
  5
C9
330
1F
100
AcDbEntity
  8
0
  6
Continuous
 62
     7
100
AcDbLine
 10
107.1981017396
 20
202.8603847856
 30
0.0
 11
107.1981017396
 21
208.8603847856
 31
0.0
  0
LINE
  5
CA
330
1F
100
AcDbEntity
  8
0
  6
Continuous
 62
     7
100
AcDbLine
 10
137.3981017396
 20
201.2339750715
 30
0.0
 11
118.6981017396
 21
201.5603847856
 31
0.0
  0
LINE
  5
CB
330
1F
100
AcDbEntity
  8
0
  6
Continuous
 62
     7
100
AcDbLine
 10
118.6981017396
 20
201.5603847856
 30
0.0
 11
114.6981017396
 21
202.3603847856
 31
0.0
  0
LINE
  5
CC
330
1F
100
AcDbEntity
  8
0
  6
Continuous
 62
     7
100
AcDbLine
 10
114.6981017396
 20
202.3603847856
 30
0.0
 11
114.6981017396
 21
202.8603847856
 31
0.0
  0
LINE
  5
CD
330
1F
100
AcDbEntity
  8
1
  6
Continuous
 62
     7
100
AcDbLine
 10
107.1981017396
 20
170.9603847856
 30
0.0
 11
107.1981017396
 21
170.8603847856
 31
0.0
  0
LINE
  5
CE
330
1F
100
AcDbEntity
  8
0
  6
Continuous
 62
     7
100
AcDbLine
 10
143.1427599698
 20
188.7327196924
 30
0.0
 11
141.950606655
 21
195.4937571133
 31
0.0
  0
LINE
  5
CF
330
1F
100
AcDbEntity
  8
0
  6
Continuous
 62
     7
100
AcDbLine
 10
136.2305249987
 20
193.3813293186
 30
0.0
 11
137.0548235385
 21
188.7064999955
 31
0.0
  0
LINE
  5
D0
330
1F
100
AcDbEntity
  8
0
  6
DASHED
 62
     2
100
AcDbLine
 10
135.7372163776
 20
194.5758773501
 30
0.0
 11
136.1481017396
 21
200.4518117825
 31
0.0
  0
LINE
  5
D1
330
1F
100
AcDbEntity
  8
A_RUNDUNGEN
  6
Continuous
 62
     7
100
AcDbLine
 10
124.4481017396
 20
200.8603847856
 30
0.0
 11
136.1481017396
 21
200.4518117825
 31
0.0
  0
LINE
  5
D2
330
1F
100
AcDbEntity
  8
0
  6
Continuous
 62
     7
100
AcDbLine
 10
124.4481017396
 20
200.8603847856
 30
0.0
 11
112.3833540405
 21
200.8603847856
 31
0.0
  0
LINE
  5
D3
330
1F
100
AcDbEntity
  8
0
  6
Continuous
 62
     7
100
AcDbLine
 10
119.9981017396
 20
196.5603847856
 30
0.0
 11
126.3981017396
 21
196.5603847856
 31
0.0
  0
LINE
  5
D4
330
1F
100
AcDbEntity
  8
0
  6
Continuous
 62
     7
100
AcDbLine
 10
126.6981017396
 20
196.2603847856
 30
0.0
 11
126.6981017396
 21
196.1603847856
 31
0.0
  0
LINE
  5
D5
330
1F
100
AcDbEntity
  8
0
  6
Continuous
 62
     7
100
AcDbLine
 10
126.9981017396
 20
195.8603847856
 30
0.0
 11
133.2761017396
 21
195.8603847856
 31
0.0
  0
LINE
  5
D6
330
1F
100
AcDbEntity
  8
0
  6
Continuous
 62
     7
100
AcDbLine
 10
116.9979361749
 20
195.8603847856
 30
0.0
 11
119.3981017396
 21
195.8603847856
 31
0.0
  0
LINE
  5
D7
330
1F
100
AcDbEntity
  8
0
  6
Continuous
 62
     7
100
AcDbLine
 10
105.1981017396
 20
192.8603847856
 30
0.0
 11
109.4481017396
 21
192.8603847856
 31
0.0
  0
LINE
  5
D8
330
1F
100
AcDbEntity
  8
0
  6
Continuous
 62
     7
100
AcDbLine
 10
119.6981017396
 20
196.1603847856
 30
0.0
 11
119.6981017396
 21
196.2603847856
 31
0.0
  0
LINE
  5
D9
330
1F
100
AcDbEntity
  8
0
  6
Continuous
 62
     7
100
AcDbLine
 10
103.1981017396
 20
186.5603847856
 30
0.0
 11
103.1981017396
 21
190.8603847856
 31
0.0
  0
LINE
  5
DA
330
1F
100
AcDbEntity
  8
0
  6
Continuous
 62
     7
100
AcDbLine
 10
136.2511571171
 20
200.4482130094
 30
0.0
 11
136.1481017396
 21
200.4518117825
 31
0.0
  0
LINE
  5
DB
330
1F
100
AcDbEntity
  8
1
  6
DOT_CENTER
 62
     2
100
AcDbLine
 10
116.4481017396221
 20
197.8603847856
 30
0.0
 11
102.4481017395779
 21
197.8603847856
 31
0.0
  0
LINE
  5
DC
330
1F
100
AcDbEntity
  8
1
  6
DOT_CENTER
 62
     2
100
AcDbLine
 10
109.4481017396
 20
204.8603847856221
 30
0.0
 11
109.4481017396
 21
190.8603847855779
 31
0.0
  0
LINE
  5
DD
330
1F
100
AcDbEntity
  8
1
  6
DOT_CENTER
 62
     2
100
AcDbLine
 10
147.4481017396
 20
183.8603847856
 30
0.0
 11
133.4481017396
 21
183.8603847856
 31
0.0
  0
LINE
  5
DE
330
1F
100
AcDbEntity
  8
1
  6
DOT_CENTER
 62
     2
100
AcDbLine
 10
140.4481017396
 20
190.8603847856
 30
0.0
 11
140.4481017396
 21
176.8603847856
 31
0.0
  0
LINE
  5
DF
330
1F
100
AcDbEntity
  8
0
  6
Continuous
 62
     7
100
AcDbLine
 10
90.1345624348
 20
210.2181608283
 30
0.0
 11
83.5823432839
 21
208.7655688141
 31
0.0
  0
LINE
  5
E0
330
1F
100
AcDbEntity
  8
A_RUNDUNGEN
  6
Continuous
 62
     7
100
AcDbLine
 10
91.43320011840001
 20
210.3603847856
 30
0.0
 11
97.3272137071
 21
210.3603847856
 31
0.0
  0
LINE
  5
E1
330
1F
100
AcDbEntity
  8
A_RUNDUNGEN
  6
Continuous
 62
     7
100
AcDbLine
 10
86.88314745560001
 20
201.6869714244
 30
0.0
 11
97.0179880293
 21
209.4637081155
 31
0.0
  0
LINE
  5
E2
330
1F
100
AcDbEntity
  8
1
  6
DOT_CENTER
 62
     2
100
AcDbLine
 10
90.34810173960724
 20
204.8603847856
 30
0.0
 11
78.54810173959277
 21
204.8603847856
 31
0.0
  0
LINE
  5
E3
330
1F
100
AcDbEntity
  8
1
  6
DOT_CENTER
 62
     2
100
AcDbLine
 10
84.4481017396
 20
210.7603847856073
 30
0.0
 11
84.4481017396
 21
198.9603847855927
 31
0.0
  0
LINE
  5
E4
330
1F
100
AcDbEntity
  8
0
  6
Continuous
 62
     7
100
AcDbLine
 10
94.1981017396
 20
187.0603847856
 30
0.0
 11
94.1981017396
 21
186.5603847856
 31
0.0
  0
LINE
  5
E5
330
1F
100
AcDbEntity
  8
1
  6
DOT_CENTER
 62
     2
100
AcDbLine
 10
105.1481017396
 20
186.5603847856
 30
0.0
 11
92.24810173960002
 21
186.5603847856
 31
0.0
  0
LINE
  5
E6
330
1F
100
AcDbEntity
  8
1
  6
DOT_CENTER
 62
     2
100
AcDbLine
 10
98.6981017396
 20
193.0103847856
 30
0.0
 11
98.6981017396
 21
180.1103847856
 31
0.0
  0
LINE
  5
E7
330
1F
100
AcDbEntity
  8
1
  6
Continuous
 62
     7
100
AcDbLine
 10
106.6530636848
 20
208.8603847856
 30
0.0
 11
107.1981017396
 21
208.8603847856
 31
0.0
  0
ARC
  5
E8
330
1F
100
AcDbEntity
  8
A_RUNDUNGEN
  6
DASHED
 62
     2
100
AcDbCircle
 10
94.8194339341
 20
193.326609666
 30
0.0
 40
1.999999999981666
100
AcDbArc
 50
-57.49999999944981
 51
32.49999999901069
  0
ARC
  5
E9
330
1F
100
AcDbEntity
  8
A_RUNDUNGEN
  6
Continuous
 62
     7
100
AcDbCircle
 10
80.9004745711
 20
205.6830885435
 30
0.0
 40
1.999999999981697
100
AcDbArc
 50
122.5000000005501
 51
-147.49999999945
  0
ARC
  5
EA
330
1F
100
AcDbEntity
  8
A_RUNDUNGEN
  6
Continuous
 62
     7
100
AcDbCircle
 10
85.2017709447
 20
208.423316546
 30
0.0
 40
2.000000000066018
100
AcDbArc
 50
32.49999999901069
 51
122.4999999990107
  0
ARC
  5
EB
330
1F
100
AcDbEntity
  8
A_RUNDUNGEN
  6
Continuous
 62
     7
100
AcDbCircle
 10
90.51813756050001
 20
190.5863816634
 30
0.0
 40
1.999999999981678
100
AcDbArc
 50
-147.49999999945
 51
-57.49999999945026
  0
ARC
  5
EC
330
1F
100
AcDbEntity
  8
A_RUNDUNGEN
  6
Continuous
 62
     7
100
AcDbCircle
 10
88.6981017396
 20
184.3603847856
 30
0.0
 40
4.0
100
AcDbArc
 50
0.0
 51
90.0
  0
ARC
  5
ED
330
1F
100
AcDbEntity
  8
0
  6
DASHED
 62
     2
100
AcDbCircle
 10
110.4481017396
 20
197.8603847856
 30
0.0
 40
4.199999999995938
100
AcDbArc
 50
28.99999999949107
 51
45.58469140280727
  0
ARC
  5
EE
330
1F
100
AcDbEntity
  8
0
  6
Continuous
 62
     7
100
AcDbCircle
 10
106.4887211172
 20
185.2017092494
 30
0.0
 40
7.999999999952455
100
AcDbArc
 50
28.99999999960977
 51
73.20296275258632
  0
ARC
  5
EF
330
1F
100
AcDbEntity
  8
0
  6
Continuous
 62
     7
100
AcDbCircle
 10
110.4481017396
 20
197.8603847856
 30
0.0
 40
4.199999999999982
100
AcDbArc
 50
45.58469140280727
 51
90.0
  0
ARC
  5
F0
330
1F
100
AcDbEntity
  8
0
  6
DASHED
 62
     2
100
AcDbCircle
 10
109.4481017396
 20
197.8603847856
 30
0.0
 40
5.000000000042568
100
AcDbArc
 50
-143.9999999998213
 51
-103.1584427784191
  0
ARC
  5
F1
330
1F
100
AcDbEntity
  8
0
  6
Continuous
 62
     7
100
AcDbCircle
 10
106.9481017396
 20
204.0603847856
 30
0.0
 40
2.000000000006902
100
AcDbArc
 50
-147.999999998989
 51
-90.0
  0
ARC
  5
F2
330
1F
100
AcDbEntity
  8
A_RUNDUNGEN
  6
Continuous
 62
     7
100
AcDbCircle
 10
115.0001036434
 20
183.2540934162
 30
0.0
 40
1.50000000003613
100
AcDbArc
 50
-65.00000000110919
 51
29.00000000118737
  0
ARC
  5
F3
330
1F
100
AcDbEntity
  8
A_RUNDUNGEN
  6
Continuous
 62
     7
100
AcDbCircle
 10
117.8295593997
 20
174.6430890331
 30
0.0
 40
1.500000000000044
100
AcDbArc
 50
-64.99999999999868
 51
29.00000000118668
  0
ARC
  5
F4
330
1F
100
AcDbEntity
  8
0
  6
Continuous
 62
     7
100
AcDbCircle
 10
112.6981017396
 20
175.5603847856
 30
0.0
 40
4.50000000001777
100
AcDbArc
 50
114.9999999994289
 51
-65.00000000057132
  0
ARC
  5
F5
330
1F
100
AcDbEntity
  8
0
  6
Continuous
 62
     7
100
AcDbCircle
 10
118.3681514529
 20
179.8594392674
 30
0.0
 40
5.99999999996328
100
AcDbArc
 50
-65.00000000030215
 51
29.00000000035192
  0
ARC
  5
F6
330
1F
100
AcDbEntity
  8
0
  6
DASHED
 62
     2
100
AcDbCircle
 10
106.4887211172
 20
185.2017092494
 30
0.0
 40
8.000000000000083
100
AcDbArc
 50
73.20296275258632
 51
76.84155722120012
  0
ARC
  5
F7
330
1F
100
AcDbEntity
  8
A_RUNDUNGEN
  6
Continuous
 62
     7
100
AcDbCircle
 10
97.3272137071
 20
204.3603847856
 30
0.0
 40
6.000000000052514
100
AcDbArc
 50
31.99999999969528
 51
90.0
  0
ARC
  5
F8
330
1F
100
AcDbEntity
  8
0
  6
Continuous
 62
     7
100
AcDbCircle
 10
129.1981017396
 20
201.1603847856
 30
0.0
 40
1.999999999999986
100
AcDbArc
 50
180.0
 51
-168.5383230679965
  0
ARC
  5
F9
330
1F
100
AcDbEntity
  8
A_RUNDUNGEN
  6
DASHED
 62
     2
100
AcDbCircle
 10
114.5235393017
 20
188.6881770487
 30
0.0
 40
2.000000000014519
100
AcDbArc
 50
85.00011665683557
 51
141.950870730644
  0
ARC
  5
FA
330
1F
100
AcDbEntity
  8
A_RUNDUNGEN
  6
Continuous
 62
     7
100
AcDbCircle
 10
114.0790553578
 20
183.6075831835
 30
0.0
 40
2.000000000014518
100
AcDbArc
 50
175.000116656836
 51
-94.99988334316444
  0
ARC
  5
FB
330
1F
100
AcDbEntity
  8
A_RUNDUNGEN
  6
Continuous
 62
     7
100
AcDbCircle
 10
114.5235393017
 20
188.6881770487
 30
0.0
 40
2.000000000023201
100
AcDbArc
 50
141.950870730644
 51
175.0001166539816
  0
ARC
  5
FC
330
1F
100
AcDbEntity
  8
0
  6
DASHED
 62
     2
100
AcDbCircle
 10
129.1981017396
 20
201.1603847856
 30
0.0
 40
1.999999999999977
100
AcDbArc
 50
-168.5383230679965
 51
-90.0
  0
ARC
  5
FD
330
1F
100
AcDbEntity
  8
0
  6
DASHED
 62
     2
100
AcDbCircle
 10
119.1981017396
 20
175.6603847856
 30
0.0
 40
1.0
100
AcDbArc
 50
90.0
 51
180.0
  0
ARC
  5
FE
330
1F
100
AcDbEntity
  8
0
  6
Continuous
 62
     7
100
AcDbCircle
 10
148.1981017396
 20
200.1510463319
 30
0.0
 40
1.5
100
AcDbArc
 50
0.0
 51
82.00000000145047
  0
ARC
  5
FF
330
1F
100
AcDbEntity
  8
0
  6
Continuous
 62
     7
100
AcDbCircle
 10
148.1981017396
 20
177.5697232394
 30
0.0
 40
1.499999999982186
100
AcDbArc
 50
-82.00000000145047
 51
0.0
  0
ARC
  5
100
330
1F
100
AcDbEntity
  8
0
  6
Continuous
 62
     7
100
AcDbCircle
 10
109.4481017396
 20
197.8603847856
 30
0.0
 40
4.197106869015689
100
AcDbArc
 50
45.62501517238637
 51
88.67394562331367
  0
ARC
  5
101
330
1F
100
AcDbEntity
  8
0
  6
Continuous
 62
     7
100
AcDbCircle
 10
109.4481017396
 20
197.8603847856
 30
0.0
 40
5.0
100
AcDbArc
 50
-90.0
 51
-46.6582417725068
  0
ARC
  5
102
330
1F
100
AcDbEntity
  8
0
  6
Continuous
 62
     7
100
AcDbCircle
 10
119.3981017396
 20
196.1603847856
 30
0.0
 40
0.3000000000000114
100
AcDbArc
 50
-90.0
 51
0.0
  0
ARC
  5
103
330
1F
100
AcDbEntity
  8
0
  6
Continuous
 62
     7
100
AcDbCircle
 10
119.9981017396
 20
196.2603847856
 30
0.0
 40
0.3000000000000114
100
AcDbArc
 50
90.0
 51
180.0
  0
ARC
  5
104
330
1F
100
AcDbEntity
  8
0
  6
Continuous
 62
     7
100
AcDbCircle
 10
126.3981017396
 20
196.2603847856
 30
0.0
 40
0.3000000000000114
100
AcDbArc
 50
0.0
 51
90.0
  0
ARC
  5
105
330
1F
100
AcDbEntity
  8
0
  6
Continuous
 62
     7
100
AcDbCircle
 10
126.9981017396
 20
196.1603847856
 30
0.0
 40
0.2999999999999972
100
AcDbArc
 50
180.0
 51
-90.0
  0
ARC
  5
106
330
1F
100
AcDbEntity
  8
0
  6
Continuous
 62
     7
100
AcDbCircle
 10
145.1123754759
 20
189.0800160478
 30
0.0
 40
2.000000000085906
100
AcDbArc
 50
-169.9999999985098
 51
-131.7840423679949
  0
ARC
  5
107
330
1F
100
AcDbEntity
  8
0
  6
Continuous
 62
     7
100
AcDbCircle
 10
135.0852080325
 20
188.3592036401
 30
0.0
 40
1.999999999947332
100
AcDbArc
 50
-39.99258066313275
 51
10.00000000198757
  0
ARC
  5
108
330
1F
100
AcDbEntity
  8
0
  6
Continuous
 62
     7
100
AcDbCircle
 10
105.1981017396
 20
190.8603847856
 30
0.0
 40
2.0
100
AcDbArc
 50
90.0
 51
180.0
  0
ARC
  5
109
330
1F
100
AcDbEntity
  8
A_RUNDUNGEN
  6
Continuous
 62
     7
100
AcDbCircle
 10
133.2761017396
 20
192.8603847856
 30
0.0
 40
3.000000000038781
100
AcDbArc
 50
34.87799575805247
 51
90.0
  0
ARC
  5
10A
330
1F
100
AcDbEntity
  8
0
  6
Continuous
 62
     7
100
AcDbCircle
 10
133.2761017396
 20
192.8603847856
 30
0.0
 40
3.000000000062273
100
AcDbArc
 50
9.99999999977505
 51
34.87799575805247
  0
ARC
  5
10B
330
1F
100
AcDbEntity
  8
0
  6
Continuous
 62
     7
100
AcDbCircle
 10
140.4481017396
 20
183.8603847856
 30
0.0
 40
4.999999999999631
100
AcDbArc
 50
140.0074193358037
 51
48.21595763329653
  0
ARC
  5
10C
330
1F
100
AcDbEntity
  8
0
  6
Continuous
 62
     7
100
AcDbCircle
 10
136.0417601369
 20
194.4518680473
 30
0.0
 40
6.000000000026078
100
AcDbArc
 50
9.99999999994085
 51
88.00000000013824
  0
ARC
  5
10D
330
1F
100
AcDbEntity
  8
0
  6
Continuous
 62
     7
100
AcDbCircle
 10
116.9979361749
 20
189.8603847856
 30
0.0
 40
6.0
100
AcDbArc
 50
90.0
 51
133.3417582271998
  0
ARC
  5
10E
330
1F
100
AcDbEntity
  8
A_RUNDUNGEN
  6
Continuous
 62
     7
100
AcDbCircle
 10
96.7136073148
 20
209.8603847856
 30
0.0
 40
0.4999999999611482
100
AcDbArc
 50
-52.49999999721377
 51
90.0
  0
ARC
  5
10F
330
1F
100
AcDbEntity
  8
A_RUNDUNGEN
  6
Continuous
 62
     7
100
AcDbCircle
 10
94.69258879920001
 20
202.0072406653
 30
0.0
 40
4.500000000059591
100
AcDbArc
 50
36.00000000076845
 51
127.4999999999963
  0
ARC
  5
110
330
1F
100
AcDbEntity
  8
0
  6
Continuous
 62
     7
100
AcDbCircle
 10
91.43320011840001
 20
204.3603847856
 30
0.0
 40
6.0
100
AcDbArc
 50
90.0
 51
102.4999999997738
  0
ARC
  5
111
330
1F
100
AcDbEntity
  8
0
  6
Continuous
 62
     7
100
AcDbCircle
 10
84.4481017396
 20
204.8603847856
 30
0.0
 40
4.000000000008446
100
AcDbArc
 50
102.4999999992043
 51
-52.50000000070186
  0
ARC
  5
112
330
1F
100
AcDbEntity
  8
0
  6
Continuous
 62
     7
100
AcDbCircle
 10
98.6981017396
 20
186.5603847856
 30
0.0
 40
4.5
100
AcDbArc
 50
180.0
 51
0.0
  0
ARC
  5
113
330
1F
100
AcDbEntity
  8
0
  6
Continuous
 62
     7
100
AcDbCircle
 10
109.1981017396
 20
187.0603847856
 30
0.0
 40
15.00000000000013
100
AcDbArc
 50
88.6739456233003
 51
180.0
  0
CIRCLE
  5
114
330
1F
100
AcDbEntity
  8
A_NOTIZEN_SYMB
  6
Continuous
 62
     2
100
AcDbCircle
 10
81.3636479957
 20
175.7360394057
 30
0.0
 40
0.6764957215999914
  0
CIRCLE
  5
115
330
1F
100
AcDbEntity
  8
A_NOTIZEN_SYMB
  6
Continuous
 62
     2
100
AcDbCircle
 10
80.8516604689
 20
178.3890656809
 30
0.0
 40
0.6764957216000056
  0
CIRCLE
  5
116
330
1F
100
AcDbEntity
  8
A_NOTIZEN_SYMB
  6
Continuous
 62
     2
100
AcDbCircle
 10
95.8451133752
 20
175.799674219
 30
0.0
 40
0.6764957216000056
  0
CIRCLE
  5
117
330
1F
100
AcDbEntity
  8
A_NOTIZEN_SYMB
  6
Continuous
 62
     2
100
AcDbCircle
 10
95.3331258484
 20
178.4527004942
 30
0.0
 40
0.6764957215999914
  0
CIRCLE
  5
118
330
1F
100
AcDbEntity
  8
A_NOTIZEN_SYMB
  6
Continuous
 62
     2
100
AcDbCircle
 10
86.7089723166
 20
175.6633139047
 30
0.0
 40
0.6764957216000056
  0
CIRCLE
  5
119
330
1F
100
AcDbEntity
  8
A_NOTIZEN_SYMB
  6
Continuous
 62
     2
100
AcDbCircle
 10
86.1969847898
 20
178.3163401799
 30
0.0
 40
0.6764957216000056
  0
CIRCLE
  5
11A
330
1F
100
AcDbEntity
  8
A_NOTIZEN_SYMB
  6
Continuous
 62
     2
100
AcDbCircle
 10
73.163847762
 20
175.9814879715
 30
0.0
 40
0.6764957215999914
  0
CIRCLE
  5
11B
330
1F
100
AcDbEntity
  8
A_NOTIZEN_SYMB
  6
Continuous
 62
     2
100
AcDbCircle
 10
83.7557087831
 20
179.8996521522
 30
0.0
 40
0.6914661694999893
  0
CIRCLE
  5
11C
330
1F
100
AcDbEntity
  8
A_NOTIZEN_SYMB
  6
Continuous
 62
     2
100
AcDbCircle
 10
98.2371741626
 20
179.9632869655
 30
0.0
 40
0.6914661695000035
  0
CIRCLE
  5
11D
330
1F
100
AcDbEntity
  8
A_NOTIZEN_SYMB
  6
Continuous
 62
     2
100
AcDbCircle
 10
89.101033104
 20
179.8269266512
 30
0.0
 40
0.6914661695000035
  0
CIRCLE
  5
11E
330
1F
100
AcDbEntity
  8
A_NOTIZEN_SYMB
  6
Continuous
 62
     2
100
AcDbCircle
 10
75.5559085494
 20
180.1451007179
 30
0.0
 40
0.6914661695000035
  0
CIRCLE
  5
11F
330
1F
100
AcDbEntity
  8
A_NOTIZEN_SYMB
  6
Continuous
 62
     2
100
AcDbCircle
 10
83.8983092568
 20
174.0595795095
 30
0.0
 40
0.8092754575999948
  0
CIRCLE
  5
120
330
1F
100
AcDbEntity
  8
A_NOTIZEN_SYMB
  6
Continuous
 62
     2
100
AcDbCircle
 10
83.8983092568
 20
177.377680491
 30
0.0
 40
0.8092754575999948
  0
CIRCLE
  5
121
330
1F
100
AcDbEntity
  8
A_NOTIZEN_SYMB
  6
Continuous
 62
     2
100
AcDbCircle
 10
101.1342529853
 20
176.2958886642
 30
0.0
 40
0.809275457600009
  0
CIRCLE
  5
122
330
1F
100
AcDbEntity
  8
A_NOTIZEN_SYMB
  6
Continuous
 62
     2
100
AcDbCircle
 10
100.8797137319
 20
179.3958131428
 30
0.0
 40
0.809275457600009
  0
CIRCLE
  5
123
330
1F
100
AcDbEntity
  8
A_NOTIZEN_SYMB
  6
Continuous
 62
     2
100
AcDbCircle
 10
98.3797746363
 20
174.1232143229
 30
0.0
 40
0.8092754575999948
  0
CIRCLE
  5
124
330
1F
100
AcDbEntity
  8
A_NOTIZEN_SYMB
  6
Continuous
 62
     2
100
AcDbCircle
 10
98.3797746363
 20
177.4413153044
 30
0.0
 40
0.8092754575999948
  0
CIRCLE
  5
125
330
1F
100
AcDbEntity
  8
A_NOTIZEN_SYMB
  6
Continuous
 62
     2
100
AcDbCircle
 10
91.9981119267
 20
176.1595283499
 30
0.0
 40
0.8092754575999948
  0
CIRCLE
  5
126
330
1F
100
AcDbEntity
  8
A_NOTIZEN_SYMB
  6
Continuous
 62
     2
100
AcDbCircle
 10
91.7435726733
 20
179.2594528285
 30
0.0
 40
0.809275457600009
  0
CIRCLE
  5
127
330
1F
100
AcDbEntity
  8
A_NOTIZEN_SYMB
  6
Continuous
 62
     2
100
AcDbCircle
 10
89.2436335777
 20
173.9868540086
 30
0.0
 40
0.809275457600009
  0
CIRCLE
  5
128
330
1F
100
AcDbEntity
  8
A_NOTIZEN_SYMB
  6
Continuous
 62
     2
100
AcDbCircle
 10
89.2436335777
 20
177.3049549901
 30
0.0
 40
0.809275457600009
  0
CIRCLE
  5
129
330
1F
100
AcDbEntity
  8
A_NOTIZEN_SYMB
  6
Continuous
 62
     2
100
AcDbCircle
 10
78.4529873721
 20
176.4777024166
 30
0.0
 40
0.809275457600009
  0
CIRCLE
  5
12A
330
1F
100
AcDbEntity
  8
A_NOTIZEN_SYMB
  6
Continuous
 62
     2
100
AcDbCircle
 10
78.1984481187
 20
179.5776268952
 30
0.0
 40
0.8092754575999948
  0
CIRCLE
  5
12B
330
1F
100
AcDbEntity
  8
A_NOTIZEN_SYMB
  6
Continuous
 62
     2
100
AcDbCircle
 10
75.6985090231
 20
174.3050280753
 30
0.0
 40
0.8092754575999948
  0
CIRCLE
  5
12C
330
1F
100
AcDbEntity
  8
A_NOTIZEN_SYMB
  6
Continuous
 62
     2
100
AcDbCircle
 10
75.6985090231
 20
177.6231290568
 30
0.0
 40
0.8092754575999948
  0
CIRCLE
  5
12D
330
1F
100
AcDbEntity
  8
A_NOTIZEN_SYMB
  6
Continuous
 62
     2
100
AcDbCircle
 10
98.5161533276
 20
167.7759832381
 30
0.0
 40
0.6039708434000062
  0
CIRCLE
  5
12E
330
1F
100
AcDbEntity
  8
A_NOTIZEN_SYMB
  6
Continuous
 62
     2
100
AcDbCircle
 10
89.8800000882
 20
167.7759832381
 30
0.0
 40
0.603970843399992
  0
CIRCLE
  5
12F
330
1F
100
AcDbEntity
  8
A_NOTIZEN_SYMB
  6
Continuous
 62
     2
100
AcDbCircle
 10
76.4712358479
 20
167.7759832381
 30
0.0
 40
0.603970843399992
  0
CIRCLE
  5
130
330
1F
100
AcDbEntity
  8
A_NOTIZEN_SYMB
  6
Continuous
 62
     2
100
AcDbCircle
 10
83.9934021106
 20
170.7383500396
 30
0.0
 40
0.6764957215999914
  0
CIRCLE
  5
131
330
1F
100
AcDbEntity
  8
A_NOTIZEN_SYMB
  6
Continuous
 62
     2
100
AcDbCircle
 10
81.3636479957
 20
168.0096821833
 30
0.0
 40
0.6764957215999914
  0
CIRCLE
  5
132
330
1F
100
AcDbEntity
  8
A_NOTIZEN_SYMB
  6
Continuous
 62
     2
100
AcDbCircle
 10
80.3629451024
 20
170.77906926
 30
0.0
 40
0.6764957215999914
  0
CIRCLE
  5
133
330
1F
100
AcDbEntity
  8
A_NOTIZEN_SYMB
  6
Continuous
 62
     2
100
AcDbCircle
 10
80.8516604689
 20
173.1528296115
 30
0.0
 40
0.6764957216000056
  0
CIRCLE
  5
134
330
1F
100
AcDbEntity
  8
A_NOTIZEN_SYMB
  6
Continuous
 62
     2
100
AcDbCircle
 10
98.4748674901
 20
170.8019848529
 30
0.0
 40
0.6764957216000056
  0
CIRCLE
  5
135
330
1F
100
AcDbEntity
  8
A_NOTIZEN_SYMB
  6
Continuous
 62
     2
100
AcDbCircle
 10
95.8451133752
 20
168.0733169966
 30
0.0
 40
0.6764957216000056
  0
CIRCLE
  5
136
330
1F
100
AcDbEntity
  8
A_NOTIZEN_SYMB
  6
Continuous
 62
     2
100
AcDbCircle
 10
94.8444104819
 20
170.8427040733
 30
0.0
 40
0.6764957216000056
  0
CIRCLE
  5
137
330
1F
100
AcDbEntity
  8
A_NOTIZEN_SYMB
  6
Continuous
 62
     2
100
AcDbCircle
 10
95.3331258484
 20
173.2164644248
 30
0.0
 40
0.6764957215999914
  0
CIRCLE
  5
138
330
1F
100
AcDbEntity
  8
A_NOTIZEN_SYMB
  6
Continuous
 62
     2
100
AcDbCircle
 10
89.3387264314
 20
170.6656245386
 30
0.0
 40
0.6764957215999914
  0
CIRCLE
  5
139
330
1F
100
AcDbEntity
  8
A_NOTIZEN_SYMB
  6
Continuous
 62
     2
100
AcDbCircle
 10
86.7089723166
 20
167.9369566823
 30
0.0
 40
0.6764957216000056
  0
CIRCLE
  5
13A
330
1F
100
AcDbEntity
  8
A_NOTIZEN_SYMB
  6
Continuous
 62
     2
100
AcDbCircle
 10
85.7082694233
 20
170.706343759
 30
0.0
 40
0.6764957216000056
  0
CIRCLE
  5
13B
330
1F
100
AcDbEntity
  8
A_NOTIZEN_SYMB
  6
Continuous
 62
     2
100
AcDbCircle
 10
86.1969847898
 20
173.0801041105
 30
0.0
 40
0.6764957216000056
  0
CIRCLE
  5
13C
330
1F
100
AcDbEntity
  8
A_NOTIZEN_SYMB
  6
Continuous
 62
     2
100
AcDbCircle
 10
75.7936018769
 20
170.9837986054
 30
0.0
 40
0.6764957216000056
  0
CIRCLE
  5
13D
330
1F
100
AcDbEntity
  8
A_NOTIZEN_SYMB
  6
Continuous
 62
     2
100
AcDbCircle
 10
73.163847762
 20
168.255130749
 30
0.0
 40
0.6764957215999914
  0
CIRCLE
  5
13E
330
1F
100
AcDbEntity
  8
A_NOTIZEN_SYMB
  6
Continuous
 62
     2
100
AcDbCircle
 10
100.8797137319
 20
169.8051377031
 30
0.0
 40
0.809275457600009
  0
CIRCLE
  5
13F
330
1F
100
AcDbEntity
  8
A_NOTIZEN_SYMB
  6
Continuous
 62
     2
100
AcDbCircle
 10
100.8797137319
 20
173.1686921227
 30
0.0
 40
0.809275457600009
  0
CIRCLE
  5
140
330
1F
100
AcDbEntity
  8
A_NOTIZEN_SYMB
  6
Continuous
 62
     2
100
AcDbCircle
 10
91.7435726733
 20
169.6687773888
 30
0.0
 40
0.809275457600009
  0
CIRCLE
  5
141
330
1F
100
AcDbEntity
  8
A_NOTIZEN_SYMB
  6
Continuous
 62
     2
100
AcDbCircle
 10
91.7435726733
 20
173.0323318084
 30
0.0
 40
0.809275457600009
  0
CIRCLE
  5
142
330
1F
100
AcDbEntity
  8
A_NOTIZEN_SYMB
  6
Continuous
 62
     2
100
AcDbCircle
 10
78.1984481187
 20
169.9869514555
 30
0.0
 40
0.8092754575999948
  0
CIRCLE
  5
143
330
1F
100
AcDbEntity
  8
A_NOTIZEN_SYMB
  6
Continuous
 62
     2
100
AcDbCircle
 10
78.1984481187
 20
173.3505058751
 30
0.0
 40
0.8092754575999948
  0
CIRCLE
  5
144
330
1F
100
AcDbEntity
  8
A_NOTIZEN_SYMB
  6
Continuous
 62
     2
100
AcDbCircle
 10
72.6518602352
 20
178.6345142466
 30
0.0
 40
0.6764957215999914
  0
CIRCLE
  5
145
330
1F
100
AcDbEntity
  8
A_NOTIZEN_SYMB
  6
Continuous
 62
     2
100
AcDbCircle
 10
64.0277067034
 20
175.8451276571
 30
0.0
 40
0.6764957216000056
  0
CIRCLE
  5
146
330
1F
100
AcDbEntity
  8
A_NOTIZEN_SYMB
  6
Continuous
 62
     2
100
AcDbCircle
 10
63.5157191766
 20
178.4981539323
 30
0.0
 40
0.6764957216000056
  0
CIRCLE
  5
147
330
1F
100
AcDbEntity
  8
A_NOTIZEN_SYMB
  6
Continuous
 62
     2
100
AcDbCircle
 10
54.8915656447
 20
175.7087673428
 30
0.0
 40
0.6764957215999985
  0
CIRCLE
  5
148
330
1F
100
AcDbEntity
  8
A_NOTIZEN_SYMB
  6
Continuous
 62
     2
100
AcDbCircle
 10
54.3795781179
 20
178.361793618
 30
0.0
 40
0.6764957215999985
  0
CIRCLE
  5
149
330
1F
100
AcDbEntity
  8
A_NOTIZEN_SYMB
  6
Continuous
 62
     2
100
AcDbCircle
 10
45.7554245861
 20
175.5724070285
 30
0.0
 40
0.6764957215999985
  0
CIRCLE
  5
14A
330
1F
100
AcDbEntity
  8
A_NOTIZEN_SYMB
  6
Continuous
 62
     2
100
AcDbCircle
 10
45.2434370593
 20
178.2254333037
 30
0.0
 40
0.6764957215999985
  0
CIRCLE
  5
14B
330
1F
100
AcDbEntity
  8
A_NOTIZEN_SYMB
  6
Continuous
 62
     2
100
AcDbCircle
 10
66.4197674908
 20
180.0087404036
 30
0.0
 40
0.6914661695000035
  0
CIRCLE
  5
14C
330
1F
100
AcDbEntity
  8
A_NOTIZEN_SYMB
  6
Continuous
 62
     2
100
AcDbCircle
 10
57.2836264322
 20
179.8723800893
 30
0.0
 40
0.6914661694999964
  0
CIRCLE
  5
14D
330
1F
100
AcDbEntity
  8
A_NOTIZEN_SYMB
  6
Continuous
 62
     2
100
AcDbCircle
 10
48.1474853736
 20
179.736019775
 30
0.0
 40
0.6914661695000035
  0
CIRCLE
  5
14E
330
1F
100
AcDbEntity
  8
A_NOTIZEN_SYMB
  6
Continuous
 62
     2
100
AcDbCircle
 10
69.3168463135
 20
176.3413421023
 30
0.0
 40
0.809275457600009
  0
CIRCLE
  5
14F
330
1F
100
AcDbEntity
  8
A_NOTIZEN_SYMB
  6
Continuous
 62
     2
100
AcDbCircle
 10
69.0623070601
 20
179.4412665809
 30
0.0
 40
0.809275457600009
  0
CIRCLE
  5
150
330
1F
100
AcDbEntity
  8
A_NOTIZEN_SYMB
  6
Continuous
 62
     2
100
AcDbCircle
 10
66.5623679645
 20
174.168667761
 30
0.0
 40
0.8092754575999948
  0
CIRCLE
  5
151
330
1F
100
AcDbEntity
  8
A_NOTIZEN_SYMB
  6
Continuous
 62
     2
100
AcDbCircle
 10
66.5623679645
 20
177.4867687425
 30
0.0
 40
0.8092754575999948
  0
CIRCLE
  5
152
330
1F
100
AcDbEntity
  8
A_NOTIZEN_SYMB
  6
Continuous
 62
     2
100
AcDbCircle
 10
60.1807052548
 20
176.204981788
 30
0.0
 40
0.8092754575999948
  0
CIRCLE
  5
153
330
1F
100
AcDbEntity
  8
A_NOTIZEN_SYMB
  6
Continuous
 62
     2
100
AcDbCircle
 10
59.9261660015
 20
179.3049062666
 30
0.0
 40
0.8092754576000019
  0
CIRCLE
  5
154
330
1F
100
AcDbEntity
  8
A_NOTIZEN_SYMB
  6
Continuous
 62
     2
100
AcDbCircle
 10
57.4262269058
 20
174.0323074467
 30
0.0
 40
0.8092754576000019
  0
CIRCLE
  5
155
330
1F
100
AcDbEntity
  8
A_NOTIZEN_SYMB
  6
Continuous
 62
     2
100
AcDbCircle
 10
57.4262269058
 20
177.3504084282
 30
0.0
 40
0.8092754576000019
  0
CIRCLE
  5
156
330
1F
100
AcDbEntity
  8
A_NOTIZEN_SYMB
  6
Continuous
 62
     2
100
AcDbCircle
 10
51.0445641962
 20
176.0686214737
 30
0.0
 40
0.8092754576000019
  0
CIRCLE
  5
157
330
1F
100
AcDbEntity
  8
A_NOTIZEN_SYMB
  6
Continuous
 62
     2
100
AcDbCircle
 10
50.7900249428
 20
179.1685459523
 30
0.0
 40
0.8092754575999948
  0
CIRCLE
  5
158
330
1F
100
AcDbEntity
  8
A_NOTIZEN_SYMB
  6
Continuous
 62
     2
100
AcDbCircle
 10
48.2900858472
 20
177.2140481139
 30
0.0
 40
0.8092754576000019
  0
CIRCLE
  5
159
330
1F
100
AcDbEntity
  8
A_NOTIZEN_SYMB
  6
Continuous
 62
     2
100
AcDbCircle
 10
66.982830644
 20
167.7759832381
 30
0.0
 40
0.603970843399992
  0
CIRCLE
  5
15A
330
1F
100
AcDbEntity
  8
A_NOTIZEN_SYMB
  6
Continuous
 62
     2
100
AcDbCircle
 10
57.6080590353
 20
167.7759832381
 30
0.0
 40
0.6039708433999991
  0
CIRCLE
  5
15B
330
1F
100
AcDbEntity
  8
A_NOTIZEN_SYMB
  6
Continuous
 62
     2
100
AcDbCircle
 10
48.2332874266
 20
167.7759832381
 30
0.0
 40
0.6039708433999991
  0
CIRCLE
  5
15C
330
1F
100
AcDbEntity
  8
A_NOTIZEN_SYMB
  6
Continuous
 62
     2
100
AcDbCircle
 10
72.1631448687
 20
171.0245178257
 30
0.0
 40
0.6764957215999914
  0
CIRCLE
  5
15D
330
1F
100
AcDbEntity
  8
A_NOTIZEN_SYMB
  6
Continuous
 62
     2
100
AcDbCircle
 10
72.6518602352
 20
173.3982781772
 30
0.0
 40
0.6764957215999914
  0
CIRCLE
  5
15E
330
1F
100
AcDbEntity
  8
A_NOTIZEN_SYMB
  6
Continuous
 62
     2
100
AcDbCircle
 10
66.6574608182
 20
170.847438291
 30
0.0
 40
0.6764957216000056
  0
CIRCLE
  5
15F
330
1F
100
AcDbEntity
  8
A_NOTIZEN_SYMB
  6
Continuous
 62
     2
100
AcDbCircle
 10
64.0277067034
 20
168.1187704347
 30
0.0
 40
0.6764957216000056
  0
CIRCLE
  5
160
330
1F
100
AcDbEntity
  8
A_NOTIZEN_SYMB
  6
Continuous
 62
     2
100
AcDbCircle
 10
63.0270038101
 20
170.8881575114
 30
0.0
 40
0.6764957215999985
  0
CIRCLE
  5
161
330
1F
100
AcDbEntity
  8
A_NOTIZEN_SYMB
  6
Continuous
 62
     2
100
AcDbCircle
 10
63.5157191766
 20
173.2619178629
 30
0.0
 40
0.6764957216000056
  0
CIRCLE
  5
162
330
1F
100
AcDbEntity
  8
A_NOTIZEN_SYMB
  6
Continuous
 62
     2
100
AcDbCircle
 10
57.5213197596
 20
170.7110779767
 30
0.0
 40
0.6764957216000056
  0
CIRCLE
  5
163
330
1F
100
AcDbEntity
  8
A_NOTIZEN_SYMB
  6
Continuous
 62
     2
100
AcDbCircle
 10
54.8915656447
 20
167.9824101204
 30
0.0
 40
0.6764957215999985
  0
CIRCLE
  5
164
330
1F
100
AcDbEntity
  8
A_NOTIZEN_SYMB
  6
Continuous
 62
     2
100
AcDbCircle
 10
53.8908627515
 20
170.7517971971
 30
0.0
 40
0.6764957215999985
  0
CIRCLE
  5
165
330
1F
100
AcDbEntity
  8
A_NOTIZEN_SYMB
  6
Continuous
 62
     2
100
AcDbCircle
 10
54.3795781179
 20
173.1255575486
 30
0.0
 40
0.6764957215999985
  0
CIRCLE
  5
166
330
1F
100
AcDbEntity
  8
A_NOTIZEN_SYMB
  6
Continuous
 62
     2
100
AcDbCircle
 10
48.385178701
 20
170.5747176624
 30
0.0
 40
0.6764957215999985
  0
CIRCLE
  5
167
330
1F
100
AcDbEntity
  8
A_NOTIZEN_SYMB
  6
Continuous
 62
     2
100
AcDbCircle
 10
45.7554245861
 20
167.8460498061
 30
0.0
 40
0.6764957215999985
  0
CIRCLE
  5
168
330
1F
100
AcDbEntity
  8
A_NOTIZEN_SYMB
  6
Continuous
 62
     2
100
AcDbCircle
 10
44.7547216928
 20
170.6154368828
 30
0.0
 40
0.6764957216000056
  0
CIRCLE
  5
169
330
1F
100
AcDbEntity
  8
A_NOTIZEN_SYMB
  6
Continuous
 62
     2
100
AcDbCircle
 10
45.2434370593
 20
172.9891972343
 30
0.0
 40
0.6764957215999985
  0
CIRCLE
  5
16A
330
1F
100
AcDbEntity
  8
A_NOTIZEN_SYMB
  6
Continuous
 62
     2
100
AcDbCircle
 10
69.0623070601
 20
169.8505911412
 30
0.0
 40
0.809275457600009
  0
CIRCLE
  5
16B
330
1F
100
AcDbEntity
  8
A_NOTIZEN_SYMB
  6
Continuous
 62
     2
100
AcDbCircle
 10
69.0623070601
 20
173.2141455608
 30
0.0
 40
0.809275457600009
  0
CIRCLE
  5
16C
330
1F
100
AcDbEntity
  8
A_NOTIZEN_SYMB
  6
Continuous
 62
     2
100
AcDbCircle
 10
59.9261660015
 20
169.7142308269
 30
0.0
 40
0.8092754576000019
  0
CIRCLE
  5
16D
330
1F
100
AcDbEntity
  8
A_NOTIZEN_SYMB
  6
Continuous
 62
     2
100
AcDbCircle
 10
59.9261660015
 20
173.0777852465
 30
0.0
 40
0.8092754576000019
  0
CIRCLE
  5
16E
330
1F
100
AcDbEntity
  8
A_NOTIZEN_SYMB
  6
Continuous
 62
     2
100
AcDbCircle
 10
50.7900249428
 20
169.5778705126
 30
0.0
 40
0.8092754575999948
  0
CIRCLE
  5
16F
330
1F
100
AcDbEntity
  8
A_NOTIZEN_SYMB
  6
Continuous
 62
     2
100
AcDbCircle
 10
50.7900249428
 20
172.9414249322
 30
0.0
 40
0.8092754575999948
  0
CIRCLE
  5
170
330
1F
100
AcDbEntity
  8
A_NOTIZEN_SYMB
  6
Continuous
 62
     2
100
AcDbCircle
 10
48.2900858472
 20
173.8959471324
 30
0.0
 40
0.8092754576000019
  0
CIRCLE
  5
171
330
1F
100
AcDbEntity
  8
1
  6
Continuous
 62
     7
100
AcDbCircle
 10
112.6981017396
 20
175.5603847856
 30
0.0
 40
2.0
  0
CIRCLE
  5
172
330
1F
100
AcDbEntity
  8
1
  6
Continuous
 62
     7
100
AcDbCircle
 10
140.4481017396
 20
183.8603847856
 30
0.0
 40
2.0
  0
CIRCLE
  5
173
330
1F
100
AcDbEntity
  8
1
  6
Continuous
 62
     7
100
AcDbCircle
 10
109.4481017396
 20
197.8603847856
 30
0.0
 40
2.0
  0
CIRCLE
  5
174
330
1F
100
AcDbEntity
  8
1
  6
Continuous
 62
     7
100
AcDbCircle
 10
84.4481017396
 20
204.8603847856
 30
0.0
 40
2.0
  0
CIRCLE
  5
175
330
1F
100
AcDbEntity
  8
1
  6
Continuous
 62
     7
100
AcDbCircle
 10
98.6981017396
 20
186.5603847856
 30
0.0
 40
2.0
  0
SPLINE
  5
176
330
1F
100
AcDbEntity
  8
A_RUNDUNGEN
  6
Continuous
 62
     7
100
AcDbSpline
210
0.0
220
0.0
230
1.0
 70
     8
 71
     3
 72
    21
 73
    17
 74
    15
 42
0.0000000001
 43
0.0000000001
 44
0.00000001
 40
0.0
 40
0.0
 40
0.0
 40
0.0
 40
0.0859597820288564
 40
0.171919591275254
 40
0.2117370709886689
 40
0.2515592021547764
 40
0.2876579564401987
 40
0.3237422112723345
 40
0.3550058187451325
 40
0.3863118217052192
 40
0.4119261164059475
 40
0.4374282561406355
 40
0.4564068193747775
 40
0.4756387620994973
 40
0.4936855309090928
 40
0.5112409267394415
 40
0.5112409267394415
 40
0.5112409267394415
 40
0.5112409267394415
 10
143.760658422
 20
179.5051108068
 30
0.0
 10
143.7607809351514
 20
179.4764573199404
 30
0.0
 10
143.7610259614932
 20
179.4191503371489
 30
0.0
 10
143.7626974683466
 20
179.3485860420433
 30
0.0
 10
143.7646666165736
 20
179.2934210404964
 30
0.0
 10
143.7663981864625
 20
179.25487983151
 30
0.0
 10
143.7684233046585
 20
179.2175991132704
 30
0.0
 10
143.7706991136268
 20
179.183191188906
 30
0.0
 10
143.7733158918482
 20
179.1504093563186
 30
0.0
 10
143.7760408622296
 20
179.1211423469118
 30
0.0
 10
143.7789118614817
 20
179.0938121674604
 30
0.0
 10
143.7820527574943
 20
179.0706695175026
 30
0.0
 10
143.7857160579262
 20
179.0496991614191
 30
0.0
 10
143.7895328017133
 20
179.0314993286377
 30
0.0
 10
143.792302963619
 20
179.0128525015573
 30
0.0
 10
143.8004067726494
 20
179.0038252592038
 30
0.0
 10
143.8044027537
 20
178.999373934
 30
0.0
 11
143.760658422
 21
179.5051108068
 31
0.0
 11
143.7613039991398
 21
179.4191534490195
 31
0.0
 11
143.7632965279765
 21
179.3332167360587
 31
0.0
 11
143.7647276782725
 21
179.2934249844064
 31
0.0
 11
143.7665190511599
 21
179.2536431655215
 31
0.0
 11
143.7684943211729
 21
179.2175984936637
 31
0.0
 11
143.7708926514749
 21
179.1815940292384
 31
0.0
 11
143.773383128118
 21
179.1504297760257
 31
0.0
 11
143.776284439289
 21
179.1192585037574
 31
0.0
 11
143.7790438176221
 21
179.0937932740465
 31
0.0
 11
143.782530587858
 21
179.068530622476
 31
0.0
 11
143.7857990259139
 21
179.0498356184614
 31
0.0
 11
143.7894413111183
 21
179.0309517263981
 31
0.0
 11
143.7939479053802
 21
179.0134767021456
 31
0.0
 11
143.8044027537
 21
178.999373934
 31
0.0
  0
SPLINE
  5
177
330
1F
100
AcDbEntity
  8
A_RUNDUNGEN
  6
Continuous
 62
     7
100
AcDbSpline
210
0.0
220
0.0
230
1.0
 70
     8
 71
     3
 72
    23
 73
    19
 74
    17
 42
0.0000000001
 43
0.0000000001
 44
0.00000001
 40
0.0
 40
0.0
 40
0.0
 40
0.0
 40
0.0163842828548515
 40
0.0334166731463608
 40
0.0520961913313103
 40
0.0704381914451968
 40
0.0953792055368178
 40
0.1204708803716702
 40
0.1513145931849482
 40
0.1821006329995529
 40
0.2177992748183344
 40
0.2535198457067309
 40
0.2930661319495317
 40
0.3325961363268455
 40
0.3747539859752656
 40
0.4169546412501661
 40
0.4605847757443975
 40
0.5040563762805297
 40
0.5040563762805297
 40
0.5040563762805297
 40
0.5040563762805297
 10
143.8044027537
 20
188.1341328285
 30
0.0
 10
143.8003333164622
 20
188.1302543370841
 30
0.0
 10
143.7920334686586
 20
188.1223439341025
 30
0.0
 10
143.789546815454
 20
188.1044288319525
 30
0.0
 10
143.7857415312188
 20
188.0870224896258
 30
0.0
 10
143.7820260414715
 20
188.0666402569146
 30
0.0
 10
143.7788835450587
 20
188.0440803195587
 30
0.0
 10
143.7760396525077
 20
188.0172639347456
 30
0.0
 10
143.7733178718555
 20
187.9884868414612
 30
0.0
 10
143.7706926277966
 20
187.9561487317119
 30
0.0
 10
143.7684198923077
 20
187.9221552782691
 30
0.0
 10
143.7663970411266
 20
187.8852214802982
 30
0.0
 10
143.7646582948839
 20
187.8469948291666
 30
0.0
 10
143.7632051599998
 20
187.8066090016846
 30
0.0
 10
143.7621079531764
 20
187.7653267628723
 30
0.0
 10
143.7612933798237
 20
187.7226718307469
 30
0.0
 10
143.7605983149923
 20
187.6795752827924
 30
0.0
 10
143.7606384106568
 20
187.6505408407915
 30
0.0
 10
143.760658422
 20
187.6360500426
 30
0.0
 11
143.8044027537
 21
188.1341328285
 31
0.0
 11
143.7938062546966
 21
188.1216364716894
 31
0.0
 11
143.7894413110616
 21
188.1051728880544
 31
0.0
 11
143.7858161144343
 21
188.0868485231531
 31
0.0
 11
143.7825305878059
 21
188.0688031835068
 31
0.0
 11
143.7790247017757
 21
188.0441098048991
 31
0.0
 11
143.7762844392429
 21
188.0191682109791
 31
0.0
 11
143.7733841709359
 21
187.9884611586319
 31
0.0
 11
143.7708926514361
 21
187.9577761039953
 31
0.0
 11
143.7684918877571
 21
187.9221582803467
 31
0.0
 11
143.7665190511298
 21
187.8864922306603
 31
0.0
 11
143.7647205462862
 21
187.8469868622159
 31
0.0
 11
143.7632965279559
 21
187.8074825153935
 31
0.0
 11
143.7621608340094
 21
187.7653399658001
 31
0.0
 11
143.7613229966505
 21
187.7231476284129
 31
0.0
 11
143.7607250035348
 21
187.6795215921476
 31
0.0
 11
143.760658422
 21
187.6360500426
 31
0.0
  0
DIMENSION
  5
183
330
1F
100
AcDbEntity
  8
1
100
AcDbDimension
  2
*D1
 10
49.1810266502592
 20
213.8603847856
 30
0.0
 11
45.4310266502592
 21
200.229956105626
 31
0.0
 70
    32
  1
<>
 71
     5
 42
-1.0
 53
90.0
  3
ME10_DIM_10
100
AcDbAlignedDimension
 13
73.6981017396
 23
185.8603847856
 33
0.0
 14
73.6981017396
 24
213.8603847856
 34
0.0
 50
90.0
100
AcDbRotatedDimension
  0
DIMENSION
  5
18E
330
1F
100
AcDbEntity
  8
1
100
AcDbDimension
  2
*D2
 10
176.930466830718
 20
202.8603847856
 30
0.0
 11
173.180466830718
 21
188.185662143615
 31
0.0
 70
    32
  1
<>
 71
     5
 42
-1.0
 53
90.0
  3
ME10_DIM_11
100
AcDbAlignedDimension
 13
150.1981017396
 23
174.8603847856
 33
0.0
 14
150.1981017396
 24
202.8603847856
 34
0.0
 50
90.0
100
AcDbRotatedDimension
  0
DIMENSION
  5
199
330
1F
100
AcDbEntity
  8
1
100
AcDbDimension
  2
*D3
 10
33.4563214214294
 20
166.8603847856
 30
0.0
 11
29.7063214214294
 21
175.043815411321
 31
0.0
 70
    32
  1
<>
 71
     5
 42
-1.0
 53
90.0
  3
ME10_DIM_12
100
AcDbAlignedDimension
 13
43.6981017396
 23
180.8603847856
 33
0.0
 14
43.6981017396
 24
166.8603847856
 34
0.0
 50
90.0
100
AcDbRotatedDimension
  0
DIMENSION
  5
1A4
330
1F
100
AcDbEntity
  8
1
100
AcDbDimension
  2
*D4
 10
33.4563214214294
 20
180.8603847856
 30
0.0
 11
29.7063214214294
 21
195.3603847856
 31
0.0
 70
    32
  1
<>
 71
     5
 42
-1.0
 53
90.0
  3
ME10_DIM_13
100
AcDbAlignedDimension
 13
73.6981017396
 23
213.8603847856
 33
0.0
 14
43.6981017396
 24
180.8603847856
 34
0.0
 50
90.0
100
AcDbRotatedDimension
  0
DIMENSION
  5
1B1
330
1F
100
AcDbEntity
  8
1
100
AcDbDimension
  2
*D5
 10
187.314724567864
 20
166.8603847856
 30
0.0
 11
183.564724567864
 21
161.451439520348
 31
0.0
 70
    32
  1
<>
 71
     5
 42
-1.0
 53
90.0
  3
ME10_DIM_14
100
AcDbAlignedDimension
 13
127.1981017396
 23
170.8603847856
 33
0.0
 14
167.1981017396
 24
166.8603847856
 34
0.0
 50
90.0
100
AcDbRotatedDimension
  0
DIMENSION
  5
1BC
330
1F
100
AcDbEntity
  8
1
100
AcDbDimension
  2
*D6
 10
187.314724567864
 20
170.8603847856
 30
0.0
 11
183.564724567864
 21
186.8603847856
 31
0.0
 70
    32
  1
<>
 71
     5
 42
-1.0
 53
90.0
  3
ME10_DIM_15
100
AcDbAlignedDimension
 13
150.1981017396
 23
202.8603847856
 33
0.0
 14
127.1981017396
 24
170.8603847856
 34
0.0
 50
90.0
100
AcDbRotatedDimension
  0
DIMENSION
  5
1C7
330
1F
100
AcDbEntity
  8
1
100
AcDbDimension
  2
*D7
 10
73.6981017396
 20
155.841075984492
 30
0.0
 11
86.0159680330158
 21
159.591075984492
 31
0.0
 70
    32
  1
<>
 71
     5
 42
-1.0
 53
0.00013888888889
  3
ME10_DIM_16
100
AcDbAlignedDimension
 13
103.6981017396
 23
166.8603847856
 33
0.0
 14
73.6981017396
 24
185.8603847856
 34
0.0
100
AcDbRotatedDimension
  0
DIMENSION
  5
1D2
330
1F
100
AcDbEntity
  8
1
100
AcDbDimension
  2
*D8
 10
107.1981017396
 20
155.841075984492
 30
0.0
 11
128.6981017396
 21
159.591075984492
 31
0.0
 70
    32
  1
<>
 71
     5
 42
-1.0
 53
0.00013888888889
  3
ME10_DIM_17
100
AcDbAlignedDimension
 13
150.1981017396
 23
174.8603847856
 33
0.0
 14
107.1981017396
 24
166.8603847856
 34
0.0
100
AcDbRotatedDimension
  0
DIMENSION
  5
1DF
330
1F
100
AcDbEntity
  8
1
100
AcDbDimension
  2
*D9
 10
103.6981017396
 20
155.841075984492
 30
0.0
 11
105.550788642802
 21
150.277963833315
 31
0.0
 70
    32
  1
<>
 71
     5
 42
-1.0
 53
0.00013888888889
  3
ME10_DIM_18
100
AcDbAlignedDimension
 13
107.1981017396
 23
166.8603847856
 33
0.0
 14
103.6981017396
 24
166.8603847856
 34
0.0
100
AcDbRotatedDimension
  0
ENDSEC
  0
SECTION
  2
OBJECTS
  0
DICTIONARY
  5
C
330
0
100
AcDbDictionary
281
     1
  3
ACAD_GROUP
350
D
  3
ACAD_LAYOUT
350
1A
  3
ACAD_MLINESTYLE
350
17
  3
ACAD_PLOTSETTINGS
350
19
  3
ACAD_PLOTSTYLENAME
350
E
  0
DICTIONARY
  5
D
102
{ACAD_REACTORS
330
C
102
}
330
C
100
AcDbDictionary
281
     1
  0
DICTIONARY
  5
1A
102
{ACAD_REACTORS
330
C
102
}
330
C
100
AcDbDictionary
281
     1
  3
Layout1
350
1E
  3
Layout2
350
26
  3
Model
350
22
  0
DICTIONARY
  5
17
102
{ACAD_REACTORS
330
C
102
}
330
C
100
AcDbDictionary
281
     1
  3
Standard
350
18
  0
DICTIONARY
  5
19
102
{ACAD_REACTORS
330
C
102
}
330
C
100
AcDbDictionary
281
     1
  0
ACDBDICTIONARYWDFLT
  5
E
102
{ACAD_REACTORS
330
C
102
}
330
C
100
AcDbDictionary
281
     1
  3
Normal
350
F
100
AcDbDictionaryWithDefault
340
F
  0
LAYOUT
  5
1E
102
{ACAD_REACTORS
330
1A
102
}
330
1A
100
AcDbPlotSettings
  1

  2

  4

  6

 40
0.0
 41
0.0
 42
0.0
 43
0.0
 44
0.0
 45
0.0
 46
0.0
 47
0.0
 48
0.0
 49
0.0
140
0.0
141
0.0
142
1.0
143
1.0
 70
   688
 72
     0
 73
     0
 74
     5
  7

 75
    16
 76
     0
 77
     2
 78
   300
147
1.0
148
0.0
149
0.0
100
AcDbLayout
  1
Layout1
 70
     1
 71
     1
 10
0.0
 20
0.0
 11
0.0
 21
0.0
 12
0.0
 22
0.0
 32
0.0
 14
0.0
 24
0.0
 34
0.0
 15
0.0
 25
0.0
 35
0.0
146
0.0
 13
0.0
 23
0.0
 33
0.0
 16
1.0
 26
0.0
 36
0.0
 17
0.0
 27
1.0
 37
0.0
 76
     0
330
1B
  0
LAYOUT
  5
26
102
{ACAD_REACTORS
330
1A
102
}
330
1A
100
AcDbPlotSettings
  1

  2

  4

  6

 40
0.0
 41
0.0
 42
0.0
 43
0.0
 44
0.0
 45
0.0
 46
0.0
 47
0.0
 48
0.0
 49
0.0
140
0.0
141
0.0
142
1.0
143
1.0
 70
   688
 72
     0
 73
     0
 74
     5
  7

 75
    16
 76
     0
 77
     2
 78
   300
147
1.0
148
0.0
149
0.0
100
AcDbLayout
  1
Layout2
 70
     1
 71
     2
 10
0.0
 20
0.0
 11
0.0
 21
0.0
 12
0.0
 22
0.0
 32
0.0
 14
0.0
 24
0.0
 34
0.0
 15
0.0
 25
0.0
 35
0.0
146
0.0
 13
0.0
 23
0.0
 33
0.0
 16
1.0
 26
0.0
 36
0.0
 17
0.0
 27
1.0
 37
0.0
 76
     0
330
23
  0
LAYOUT
  5
22
102
{ACAD_REACTORS
330
1A
102
}
330
1A
100
AcDbPlotSettings
  1

  2

  4

  6

 40
0.0
 41
0.0
 42
0.0
 43
0.0
 44
0.0
 45
0.0
 46
0.0
 47
0.0
 48
0.0
 49
0.0
140
0.0
141
0.0
142
1.0
143
1.0
 70
  1712
 72
     0
 73
     0
 74
     0
  7

 75
     0
 76
     0
 77
     2
 78
   300
147
1.0
148
0.0
149
0.0
100
AcDbLayout
  1
Model
 70
     1
 71
     0
 10
0.0
 20
0.0
 11
0.0
 21
0.0
 12
0.0
 22
0.0
 32
0.0
 14
27.9563214214294
 24
148.527963833315
 34
0.0
 15
189.314724567864
 25
250.8603847856
 35
0.0
146
0.0
 13
0.0
 23
0.0
 33
0.0
 16
1.0
 26
0.0
 36
0.0
 17
0.0
 27
1.0
 37
0.0
 76
     0
330
1F
  0
MLINESTYLE
  5
18
102
{ACAD_REACTORS
330
17
102
}
330
17
100
AcDbMlineStyle
  2
Standard
 70
     0
  3

 62
   256
 51
90.0
 52
90.0
 71
     2
 49
0.5
 62
   256
  6
BYLAYER
 49
-0.5
 62
   256
  6
BYLAYER
  0
ACDBPLACEHOLDER
  5
F
102
{ACAD_REACTORS
330
E
102
}
330
E
  0
ENDSEC
  0
EOF
