  0
SECTION
  2
HEADER
  9
$ACADVER
  1
AC1018
  9
$ACADMAINTVER
 70
     0
  9
$DWGCODEPAGE
  3
ANSI_1252
  9
$INSBASE
 10
0.0
 20
0.0
 30
0.0
  9
$EXTMIN
 10
-986.4836231446905
 20
-2224.553758068838
 30
0.0
  9
$EXTMAX
 10
-595.27300475196
 20
-1971.21317449647
 30
0.0
  9
$LIMMIN
 10
0.0
 20
0.0
  9
$LIMMAX
 10
12.0
 20
9.0
  9
$ORTHOMODE
 70
     0
  9
$REGENMODE
 70
     1
  9
$FILLMODE
 70
     1
  9
$QTEXTMODE
 70
     0
  9
$MIRRTEXT
 70
     1
  9
$LTSCALE
 40
1.0
  9
$ATTMODE
 70
     1
  9
$TEXTSIZE
 40
0.2
  9
$TRACEWID
 40
0.05
  9
$TEXTSTYLE
  7
Standard
  9
$CLAYER
  8
0
  9
$CELTYPE
  6
ByLayer
  9
$CECOLOR
 62
   256
  9
$CELTSCALE
 40
1.0
  9
$DISPSILH
 70
     0
  9
$DIMSCALE
 40
1.0
  9
$DIMASZ
 40
0.18
  9
$DIMEXO
 40
0.0625
  9
$DIMDLI
 40
0.38
  9
$DIMRND
 40
0.0
  9
$DIMDLE
 40
0.0
  9
$DIMEXE
 40
0.18
  9
$DIMTP
 40
0.0
  9
$DIMTM
 40
0.0
  9
$DIMTXT
 40
0.18
  9
$DIMCEN
 40
0.09
  9
$DIMTSZ
 40
0.0
  9
$DIMTOL
 70
     0
  9
$DIMLIM
 70
     0
  9
$DIMTIH
 70
     1
  9
$DIMTOH
 70
     1
  9
$DIMSE1
 70
     0
  9
$DIMSE2
 70
     0
  9
$DIMTAD
 70
     0
  9
$DIMZIN
 70
     0
  9
$DIMBLK
  1

  9
$DIMASO
 70
     1
  9
$DIMSHO
 70
     1
  9
$DIMPOST
  1

  9
$DIMAPOST
  1

  9
$DIMALT
 70
     0
  9
$DIMALTD
 70
     2
  9
$DIMALTF
 40
25.4
  9
$DIMLFAC
 40
1.0
  9
$DIMTOFL
 70
     0
  9
$DIMTVP
 40
0.0
  9
$DIMTIX
 70
     0
  9
$DIMSOXD
 70
     0
  9
$DIMSAH
 70
     0
  9
$DIMBLK1
  1

  9
$DIMBLK2
  1

  9
$DIMSTYLE
  2
Standard
  9
$DIMCLRD
 70
     0
  9
$DIMCLRE
 70
     0
  9
$DIMCLRT
 70
     0
  9
$DIMTFAC
 40
1.0
  9
$DIMGAP
 40
0.09
  9
$DIMJUST
 70
     0
  9
$DIMSD1
 70
     0
  9
$DIMSD2
 70
     0
  9
$DIMTOLJ
 70
     1
  9
$DIMTZIN
 70
     0
  9
$DIMALTZ
 70
     0
  9
$DIMALTTZ
 70
     0
  9
$DIMUPT
 70
     0
  9
$DIMDEC
 70
     4
  9
$DIMTDEC
 70
     4
  9
$DIMALTU
 70
     2
  9
$DIMALTTD
 70
     2
  9
$DIMTXSTY
  7
Standard
  9
$DIMAUNIT
 70
     0
  9
$DIMADEC
 70
     0
  9
$DIMALTRND
 40
0.0
  9
$DIMAZIN
 70
     0
  9
$DIMDSEP
 70
    46
  9
$DIMATFIT
 70
     3
  9
$DIMFRAC
 70
     0
  9
$DIMLDRBLK
  1

  9
$DIMLUNIT
 70
     2
  9
$DIMLWD
 70
    -2
  9
$DIMLWE
 70
    -2
  9
$DIMTMOVE
 70
     0
  9
$LUNITS
 70
     2
  9
$LUPREC
 70
     4
  9
$SKETCHINC
 40
0.1
  9
$FILLETRAD
 40
0.5
  9
$AUNITS
 70
     0
  9
$AUPREC
 70
     0
  9
$MENU
  1
.
  9
$ELEVATION
 40
0.0
  9
$PELEVATION
 40
0.0
  9
$THICKNESS
 40
0.0
  9
$LIMCHECK
 70
     0
  9
$CHAMFERA
 40
0.5
  9
$CHAMFERB
 40
0.5
  9
$CHAMFERC
 40
1.0
  9
$CHAMFERD
 40
0.0
  9
$SKPOLY
 70
     0
  9
$TDCREATE
 40
2455967.378332396
  9
$TDUCREATE
 40
2455967.336665729
  9
$TDUPDATE
 40
2455967.378332407
  9
$TDUUPDATE
 40
2455967.336665741
  9
$TDINDWG
 40
0.0000000116
  9
$TDUSRTIMER
 40
0.0000000116
  9
$USRTIMER
 70
     1
  9
$ANGBASE
 50
0.0
  9
$ANGDIR
 70
     0
  9
$PDMODE
 70
     0
  9
$PDSIZE
 40
0.0
  9
$PLINEWID
 40
0.0
  9
$SPLFRAME
 70
     0
  9
$SPLINETYPE
 70
     6
  9
$SPLINESEGS
 70
     8
  9
$HANDSEED
  5
238
  9
$SURFTAB1
 70
     6
  9
$SURFTAB2
 70
     6
  9
$SURFTYPE
 70
     6
  9
$SURFU
 70
     6
  9
$SURFV
 70
     6
  9
$UCSBASE
  2

  9
$UCSNAME
  2

  9
$UCSORG
 10
0.0
 20
0.0
 30
0.0
  9
$UCSXDIR
 10
1.0
 20
0.0
 30
0.0
  9
$UCSYDIR
 10
0.0
 20
1.0
 30
0.0
  9
$UCSORTHOREF
  2

  9
$UCSORTHOVIEW
 70
     0
  9
$UCSORGTOP
 10
0.0
 20
0.0
 30
0.0
  9
$UCSORGBOTTOM
 10
0.0
 20
0.0
 30
0.0
  9
$UCSORGLEFT
 10
0.0
 20
0.0
 30
0.0
  9
$UCSORGRIGHT
 10
0.0
 20
0.0
 30
0.0
  9
$UCSORGFRONT
 10
0.0
 20
0.0
 30
0.0
  9
$UCSORGBACK
 10
0.0
 20
0.0
 30
0.0
  9
$PUCSBASE
  2

  9
$PUCSNAME
  2

  9
$PUCSORG
 10
0.0
 20
0.0
 30
0.0
  9
$PUCSXDIR
 10
1.0
 20
0.0
 30
0.0
  9
$PUCSYDIR
 10
0.0
 20
1.0
 30
0.0
  9
$PUCSORTHOREF
  2

  9
$PUCSORTHOVIEW
 70
     0
  9
$PUCSORGTOP
 10
0.0
 20
0.0
 30
0.0
  9
$PUCSORGBOTTOM
 10
0.0
 20
0.0
 30
0.0
  9
$PUCSORGLEFT
 10
0.0
 20
0.0
 30
0.0
  9
$PUCSORGRIGHT
 10
0.0
 20
0.0
 30
0.0
  9
$PUCSORGFRONT
 10
0.0
 20
0.0
 30
0.0
  9
$PUCSORGBACK
 10
0.0
 20
0.0
 30
0.0
  9
$USERI1
 70
     0
  9
$USERI2
 70
     0
  9
$USERI3
 70
     0
  9
$USERI4
 70
     0
  9
$USERI5
 70
     0
  9
$USERR1
 40
14.5
  9
$USERR2
 40
0.0
  9
$USERR3
 40
0.0
  9
$USERR4
 40
0.0
  9
$USERR5
 40
0.0
  9
$WORLDVIEW
 70
     1
  9
$SHADEDGE
 70
     3
  9
$SHADEDIF
 70
    70
  9
$TILEMODE
 70
     1
  9
$MAXACTVP
 70
    64
  9
$PINSBASE
 10
0.0
 20
0.0
 30
0.0
  9
$PLIMCHECK
 70
     0
  9
$PEXTMIN
 10
1.00000000000000E+20
 20
1.00000000000000E+20
 30
1.00000000000000E+20
  9
$PEXTMAX
 10
-1.00000000000000E+20
 20
-1.00000000000000E+20
 30
-1.00000000000000E+20
  9
$PLIMMIN
 10
0.0
 20
0.0
  9
$PLIMMAX
 10
12.0
 20
9.0
  9
$UNITMODE
 70
     0
  9
$VISRETAIN
 70
     1
  9
$PLINEGEN
 70
     0
  9
$PSLTSCALE
 70
     1
  9
$TREEDEPTH
 70
  3020
  9
$CMLSTYLE
  2
Standard
  9
$CMLJUST
 70
     0
  9
$CMLSCALE
 40
1.0
  9
$PROXYGRAPHICS
 70
     1
  9
$MEASUREMENT
 70
     1
  9
$CELWEIGHT
370
    -1
  9
$ENDCAPS
280
     0
  9
$JOINSTYLE
280
     0
  9
$LWDISPLAY
290
     0
  9
$INSUNITS
 70
     1
  9
$HYPERLINKBASE
  1

  9
$STYLESHEET
  1

  9
$XEDIT
290
     1
  9
$CEPSNTYPE
380
     0
  9
$PSTYLEMODE
290
     1
  9
$FINGERPRINTGUID
  2
{CA6C77F2-31BA-4020-916A-5F2194CA7A71}
  9
$VERSIONGUID
  2
{FAEB1C32-E019-11D5-929B-00C0DF256EC4}
  9
$EXTNAMES
290
     1
  9
$PSVPSCALE
 40
0.0
  9
$OLESTARTUP
290
     0
  9
$SORTENTS
280
   127
  9
$INDEXCTL
280
     0
  9
$HIDETEXT
280
     1
  9
$XCLIPFRAME
290
     0
  9
$HALOGAP
280
     0
  9
$OBSCOLOR
 70
   257
  9
$OBSLTYPE
280
     0
  9
$INTERSECTIONDISPLAY
280
     0
  9
$INTERSECTIONCOLOR
 70
   257
  9
$DIMASSOC
280
     2
  9
$PROJECTNAME
  1

  0
ENDSEC
  0
SECTION
  2
CLASSES
  0
CLASS
  1
ACDBDICTIONARYWDFLT
  2
AcDbDictionaryWithDefault
  3
ObjectDBX Classes
 90
        0
 91
        3
280
     0
281
     0
  0
CLASS
  1

  2
exOdDbCircle
  3

 90
        0
 91
        3
280
     0
281
     1
  0
ENDSEC
  0
SECTION
  2
TABLES
  0
TABLE
  2
VPORT
  5
8
330
0
100
AcDbSymbolTable
 70
     1
  0
VPORT
  5
29
330
8
100
AcDbSymbolTableRecord
100
AcDbViewportTableRecord
  2
*Active
 70
     0
 10
0.0
 20
0.0
 11
1.0
 21
1.0
 12
-790.8783139483253
 22
-2097.883466282654
 13
0.0
 23
0.0
 14
0.5
 24
0.5
 15
0.5
 25
0.5
 16
0.0
 26
0.0
 36
1.0
 17
0.0
 27
0.0
 37
0.0
 40
278.6746419296047
 41
1.60267857142857
 42
50.0
 43
0.0
 44
0.0
 50
0.0
 51
0.0
 71
     0
 72
   100
 73
     1
 74
     3
 75
     0
 76
     0
 77
     0
 78
     0
281
     0
 65
     1
110
0.0
120
0.0
130
0.0
111
1.0
121
0.0
131
0.0
112
0.0
122
1.0
132
0.0
 79
     0
146
0.0
  0
ENDTAB
  0
TABLE
  2
LTYPE
  5
5
330
0
100
AcDbSymbolTable
 70
     8
  0
LTYPE
  5
14
330
5
100
AcDbSymbolTableRecord
100
AcDbLinetypeTableRecord
  2
ByBlock
 70
     0
  3

 72
    65
 73
     0
 40
0.0
  0
LTYPE
  5
15
330
5
100
AcDbSymbolTableRecord
100
AcDbLinetypeTableRecord
  2
ByLayer
 70
     0
  3

 72
    65
 73
     0
 40
0.0
  0
LTYPE
  5
16
330
5
100
AcDbSymbolTableRecord
100
AcDbLinetypeTableRecord
  2
Continuous
 70
     0
  3
Solid line
 72
    65
 73
     0
 40
0.0
  0
LTYPE
  5
2A
330
5
100
AcDbSymbolTableRecord
100
AcDbLinetypeTableRecord
  2
DASHED
 70
     0
  3
Dashed
 72
    65
 73
     2
 40
15.0
 49
7.0
 74
     0
 49
-8.0
 74
     0
  0
LTYPE
  5
2B
330
5
100
AcDbSymbolTableRecord
100
AcDbLinetypeTableRecord
  2
DOTTED
 70
     0
  3
Dotted
 72
    65
 73
     2
 40
1.0
 49
0.0
 74
     0
 49
-1.0
 74
     0
  0
LTYPE
  5
2C
330
5
100
AcDbSymbolTableRecord
100
AcDbLinetypeTableRecord
  2
DOT_CENTER
 70
     0
  3
Dot_Center
 72
    65
 73
     4
 40
14.0
 49
12.0
 74
     0
 49
-1.0
 74
     0
 49
0.0
 74
     0
 49
-1.0
 74
     0
  0
LTYPE
  5
2D
330
5
100
AcDbSymbolTableRecord
100
AcDbLinetypeTableRecord
  2
LONG_DASHED
 70
     0
  3
Long_Dashed
 72
    65
 73
     2
 40
15.0
 49
10.0
 74
     0
 49
-5.0
 74
     0
  0
LTYPE
  5
2E
330
5
100
AcDbSymbolTableRecord
100
AcDbLinetypeTableRecord
  2
DASH_CENTER
 70
     0
  3
Dash_Center
 72
    65
 73
     4
 40
14.0
 49
11.0
 74
     0
 49
-1.0
 74
     0
 49
1.0
 74
     0
 49
-1.0
 74
     0
  0
LTYPE
  5
2F
330
5
100
AcDbSymbolTableRecord
100
AcDbLinetypeTableRecord
  2
PHANTOM
 70
     0
  3
Phantom
 72
    65
 73
     6
 40
13.0
 49
10.0
 74
     0
 49
-1.0
 74
     0
 49
0.0
 74
     0
 49
-1.0
 74
     0
 49
0.0
 74
     0
 49
-1.0
 74
     0
  0
LTYPE
  5
30
330
5
100
AcDbSymbolTableRecord
100
AcDbLinetypeTableRecord
  2
CENTER_DASH_DASH
 70
     0
  3
Center_Dash_Dash
 72
    65
 73
     6
 40
14.0
 49
9.0
 74
     0
 49
-1.0
 74
     0
 49
1.0
 74
     0
 49
-1.0
 74
     0
 49
1.0
 74
     0
 49
-1.0
 74
     0
  0
ENDTAB
  0
TABLE
  2
LAYER
  5
2
330
0
100
AcDbSymbolTable
 70
     2
  0
LAYER
  5
10
330
2
100
AcDbSymbolTableRecord
100
AcDbLayerTableRecord
  2
0
 70
     0
 62
     7
  6
Continuous
370
    -3
390
F
  0
LAYER
  5
31
330
2
100
AcDbSymbolTableRecord
100
AcDbLayerTableRecord
  2
1
 70
     0
 62
     7
  6
Continuous
370
    -3
390
F
  0
ENDTAB
  0
TABLE
  2
STYLE
  5
3
330
0
100
AcDbSymbolTable
 70
     2
  0
STYLE
  5
11
330
3
100
AcDbSymbolTableRecord
100
AcDbTextStyleTableRecord
  2
Standard
 70
     0
 40
0.0
 41
1.0
 50
0.0
 71
     0
 42
0.2
  3
txt
  4

  0
STYLE
  5
12E
330
3
100
AcDbSymbolTableRecord
100
AcDbTextStyleTableRecord
  2
CONVERTER_11
 70
     0
 40
0.0
 41
0.9
 50
0.0
 71
     0
 42
0.2
  3
txt.shx
  4

  0
ENDTAB
  0
TABLE
  2
VIEW
  5
6
330
0
100
AcDbSymbolTable
 70
     0
  0
ENDTAB
  0
TABLE
  2
UCS
  5
7
330
0
100
AcDbSymbolTable
 70
     0
  0
ENDTAB
  0
TABLE
  2
APPID
  5
9
330
0
100
AcDbSymbolTable
 70
     1
  0
APPID
  5
12
330
9
100
AcDbSymbolTableRecord
100
AcDbRegAppTableRecord
  2
ACAD
 70
     0
  0
ENDTAB
  0
TABLE
  2
DIMSTYLE
  5
A
330
0
100
AcDbSymbolTable
 70
    22
100
AcDbDimStyleTable
  0
DIMSTYLE
105
27
330
A
100
AcDbSymbolTableRecord
100
AcDbDimStyleTableRecord
  2
Standard
 70
     0
340
11
  0
DIMSTYLE
105
13A
102
{ACAD_REACTORS
330
13B
102
}
330
A
100
AcDbSymbolTableRecord
100
AcDbDimStyleTableRecord
  2
ME10_DIM_10
 70
     0
 41
3.5
 42
0.0
 44
2.0
 73
     0
 74
     0
 77
     1
 78
     8
140
3.5
147
2.0
172
     1
173
     1
176
     2
177
     2
178
     2
271
     3
340
12E
  0
DIMSTYLE
105
145
102
{ACAD_REACTORS
330
146
102
}
330
A
100
AcDbSymbolTableRecord
100
AcDbDimStyleTableRecord
  2
ME10_DIM_11
 70
     0
 41
3.5
 42
0.0
 44
2.0
 73
     0
 74
     0
 77
     1
 78
     8
140
3.5
147
2.0
172
     1
173
     1
176
     2
177
     2
178
     2
271
     3
340
12E
  0
DIMSTYLE
105
150
102
{ACAD_REACTORS
330
151
102
}
330
A
100
AcDbSymbolTableRecord
100
AcDbDimStyleTableRecord
  2
ME10_DIM_12
 70
     0
 41
3.5
 42
0.0
 44
2.0
 73
     0
 74
     0
 77
     1
 78
     8
140
3.5
147
2.0
172
     1
173
     1
176
     2
177
     2
178
     2
271
     3
340
12E
  0
DIMSTYLE
105
15D
102
{ACAD_REACTORS
330
15E
102
}
330
A
100
AcDbSymbolTableRecord
100
AcDbDimStyleTableRecord
  2
ME10_DIM_13
 70
     0
 41
3.5
 42
0.0
 44
2.0
 73
     0
 74
     0
 77
     1
 78
     8
140
3.5
147
2.0
172
     1
173
     1
176
     2
177
     2
178
     2
271
     3
340
12E
  0
DIMSTYLE
105
168
102
{ACAD_REACTORS
330
169
102
}
330
A
100
AcDbSymbolTableRecord
100
AcDbDimStyleTableRecord
  2
ME10_DIM_14
 70
     0
 41
3.5
 42
0.0
 44
2.0
 73
     0
 74
     0
 77
     1
 78
     8
140
3.5
147
2.0
172
     1
173
     1
176
     2
177
     2
178
     2
271
     3
340
12E
  0
DIMSTYLE
105
175
102
{ACAD_REACTORS
330
176
102
}
330
A
100
AcDbSymbolTableRecord
100
AcDbDimStyleTableRecord
  2
ME10_DIM_15
 70
     0
 41
3.5
 42
0.0
 44
2.0
 73
     0
 74
     0
 77
     1
 78
     8
140
3.5
147
2.0
172
     1
173
     1
176
     2
177
     2
178
     2
271
     3
340
12E
  0
DIMSTYLE
105
182
102
{ACAD_REACTORS
330
183
102
}
330
A
100
AcDbSymbolTableRecord
100
AcDbDimStyleTableRecord
  2
ME10_DIM_16
 70
     0
 41
3.5
 42
0.0
 44
2.0
 73
     0
 74
     0
 77
     1
 78
     8
140
3.5
147
2.0
172
     1
173
     1
176
     2
177
     2
178
     2
271
     3
340
12E
  0
DIMSTYLE
105
18D
102
{ACAD_REACTORS
330
18E
102
}
330
A
100
AcDbSymbolTableRecord
100
AcDbDimStyleTableRecord
  2
ME10_DIM_17
 70
     0
 41
3.5
 42
0.0
 44
2.0
 73
     0
 74
     0
 77
     1
 78
     8
140
3.5
147
2.0
172
     1
173
     1
176
     2
177
     2
178
     2
271
     3
340
12E
  0
DIMSTYLE
105
198
102
{ACAD_REACTORS
330
199
102
}
330
A
100
AcDbSymbolTableRecord
100
AcDbDimStyleTableRecord
  2
ME10_DIM_18
 70
     0
 41
3.5
 42
0.0
 44
2.0
 73
     0
 74
     0
 77
     1
 78
     8
140
3.5
147
2.0
172
     1
173
     1
176
     2
177
     2
178
     2
271
     3
340
12E
  0
DIMSTYLE
105
1A3
102
{ACAD_REACTORS
330
1A4
102
}
330
A
100
AcDbSymbolTableRecord
100
AcDbDimStyleTableRecord
  2
ME10_DIM_19
 70
     0
 41
3.5
 42
0.0
 44
2.0
 73
     0
 74
     0
 77
     1
 78
     8
140
3.5
147
2.0
172
     1
173
     1
176
     2
177
     2
178
     2
271
     3
340
12E
  0
DIMSTYLE
105
1AE
102
{ACAD_REACTORS
330
1AF
102
}
330
A
100
AcDbSymbolTableRecord
100
AcDbDimStyleTableRecord
  2
ME10_DIM_20
 70
     0
 41
3.5
 42
0.0
 44
2.0
 73
     0
 74
     0
 77
     1
 78
     8
140
3.5
147
2.0
172
     1
173
     1
176
     2
177
     2
178
     2
271
     3
340
12E
  0
DIMSTYLE
105
1B9
102
{ACAD_REACTORS
330
1BA
102
}
330
A
100
AcDbSymbolTableRecord
100
AcDbDimStyleTableRecord
  2
ME10_DIM_21
 70
     0
 41
3.5
 42
0.0
 44
2.0
 73
     0
 74
     0
 77
     1
 78
     8
140
3.5
147
2.0
172
     1
173
     1
176
     2
177
     2
178
     2
271
     3
340
12E
  0
DIMSTYLE
105
1C4
102
{ACAD_REACTORS
330
1C5
102
}
330
A
100
AcDbSymbolTableRecord
100
AcDbDimStyleTableRecord
  2
ME10_DIM_22
 70
     0
 41
3.5
 42
0.0
 44
2.0
 73
     0
 74
     0
 77
     1
 78
     8
140
3.5
147
2.0
172
     1
173
     1
176
     2
177
     2
178
     2
271
     3
340
12E
  0
DIMSTYLE
105
1CF
102
{ACAD_REACTORS
330
1D0
102
}
330
A
100
AcDbSymbolTableRecord
100
AcDbDimStyleTableRecord
  2
ME10_DIM_23
 70
     0
 41
3.5
 42
0.0
 44
2.0
 73
     0
 74
     0
 77
     1
 78
     8
140
3.5
147
2.0
172
     1
173
     1
176
     2
177
     2
178
     2
271
     2
340
12E
  0
DIMSTYLE
105
1DA
102
{ACAD_REACTORS
330
1DB
102
}
330
A
100
AcDbSymbolTableRecord
100
AcDbDimStyleTableRecord
  2
ME10_DIM_24
 70
     0
 41
3.5
 42
0.0
 44
2.0
 73
     0
 74
     0
 77
     1
 78
     8
140
3.5
147
2.0
172
     1
173
     1
176
     2
177
     2
178
     2
271
     2
340
12E
  0
DIMSTYLE
105
1E5
102
{ACAD_REACTORS
330
1E6
102
}
330
A
100
AcDbSymbolTableRecord
100
AcDbDimStyleTableRecord
  2
ME10_DIM_25
 70
     0
 41
3.5
 42
0.0
 44
2.0
 73
     0
 74
     0
 77
     1
 78
     8
140
3.5
147
2.0
172
     1
173
     1
176
     2
177
     2
178
     2
271
     2
340
12E
  0
DIMSTYLE
105
1F0
102
{ACAD_REACTORS
330
1F1
102
}
330
A
100
AcDbSymbolTableRecord
100
AcDbDimStyleTableRecord
  2
ME10_DIM_26
 70
     0
 41
3.5
 42
0.0
 44
2.0
 73
     0
 74
     0
 77
     1
 78
     8
140
3.5
147
2.0
172
     1
173
     1
176
     2
177
     2
178
     2
271
     2
340
12E
  0
DIMSTYLE
105
1FB
102
{ACAD_REACTORS
330
1FC
102
}
330
A
100
AcDbSymbolTableRecord
100
AcDbDimStyleTableRecord
  2
ME10_DIM_27
 70
     0
 41
3.5
 42
0.0
 44
2.0
 73
     0
 74
     0
 77
     1
 78
     8
140
3.5
147
2.0
172
     1
173
     1
176
     2
177
     2
178
     2
271
     2
340
12E
  0
DIMSTYLE
105
206
102
{ACAD_REACTORS
330
207
102
}
330
A
100
AcDbSymbolTableRecord
100
AcDbDimStyleTableRecord
  2
ME10_DIM_28
 70
     0
 41
3.5
 42
0.0
 44
2.0
 73
     0
 74
     0
 77
     1
 78
     8
140
3.5
147
2.0
172
     1
173
     1
176
     2
177
     2
178
     2
271
     3
340
12E
  0
DIMSTYLE
105
211
102
{ACAD_REACTORS
330
212
102
}
330
A
100
AcDbSymbolTableRecord
100
AcDbDimStyleTableRecord
  2
ME10_DIM_29
 70
     0
 41
3.5
 42
0.0
 44
2.0
 73
     0
 74
     0
 77
     1
 78
     8
140
3.5
147
2.0
172
     1
173
     1
176
     2
177
     2
178
     2
271
     3
340
12E
  0
DIMSTYLE
105
21D
102
{ACAD_REACTORS
330
21E
102
}
330
A
100
AcDbSymbolTableRecord
100
AcDbDimStyleTableRecord
  2
ME10_DIM_30
 70
     0
 41
3.5
 42
0.0
 44
2.0
 73
     0
 74
     0
 77
     1
 78
     8
140
3.5
147
2.0
172
     1
173
     1
176
     2
177
     2
178
     2
271
     2
340
12E
  0
ENDTAB
  0
TABLE
  2
BLOCK_RECORD
  5
1
330
0
100
AcDbSymbolTable
 70
    25
  0
BLOCK_RECORD
  5
1F
330
1
100
AcDbSymbolTableRecord
100
AcDbBlockTableRecord
  2
*Model_Space
340
22
  0
BLOCK_RECORD
  5
1B
330
1
100
AcDbSymbolTableRecord
100
AcDbBlockTableRecord
  2
*Paper_Space
340
1E
  0
BLOCK_RECORD
  5
23
330
1
100
AcDbSymbolTableRecord
100
AcDbBlockTableRecord
  2
*Paper_Space0
340
26
  0
BLOCK_RECORD
  5
131
330
1
100
AcDbSymbolTableRecord
100
AcDbBlockTableRecord
  2
*D1
340
0
  0
BLOCK_RECORD
  5
13C
330
1
100
AcDbSymbolTableRecord
100
AcDbBlockTableRecord
  2
*D2
340
0
  0
BLOCK_RECORD
  5
147
330
1
100
AcDbSymbolTableRecord
100
AcDbBlockTableRecord
  2
*D3
340
0
  0
BLOCK_RECORD
  5
152
330
1
100
AcDbSymbolTableRecord
100
AcDbBlockTableRecord
  2
*D4
340
0
  0
BLOCK_RECORD
  5
15F
330
1
100
AcDbSymbolTableRecord
100
AcDbBlockTableRecord
  2
*D5
340
0
  0
BLOCK_RECORD
  5
16A
330
1
100
AcDbSymbolTableRecord
100
AcDbBlockTableRecord
  2
*D6
340
0
  0
BLOCK_RECORD
  5
177
330
1
100
AcDbSymbolTableRecord
100
AcDbBlockTableRecord
  2
*D7
340
0
  0
BLOCK_RECORD
  5
184
330
1
100
AcDbSymbolTableRecord
100
AcDbBlockTableRecord
  2
*D8
340
0
  0
BLOCK_RECORD
  5
18F
330
1
100
AcDbSymbolTableRecord
100
AcDbBlockTableRecord
  2
*D9
340
0
  0
BLOCK_RECORD
  5
19A
330
1
100
AcDbSymbolTableRecord
100
AcDbBlockTableRecord
  2
*D10
340
0
  0
BLOCK_RECORD
  5
1A5
330
1
100
AcDbSymbolTableRecord
100
AcDbBlockTableRecord
  2
*D11
340
0
  0
BLOCK_RECORD
  5
1B0
330
1
100
AcDbSymbolTableRecord
100
AcDbBlockTableRecord
  2
*D12
340
0
  0
BLOCK_RECORD
  5
1BB
330
1
100
AcDbSymbolTableRecord
100
AcDbBlockTableRecord
  2
*D13
340
0
  0
BLOCK_RECORD
  5
1C6
330
1
100
AcDbSymbolTableRecord
100
AcDbBlockTableRecord
  2
*D14
340
0
  0
BLOCK_RECORD
  5
1D1
330
1
100
AcDbSymbolTableRecord
100
AcDbBlockTableRecord
  2
*D15
340
0
  0
BLOCK_RECORD
  5
1DC
330
1
100
AcDbSymbolTableRecord
100
AcDbBlockTableRecord
  2
*D16
340
0
  0
BLOCK_RECORD
  5
1E7
330
1
100
AcDbSymbolTableRecord
100
AcDbBlockTableRecord
  2
*D17
340
0
  0
BLOCK_RECORD
  5
1F2
330
1
100
AcDbSymbolTableRecord
100
AcDbBlockTableRecord
  2
*D18
340
0
  0
BLOCK_RECORD
  5
1FD
330
1
100
AcDbSymbolTableRecord
100
AcDbBlockTableRecord
  2
*D19
340
0
  0
BLOCK_RECORD
  5
208
330
1
100
AcDbSymbolTableRecord
100
AcDbBlockTableRecord
  2
*D20
340
0
  0
BLOCK_RECORD
  5
213
330
1
100
AcDbSymbolTableRecord
100
AcDbBlockTableRecord
  2
*D21
340
0
  0
BLOCK_RECORD
  5
21F
330
1
100
AcDbSymbolTableRecord
100
AcDbBlockTableRecord
  2
*D22
340
0
102
{BLKREFS
331
226
102
}
  0
BLOCK_RECORD
  5
227
330
1
100
AcDbSymbolTableRecord
100
AcDbBlockTableRecord
  2
*D23
340
0
102
{BLKREFS
331
22E
102
}
  0
BLOCK_RECORD
  5
22F
330
1
100
AcDbSymbolTableRecord
100
AcDbBlockTableRecord
  2
*D24
340
0
102
{BLKREFS
331
237
102
}
  0
ENDTAB
  0
ENDSEC
  0
SECTION
  2
BLOCKS
  0
BLOCK
  5
20
330
1F
100
AcDbEntity
  8
0
100
AcDbBlockBegin
  2
*Model_Space
 70
     0
 71
     0
 10
0.0
 20
0.0
 30
0.0
  3
*Model_Space
  1

  0
ENDBLK
  5
21
330
1F
100
AcDbEntity
  8
0
100
AcDbBlockEnd
  0
BLOCK
  5
1C
330
1B
100
AcDbEntity
 67
     1
  8
0
100
AcDbBlockBegin
  2
*Paper_Space
 70
     0
 71
     0
 10
0.0
 20
0.0
 30
0.0
  3
*Paper_Space
  1

  0
ENDBLK
  5
1D
330
1B
100
AcDbEntity
 67
     1
  8
0
100
AcDbBlockEnd
  0
BLOCK
  5
24
330
23
100
AcDbEntity
  8
0
100
AcDbBlockBegin
  2
*Paper_Space0
 70
     0
 71
     0
 10
0.0
 20
0.0
 30
0.0
  3
*Paper_Space0
  1

  0
ENDBLK
  5
25
330
23
100
AcDbEntity
  8
0
100
AcDbBlockEnd
  0
BLOCK
  5
138
330
131
100
AcDbEntity
  8
0
100
AcDbBlockBegin
  2
*D1
 70
     1
 71
     0
 10
0.0
 20
0.0
 30
0.0
  3
*D1
  1

  0
LINE
  5
132
330
131
100
AcDbEntity
  8
1
  6
Continuous
 62
     2
100
AcDbLine
 10
-794.1970366505441
 20
-2153.11053823605
 30
0.0
 11
-806.1970366505441
 21
-2153.11053823605
 31
0.0
  0
LINE
  5
133
330
131
100
AcDbEntity
  8
1
  6
Continuous
 62
     2
100
AcDbLine
 10
-806.1970366505441
 20
-2130.720803473886
 30
0.0
 11
-806.1970366505441
 21
-2155.11053823605
 31
0.0
  0
LINE
  5
134
330
131
100
AcDbEntity
  8
1
  6
Continuous
 62
     2
100
AcDbLine
 10
-794.1970366505441
 20
-2144.720803473886
 30
0.0
 11
-794.1970366505441
 21
-2155.11053823605
 31
0.0
  0
SOLID
  5
135
330
131
100
AcDbEntity
  8
1
 62
     2
100
AcDbTrace
 10
-797.6970366505441
 20
-2153.571321977606
 30
0.0
 11
-797.6970366505441
 21
-2152.649754494494
 31
0.0
 12
-794.1970366505441
 22
-2153.11053823605
 32
0.0
 13
-794.1970366505441
 23
-2153.11053823605
 33
0.0
  0
SOLID
  5
136
330
131
100
AcDbEntity
  8
1
 62
     2
100
AcDbTrace
 10
-802.6970366505441
 20
-2152.649754494494
 30
0.0
 11
-802.6970366505441
 21
-2153.571321977606
 31
0.0
 12
-806.1970366505441
 22
-2153.11053823605
 32
0.0
 13
-806.1970366505441
 23
-2153.11053823605
 33
0.0
  0
MTEXT
  5
137
330
131
100
AcDbEntity
  8
1
 62
     2
100
AcDbMText
 10
-802.4168845200691
 20
-2151.11053823605
 30
0.0
 40
3.5
 41
0.0
 71
     7
 72
     1
  1
12
  7
CONVERTER_11
 11
0.9999999999970621
 21
2.424068405545307E-6
 31
0.0
 73
     1
 44
0.60024009603842
  0
ENDBLK
  5
139
330
131
100
AcDbEntity
  8
0
100
AcDbBlockEnd
  0
BLOCK
  5
143
330
13C
100
AcDbEntity
  8
0
100
AcDbBlockBegin
  2
*D2
 70
     1
 71
     0
 10
0.0
 20
0.0
 30
0.0
  3
*D2
  1

  0
LINE
  5
13D
330
13C
100
AcDbEntity
  8
1
  6
Continuous
 62
     2
100
AcDbLine
 10
-770.6970366475298
 20
-2153.11053823605
 30
0.0
 11
-790.6970366484002
 21
-2153.11053823605
 31
0.0
  0
LINE
  5
13E
330
13C
100
AcDbEntity
  8
1
  6
Continuous
 62
     2
100
AcDbLine
 10
-790.6970366484002
 20
-2144.720803467267
 30
0.0
 11
-790.6970366484002
 21
-2155.11053823605
 31
0.0
  0
LINE
  5
13F
330
13C
100
AcDbEntity
  8
1
  6
Continuous
 62
     2
100
AcDbLine
 10
-770.6970366475298
 20
-2140.720803472051
 30
0.0
 11
-770.6970366475298
 21
-2155.11053823605
 31
0.0
  0
SOLID
  5
140
330
13C
100
AcDbEntity
  8
1
 62
     2
100
AcDbTrace
 10
-774.1970366475298
 20
-2153.571321977606
 30
0.0
 11
-774.1970366475298
 21
-2152.649754494494
 31
0.0
 12
-770.6970366475298
 22
-2153.11053823605
 32
0.0
 13
-770.6970366475298
 23
-2153.11053823605
 33
0.0
  0
SOLID
  5
141
330
13C
100
AcDbEntity
  8
1
 62
     2
100
AcDbTrace
 10
-787.1970366484002
 20
-2152.649754494494
 30
0.0
 11
-787.1970366484002
 21
-2153.571321977606
 31
0.0
 12
-790.6970366484002
 22
-2153.11053823605
 32
0.0
 13
-790.6970366484002
 23
-2153.11053823605
 33
0.0
  0
MTEXT
  5
142
330
13C
100
AcDbEntity
  8
1
 62
     2
100
AcDbMText
 10
-784.124694075263
 20
-2151.11053823605
 30
0.0
 40
3.5
 41
0.0
 71
     7
 72
     1
  1
20
  7
CONVERTER_11
 11
0.9999999999970621
 21
2.424068405545307E-6
 31
0.0
 73
     1
 44
0.60024009603842
  0
ENDBLK
  5
144
330
13C
100
AcDbEntity
  8
0
100
AcDbBlockEnd
  0
BLOCK
  5
14E
330
147
100
AcDbEntity
  8
0
100
AcDbBlockBegin
  2
*D3
 70
     1
 71
     0
 10
0.0
 20
0.0
 30
0.0
  3
*D3
  1

  0
LINE
  5
148
330
147
100
AcDbEntity
  8
1
  6
Continuous
 62
     2
100
AcDbLine
 10
-978.7336231446905
 20
-2035.098456125144
 30
0.0
 11
-978.7336231446905
 21
-2127.098456125144
 31
0.0
  0
LINE
  5
149
330
147
100
AcDbEntity
  8
1
  6
Continuous
 62
     2
100
AcDbLine
 10
-971.4836231446905
 20
-2035.098456125144
 30
0.0
 11
-980.7336231446905
 21
-2035.098456125144
 31
0.0
  0
LINE
  5
14A
330
147
100
AcDbEntity
  8
1
  6
Continuous
 62
     2
100
AcDbLine
 10
-966.4836231446905
 20
-2127.098456125144
 30
0.0
 11
-980.7336231446905
 21
-2127.098456125144
 31
0.0
  0
SOLID
  5
14B
330
147
100
AcDbEntity
  8
1
 62
     2
100
AcDbTrace
 10
-978.2728394031345
 20
-2038.598456125144
 30
0.0
 11
-979.1944068862464
 21
-2038.598456125144
 31
0.0
 12
-978.7336231446905
 22
-2035.098456125144
 32
0.0
 13
-978.7336231446905
 23
-2035.098456125144
 33
0.0
  0
SOLID
  5
14C
330
147
100
AcDbEntity
  8
1
 62
     2
100
AcDbTrace
 10
-979.1944068862464
 20
-2123.598456125144
 30
0.0
 11
-978.2728394031345
 21
-2123.598456125144
 31
0.0
 12
-978.7336231446905
 22
-2127.098456125144
 32
0.0
 13
-978.7336231446905
 23
-2127.098456125144
 33
0.0
  0
MTEXT
  5
14D
330
147
100
AcDbEntity
  8
1
 62
     2
100
AcDbMText
 10
-980.7336231446905
 20
-2084.734445136133
 30
0.0
 40
3.5
 41
0.0
 71
     7
 72
     1
  1
92
  7
CONVERTER_11
 11
0.0
 21
1.0
 31
0.0
 73
     1
 44
0.60024009603842
  0
ENDBLK
  5
14F
330
147
100
AcDbEntity
  8
0
100
AcDbBlockEnd
  0
BLOCK
  5
15B
330
152
100
AcDbEntity
  8
0
100
AcDbBlockBegin
  2
*D4
 70
     1
 71
     0
 10
0.0
 20
0.0
 30
0.0
  3
*D4
  1

  0
LINE
  5
153
330
152
100
AcDbEntity
  8
1
  6
Continuous
 62
     2
100
AcDbLine
 10
-966.4836231446905
 20
-2198.15301575083
 30
0.0
 11
-959.464306993015
 21
-2198.15301575083
 31
0.0
  0
LINE
  5
154
330
152
100
AcDbEntity
  8
1
  6
Continuous
 62
     2
100
AcDbLine
 10
-971.4836231446905
 20
-2198.15301575083
 30
0.0
 11
-966.4836231446905
 21
-2198.15301575083
 31
0.0
  0
LINE
  5
155
330
152
100
AcDbEntity
  8
1
  6
Continuous
 62
     2
100
AcDbLine
 10
-978.4836231446905
 20
-2198.15301575083
 30
0.0
 11
-971.4836231446905
 21
-2198.15301575083
 31
0.0
  0
LINE
  5
156
330
152
100
AcDbEntity
  8
1
  6
Continuous
 62
     2
100
AcDbLine
 10
-966.4836231446905
 20
-2081.098456125144
 30
0.0
 11
-966.4836231446905
 21
-2200.15301575083
 31
0.0
  0
LINE
  5
157
330
152
100
AcDbEntity
  8
1
  6
Continuous
 62
     2
100
AcDbLine
 10
-971.4836231446905
 20
-2124.351456125144
 30
0.0
 11
-971.4836231446905
 21
-2200.15301575083
 31
0.0
  0
SOLID
  5
158
330
152
100
AcDbEntity
  8
1
 62
     2
100
AcDbTrace
 10
-974.9836231446905
 20
-2198.613799492386
 30
0.0
 11
-974.9836231446905
 21
-2197.692232009274
 31
0.0
 12
-971.4836231446905
 22
-2198.15301575083
 32
0.0
 13
-971.4836231446905
 23
-2198.15301575083
 33
0.0
  0
SOLID
  5
159
330
152
100
AcDbEntity
  8
1
 62
     2
100
AcDbTrace
 10
-962.9836231446905
 20
-2197.692232009274
 30
0.0
 11
-962.9836231446905
 21
-2198.613799492386
 31
0.0
 12
-966.4836231446905
 22
-2198.15301575083
 32
0.0
 13
-966.4836231446905
 23
-2198.15301575083
 33
0.0
  0
MTEXT
  5
15A
330
152
100
AcDbEntity
  8
1
 62
     2
100
AcDbMText
 10
-961.564306993015
 20
-2196.15301575083
 30
0.0
 40
3.5
 41
0.0
 71
     7
 72
     1
  1
5
  7
CONVERTER_11
 11
0.9999999999970621
 21
2.424068405545307E-6
 31
0.0
 73
     1
 44
0.60024009603842
  0
ENDBLK
  5
15C
330
152
100
AcDbEntity
  8
0
100
AcDbBlockEnd
  0
BLOCK
  5
166
330
15F
100
AcDbEntity
  8
0
100
AcDbBlockBegin
  2
*D5
 70
     1
 71
     0
 10
0.0
 20
0.0
 30
0.0
  3
*D5
  1

  0
LINE
  5
160
330
15F
100
AcDbEntity
  8
1
  6
Continuous
 62
     2
100
AcDbLine
 10
-597.27300475196
 20
-2028.598684215145
 30
0.0
 11
-597.27300475196
 21
-2133.598228035143
 31
0.0
  0
LINE
  5
161
330
15F
100
AcDbEntity
  8
1
  6
Continuous
 62
     2
100
AcDbLine
 10
-613.7736843632746
 20
-2133.598228035143
 30
0.0
 11
-595.27300475196
 21
-2133.598228035143
 31
0.0
  0
LINE
  5
162
330
15F
100
AcDbEntity
  8
1
  6
Continuous
 62
     2
100
AcDbLine
 10
-613.7736843632746
 20
-2028.598684215145
 30
0.0
 11
-595.27300475196
 21
-2028.598684215145
 31
0.0
  0
SOLID
  5
163
330
15F
100
AcDbEntity
  8
1
 62
     2
100
AcDbTrace
 10
-596.8122210104041
 20
-2032.098684215145
 30
0.0
 11
-597.7337884935159
 21
-2032.098684215145
 31
0.0
 12
-597.27300475196
 22
-2028.598684215145
 32
0.0
 13
-597.27300475196
 23
-2028.598684215145
 33
0.0
  0
SOLID
  5
164
330
15F
100
AcDbEntity
  8
1
 62
     2
100
AcDbTrace
 10
-597.7337884935159
 20
-2130.098228035143
 30
0.0
 11
-596.8122210104041
 21
-2130.098228035143
 31
0.0
 12
-597.27300475196
 22
-2133.598228035143
 32
0.0
 13
-597.27300475196
 23
-2133.598228035143
 33
0.0
  0
MTEXT
  5
165
330
15F
100
AcDbEntity
  8
1
 62
     2
100
AcDbMText
 10
-599.27300475196
 20
-2087.540547959162
 30
0.0
 40
3.5
 41
0.0
 71
     7
 72
     1
  1
105
  7
CONVERTER_11
 11
0.0
 21
1.0
 31
0.0
 73
     1
 44
0.60024009603842
  0
ENDBLK
  5
167
330
15F
100
AcDbEntity
  8
0
100
AcDbBlockEnd
  0
BLOCK
  5
173
330
16A
100
AcDbEntity
  8
0
100
AcDbBlockBegin
  2
*D6
 70
     1
 71
     0
 10
0.0
 20
0.0
 30
0.0
  3
*D6
  1

  0
LINE
  5
16B
330
16A
100
AcDbEntity
  8
1
  6
Continuous
 62
     2
100
AcDbLine
 10
-613.7736843632746
 20
-2197.1038584208
 30
0.0
 11
-620.7736843632746
 21
-2197.1038584208
 31
0.0
  0
LINE
  5
16C
330
16A
100
AcDbEntity
  8
1
  6
Continuous
 62
     2
100
AcDbLine
 10
-605.7736843632747
 20
-2197.1038584208
 30
0.0
 11
-613.7736843632746
 21
-2197.1038584208
 31
0.0
  0
LINE
  5
16D
330
16A
100
AcDbEntity
  8
1
  6
Continuous
 62
     2
100
AcDbLine
 10
-598.7736843632747
 20
-2197.1038584208
 30
0.0
 11
-605.7736843632747
 21
-2197.1038584208
 31
0.0
  0
LINE
  5
16E
330
16A
100
AcDbEntity
  8
1
  6
Continuous
 62
     2
100
AcDbLine
 10
-613.7736843632746
 20
-2151.592452532702
 30
0.0
 11
-613.7736843632746
 21
-2199.1038584208
 31
0.0
  0
LINE
  5
16F
330
16A
100
AcDbEntity
  8
1
  6
Continuous
 62
     2
100
AcDbLine
 10
-605.7736843632747
 20
-2188.598456125144
 30
0.0
 11
-605.7736843632747
 21
-2199.1038584208
 31
0.0
  0
SOLID
  5
170
330
16A
100
AcDbEntity
  8
1
 62
     2
100
AcDbTrace
 10
-602.2736843632747
 20
-2196.643074679244
 30
0.0
 11
-602.2736843632747
 21
-2197.564642162356
 31
0.0
 12
-605.7736843632747
 22
-2197.1038584208
 32
0.0
 13
-605.7736843632747
 23
-2197.1038584208
 33
0.0
  0
SOLID
  5
171
330
16A
100
AcDbEntity
  8
1
 62
     2
100
AcDbTrace
 10
-617.2736843632746
 20
-2197.564642162356
 30
0.0
 11
-617.2736843632746
 21
-2196.643074679244
 31
0.0
 12
-613.7736843632746
 22
-2197.1038584208
 32
0.0
 13
-613.7736843632746
 23
-2197.1038584208
 33
0.0
  0
MTEXT
  5
172
330
16A
100
AcDbEntity
  8
1
 62
     2
100
AcDbMText
 10
-611.3807446869006
 20
-2195.1038584208
 30
0.0
 40
3.5
 41
0.0
 71
     7
 72
     1
  1
8
  7
CONVERTER_11
 11
0.9999999999970621
 21
2.424068405545307E-6
 31
0.0
 73
     1
 44
0.60024009603842
  0
ENDBLK
  5
174
330
16A
100
AcDbEntity
  8
0
100
AcDbBlockEnd
  0
BLOCK
  5
180
330
177
100
AcDbEntity
  8
0
100
AcDbBlockBegin
  2
*D7
 70
     1
 71
     0
 10
0.0
 20
0.0
 30
0.0
  3
*D7
  1

  0
LINE
  5
178
330
177
100
AcDbEntity
  8
1
  6
Continuous
 62
     2
100
AcDbLine
 10
-613.7736843632746
 20
-2112.89794294087
 30
0.0
 11
-620.7736843632746
 21
-2112.89794294087
 31
0.0
  0
LINE
  5
179
330
177
100
AcDbEntity
  8
1
  6
Continuous
 62
     2
100
AcDbLine
 10
-609.7736843632746
 20
-2112.89794294087
 30
0.0
 11
-613.7736843632746
 21
-2112.89794294087
 31
0.0
  0
LINE
  5
17A
330
177
100
AcDbEntity
  8
1
  6
Continuous
 62
     2
100
AcDbLine
 10
-602.7736843632746
 20
-2112.89794294087
 30
0.0
 11
-609.7736843632746
 21
-2112.89794294087
 31
0.0
  0
LINE
  5
17B
330
177
100
AcDbEntity
  8
1
  6
Continuous
 62
     2
100
AcDbLine
 10
-613.7736843632746
 20
-2151.592452532702
 30
0.0
 11
-613.7736843632746
 21
-2110.89794294087
 31
0.0
  0
LINE
  5
17C
330
177
100
AcDbEntity
  8
1
  6
Continuous
 62
     2
100
AcDbLine
 10
-609.7736843632746
 20
-2124.597956125144
 30
0.0
 11
-609.7736843632746
 21
-2110.89794294087
 31
0.0
  0
SOLID
  5
17D
330
177
100
AcDbEntity
  8
1
 62
     2
100
AcDbTrace
 10
-606.2736843632746
 20
-2112.437159199314
 30
0.0
 11
-606.2736843632746
 21
-2113.358726682426
 31
0.0
 12
-609.7736843632746
 22
-2112.89794294087
 32
0.0
 13
-609.7736843632746
 23
-2112.89794294087
 33
0.0
  0
SOLID
  5
17E
330
177
100
AcDbEntity
  8
1
 62
     2
100
AcDbTrace
 10
-617.2736843632746
 20
-2113.358726682426
 30
0.0
 11
-617.2736843632746
 21
-2112.437159199314
 31
0.0
 12
-613.7736843632746
 22
-2112.89794294087
 32
0.0
 13
-613.7736843632746
 23
-2112.89794294087
 33
0.0
  0
MTEXT
  5
17F
330
177
100
AcDbEntity
  8
1
 62
     2
100
AcDbMText
 10
-617.9368537794576
 20
-2110.89794294087
 30
0.0
 40
3.5
 41
0.0
 71
     7
 72
     1
  1
4
  7
CONVERTER_11
 11
0.9999999999970621
 21
2.424068405545307E-6
 31
0.0
 73
     1
 44
0.60024009603842
  0
ENDBLK
  5
181
330
177
100
AcDbEntity
  8
0
100
AcDbBlockEnd
  0
BLOCK
  5
18B
330
184
100
AcDbEntity
  8
0
100
AcDbBlockBegin
  2
*D8
 70
     1
 71
     0
 10
0.0
 20
0.0
 30
0.0
  3
*D8
  1

  0
LINE
  5
185
330
184
100
AcDbEntity
  8
1
  6
Continuous
 62
     2
100
AcDbLine
 10
-653.605126730845
 20
-2004.098456125143
 30
0.0
 11
-653.605126730845
 21
-2158.098456125143
 31
0.0
  0
LINE
  5
186
330
184
100
AcDbEntity
  8
1
  6
Continuous
 62
     2
100
AcDbLine
 10
-626.0050100907818
 20
-2158.098456125143
 30
0.0
 11
-655.605126730845
 21
-2158.098456125143
 31
0.0
  0
LINE
  5
187
330
184
100
AcDbEntity
  8
1
  6
Continuous
 62
     2
100
AcDbLine
 10
-629.7736843632746
 20
-2004.098456125143
 30
0.0
 11
-655.605126730845
 21
-2004.098456125143
 31
0.0
  0
SOLID
  5
188
330
184
100
AcDbEntity
  8
1
 62
     2
100
AcDbTrace
 10
-653.144342989289
 20
-2007.598456125143
 30
0.0
 11
-654.0659104724009
 21
-2007.598456125143
 31
0.0
 12
-653.605126730845
 22
-2004.098456125143
 32
0.0
 13
-653.605126730845
 23
-2004.098456125143
 33
0.0
  0
SOLID
  5
189
330
184
100
AcDbEntity
  8
1
 62
     2
100
AcDbTrace
 10
-654.0659104724009
 20
-2154.598456125143
 30
0.0
 11
-653.144342989289
 21
-2154.598456125143
 31
0.0
 12
-653.605126730845
 22
-2158.098456125143
 32
0.0
 13
-653.605126730845
 23
-2158.098456125143
 33
0.0
  0
MTEXT
  5
18A
330
184
100
AcDbEntity
  8
1
 62
     2
100
AcDbMText
 10
-655.605126730845
 20
-2084.700198166552
 30
0.0
 40
3.5
 41
0.0
 71
     7
 72
     1
  1
154
  7
CONVERTER_11
 11
0.0
 21
1.0
 31
0.0
 73
     1
 44
0.60024009603842
  0
ENDBLK
  5
18C
330
184
100
AcDbEntity
  8
0
100
AcDbBlockEnd
  0
BLOCK
  5
196
330
18F
100
AcDbEntity
  8
0
100
AcDbBlockBegin
  2
*D9
 70
     1
 71
     0
 10
0.0
 20
0.0
 30
0.0
  3
*D9
  1

  0
LINE
  5
190
330
18F
100
AcDbEntity
  8
1
  6
Continuous
 62
     2
100
AcDbLine
 10
-661.860970471382
 20
-1999.598456125144
 30
0.0
 11
-661.860970471382
 21
-2162.598456125144
 31
0.0
  0
LINE
  5
191
330
18F
100
AcDbEntity
  8
1
  6
Continuous
 62
     2
100
AcDbLine
 10
-637.5236843632746
 20
-2162.598456125144
 30
0.0
 11
-663.860970471382
 21
-2162.598456125144
 31
0.0
  0
LINE
  5
192
330
18F
100
AcDbEntity
  8
1
  6
Continuous
 62
     2
100
AcDbLine
 10
-637.5236843632746
 20
-1999.598456125144
 30
0.0
 11
-663.860970471382
 21
-1999.598456125144
 31
0.0
  0
SOLID
  5
193
330
18F
100
AcDbEntity
  8
1
 62
     2
100
AcDbTrace
 10
-661.400186729826
 20
-2003.098456125144
 30
0.0
 11
-662.3217542129379
 21
-2003.098456125144
 31
0.0
 12
-661.860970471382
 22
-1999.598456125144
 32
0.0
 13
-661.860970471382
 23
-1999.598456125144
 33
0.0
  0
SOLID
  5
194
330
18F
100
AcDbEntity
  8
1
 62
     2
100
AcDbTrace
 10
-662.3217542129379
 20
-2159.098456125144
 30
0.0
 11
-661.400186729826
 21
-2159.098456125144
 31
0.0
 12
-661.860970471382
 22
-2162.598456125144
 32
0.0
 13
-661.860970471382
 23
-2162.598456125144
 33
0.0
  0
MTEXT
  5
195
330
18F
100
AcDbEntity
  8
1
 62
     2
100
AcDbMText
 10
-663.860970471382
 20
-2084.814649850403
 30
0.0
 40
3.5
 41
0.0
 71
     7
 72
     1
  1
163
  7
CONVERTER_11
 11
0.0
 21
1.0
 31
0.0
 73
     1
 44
0.60024009603842
  0
ENDBLK
  5
197
330
18F
100
AcDbEntity
  8
0
100
AcDbBlockEnd
  0
BLOCK
  5
1A1
330
19A
100
AcDbEntity
  8
0
100
AcDbBlockBegin
  2
*D10
 70
     1
 71
     0
 10
0.0
 20
0.0
 30
0.0
  3
*D10
  1

  0
LINE
  5
19B
330
19A
100
AcDbEntity
  8
1
  6
Continuous
 62
     2
100
AcDbLine
 10
-669.166897804723
 20
-1988.598456125144
 30
0.0
 11
-669.166897804723
 21
-2173.598456125144
 31
0.0
  0
LINE
  5
19C
330
19A
100
AcDbEntity
  8
1
  6
Continuous
 62
     2
100
AcDbLine
 10
-627.7736843632746
 20
-1988.598456125144
 30
0.0
 11
-671.166897804723
 21
-1988.598456125144
 31
0.0
  0
LINE
  5
19D
330
19A
100
AcDbEntity
  8
1
  6
Continuous
 62
     2
100
AcDbLine
 10
-627.7736843632746
 20
-2173.598456125144
 30
0.0
 11
-671.166897804723
 21
-2173.598456125144
 31
0.0
  0
SOLID
  5
19E
330
19A
100
AcDbEntity
  8
1
 62
     2
100
AcDbTrace
 10
-668.7061140631671
 20
-1992.098456125144
 30
0.0
 11
-669.627681546279
 21
-1992.098456125144
 31
0.0
 12
-669.166897804723
 22
-1988.598456125144
 32
0.0
 13
-669.166897804723
 23
-1988.598456125144
 33
0.0
  0
SOLID
  5
19F
330
19A
100
AcDbEntity
  8
1
 62
     2
100
AcDbTrace
 10
-669.627681546279
 20
-2170.098456125144
 30
0.0
 11
-668.7061140631671
 21
-2170.098456125144
 31
0.0
 12
-669.166897804723
 22
-2173.598456125144
 32
0.0
 13
-669.166897804723
 23
-2173.598456125144
 33
0.0
  0
MTEXT
  5
1A0
330
19A
100
AcDbEntity
  8
1
 62
     2
100
AcDbMText
 10
-671.166897804723
 20
-2084.813781117701
 30
0.0
 40
3.5
 41
0.0
 71
     7
 72
     1
  1
185
  7
CONVERTER_11
 11
0.0
 21
1.0
 31
0.0
 73
     1
 44
0.60024009603842
  0
ENDBLK
  5
1A2
330
19A
100
AcDbEntity
  8
0
100
AcDbBlockEnd
  0
BLOCK
  5
1AC
330
1A5
100
AcDbEntity
  8
0
100
AcDbBlockBegin
  2
*D11
 70
     1
 71
     0
 10
0.0
 20
0.0
 30
0.0
  3
*D11
  1

  0
LINE
  5
1A6
330
1A5
100
AcDbEntity
  8
1
  6
Continuous
 62
     2
100
AcDbLine
 10
-898.828323460802
 20
-1988.598456125144
 30
0.0
 11
-898.828323460802
 21
-2173.598456125144
 31
0.0
  0
LINE
  5
1A7
330
1A5
100
AcDbEntity
  8
1
  6
Continuous
 62
     2
100
AcDbLine
 10
-952.4836231446901
 20
-2173.598456125144
 30
0.0
 11
-896.828323460802
 21
-2173.598456125144
 31
0.0
  0
LINE
  5
1A8
330
1A5
100
AcDbEntity
  8
1
  6
Continuous
 62
     2
100
AcDbLine
 10
-952.4836231446903
 20
-1988.598456125144
 30
0.0
 11
-896.828323460802
 21
-1988.598456125144
 31
0.0
  0
SOLID
  5
1A9
330
1A5
100
AcDbEntity
  8
1
 62
     2
100
AcDbTrace
 10
-898.3675397192461
 20
-1992.098456125144
 30
0.0
 11
-899.289107202358
 21
-1992.098456125144
 31
0.0
 12
-898.828323460802
 22
-1988.598456125144
 32
0.0
 13
-898.828323460802
 23
-1988.598456125144
 33
0.0
  0
SOLID
  5
1AA
330
1A5
100
AcDbEntity
  8
1
 62
     2
100
AcDbTrace
 10
-899.289107202358
 20
-2170.098456125144
 30
0.0
 11
-898.3675397192461
 21
-2170.098456125144
 31
0.0
 12
-898.828323460802
 22
-2173.598456125144
 32
0.0
 13
-898.828323460802
 23
-2173.598456125144
 33
0.0
  0
MTEXT
  5
1AB
330
1A5
100
AcDbEntity
  8
1
 62
     2
100
AcDbMText
 10
-900.828323460802
 20
-2084.82091508642
 30
0.0
 40
3.5
 41
0.0
 71
     7
 72
     1
  1
185
  7
CONVERTER_11
 11
0.0
 21
1.0
 31
0.0
 73
     1
 44
0.60024009603842
  0
ENDBLK
  5
1AD
330
1A5
100
AcDbEntity
  8
0
100
AcDbBlockEnd
  0
BLOCK
  5
1B7
330
1B0
100
AcDbEntity
  8
0
100
AcDbBlockBegin
  2
*D12
 70
     1
 71
     0
 10
0.0
 20
0.0
 30
0.0
  3
*D12
  1

  0
LINE
  5
1B1
330
1B0
100
AcDbEntity
  8
1
  6
Continuous
 62
     2
100
AcDbLine
 10
-959.9836231446906
 20
-2018.048637297932
 30
0.0
 11
-944.9836231446903
 21
-2018.048637297932
 31
0.0
  0
LINE
  5
1B2
330
1B0
100
AcDbEntity
  8
1
  6
Continuous
 62
     2
100
AcDbLine
 10
-944.9836231446903
 20
-2001.848456125144
 30
0.0
 11
-944.9836231446903
 21
-2020.048637297932
 31
0.0
  0
LINE
  5
1B3
330
1B0
100
AcDbEntity
  8
1
  6
Continuous
 62
     2
100
AcDbLine
 10
-959.9836231446906
 20
-2001.848456125144
 30
0.0
 11
-959.9836231446906
 21
-2020.048637297932
 31
0.0
  0
SOLID
  5
1B4
330
1B0
100
AcDbEntity
  8
1
 62
     2
100
AcDbTrace
 10
-956.4836231446906
 20
-2017.587853556376
 30
0.0
 11
-956.4836231446906
 21
-2018.509421039488
 31
0.0
 12
-959.9836231446906
 22
-2018.048637297932
 32
0.0
 13
-959.9836231446906
 23
-2018.048637297932
 33
0.0
  0
SOLID
  5
1B5
330
1B0
100
AcDbEntity
  8
1
 62
     2
100
AcDbTrace
 10
-948.4836231446903
 20
-2018.509421039488
 30
0.0
 11
-948.4836231446903
 21
-2017.587853556376
 31
0.0
 12
-944.9836231446903
 22
-2018.048637297932
 32
0.0
 13
-944.9836231446903
 23
-2018.048637297932
 33
0.0
  0
MTEXT
  5
1B6
330
1B0
100
AcDbEntity
  8
1
 62
     2
100
AcDbMText
 10
-954.2356694218001
 20
-2016.048637297932
 30
0.0
 40
3.5
 41
0.0
 71
     7
 72
     1
  1
15
  7
CONVERTER_11
 11
0.9999999999970621
 21
2.424068405545307E-6
 31
0.0
 73
     1
 44
0.60024009603842
  0
ENDBLK
  5
1B8
330
1B0
100
AcDbEntity
  8
0
100
AcDbBlockEnd
  0
BLOCK
  5
1C2
330
1BB
100
AcDbEntity
  8
0
100
AcDbBlockBegin
  2
*D13
 70
     1
 71
     0
 10
0.0
 20
0.0
 30
0.0
  3
*D13
  1

  0
LINE
  5
1BC
330
1BB
100
AcDbEntity
  8
1
  6
Continuous
 62
     2
100
AcDbLine
 10
-620.2736843632746
 20
-2017.9629972875
 30
0.0
 11
-635.2736843632746
 21
-2017.9629972875
 31
0.0
  0
LINE
  5
1BD
330
1BB
100
AcDbEntity
  8
1
  6
Continuous
 62
     2
100
AcDbLine
 10
-635.2736843632746
 20
-2001.848456125144
 30
0.0
 11
-635.2736843632746
 21
-2019.9629972875
 31
0.0
  0
LINE
  5
1BE
330
1BB
100
AcDbEntity
  8
1
  6
Continuous
 62
     2
100
AcDbLine
 10
-620.2736843632746
 20
-2001.848456125144
 30
0.0
 11
-620.2736843632746
 21
-2019.9629972875
 31
0.0
  0
SOLID
  5
1BF
330
1BB
100
AcDbEntity
  8
1
 62
     2
100
AcDbTrace
 10
-623.7736843632746
 20
-2018.423781029056
 30
0.0
 11
-623.7736843632746
 21
-2017.502213545944
 31
0.0
 12
-620.2736843632746
 22
-2017.9629972875
 32
0.0
 13
-620.2736843632746
 23
-2017.9629972875
 33
0.0
  0
SOLID
  5
1C0
330
1BB
100
AcDbEntity
  8
1
 62
     2
100
AcDbTrace
 10
-631.7736843632746
 20
-2017.502213545944
 30
0.0
 11
-631.7736843632746
 21
-2018.423781029056
 31
0.0
 12
-635.2736843632746
 22
-2017.9629972875
 32
0.0
 13
-635.2736843632746
 23
-2017.9629972875
 33
0.0
  0
MTEXT
  5
1C1
330
1BB
100
AcDbEntity
  8
1
 62
     2
100
AcDbMText
 10
-627.1651849658676
 20
-2015.9629972875
 30
0.0
 40
3.5
 41
0.0
 71
     7
 72
     1
  1
15
  7
CONVERTER_11
 11
0.9999999999970621
 21
2.424068405545307E-6
 31
0.0
 73
     1
 44
0.60024009603842
  0
ENDBLK
  5
1C3
330
1BB
100
AcDbEntity
  8
0
100
AcDbBlockEnd
  0
BLOCK
  5
1CD
330
1C6
100
AcDbEntity
  8
0
100
AcDbBlockBegin
  2
*D14
 70
     1
 71
     0
 10
0.0
 20
0.0
 30
0.0
  3
*D14
  1

  0
LINE
  5
1C7
330
1C6
100
AcDbEntity
  8
1
  6
Continuous
 62
     2
100
AcDbLine
 10
-613.7736843632746
 20
-2196.92192142862
 30
0.0
 11
-641.7736843632746
 21
-2196.92192142862
 31
0.0
  0
LINE
  5
1C8
330
1C6
100
AcDbEntity
  8
1
  6
Continuous
 62
     2
100
AcDbLine
 10
-641.7736843632746
 20
-2159.598456125144
 30
0.0
 11
-641.7736843632746
 21
-2198.92192142862
 31
0.0
  0
LINE
  5
1C9
330
1C6
100
AcDbEntity
  8
1
  6
Continuous
 62
     2
100
AcDbLine
 10
-613.7736843632746
 20
-2159.598456125144
 30
0.0
 11
-613.7736843632746
 21
-2198.92192142862
 31
0.0
  0
SOLID
  5
1CA
330
1C6
100
AcDbEntity
  8
1
 62
     2
100
AcDbTrace
 10
-617.2736843632746
 20
-2197.382705170176
 30
0.0
 11
-617.2736843632746
 21
-2196.461137687064
 31
0.0
 12
-613.7736843632746
 22
-2196.92192142862
 32
0.0
 13
-613.7736843632746
 23
-2196.92192142862
 33
0.0
  0
SOLID
  5
1CB
330
1C6
100
AcDbEntity
  8
1
 62
     2
100
AcDbTrace
 10
-638.2736843632746
 20
-2196.461137687064
 30
0.0
 11
-638.2736843632746
 21
-2197.382705170176
 31
0.0
 12
-641.7736843632746
 22
-2196.92192142862
 32
0.0
 13
-641.7736843632746
 23
-2196.92192142862
 33
0.0
  0
MTEXT
  5
1CC
330
1C6
100
AcDbEntity
  8
1
 62
     2
100
AcDbMText
 10
-629.4639050328184
 20
-2194.92192142862
 30
0.0
 40
3.5
 41
0.0
 71
     7
 72
     1
  1
28
  7
CONVERTER_11
 11
0.9999999999970621
 21
2.424068405545307E-6
 31
0.0
 73
     1
 44
0.60024009603842
  0
ENDBLK
  5
1CE
330
1C6
100
AcDbEntity
  8
0
100
AcDbBlockEnd
  0
BLOCK
  5
1D8
330
1D1
100
AcDbEntity
  8
0
100
AcDbBlockBegin
  2
*D15
 70
     1
 71
     0
 10
0.0
 20
0.0
 30
0.0
  3
*D15
  1

  0
LINE
  5
1D2
330
1D1
100
AcDbEntity
  8
1
  6
Continuous
 62
     2
100
AcDbLine
 10
-731.4870178570025
 20
-2199.83424790924
 30
0.0
 11
-688.4870178570025
 21
-2199.83424790924
 31
0.0
  0
LINE
  5
1D3
330
1D1
100
AcDbEntity
  8
1
  6
Continuous
 62
     2
100
AcDbLine
 10
-688.4870178570025
 20
-2158.098456125144
 30
0.0
 11
-688.4870178570025
 21
-2201.83424790924
 31
0.0
  0
LINE
  5
1D4
330
1D1
100
AcDbEntity
  8
1
  6
Continuous
 62
     2
100
AcDbLine
 10
-731.4870178570025
 20
-2173.598456125144
 30
0.0
 11
-731.4870178570025
 21
-2201.83424790924
 31
0.0
  0
SOLID
  5
1D5
330
1D1
100
AcDbEntity
  8
1
 62
     2
100
AcDbTrace
 10
-727.9870178570025
 20
-2199.373464167684
 30
0.0
 11
-727.9870178570025
 21
-2200.295031650796
 31
0.0
 12
-731.4870178570025
 22
-2199.83424790924
 32
0.0
 13
-731.4870178570025
 23
-2199.83424790924
 33
0.0
  0
SOLID
  5
1D6
330
1D1
100
AcDbEntity
  8
1
 62
     2
100
AcDbTrace
 10
-691.9870178570025
 20
-2200.295031650796
 30
0.0
 11
-691.9870178570025
 21
-2199.373464167684
 31
0.0
 12
-688.4870178570025
 22
-2199.83424790924
 32
0.0
 13
-688.4870178570025
 23
-2199.83424790924
 33
0.0
  0
MTEXT
  5
1D7
330
1D1
100
AcDbEntity
  8
1
 62
     2
100
AcDbMText
 10
-712.5443135598276
 20
-2197.83424790924
 30
0.0
 40
3.5
 41
0.0
 71
     7
 72
     1
  1
43
  7
CONVERTER_11
 11
0.9999999999970621
 21
2.424068405545307E-6
 31
0.0
 73
     1
 44
0.60024009603842
  0
ENDBLK
  5
1D9
330
1D1
100
AcDbEntity
  8
0
100
AcDbBlockEnd
  0
BLOCK
  5
1E3
330
1DC
100
AcDbEntity
  8
0
100
AcDbBlockBegin
  2
*D16
 70
     1
 71
     0
 10
0.0
 20
0.0
 30
0.0
  3
*D16
  1

  0
LINE
  5
1DD
330
1DC
100
AcDbEntity
  8
1
  6
Continuous
 62
     2
100
AcDbLine
 10
-721.4870178570025
 20
-2196.19550806556
 30
0.0
 11
-731.4870178570025
 21
-2196.19550806556
 31
0.0
  0
LINE
  5
1DE
330
1DC
100
AcDbEntity
  8
1
  6
Continuous
 62
     2
100
AcDbLine
 10
-731.4870178570025
 20
-2188.598456125144
 30
0.0
 11
-731.4870178570025
 21
-2198.19550806556
 31
0.0
  0
LINE
  5
1DF
330
1DC
100
AcDbEntity
  8
1
  6
Continuous
 62
     2
100
AcDbLine
 10
-721.4870178570025
 20
-2173.598456125144
 30
0.0
 11
-721.4870178570025
 21
-2198.19550806556
 31
0.0
  0
SOLID
  5
1E0
330
1DC
100
AcDbEntity
  8
1
 62
     2
100
AcDbTrace
 10
-724.9870178570025
 20
-2196.656291807116
 30
0.0
 11
-724.9870178570025
 21
-2195.734724324004
 31
0.0
 12
-721.4870178570025
 22
-2196.19550806556
 32
0.0
 13
-721.4870178570025
 23
-2196.19550806556
 33
0.0
  0
SOLID
  5
1E1
330
1DC
100
AcDbEntity
  8
1
 62
     2
100
AcDbTrace
 10
-727.9870178570025
 20
-2195.734724324004
 30
0.0
 11
-727.9870178570025
 21
-2196.656291807116
 31
0.0
 12
-731.4870178570025
 22
-2196.19550806556
 32
0.0
 13
-731.4870178570025
 23
-2196.19550806556
 33
0.0
  0
MTEXT
  5
1E2
330
1DC
100
AcDbEntity
  8
1
 62
     2
100
AcDbMText
 10
-728.1055061930123
 20
-2194.19550806556
 30
0.0
 40
3.5
 41
0.0
 71
     7
 72
     1
  1
10
  7
CONVERTER_11
 11
0.9999999999970621
 21
2.424068405545307E-6
 31
0.0
 73
     1
 44
0.60024009603842
  0
ENDBLK
  5
1E4
330
1DC
100
AcDbEntity
  8
0
100
AcDbBlockEnd
  0
BLOCK
  5
1EE
330
1E7
100
AcDbEntity
  8
0
100
AcDbBlockBegin
  2
*D17
 70
     1
 71
     0
 10
0.0
 20
0.0
 30
0.0
  3
*D17
  1

  0
LINE
  5
1E8
330
1E7
100
AcDbEntity
  8
1
  6
Continuous
 62
     2
100
AcDbLine
 10
-867.0953498557973
 20
-2197.4858530749
 30
0.0
 11
-857.0953498557973
 21
-2197.4858530749
 31
0.0
  0
LINE
  5
1E9
330
1E7
100
AcDbEntity
  8
1
  6
Continuous
 62
     2
100
AcDbLine
 10
-857.0953498557973
 20
-2188.598456125144
 30
0.0
 11
-857.0953498557973
 21
-2199.4858530749
 31
0.0
  0
LINE
  5
1EA
330
1E7
100
AcDbEntity
  8
1
  6
Continuous
 62
     2
100
AcDbLine
 10
-867.0953498557973
 20
-2173.598456125144
 30
0.0
 11
-867.0953498557973
 21
-2199.4858530749
 31
0.0
  0
SOLID
  5
1EB
330
1E7
100
AcDbEntity
  8
1
 62
     2
100
AcDbTrace
 10
-863.5953498557973
 20
-2197.025069333344
 30
0.0
 11
-863.5953498557973
 21
-2197.946636816456
 31
0.0
 12
-867.0953498557973
 22
-2197.4858530749
 32
0.0
 13
-867.0953498557973
 23
-2197.4858530749
 33
0.0
  0
SOLID
  5
1EC
330
1E7
100
AcDbEntity
  8
1
 62
     2
100
AcDbTrace
 10
-860.5953498557973
 20
-2197.946636816456
 30
0.0
 11
-860.5953498557973
 21
-2197.025069333344
 31
0.0
 12
-857.0953498557973
 22
-2197.4858530749
 32
0.0
 13
-857.0953498557973
 23
-2197.4858530749
 33
0.0
  0
MTEXT
  5
1ED
330
1E7
100
AcDbEntity
  8
1
 62
     2
100
AcDbMText
 10
-865.1277160307292
 20
-2195.4858530749
 30
0.0
 40
3.5
 41
0.0
 71
     7
 72
     1
  1
10
  7
CONVERTER_11
 11
0.9999999999970621
 21
2.424068405545307E-6
 31
0.0
 73
     1
 44
0.60024009603842
  0
ENDBLK
  5
1EF
330
1E7
100
AcDbEntity
  8
0
100
AcDbBlockEnd
  0
BLOCK
  5
1F9
330
1F2
100
AcDbEntity
  8
0
100
AcDbBlockBegin
  2
*D18
 70
     1
 71
     0
 10
0.0
 20
0.0
 30
0.0
  3
*D18
  1

  0
LINE
  5
1F3
330
1F2
100
AcDbEntity
  8
1
  6
Continuous
 62
     2
100
AcDbLine
 10
-857.0953498557973
 20
-2209.3417343483
 30
0.0
 11
-887.0953498557973
 21
-2209.3417343483
 31
0.0
  0
LINE
  5
1F4
330
1F2
100
AcDbEntity
  8
1
  6
Continuous
 62
     2
100
AcDbLine
 10
-887.0953498557973
 20
-2158.098456125144
 30
0.0
 11
-887.0953498557973
 21
-2211.3417343483
 31
0.0
  0
LINE
  5
1F5
330
1F2
100
AcDbEntity
  8
1
  6
Continuous
 62
     2
100
AcDbLine
 10
-857.0953498557973
 20
-2173.598456125144
 30
0.0
 11
-857.0953498557973
 21
-2211.3417343483
 31
0.0
  0
SOLID
  5
1F6
330
1F2
100
AcDbEntity
  8
1
 62
     2
100
AcDbTrace
 10
-860.5953498557973
 20
-2209.802518089856
 30
0.0
 11
-860.5953498557973
 21
-2208.880950606744
 31
0.0
 12
-857.0953498557973
 22
-2209.3417343483
 32
0.0
 13
-857.0953498557973
 23
-2209.3417343483
 33
0.0
  0
SOLID
  5
1F7
330
1F2
100
AcDbEntity
  8
1
 62
     2
100
AcDbTrace
 10
-883.5953498557973
 20
-2208.880950606744
 30
0.0
 11
-883.5953498557973
 21
-2209.802518089856
 31
0.0
 12
-887.0953498557973
 22
-2209.3417343483
 32
0.0
 13
-887.0953498557973
 23
-2209.3417343483
 33
0.0
  0
MTEXT
  5
1F8
330
1F2
100
AcDbEntity
  8
1
 62
     2
100
AcDbMText
 10
-874.936150580918
 20
-2207.3417343483
 30
0.0
 40
3.5
 41
0.0
 71
     7
 72
     1
  1
30
  7
CONVERTER_11
 11
0.9999999999970621
 21
2.424068405545307E-6
 31
0.0
 73
     1
 44
0.60024009603842
  0
ENDBLK
  5
1FA
330
1F2
100
AcDbEntity
  8
0
100
AcDbBlockEnd
  0
BLOCK
  5
204
330
1FD
100
AcDbEntity
  8
0
100
AcDbBlockBegin
  2
*D19
 70
     1
 71
     0
 10
0.0
 20
0.0
 30
0.0
  3
*D19
  1

  0
LINE
  5
1FE
330
1FD
100
AcDbEntity
  8
1
  6
Continuous
 62
     2
100
AcDbLine
 10
-914.672193030619
 20
-1999.598456125144
 30
0.0
 11
-914.672193030619
 21
-2162.598456125144
 31
0.0
  0
LINE
  5
1FF
330
1FD
100
AcDbEntity
  8
1
  6
Continuous
 62
     2
100
AcDbLine
 10
-944.7336231446902
 20
-2162.598456125144
 30
0.0
 11
-912.672193030619
 21
-2162.598456125144
 31
0.0
  0
LINE
  5
200
330
1FD
100
AcDbEntity
  8
1
  6
Continuous
 62
     2
100
AcDbLine
 10
-942.7336231446903
 20
-1999.598456125144
 30
0.0
 11
-912.672193030619
 21
-1999.598456125144
 31
0.0
  0
SOLID
  5
201
330
1FD
100
AcDbEntity
  8
1
 62
     2
100
AcDbTrace
 10
-914.2114092890631
 20
-2003.098456125144
 30
0.0
 11
-915.132976772175
 21
-2003.098456125144
 31
0.0
 12
-914.672193030619
 22
-1999.598456125144
 32
0.0
 13
-914.672193030619
 23
-1999.598456125144
 33
0.0
  0
SOLID
  5
202
330
1FD
100
AcDbEntity
  8
1
 62
     2
100
AcDbTrace
 10
-915.132976772175
 20
-2159.098456125144
 30
0.0
 11
-914.2114092890631
 21
-2159.098456125144
 31
0.0
 12
-914.672193030619
 22
-2162.598456125144
 32
0.0
 13
-914.672193030619
 23
-2162.598456125144
 33
0.0
  0
MTEXT
  5
203
330
1FD
100
AcDbEntity
  8
1
 62
     2
100
AcDbMText
 10
-916.672193030619
 20
-2084.92446978949
 30
0.0
 40
3.5
 41
0.0
 71
     7
 72
     1
  1
163
  7
CONVERTER_11
 11
0.0
 21
1.0
 31
0.0
 73
     1
 44
0.60024009603842
  0
ENDBLK
  5
205
330
1FD
100
AcDbEntity
  8
0
100
AcDbBlockEnd
  0
BLOCK
  5
20F
330
208
100
AcDbEntity
  8
0
100
AcDbBlockBegin
  2
*D20
 70
     1
 71
     0
 10
0.0
 20
0.0
 30
0.0
  3
*D20
  1

  0
LINE
  5
209
330
208
100
AcDbEntity
  8
1
  6
Continuous
 62
     2
100
AcDbLine
 10
-921.403248730214
 20
-2004.098456125144
 30
0.0
 11
-921.403248730214
 21
-2158.098456125144
 31
0.0
  0
LINE
  5
20A
330
208
100
AcDbEntity
  8
1
  6
Continuous
 62
     2
100
AcDbLine
 10
-950.4836231446906
 20
-2158.098456125144
 30
0.0
 11
-919.403248730214
 21
-2158.098456125144
 31
0.0
  0
LINE
  5
20B
330
208
100
AcDbEntity
  8
1
  6
Continuous
 62
     2
100
AcDbLine
 10
-950.4836231446902
 20
-2004.098456125144
 30
0.0
 11
-919.403248730214
 21
-2004.098456125144
 31
0.0
  0
SOLID
  5
20C
330
208
100
AcDbEntity
  8
1
 62
     2
100
AcDbTrace
 10
-920.9424649886581
 20
-2007.598456125144
 30
0.0
 11
-921.86403247177
 21
-2007.598456125144
 31
0.0
 12
-921.403248730214
 22
-2004.098456125144
 32
0.0
 13
-921.403248730214
 23
-2004.098456125144
 33
0.0
  0
SOLID
  5
20D
330
208
100
AcDbEntity
  8
1
 62
     2
100
AcDbTrace
 10
-921.86403247177
 20
-2154.598456125144
 30
0.0
 11
-920.9424649886581
 21
-2154.598456125144
 31
0.0
 12
-921.403248730214
 22
-2158.098456125144
 32
0.0
 13
-921.403248730214
 23
-2158.098456125144
 33
0.0
  0
MTEXT
  5
20E
330
208
100
AcDbEntity
  8
1
 62
     2
100
AcDbMText
 10
-923.403248730214
 20
-2084.773456125144
 30
0.0
 40
3.5
 41
0.0
 71
     7
 72
     1
  1
154
  7
CONVERTER_11
 11
0.0
 21
1.0
 31
0.0
 73
     1
 44
0.60024009603842
  0
ENDBLK
  5
210
330
208
100
AcDbEntity
  8
0
100
AcDbBlockEnd
  0
BLOCK
  5
21B
330
213
100
AcDbEntity
  8
0
100
AcDbBlockBegin
  2
*D21
 70
     1
 71
     0
 10
0.0
 20
0.0
 30
0.0
  3
*D21
  1

  0
LINE
  5
214
330
213
100
AcDbEntity
  8
1
  6
Continuous
 62
     2
100
AcDbLine
 10
-966.4836231446905
 20
-2208.598456125144
 30
0.0
 11
-938.4836231446903
 21
-2208.598456125144
 31
0.0
  0
LINE
  5
215
330
213
100
AcDbEntity
  8
1
  6
Continuous
 62
     2
100
AcDbLine
 10
-938.4836231446903
 20
-2159.598456125144
 30
0.0
 11
-938.4836231446903
 21
-2178.933045606739
 31
0.0
  0
LINE
  5
216
330
213
100
AcDbEntity
  8
1
  6
Continuous
 62
     2
100
AcDbLine
 10
-938.4836231446903
 20
-2187.791809233397
 30
0.0
 11
-938.4836231446903
 21
-2210.598456125144
 31
0.0
  0
LINE
  5
217
330
213
100
AcDbEntity
  8
1
  6
Continuous
 62
     2
100
AcDbLine
 10
-966.4836231446905
 20
-2159.598456125144
 30
0.0
 11
-966.4836231446905
 21
-2210.598456125144
 31
0.0
  0
SOLID
  5
218
330
213
100
AcDbEntity
  8
1
 62
     2
100
AcDbTrace
 10
-962.9836231446905
 20
-2208.137672383588
 30
0.0
 11
-962.9836231446905
 21
-2209.0592398667
 31
0.0
 12
-966.4836231446905
 22
-2208.598456125144
 32
0.0
 13
-966.4836231446905
 23
-2208.598456125144
 33
0.0
  0
SOLID
  5
219
330
213
100
AcDbEntity
  8
1
 62
     2
100
AcDbTrace
 10
-941.9836231446903
 20
-2209.0592398667
 30
0.0
 11
-941.9836231446903
 21
-2208.137672383588
 31
0.0
 12
-938.4836231446903
 22
-2208.598456125144
 32
0.0
 13
-938.4836231446903
 23
-2208.598456125144
 33
0.0
  0
MTEXT
  5
21A
330
213
100
AcDbEntity
  8
1
 62
     2
100
AcDbMText
 10
-955.5794370831612
 20
-2206.598456125144
 30
0.0
 40
3.5
 41
0.0
 71
     7
 72
     1
  1
28
  7
CONVERTER_11
 11
0.9999999999970621
 21
2.424068405545307E-6
 31
0.0
 73
     1
 44
0.60024009603842
  0
ENDBLK
  5
21C
330
213
100
AcDbEntity
  8
0
100
AcDbBlockEnd
  0
BLOCK
  5
224
330
21F
100
AcDbEntity
  8
0
100
AcDbBlockBegin
  2
*D22
 70
     1
 71
     0
 10
0.0
 20
0.0
 30
0.0
  3
*D22
  1

  0
LINE
  5
220
330
21F
100
AcDbEntity
  8
1
  6
Continuous
 62
     2
100
AcDbLine
 10
-620.9185427607836
 20
-2151.49990889741
 30
0.0
 11
-672.1183328276283
 21
-2198.32512485892
 31
0.0
  0
SOLID
  5
221
330
21F
100
AcDbEntity
  8
1
 62
     2
100
AcDbTrace
 10
-636.3570495727689
 20
-2164.994901638156
 30
0.0
 11
-635.735103090642
 21
-2165.674952518089
 31
0.0
 12
-638.6288259657656
 22
-2167.697003352878
 32
0.0
 13
-638.6288259657656
 23
-2167.697003352878
 33
0.0
  0
SOLID
  5
222
330
21F
100
AcDbEntity
  8
1
 62
     2
100
AcDbTrace
 10
-623.1903191537803
 20
-2154.202010612132
 30
0.0
 11
-623.8122656359071
 21
-2153.521959732198
 31
0.0
 12
-620.9185427607836
 22
-2151.49990889741
 32
0.0
 13
-620.9185427607836
 23
-2151.49990889741
 33
0.0
  0
MTEXT
  5
223
330
21F
100
AcDbEntity
  8
1
 62
     2
100
AcDbMText
 10
-672.5383008306557
 20
-2195.998920466259
 30
0.0
 40
3.5
 41
0.0
 71
     7
 72
     1
  1
\C2;Fräserø\C2;24
  7
CONVERTER_11
 11
0.7379284668742501
 21
0.6748789356444745
 31
0.0
 73
     1
 44
0.60024009603842
  0
ENDBLK
  5
225
330
21F
100
AcDbEntity
  8
0
100
AcDbBlockEnd
  0
BLOCK
  5
22C
330
227
100
AcDbEntity
  8
0
100
AcDbBlockBegin
  2
*D23
 70
     1
 71
     0
 10
0.0
 20
0.0
 30
0.0
  3
*D23
  1

  0
LINE
  5
228
330
227
100
AcDbEntity
  8
1
  6
Continuous
 62
     2
100
AcDbLine
 10
-955.4849182261021
 20
-2146.690337703131
 30
0.0
 11
-919.7850911586713
 21
-2224.553758068838
 31
0.0
  0
SOLID
  5
229
330
227
100
AcDbEntity
  8
1
 62
     2
100
AcDbTrace
 10
-947.3598960970094
 20
-2165.517082962423
 30
0.0
 11
-946.5221821603711
 21
-2165.132997052383
 31
0.0
 12
-945.4823280632786
 22
-2168.506574547157
 32
0.0
 13
-945.4823280632786
 23
-2168.506574547157
 33
0.0
  0
SOLID
  5
22A
330
227
100
AcDbEntity
  8
1
 62
     2
100
AcDbTrace
 10
-953.6073501923713
 20
-2149.679829287865
 30
0.0
 11
-954.4450641290096
 21
-2150.063915197905
 31
0.0
 12
-955.4849182261021
 22
-2146.690337703131
 32
0.0
 13
-955.4849182261021
 23
-2146.690337703131
 33
0.0
  0
MTEXT
  5
22B
330
227
100
AcDbEntity
  8
1
 62
     2
100
AcDbMText
 10
-928.5281395352504
 20
-2200.685898820786
 30
0.0
 40
3.5
 41
0.0
 71
     7
 72
     1
  1
\C2;Fräserø\C2;24
  7
CONVERTER_11
 11
0.4167745901176415
 21
-0.9090098685010367
 31
0.0
 73
     1
 44
0.60024009603842
  0
ENDBLK
  5
22D
330
227
100
AcDbEntity
  8
0
100
AcDbBlockEnd
  0
BLOCK
  5
235
330
22F
100
AcDbEntity
  8
0
100
AcDbBlockBegin
  2
*D24
 70
     1
 71
     0
 10
0.0
 20
0.0
 30
0.0
  3
*D24
  1

  0
LINE
  5
230
330
22F
100
AcDbEntity
  8
1
  6
Continuous
 62
     2
100
AcDbLine
 10
-961.2526798947667
 20
-2000.398140416027
 30
0.0
 11
-965.6943785200335
 21
-2003.19703543412
 31
0.0
  0
LINE
  5
231
330
22F
100
AcDbEntity
  8
1
  6
Continuous
 62
     2
100
AcDbLine
 10
-952.8265277964317
 20
-1995.088479153653
 30
0.0
 11
-958.7145663946144
 21
-1998.79877183426
 31
0.0
  0
SOLID
  5
232
330
22F
100
AcDbEntity
  8
1
 62
     2
100
AcDbTrace
 10
-955.9990883241809
 20
-1996.543001343834
 30
0.0
 11
-955.5077796313585
 21
-1997.322682300563
 31
0.0
 12
-958.7145663946144
 22
-1998.79877183426
 32
0.0
 13
-958.7145663946144
 23
-1998.79877183426
 33
0.0
  0
SOLID
  5
233
330
22F
100
AcDbEntity
  8
1
 62
     2
100
AcDbTrace
 10
-963.9681579652002
 20
-2002.653910906454
 30
0.0
 11
-964.4594666580226
 21
-2001.874229949724
 31
0.0
 12
-961.2526798947667
 22
-2000.398140416027
 32
0.0
 13
-961.2526798947667
 23
-2000.398140416027
 33
0.0
  0
MTEXT
  5
234
330
22F
100
AcDbEntity
  8
1
 62
     2
100
AcDbMText
 10
-958.097581549529
 20
-1996.046024104013
 30
0.0
 40
3.5
 41
0.0
 71
     7
 72
     1
  1
\C2;ø\C2;3
  7
CONVERTER_11
 11
0.8460378333841335
 21
0.5331228605890777
 31
0.0
 73
     1
 44
0.60024009603842
  0
ENDBLK
  5
236
330
22F
100
AcDbEntity
  8
0
100
AcDbBlockEnd
  0
ENDSEC
  0
SECTION
  2
ENTITIES
  0
POINT
  5
32
330
1F
100
AcDbEntity
  8
1
 62
     3
 60
     1
100
AcDbPoint
 10
-794.1970366505441
 20
-2130.720803473886
 30
0.0
  0
POINT
  5
33
330
1F
100
AcDbEntity
  8
1
 62
     3
 60
     1
100
AcDbPoint
 10
-770.6970366475298
 20
-2108.72080347173
 30
0.0
  0
POINT
  5
34
330
1F
100
AcDbEntity
  8
1
 62
     3
 60
     1
100
AcDbPoint
 10
-790.6970366405628
 20
-2108.720803467267
 30
0.0
  0
POINT
  5
35
330
1F
100
AcDbEntity
  8
1
 62
     3
 60
     1
100
AcDbPoint
 10
-747.6970366405626
 20
-2108.720803476193
 30
0.0
  0
POINT
  5
36
330
1F
100
AcDbEntity
  8
1
 62
     3
 60
     1
100
AcDbPoint
 10
-769.1970366405627
 20
-2108.72080347173
 30
0.0
  0
POINT
  5
37
330
1F
100
AcDbEntity
  8
1
 62
     3
 60
     1
100
AcDbPoint
 10
-794.1970366505441
 20
-2097.720803473886
 30
0.0
  0
POINT
  5
38
330
1F
100
AcDbEntity
  8
1
 62
     3
 60
     1
100
AcDbPoint
 10
-806.1970366505441
 20
-2130.720803473886
 30
0.0
  0
POINT
  5
39
330
1F
100
AcDbEntity
  8
1
 62
     3
 60
     1
100
AcDbPoint
 10
-806.1970366505441
 20
-2125.720803473886
 30
0.0
  0
POINT
  5
3A
330
1F
100
AcDbEntity
  8
1
 62
     3
 60
     1
100
AcDbPoint
 10
-824.1970366505441
 20
-2125.720803473886
 30
0.0
  0
POINT
  5
3B
330
1F
100
AcDbEntity
  8
1
 62
     3
 60
     1
100
AcDbPoint
 10
-824.1970366505441
 20
-2097.720803473886
 30
0.0
  0
POINT
  5
3C
330
1F
100
AcDbEntity
  8
1
 62
     3
 60
     1
100
AcDbPoint
 10
-804.1970366505441
 20
-2097.720803473886
 30
0.0
  0
POINT
  5
3D
330
1F
100
AcDbEntity
  8
1
 62
     3
 60
     1
100
AcDbPoint
 10
-838.671240054445
 20
-2144.720803473886
 30
0.0
  0
POINT
  5
3E
330
1F
100
AcDbEntity
  8
1
 62
     3
 60
     1
100
AcDbPoint
 10
-742.6970366475321
 20
-2144.720803478153
 30
0.0
  0
POINT
  5
3F
330
1F
100
AcDbEntity
  8
1
 62
     3
 60
     1
100
AcDbPoint
 10
-742.6970366475321
 20
-2102.720803478152
 30
0.0
  0
POINT
  5
40
330
1F
100
AcDbEntity
  8
1
 62
     3
 60
     1
100
AcDbPoint
 10
-838.671240054445
 20
-2130.720803473886
 30
0.0
  0
POINT
  5
41
330
1F
100
AcDbEntity
  8
1
 62
     3
 60
     1
100
AcDbPoint
 10
-838.671240054445
 20
-2052.720803473886
 30
0.0
  0
POINT
  5
42
330
1F
100
AcDbEntity
  8
1
 62
     3
 60
     1
100
AcDbPoint
 10
-770.6970366475298
 20
-2140.720803472051
 30
0.0
  0
POINT
  5
43
330
1F
100
AcDbEntity
  8
1
 62
     3
 60
     1
100
AcDbPoint
 10
-985.4836231446905
 20
-2192.598456125144
 30
0.0
  0
POINT
  5
44
330
1F
100
AcDbEntity
  8
1
 62
     3
 60
     1
100
AcDbPoint
 10
-985.4836231446905
 20
-2188.598456125144
 30
0.0
  0
POINT
  5
45
330
1F
100
AcDbEntity
  8
1
 62
     3
 60
     1
100
AcDbPoint
 10
-985.4836231446905
 20
-1972.598456125144
 30
0.0
  0
POINT
  5
46
330
1F
100
AcDbEntity
  8
1
 62
     3
 60
     1
100
AcDbPoint
 10
-985.4836231446905
 20
-1973.598456125144
 30
0.0
  0
POINT
  5
47
330
1F
100
AcDbEntity
  8
1
 62
     3
 60
     1
100
AcDbPoint
 10
-966.4836231446905
 20
-2127.098456125144
 30
0.0
  0
POINT
  5
48
330
1F
100
AcDbEntity
  8
1
 62
     3
 60
     1
100
AcDbPoint
 10
-971.4836231446905
 20
-2127.098456125144
 30
0.0
  0
POINT
  5
49
330
1F
100
AcDbEntity
  8
1
 62
     3
 60
     1
100
AcDbPoint
 10
-944.9836231446903
 20
-1999.598456125144
 30
0.0
  0
POINT
  5
4A
330
1F
100
AcDbEntity
  8
1
 62
     3
 60
     1
100
AcDbPoint
 10
-971.4836231446905
 20
-1973.598456125144
 30
0.0
  0
POINT
  5
4B
330
1F
100
AcDbEntity
  8
1
 62
     3
 60
     1
100
AcDbPoint
 10
-731.4870178570025
 20
-2132.542728035143
 30
0.0
  0
POINT
  5
4C
330
1F
100
AcDbEntity
  8
1
 62
     3
 60
     1
100
AcDbPoint
 10
-711.4870178570025
 20
-2132.542728035143
 30
0.0
  0
POINT
  5
4D
330
1F
100
AcDbEntity
  8
1
 62
     3
 60
     1
100
AcDbPoint
 10
-711.4870178570025
 20
-2029.654184215145
 30
0.0
  0
POINT
  5
4E
330
1F
100
AcDbEntity
  8
1
 62
     3
 60
     1
100
AcDbPoint
 10
-731.4870178570025
 20
-2029.654184215145
 30
0.0
  0
POINT
  5
4F
330
1F
100
AcDbEntity
  8
1
 62
     3
 60
     1
100
AcDbPoint
 10
-621.7736843632746
 20
-2037.542956125144
 30
0.0
  0
POINT
  5
50
330
1F
100
AcDbEntity
  8
1
 62
     3
 60
     1
100
AcDbPoint
 10
-641.7736843632746
 20
-2146.098456125144
 30
0.0
  0
POINT
  5
51
330
1F
100
AcDbEntity
  8
1
 62
     3
 60
     1
100
AcDbPoint
 10
-613.7736843632746
 20
-2016.848456125144
 30
0.0
  0
POINT
  5
52
330
1F
100
AcDbEntity
  8
1
 62
     3
 60
     1
100
AcDbPoint
 10
-625.7736843632746
 20
-2004.098456125144
 30
0.0
  0
POINT
  5
53
330
1F
100
AcDbEntity
  8
1
 62
     3
 60
     1
100
AcDbPoint
 10
-629.7736843632746
 20
-2004.098456125144
 30
0.0
  0
POINT
  5
54
330
1F
100
AcDbEntity
  8
1
 62
     3
 60
     1
100
AcDbPoint
 10
-641.7736843632746
 20
-2016.848456125144
 30
0.0
  0
LINE
  5
55
330
1F
100
AcDbEntity
  8
1
  6
DOT_CENTER
 62
     2
100
AcDbLine
 10
-794.1970366505441
 20
-2144.720803473886
 30
0.0
 11
-794.1970366505441
 21
-2130.720803473886
 31
0.0
  0
LINE
  5
56
330
1F
100
AcDbEntity
  8
1
  6
Continuous
 62
     7
100
AcDbLine
 10
-770.6970366475298
 20
-2108.72080347173
 30
0.0
 11
-790.6970366405628
 21
-2108.720803467267
 31
0.0
  0
LINE
  5
57
330
1F
100
AcDbEntity
  8
1
  6
Continuous
 62
     7
100
AcDbLine
 10
-770.6970366475298
 20
-2136.720803467266
 30
0.0
 11
-770.6970366475298
 21
-2108.72080347173
 31
0.0
  0
LINE
  5
58
330
1F
100
AcDbEntity
  8
1
  6
Continuous
 62
     7
100
AcDbLine
 10
-790.6970366475321
 20
-2140.720803467266
 30
0.0
 11
-790.6970366405628
 21
-2108.720803467267
 31
0.0
  0
LINE
  5
59
330
1F
100
AcDbEntity
  8
1
  6
Continuous
 62
     7
100
AcDbLine
 10
-794.1970366505441
 20
-2125.720803473886
 30
0.0
 11
-794.1970366505441
 21
-2097.720803473886
 31
0.0
  0
LINE
  5
5A
330
1F
100
AcDbEntity
  8
1
  6
DOT_CENTER
 62
     2
100
AcDbLine
 10
-838.671240054445
 20
-2130.720803473886
 30
0.0
 11
-838.671240054445
 21
-2144.720803473886
 31
0.0
  0
LINE
  5
5B
330
1F
100
AcDbEntity
  8
1
  6
Continuous
 62
     7
100
AcDbLine
 10
-806.1970366505441
 20
-2130.720803473886
 30
0.0
 11
-838.671240054445
 21
-2130.720803473886
 31
0.0
  0
LINE
  5
5C
330
1F
100
AcDbEntity
  8
1
  6
Continuous
 62
     7
100
AcDbLine
 10
-770.6970366475298
 20
-2140.720803472051
 30
0.0
 11
-770.6970366475298
 21
-2136.720803467266
 31
0.0
  0
LINE
  5
5D
330
1F
100
AcDbEntity
  8
1
  6
Continuous
 62
     7
100
AcDbLine
 10
-790.6970366484002
 20
-2140.720803467266
 30
0.0
 11
-770.6970366475298
 21
-2140.720803472051
 31
0.0
  0
LINE
  5
5E
330
1F
100
AcDbEntity
  8
1
  6
Continuous
 62
     7
100
AcDbLine
 10
-747.6970366466585
 20
-2136.720803467266
 30
0.0
 11
-747.6970366405626
 21
-2108.720803476193
 31
0.0
  0
LINE
  5
5F
330
1F
100
AcDbEntity
  8
1
  6
Continuous
 62
     7
100
AcDbLine
 10
-770.6970366475298
 20
-2136.720803467266
 30
0.0
 11
-747.6970366466585
 21
-2136.720803467266
 31
0.0
  0
LINE
  5
60
330
1F
100
AcDbEntity
  8
1
  6
Continuous
 62
     7
100
AcDbLine
 10
-742.6970366475321
 20
-2102.720803478152
 30
0.0
 11
-742.6970366475321
 21
-2144.720803478153
 31
0.0
  0
LINE
  5
61
330
1F
100
AcDbEntity
  8
1
  6
Continuous
 62
     7
100
AcDbLine
 10
-806.1970366505441
 20
-2125.720803473886
 30
0.0
 11
-804.1970366505443
 21
-2125.720803473886
 31
0.0
  0
LINE
  5
62
330
1F
100
AcDbEntity
  8
1
  6
Continuous
 62
     7
100
AcDbLine
 10
-806.1970366505441
 20
-2125.720803473886
 30
0.0
 11
-806.1970366505441
 21
-2130.720803473886
 31
0.0
  0
LINE
  5
63
330
1F
100
AcDbEntity
  8
1
  6
Continuous
 62
     7
100
AcDbLine
 10
-794.1970366505441
 20
-2125.720803473886
 30
0.0
 11
-794.1970366505441
 21
-2130.720803473886
 31
0.0
  0
LINE
  5
64
330
1F
100
AcDbEntity
  8
1
  6
Continuous
 62
     7
100
AcDbLine
 10
-804.1970366505443
 20
-2125.720803473886
 30
0.0
 11
-794.1970366505441
 21
-2125.720803473886
 31
0.0
  0
LINE
  5
65
330
1F
100
AcDbEntity
  8
1
  6
Continuous
 62
     7
100
AcDbLine
 10
-804.1970366505441
 20
-2097.720803473886
 30
0.0
 11
-824.1970366505441
 21
-2097.720803473886
 31
0.0
  0
LINE
  5
66
330
1F
100
AcDbEntity
  8
1
  6
Continuous
 62
     7
100
AcDbLine
 10
-804.1970366505441
 20
-2097.720803473886
 30
0.0
 11
-824.1970366505441
 21
-2097.720803473886
 31
0.0
  0
LINE
  5
67
330
1F
100
AcDbEntity
  8
1
  6
Continuous
 62
     7
100
AcDbLine
 10
-804.1970366505441
 20
-2097.720803473886
 30
0.0
 11
-804.1970366505443
 21
-2125.720803473886
 31
0.0
  0
LINE
  5
68
330
1F
100
AcDbEntity
  8
1
  6
Continuous
 62
     7
100
AcDbLine
 10
-838.671240054445
 20
-2052.720803473886
 30
0.0
 11
-780.671240054445
 21
-2052.720803473886
 31
0.0
  0
LINE
  5
69
330
1F
100
AcDbEntity
  8
1
  6
Continuous
 62
     7
100
AcDbLine
 10
-838.671240054445
 20
-2052.720803473886
 30
0.0
 11
-838.671240054445
 21
-2130.720803473886
 31
0.0
  0
LINE
  5
6A
330
1F
100
AcDbEntity
  8
1
  6
Continuous
 62
     7
100
AcDbLine
 10
-747.6970366405626
 20
-2108.720803476193
 30
0.0
 11
-770.6970366475298
 21
-2108.72080347173
 31
0.0
  0
LINE
  5
6B
330
1F
100
AcDbEntity
  8
1
  6
Continuous
 62
     7
100
AcDbLine
 10
-790.6970366392561
 20
-2102.720803467266
 30
0.0
 11
-742.6970366475321
 21
-2102.720803478152
 31
0.0
  0
LINE
  5
6C
330
1F
100
AcDbEntity
  8
1
  6
Continuous
 62
     7
100
AcDbLine
 10
-790.6970366484002
 20
-2144.720803467267
 30
0.0
 11
-742.6970366475321
 21
-2144.720803478153
 31
0.0
  0
LINE
  5
6D
330
1F
100
AcDbEntity
  8
1
  6
DOT_CENTER
 62
     2
100
AcDbLine
 10
-794.1970366505441
 20
-2144.720803473886
 30
0.0
 11
-838.671240054445
 21
-2144.720803473886
 31
0.0
  0
LINE
  5
6E
330
1F
100
AcDbEntity
  8
1
  6
DOT_CENTER
 62
     2
100
AcDbLine
 10
-780.671240054445
 20
-2097.720803473886
 30
0.0
 11
-794.1970366505441
 21
-2097.720803473886
 31
0.0
  0
LINE
  5
6F
330
1F
100
AcDbEntity
  8
1
  6
Continuous
 62
     7
100
AcDbLine
 10
-780.671240054445
 20
-2052.720803473886
 30
0.0
 11
-780.671240054445
 21
-2097.720803473886
 31
0.0
  0
LINE
  5
70
330
1F
100
AcDbEntity
  8
1
  6
Continuous
 62
     7
100
AcDbLine
 10
-794.1970366505441
 20
-2097.720803473886
 30
0.0
 11
-804.1970366505441
 21
-2097.720803473886
 31
0.0
  0
LINE
  5
71
330
1F
100
AcDbEntity
  8
1
  6
DOT_CENTER
 62
     2
100
AcDbLine
 10
-824.1970366505441
 20
-2097.720803473886
 30
0.0
 11
-824.1970366505441
 21
-2125.720803473886
 31
0.0
  0
LINE
  5
72
330
1F
100
AcDbEntity
  8
1
  6
Continuous
 62
     7
100
AcDbLine
 10
-780.671240054445
 20
-2097.720803473886
 30
0.0
 11
-794.1970366505441
 21
-2097.720803473886
 31
0.0
  0
LINE
  5
73
330
1F
100
AcDbEntity
  8
1
  6
Continuous
 62
     7
100
AcDbLine
 10
-794.1970366505441
 20
-2097.720803473886
 30
0.0
 11
-804.1970366505441
 21
-2097.720803473886
 31
0.0
  0
LINE
  5
74
330
1F
100
AcDbEntity
  8
1
  6
Continuous
 62
     7
100
AcDbLine
 10
-824.1970366505441
 20
-2097.720803473886
 30
0.0
 11
-824.1970366505441
 21
-2125.720803473886
 31
0.0
  0
LINE
  5
75
330
1F
100
AcDbEntity
  8
1
  6
Continuous
 62
     7
100
AcDbLine
 10
-824.1970366505441
 20
-2125.720803473886
 30
0.0
 11
-806.1970366505441
 21
-2125.720803473886
 31
0.0
  0
LINE
  5
76
330
1F
100
AcDbEntity
  8
1
  6
DOT_CENTER
 62
     2
100
AcDbLine
 10
-806.1970366505441
 20
-2125.720803473886
 30
0.0
 11
-810.1970366505441
 21
-2125.720803473886
 31
0.0
  0
LINE
  5
77
330
1F
100
AcDbEntity
  8
1
  6
DOT_CENTER
 62
     7
100
AcDbLine
 10
-806.1970366505441
 20
-2125.720803473886
 30
0.0
 11
-810.1970366505441
 21
-2125.720803473886
 31
0.0
  0
LINE
  5
78
330
1F
100
AcDbEntity
  8
1
  6
Continuous
 62
     7
100
AcDbLine
 10
-794.1970366505441
 20
-2130.720803473886
 30
0.0
 11
-806.1970366505441
 21
-2130.720803473886
 31
0.0
  0
LINE
  5
79
330
1F
100
AcDbEntity
  8
1
  6
DOT_CENTER
 62
     2
100
AcDbLine
 10
-985.4836231446905
 20
-2188.598456125144
 30
0.0
 11
-985.4836231446905
 21
-2192.598456125144
 31
0.0
  0
LINE
  5
7A
330
1F
100
AcDbEntity
  8
1
  6
DOT_CENTER
 62
     2
100
AcDbLine
 10
-985.4836231446905
 20
-1973.598456125144
 30
0.0
 11
-985.4836231446905
 21
-1972.598456125144
 31
0.0
  0
LINE
  5
7B
330
1F
100
AcDbEntity
  8
1
  6
Continuous
 62
     7
100
AcDbLine
 10
-971.4836231446905
 20
-2127.098456125144
 30
0.0
 11
-971.4836231446905
 21
-2188.598456125144
 31
0.0
  0
LINE
  5
7C
330
1F
100
AcDbEntity
  8
1
  6
Continuous
 62
     7
100
AcDbLine
 10
-966.4836231446905
 20
-2127.098456125144
 30
0.0
 11
-966.4836231446905
 21
-2146.098456125144
 31
0.0
  0
LINE
  5
7D
330
1F
100
AcDbEntity
  8
1
  6
Continuous
 62
     7
100
AcDbLine
 10
-971.4836231446905
 20
-2127.098456125144
 30
0.0
 11
-966.4836231446905
 21
-2127.098456125144
 31
0.0
  0
LINE
  5
7E
330
1F
100
AcDbEntity
  8
1
  6
Continuous
 62
     7
100
AcDbLine
 10
-971.4836231446905
 20
-2035.098456125144
 30
0.0
 11
-971.4836231446905
 21
-1973.598456125144
 31
0.0
  0
LINE
  5
7F
330
1F
100
AcDbEntity
  8
1
  6
Continuous
 62
     7
100
AcDbLine
 10
-966.4836231446906
 20
-2035.098456125144
 30
0.0
 11
-966.4836231446905
 21
-2081.098456125144
 31
0.0
  0
LINE
  5
80
330
1F
100
AcDbEntity
  8
1
  6
Continuous
 62
     7
100
AcDbLine
 10
-966.4836231446906
 20
-2035.098456125144
 30
0.0
 11
-971.4836231446905
 21
-2035.098456125144
 31
0.0
  0
LINE
  5
81
330
1F
100
AcDbEntity
  8
1
  6
DOT_CENTER
 62
     2
100
AcDbLine
 10
-971.4836231446905
 20
-2188.598456125144
 30
0.0
 11
-928.4836231446905
 21
-2188.598456125144
 31
0.0
  0
LINE
  5
82
330
1F
100
AcDbEntity
  8
1
  6
Continuous
 62
     7
100
AcDbLine
 10
-971.4836231446905
 20
-2124.351456125144
 30
0.0
 11
-971.4836231446905
 21
-2127.098456125144
 31
0.0
  0
LINE
  5
83
330
1F
100
AcDbEntity
  8
1
  6
DOT_CENTER
 62
     2
100
AcDbLine
 10
-971.4836231446905
 20
-1973.598456125144
 30
0.0
 11
-928.4836231446905
 21
-1973.598456125144
 31
0.0
  0
LINE
  5
84
330
1F
100
AcDbEntity
  8
1
  6
Continuous
 62
     7
100
AcDbLine
 10
-971.4836231446905
 20
-2037.845456125144
 30
0.0
 11
-971.4836231446905
 21
-2035.098456125144
 31
0.0
  0
LINE
  5
85
330
1F
100
AcDbEntity
  8
1
  6
Continuous
 62
     7
100
AcDbLine
 10
-928.4836231446905
 20
-2081.098456125144
 30
0.0
 11
-928.4836231446905
 21
-2188.598456125144
 31
0.0
  0
LINE
  5
86
330
1F
100
AcDbEntity
  8
1
  6
Continuous
 62
     7
100
AcDbLine
 10
-971.4836231446905
 20
-2037.845456125144
 30
0.0
 11
-971.4836231446905
 21
-2124.351456125144
 31
0.0
  0
LINE
  5
87
330
1F
100
AcDbEntity
  8
1
  6
Continuous
 62
     7
100
AcDbLine
 10
-966.4836231446905
 20
-2028.598661780335
 30
0.0
 11
-966.4836231446906
 21
-2035.098456125144
 31
0.0
  0
LINE
  5
88
330
1F
100
AcDbEntity
  8
1
  6
Continuous
 62
     7
100
AcDbLine
 10
-857.0953498557973
 20
-2132.542728035143
 30
0.0
 11
-857.0953498557973
 21
-2173.598456125144
 31
0.0
  0
LINE
  5
89
330
1F
100
AcDbEntity
  8
1
  6
Continuous
 62
     7
100
AcDbLine
 10
-869.0953498557973
 20
-2132.542728035143
 30
0.0
 11
-857.0953498557973
 21
-2132.542728035143
 31
0.0
  0
LINE
  5
8A
330
1F
100
AcDbEntity
  8
1
  6
Continuous
 62
     7
100
AcDbLine
 10
-869.0953498557973
 20
-2029.654184215145
 30
0.0
 11
-869.0953498557973
 21
-2132.542728035143
 31
0.0
  0
LINE
  5
8B
330
1F
100
AcDbEntity
  8
1
  6
Continuous
 62
     7
100
AcDbLine
 10
-857.0953498557973
 20
-2029.654184215145
 30
0.0
 11
-857.0953498557973
 21
-2132.542728035143
 31
0.0
  0
LINE
  5
8C
330
1F
100
AcDbEntity
  8
1
  6
Continuous
 62
     7
100
AcDbLine
 10
-857.0953498557973
 20
-2029.654184215145
 30
0.0
 11
-869.0953498557973
 21
-2029.654184215145
 31
0.0
  0
LINE
  5
8D
330
1F
100
AcDbEntity
  8
1
  6
DOT_CENTER
 62
     2
100
AcDbLine
 10
-985.4836231446905
 20
-1973.598456125144
 30
0.0
 11
-971.4836231446905
 21
-1973.598456125144
 31
0.0
  0
LINE
  5
8E
330
1F
100
AcDbEntity
  8
1
  6
DOT_CENTER
 62
     2
100
AcDbLine
 10
-985.4836231446905
 20
-2188.598456125144
 30
0.0
 11
-971.4836231446905
 21
-2188.598456125144
 31
0.0
  0
LINE
  5
8F
330
1F
100
AcDbEntity
  8
1
  6
DOT_CENTER
 62
     2
100
AcDbLine
 10
-985.4836231446905
 20
-1973.598456125144
 30
0.0
 11
-985.4836231446905
 21
-2188.598456125144
 31
0.0
  0
LINE
  5
90
330
1F
100
AcDbEntity
  8
1
  6
Continuous
 62
     7
100
AcDbLine
 10
-731.4870178570025
 20
-2132.542728035143
 30
0.0
 11
-731.4870178570025
 21
-2029.654184215145
 31
0.0
  0
LINE
  5
91
330
1F
100
AcDbEntity
  8
1
  6
Continuous
 62
     7
100
AcDbLine
 10
-711.4870178570025
 20
-2132.542728035143
 30
0.0
 11
-731.4870178570025
 21
-2132.542728035143
 31
0.0
  0
LINE
  5
92
330
1F
100
AcDbEntity
  8
1
  6
Continuous
 62
     7
100
AcDbLine
 10
-711.4870178570025
 20
-2029.654184215145
 30
0.0
 11
-711.4870178570025
 21
-2132.542728035143
 31
0.0
  0
LINE
  5
93
330
1F
100
AcDbEntity
  8
1
  6
Continuous
 62
     7
100
AcDbLine
 10
-731.4870178570025
 20
-2029.654184215145
 30
0.0
 11
-731.4870178570025
 21
-1988.598456125144
 31
0.0
  0
LINE
  5
94
330
1F
100
AcDbEntity
  8
1
  6
Continuous
 62
     7
100
AcDbLine
 10
-731.4870178570025
 20
-2029.654184215145
 30
0.0
 11
-711.4870178570025
 21
-2029.654184215145
 31
0.0
  0
LINE
  5
95
330
1F
100
AcDbEntity
  8
1
  6
Continuous
 62
     7
100
AcDbLine
 10
-613.7736843632746
 20
-2028.598684215145
 30
0.0
 11
-613.7736843632746
 21
-2011.348456125144
 31
0.0
  0
LINE
  5
96
330
1F
100
AcDbEntity
  8
1
  6
Continuous
 62
     7
100
AcDbLine
 10
-613.7736843632746
 20
-2151.592452532702
 30
0.0
 11
-613.7736843632746
 21
-2028.598684215145
 31
0.0
  0
LINE
  5
97
330
1F
100
AcDbEntity
  8
1
  6
Continuous
 62
     7
100
AcDbLine
 10
-609.7736843632746
 20
-2037.542956125144
 30
0.0
 11
-609.7736843632746
 21
-2124.597956125144
 31
0.0
  0
LINE
  5
98
330
1F
100
AcDbEntity
  8
1
  6
Continuous
 62
     7
100
AcDbLine
 10
-613.7736843632746
 20
-2011.348456125144
 30
0.0
 11
-613.7736843632746
 21
-2003.098456125144
 31
0.0
  0
LINE
  5
99
330
1F
100
AcDbEntity
  8
1
  6
Continuous
 62
     7
100
AcDbLine
 10
-626.0050100907818
 20
-2158.098456125144
 30
0.0
 11
-629.5423586357674
 21
-2158.098456125144
 31
0.0
  0
LINE
  5
9A
330
1F
100
AcDbEntity
  8
1
  6
Continuous
 62
     7
100
AcDbLine
 10
-641.7736843632746
 20
-2159.098456125144
 30
0.0
 11
-641.7736843632746
 21
-2151.598456125144
 31
0.0
  0
LINE
  5
9B
330
1F
100
AcDbEntity
  8
1
  6
Continuous
 62
     7
100
AcDbLine
 10
-629.7736843632746
 20
-2004.098456125144
 30
0.0
 11
-625.7736843632746
 21
-2004.098456125144
 31
0.0
  0
LINE
  5
9C
330
1F
100
AcDbEntity
  8
1
  6
Continuous
 62
     7
100
AcDbLine
 10
-641.7736843632746
 20
-2011.348456125144
 30
0.0
 11
-641.7736843632746
 21
-2002.598456125144
 31
0.0
  0
LINE
  5
9D
330
1F
100
AcDbEntity
  8
1
  6
Continuous
 62
     7
100
AcDbLine
 10
-613.7736843632746
 20
-2003.098456125144
 30
0.0
 11
-613.7736843632746
 21
-2002.598456125144
 31
0.0
  0
LINE
  5
9E
330
1F
100
AcDbEntity
  8
1
  6
DOT_CENTER
 62
     2
100
AcDbLine
 10
-913.8936667123445
 20
-2081.098456125144
 30
0.0
 11
-904.9626577567203
 21
-2081.098456125144
 31
0.0
  0
LINE
  5
9F
330
1F
100
AcDbEntity
  8
1
  6
DOT_CENTER
 62
     2
100
AcDbLine
 10
-974.2265651253325
 20
-2081.098456125144
 30
0.0
 11
-928.4836231446905
 21
-2081.098456125144
 31
0.0
  0
LINE
  5
A0
330
1F
100
AcDbEntity
  8
1
  6
DOT_CENTER
 62
     2
100
AcDbLine
 10
-952.4836231446905
 20
-1986.127988634572
 30
0.0
 11
-952.4836231446905
 21
-2011.14527953249
 31
0.0
  0
LINE
  5
A1
330
1F
100
AcDbEntity
  8
1
  6
DOT_CENTER
 62
     2
100
AcDbLine
 10
-959.9836231446906
 20
-2001.848456125144
 30
0.0
 11
-959.9836231446906
 21
-1997.348456125144
 31
0.0
  0
LINE
  5
A2
330
1F
100
AcDbEntity
  8
1
  6
DOT_CENTER
 62
     2
100
AcDbLine
 10
-962.2336231446906
 20
-1999.598456125144
 30
0.0
 11
-957.7336231446906
 21
-1999.598456125144
 31
0.0
  0
LINE
  5
A3
330
1F
100
AcDbEntity
  8
1
  6
DOT_CENTER
 62
     2
100
AcDbLine
 10
-944.9836231446903
 20
-2001.848456125144
 30
0.0
 11
-944.9836231446903
 21
-1997.348456125144
 31
0.0
  0
LINE
  5
A4
330
1F
100
AcDbEntity
  8
1
  6
DOT_CENTER
 62
     2
100
AcDbLine
 10
-947.2336231446903
 20
-1999.598456125144
 30
0.0
 11
-942.7336231446903
 21
-1999.598456125144
 31
0.0
  0
LINE
  5
A5
330
1F
100
AcDbEntity
  8
1
  6
Continuous
 62
     7
100
AcDbLine
 10
-938.4836231446903
 20
-2146.098456125144
 30
0.0
 11
-938.4836231446903
 21
-2159.598456125144
 31
0.0
  0
LINE
  5
A6
330
1F
100
AcDbEntity
  8
1
  6
Continuous
 62
     7
100
AcDbLine
 10
-966.4836231446905
 20
-2146.098456125144
 30
0.0
 11
-966.4836231446905
 21
-2159.598456125144
 31
0.0
  0
LINE
  5
A7
330
1F
100
AcDbEntity
  8
1
  6
Continuous
 62
     7
100
AcDbLine
 10
-966.4836231446905
 20
-2016.098456125144
 30
0.0
 11
-966.4836231446905
 21
-2028.598661780335
 31
0.0
  0
LINE
  5
A8
330
1F
100
AcDbEntity
  8
1
  6
Continuous
 62
     7
100
AcDbLine
 10
-938.4836231446903
 20
-2016.098456125144
 30
0.0
 11
-938.4836231446901
 21
-2081.098456125144
 31
0.0
  0
LINE
  5
A9
330
1F
100
AcDbEntity
  8
1
  6
Continuous
 62
     7
100
AcDbLine
 10
-966.4836231446905
 20
-2002.598456125144
 30
0.0
 11
-966.4836231446905
 21
-2016.098456125144
 31
0.0
  0
LINE
  5
AA
330
1F
100
AcDbEntity
  8
1
  6
Continuous
 62
     7
100
AcDbLine
 10
-938.4836231446903
 20
-2002.598456125144
 30
0.0
 11
-938.4836231446903
 21
-2016.098456125144
 31
0.0
  0
LINE
  5
AB
330
1F
100
AcDbEntity
  8
1
  6
Continuous
 62
     7
100
AcDbLine
 10
-954.4836231446906
 20
-2158.098456125144
 30
0.0
 11
-950.4836231446905
 21
-2158.098456125144
 31
0.0
  0
LINE
  5
AC
330
1F
100
AcDbEntity
  8
1
  6
Continuous
 62
     7
100
AcDbLine
 10
-954.4836231446903
 20
-2004.098456125144
 30
0.0
 11
-950.4836231446901
 21
-2004.098456125144
 31
0.0
  0
LINE
  5
AD
330
1F
100
AcDbEntity
  8
1
  6
Continuous
 62
     7
100
AcDbLine
 10
-966.4836231446905
 20
-2081.098456125144
 30
0.0
 11
-966.4836231446905
 21
-2127.098456125144
 31
0.0
  0
LINE
  5
AE
330
1F
100
AcDbEntity
  8
1
  6
DOT_CENTER
 62
     2
100
AcDbLine
 10
-974.2244054691994
 20
-1973.598456125144
 30
0.0
 11
-971.4836231446905
 21
-1973.598456125144
 31
0.0
  0
LINE
  5
AF
330
1F
100
AcDbEntity
  8
1
  6
DOT_CENTER
 62
     2
100
AcDbLine
 10
-974.2244054691994
 20
-2188.598456125144
 30
0.0
 11
-971.4836231446905
 21
-2188.598456125144
 31
0.0
  0
LINE
  5
B0
330
1F
100
AcDbEntity
  8
1
  6
DOT_CENTER
 62
     2
100
AcDbLine
 10
-907.9181063803675
 20
-1973.598456125144
 30
0.0
 11
-907.9181063803675
 21
-2188.598456125144
 31
0.0
  0
LINE
  5
B1
330
1F
100
AcDbEntity
  8
1
  6
DOT_CENTER
 62
     2
100
AcDbLine
 10
-907.9181063803675
 20
-1973.598456125144
 30
0.0
 11
-904.9626577567203
 21
-1973.598456125144
 31
0.0
  0
LINE
  5
B2
330
1F
100
AcDbEntity
  8
1
  6
DOT_CENTER
 62
     2
100
AcDbLine
 10
-907.9181063803675
 20
-2188.598456125144
 30
0.0
 11
-904.9626577567203
 21
-2188.598456125144
 31
0.0
  0
LINE
  5
B3
330
1F
100
AcDbEntity
  8
1
  6
DOT_CENTER
 62
     2
100
AcDbLine
 10
-907.9181063803675
 20
-2188.598456125144
 30
0.0
 11
-907.9181063803675
 21
-2191.878654234402
 31
0.0
  0
LINE
  5
B4
330
1F
100
AcDbEntity
  8
1
  6
DOT_CENTER
 62
     2
100
AcDbLine
 10
-907.9181063803675
 20
-1973.598456125144
 30
0.0
 11
-907.9181063803675
 21
-1971.21317449647
 31
0.0
  0
LINE
  5
B5
330
1F
100
AcDbEntity
  8
1
  6
DOT_CENTER
 62
     2
100
AcDbLine
 10
-986.4836231446905
 20
-1973.598456125144
 30
0.0
 11
-985.4836231446905
 21
-1973.598456125144
 31
0.0
  0
LINE
  5
B6
330
1F
100
AcDbEntity
  8
1
  6
DOT_CENTER
 62
     2
100
AcDbLine
 10
-986.4836231446905
 20
-2188.598456125144
 30
0.0
 11
-985.4836231446905
 21
-2188.598456125144
 31
0.0
  0
LINE
  5
B7
330
1F
100
AcDbEntity
  8
1
  6
Continuous
 62
     7
100
AcDbLine
 10
-928.4836231446905
 20
-1973.598456125144
 30
0.0
 11
-928.4836231446905
 21
-2081.098456125144
 31
0.0
  0
LINE
  5
B8
330
1F
100
AcDbEntity
  8
1
  6
DOT_CENTER
 62
     2
100
AcDbLine
 10
-928.4836231446905
 20
-1973.598456125144
 30
0.0
 11
-907.9181063803675
 21
-1973.598456125144
 31
0.0
  0
LINE
  5
B9
330
1F
100
AcDbEntity
  8
1
  6
DOT_CENTER
 62
     2
100
AcDbLine
 10
-928.4836231446905
 20
-2188.598456125144
 30
0.0
 11
-907.9181063803675
 21
-2188.598456125144
 31
0.0
  0
LINE
  5
BA
330
1F
100
AcDbEntity
  8
1
  6
DOT_CENTER
 62
     2
100
AcDbLine
 10
-895.3571022010678
 20
-1973.598456125144
 30
0.0
 11
-892.5953498557973
 21
-1973.598456125144
 31
0.0
  0
LINE
  5
BB
330
1F
100
AcDbEntity
  8
1
  6
DOT_CENTER
 62
     2
100
AcDbLine
 10
-895.3571022010678
 20
-2081.098456125144
 30
0.0
 11
-839.5854659298991
 21
-2081.098456125144
 31
0.0
  0
LINE
  5
BC
330
1F
100
AcDbEntity
  8
1
  6
DOT_CENTER
 62
     2
100
AcDbLine
 10
-895.3571022010678
 20
-2188.598456125144
 30
0.0
 11
-892.5953498557973
 21
-2188.598456125144
 31
0.0
  0
LINE
  5
BD
330
1F
100
AcDbEntity
  8
1
  6
DOT_CENTER
 62
     2
100
AcDbLine
 10
-892.5953498557973
 20
-1973.598456125144
 30
0.0
 11
-857.0953498557973
 21
-1973.598456125144
 31
0.0
  0
LINE
  5
BE
330
1F
100
AcDbEntity
  8
1
  6
DOT_CENTER
 62
     2
100
AcDbLine
 10
-892.5953498557973
 20
-2188.598456125144
 30
0.0
 11
-857.0953498557973
 21
-2188.598456125144
 31
0.0
  0
LINE
  5
BF
330
1F
100
AcDbEntity
  8
1
  6
DOT_CENTER
 62
     2
100
AcDbLine
 10
-844.0953498557972
 20
-1973.598456125144
 30
0.0
 11
-839.5854659298991
 21
-1973.598456125144
 31
0.0
  0
LINE
  5
C0
330
1F
100
AcDbEntity
  8
1
  6
DOT_CENTER
 62
     2
100
AcDbLine
 10
-844.0953498557972
 20
-2188.598456125144
 30
0.0
 11
-839.5854659298991
 21
-2188.598456125144
 31
0.0
  0
LINE
  5
C1
330
1F
100
AcDbEntity
  8
1
  6
Continuous
 62
     7
100
AcDbLine
 10
-857.0953498557973
 20
-1973.598456125144
 30
0.0
 11
-857.0953498557973
 21
-1988.598456125144
 31
0.0
  0
LINE
  5
C2
330
1F
100
AcDbEntity
  8
1
  6
DOT_CENTER
 62
     2
100
AcDbLine
 10
-857.0953498557973
 20
-1973.598456125144
 30
0.0
 11
-844.0953498557972
 21
-1973.598456125144
 31
0.0
  0
LINE
  5
C3
330
1F
100
AcDbEntity
  8
1
  6
DOT_CENTER
 62
     2
100
AcDbLine
 10
-857.0953498557973
 20
-2188.598456125144
 30
0.0
 11
-844.0953498557972
 21
-2188.598456125144
 31
0.0
  0
LINE
  5
C4
330
1F
100
AcDbEntity
  8
1
  6
Continuous
 62
     7
100
AcDbLine
 10
-857.0953498557973
 20
-1988.598456125144
 30
0.0
 11
-867.0953498557973
 21
-1988.598456125144
 31
0.0
  0
LINE
  5
C5
330
1F
100
AcDbEntity
  8
1
  6
Continuous
 62
     7
100
AcDbLine
 10
-867.0953498557973
 20
-1988.598456125144
 30
0.0
 11
-867.0953498557973
 21
-2004.098456125144
 31
0.0
  0
LINE
  5
C6
330
1F
100
AcDbEntity
  8
1
  6
Continuous
 62
     7
100
AcDbLine
 10
-867.0953498557973
 20
-2004.098456125144
 30
0.0
 11
-887.0953498557973
 21
-2004.098456125144
 31
0.0
  0
LINE
  5
C7
330
1F
100
AcDbEntity
  8
1
  6
Continuous
 62
     7
100
AcDbLine
 10
-887.0953498557973
 20
-2004.098456125144
 30
0.0
 11
-887.0953498557973
 21
-2158.098456125144
 31
0.0
  0
LINE
  5
C8
330
1F
100
AcDbEntity
  8
1
  6
Continuous
 62
     7
100
AcDbLine
 10
-887.0953498557973
 20
-2158.098456125144
 30
0.0
 11
-867.0953498557973
 21
-2158.098456125144
 31
0.0
  0
LINE
  5
C9
330
1F
100
AcDbEntity
  8
1
  6
Continuous
 62
     7
100
AcDbLine
 10
-867.0953498557973
 20
-2158.098456125144
 30
0.0
 11
-867.0953498557973
 21
-2173.598456125144
 31
0.0
  0
LINE
  5
CA
330
1F
100
AcDbEntity
  8
1
  6
Continuous
 62
     7
100
AcDbLine
 10
-867.0953498557973
 20
-2173.598456125144
 30
0.0
 11
-857.0953498557973
 21
-2173.598456125144
 31
0.0
  0
LINE
  5
CB
330
1F
100
AcDbEntity
  8
1
  6
Continuous
 62
     7
100
AcDbLine
 10
-857.0953498557973
 20
-2173.598456125144
 30
0.0
 11
-857.0953498557973
 21
-2188.598456125144
 31
0.0
  0
LINE
  5
CC
330
1F
100
AcDbEntity
  8
1
  6
Continuous
 62
     7
100
AcDbLine
 10
-938.4836231446901
 20
-2081.098456125144
 30
0.0
 11
-938.4836231446903
 21
-2146.098456125144
 31
0.0
  0
LINE
  5
CD
330
1F
100
AcDbEntity
  8
1
  6
Continuous
 62
     7
100
AcDbLine
 10
-867.0953498557973
 20
-2158.098456125144
 30
0.0
 11
-867.0953498557973
 21
-2147.098456125144
 31
0.0
  0
LINE
  5
CE
330
1F
100
AcDbEntity
  8
1
  6
Continuous
 62
     7
100
AcDbLine
 10
-867.0953498557973
 20
-2004.098456125144
 30
0.0
 11
-867.0953498557973
 21
-2015.098456125144
 31
0.0
  0
LINE
  5
CF
330
1F
100
AcDbEntity
  8
1
  6
Continuous
 62
     7
100
AcDbLine
 10
-844.0953498557972
 20
-2188.598456125144
 30
0.0
 11
-844.0953498557972
 21
-1973.598456125144
 31
0.0
  0
LINE
  5
D0
330
1F
100
AcDbEntity
  8
1
  6
Continuous
 62
     7
100
AcDbLine
 10
-857.0953498557973
 20
-1988.598456125144
 30
0.0
 11
-857.0953498557973
 21
-2029.654184215145
 31
0.0
  0
LINE
  5
D1
330
1F
100
AcDbEntity
  8
1
  6
Continuous
 62
     7
100
AcDbLine
 10
-892.5953498557973
 20
-1973.598456125144
 30
0.0
 11
-892.5953498557973
 21
-2188.598456125144
 31
0.0
  0
LINE
  5
D2
330
1F
100
AcDbEntity
  8
1
  6
DOT_CENTER
 62
     2
100
AcDbLine
 10
-944.7336231446902
 20
-2162.598456125144
 30
0.0
 11
-947.2336231446903
 21
-2162.598456125144
 31
0.0
  0
LINE
  5
D3
330
1F
100
AcDbEntity
  8
1
  6
DOT_CENTER
 62
     2
100
AcDbLine
 10
-944.9836231446903
 20
-2164.848456125144
 30
0.0
 11
-944.9836231446903
 21
-2160.348456125144
 31
0.0
  0
LINE
  5
D4
330
1F
100
AcDbEntity
  8
1
  6
DOT_CENTER
 62
     2
100
AcDbLine
 10
-957.7336231446906
 20
-2162.598456125144
 30
0.0
 11
-962.2336231446906
 21
-2162.598456125144
 31
0.0
  0
LINE
  5
D5
330
1F
100
AcDbEntity
  8
1
  6
DOT_CENTER
 62
     2
100
AcDbLine
 10
-959.9836231446906
 20
-2164.848456125144
 30
0.0
 11
-959.9836231446906
 21
-2160.348456125144
 31
0.0
  0
LINE
  5
D6
330
1F
100
AcDbEntity
  8
1
  6
DOT_CENTER
 62
     2
100
AcDbLine
 10
-936.7733338727293
 20
-2159.598456125144
 30
0.0
 11
-968.2027020319017
 21
-2159.598456125144
 31
0.0
  0
LINE
  5
D7
330
1F
100
AcDbEntity
  8
1
  6
DOT_CENTER
 62
     2
100
AcDbLine
 10
-968.2027020319017
 20
-2002.598456125144
 30
0.0
 11
-936.7733338727293
 21
-2002.598456125144
 31
0.0
  0
LINE
  5
D8
330
1F
100
AcDbEntity
  8
1
  6
Continuous
 62
     7
100
AcDbLine
 10
-641.7736843632746
 20
-2159.598456125144
 30
0.0
 11
-641.7736843632746
 21
-2159.098456125144
 31
0.0
  0
LINE
  5
D9
330
1F
100
AcDbEntity
  8
1
  6
Continuous
 62
     7
100
AcDbLine
 10
-613.7736843632746
 20
-2159.598456125144
 30
0.0
 11
-613.7736843632746
 21
-2159.098456125144
 31
0.0
  0
LINE
  5
DA
330
1F
100
AcDbEntity
  8
1
  6
DOT_CENTER
 62
     2
100
AcDbLine
 10
-611.1880553893086
 20
-2159.598456125144
 30
0.0
 11
-643.7089450816683
 21
-2159.598456125144
 31
0.0
  0
LINE
  5
DB
330
1F
100
AcDbEntity
  8
1
  6
DOT_CENTER
 62
     2
100
AcDbLine
 10
-643.7089450816683
 20
-2002.598456125144
 30
0.0
 11
-611.1880553893086
 21
-2002.598456125144
 31
0.0
  0
LINE
  5
DC
330
1F
100
AcDbEntity
  8
1
  6
DOT_CENTER
 62
     2
100
AcDbLine
 10
-635.2736843632746
 20
-2164.848456125144
 30
0.0
 11
-635.2736843632746
 21
-2160.348456125144
 31
0.0
  0
LINE
  5
DD
330
1F
100
AcDbEntity
  8
1
  6
Continuous
 62
     7
100
AcDbLine
 10
-625.5526236477893
 20
-2158.098456125144
 30
0.0
 11
-626.0050100907818
 21
-2158.098456125144
 31
0.0
  0
LINE
  5
DE
330
1F
100
AcDbEntity
  8
1
  6
Continuous
 62
     7
100
AcDbLine
 10
-613.7736843632746
 20
-2159.098456125144
 30
0.0
 11
-613.7736843632746
 21
-2151.592452532702
 31
0.0
  0
LINE
  5
DF
330
1F
100
AcDbEntity
  8
1
  6
DOT_CENTER
 62
     2
100
AcDbLine
 10
-627.7736843632746
 20
-2181.31274922049
 30
0.0
 11
-627.7736843632746
 21
-1979.906724052064
 31
0.0
  0
LINE
  5
E0
330
1F
100
AcDbEntity
  8
1
  6
Continuous
 62
     7
100
AcDbLine
 10
-721.4870178570025
 20
-2148.098456125144
 30
0.0
 11
-721.4870178570025
 21
-2158.098456125144
 31
0.0
  0
LINE
  5
E1
330
1F
100
AcDbEntity
  8
1
  6
Continuous
 62
     7
100
AcDbLine
 10
-721.4870178570025
 20
-2015.098456125144
 30
0.0
 11
-721.4870178570025
 21
-2004.098456125144
 31
0.0
  0
LINE
  5
E2
330
1F
100
AcDbEntity
  8
1
  6
DOT_CENTER
 62
     2
100
AcDbLine
 10
-734.0798340548355
 20
-2081.098456125144
 30
0.0
 11
-677.5277559382434
 21
-2081.098456125144
 31
0.0
  0
LINE
  5
E3
330
1F
100
AcDbEntity
  8
1
  6
DOT_CENTER
 62
     2
100
AcDbLine
 10
-679.4870178570025
 20
-1971.555656255323
 30
0.0
 11
-679.4870178570025
 21
-1973.598456125144
 31
0.0
  0
LINE
  5
E4
330
1F
100
AcDbEntity
  8
1
  6
DOT_CENTER
 62
     2
100
AcDbLine
 10
-679.4870178570025
 20
-2191.711390307271
 30
0.0
 11
-679.4870178570025
 21
-2188.598456125144
 31
0.0
  0
LINE
  5
E5
330
1F
100
AcDbEntity
  8
1
  6
DOT_CENTER
 62
     2
100
AcDbLine
 10
-679.4870178570025
 20
-2188.598456125144
 30
0.0
 11
-679.4870178570025
 21
-1973.598456125144
 31
0.0
  0
LINE
  5
E6
330
1F
100
AcDbEntity
  8
1
  6
Continuous
 62
     7
100
AcDbLine
 10
-731.4870178570025
 20
-2188.598456125144
 30
0.0
 11
-731.4870178570025
 21
-2173.598456125144
 31
0.0
  0
LINE
  5
E7
330
1F
100
AcDbEntity
  8
1
  6
Continuous
 62
     7
100
AcDbLine
 10
-731.4870178570025
 20
-2173.598456125144
 30
0.0
 11
-721.4870178570025
 21
-2173.598456125144
 31
0.0
  0
LINE
  5
E8
330
1F
100
AcDbEntity
  8
1
  6
Continuous
 62
     7
100
AcDbLine
 10
-721.4870178570025
 20
-2173.598456125144
 30
0.0
 11
-721.4870178570025
 21
-2158.098456125144
 31
0.0
  0
LINE
  5
E9
330
1F
100
AcDbEntity
  8
1
  6
Continuous
 62
     7
100
AcDbLine
 10
-721.4870178570025
 20
-2158.098456125144
 30
0.0
 11
-688.4870178570025
 21
-2158.098456125144
 31
0.0
  0
LINE
  5
EA
330
1F
100
AcDbEntity
  8
1
  6
Continuous
 62
     7
100
AcDbLine
 10
-688.4870178570025
 20
-2004.098456125144
 30
0.0
 11
-721.4870178570025
 21
-2004.098456125144
 31
0.0
  0
LINE
  5
EB
330
1F
100
AcDbEntity
  8
1
  6
Continuous
 62
     7
100
AcDbLine
 10
-721.4870178570025
 20
-2004.098456125144
 30
0.0
 11
-721.4870178570025
 21
-1988.598456125144
 31
0.0
  0
LINE
  5
EC
330
1F
100
AcDbEntity
  8
1
  6
Continuous
 62
     7
100
AcDbLine
 10
-731.4870178570025
 20
-2173.598456125144
 30
0.0
 11
-731.4870178570025
 21
-2132.542728035143
 31
0.0
  0
LINE
  5
ED
330
1F
100
AcDbEntity
  8
1
  6
Continuous
 62
     7
100
AcDbLine
 10
-721.4870178570025
 20
-1988.598456125144
 30
0.0
 11
-731.4870178570025
 21
-1988.598456125144
 31
0.0
  0
LINE
  5
EE
330
1F
100
AcDbEntity
  8
1
  6
Continuous
 62
     7
100
AcDbLine
 10
-731.4870178570025
 20
-1988.598456125144
 30
0.0
 11
-731.4870178570025
 21
-1973.598456125144
 31
0.0
  0
LINE
  5
EF
330
1F
100
AcDbEntity
  8
1
  6
DOT_CENTER
 62
     2
100
AcDbLine
 10
-734.1697267995559
 20
-2188.598456125144
 30
0.0
 11
-731.4870178570025
 21
-2188.598456125144
 31
0.0
  0
LINE
  5
F0
330
1F
100
AcDbEntity
  8
1
  6
DOT_CENTER
 62
     2
100
AcDbLine
 10
-731.4870178570025
 20
-2188.598456125144
 30
0.0
 11
-679.4870178570025
 21
-2188.598456125144
 31
0.0
  0
LINE
  5
F1
330
1F
100
AcDbEntity
  8
1
  6
DOT_CENTER
 62
     2
100
AcDbLine
 10
-684.4870178570025
 20
-2188.598456125144
 30
0.0
 11
-676.3478554449367
 21
-2188.598456125144
 31
0.0
  0
LINE
  5
F2
330
1F
100
AcDbEntity
  8
1
  6
DOT_CENTER
 62
     2
100
AcDbLine
 10
-734.1697267995559
 20
-1973.598456125144
 30
0.0
 11
-731.4870178570025
 21
-1973.598456125144
 31
0.0
  0
LINE
  5
F3
330
1F
100
AcDbEntity
  8
1
  6
DOT_CENTER
 62
     2
100
AcDbLine
 10
-731.4870178570025
 20
-1973.598456125144
 30
0.0
 11
-679.4870178570025
 21
-1973.598456125144
 31
0.0
  0
LINE
  5
F4
330
1F
100
AcDbEntity
  8
1
  6
DOT_CENTER
 62
     2
100
AcDbLine
 10
-684.4870178570025
 20
-1973.598456125144
 30
0.0
 11
-676.3478554449367
 21
-1973.598456125144
 31
0.0
  0
LINE
  5
F5
330
1F
100
AcDbEntity
  8
1
  6
DOT_CENTER
 62
     2
100
AcDbLine
 10
-651.9513575378124
 20
-2081.098456125144
 30
0.0
 11
-607.2709418583195
 21
-2081.098456125144
 31
0.0
  0
LINE
  5
F6
330
1F
100
AcDbEntity
  8
1
  6
DOT_CENTER
 62
     2
100
AcDbLine
 10
-651.9513575378124
 20
-2188.598456125144
 30
0.0
 11
-649.7736843632746
 21
-2188.598456125144
 31
0.0
  0
LINE
  5
F7
330
1F
100
AcDbEntity
  8
1
  6
DOT_CENTER
 62
     2
100
AcDbLine
 10
-651.9513575378124
 20
-1973.598456125144
 30
0.0
 11
-649.7736843632746
 21
-1973.598456125144
 31
0.0
  0
LINE
  5
F8
330
1F
100
AcDbEntity
  8
1
  6
DOT_CENTER
 62
     2
100
AcDbLine
 10
-649.7736843632746
 20
-2188.598456125144
 30
0.0
 11
-605.7736843632747
 21
-2188.598456125144
 31
0.0
  0
LINE
  5
F9
330
1F
100
AcDbEntity
  8
1
  6
DOT_CENTER
 62
     2
100
AcDbLine
 10
-649.7736843632746
 20
-1973.598456125144
 30
0.0
 11
-605.7736843632747
 21
-1973.598456125144
 31
0.0
  0
LINE
  5
FA
330
1F
100
AcDbEntity
  8
1
  6
DOT_CENTER
 62
     2
100
AcDbLine
 10
-605.7736843632747
 20
-2188.598456125144
 30
0.0
 11
-603.2709418583195
 21
-2188.598456125144
 31
0.0
  0
LINE
  5
FB
330
1F
100
AcDbEntity
  8
1
  6
DOT_CENTER
 62
     2
100
AcDbLine
 10
-605.7736843632747
 20
-1973.598456125144
 30
0.0
 11
-603.2709418583195
 21
-1973.598456125144
 31
0.0
  0
LINE
  5
FC
330
1F
100
AcDbEntity
  8
1
  6
Continuous
 62
     7
100
AcDbLine
 10
-605.7736843632747
 20
-1973.598456125144
 30
0.0
 11
-605.7736843632747
 21
-2188.598456125144
 31
0.0
  0
LINE
  5
FD
330
1F
100
AcDbEntity
  8
1
  6
Continuous
 62
     7
100
AcDbLine
 10
-641.7736843632746
 20
-2151.598456125144
 30
0.0
 11
-641.7736843632746
 21
-2011.348456125144
 31
0.0
  0
LINE
  5
FE
330
1F
100
AcDbEntity
  8
1
  6
Continuous
 62
     7
100
AcDbLine
 10
-649.7736843632746
 20
-1973.598456125144
 30
0.0
 11
-649.7736843632746
 21
-2188.598456125144
 31
0.0
  0
LINE
  5
FF
330
1F
100
AcDbEntity
  8
1
  6
Continuous
 62
     7
100
AcDbLine
 10
-688.4870178570025
 20
-2158.098456125144
 30
0.0
 11
-688.4870178570025
 21
-2004.098456125144
 31
0.0
  0
LINE
  5
100
330
1F
100
AcDbEntity
  8
1
  6
DOT_CENTER
 62
     2
100
AcDbLine
 10
-618.0236843632746
 20
-1999.598456125144
 30
0.0
 11
-622.5236843632746
 21
-1999.598456125144
 31
0.0
  0
LINE
  5
101
330
1F
100
AcDbEntity
  8
1
  6
DOT_CENTER
 62
     2
100
AcDbLine
 10
-620.2736843632746
 20
-2001.848456125144
 30
0.0
 11
-620.2736843632746
 21
-1997.348456125144
 31
0.0
  0
LINE
  5
102
330
1F
100
AcDbEntity
  8
1
  6
DOT_CENTER
 62
     2
100
AcDbLine
 10
-635.2736843632746
 20
-1997.348456125144
 30
0.0
 11
-635.2736843632746
 21
-2001.848456125144
 31
0.0
  0
LINE
  5
103
330
1F
100
AcDbEntity
  8
1
  6
DOT_CENTER
 62
     2
100
AcDbLine
 10
-633.0236843632746
 20
-1999.598456125144
 30
0.0
 11
-637.5236843632746
 21
-1999.598456125144
 31
0.0
  0
LINE
  5
104
330
1F
100
AcDbEntity
  8
1
  6
DOT_CENTER
 62
     2
100
AcDbLine
 10
-620.2736843632746
 20
-2164.848456125144
 30
0.0
 11
-620.2736843632746
 21
-2160.348456125144
 31
0.0
  0
LINE
  5
105
330
1F
100
AcDbEntity
  8
1
  6
DOT_CENTER
 62
     2
100
AcDbLine
 10
-622.5236843632746
 20
-2162.598456125144
 30
0.0
 11
-618.0236843632746
 21
-2162.598456125144
 31
0.0
  0
LINE
  5
106
330
1F
100
AcDbEntity
  8
1
  6
DOT_CENTER
 62
     2
100
AcDbLine
 10
-637.5236843632746
 20
-2162.598456125144
 30
0.0
 11
-633.0236843632746
 21
-2162.598456125144
 31
0.0
  0
LINE
  5
107
330
1F
100
AcDbEntity
  8
1
  6
DOT_CENTER
 62
     2
100
AcDbLine
 10
-952.4836231446905
 20
-2021.541961874453
 30
0.0
 11
-952.4836231446905
 21
-2183.240710844203
 31
0.0
  0
LINE
  5
108
330
1F
100
AcDbEntity
  8
1
  6
Continuous
 62
     7
100
AcDbLine
 10
-790.6970366405628
 20
-2108.720803467267
 30
0.0
 11
-790.6970366392561
 21
-2102.720803467266
 31
0.0
  0
LINE
  5
109
330
1F
100
AcDbEntity
  8
1
  6
Continuous
 62
     7
100
AcDbLine
 10
-790.6970366484002
 20
-2144.720803467267
 30
0.0
 11
-790.6970366484002
 21
-2140.720803467266
 31
0.0
  0
ARC
  5
10A
330
1F
100
AcDbEntity
  8
1
  6
Continuous
 62
     7
100
AcDbCircle
 10
-621.7736843632746
 20
-2124.653956125144
 30
0.0
 40
12.00000000000012
100
AcDbArc
 50
-48.1896851042219
 51
0.0
  0
ARC
  5
10B
330
1F
100
AcDbEntity
  8
1
  6
Continuous
 62
     7
100
AcDbCircle
 10
-621.7736843632746
 20
-2037.542956125144
 30
0.0
 40
12.0
100
AcDbArc
 50
0.0
 51
48.18968510422045
  0
ARC
  5
10C
330
1F
100
AcDbEntity
  8
1
  6
Continuous
 62
     7
100
AcDbCircle
 10
-625.7788168692838
 20
-2146.095454328754
 30
0.0
 40
12.00513288129676
100
AcDbArc
 50
-91.07959520203086
 51
-88.92040479798597
  0
ARC
  5
10D
330
1F
100
AcDbEntity
  8
1
  6
Continuous
 62
     7
100
AcDbCircle
 10
-625.7788168692838
 20
-2146.095454328754
 30
0.0
 40
12.0051328812967
100
AcDbArc
 50
-88.92040479798597
 51
0.01432639257202
  0
ARC
  5
10E
330
1F
100
AcDbEntity
  8
1
  6
Continuous
 62
     7
100
AcDbCircle
 10
-629.7685518572654
 20
-2146.095454328754
 30
0.0
 40
12.00513288129791
100
AcDbArc
 50
-179.9856736058154
 51
-88.92040479796914
  0
ARC
  5
10F
330
1F
100
AcDbEntity
  8
1
  6
Continuous
 62
     7
100
AcDbCircle
 10
-625.7930113371722
 20
-2016.138705041754
 30
0.0
 40
12.0402644284017
100
AcDbArc
 50
-3.37943823176513
 51
89.90802905391146
  0
ARC
  5
110
330
1F
100
AcDbEntity
  8
1
  6
Continuous
 62
     7
100
AcDbCircle
 10
-629.754357389377
 20
-2016.138705041754
 30
0.0
 40
12.04026442840239
100
AcDbArc
 50
90.09197094608854
 51
-176.6205617682349
  0
ARC
  5
111
330
1F
100
AcDbEntity
  8
1
  6
Continuous
 62
     7
100
AcDbCircle
 10
-950.4836231446901
 20
-2016.098456125144
 30
0.0
 40
11.99999999999977
100
AcDbArc
 50
0.0
 51
90.0
  0
ARC
  5
112
330
1F
100
AcDbEntity
  8
1
  6
Continuous
 62
     7
100
AcDbCircle
 10
-954.4836231446903
 20
-2016.098456125144
 30
0.0
 40
12.0
100
AcDbArc
 50
90.0
 51
180.0
  0
ARC
  5
113
330
1F
100
AcDbEntity
  8
1
  6
Continuous
 62
     7
100
AcDbCircle
 10
-950.4836231446905
 20
-2146.098456125144
 30
0.0
 40
12.0
100
AcDbArc
 50
-90.0
 51
0.0
  0
ARC
  5
114
330
1F
100
AcDbEntity
  8
1
  6
Continuous
 62
     7
100
AcDbCircle
 10
-954.4836231446906
 20
-2146.098456125144
 30
0.0
 40
11.99999999999989
100
AcDbArc
 50
180.0
 51
-90.0
  0
CIRCLE
  5
115
330
1F
100
AcDbEntity
  8
1
  6
DOT_CENTER
 62
     2
100
AcDbCircle
 10
-629.7736843632746
 20
-2159.598456125144
 30
0.0
 40
12.0
  0
CIRCLE
  5
116
330
1F
100
AcDbEntity
  8
1
  6
DOT_CENTER
 62
     2
100
AcDbCircle
 10
-950.4836231446903
 20
-2157.598456125144
 30
0.0
 40
12.0
  0
CIRCLE
  5
117
330
1F
100
AcDbEntity
  8
1
  6
Continuous
 62
     7
100
AcDbCircle
 10
-959.9836231446906
 20
-1999.598456125144
 30
0.0
 40
1.5
  0
CIRCLE
  5
118
330
1F
100
AcDbEntity
  8
1
  6
Continuous
 62
     7
100
AcDbCircle
 10
-944.9836231446903
 20
-1999.598456125144
 30
0.0
 40
1.5
  0
CIRCLE
  5
119
330
1F
100
AcDbEntity
  8
1
  6
Continuous
 62
     7
100
AcDbCircle
 10
-944.9836231446903
 20
-2162.598456125144
 30
0.0
 40
1.5
  0
CIRCLE
  5
11A
330
1F
100
AcDbEntity
  8
1
  6
Continuous
 62
     7
100
AcDbCircle
 10
-959.9836231446906
 20
-2162.598456125144
 30
0.0
 40
1.5
  0
CIRCLE
  5
11B
330
1F
100
AcDbEntity
  8
1
  6
Continuous
 62
     7
100
AcDbCircle
 10
-620.2736843632746
 20
-1999.598456125144
 30
0.0
 40
1.5
  0
CIRCLE
  5
11C
330
1F
100
AcDbEntity
  8
1
  6
Continuous
 62
     7
100
AcDbCircle
 10
-635.2736843632746
 20
-1999.598456125144
 30
0.0
 40
1.5
  0
CIRCLE
  5
11D
330
1F
100
AcDbEntity
  8
1
  6
Continuous
 62
     7
100
AcDbCircle
 10
-620.2736843632746
 20
-2162.598456125144
 30
0.0
 40
1.5
  0
CIRCLE
  5
11E
330
1F
100
AcDbEntity
  8
1
  6
Continuous
 62
     7
100
AcDbCircle
 10
-635.2736843632746
 20
-2162.598456125144
 30
0.0
 40
1.5
  0
XLINE
  5
11F
330
1F
100
AcDbEntity
  8
1
  6
DOT_CENTER
 62
     3
 60
     1
100
AcDbXline
 10
-769.1970366405627
 20
-2108.72080347173
 30
0.0
 11
-2.075763023999877E-10
 21
-1.0
 31
0.0
  0
XLINE
  5
120
330
1F
100
AcDbEntity
  8
1
  6
DOT_CENTER
 62
     3
 60
     1
100
AcDbXline
 10
-770.6970366475298
 20
-2108.72080347173
 30
0.0
 11
-1.0
 21
0.0
 31
0.0
  0
XLINE
  5
121
330
1F
100
AcDbEntity
  8
1
  6
DOT_CENTER
 62
     3
 60
     1
100
AcDbXline
 10
-651.9513575378124
 20
-2081.098456125144
 30
0.0
 11
1.0
 21
0.0
 31
0.0
  0
XLINE
  5
122
330
1F
100
AcDbEntity
  8
1
  6
DOT_CENTER
 62
     3
 60
     1
100
AcDbXline
 10
-627.7736843632746
 20
-2181.31274922049
 30
0.0
 11
0.0
 21
1.0
 31
0.0
  0
XLINE
  5
123
330
1F
100
AcDbEntity
  8
1
  6
DOT_CENTER
 62
     3
 60
     1
100
AcDbXline
 10
-613.7736843632746
 20
-2016.848456125144
 30
0.0
 11
1.0
 21
0.0
 31
0.0
  0
XLINE
  5
124
330
1F
100
AcDbEntity
  8
1
  6
DOT_CENTER
 62
     3
 60
     1
100
AcDbXline
 10
-627.7736843632746
 20
-2181.31274922049
 30
0.0
 11
0.0
 21
1.0
 31
0.0
  0
XLINE
  5
125
330
1F
100
AcDbEntity
  8
1
  6
DOT_CENTER
 62
     3
 60
     1
100
AcDbXline
 10
-641.7736843632746
 20
-2016.848456125144
 30
0.0
 11
-1.0
 21
0.0
 31
0.0
  0
ARC
  5
126
330
1F
100
AcDbEntity
  8
1
  6
Continuous
 62
     7
100
AcDbCircle
 10
-627.7736843632746
 20
-2002.598456125144
 30
0.0
 40
14.0
100
AcDbArc
 50
0.0
 51
90.0
  0
ARC
  5
127
330
1F
100
AcDbEntity
  8
1
  6
Continuous
 62
     7
100
AcDbCircle
 10
-627.7736843632746
 20
-2002.598456125144
 30
0.0
 40
14.0
100
AcDbArc
 50
90.0
 51
180.0
  0
ARC
  5
128
330
1F
100
AcDbEntity
  8
1
  6
Continuous
 62
     7
100
AcDbCircle
 10
-627.7736843632746
 20
-2159.598456125144
 30
0.0
 40
14.0
100
AcDbArc
 50
180.0
 51
-90.0
  0
ARC
  5
129
330
1F
100
AcDbEntity
  8
1
  6
Continuous
 62
     7
100
AcDbCircle
 10
-627.7736843632746
 20
-2159.598456125144
 30
0.0
 40
14.0
100
AcDbArc
 50
-90.0
 51
0.0
  0
ARC
  5
12A
330
1F
100
AcDbEntity
  8
1
  6
Continuous
 62
     7
100
AcDbCircle
 10
-952.4836231446905
 20
-2002.598456125144
 30
0.0
 40
14.00000000000011
100
AcDbArc
 50
0.0
 51
89.99999999999955
  0
ARC
  5
12B
330
1F
100
AcDbEntity
  8
1
  6
Continuous
 62
     7
100
AcDbCircle
 10
-952.4836231446905
 20
-2002.598456125144
 30
0.0
 40
14.0
100
AcDbArc
 50
89.99999999999955
 51
180.0
  0
ARC
  5
12C
330
1F
100
AcDbEntity
  8
1
  6
Continuous
 62
     7
100
AcDbCircle
 10
-952.4836231446905
 20
-2159.598456125144
 30
0.0
 40
14.0
100
AcDbArc
 50
-89.99999999999861
 51
0.0
  0
ARC
  5
12D
330
1F
100
AcDbEntity
  8
1
  6
Continuous
 62
     7
100
AcDbCircle
 10
-952.4836231446905
 20
-2159.598456125144
 30
0.0
 40
14.0
100
AcDbArc
 50
180.0
 51
-89.99999999999861
  0
MTEXT
  5
12F
330
1F
100
AcDbEntity
  8
1
 62
     3
100
AcDbMText
 10
-833.7094022836402
 20
-2183.780566872272
 30
0.0
 40
5.0
 41
0.0
 71
     4
 72
     1
  1
Fräsbild\PBlockzarge\PRahmen
  7
CONVERTER_11
 73
     1
 44
1.32052821128451
  0
MTEXT
  5
130
330
1F
100
AcDbEntity
  8
1
 62
     3
100
AcDbMText
 10
-774.5903844518234
 20
-2177.375840613738
 30
0.0
 40
5.0
 41
0.0
 71
     4
 72
     1
  1
Fräsbild\PFlügel
  7
CONVERTER_11
 73
     1
 44
1.32052821128451
  0
DIMENSION
  5
13B
330
1F
100
AcDbEntity
  8
1
100
AcDbDimension
  2
*D1
 10
-794.1970366505441
 20
-2153.11053823605
 30
0.0
 11
-800.316884520069
 21
-2149.36053823605
 31
0.0
 70
    32
  1
<>
 71
     5
 42
-1.0
 53
0.00013888888889
  3
ME10_DIM_10
100
AcDbAlignedDimension
 13
-806.1970366505441
 23
-2130.720803473886
 33
0.0
 14
-794.1970366505441
 24
-2144.720803473886
 34
0.0
100
AcDbRotatedDimension
  0
DIMENSION
  5
146
330
1F
100
AcDbEntity
  8
1
100
AcDbDimension
  2
*D2
 10
-770.6970366475298
 20
-2153.11053823605
 30
0.0
 11
-781.499694075263
 21
-2149.36053823605
 31
0.0
 70
    32
  1
<>
 71
     5
 42
-1.0
 53
0.00013888888889
  3
ME10_DIM_11
100
AcDbAlignedDimension
 13
-790.6970366484002
 23
-2144.720803467267
 33
0.0
 14
-770.6970366475298
 24
-2140.720803472051
 34
0.0
100
AcDbRotatedDimension
  0
DIMENSION
  5
151
330
1F
100
AcDbEntity
  8
1
100
AcDbDimension
  2
*D3
 10
-978.7336231446905
 20
-2035.098456125144
 30
0.0
 11
-982.4836231446905
 21
-2082.109445136133
 31
0.0
 70
    32
  1
<>
 71
     5
 42
-1.0
 53
90.0
  3
ME10_DIM_12
100
AcDbAlignedDimension
 13
-966.4836231446905
 23
-2127.098456125144
 33
0.0
 14
-971.4836231446905
 24
-2035.098456125144
 34
0.0
 50
90.0
100
AcDbRotatedDimension
  0
DIMENSION
  5
15E
330
1F
100
AcDbEntity
  8
1
100
AcDbDimension
  2
*D4
 10
-971.4836231446905
 20
-2198.15301575083
 30
0.0
 11
-960.514306993015
 21
-2194.40301575083
 31
0.0
 70
    32
  1
<>
 71
     5
 42
-1.0
 53
0.00013888888889
  3
ME10_DIM_13
100
AcDbAlignedDimension
 13
-966.4836231446905
 23
-2081.098456125144
 33
0.0
 14
-971.4836231446905
 24
-2124.351456125144
 34
0.0
100
AcDbRotatedDimension
  0
DIMENSION
  5
169
330
1F
100
AcDbEntity
  8
1
100
AcDbDimension
  2
*D5
 10
-597.27300475196
 20
-2028.598684215145
 30
0.0
 11
-601.02300475196
 21
-2083.865547959162
 31
0.0
 70
    32
  1
<>
 71
     5
 42
-1.0
 53
90.0
  3
ME10_DIM_14
100
AcDbAlignedDimension
 13
-613.7736843632746
 23
-2133.598228035143
 33
0.0
 14
-613.7736843632746
 24
-2028.598684215145
 34
0.0
 50
90.0
100
AcDbRotatedDimension
  0
DIMENSION
  5
176
330
1F
100
AcDbEntity
  8
1
100
AcDbDimension
  2
*D6
 10
-605.7736843632747
 20
-2197.1038584208
 30
0.0
 11
-610.3307446869006
 21
-2193.3538584208
 31
0.0
 70
    32
  1
<>
 71
     5
 42
-1.0
 53
0.00013888888889
  3
ME10_DIM_15
100
AcDbAlignedDimension
 13
-613.7736843632746
 23
-2151.592452532702
 33
0.0
 14
-605.7736843632747
 24
-2188.598456125144
 34
0.0
100
AcDbRotatedDimension
  0
DIMENSION
  5
183
330
1F
100
AcDbEntity
  8
1
100
AcDbDimension
  2
*D7
 10
-609.7736843632746
 20
-2112.89794294087
 30
0.0
 11
-616.8868537794576
 21
-2109.14794294087
 31
0.0
 70
    32
  1
<>
 71
     5
 42
-1.0
 53
0.00013888888889
  3
ME10_DIM_16
100
AcDbAlignedDimension
 13
-613.7736843632746
 23
-2151.592452532702
 33
0.0
 14
-609.7736843632746
 24
-2124.597956125144
 34
0.0
100
AcDbRotatedDimension
  0
DIMENSION
  5
18E
330
1F
100
AcDbEntity
  8
1
100
AcDbDimension
  2
*D8
 10
-653.605126730845
 20
-2004.098456125143
 30
0.0
 11
-657.355126730845
 21
-2081.025198166552
 31
0.0
 70
    32
  1
<>
 71
     5
 42
-1.0
 53
90.0
  3
ME10_DIM_17
100
AcDbAlignedDimension
 13
-626.0050100907818
 23
-2158.098456125144
 33
0.0
 14
-629.7736843632746
 24
-2004.098456125144
 34
0.0
 50
90.0
100
AcDbRotatedDimension
  0
DIMENSION
  5
199
330
1F
100
AcDbEntity
  8
1
100
AcDbDimension
  2
*D9
 10
-661.860970471382
 20
-1999.598456125144
 30
0.0
 11
-665.610970471382
 21
-2081.139649850403
 31
0.0
 70
    32
  1
<>
 71
     5
 42
-1.0
 53
90.0
  3
ME10_DIM_18
100
AcDbAlignedDimension
 13
-637.5236843632746
 23
-2162.598456125144
 33
0.0
 14
-637.5236843632746
 24
-1999.598456125144
 34
0.0
 50
90.0
100
AcDbRotatedDimension
  0
DIMENSION
  5
1A4
330
1F
100
AcDbEntity
  8
1
100
AcDbDimension
  2
*D10
 10
-669.166897804723
 20
-1988.598456125144
 30
0.0
 11
-672.916897804723
 21
-2081.138781117701
 31
0.0
 70
    32
  1
<>
 71
     5
 42
-1.0
 53
90.0
  3
ME10_DIM_19
100
AcDbAlignedDimension
 13
-627.7736843632746
 23
-2173.598456125144
 33
0.0
 14
-627.7736843632746
 24
-1988.598456125144
 34
0.0
 50
90.0
100
AcDbRotatedDimension
  0
DIMENSION
  5
1AF
330
1F
100
AcDbEntity
  8
1
100
AcDbDimension
  2
*D11
 10
-898.828323460802
 20
-1988.598456125144
 30
0.0
 11
-902.578323460802
 21
-2081.14591508642
 31
0.0
 70
    32
  1
<>
 71
     5
 42
-1.0
 53
90.0
  3
ME10_DIM_20
100
AcDbAlignedDimension
 13
-952.4836231446901
 23
-2173.598456125144
 33
0.0
 14
-952.4836231446903
 24
-1988.598456125144
 34
0.0
 50
90.0
100
AcDbRotatedDimension
  0
DIMENSION
  5
1BA
330
1F
100
AcDbEntity
  8
1
100
AcDbDimension
  2
*D12
 10
-959.9836231446906
 20
-2018.048637297932
 30
0.0
 11
-952.1356694218001
 21
-2014.298637297932
 31
0.0
 70
    32
  1
<>
 71
     5
 42
-1.0
 53
0.00013888888889
  3
ME10_DIM_21
100
AcDbAlignedDimension
 13
-944.9836231446903
 23
-2001.848456125144
 33
0.0
 14
-959.9836231446906
 24
-2001.848456125144
 34
0.0
100
AcDbRotatedDimension
  0
DIMENSION
  5
1C5
330
1F
100
AcDbEntity
  8
1
100
AcDbDimension
  2
*D13
 10
-620.2736843632746
 20
-2017.9629972875
 30
0.0
 11
-625.0651849658676
 21
-2014.2129972875
 31
0.0
 70
    32
  1
<>
 71
     5
 42
-1.0
 53
0.00013888888889
  3
ME10_DIM_22
100
AcDbAlignedDimension
 13
-635.2736843632746
 23
-2001.848456125144
 33
0.0
 14
-620.2736843632746
 24
-2001.848456125144
 34
0.0
100
AcDbRotatedDimension
  0
DIMENSION
  5
1D0
330
1F
100
AcDbEntity
  8
1
100
AcDbDimension
  2
*D14
 10
-613.7736843632746
 20
-2196.92192142862
 30
0.0
 11
-626.8389050328184
 21
-2193.17192142862
 31
0.0
 70
    32
  1
<>
 71
     5
 42
-1.0
 53
0.00013888888889
  3
ME10_DIM_23
100
AcDbAlignedDimension
 13
-641.7736843632746
 23
-2159.598456125144
 33
0.0
 14
-613.7736843632746
 24
-2159.598456125144
 34
0.0
100
AcDbRotatedDimension
  0
DIMENSION
  5
1DB
330
1F
100
AcDbEntity
  8
1
100
AcDbDimension
  2
*D15
 10
-731.4870178570025
 20
-2199.83424790924
 30
0.0
 11
-709.9193135598276
 21
-2196.08424790924
 31
0.0
 70
    32
  1
<>
 71
     5
 42
-1.0
 53
0.00013888888889
  3
ME10_DIM_24
100
AcDbAlignedDimension
 13
-688.4870178570025
 23
-2158.098456125144
 33
0.0
 14
-731.4870178570025
 24
-2173.598456125144
 34
0.0
100
AcDbRotatedDimension
  0
DIMENSION
  5
1E6
330
1F
100
AcDbEntity
  8
1
100
AcDbDimension
  2
*D16
 10
-721.4870178570025
 20
-2196.19550806556
 30
0.0
 11
-726.0055061930123
 21
-2192.44550806556
 31
0.0
 70
    32
  1
<>
 71
     5
 42
-1.0
 53
0.00013888888889
  3
ME10_DIM_25
100
AcDbAlignedDimension
 13
-731.4870178570025
 23
-2188.598456125144
 33
0.0
 14
-721.4870178570025
 24
-2173.598456125144
 34
0.0
100
AcDbRotatedDimension
  0
DIMENSION
  5
1F1
330
1F
100
AcDbEntity
  8
1
100
AcDbDimension
  2
*D17
 10
-867.0953498557973
 20
-2197.4858530749
 30
0.0
 11
-863.0277160307292
 21
-2193.7358530749
 31
0.0
 70
    32
  1
<>
 71
     5
 42
-1.0
 53
0.00013888888889
  3
ME10_DIM_26
100
AcDbAlignedDimension
 13
-857.0953498557973
 23
-2188.598456125144
 33
0.0
 14
-867.0953498557973
 24
-2173.598456125144
 34
0.0
100
AcDbRotatedDimension
  0
DIMENSION
  5
1FC
330
1F
100
AcDbEntity
  8
1
100
AcDbDimension
  2
*D18
 10
-857.0953498557973
 20
-2209.3417343483
 30
0.0
 11
-872.311150580918
 21
-2205.5917343483
 31
0.0
 70
    32
  1
<>
 71
     5
 42
-1.0
 53
0.00013888888889
  3
ME10_DIM_27
100
AcDbAlignedDimension
 13
-887.0953498557973
 23
-2158.098456125144
 33
0.0
 14
-857.0953498557973
 24
-2173.598456125144
 34
0.0
100
AcDbRotatedDimension
  0
DIMENSION
  5
207
330
1F
100
AcDbEntity
  8
1
100
AcDbDimension
  2
*D19
 10
-914.672193030619
 20
-1999.598456125144
 30
0.0
 11
-918.422193030619
 21
-2081.24946978949
 31
0.0
 70
    32
  1
<>
 71
     5
 42
-1.0
 53
90.0
  3
ME10_DIM_28
100
AcDbAlignedDimension
 13
-944.7336231446902
 23
-2162.598456125144
 33
0.0
 14
-942.7336231446903
 24
-1999.598456125144
 34
0.0
 50
90.0
100
AcDbRotatedDimension
  0
DIMENSION
  5
212
330
1F
100
AcDbEntity
  8
1
100
AcDbDimension
  2
*D20
 10
-921.403248730214
 20
-2004.098456125144
 30
0.0
 11
-925.153248730214
 21
-2081.098456125144
 31
0.0
 70
    32
  1
<>
 71
     5
 42
-1.0
 53
90.0
  3
ME10_DIM_29
100
AcDbAlignedDimension
 13
-950.4836231446905
 23
-2158.098456125144
 33
0.0
 14
-950.4836231446901
 24
-2004.098456125144
 34
0.0
 50
90.0
100
AcDbRotatedDimension
  0
DIMENSION
  5
21E
330
1F
100
AcDbEntity
  8
1
100
AcDbDimension
  2
*D21
 10
-966.4836231446905
 20
-2208.598456125144
 30
0.0
 11
-952.9544370831612
 21
-2204.848456125144
 31
0.0
 70
    32
  1
<>
 71
     5
 42
-1.0
 53
0.00013888888889
  3
ME10_DIM_30
100
AcDbAlignedDimension
 13
-938.4836231446903
 23
-2159.598456125144
 33
0.0
 14
-966.4836231446905
 24
-2159.598456125144
 34
0.0
100
AcDbRotatedDimension
  0
INSERT
  5
226
330
1F
100
AcDbEntity
  8
1
100
AcDbBlockReference
  2
*D22
 10
0.0
 20
0.0
 30
0.0
  0
INSERT
  5
22E
330
1F
100
AcDbEntity
  8
1
100
AcDbBlockReference
  2
*D23
 10
0.0
 20
0.0
 30
0.0
  0
INSERT
  5
237
330
1F
100
AcDbEntity
  8
1
100
AcDbBlockReference
  2
*D24
 10
0.0
 20
0.0
 30
0.0
  0
ENDSEC
  0
SECTION
  2
OBJECTS
  0
DICTIONARY
  5
C
330
0
100
AcDbDictionary
281
     1
  3
ACAD_GROUP
350
D
  3
ACAD_LAYOUT
350
1A
  3
ACAD_MLINESTYLE
350
17
  3
ACAD_PLOTSETTINGS
350
19
  3
ACAD_PLOTSTYLENAME
350
E
  0
DICTIONARY
  5
D
102
{ACAD_REACTORS
330
C
102
}
330
C
100
AcDbDictionary
281
     1
  0
DICTIONARY
  5
1A
102
{ACAD_REACTORS
330
C
102
}
330
C
100
AcDbDictionary
281
     1
  3
Layout1
350
1E
  3
Layout2
350
26
  3
Model
350
22
  0
DICTIONARY
  5
17
102
{ACAD_REACTORS
330
C
102
}
330
C
100
AcDbDictionary
281
     1
  3
Standard
350
18
  0
DICTIONARY
  5
19
102
{ACAD_REACTORS
330
C
102
}
330
C
100
AcDbDictionary
281
     1
  0
ACDBDICTIONARYWDFLT
  5
E
102
{ACAD_REACTORS
330
C
102
}
330
C
100
AcDbDictionary
281
     1
  3
Normal
350
F
100
AcDbDictionaryWithDefault
340
F
  0
LAYOUT
  5
1E
102
{ACAD_REACTORS
330
1A
102
}
330
1A
100
AcDbPlotSettings
  1

  2

  4

  6

 40
0.0
 41
0.0
 42
0.0
 43
0.0
 44
0.0
 45
0.0
 46
0.0
 47
0.0
 48
0.0
 49
0.0
140
0.0
141
0.0
142
1.0
143
1.0
 70
   688
 72
     0
 73
     0
 74
     5
  7

 75
    16
 76
     0
 77
     2
 78
   300
147
1.0
148
0.0
149
0.0
100
AcDbLayout
  1
Layout1
 70
     1
 71
     1
 10
0.0
 20
0.0
 11
0.0
 21
0.0
 12
0.0
 22
0.0
 32
0.0
 14
0.0
 24
0.0
 34
0.0
 15
0.0
 25
0.0
 35
0.0
146
0.0
 13
0.0
 23
0.0
 33
0.0
 16
1.0
 26
0.0
 36
0.0
 17
0.0
 27
1.0
 37
0.0
 76
     0
330
1B
  0
LAYOUT
  5
26
102
{ACAD_REACTORS
330
1A
102
}
330
1A
100
AcDbPlotSettings
  1

  2

  4

  6

 40
0.0
 41
0.0
 42
0.0
 43
0.0
 44
0.0
 45
0.0
 46
0.0
 47
0.0
 48
0.0
 49
0.0
140
0.0
141
0.0
142
1.0
143
1.0
 70
   688
 72
     0
 73
     0
 74
     5
  7

 75
    16
 76
     0
 77
     2
 78
   300
147
1.0
148
0.0
149
0.0
100
AcDbLayout
  1
Layout2
 70
     1
 71
     2
 10
0.0
 20
0.0
 11
0.0
 21
0.0
 12
0.0
 22
0.0
 32
0.0
 14
0.0
 24
0.0
 34
0.0
 15
0.0
 25
0.0
 35
0.0
146
0.0
 13
0.0
 23
0.0
 33
0.0
 16
1.0
 26
0.0
 36
0.0
 17
0.0
 27
1.0
 37
0.0
 76
     0
330
23
  0
LAYOUT
  5
22
102
{ACAD_REACTORS
330
1A
102
}
330
1A
100
AcDbPlotSettings
  1

  2

  4

  6

 40
0.0
 41
0.0
 42
0.0
 43
0.0
 44
0.0
 45
0.0
 46
0.0
 47
0.0
 48
0.0
 49
0.0
140
0.0
141
0.0
142
1.0
143
1.0
 70
  1712
 72
     0
 73
     0
 74
     0
  7

 75
     0
 76
     0
 77
     2
 78
   300
147
1.0
148
0.0
149
0.0
100
AcDbLayout
  1
Model
 70
     1
 71
     0
 10
0.0
 20
0.0
 11
0.0
 21
0.0
 12
0.0
 22
0.0
 32
0.0
 14
-986.4836231446905
 24
-2224.553758068838
 34
0.0
 15
-595.27300475196
 25
-1971.21317449647
 35
0.0
146
0.0
 13
0.0
 23
0.0
 33
0.0
 16
1.0
 26
0.0
 36
0.0
 17
0.0
 27
1.0
 37
0.0
 76
     0
330
1F
  0
MLINESTYLE
  5
18
102
{ACAD_REACTORS
330
17
102
}
330
17
100
AcDbMlineStyle
  2
Standard
 70
     0
  3

 62
   256
 51
90.0
 52
90.0
 71
     2
 49
0.5
 62
   256
  6
BYLAYER
 49
-0.5
 62
   256
  6
BYLAYER
  0
ACDBPLACEHOLDER
  5
F
102
{ACAD_REACTORS
330
E
102
}
330
E
  0
ENDSEC
  0
EOF
