  0
SECTION
  2
HEADER
  9
$ACADVER
  1
AC1018
  9
$ACADMAINTVER
 70
     0
  9
$DWGCODEPAGE
  3
ANSI_1252
  9
$INSBASE
 10
0.0
 20
0.0
 30
0.0
  9
$EXTMIN
 10
260.861681033526
 20
-81.3504641624156
 30
0.0
  9
$EXTMAX
 10
355.537889712561
 20
85.730184653522
 30
0.0
  9
$LIMMIN
 10
0.0
 20
0.0
  9
$LIMMAX
 10
12.0
 20
9.0
  9
$ORTHOMODE
 70
     0
  9
$REGENMODE
 70
     1
  9
$FILLMODE
 70
     1
  9
$QTEXTMODE
 70
     0
  9
$MIRRTEXT
 70
     1
  9
$LTSCALE
 40
1.0
  9
$ATTMODE
 70
     1
  9
$TEXTSIZE
 40
0.2
  9
$TRACEWID
 40
0.05
  9
$TEXTSTYLE
  7
Standard
  9
$CLAYER
  8
0
  9
$CELTYPE
  6
ByLayer
  9
$CECOLOR
 62
   256
  9
$CELTSCALE
 40
1.0
  9
$DISPSILH
 70
     0
  9
$DIMSCALE
 40
1.0
  9
$DIMASZ
 40
0.18
  9
$DIMEXO
 40
0.0625
  9
$DIMDLI
 40
0.38
  9
$DIMRND
 40
0.0
  9
$DIMDLE
 40
0.0
  9
$DIMEXE
 40
0.18
  9
$DIMTP
 40
0.0
  9
$DIMTM
 40
0.0
  9
$DIMTXT
 40
0.18
  9
$DIMCEN
 40
0.09
  9
$DIMTSZ
 40
0.0
  9
$DIMTOL
 70
     0
  9
$DIMLIM
 70
     0
  9
$DIMTIH
 70
     1
  9
$DIMTOH
 70
     1
  9
$DIMSE1
 70
     0
  9
$DIMSE2
 70
     0
  9
$DIMTAD
 70
     0
  9
$DIMZIN
 70
     0
  9
$DIMBLK
  1

  9
$DIMASO
 70
     1
  9
$DIMSHO
 70
     1
  9
$DIMPOST
  1

  9
$DIMAPOST
  1

  9
$DIMALT
 70
     0
  9
$DIMALTD
 70
     2
  9
$DIMALTF
 40
25.4
  9
$DIMLFAC
 40
1.0
  9
$DIMTOFL
 70
     0
  9
$DIMTVP
 40
0.0
  9
$DIMTIX
 70
     0
  9
$DIMSOXD
 70
     0
  9
$DIMSAH
 70
     0
  9
$DIMBLK1
  1

  9
$DIMBLK2
  1

  9
$DIMSTYLE
  2
Standard
  9
$DIMCLRD
 70
     0
  9
$DIMCLRE
 70
     0
  9
$DIMCLRT
 70
     0
  9
$DIMTFAC
 40
1.0
  9
$DIMGAP
 40
0.09
  9
$DIMJUST
 70
     0
  9
$DIMSD1
 70
     0
  9
$DIMSD2
 70
     0
  9
$DIMTOLJ
 70
     1
  9
$DIMTZIN
 70
     0
  9
$DIMALTZ
 70
     0
  9
$DIMALTTZ
 70
     0
  9
$DIMUPT
 70
     0
  9
$DIMDEC
 70
     4
  9
$DIMTDEC
 70
     4
  9
$DIMALTU
 70
     2
  9
$DIMALTTD
 70
     2
  9
$DIMTXSTY
  7
Standard
  9
$DIMAUNIT
 70
     0
  9
$DIMADEC
 70
     0
  9
$DIMALTRND
 40
0.0
  9
$DIMAZIN
 70
     0
  9
$DIMDSEP
 70
    46
  9
$DIMATFIT
 70
     3
  9
$DIMFRAC
 70
     0
  9
$DIMLDRBLK
  1

  9
$DIMLUNIT
 70
     2
  9
$DIMLWD
 70
    -2
  9
$DIMLWE
 70
    -2
  9
$DIMTMOVE
 70
     0
  9
$LUNITS
 70
     2
  9
$LUPREC
 70
     4
  9
$SKETCHINC
 40
0.1
  9
$FILLETRAD
 40
0.5
  9
$AUNITS
 70
     0
  9
$AUPREC
 70
     0
  9
$MENU
  1
.
  9
$ELEVATION
 40
0.0
  9
$PELEVATION
 40
0.0
  9
$THICKNESS
 40
0.0
  9
$LIMCHECK
 70
     0
  9
$CHAMFERA
 40
0.5
  9
$CHAMFERB
 40
0.5
  9
$CHAMFERC
 40
1.0
  9
$CHAMFERD
 40
0.0
  9
$SKPOLY
 70
     0
  9
$TDCREATE
 40
2456966.490660613
  9
$TDUCREATE
 40
2456966.448993947
  9
$TDUPDATE
 40
2456966.490660625
  9
$TDUUPDATE
 40
2456966.448993959
  9
$TDINDWG
 40
0.0000000116
  9
$TDUSRTIMER
 40
0.0000000116
  9
$USRTIMER
 70
     1
  9
$ANGBASE
 50
0.0
  9
$ANGDIR
 70
     0
  9
$PDMODE
 70
     0
  9
$PDSIZE
 40
0.0
  9
$PLINEWID
 40
0.0
  9
$SPLFRAME
 70
     0
  9
$SPLINETYPE
 70
     6
  9
$SPLINESEGS
 70
     8
  9
$HANDSEED
  5
25B
  9
$SURFTAB1
 70
     6
  9
$SURFTAB2
 70
     6
  9
$SURFTYPE
 70
     6
  9
$SURFU
 70
     6
  9
$SURFV
 70
     6
  9
$UCSBASE
  2

  9
$UCSNAME
  2

  9
$UCSORG
 10
0.0
 20
0.0
 30
0.0
  9
$UCSXDIR
 10
1.0
 20
0.0
 30
0.0
  9
$UCSYDIR
 10
0.0
 20
1.0
 30
0.0
  9
$UCSORTHOREF
  2

  9
$UCSORTHOVIEW
 70
     0
  9
$UCSORGTOP
 10
0.0
 20
0.0
 30
0.0
  9
$UCSORGBOTTOM
 10
0.0
 20
0.0
 30
0.0
  9
$UCSORGLEFT
 10
0.0
 20
0.0
 30
0.0
  9
$UCSORGRIGHT
 10
0.0
 20
0.0
 30
0.0
  9
$UCSORGFRONT
 10
0.0
 20
0.0
 30
0.0
  9
$UCSORGBACK
 10
0.0
 20
0.0
 30
0.0
  9
$PUCSBASE
  2

  9
$PUCSNAME
  2

  9
$PUCSORG
 10
0.0
 20
0.0
 30
0.0
  9
$PUCSXDIR
 10
1.0
 20
0.0
 30
0.0
  9
$PUCSYDIR
 10
0.0
 20
1.0
 30
0.0
  9
$PUCSORTHOREF
  2

  9
$PUCSORTHOVIEW
 70
     0
  9
$PUCSORGTOP
 10
0.0
 20
0.0
 30
0.0
  9
$PUCSORGBOTTOM
 10
0.0
 20
0.0
 30
0.0
  9
$PUCSORGLEFT
 10
0.0
 20
0.0
 30
0.0
  9
$PUCSORGRIGHT
 10
0.0
 20
0.0
 30
0.0
  9
$PUCSORGFRONT
 10
0.0
 20
0.0
 30
0.0
  9
$PUCSORGBACK
 10
0.0
 20
0.0
 30
0.0
  9
$USERI1
 70
     0
  9
$USERI2
 70
     0
  9
$USERI3
 70
     0
  9
$USERI4
 70
     0
  9
$USERI5
 70
     0
  9
$USERR1
 40
14.5
  9
$USERR2
 40
0.0
  9
$USERR3
 40
0.0
  9
$USERR4
 40
0.0
  9
$USERR5
 40
0.0
  9
$WORLDVIEW
 70
     1
  9
$SHADEDGE
 70
     3
  9
$SHADEDIF
 70
    70
  9
$TILEMODE
 70
     1
  9
$MAXACTVP
 70
    64
  9
$PINSBASE
 10
0.0
 20
0.0
 30
0.0
  9
$PLIMCHECK
 70
     0
  9
$PEXTMIN
 10
1.00000000000000E+20
 20
1.00000000000000E+20
 30
1.00000000000000E+20
  9
$PEXTMAX
 10
-1.00000000000000E+20
 20
-1.00000000000000E+20
 30
-1.00000000000000E+20
  9
$PLIMMIN
 10
0.0
 20
0.0
  9
$PLIMMAX
 10
12.0
 20
9.0
  9
$UNITMODE
 70
     0
  9
$VISRETAIN
 70
     1
  9
$PLINEGEN
 70
     0
  9
$PSLTSCALE
 70
     1
  9
$TREEDEPTH
 70
  3020
  9
$CMLSTYLE
  2
Standard
  9
$CMLJUST
 70
     0
  9
$CMLSCALE
 40
1.0
  9
$PROXYGRAPHICS
 70
     1
  9
$MEASUREMENT
 70
     1
  9
$CELWEIGHT
370
    -1
  9
$ENDCAPS
280
     0
  9
$JOINSTYLE
280
     0
  9
$LWDISPLAY
290
     0
  9
$INSUNITS
 70
     1
  9
$HYPERLINKBASE
  1

  9
$STYLESHEET
  1

  9
$XEDIT
290
     1
  9
$CEPSNTYPE
380
     0
  9
$PSTYLEMODE
290
     1
  9
$FINGERPRINTGUID
  2
{78A83458-7BA7-4A03-98FD-55DF394B85DA}
  9
$VERSIONGUID
  2
{FAEB1C32-E019-11D5-929B-00C0DF256EC4}
  9
$EXTNAMES
290
     1
  9
$PSVPSCALE
 40
0.0
  9
$OLESTARTUP
290
     0
  9
$SORTENTS
280
   127
  9
$INDEXCTL
280
     0
  9
$HIDETEXT
280
     1
  9
$XCLIPFRAME
290
     0
  9
$HALOGAP
280
     0
  9
$OBSCOLOR
 70
   257
  9
$OBSLTYPE
280
     0
  9
$INTERSECTIONDISPLAY
280
     0
  9
$INTERSECTIONCOLOR
 70
   257
  9
$DIMASSOC
280
     2
  9
$PROJECTNAME
  1

  0
ENDSEC
  0
SECTION
  2
CLASSES
  0
CLASS
  1
ACDBDICTIONARYWDFLT
  2
AcDbDictionaryWithDefault
  3
ObjectDBX Classes
 90
        0
 91
        3
280
     0
281
     0
  0
CLASS
  1

  2
exOdDbCircle
  3

 90
        0
 91
        3
280
     0
281
     1
  0
ENDSEC
  0
SECTION
  2
TABLES
  0
TABLE
  2
VPORT
  5
8
330
0
100
AcDbSymbolTable
 70
     1
  0
VPORT
  5
29
330
8
100
AcDbSymbolTableRecord
100
AcDbViewportTableRecord
  2
*Active
 70
     0
 10
0.0
 20
0.0
 11
1.0
 21
1.0
 12
308.1997853730435
 22
2.1898602455532
 13
0.0
 23
0.0
 14
0.5
 24
0.5
 15
0.5
 25
0.5
 16
0.0
 26
0.0
 36
1.0
 17
0.0
 27
0.0
 37
0.0
 40
183.7887136975314
 41
1.60267857142857
 42
50.0
 43
0.0
 44
0.0
 50
0.0
 51
0.0
 71
     0
 72
   100
 73
     1
 74
     3
 75
     0
 76
     0
 77
     0
 78
     0
281
     0
 65
     1
110
0.0
120
0.0
130
0.0
111
1.0
121
0.0
131
0.0
112
0.0
122
1.0
132
0.0
 79
     0
146
0.0
  0
ENDTAB
  0
TABLE
  2
LTYPE
  5
5
330
0
100
AcDbSymbolTable
 70
     8
  0
LTYPE
  5
14
330
5
100
AcDbSymbolTableRecord
100
AcDbLinetypeTableRecord
  2
ByBlock
 70
     0
  3

 72
    65
 73
     0
 40
0.0
  0
LTYPE
  5
15
330
5
100
AcDbSymbolTableRecord
100
AcDbLinetypeTableRecord
  2
ByLayer
 70
     0
  3

 72
    65
 73
     0
 40
0.0
  0
LTYPE
  5
16
330
5
100
AcDbSymbolTableRecord
100
AcDbLinetypeTableRecord
  2
Continuous
 70
     0
  3
Solid line
 72
    65
 73
     0
 40
0.0
  0
LTYPE
  5
2A
330
5
100
AcDbSymbolTableRecord
100
AcDbLinetypeTableRecord
  2
DASHED
 70
     0
  3
Dashed
 72
    65
 73
     2
 40
15.0
 49
7.0
 74
     0
 49
-8.0
 74
     0
  0
LTYPE
  5
2B
330
5
100
AcDbSymbolTableRecord
100
AcDbLinetypeTableRecord
  2
DOTTED
 70
     0
  3
Dotted
 72
    65
 73
     2
 40
1.0
 49
0.0
 74
     0
 49
-1.0
 74
     0
  0
LTYPE
  5
2C
330
5
100
AcDbSymbolTableRecord
100
AcDbLinetypeTableRecord
  2
DOT_CENTER
 70
     0
  3
Dot_Center
 72
    65
 73
     4
 40
14.0
 49
12.0
 74
     0
 49
-1.0
 74
     0
 49
0.0
 74
     0
 49
-1.0
 74
     0
  0
LTYPE
  5
2D
330
5
100
AcDbSymbolTableRecord
100
AcDbLinetypeTableRecord
  2
LONG_DASHED
 70
     0
  3
Long_Dashed
 72
    65
 73
     2
 40
15.0
 49
10.0
 74
     0
 49
-5.0
 74
     0
  0
LTYPE
  5
2E
330
5
100
AcDbSymbolTableRecord
100
AcDbLinetypeTableRecord
  2
DASH_CENTER
 70
     0
  3
Dash_Center
 72
    65
 73
     4
 40
14.0
 49
11.0
 74
     0
 49
-1.0
 74
     0
 49
1.0
 74
     0
 49
-1.0
 74
     0
  0
LTYPE
  5
2F
330
5
100
AcDbSymbolTableRecord
100
AcDbLinetypeTableRecord
  2
PHANTOM
 70
     0
  3
Phantom
 72
    65
 73
     6
 40
13.0
 49
10.0
 74
     0
 49
-1.0
 74
     0
 49
0.0
 74
     0
 49
-1.0
 74
     0
 49
0.0
 74
     0
 49
-1.0
 74
     0
  0
LTYPE
  5
30
330
5
100
AcDbSymbolTableRecord
100
AcDbLinetypeTableRecord
  2
CENTER_DASH_DASH
 70
     0
  3
Center_Dash_Dash
 72
    65
 73
     6
 40
14.0
 49
9.0
 74
     0
 49
-1.0
 74
     0
 49
1.0
 74
     0
 49
-1.0
 74
     0
 49
1.0
 74
     0
 49
-1.0
 74
     0
  0
ENDTAB
  0
TABLE
  2
LAYER
  5
2
330
0
100
AcDbSymbolTable
 70
     2
  0
LAYER
  5
10
330
2
100
AcDbSymbolTableRecord
100
AcDbLayerTableRecord
  2
0
 70
     0
 62
     7
  6
Continuous
370
    -3
390
F
  0
LAYER
  5
31
330
2
100
AcDbSymbolTableRecord
100
AcDbLayerTableRecord
  2
1
 70
     0
 62
     7
  6
Continuous
370
    -3
390
F
  0
ENDTAB
  0
TABLE
  2
STYLE
  5
3
330
0
100
AcDbSymbolTable
 70
     2
  0
STYLE
  5
11
330
3
100
AcDbSymbolTableRecord
100
AcDbTextStyleTableRecord
  2
Standard
 70
     0
 40
0.0
 41
1.0
 50
0.0
 71
     0
 42
0.2
  3
txt
  4

  0
STYLE
  5
22C
330
3
100
AcDbSymbolTableRecord
100
AcDbTextStyleTableRecord
  2
CONVERTER_11
 70
     0
 40
0.0
 41
0.9
 50
0.0
 71
     0
 42
0.2
  3
txt.shx
  4

  0
ENDTAB
  0
TABLE
  2
VIEW
  5
6
330
0
100
AcDbSymbolTable
 70
     0
  0
ENDTAB
  0
TABLE
  2
UCS
  5
7
330
0
100
AcDbSymbolTable
 70
     0
  0
ENDTAB
  0
TABLE
  2
APPID
  5
9
330
0
100
AcDbSymbolTable
 70
     1
  0
APPID
  5
12
330
9
100
AcDbSymbolTableRecord
100
AcDbRegAppTableRecord
  2
ACAD
 70
     0
  0
ENDTAB
  0
TABLE
  2
DIMSTYLE
  5
A
330
0
100
AcDbSymbolTable
 70
     5
100
AcDbDimStyleTable
  0
DIMSTYLE
105
27
330
A
100
AcDbSymbolTableRecord
100
AcDbDimStyleTableRecord
  2
Standard
 70
     0
340
11
  0
DIMSTYLE
105
237
102
{ACAD_REACTORS
330
238
102
}
330
A
100
AcDbSymbolTableRecord
100
AcDbDimStyleTableRecord
  2
ME10_DIM_10
 70
     0
 41
3.5
 42
0.0
 44
2.0
 73
     0
 74
     0
 77
     1
 78
     8
140
3.5
147
2.0
172
     1
173
     1
176
     2
177
     2
178
     2
271
     3
340
22C
  0
DIMSTYLE
105
243
102
{ACAD_REACTORS
330
244
102
}
330
A
100
AcDbSymbolTableRecord
100
AcDbDimStyleTableRecord
  2
ME10_DIM_11
 70
     0
 41
3.5
 42
0.0
 44
2.0
 73
     0
 74
     0
 77
     1
 78
     8
140
3.5
147
2.0
172
     1
173
     1
176
     2
177
     2
178
     2
271
     3
340
22C
  0
DIMSTYLE
105
24E
102
{ACAD_REACTORS
330
24F
102
}
330
A
100
AcDbSymbolTableRecord
100
AcDbDimStyleTableRecord
  2
ME10_DIM_12
 70
     0
 41
3.5
 42
0.0
 44
2.0
 73
     0
 74
     0
 77
     1
 78
     8
140
3.5
147
2.0
172
     1
173
     1
176
     2
177
     2
178
     2
271
     3
340
22C
  0
DIMSTYLE
105
259
102
{ACAD_REACTORS
330
25A
102
}
330
A
100
AcDbSymbolTableRecord
100
AcDbDimStyleTableRecord
  2
ME10_DIM_13
 70
     0
 41
3.5
 42
0.0
 44
2.0
 73
     0
 74
     0
 77
     1
 78
     8
140
3.5
147
2.0
172
     1
173
     1
176
     2
177
     2
178
     2
271
     3
340
22C
  0
ENDTAB
  0
TABLE
  2
BLOCK_RECORD
  5
1
330
0
100
AcDbSymbolTable
 70
     5
  0
BLOCK_RECORD
  5
1F
330
1
100
AcDbSymbolTableRecord
100
AcDbBlockTableRecord
  2
*Model_Space
340
22
  0
BLOCK_RECORD
  5
1B
330
1
100
AcDbSymbolTableRecord
100
AcDbBlockTableRecord
  2
*Paper_Space
340
1E
  0
BLOCK_RECORD
  5
23
330
1
100
AcDbSymbolTableRecord
100
AcDbBlockTableRecord
  2
*Paper_Space0
340
26
  0
BLOCK_RECORD
  5
22E
330
1
100
AcDbSymbolTableRecord
100
AcDbBlockTableRecord
  2
*D1
340
0
  0
BLOCK_RECORD
  5
239
330
1
100
AcDbSymbolTableRecord
100
AcDbBlockTableRecord
  2
*D2
340
0
  0
BLOCK_RECORD
  5
245
330
1
100
AcDbSymbolTableRecord
100
AcDbBlockTableRecord
  2
*D3
340
0
  0
BLOCK_RECORD
  5
250
330
1
100
AcDbSymbolTableRecord
100
AcDbBlockTableRecord
  2
*D4
340
0
  0
ENDTAB
  0
ENDSEC
  0
SECTION
  2
BLOCKS
  0
BLOCK
  5
20
330
1F
100
AcDbEntity
  8
0
100
AcDbBlockBegin
  2
*Model_Space
 70
     0
 71
     0
 10
0.0
 20
0.0
 30
0.0
  3
*Model_Space
  1

  0
ENDBLK
  5
21
330
1F
100
AcDbEntity
  8
0
100
AcDbBlockEnd
  0
BLOCK
  5
1C
330
1B
100
AcDbEntity
 67
     1
  8
0
100
AcDbBlockBegin
  2
*Paper_Space
 70
     0
 71
     0
 10
0.0
 20
0.0
 30
0.0
  3
*Paper_Space
  1

  0
ENDBLK
  5
1D
330
1B
100
AcDbEntity
 67
     1
  8
0
100
AcDbBlockEnd
  0
BLOCK
  5
24
330
23
100
AcDbEntity
  8
0
100
AcDbBlockBegin
  2
*Paper_Space0
 70
     0
 71
     0
 10
0.0
 20
0.0
 30
0.0
  3
*Paper_Space0
  1

  0
ENDBLK
  5
25
330
23
100
AcDbEntity
  8
0
100
AcDbBlockEnd
  0
BLOCK
  5
235
330
22E
100
AcDbEntity
  8
0
100
AcDbBlockBegin
  2
*D1
 70
     1
 71
     0
 10
0.0
 20
0.0
 30
0.0
  3
*D1
  1

  0
LINE
  5
22F
330
22E
100
AcDbEntity
  8
1
  6
Continuous
 62
     2
100
AcDbLine
 10
266.361681033526
 20
85.73008812878521
 30
0.0
 11
266.361681033526
 21
-69.2699118712149
 31
0.0
  0
LINE
  5
230
330
22E
100
AcDbEntity
  8
1
  6
Continuous
 62
     2
100
AcDbLine
 10
289.5538424624691
 20
85.73008812878521
 30
0.0
 11
264.361681033526
 21
85.73008812878521
 31
0.0
  0
LINE
  5
231
330
22E
100
AcDbEntity
  8
1
  6
Continuous
 62
     2
100
AcDbLine
 10
289.5538424624691
 20
-69.2699118712149
 30
0.0
 11
264.361681033526
 21
-69.2699118712149
 31
0.0
  0
SOLID
  5
232
330
22E
100
AcDbEntity
  8
1
 62
     2
100
AcDbTrace
 10
266.8224647750819
 20
82.23008812878521
 30
0.0
 11
265.9008972919701
 21
82.23008812878521
 31
0.0
 12
266.361681033526
 22
85.73008812878521
 32
0.0
 13
266.361681033526
 23
85.73008812878521
 33
0.0
  0
SOLID
  5
233
330
22E
100
AcDbEntity
  8
1
 62
     2
100
AcDbTrace
 10
265.9008972919701
 20
-65.7699118712149
 30
0.0
 11
266.8224647750819
 21
-65.7699118712149
 31
0.0
 12
266.361681033526
 22
-69.2699118712149
 32
0.0
 13
266.361681033526
 23
-69.2699118712149
 33
0.0
  0
MTEXT
  5
234
330
22E
100
AcDbEntity
  8
1
 62
     2
100
AcDbMText
 10
264.361681033526
 20
4.79838917370769
 30
0.0
 40
3.5
 41
0.0
 71
     7
 72
     1
  1
155
  7
CONVERTER_11
 11
0.0
 21
1.0
 31
0.0
 73
     1
 44
0.60024009603842
  0
ENDBLK
  5
236
330
22E
100
AcDbEntity
  8
0
100
AcDbBlockEnd
  0
BLOCK
  5
241
330
239
100
AcDbEntity
  8
0
100
AcDbBlockBegin
  2
*D2
 70
     1
 71
     0
 10
0.0
 20
0.0
 30
0.0
  3
*D2
  1

  0
LINE
  5
23A
330
239
100
AcDbEntity
  8
1
  6
Continuous
 62
     2
100
AcDbLine
 10
276.5538424624691
 20
-79.3504641624156
 30
0.0
 11
302.5538424624691
 21
-79.3504641624156
 31
0.0
  0
LINE
  5
23B
330
239
100
AcDbEntity
  8
1
  6
Continuous
 62
     2
100
AcDbLine
 10
276.5538424624691
 20
-71.4352542917889
 30
0.0
 11
276.5538424624691
 21
-81.3504641624156
 31
0.0
  0
LINE
  5
23C
330
239
100
AcDbEntity
  8
1
  6
Continuous
 62
     2
100
AcDbLine
 10
276.5538424624691
 20
-56.3699118712149
 30
0.0
 11
276.5538424624691
 21
-66.9064761634765
 31
0.0
  0
LINE
  5
23D
330
239
100
AcDbEntity
  8
1
  6
Continuous
 62
     2
100
AcDbLine
 10
302.5538424624691
 20
-56.36991187121488
 30
0.0
 11
302.5538424624691
 21
-81.3504641624156
 31
0.0
  0
SOLID
  5
23E
330
239
100
AcDbEntity
  8
1
 62
     2
100
AcDbTrace
 10
280.0538424624691
 20
-78.88968042085972
 30
0.0
 11
280.0538424624691
 21
-79.81124790397149
 31
0.0
 12
276.5538424624691
 22
-79.3504641624156
 32
0.0
 13
276.5538424624691
 23
-79.3504641624156
 33
0.0
  0
SOLID
  5
23F
330
239
100
AcDbEntity
  8
1
 62
     2
100
AcDbTrace
 10
299.0538424624691
 20
-79.81124790397149
 30
0.0
 11
299.0538424624691
 21
-78.88968042085972
 31
0.0
 12
302.5538424624691
 22
-79.3504641624156
 32
0.0
 13
302.5538424624691
 23
-79.3504641624156
 33
0.0
  0
MTEXT
  5
240
330
239
100
AcDbEntity
  8
1
 62
     2
100
AcDbMText
 10
286.9288424624692
 20
-77.3504641624156
 30
0.0
 40
3.5
 41
0.0
 71
     7
 72
     1
  1
26
  7
CONVERTER_11
 11
0.9999999999970621
 21
2.424068405545307E-6
 31
0.0
 73
     1
 44
0.60024009603842
  0
ENDBLK
  5
242
330
239
100
AcDbEntity
  8
0
100
AcDbBlockEnd
  0
BLOCK
  5
24C
330
245
100
AcDbEntity
  8
0
100
AcDbBlockBegin
  2
*D3
 70
     1
 71
     0
 10
0.0
 20
0.0
 30
0.0
  3
*D3
  1

  0
LINE
  5
246
330
245
100
AcDbEntity
  8
1
  6
Continuous
 62
     2
100
AcDbLine
 10
317.5538424624691
 20
-79.3504641624156
 30
0.0
 11
343.5538424624694
 21
-79.3504641624156
 31
0.0
  0
LINE
  5
247
330
245
100
AcDbEntity
  8
1
  6
Continuous
 62
     2
100
AcDbLine
 10
343.5538424624694
 20
-56.36991187121488
 30
0.0
 11
343.5538424624694
 21
-81.3504641624156
 31
0.0
  0
LINE
  5
248
330
245
100
AcDbEntity
  8
1
  6
Continuous
 62
     2
100
AcDbLine
 10
317.5538424624691
 20
-56.36991187121488
 30
0.0
 11
317.5538424624691
 21
-81.3504641624156
 31
0.0
  0
SOLID
  5
249
330
245
100
AcDbEntity
  8
1
 62
     2
100
AcDbTrace
 10
321.0538424624691
 20
-78.88968042085972
 30
0.0
 11
321.0538424624691
 21
-79.81124790397149
 31
0.0
 12
317.5538424624691
 22
-79.3504641624156
 32
0.0
 13
317.5538424624691
 23
-79.3504641624156
 33
0.0
  0
SOLID
  5
24A
330
245
100
AcDbEntity
  8
1
 62
     2
100
AcDbTrace
 10
340.0538424624694
 20
-79.81124790397149
 30
0.0
 11
340.0538424624694
 21
-78.88968042085972
 31
0.0
 12
343.5538424624694
 22
-79.3504641624156
 32
0.0
 13
343.5538424624694
 23
-79.3504641624156
 33
0.0
  0
MTEXT
  5
24B
330
245
100
AcDbEntity
  8
1
 62
     2
100
AcDbMText
 10
327.9288424624692
 20
-77.3504641624156
 30
0.0
 40
3.5
 41
0.0
 71
     7
 72
     1
  1
26
  7
CONVERTER_11
 11
0.9999999999970621
 21
2.424068405545307E-6
 31
0.0
 73
     1
 44
0.60024009603842
  0
ENDBLK
  5
24D
330
245
100
AcDbEntity
  8
0
100
AcDbBlockEnd
  0
BLOCK
  5
257
330
250
100
AcDbEntity
  8
0
100
AcDbBlockBegin
  2
*D4
 70
     1
 71
     0
 10
0.0
 20
0.0
 30
0.0
  3
*D4
  1

  0
LINE
  5
251
330
250
100
AcDbEntity
  8
1
  6
Continuous
 62
     2
100
AcDbLine
 10
302.5538424624691
 20
-79.3504641624156
 30
0.0
 11
317.5538424624691
 21
-79.3504641624156
 31
0.0
  0
LINE
  5
252
330
250
100
AcDbEntity
  8
1
  6
Continuous
 62
     2
100
AcDbLine
 10
302.5538424624691
 20
-56.36991187121488
 30
0.0
 11
302.5538424624691
 21
-81.3504641624156
 31
0.0
  0
LINE
  5
253
330
250
100
AcDbEntity
  8
1
  6
Continuous
 62
     2
100
AcDbLine
 10
317.5538424624691
 20
-56.36991187121488
 30
0.0
 11
317.5538424624691
 21
-81.3504641624156
 31
0.0
  0
SOLID
  5
254
330
250
100
AcDbEntity
  8
1
 62
     2
100
AcDbTrace
 10
306.0538424624691
 20
-78.88968042085972
 30
0.0
 11
306.0538424624691
 21
-79.81124790397149
 31
0.0
 12
302.5538424624691
 22
-79.3504641624156
 32
0.0
 13
302.5538424624691
 23
-79.3504641624156
 33
0.0
  0
SOLID
  5
255
330
250
100
AcDbEntity
  8
1
 62
     2
100
AcDbTrace
 10
314.0538424624691
 20
-79.81124790397149
 30
0.0
 11
314.0538424624691
 21
-78.88968042085972
 31
0.0
 12
317.5538424624691
 22
-79.3504641624156
 32
0.0
 13
317.5538424624691
 23
-79.3504641624156
 33
0.0
  0
MTEXT
  5
256
330
250
100
AcDbEntity
  8
1
 62
     2
100
AcDbMText
 10
307.9538424624691
 20
-77.3504641624156
 30
0.0
 40
3.5
 41
0.0
 71
     7
 72
     1
  1
15
  7
CONVERTER_11
 11
0.9999999999970621
 21
2.424068405545307E-6
 31
0.0
 73
     1
 44
0.60024009603842
  0
ENDBLK
  5
258
330
250
100
AcDbEntity
  8
0
100
AcDbBlockEnd
  0
ENDSEC
  0
SECTION
  2
ENTITIES
  0
POINT
  5
32
330
1F
100
AcDbEntity
  8
1
 62
     3
 60
     1
100
AcDbPoint
 10
283.5538424624691
 20
-49.26991187121499
 30
0.0
  0
POINT
  5
33
330
1F
100
AcDbEntity
  8
1
 62
     3
 60
     1
100
AcDbPoint
 10
295.5538424624691
 20
-59.2699118712149
 30
0.0
  0
POINT
  5
34
330
1F
100
AcDbEntity
  8
1
 62
     3
 60
     1
100
AcDbPoint
 10
324.5538424624691
 20
-59.2699118712149
 30
0.0
  0
POINT
  5
35
330
1F
100
AcDbEntity
  8
1
 62
     3
 60
     1
100
AcDbPoint
 10
336.5538424624691
 20
-49.2699118712149
 30
0.0
  0
POINT
  5
36
330
1F
100
AcDbEntity
  8
1
 62
     3
 60
     1
100
AcDbPoint
 10
292.4743200432619
 20
29.48008812878521
 30
0.0
  0
POINT
  5
37
330
1F
100
AcDbEntity
  8
1
 62
     3
 60
     1
100
AcDbPoint
 10
292.4743200432619
 20
32.48008812878521
 30
0.0
  0
POINT
  5
38
330
1F
100
AcDbEntity
  8
1
 62
     3
 60
     1
100
AcDbPoint
 10
283.5538424624691
 20
65.73008812878521
 30
0.0
  0
POINT
  5
39
330
1F
100
AcDbEntity
  8
1
 62
     3
 60
     1
100
AcDbPoint
 10
295.5538424624691
 20
75.73008812878521
 30
0.0
  0
POINT
  5
3A
330
1F
100
AcDbEntity
  8
1
 62
     3
 60
     1
100
AcDbPoint
 10
322.5538424624691
 20
32.48008812878521
 30
0.0
  0
POINT
  5
3B
330
1F
100
AcDbEntity
  8
1
 62
     3
 60
     1
100
AcDbPoint
 10
327.6333648816764
 20
32.48008812878521
 30
0.0
  0
POINT
  5
3C
330
1F
100
AcDbEntity
  8
1
 62
     3
 60
     1
100
AcDbPoint
 10
322.5538424624691
 20
-16.20781739937377
 30
0.0
  0
POINT
  5
3D
330
1F
100
AcDbEntity
  8
1
 62
     3
 60
     1
100
AcDbPoint
 10
327.6333648816764
 20
-16.20781739937377
 30
0.0
  0
POINT
  5
3E
330
1F
100
AcDbEntity
  8
1
 62
     3
 60
     1
100
AcDbPoint
 10
323.0538424624691
 20
-27.66991187121488
 30
0.0
  0
POINT
  5
3F
330
1F
100
AcDbEntity
  8
1
 62
     3
 60
     1
100
AcDbPoint
 10
323.0538424624691
 20
-26.66991187121488
 30
0.0
  0
POINT
  5
40
330
1F
100
AcDbEntity
  8
1
 62
     3
 60
     1
100
AcDbPoint
 10
325.0538424624691
 20
-26.66991187121488
 30
0.0
  0
POINT
  5
41
330
1F
100
AcDbEntity
  8
1
 62
     3
 60
     1
100
AcDbPoint
 10
325.0538424624691
 20
-32.86991187121487
 30
0.0
  0
POINT
  5
42
330
1F
100
AcDbEntity
  8
1
 62
     3
 60
     1
100
AcDbPoint
 10
325.0538424624691
 20
-33.86991187121487
 30
0.0
  0
POINT
  5
43
330
1F
100
AcDbEntity
  8
1
 62
     3
 60
     1
100
AcDbPoint
 10
323.0538424624691
 20
-33.86991187121487
 30
0.0
  0
POINT
  5
44
330
1F
100
AcDbEntity
  8
1
 62
     3
 60
     1
100
AcDbPoint
 10
336.0538424624691
 20
-26.66991187121488
 30
0.0
  0
POINT
  5
45
330
1F
100
AcDbEntity
  8
1
 62
     3
 60
     1
100
AcDbPoint
 10
336.0538424624691
 20
-32.86991187121487
 30
0.0
  0
POINT
  5
46
330
1F
100
AcDbEntity
  8
1
 62
     3
 60
     1
100
AcDbPoint
 10
336.0538424624691
 20
-33.86991187121487
 30
0.0
  0
POINT
  5
47
330
1F
100
AcDbEntity
  8
1
 62
     3
 60
     1
100
AcDbPoint
 10
338.0538424624691
 20
-26.66991187121488
 30
0.0
  0
POINT
  5
48
330
1F
100
AcDbEntity
  8
1
 62
     3
 60
     1
100
AcDbPoint
 10
338.0538424624691
 20
-32.86991187121487
 30
0.0
  0
POINT
  5
49
330
1F
100
AcDbEntity
  8
1
 62
     3
 60
     1
100
AcDbPoint
 10
338.0538424624691
 20
-33.86991187121487
 30
0.0
  0
POINT
  5
4A
330
1F
100
AcDbEntity
  8
1
 62
     3
 60
     1
100
AcDbPoint
 10
323.0538424624691
 20
43.13008812878525
 30
0.0
  0
POINT
  5
4B
330
1F
100
AcDbEntity
  8
1
 62
     3
 60
     1
100
AcDbPoint
 10
323.0538424624691
 20
44.13008812878525
 30
0.0
  0
POINT
  5
4C
330
1F
100
AcDbEntity
  8
1
 62
     3
 60
     1
100
AcDbPoint
 10
325.0538424624691
 20
43.13008812878525
 30
0.0
  0
POINT
  5
4D
330
1F
100
AcDbEntity
  8
1
 62
     3
 60
     1
100
AcDbPoint
 10
325.0538424624691
 20
49.33008812878524
 30
0.0
  0
POINT
  5
4E
330
1F
100
AcDbEntity
  8
1
 62
     3
 60
     1
100
AcDbPoint
 10
325.0538424624691
 20
50.33008812878524
 30
0.0
  0
POINT
  5
4F
330
1F
100
AcDbEntity
  8
1
 62
     3
 60
     1
100
AcDbPoint
 10
323.0538424624691
 20
50.33008812878524
 30
0.0
  0
POINT
  5
50
330
1F
100
AcDbEntity
  8
1
 62
     3
 60
     1
100
AcDbPoint
 10
336.0538424624691
 20
43.13008812878525
 30
0.0
  0
POINT
  5
51
330
1F
100
AcDbEntity
  8
1
 62
     3
 60
     1
100
AcDbPoint
 10
336.0538424624691
 20
49.33008812878524
 30
0.0
  0
POINT
  5
52
330
1F
100
AcDbEntity
  8
1
 62
     3
 60
     1
100
AcDbPoint
 10
336.0538424624691
 20
50.33008812878524
 30
0.0
  0
POINT
  5
53
330
1F
100
AcDbEntity
  8
1
 62
     3
 60
     1
100
AcDbPoint
 10
338.0538424624691
 20
43.13008812878525
 30
0.0
  0
POINT
  5
54
330
1F
100
AcDbEntity
  8
1
 62
     3
 60
     1
100
AcDbPoint
 10
338.0538424624691
 20
49.33008812878524
 30
0.0
  0
POINT
  5
55
330
1F
100
AcDbEntity
  8
1
 62
     3
 60
     1
100
AcDbPoint
 10
338.0538424624691
 20
50.33008812878524
 30
0.0
  0
LINE
  5
56
330
1F
100
AcDbEntity
  8
1
  6
Continuous
 62
     7
100
AcDbLine
 10
276.553842462469
 20
-21.26991187121479
 30
0.0
 11
276.5538424624691
 21
-33.31091187121479
 31
0.0
  0
LINE
  5
57
330
1F
100
AcDbEntity
  8
1
  6
Continuous
 62
     7
100
AcDbLine
 10
276.6538424624691
 20
30.73008812878521
 30
0.0
 11
276.6538424624691
 21
-14.26991187121479
 31
0.0
  0
LINE
  5
58
330
1F
100
AcDbEntity
  8
1
  6
Continuous
 62
     7
100
AcDbLine
 10
279.6538424624691
 20
30.73008812878521
 30
0.0
 11
279.6538424624691
 21
-14.26991187121479
 31
0.0
  0
LINE
  5
59
330
1F
100
AcDbEntity
  8
1
  6
Continuous
 62
     7
100
AcDbLine
 10
302.553842462469
 20
-21.26991187121479
 30
0.0
 11
302.5538424624692
 21
-23.7699118712149
 31
0.0
  0
LINE
  5
5A
330
1F
100
AcDbEntity
  8
1
  6
Continuous
 62
     7
100
AcDbLine
 10
276.5538424624691
 20
38.23008812878522
 30
0.0
 11
276.553842462469
 21
37.73008812878521
 31
0.0
  0
LINE
  5
5B
330
1F
100
AcDbEntity
  8
1
  6
Continuous
 62
     7
100
AcDbLine
 10
276.5538424624691
 20
52.7300881287851
 30
0.0
 11
276.5538424624691
 21
38.23008812878522
 31
0.0
  0
LINE
  5
5C
330
1F
100
AcDbEntity
  8
1
  6
DOT_CENTER
 62
     2
100
AcDbLine
 10
295.5538424624691
 20
67.42796356949901
 30
0.0
 11
295.5538424624691
 21
84.35641288896619
 31
0.0
  0
LINE
  5
5D
330
1F
100
AcDbEntity
  8
1
  6
DOT_CENTER
 62
     2
100
AcDbLine
 10
285.9728823019863
 20
75.73008812878521
 30
0.0
 11
298.5538424624691
 21
75.73008812878521
 31
0.0
  0
LINE
  5
5E
330
1F
100
AcDbEntity
  8
1
  6
DOT_CENTER
 62
     2
100
AcDbLine
 10
295.5538424624691
 20
-67.4720364305011
 30
0.0
 11
295.5538424624691
 21
-50.54358711103399
 31
0.0
  0
LINE
  5
5F
330
1F
100
AcDbEntity
  8
1
  6
DOT_CENTER
 62
     2
100
AcDbLine
 10
285.9728823019863
 20
-59.26991187121499
 30
0.0
 11
298.5538424624691
 21
-59.26991187121499
 31
0.0
  0
LINE
  5
60
330
1F
100
AcDbEntity
  8
1
  6
Continuous
 62
     7
100
AcDbLine
 10
300.953842462469
 20
37.7300881287851
 30
0.0
 11
280.453842462469
 21
37.73008812878521
 31
0.0
  0
LINE
  5
61
330
1F
100
AcDbEntity
  8
1
  6
Continuous
 62
     7
100
AcDbLine
 10
300.953842462469
 20
-21.26991187121502
 30
0.0
 11
280.453842462469
 21
-21.26991187121479
 31
0.0
  0
LINE
  5
62
330
1F
100
AcDbEntity
  8
1
  6
Continuous
 62
     7
100
AcDbLine
 10
302.5538424624691
 20
39.2300881287851
 30
0.0
 11
302.5538424624691
 21
72.83008812878509
 31
0.0
  0
LINE
  5
63
330
1F
100
AcDbEntity
  8
1
  6
Continuous
 62
     7
100
AcDbLine
 10
276.5538424624691
 20
72.83008812878519
 30
0.0
 11
276.5538424624691
 21
52.7300881287851
 31
0.0
  0
LINE
  5
64
330
1F
100
AcDbEntity
  8
1
  6
Continuous
 62
     7
100
AcDbLine
 10
276.5538424624691
 20
-33.31091187121479
 30
0.0
 11
276.5538424624691
 21
-56.3699118712149
 31
0.0
  0
LINE
  5
65
330
1F
100
AcDbEntity
  8
1
  6
Continuous
 62
     7
100
AcDbLine
 10
302.5538424624691
 20
-56.36991187121489
 30
0.0
 11
302.5538424624692
 21
-23.7699118712149
 31
0.0
  0
LINE
  5
66
330
1F
100
AcDbEntity
  8
1
  6
Continuous
 62
     7
100
AcDbLine
 10
302.5538424624691
 20
39.2300881287851
 30
0.0
 11
302.553842462469
 21
37.73008812878521
 31
0.0
  0
LINE
  5
67
330
1F
100
AcDbEntity
  8
1
  6
DOT_CENTER
 62
     2
100
AcDbLine
 10
283.5538424624691
 20
58.45508812878512
 30
0.0
 11
283.5538424624691
 21
73.00508812878519
 31
0.0
  0
LINE
  5
68
330
1F
100
AcDbEntity
  8
1
  6
DOT_CENTER
 62
     2
100
AcDbLine
 10
290.828842462469
 20
65.73008812878521
 30
0.0
 11
276.2788424624691
 21
65.73008812878521
 31
0.0
  0
LINE
  5
69
330
1F
100
AcDbEntity
  8
1
  6
DOT_CENTER
 62
     2
100
AcDbLine
 10
336.5538424624691
 20
58.73008812878521
 30
0.0
 11
336.5538424624691
 21
73.73008812878521
 31
0.0
  0
LINE
  5
6A
330
1F
100
AcDbEntity
  8
1
  6
Continuous
 62
     7
100
AcDbLine
 10
343.5538424624693
 20
-24.2699118712149
 30
0.0
 11
343.5538424624694
 21
-56.36991187121489
 31
0.0
  0
LINE
  5
6B
330
1F
100
AcDbEntity
  8
1
  6
Continuous
 62
     7
100
AcDbLine
 10
317.5538424624691
 20
-56.36991187121489
 30
0.0
 11
317.5538424624691
 21
-24.26991187121491
 31
0.0
  0
LINE
  5
6C
330
1F
100
AcDbEntity
  8
1
  6
DOT_CENTER
 62
     2
100
AcDbLine
 10
324.5538424624691
 20
-65.8432440110036
 30
0.0
 11
324.5538424624691
 21
-51.8432440110036
 31
0.0
  0
LINE
  5
6D
330
1F
100
AcDbEntity
  8
1
  6
DOT_CENTER
 62
     2
100
AcDbLine
 10
331.5538424624691
 20
-59.2699118712149
 30
0.0
 11
327.5538424624691
 21
-59.2699118712149
 31
0.0
  0
LINE
  5
6E
330
1F
100
AcDbEntity
  8
1
  6
DOT_CENTER
 62
     2
100
AcDbLine
 10
344.5538424624691
 20
-49.2699118712149
 30
0.0
 11
339.5538424624691
 21
-49.2699118712149
 31
0.0
  0
LINE
  5
6F
330
1F
100
AcDbEntity
  8
1
  6
DOT_CENTER
 62
     2
100
AcDbLine
 10
336.5538424624691
 20
-57.2699118712149
 30
0.0
 11
336.5538424624691
 21
-42.2699118712149
 31
0.0
  0
LINE
  5
70
330
1F
100
AcDbEntity
  8
1
  6
DASHED
 62
     2
100
AcDbLine
 10
338.0538424624691
 20
-27.66991187121488
 30
0.0
 11
336.0538424624691
 21
-27.66991187121488
 31
0.0
  0
LINE
  5
71
330
1F
100
AcDbEntity
  8
1
  6
DASHED
 62
     2
100
AcDbLine
 10
336.0538424624691
 20
-32.86991187121487
 30
0.0
 11
338.0538424624691
 21
-32.86991187121487
 31
0.0
  0
LINE
  5
72
330
1F
100
AcDbEntity
  8
1
  6
DOT_CENTER
 62
     2
100
AcDbLine
 10
329.0305185710846
 20
-30.2699118712149
 30
0.0
 11
319.5274894467321
 21
-30.2699118712149
 31
0.0
  0
LINE
  5
73
330
1F
100
AcDbEntity
  8
1
  6
DASHED
 62
     2
100
AcDbLine
 10
323.0538424624691
 20
-32.86991187121487
 30
0.0
 11
325.0538424624691
 21
-32.86991187121487
 31
0.0
  0
LINE
  5
74
330
1F
100
AcDbEntity
  8
1
  6
DASHED
 62
     2
100
AcDbLine
 10
325.0538424624691
 20
-27.66991187121488
 30
0.0
 11
323.0538424624691
 21
-27.66991187121488
 31
0.0
  0
LINE
  5
75
330
1F
100
AcDbEntity
  8
1
  6
Continuous
 62
     7
100
AcDbLine
 10
301.553842462469
 20
-1.26991187121479
 30
0.0
 11
301.553842462469
 21
-2.81991187121491
 31
0.0
  0
LINE
  5
76
330
1F
100
AcDbEntity
  8
1
  6
Continuous
 62
     7
100
AcDbLine
 10
326.1343493034938
 20
29.48008812878521
 30
0.0
 11
327.6333648816764
 21
29.48008812878521
 31
0.0
  0
LINE
  5
77
330
1F
100
AcDbEntity
  8
1
  6
Continuous
 62
     7
100
AcDbLine
 10
326.1343493034938
 20
29.23008812878521
 30
0.0
 11
326.1343493034938
 21
29.48008812878521
 31
0.0
  0
LINE
  5
78
330
1F
100
AcDbEntity
  8
1
  6
Continuous
 62
     7
100
AcDbLine
 10
326.1343493034938
 20
-13.01991187121479
 30
0.0
 11
326.1343493034938
 21
-12.76991187121479
 31
0.0
  0
LINE
  5
79
330
1F
100
AcDbEntity
  8
1
  6
Continuous
 62
     7
100
AcDbLine
 10
308.7457038364283
 20
29.48008812878521
 30
0.0
 11
313.9405163959822
 21
29.48008812878521
 31
0.0
  0
LINE
  5
7A
330
1F
100
AcDbEntity
  8
1
  6
Continuous
 62
     7
100
AcDbLine
 10
308.7457038364283
 20
29.48008812878521
 30
0.0
 11
308.7457038364283
 21
29.23008812878521
 31
0.0
  0
LINE
  5
7B
330
1F
100
AcDbEntity
  8
1
  6
Continuous
 62
     7
100
AcDbLine
 10
308.7457038364283
 20
19.28008812878522
 30
0.0
 11
306.1671685289561
 21
19.28008812878522
 31
0.0
  0
LINE
  5
7C
330
1F
100
AcDbEntity
  8
1
  6
Continuous
 62
     7
100
AcDbLine
 10
308.7457038364283
 20
19.28008812878522
 30
0.0
 11
308.7457038364283
 21
19.48008812878521
 31
0.0
  0
LINE
  5
7D
330
1F
100
AcDbEntity
  8
1
  6
Continuous
 62
     7
100
AcDbLine
 10
311.9980970989822
 20
-2.81991187121491
 30
0.0
 11
313.9405163959822
 21
-2.81991187121491
 31
0.0
  0
LINE
  5
7E
330
1F
100
AcDbEntity
  8
1
  6
Continuous
 62
     7
100
AcDbLine
 10
306.1671685289561
 20
-3.01991187121479
 30
0.0
 11
301.553842462469
 21
-3.01991187121479
 31
0.0
  0
LINE
  5
7F
330
1F
100
AcDbEntity
  8
1
  6
Continuous
 62
     7
100
AcDbLine
 10
308.7457038364283
 20
-2.81991187121491
 30
0.0
 11
311.9980970989822
 21
-2.81991187121491
 31
0.0
  0
LINE
  5
80
330
1F
100
AcDbEntity
  8
1
  6
Continuous
 62
     7
100
AcDbLine
 10
308.7457038364283
 20
-2.81991187121491
 30
0.0
 11
308.7457038364283
 21
-3.01991187121479
 31
0.0
  0
LINE
  5
81
330
1F
100
AcDbEntity
  8
1
  6
Continuous
 62
     7
100
AcDbLine
 10
306.1671685289561
 20
-12.76991187121479
 30
0.0
 11
301.553842462469
 21
-12.76991187121479
 31
0.0
  0
LINE
  5
82
330
1F
100
AcDbEntity
  8
1
  6
Continuous
 62
     7
100
AcDbLine
 10
308.7457038364283
 20
-13.01991187121479
 30
0.0
 11
307.6671685289561
 21
-13.01991187121479
 31
0.0
  0
LINE
  5
83
330
1F
100
AcDbEntity
  8
1
  6
Continuous
 62
     7
100
AcDbLine
 10
308.7457038364283
 20
-13.01991187121479
 30
0.0
 11
308.7457038364283
 21
-12.76991187121479
 31
0.0
  0
LINE
  5
84
330
1F
100
AcDbEntity
  8
1
  6
Continuous
 62
     7
100
AcDbLine
 10
311.9980970989822
 20
-13.01991187121479
 30
0.0
 11
308.7457038364283
 21
-13.01991187121479
 31
0.0
  0
LINE
  5
85
330
1F
100
AcDbEntity
  8
1
  6
Continuous
 62
     7
100
AcDbLine
 10
311.9980970989822
 20
-13.01991187121479
 30
0.0
 11
311.9980970989822
 21
-12.76991187121479
 31
0.0
  0
LINE
  5
86
330
1F
100
AcDbEntity
  8
1
  6
Continuous
 62
     7
100
AcDbLine
 10
293.9559502175917
 20
29.48008812878521
 30
0.0
 11
301.553842462469
 21
29.48008812878521
 31
0.0
  0
LINE
  5
87
330
1F
100
AcDbEntity
  8
1
  6
Continuous
 62
     7
100
AcDbLine
 10
301.553842462469
 20
29.23008812878521
 30
0.0
 11
293.9559502175917
 21
29.23008812878521
 31
0.0
  0
LINE
  5
88
330
1F
100
AcDbEntity
  8
1
  6
Continuous
 62
     7
100
AcDbLine
 10
293.9559502175917
 20
-13.01991187121479
 30
0.0
 11
292.7493700838509
 21
-13.01991187121479
 31
0.0
  0
LINE
  5
89
330
1F
100
AcDbEntity
  8
1
  6
Continuous
 62
     7
100
AcDbLine
 10
301.553842462469
 20
-12.76991187121479
 30
0.0
 11
293.9559502175917
 21
-12.76991187121479
 31
0.0
  0
LINE
  5
8A
330
1F
100
AcDbEntity
  8
1
  6
Continuous
 62
     7
100
AcDbLine
 10
308.7457038364283
 20
19.48008812878521
 30
0.0
 11
301.553842462469
 21
19.48008812878521
 31
0.0
  0
LINE
  5
8B
330
1F
100
AcDbEntity
  8
1
  6
Continuous
 62
     7
100
AcDbLine
 10
301.553842462469
 20
19.28008812878522
 30
0.0
 11
293.9559502175917
 21
19.28008812878511
 31
0.0
  0
LINE
  5
8C
330
1F
100
AcDbEntity
  8
1
  6
Continuous
 62
     7
100
AcDbLine
 10
306.1671685289561
 20
19.28008812878522
 30
0.0
 11
306.1671685289561
 21
19.48008812878521
 31
0.0
  0
LINE
  5
8D
330
1F
100
AcDbEntity
  8
1
  6
Continuous
 62
     7
100
AcDbLine
 10
293.9559502175917
 20
-2.81991187121491
 30
0.0
 11
301.553842462469
 21
-2.81991187121491
 31
0.0
  0
LINE
  5
8E
330
1F
100
AcDbEntity
  8
1
  6
Continuous
 62
     7
100
AcDbLine
 10
308.7457038364283
 20
-3.01991187121479
 30
0.0
 11
306.1671685289561
 21
-3.01991187121479
 31
0.0
  0
LINE
  5
8F
330
1F
100
AcDbEntity
  8
1
  6
Continuous
 62
     7
100
AcDbLine
 10
301.553842462469
 20
29.23008812878521
 30
0.0
 11
301.553842462469
 21
29.48008812878521
 31
0.0
  0
LINE
  5
90
330
1F
100
AcDbEntity
  8
1
  6
Continuous
 62
     7
100
AcDbLine
 10
308.7457038364283
 20
29.23008812878521
 30
0.0
 11
301.553842462469
 21
29.23008812878521
 31
0.0
  0
LINE
  5
91
330
1F
100
AcDbEntity
  8
1
  6
Continuous
 62
     7
100
AcDbLine
 10
306.1671685289561
 20
29.48008812878521
 30
0.0
 11
306.1671685289561
 21
29.23008812878521
 31
0.0
  0
LINE
  5
92
330
1F
100
AcDbEntity
  8
1
  6
Continuous
 62
     7
100
AcDbLine
 10
301.553842462469
 20
-12.76991187121479
 30
0.0
 11
301.553842462469
 21
-13.01991187121479
 31
0.0
  0
LINE
  5
93
330
1F
100
AcDbEntity
  8
1
  6
Continuous
 62
     7
100
AcDbLine
 10
308.7457038364283
 20
-12.76991187121479
 30
0.0
 11
306.1671685289561
 21
-12.76991187121479
 31
0.0
  0
LINE
  5
94
330
1F
100
AcDbEntity
  8
1
  6
Continuous
 62
     7
100
AcDbLine
 10
301.553842462469
 20
-13.01991187121479
 30
0.0
 11
300.053842462469
 21
-13.01991187121479
 31
0.0
  0
LINE
  5
95
330
1F
100
AcDbEntity
  8
1
  6
Continuous
 62
     7
100
AcDbLine
 10
306.1671685289561
 20
-2.81991187121491
 30
0.0
 11
306.1671685289561
 21
-3.01991187121479
 31
0.0
  0
LINE
  5
96
330
1F
100
AcDbEntity
  8
1
  6
Continuous
 62
     7
100
AcDbLine
 10
306.1671685289561
 20
-13.01991187121479
 30
0.0
 11
306.1671685289561
 21
-12.76991187121479
 31
0.0
  0
LINE
  5
97
330
1F
100
AcDbEntity
  8
1
  6
DOT_CENTER
 62
     2
100
AcDbLine
 10
297.553842462469
 20
-13.01991187121479
 30
0.0
 11
297.553842462469
 21
3.1347886671644
 31
0.0
  0
LINE
  5
98
330
1F
100
AcDbEntity
  8
1
  6
Continuous
 62
     7
100
AcDbLine
 10
307.6671685289561
 20
-13.01991187121479
 30
0.0
 11
306.1671685289561
 21
-13.01991187121479
 31
0.0
  0
LINE
  5
99
330
1F
100
AcDbEntity
  8
1
  6
DOT_CENTER
 62
     2
100
AcDbLine
 10
310.0538424624691
 20
19.23008812878521
 30
0.0
 11
310.0538424624691
 21
30.35697713819133
 31
0.0
  0
LINE
  5
9A
330
1F
100
AcDbEntity
  8
1
  6
Continuous
 62
     7
100
AcDbLine
 10
313.9405163959822
 20
-13.01991187121479
 30
0.0
 11
312.5538424624691
 21
-13.01991187121479
 31
0.0
  0
LINE
  5
9B
330
1F
100
AcDbEntity
  8
1
  6
Continuous
 62
     7
100
AcDbLine
 10
312.5538424624691
 20
-13.01991187121479
 30
0.0
 11
311.9980970989822
 21
-13.01991187121479
 31
0.0
  0
LINE
  5
9C
330
1F
100
AcDbEntity
  8
1
  6
Continuous
 62
     7
100
AcDbLine
 10
292.7493700838509
 20
29.48008812878521
 30
0.0
 11
293.9559502175917
 21
29.48008812878521
 31
0.0
  0
LINE
  5
9D
330
1F
100
AcDbEntity
  8
1
  6
DASHED
 62
     2
100
AcDbLine
 10
301.553842462469
 20
19.28008812878522
 30
0.0
 11
301.553842462469
 21
19.48008812878521
 31
0.0
  0
LINE
  5
9E
330
1F
100
AcDbEntity
  8
1
  6
Continuous
 62
     7
100
AcDbLine
 10
301.553842462469
 20
-2.81991187121491
 30
0.0
 11
301.553842462469
 21
-3.01991187121479
 31
0.0
  0
LINE
  5
9F
330
1F
100
AcDbEntity
  8
1
  6
Continuous
 62
     7
100
AcDbLine
 10
301.553842462469
 20
19.28008812878522
 30
0.0
 11
301.553842462469
 21
17.73008812878521
 31
0.0
  0
LINE
  5
A0
330
1F
100
AcDbEntity
  8
1
  6
Continuous
 62
     7
100
AcDbLine
 10
331.6333648816764
 20
29.23008812878521
 30
0.0
 11
326.1343493034938
 21
29.23008812878521
 31
0.0
  0
LINE
  5
A1
330
1F
100
AcDbEntity
  8
1
  6
Continuous
 62
     7
100
AcDbLine
 10
331.6333648816764
 20
-13.01991187121479
 30
0.0
 11
327.6333648816764
 21
-13.01991187121479
 31
0.0
  0
LINE
  5
A2
330
1F
100
AcDbEntity
  8
1
  6
Continuous
 62
     7
100
AcDbLine
 10
331.6333648816764
 20
-12.76991187121467
 30
0.0
 11
326.1343493034938
 21
-12.76991187121479
 31
0.0
  0
LINE
  5
A3
330
1F
100
AcDbEntity
  8
1
  6
Continuous
 62
     7
100
AcDbLine
 10
295.053842462469
 20
-13.01991187121479
 30
0.0
 11
293.9559502175917
 21
-13.01991187121479
 31
0.0
  0
LINE
  5
A4
330
1F
100
AcDbEntity
  8
1
  6
Continuous
 62
     7
100
AcDbLine
 10
331.6333648816764
 20
29.48008812878533
 30
0.0
 11
331.6333648816764
 21
-13.01991187121479
 31
0.0
  0
LINE
  5
A5
330
1F
100
AcDbEntity
  8
1
  6
Continuous
 62
     7
100
AcDbLine
 10
326.3921190286703
 20
-0.51991187121479
 30
0.0
 11
326.3921190286703
 21
16.98008812878521
 31
0.0
  0
LINE
  5
A6
330
1F
100
AcDbEntity
  8
1
  6
Continuous
 62
     7
100
AcDbLine
 10
313.9405163959822
 20
-3.01991187121479
 30
0.0
 11
323.8921190286703
 21
-3.01991187121479
 31
0.0
  0
LINE
  5
A7
330
1F
100
AcDbEntity
  8
1
  6
DOT_CENTER
 62
     2
100
AcDbLine
 10
297.553842462469
 20
3.1347886671644
 30
0.0
 11
297.553842462469
 21
29.48008812878521
 31
0.0
  0
LINE
  5
A8
330
1F
100
AcDbEntity
  8
1
  6
DOT_CENTER
 62
     2
100
AcDbLine
 10
310.0538424624691
 20
-13.8968008806209
 30
0.0
 11
310.0538424624691
 21
-2.76991187121479
 31
0.0
  0
LINE
  5
A9
330
1F
100
AcDbEntity
  8
1
  6
Continuous
 62
     7
100
AcDbLine
 10
326.1343493034938
 20
-13.01991187121479
 30
0.0
 11
323.0970499625979
 21
-13.01991187121479
 31
0.0
  0
LINE
  5
AA
330
1F
100
AcDbEntity
  8
1
  6
Continuous
 62
     7
100
AcDbLine
 10
323.0970499625979
 20
29.48008812878521
 30
0.0
 11
326.1343493034938
 21
29.48008812878521
 31
0.0
  0
LINE
  5
AB
330
1F
100
AcDbEntity
  8
1
  6
DOT_CENTER
 62
     2
100
AcDbLine
 10
327.6333648816764
 20
12.48853152965569
 30
0.0
 11
327.6333648816764
 21
-13.01991187121479
 31
0.0
  0
LINE
  5
AC
330
1F
100
AcDbEntity
  8
1
  6
DOT_CENTER
 62
     2
100
AcDbLine
 10
327.6333648816764
 20
29.48008812878521
 30
0.0
 11
327.6333648816764
 21
12.48853152965569
 31
0.0
  0
LINE
  5
AD
330
1F
100
AcDbEntity
  8
1
  6
Continuous
 62
     7
100
AcDbLine
 10
323.0970499625979
 20
-13.01991187121479
 30
0.0
 11
323.0970499625979
 21
-12.76991187121479
 31
0.0
  0
LINE
  5
AE
330
1F
100
AcDbEntity
  8
1
  6
Continuous
 62
     7
100
AcDbLine
 10
313.9405163959822
 20
29.23008812878521
 30
0.0
 11
323.0970499625979
 21
29.23008812878521
 31
0.0
  0
LINE
  5
AF
330
1F
100
AcDbEntity
  8
1
  6
Continuous
 62
     7
100
AcDbLine
 10
323.0970499625979
 20
-12.76991187121479
 30
0.0
 11
313.9405163959822
 21
-12.76991187121479
 31
0.0
  0
LINE
  5
B0
330
1F
100
AcDbEntity
  8
1
  6
Continuous
 62
     7
100
AcDbLine
 10
313.9405163959822
 20
-2.81991187121491
 30
0.0
 11
313.9405163959822
 21
-3.01991187121479
 31
0.0
  0
LINE
  5
B1
330
1F
100
AcDbEntity
  8
1
  6
Continuous
 62
     7
100
AcDbLine
 10
323.8921190286703
 20
19.48008812878533
 30
0.0
 11
313.9405163959822
 21
19.48008812878521
 31
0.0
  0
LINE
  5
B2
330
1F
100
AcDbEntity
  8
1
  6
Continuous
 62
     7
100
AcDbLine
 10
313.9405163959822
 20
29.48008812878521
 30
0.0
 11
313.9405163959822
 21
29.23008812878521
 31
0.0
  0
LINE
  5
B3
330
1F
100
AcDbEntity
  8
1
  6
Continuous
 62
     7
100
AcDbLine
 10
313.9405163959822
 20
19.48008812878521
 30
0.0
 11
313.9405163959822
 21
19.28008812878522
 31
0.0
  0
LINE
  5
B4
330
1F
100
AcDbEntity
  8
1
  6
Continuous
 62
     7
100
AcDbLine
 10
306.1671685289561
 20
29.48008812878521
 30
0.0
 11
308.7457038364283
 21
29.48008812878521
 31
0.0
  0
LINE
  5
B5
330
1F
100
AcDbEntity
  8
1
  6
Continuous
 62
     7
100
AcDbLine
 10
313.9405163959822
 20
-12.76991187121479
 30
0.0
 11
313.9405163959822
 21
-13.01991187121479
 31
0.0
  0
LINE
  5
B6
330
1F
100
AcDbEntity
  8
1
  6
Continuous
 62
     7
100
AcDbLine
 10
323.0970499625979
 20
29.23008812878521
 30
0.0
 11
323.0970499625979
 21
29.48008812878521
 31
0.0
  0
LINE
  5
B7
330
1F
100
AcDbEntity
  8
1
  6
Continuous
 62
     7
100
AcDbLine
 10
311.9980970989822
 20
-12.76991187121479
 30
0.0
 11
313.9405163959822
 21
-12.76991187121479
 31
0.0
  0
LINE
  5
B8
330
1F
100
AcDbEntity
  8
1
  6
Continuous
 62
     7
100
AcDbLine
 10
311.9980970989822
 20
-3.01991187121479
 30
0.0
 11
313.9405163959822
 21
-3.01991187121479
 31
0.0
  0
LINE
  5
B9
330
1F
100
AcDbEntity
  8
1
  6
Continuous
 62
     7
100
AcDbLine
 10
311.9980970989822
 20
-2.81991187121491
 30
0.0
 11
311.9980970989822
 21
-3.01991187121479
 31
0.0
  0
LINE
  5
BA
330
1F
100
AcDbEntity
  8
1
  6
Continuous
 62
     7
100
AcDbLine
 10
306.1671685289561
 20
-2.81991187121491
 30
0.0
 11
308.7457038364283
 21
-2.81991187121491
 31
0.0
  0
LINE
  5
BB
330
1F
100
AcDbEntity
  8
1
  6
Continuous
 62
     7
100
AcDbLine
 10
311.9980970989822
 20
19.48008812878521
 30
0.0
 11
313.9405163959822
 21
19.48008812878521
 31
0.0
  0
LINE
  5
BC
330
1F
100
AcDbEntity
  8
1
  6
Continuous
 62
     7
100
AcDbLine
 10
311.9980970989822
 20
29.23008812878521
 30
0.0
 11
313.9405163959822
 21
29.23008812878521
 31
0.0
  0
LINE
  5
BD
330
1F
100
AcDbEntity
  8
1
  6
Continuous
 62
     7
100
AcDbLine
 10
311.9980970989822
 20
19.28008812878522
 30
0.0
 11
311.9980970989822
 21
19.48008812878521
 31
0.0
  0
LINE
  5
BE
330
1F
100
AcDbEntity
  8
1
  6
Continuous
 62
     7
100
AcDbLine
 10
313.9405163959822
 20
19.28008812878522
 30
0.0
 11
308.7457038364283
 21
19.28008812878522
 31
0.0
  0
LINE
  5
BF
330
1F
100
AcDbEntity
  8
1
  6
Continuous
 62
     7
100
AcDbLine
 10
311.9980970989822
 20
29.48008812878521
 30
0.0
 11
311.9980970989822
 21
29.23008812878521
 31
0.0
  0
LINE
  5
C0
330
1F
100
AcDbEntity
  8
1
  6
Continuous
 62
     7
100
AcDbLine
 10
293.9559502175917
 20
19.48008812878521
 30
0.0
 11
293.8307178927257
 21
19.48008812878521
 31
0.0
  0
LINE
  5
C1
330
1F
100
AcDbEntity
  8
1
  6
Continuous
 62
     7
100
AcDbLine
 10
293.9559502175917
 20
19.28008812878511
 30
0.0
 11
293.9559502175917
 21
19.48008812878521
 31
0.0
  0
LINE
  5
C2
330
1F
100
AcDbEntity
  8
1
  6
Continuous
 62
     7
100
AcDbLine
 10
293.9559502175917
 20
-3.01991187121479
 30
0.0
 11
293.8307178927257
 21
-3.01991187121479
 31
0.0
  0
LINE
  5
C3
330
1F
100
AcDbEntity
  8
1
  6
Continuous
 62
     7
100
AcDbLine
 10
293.9559502175917
 20
-2.81991187121491
 30
0.0
 11
293.9559502175917
 21
-3.01991187121479
 31
0.0
  0
LINE
  5
C4
330
1F
100
AcDbEntity
  8
1
  6
Continuous
 62
     7
100
AcDbLine
 10
324.5538424624692
 20
-13.01991187121479
 30
0.0
 11
326.5538424624692
 21
-13.01991187121479
 31
0.0
  0
LINE
  5
C5
330
1F
100
AcDbEntity
  8
1
  6
Continuous
 62
     7
100
AcDbLine
 10
318.5538424624692
 20
-13.01991187121479
 30
0.0
 11
320.5538424624692
 21
-13.01991187121479
 31
0.0
  0
LINE
  5
C6
330
1F
100
AcDbEntity
  8
1
  6
Continuous
 62
     7
100
AcDbLine
 10
320.5538424624692
 20
-13.01991187121479
 30
0.0
 11
324.5538424624692
 21
-13.01991187121479
 31
0.0
  0
LINE
  5
C7
330
1F
100
AcDbEntity
  8
1
  6
Continuous
 62
     7
100
AcDbLine
 10
320.5538424624692
 20
-1.51991187121479
 30
0.0
 11
318.5538424624692
 21
-1.51991187121479
 31
0.0
  0
LINE
  5
C8
330
1F
100
AcDbEntity
  8
1
  6
Continuous
 62
     7
100
AcDbLine
 10
324.5538424624692
 20
-1.51991187121479
 30
0.0
 11
320.5538424624692
 21
-1.51991187121479
 31
0.0
  0
LINE
  5
C9
330
1F
100
AcDbEntity
  8
1
  6
Continuous
 62
     7
100
AcDbLine
 10
326.1834068761482
 20
-1.51991187121479
 30
0.0
 11
324.5538424624692
 21
-1.51991187121479
 31
0.0
  0
LINE
  5
CA
330
1F
100
AcDbEntity
  8
1
  6
Continuous
 62
     7
100
AcDbLine
 10
318.5538424624692
 20
-1.51991187121479
 30
0.0
 11
318.5538424624692
 21
-3.01991187121479
 31
0.0
  0
LINE
  5
CB
330
1F
100
AcDbEntity
  8
1
  6
DOT_CENTER
 62
     2
100
AcDbLine
 10
322.5538424624692
 20
-1.51991187121467
 30
0.0
 11
322.5538424624692
 21
-12.76991187121467
 31
0.0
  0
LINE
  5
CC
330
1F
100
AcDbEntity
  8
1
  6
DOT_CENTER
 62
     2
100
AcDbLine
 10
322.5538424624692
 20
29.23008812878521
 30
0.0
 11
322.5538424624692
 21
17.98008812878521
 31
0.0
  0
LINE
  5
CD
330
1F
100
AcDbEntity
  8
1
  6
Continuous
 62
     7
100
AcDbLine
 10
318.5538424624692
 20
19.48008812878521
 30
0.0
 11
318.5538424624692
 21
17.98008812878521
 31
0.0
  0
LINE
  5
CE
330
1F
100
AcDbEntity
  8
1
  6
Continuous
 62
     7
100
AcDbLine
 10
324.5538424624692
 20
17.98008812878521
 30
0.0
 11
326.1834068761482
 21
17.98008812878521
 31
0.0
  0
LINE
  5
CF
330
1F
100
AcDbEntity
  8
1
  6
Continuous
 62
     7
100
AcDbLine
 10
320.5538424624692
 20
17.98008812878521
 30
0.0
 11
324.5538424624692
 21
17.98008812878521
 31
0.0
  0
LINE
  5
D0
330
1F
100
AcDbEntity
  8
1
  6
Continuous
 62
     7
100
AcDbLine
 10
318.5538424624692
 20
17.98008812878521
 30
0.0
 11
320.5538424624692
 21
17.98008812878521
 31
0.0
  0
LINE
  5
D1
330
1F
100
AcDbEntity
  8
1
  6
Continuous
 62
     7
100
AcDbLine
 10
324.5538424624692
 20
29.48008812878521
 30
0.0
 11
320.5538424624692
 21
29.48008812878521
 31
0.0
  0
LINE
  5
D2
330
1F
100
AcDbEntity
  8
1
  6
Continuous
 62
     7
100
AcDbLine
 10
320.5538424624692
 20
29.48008812878521
 30
0.0
 11
318.5538424624692
 21
29.48008812878521
 31
0.0
  0
LINE
  5
D3
330
1F
100
AcDbEntity
  8
1
  6
Continuous
 62
     7
100
AcDbLine
 10
326.5538424624692
 20
29.48008812878521
 30
0.0
 11
324.5538424624692
 21
29.48008812878521
 31
0.0
  0
LINE
  5
D4
330
1F
100
AcDbEntity
  8
1
  6
Continuous
 62
     7
100
AcDbLine
 10
326.1834068761482
 20
-1.51991187121479
 30
0.0
 11
326.1517347073466
 21
-1.51991187121479
 31
0.0
  0
LINE
  5
D5
330
1F
100
AcDbEntity
  8
1
  6
Continuous
 62
     7
100
AcDbLine
 10
326.1834068761482
 20
17.98008812878521
 30
0.0
 11
326.1517347073466
 21
17.98008812878521
 31
0.0
  0
LINE
  5
D6
330
1F
100
AcDbEntity
  8
1
  6
Continuous
 62
     7
100
AcDbLine
 10
288.4743200432619
 20
29.23008812878521
 30
0.0
 11
288.4743200432619
 21
-12.76991187121479
 31
0.0
  0
LINE
  5
D7
330
1F
100
AcDbEntity
  8
1
  6
Continuous
 62
     7
100
AcDbLine
 10
288.4743200432619
 20
-12.76991187121479
 30
0.0
 11
293.9733356214445
 21
-12.76991187121479
 31
0.0
  0
LINE
  5
D8
330
1F
100
AcDbEntity
  8
1
  6
Continuous
 62
     7
100
AcDbLine
 10
288.4743200432619
 20
-13.01991187121479
 30
0.0
 11
292.4743200432619
 21
-13.01991187121479
 31
0.0
  0
LINE
  5
D9
330
1F
100
AcDbEntity
  8
1
  6
Continuous
 62
     7
100
AcDbLine
 10
293.9733356214445
 20
-12.76991187121479
 30
0.0
 11
293.9733356214445
 21
-13.01991187121479
 31
0.0
  0
LINE
  5
DA
330
1F
100
AcDbEntity
  8
1
  6
Continuous
 62
     7
100
AcDbLine
 10
288.4743200432619
 20
29.48008812878521
 30
0.0
 11
288.4743200432619
 21
29.23008812878521
 31
0.0
  0
LINE
  5
DB
330
1F
100
AcDbEntity
  8
1
  6
Continuous
 62
     7
100
AcDbLine
 10
288.4743200432619
 20
29.23008812878521
 30
0.0
 11
293.9733356214445
 21
29.23008812878521
 31
0.0
  0
LINE
  5
DC
330
1F
100
AcDbEntity
  8
1
  6
Continuous
 62
     7
100
AcDbLine
 10
297.0106349623406
 20
29.48008812878521
 30
0.0
 11
293.9733356214445
 21
29.48008812878521
 31
0.0
  0
LINE
  5
DD
330
1F
100
AcDbEntity
  8
1
  6
Continuous
 62
     7
100
AcDbLine
 10
293.9733356214445
 20
29.23008812878521
 30
0.0
 11
293.9733356214445
 21
29.48008812878521
 31
0.0
  0
LINE
  5
DE
330
1F
100
AcDbEntity
  8
1
  6
Continuous
 62
     7
100
AcDbLine
 10
313.9405163959822
 20
-1.26991187121479
 30
0.0
 11
311.3619810885098
 21
-1.26991187121479
 31
0.0
  0
LINE
  5
DF
330
1F
100
AcDbEntity
  8
1
  6
Continuous
 62
     7
100
AcDbLine
 10
313.9405163959822
 20
-1.51991187121479
 30
0.0
 11
311.3619810885098
 21
-1.51991187121479
 31
0.0
  0
LINE
  5
E0
330
1F
100
AcDbEntity
  8
1
  6
Continuous
 62
     7
100
AcDbLine
 10
311.3619810885098
 20
-1.26991187121479
 30
0.0
 11
311.3619810885098
 21
-1.51991187121479
 31
0.0
  0
LINE
  5
E1
330
1F
100
AcDbEntity
  8
1
  6
Continuous
 62
     7
100
AcDbLine
 10
313.9405163959822
 20
17.98008812878521
 30
0.0
 11
311.3619810885098
 21
17.98008812878521
 31
0.0
  0
LINE
  5
E2
330
1F
100
AcDbEntity
  8
1
  6
Continuous
 62
     7
100
AcDbLine
 10
311.3619810885098
 20
17.98008812878521
 30
0.0
 11
311.3619810885098
 21
17.73008812878521
 31
0.0
  0
LINE
  5
E3
330
1F
100
AcDbEntity
  8
1
  6
Continuous
 62
     7
100
AcDbLine
 10
311.3619810885098
 20
17.73008812878521
 30
0.0
 11
313.9405163959822
 21
17.73008812878521
 31
0.0
  0
LINE
  5
E4
330
1F
100
AcDbEntity
  8
1
  6
Continuous
 62
     7
100
AcDbLine
 10
313.9405163959822
 20
17.73008812878521
 30
0.0
 11
313.9405163959822
 21
17.98008812878521
 31
0.0
  0
LINE
  5
E5
330
1F
100
AcDbEntity
  8
1
  6
Continuous
 62
     7
100
AcDbLine
 10
313.9405163959822
 20
-1.26991187121479
 30
0.0
 11
313.9405163959822
 21
-1.51991187121479
 31
0.0
  0
LINE
  5
E6
330
1F
100
AcDbEntity
  8
1
  6
Continuous
 62
     7
100
AcDbLine
 10
326.1517347073466
 20
17.98008812878521
 30
0.0
 11
318.5545647987643
 21
17.98008812878521
 31
0.0
  0
LINE
  5
E7
330
1F
100
AcDbEntity
  8
1
  6
Continuous
 62
     7
100
AcDbLine
 10
326.1517347073466
 20
-1.51991187121479
 30
0.0
 11
318.5545647987642
 21
-1.51991187121479
 31
0.0
  0
LINE
  5
E8
330
1F
100
AcDbEntity
  8
1
  6
Continuous
 62
     7
100
AcDbLine
 10
318.5545647987642
 20
-1.26991187121479
 30
0.0
 11
313.9405163959822
 21
-1.26991187121479
 31
0.0
  0
LINE
  5
E9
330
1F
100
AcDbEntity
  8
1
  6
Continuous
 62
     7
100
AcDbLine
 10
318.5545647987642
 20
17.73008812878521
 30
0.0
 11
313.9405163959822
 21
17.73008812878521
 31
0.0
  0
LINE
  5
EA
330
1F
100
AcDbEntity
  8
1
  6
Continuous
 62
     7
100
AcDbLine
 10
326.1517347073466
 20
17.98008812878521
 30
0.0
 11
326.1517347073466
 21
17.73008812878521
 31
0.0
  0
LINE
  5
EB
330
1F
100
AcDbEntity
  8
1
  6
Continuous
 62
     7
100
AcDbLine
 10
326.1517347073466
 20
-1.26991187121479
 30
0.0
 11
326.1517347073466
 21
-1.51991187121479
 31
0.0
  0
LINE
  5
EC
330
1F
100
AcDbEntity
  8
1
  6
Continuous
 62
     7
100
AcDbLine
 10
308.1095878259561
 20
-1.26991187121479
 30
0.0
 11
308.1095878259561
 21
-1.51991187121479
 31
0.0
  0
LINE
  5
ED
330
1F
100
AcDbEntity
  8
1
  6
Continuous
 62
     7
100
AcDbLine
 10
308.1095878259561
 20
17.73008812878521
 30
0.0
 11
308.1095878259561
 21
17.98008812878521
 31
0.0
  0
LINE
  5
EE
330
1F
100
AcDbEntity
  8
1
  6
Continuous
 62
     7
100
AcDbLine
 10
306.1671685289561
 20
17.98008812878521
 30
0.0
 11
306.167168528956
 21
17.73008812878521
 31
0.0
  0
LINE
  5
EF
330
1F
100
AcDbEntity
  8
1
  6
DOT_CENTER
 62
     2
100
AcDbLine
 10
322.5538424624692
 20
-1.51991187121467
 30
0.0
 11
322.5538424624692
 21
17.98008812878521
 31
0.0
  0
LINE
  5
F0
330
1F
100
AcDbEntity
  8
1
  6
Continuous
 62
     7
100
AcDbLine
 10
293.9733356214445
 20
29.48008812878521
 30
0.0
 11
292.4743200432619
 21
29.48008812878521
 31
0.0
  0
LINE
  5
F1
330
1F
100
AcDbEntity
  8
1
  6
Continuous
 62
     7
100
AcDbLine
 10
293.9733356214445
 20
-13.01991187121479
 30
0.0
 11
297.0106349623406
 21
-13.01991187121479
 31
0.0
  0
LINE
  5
F2
330
1F
100
AcDbEntity
  8
1
  6
Continuous
 62
     7
100
AcDbLine
 10
318.5545647987642
 20
17.73008812878521
 30
0.0
 11
318.5545647987643
 21
17.98008812878521
 31
0.0
  0
LINE
  5
F3
330
1F
100
AcDbEntity
  8
1
  6
Continuous
 62
     7
100
AcDbLine
 10
318.5545647987642
 20
-1.51991187121479
 30
0.0
 11
318.5545647987642
 21
-1.26991187121479
 31
0.0
  0
LINE
  5
F4
330
1F
100
AcDbEntity
  8
1
  6
Continuous
 62
     7
100
AcDbLine
 10
306.1671685289561
 20
-1.51991187121479
 30
0.0
 11
306.167168528956
 21
-1.26991187121479
 31
0.0
  0
LINE
  5
F5
330
1F
100
AcDbEntity
  8
1
  6
Continuous
 62
     7
100
AcDbLine
 10
311.3619810885098
 20
17.98008812878521
 30
0.0
 11
306.1671685289561
 21
17.98008812878521
 31
0.0
  0
LINE
  5
F6
330
1F
100
AcDbEntity
  8
1
  6
Continuous
 62
     7
100
AcDbLine
 10
308.1095878259561
 20
17.73008812878521
 30
0.0
 11
296.215565896268
 21
17.73008812878521
 31
0.0
  0
LINE
  5
F7
330
1F
100
AcDbEntity
  8
1
  6
Continuous
 62
     7
100
AcDbLine
 10
308.1095878259561
 20
-1.26991187121479
 30
0.0
 11
296.215565896268
 21
-1.26991187121479
 31
0.0
  0
LINE
  5
F8
330
1F
100
AcDbEntity
  8
1
  6
Continuous
 62
     7
100
AcDbLine
 10
288.4743200432619
 20
-12.76991187121479
 30
0.0
 11
288.4743200432619
 21
-13.01991187121479
 31
0.0
  0
LINE
  5
F9
330
1F
100
AcDbEntity
  8
1
  6
Continuous
 62
     7
100
AcDbLine
 10
326.1517347073466
 20
-1.26991187121479
 30
0.0
 11
318.5545647987642
 21
-1.26991187121479
 31
0.0
  0
LINE
  5
FA
330
1F
100
AcDbEntity
  8
1
  6
Continuous
 62
     7
100
AcDbLine
 10
293.715565896268
 20
-3.76991187121479
 30
0.0
 11
293.715565896268
 21
-12.76991187121479
 31
0.0
  0
LINE
  5
FB
330
1F
100
AcDbEntity
  8
1
  6
Continuous
 62
     7
100
AcDbLine
 10
326.1517347073466
 20
17.73008812878521
 30
0.0
 11
318.5545647987642
 21
17.73008812878521
 31
0.0
  0
LINE
  5
FC
330
1F
100
AcDbEntity
  8
1
  6
DOT_CENTER
 62
     2
100
AcDbLine
 10
310.0538424624691
 20
-1.51991187121479
 30
0.0
 11
310.0538424624691
 21
8.23008812878519
 31
0.0
  0
LINE
  5
FD
330
1F
100
AcDbEntity
  8
1
  6
DOT_CENTER
 62
     2
100
AcDbLine
 10
292.4743200432619
 20
12.01437260824889
 30
0.0
 11
292.4743200432619
 21
29.48008812878521
 31
0.0
  0
LINE
  5
FE
330
1F
100
AcDbEntity
  8
1
  6
Continuous
 62
     7
100
AcDbLine
 10
293.715565896268
 20
20.23008812878521
 30
0.0
 11
293.715565896268
 21
29.23008812878521
 31
0.0
  0
LINE
  5
FF
330
1F
100
AcDbEntity
  8
1
  6
Continuous
 62
     7
100
AcDbLine
 10
311.3619810885098
 20
-1.51991187121479
 30
0.0
 11
306.1671685289561
 21
-1.51991187121479
 31
0.0
  0
LINE
  5
100
330
1F
100
AcDbEntity
  8
1
  6
DOT_CENTER
 62
     7
100
AcDbLine
 10
310.0538424624691
 20
8.23008812878519
 30
0.0
 11
271.8060201136147
 21
8.23008812878521
 31
0.0
  0
LINE
  5
101
330
1F
100
AcDbEntity
  8
1
  6
DOT_CENTER
 62
     2
100
AcDbLine
 10
292.4743200432619
 20
-13.01991187121479
 30
0.0
 11
292.4743200432619
 21
12.01437260824889
 31
0.0
  0
LINE
  5
102
330
1F
100
AcDbEntity
  8
1
  6
DOT_CENTER
 62
     2
100
AcDbLine
 10
310.0538424624691
 20
-1.51991187121479
 30
0.0
 11
310.0538424624691
 21
-2.76991187121479
 31
0.0
  0
LINE
  5
103
330
1F
100
AcDbEntity
  8
0
  6
Continuous
 62
     7
100
AcDbLine
 10
306.1671685289561
 20
-1.51991187121479
 30
0.0
 11
306.1671685289561
 21
-2.81991187121491
 31
0.0
  0
LINE
  5
104
330
1F
100
AcDbEntity
  8
0
  6
Continuous
 62
     7
100
AcDbLine
 10
313.9405163959822
 20
-2.81991187121491
 30
0.0
 11
313.9405163959822
 21
-1.51991187121479
 31
0.0
  0
LINE
  5
105
330
1F
100
AcDbEntity
  8
0
  6
Continuous
 62
     7
100
AcDbLine
 10
313.9405163959822
 20
17.98008812878521
 30
0.0
 11
313.9405163959822
 21
19.28008812878522
 31
0.0
  0
LINE
  5
106
330
1F
100
AcDbEntity
  8
0
  6
Continuous
 62
     7
100
AcDbLine
 10
306.1671685289561
 20
19.28008812878522
 30
0.0
 11
306.1671685289561
 21
17.98008812878521
 31
0.0
  0
LINE
  5
107
330
1F
100
AcDbEntity
  8
1
  6
DOT_CENTER
 62
     2
100
AcDbLine
 10
310.0538424624691
 20
19.23008812878521
 30
0.0
 11
310.0538424624691
 21
17.98008812878521
 31
0.0
  0
LINE
  5
108
330
1F
100
AcDbEntity
  8
0
  6
Continuous
 62
     7
100
AcDbLine
 10
326.5538424624692
 20
-13.01991187121479
 30
0.0
 11
327.6333648816764
 21
-13.01991187121479
 31
0.0
  0
LINE
  5
109
330
1F
100
AcDbEntity
  8
0
  6
Continuous
 62
     7
100
AcDbLine
 10
331.5628065329916
 20
-14.2699118712149
 30
0.0
 11
331.5628065329916
 21
-13.0199118712149
 31
0.0
  0
LINE
  5
10A
330
1F
100
AcDbEntity
  8
1
  6
DOT_CENTER
 62
     2
100
AcDbLine
 10
322.5538424624692
 20
-14.2699118712149
 30
0.0
 11
322.5538424624692
 21
-11.61991187121487
 31
0.0
  0
LINE
  5
10B
330
1F
100
AcDbEntity
  8
0
  6
Continuous
 62
     7
100
AcDbLine
 10
318.5538424624692
 20
-13.01991187121479
 30
0.0
 11
326.5538424624692
 21
-13.01991187121479
 31
0.0
  0
LINE
  5
10C
330
1F
100
AcDbEntity
  8
0
  6
Continuous
 62
     7
100
AcDbLine
 10
326.5538424624692
 20
-14.2699118712149
 30
0.0
 11
326.5538424624692
 21
-13.01991187121479
 31
0.0
  0
LINE
  5
10D
330
1F
100
AcDbEntity
  8
0
  6
Continuous
 62
     7
100
AcDbLine
 10
318.5538424624692
 20
-13.01991187121479
 30
0.0
 11
318.5538424624692
 21
-14.2699118712149
 31
0.0
  0
LINE
  5
10E
330
1F
100
AcDbEntity
  8
1
  6
DOT_CENTER
 62
     2
100
AcDbLine
 10
322.5538424624692
 20
-12.76991187121467
 30
0.0
 11
322.5538424624691
 21
-16.20781739937377
 31
0.0
  0
LINE
  5
10F
330
1F
100
AcDbEntity
  8
1
  6
Continuous
 62
     7
100
AcDbLine
 10
342.5538424624692
 20
-21.26991187121479
 30
0.0
 11
318.5538424624692
 21
-21.26991187121479
 31
0.0
  0
LINE
  5
110
330
1F
100
AcDbEntity
  8
1
  6
Continuous
 62
     7
100
AcDbLine
 10
333.5538424624691
 20
-14.26991187121479
 30
0.0
 11
318.5538424624692
 21
-14.2699118712149
 31
0.0
  0
LINE
  5
111
330
1F
100
AcDbEntity
  8
1
  6
Continuous
 62
     7
100
AcDbLine
 10
342.5538424624692
 20
-14.2699118712149
 30
0.0
 11
333.5538424624691
 21
-14.26991187121479
 31
0.0
  0
LINE
  5
112
330
1F
100
AcDbEntity
  8
1
  6
Continuous
 62
     7
100
AcDbLine
 10
318.5538424624692
 20
-24.2699118712149
 30
0.0
 11
318.5538424624692
 21
-14.2699118712149
 31
0.0
  0
LINE
  5
113
330
1F
100
AcDbEntity
  8
1
  6
Continuous
 62
     7
100
AcDbLine
 10
342.5538424624692
 20
-24.2699118712149
 30
0.0
 11
342.5538424624692
 21
-14.2699118712149
 31
0.0
  0
LINE
  5
114
330
1F
100
AcDbEntity
  8
1
  6
DOT_CENTER
 62
     2
100
AcDbLine
 10
329.5538424624691
 20
65.73008812878521
 30
0.0
 11
344.5538424624691
 21
65.73008812878521
 31
0.0
  0
LINE
  5
115
330
1F
100
AcDbEntity
  8
1
  6
DOT_CENTER
 62
     2
100
AcDbLine
 10
316.6538424624691
 20
75.73008812878521
 30
0.0
 11
331.5538424624691
 21
75.73008812878521
 31
0.0
  0
LINE
  5
116
330
1F
100
AcDbEntity
  8
1
  6
DOT_CENTER
 62
     2
100
AcDbLine
 10
324.5538424624691
 20
68.73008812878521
 30
0.0
 11
324.5538424624691
 21
83.73008812878521
 31
0.0
  0
LINE
  5
117
330
1F
100
AcDbEntity
  8
1
  6
Continuous
 62
     7
100
AcDbLine
 10
343.5538424624692
 20
72.83008812878518
 30
0.0
 11
343.5538424624692
 21
40.73008812878526
 31
0.0
  0
LINE
  5
118
330
1F
100
AcDbEntity
  8
1
  6
Continuous
 62
     7
100
AcDbLine
 10
317.5538424624691
 20
40.73008812878526
 30
0.0
 11
317.5538424624691
 21
72.83008812878509
 31
0.0
  0
LINE
  5
119
330
1F
100
AcDbEntity
  8
1
  6
Continuous
 62
     7
100
AcDbLine
 10
342.5538424624692
 20
30.73008812878533
 30
0.0
 11
342.5538424624692
 21
40.73008812878526
 31
0.0
  0
LINE
  5
11A
330
1F
100
AcDbEntity
  8
1
  6
Continuous
 62
     7
100
AcDbLine
 10
333.5538424624691
 20
30.73008812878521
 30
0.0
 11
342.5538424624692
 21
30.73008812878533
 31
0.0
  0
LINE
  5
11B
330
1F
100
AcDbEntity
  8
1
  6
Continuous
 62
     7
100
AcDbLine
 10
318.5538424624692
 20
30.73008812878521
 30
0.0
 11
333.5538424624691
 21
30.73008812878521
 31
0.0
  0
LINE
  5
11C
330
1F
100
AcDbEntity
  8
1
  6
Continuous
 62
     7
100
AcDbLine
 10
318.5538424624692
 20
37.73008812878521
 30
0.0
 11
342.5538424624692
 21
37.73008812878521
 31
0.0
  0
LINE
  5
11D
330
1F
100
AcDbEntity
  8
1
  6
DOT_CENTER
 62
     2
100
AcDbLine
 10
322.5538424624691
 20
32.48008812878521
 30
0.0
 11
322.5538424624692
 21
29.23008812878521
 31
0.0
  0
LINE
  5
11E
330
1F
100
AcDbEntity
  8
0
  6
Continuous
 62
     7
100
AcDbLine
 10
318.5538424624692
 20
30.73008812878521
 30
0.0
 11
318.5538424624692
 21
29.48008812878521
 31
0.0
  0
LINE
  5
11F
330
1F
100
AcDbEntity
  8
0
  6
Continuous
 62
     7
100
AcDbLine
 10
326.5538424624692
 20
29.48008812878521
 30
0.0
 11
326.5538424624692
 21
30.73008812878533
 31
0.0
  0
LINE
  5
120
330
1F
100
AcDbEntity
  8
0
  6
Continuous
 62
     7
100
AcDbLine
 10
326.5538424624692
 20
29.48008812878521
 30
0.0
 11
318.5538424624692
 21
29.48008812878521
 31
0.0
  0
LINE
  5
121
330
1F
100
AcDbEntity
  8
1
  6
DOT_CENTER
 62
     2
100
AcDbLine
 10
322.5538424624692
 20
28.08008812878529
 30
0.0
 11
322.5538424624692
 21
30.73008812878533
 31
0.0
  0
LINE
  5
122
330
1F
100
AcDbEntity
  8
0
  6
Continuous
 62
     7
100
AcDbLine
 10
331.5628065329916
 20
29.48008812878533
 30
0.0
 11
331.5628065329916
 21
30.73008812878533
 31
0.0
  0
LINE
  5
123
330
1F
100
AcDbEntity
  8
0
  6
Continuous
 62
     7
100
AcDbLine
 10
331.5628065329916
 20
29.48008812878533
 30
0.0
 11
327.6333648816764
 21
29.48008812878521
 31
0.0
  0
LINE
  5
124
330
1F
100
AcDbEntity
  8
1
  6
Continuous
 62
     7
100
AcDbLine
 10
340.5538424624692
 20
30.73008812878521
 30
0.0
 11
341.5538424624692
 21
30.73008812878521
 31
0.0
  0
LINE
  5
125
330
1F
100
AcDbEntity
  8
1
  6
DOT_CENTER
 62
     7
100
AcDbLine
 10
316.8494913076972
 20
8.2300881287851
 30
0.0
 11
355.537889712561
 21
8.23008812878521
 31
0.0
  0
LINE
  5
126
330
1F
100
AcDbEntity
  8
1
  6
DASHED
 62
     2
100
AcDbLine
 10
340.5538424624692
 20
-14.26991187121479
 30
0.0
 11
341.5538424624692
 21
-14.26991187121479
 31
0.0
  0
LINE
  5
127
330
1F
100
AcDbEntity
  8
1
  6
DASHED
 62
     2
100
AcDbLine
 10
320.5538424624692
 20
30.73008812878521
 30
0.0
 11
319.5538424624692
 21
30.73008812878521
 31
0.0
  0
LINE
  5
128
330
1F
100
AcDbEntity
  8
1
  6
Continuous
 62
     7
100
AcDbLine
 10
342.5538424624692
 20
29.73008812878521
 30
0.0
 11
342.5538424624692
 21
-13.26991187121479
 31
0.0
  0
LINE
  5
129
330
1F
100
AcDbEntity
  8
1
  6
DASHED
 62
     2
100
AcDbLine
 10
319.5538424624692
 20
-14.26991187121479
 30
0.0
 11
320.5538424624692
 21
-14.26991187121479
 31
0.0
  0
LINE
  5
12A
330
1F
100
AcDbEntity
  8
0
  6
Continuous
 62
     7
100
AcDbLine
 10
288.5021894247759
 20
30.73008812878521
 30
0.0
 11
288.5021894247759
 21
29.48008812878521
 31
0.0
  0
LINE
  5
12B
330
1F
100
AcDbEntity
  8
0
  6
Continuous
 62
     7
100
AcDbLine
 10
293.4553276761553
 20
29.48008812878521
 30
0.0
 11
292.4743200432619
 21
29.48008812878521
 31
0.0
  0
LINE
  5
12C
330
1F
100
AcDbEntity
  8
0
  6
Continuous
 62
     7
100
AcDbLine
 10
293.553842462469
 20
30.73008812878521
 30
0.0
 11
293.553842462469
 21
29.48008812878521
 31
0.0
  0
LINE
  5
12D
330
1F
100
AcDbEntity
  8
0
  6
Continuous
 62
     7
100
AcDbLine
 10
301.553842462469
 20
29.48008812878521
 30
0.0
 11
301.553842462469
 21
30.73008812878521
 31
0.0
  0
LINE
  5
12E
330
1F
100
AcDbEntity
  8
0
  6
Continuous
 62
     7
100
AcDbLine
 10
301.553842462469
 20
29.48008812878521
 30
0.0
 11
293.553842462469
 21
29.48008812878521
 31
0.0
  0
LINE
  5
12F
330
1F
100
AcDbEntity
  8
1
  6
DOT_CENTER
 62
     2
100
AcDbLine
 10
297.553842462469
 20
28.08008812878512
 30
0.0
 11
297.553842462469
 21
30.73008812878521
 31
0.0
  0
LINE
  5
130
330
1F
100
AcDbEntity
  8
1
  6
Continuous
 62
     7
100
AcDbLine
 10
276.553842462469
 20
30.73008812878521
 30
0.0
 11
302.553842462469
 21
30.73008812878521
 31
0.0
  0
LINE
  5
131
330
1F
100
AcDbEntity
  8
1
  6
DOT_CENTER
 62
     2
100
AcDbLine
 10
297.553842462469
 20
29.23008812878521
 30
0.0
 11
297.553842462469
 21
32.48008812878521
 31
0.0
  0
LINE
  5
132
330
1F
100
AcDbEntity
  8
1
  6
Continuous
 62
     7
100
AcDbLine
 10
276.553842462469
 20
37.73008812878521
 30
0.0
 11
276.553842462469
 21
30.73008812878521
 31
0.0
  0
LINE
  5
133
330
1F
100
AcDbEntity
  8
1
  6
Continuous
 62
     7
100
AcDbLine
 10
302.553842462469
 20
30.73008812878521
 30
0.0
 11
302.553842462469
 21
37.73008812878521
 31
0.0
  0
LINE
  5
134
330
1F
100
AcDbEntity
  8
1
  6
Continuous
 62
     7
100
AcDbLine
 10
276.553842462469
 20
37.73008812878521
 30
0.0
 11
302.553842462469
 21
37.73008812878521
 31
0.0
  0
LINE
  5
135
330
1F
100
AcDbEntity
  8
1
  6
Continuous
 62
     7
100
AcDbLine
 10
302.553842462469
 20
-21.26991187121479
 30
0.0
 11
276.553842462469
 21
-21.26991187121479
 31
0.0
  0
LINE
  5
136
330
1F
100
AcDbEntity
  8
1
  6
Continuous
 62
     7
100
AcDbLine
 10
302.553842462469
 20
-21.26991187121479
 30
0.0
 11
302.553842462469
 21
-14.26991187121479
 31
0.0
  0
LINE
  5
137
330
1F
100
AcDbEntity
  8
1
  6
Continuous
 62
     7
100
AcDbLine
 10
276.553842462469
 20
-14.26991187121479
 30
0.0
 11
276.553842462469
 21
-21.26991187121479
 31
0.0
  0
LINE
  5
138
330
1F
100
AcDbEntity
  8
1
  6
DOT_CENTER
 62
     2
100
AcDbLine
 10
297.553842462469
 20
-16.01991187121479
 30
0.0
 11
297.553842462469
 21
-12.76991187121479
 31
0.0
  0
LINE
  5
139
330
1F
100
AcDbEntity
  8
1
  6
Continuous
 62
     7
100
AcDbLine
 10
302.553842462469
 20
-14.26991187121479
 30
0.0
 11
276.553842462469
 21
-14.26991187121479
 31
0.0
  0
LINE
  5
13A
330
1F
100
AcDbEntity
  8
1
  6
DOT_CENTER
 62
     2
100
AcDbLine
 10
297.553842462469
 20
-14.26991187121479
 30
0.0
 11
297.553842462469
 21
-11.6199118712147
 31
0.0
  0
LINE
  5
13B
330
1F
100
AcDbEntity
  8
0
  6
Continuous
 62
     7
100
AcDbLine
 10
293.553842462469
 20
-13.01991187121479
 30
0.0
 11
301.553842462469
 21
-13.01991187121479
 31
0.0
  0
LINE
  5
13C
330
1F
100
AcDbEntity
  8
0
  6
Continuous
 62
     7
100
AcDbLine
 10
301.553842462469
 20
-14.26991187121479
 30
0.0
 11
301.553842462469
 21
-13.01991187121479
 31
0.0
  0
LINE
  5
13D
330
1F
100
AcDbEntity
  8
0
  6
Continuous
 62
     7
100
AcDbLine
 10
293.553842462469
 20
-13.01991187121479
 30
0.0
 11
293.553842462469
 21
-14.26991187121479
 31
0.0
  0
LINE
  5
13E
330
1F
100
AcDbEntity
  8
0
  6
Continuous
 62
     7
100
AcDbLine
 10
288.5021894247759
 20
-13.01991187121479
 30
0.0
 11
292.4743200432619
 21
-13.01991187121479
 31
0.0
  0
LINE
  5
13F
330
1F
100
AcDbEntity
  8
0
  6
Continuous
 62
     7
100
AcDbLine
 10
288.5021894247759
 20
-13.01991187121479
 30
0.0
 11
288.5021894247759
 21
-14.26991187121479
 31
0.0
  0
LINE
  5
140
330
1F
100
AcDbEntity
  8
1
  6
DOT_CENTER
 62
     2
100
AcDbLine
 10
290.8288424624689
 20
-49.26991187121499
 30
0.0
 11
276.2788424624692
 21
-49.26991187121499
 31
0.0
  0
LINE
  5
141
330
1F
100
AcDbEntity
  8
1
  6
DOT_CENTER
 62
     2
100
AcDbLine
 10
283.5538424624691
 20
-56.54491187121491
 30
0.0
 11
283.5538424624691
 21
-41.99491187121506
 31
0.0
  0
LINE
  5
142
330
1F
100
AcDbEntity
  8
1
  6
DOT_CENTER
 62
     2
100
AcDbLine
 10
298.5538424624691
 20
-59.26991187121499
 30
0.0
 11
305.4225900307353
 21
-59.26991187121499
 31
0.0
  0
LINE
  5
143
330
1F
100
AcDbEntity
  8
1
  6
DOT_CENTER
 62
     2
100
AcDbLine
 10
327.5538424624691
 20
-59.2699118712149
 30
0.0
 11
316.6538424624691
 21
-59.2699118712149
 31
0.0
  0
LINE
  5
144
330
1F
100
AcDbEntity
  8
1
  6
DOT_CENTER
 62
     2
100
AcDbLine
 10
339.5538424624691
 20
-49.2699118712149
 30
0.0
 11
329.5538424624691
 21
-49.2699118712149
 31
0.0
  0
LINE
  5
145
330
1F
100
AcDbEntity
  8
1
  6
DOT_CENTER
 62
     2
100
AcDbLine
 10
292.4743200432619
 20
-13.01991187121479
 30
0.0
 11
292.4743200432619
 21
-16.01991187121479
 31
0.0
  0
LINE
  5
146
330
1F
100
AcDbEntity
  8
1
  6
Continuous
 62
     7
100
AcDbLine
 10
292.4743200432619
 20
-13.01991187121479
 30
0.0
 11
293.9733356214445
 21
-13.01991187121479
 31
0.0
  0
LINE
  5
147
330
1F
100
AcDbEntity
  8
0
  6
Continuous
 62
     7
100
AcDbLine
 10
292.4743200432619
 20
-13.01991187121479
 30
0.0
 11
293.4553276761553
 21
-13.01991187121479
 31
0.0
  0
LINE
  5
148
330
1F
100
AcDbEntity
  8
1
  6
DOT_CENTER
 62
     2
100
AcDbLine
 10
292.4743200432619
 20
29.48008812878521
 30
0.0
 11
292.4743200432619
 21
32.48008812878521
 31
0.0
  0
LINE
  5
149
330
1F
100
AcDbEntity
  8
1
  6
Continuous
 62
     7
100
AcDbLine
 10
292.4743200432619
 20
29.48008812878521
 30
0.0
 11
288.4743200432619
 21
29.48008812878521
 31
0.0
  0
LINE
  5
14A
330
1F
100
AcDbEntity
  8
0
  6
Continuous
 62
     7
100
AcDbLine
 10
292.4743200432619
 20
29.48008812878521
 30
0.0
 11
288.5021894247759
 21
29.48008812878521
 31
0.0
  0
LINE
  5
14B
330
1F
100
AcDbEntity
  8
1
  6
DOT_CENTER
 62
     7
100
AcDbLine
 10
310.0538424624691
 20
8.23008812878519
 30
0.0
 11
316.8494913076972
 21
8.2300881287851
 31
0.0
  0
LINE
  5
14C
330
1F
100
AcDbEntity
  8
1
  6
DOT_CENTER
 62
     2
100
AcDbLine
 10
310.0538424624691
 20
8.23008812878519
 30
0.0
 11
310.0538424624691
 21
17.98008812878521
 31
0.0
  0
LINE
  5
14D
330
1F
100
AcDbEntity
  8
1
  6
DOT_CENTER
 62
     2
100
AcDbLine
 10
298.5538424624691
 20
75.73008812878521
 30
0.0
 11
305.4225900307353
 21
75.73008812878521
 31
0.0
  0
LINE
  5
14E
330
1F
100
AcDbEntity
  8
1
  6
DOT_CENTER
 62
     2
100
AcDbLine
 10
289.5538424624691
 20
-45.62840829492006
 30
0.0
 11
289.5538424624691
 21
-35.12454063844893
 31
0.0
  0
LINE
  5
14F
330
1F
100
AcDbEntity
  8
1
  6
DOT_CENTER
 62
     2
100
AcDbLine
 10
294.980039209684
 20
-40.26991187121496
 30
0.0
 11
293.5538424624691
 21
-40.26991187121499
 31
0.0
  0
LINE
  5
150
330
1F
100
AcDbEntity
  8
1
  6
Continuous
 62
     7
100
AcDbLine
 10
290.0538424624691
 20
-42.51991187121496
 30
0.0
 11
289.0538424624691
 21
-42.51991187121496
 31
0.0
  0
LINE
  5
151
330
1F
100
AcDbEntity
  8
1
  6
Continuous
 62
     7
100
AcDbLine
 10
290.0538424624691
 20
-41.26991187121496
 30
0.0
 11
290.0538424624691
 21
-42.51991187121496
 31
0.0
  0
LINE
  5
152
330
1F
100
AcDbEntity
  8
1
  6
Continuous
 62
     7
100
AcDbLine
 10
291.8038424624691
 20
-40.76991187121496
 30
0.0
 11
290.5538424624691
 21
-40.76991187121496
 31
0.0
  0
LINE
  5
153
330
1F
100
AcDbEntity
  8
1
  6
Continuous
 62
     7
100
AcDbLine
 10
291.8038424624691
 20
-39.76991187121496
 30
0.0
 11
291.8038424624691
 21
-40.76991187121496
 31
0.0
  0
LINE
  5
154
330
1F
100
AcDbEntity
  8
1
  6
Continuous
 62
     7
100
AcDbLine
 10
290.5538424624691
 20
-39.76991187121496
 30
0.0
 11
291.8038424624691
 21
-39.76991187121496
 31
0.0
  0
LINE
  5
155
330
1F
100
AcDbEntity
  8
1
  6
Continuous
 62
     7
100
AcDbLine
 10
290.0538424624691
 20
-38.01991187121496
 30
0.0
 11
290.0538424624691
 21
-39.26991187121496
 31
0.0
  0
LINE
  5
156
330
1F
100
AcDbEntity
  8
1
  6
Continuous
 62
     7
100
AcDbLine
 10
289.0538424624691
 20
-38.01991187121496
 30
0.0
 11
290.0538424624691
 21
-38.01991187121496
 31
0.0
  0
LINE
  5
157
330
1F
100
AcDbEntity
  8
1
  6
Continuous
 62
     7
100
AcDbLine
 10
289.0538424624691
 20
-39.26991187121496
 30
0.0
 11
289.0538424624691
 21
-38.01991187121496
 31
0.0
  0
LINE
  5
158
330
1F
100
AcDbEntity
  8
1
  6
Continuous
 62
     7
100
AcDbLine
 10
287.3038424624691
 20
-39.76991187121496
 30
0.0
 11
288.5538424624691
 21
-39.76991187121496
 31
0.0
  0
LINE
  5
159
330
1F
100
AcDbEntity
  8
1
  6
Continuous
 62
     7
100
AcDbLine
 10
287.3038424624691
 20
-40.76991187121496
 30
0.0
 11
287.3038424624691
 21
-39.76991187121496
 31
0.0
  0
LINE
  5
15A
330
1F
100
AcDbEntity
  8
1
  6
Continuous
 62
     7
100
AcDbLine
 10
288.5538424624691
 20
-40.76991187121496
 30
0.0
 11
287.3038424624691
 21
-40.76991187121496
 31
0.0
  0
LINE
  5
15B
330
1F
100
AcDbEntity
  8
1
  6
Continuous
 62
     7
100
AcDbLine
 10
289.0538424624691
 20
-42.51991187121496
 30
0.0
 11
289.0538424624691
 21
-41.26991187121496
 31
0.0
  0
LINE
  5
15C
330
1F
100
AcDbEntity
  8
1
  6
Continuous
 62
     7
100
AcDbLine
 10
288.8038424624691
 20
-41.01991187121496
 30
0.0
 11
289.0538424624691
 21
-41.26991187121496
 31
0.0
  0
LINE
  5
15D
330
1F
100
AcDbEntity
  8
1
  6
Continuous
 62
     7
100
AcDbLine
 10
290.3038424624691
 20
-41.01991187121496
 30
0.0
 11
290.0538424624691
 21
-41.26991187121496
 31
0.0
  0
LINE
  5
15E
330
1F
100
AcDbEntity
  8
1
  6
Continuous
 62
     7
100
AcDbLine
 10
290.3038424624691
 20
-39.51991187121496
 30
0.0
 11
290.5538424624691
 21
-39.76991187121496
 31
0.0
  0
LINE
  5
15F
330
1F
100
AcDbEntity
  8
1
  6
Continuous
 62
     7
100
AcDbLine
 10
288.8038424624691
 20
-39.51991187121496
 30
0.0
 11
289.0538424624691
 21
-39.26991187121496
 31
0.0
  0
LINE
  5
160
330
1F
100
AcDbEntity
  8
1
  6
Continuous
 62
     2
100
AcDbLine
 10
291.1448327201389
 20
-41.86090212888462
 30
0.0
 11
290.3038424624691
 21
-41.01991187121496
 31
0.0
  0
LINE
  5
161
330
1F
100
AcDbEntity
  8
1
  6
Continuous
 62
     7
100
AcDbLine
 10
290.5538424624691
 20
-40.76991187121496
 30
0.0
 11
290.3038424624691
 21
-41.01991187121496
 31
0.0
  0
LINE
  5
162
330
1F
100
AcDbEntity
  8
1
  6
Continuous
 62
     2
100
AcDbLine
 10
287.9628522047995
 20
-41.86090212888462
 30
0.0
 11
288.8038424624691
 21
-41.01991187121496
 31
0.0
  0
LINE
  5
163
330
1F
100
AcDbEntity
  8
1
  6
Continuous
 62
     7
100
AcDbLine
 10
288.5538424624691
 20
-40.76991187121496
 30
0.0
 11
288.8038424624691
 21
-41.01991187121496
 31
0.0
  0
LINE
  5
164
330
1F
100
AcDbEntity
  8
1
  6
Continuous
 62
     2
100
AcDbLine
 10
287.9628522047995
 20
-38.67892161354524
 30
0.0
 11
288.8038424624691
 21
-39.51991187121496
 31
0.0
  0
LINE
  5
165
330
1F
100
AcDbEntity
  8
1
  6
Continuous
 62
     7
100
AcDbLine
 10
288.5538424624691
 20
-39.76991187121496
 30
0.0
 11
288.8038424624691
 21
-39.51991187121496
 31
0.0
  0
LINE
  5
166
330
1F
100
AcDbEntity
  8
1
  6
Continuous
 62
     2
100
AcDbLine
 10
291.1448327201389
 20
-38.67892161354524
 30
0.0
 11
290.3038424624691
 21
-39.51991187121496
 31
0.0
  0
LINE
  5
167
330
1F
100
AcDbEntity
  8
1
  6
Continuous
 62
     7
100
AcDbLine
 10
290.0538424624691
 20
-39.26991187121496
 30
0.0
 11
290.3038424624691
 21
-39.51991187121496
 31
0.0
  0
LINE
  5
168
330
1F
100
AcDbEntity
  8
1
  6
DOT_CENTER
 62
     2
100
AcDbLine
 10
293.5538424624691
 20
-40.26991187121499
 30
0.0
 11
283.8566638665799
 21
-40.26991187121502
 31
0.0
  0
LINE
  5
169
330
1F
100
AcDbEntity
  8
1
  6
DOT_CENTER
 62
     2
100
AcDbLine
 10
283.8566638665799
 20
56.73008812878541
 30
0.0
 11
293.5538424624691
 21
56.73008812878538
 31
0.0
  0
LINE
  5
16A
330
1F
100
AcDbEntity
  8
1
  6
Continuous
 62
     7
100
AcDbLine
 10
290.3038424624691
 20
55.98008812878535
 30
0.0
 11
290.0538424624691
 21
55.73008812878535
 31
0.0
  0
LINE
  5
16B
330
1F
100
AcDbEntity
  8
1
  6
Continuous
 62
     2
100
AcDbLine
 10
290.3038424624691
 20
55.98008812878535
 30
0.0
 11
291.1448327201389
 21
55.13909787111564
 31
0.0
  0
LINE
  5
16C
330
1F
100
AcDbEntity
  8
1
  6
Continuous
 62
     7
100
AcDbLine
 10
288.8038424624691
 20
55.98008812878535
 30
0.0
 11
288.5538424624691
 21
56.23008812878535
 31
0.0
  0
LINE
  5
16D
330
1F
100
AcDbEntity
  8
1
  6
Continuous
 62
     2
100
AcDbLine
 10
288.8038424624691
 20
55.98008812878535
 30
0.0
 11
287.9628522047995
 21
55.13909787111564
 31
0.0
  0
LINE
  5
16E
330
1F
100
AcDbEntity
  8
1
  6
Continuous
 62
     7
100
AcDbLine
 10
288.8038424624691
 20
57.48008812878535
 30
0.0
 11
288.5538424624691
 21
57.23008812878535
 31
0.0
  0
LINE
  5
16F
330
1F
100
AcDbEntity
  8
1
  6
Continuous
 62
     2
100
AcDbLine
 10
288.8038424624691
 20
57.48008812878535
 30
0.0
 11
287.9628522047995
 21
58.32107838645501
 31
0.0
  0
LINE
  5
170
330
1F
100
AcDbEntity
  8
1
  6
Continuous
 62
     7
100
AcDbLine
 10
290.3038424624691
 20
57.48008812878535
 30
0.0
 11
290.5538424624691
 21
57.23008812878535
 31
0.0
  0
LINE
  5
171
330
1F
100
AcDbEntity
  8
1
  6
Continuous
 62
     2
100
AcDbLine
 10
290.3038424624691
 20
57.48008812878535
 30
0.0
 11
291.1448327201389
 21
58.32107838645501
 31
0.0
  0
LINE
  5
172
330
1F
100
AcDbEntity
  8
1
  6
Continuous
 62
     7
100
AcDbLine
 10
289.0538424624691
 20
55.73008812878535
 30
0.0
 11
288.8038424624691
 21
55.98008812878535
 31
0.0
  0
LINE
  5
173
330
1F
100
AcDbEntity
  8
1
  6
Continuous
 62
     7
100
AcDbLine
 10
290.5538424624691
 20
56.23008812878535
 30
0.0
 11
290.3038424624691
 21
55.98008812878535
 31
0.0
  0
LINE
  5
174
330
1F
100
AcDbEntity
  8
1
  6
Continuous
 62
     7
100
AcDbLine
 10
290.0538424624691
 20
57.73008812878535
 30
0.0
 11
290.3038424624691
 21
57.48008812878535
 31
0.0
  0
LINE
  5
175
330
1F
100
AcDbEntity
  8
1
  6
Continuous
 62
     7
100
AcDbLine
 10
289.0538424624691
 20
57.73008812878535
 30
0.0
 11
288.8038424624691
 21
57.48008812878535
 31
0.0
  0
LINE
  5
176
330
1F
100
AcDbEntity
  8
1
  6
Continuous
 62
     7
100
AcDbLine
 10
289.0538424624691
 20
57.73008812878535
 30
0.0
 11
289.0538424624691
 21
58.98008812878535
 31
0.0
  0
LINE
  5
177
330
1F
100
AcDbEntity
  8
1
  6
Continuous
 62
     7
100
AcDbLine
 10
287.3038424624691
 20
57.23008812878535
 30
0.0
 11
288.5538424624691
 21
57.23008812878535
 31
0.0
  0
LINE
  5
178
330
1F
100
AcDbEntity
  8
1
  6
Continuous
 62
     7
100
AcDbLine
 10
287.3038424624691
 20
56.23008812878535
 30
0.0
 11
287.3038424624691
 21
57.23008812878535
 31
0.0
  0
LINE
  5
179
330
1F
100
AcDbEntity
  8
1
  6
Continuous
 62
     7
100
AcDbLine
 10
288.5538424624691
 20
56.23008812878535
 30
0.0
 11
287.3038424624691
 21
56.23008812878535
 31
0.0
  0
LINE
  5
17A
330
1F
100
AcDbEntity
  8
1
  6
Continuous
 62
     7
100
AcDbLine
 10
289.0538424624691
 20
54.48008812878535
 30
0.0
 11
289.0538424624691
 21
55.73008812878535
 31
0.0
  0
LINE
  5
17B
330
1F
100
AcDbEntity
  8
1
  6
Continuous
 62
     7
100
AcDbLine
 10
290.0538424624691
 20
54.48008812878535
 30
0.0
 11
289.0538424624691
 21
54.48008812878535
 31
0.0
  0
LINE
  5
17C
330
1F
100
AcDbEntity
  8
1
  6
Continuous
 62
     7
100
AcDbLine
 10
290.0538424624691
 20
55.73008812878535
 30
0.0
 11
290.0538424624691
 21
54.48008812878535
 31
0.0
  0
LINE
  5
17D
330
1F
100
AcDbEntity
  8
1
  6
Continuous
 62
     7
100
AcDbLine
 10
291.8038424624691
 20
56.23008812878535
 30
0.0
 11
290.5538424624691
 21
56.23008812878535
 31
0.0
  0
LINE
  5
17E
330
1F
100
AcDbEntity
  8
1
  6
Continuous
 62
     7
100
AcDbLine
 10
291.8038424624691
 20
57.23008812878535
 30
0.0
 11
291.8038424624691
 21
56.23008812878535
 31
0.0
  0
LINE
  5
17F
330
1F
100
AcDbEntity
  8
1
  6
Continuous
 62
     7
100
AcDbLine
 10
290.5538424624691
 20
57.23008812878535
 30
0.0
 11
291.8038424624691
 21
57.23008812878535
 31
0.0
  0
LINE
  5
180
330
1F
100
AcDbEntity
  8
1
  6
Continuous
 62
     7
100
AcDbLine
 10
290.0538424624691
 20
58.98008812878535
 30
0.0
 11
290.0538424624691
 21
57.73008812878535
 31
0.0
  0
LINE
  5
181
330
1F
100
AcDbEntity
  8
1
  6
Continuous
 62
     7
100
AcDbLine
 10
289.0538424624691
 20
58.98008812878535
 30
0.0
 11
290.0538424624691
 21
58.98008812878535
 31
0.0
  0
LINE
  5
182
330
1F
100
AcDbEntity
  8
1
  6
DOT_CENTER
 62
     2
100
AcDbLine
 10
293.5538424624691
 20
56.73008812878538
 30
0.0
 11
294.980039209684
 21
56.73008812878535
 31
0.0
  0
LINE
  5
183
330
1F
100
AcDbEntity
  8
1
  6
DOT_CENTER
 62
     2
100
AcDbLine
 10
289.5538424624691
 20
51.58471689601933
 30
0.0
 11
289.5538424624691
 21
62.08858455249046
 31
0.0
  0
LINE
  5
184
330
1F
100
AcDbEntity
  8
1
  6
DOT_CENTER
 62
     2
100
AcDbLine
 10
327.6333648816764
 20
29.48008812878521
 30
0.0
 11
327.6333648816764
 21
32.48008812878521
 31
0.0
  0
LINE
  5
185
330
1F
100
AcDbEntity
  8
1
  6
Continuous
 62
     7
100
AcDbLine
 10
327.6333648816764
 20
29.48008812878521
 30
0.0
 11
331.6333648816764
 21
29.48008812878533
 31
0.0
  0
LINE
  5
186
330
1F
100
AcDbEntity
  8
0
  6
Continuous
 62
     7
100
AcDbLine
 10
327.6333648816764
 20
29.48008812878521
 30
0.0
 11
326.5538424624692
 21
29.48008812878521
 31
0.0
  0
LINE
  5
187
330
1F
100
AcDbEntity
  8
1
  6
DOT_CENTER
 62
     2
100
AcDbLine
 10
327.6333648816764
 20
-13.01991187121479
 30
0.0
 11
327.6333648816764
 21
-16.20781739937377
 31
0.0
  0
LINE
  5
188
330
1F
100
AcDbEntity
  8
1
  6
Continuous
 62
     7
100
AcDbLine
 10
327.6333648816764
 20
-13.01991187121479
 30
0.0
 11
326.1343493034938
 21
-13.01991187121479
 31
0.0
  0
LINE
  5
189
330
1F
100
AcDbEntity
  8
0
  6
Continuous
 62
     7
100
AcDbLine
 10
327.6333648816764
 20
-13.01991187121479
 30
0.0
 11
331.5628065329916
 21
-13.0199118712149
 31
0.0
  0
LINE
  5
18A
330
1F
100
AcDbEntity
  8
1
  6
DOT_CENTER
 62
     2
100
AcDbLine
 10
323.0538424624691
 20
-27.66991187121488
 30
0.0
 11
323.0538424624691
 21
-26.66991187121488
 31
0.0
  0
LINE
  5
18B
330
1F
100
AcDbEntity
  8
1
  6
DOT_CENTER
 62
     2
100
AcDbLine
 10
323.0538424624691
 20
-27.66991187121488
 30
0.0
 11
323.0538424624691
 21
-32.86991187121487
 31
0.0
  0
LINE
  5
18C
330
1F
100
AcDbEntity
  8
1
  6
DOT_CENTER
 62
     2
100
AcDbLine
 10
325.0538424624691
 20
-27.66991187121488
 30
0.0
 11
325.0538424624691
 21
-26.66991187121488
 31
0.0
  0
LINE
  5
18D
330
1F
100
AcDbEntity
  8
1
  6
DOT_CENTER
 62
     2
100
AcDbLine
 10
325.0538424624691
 20
-27.66991187121488
 30
0.0
 11
325.0538424624691
 21
-32.86991187121487
 31
0.0
  0
LINE
  5
18E
330
1F
100
AcDbEntity
  8
1
  6
DOT_CENTER
 62
     2
100
AcDbLine
 10
325.0538424624691
 20
-32.86991187121487
 30
0.0
 11
325.0538424624691
 21
-33.86991187121487
 31
0.0
  0
LINE
  5
18F
330
1F
100
AcDbEntity
  8
1
  6
DOT_CENTER
 62
     2
100
AcDbLine
 10
323.0538424624691
 20
-32.86991187121487
 30
0.0
 11
323.0538424624691
 21
-33.86991187121487
 31
0.0
  0
LINE
  5
190
330
1F
100
AcDbEntity
  8
1
  6
DOT_CENTER
 62
     2
100
AcDbLine
 10
341.6577143292291
 20
-30.2699118712149
 30
0.0
 11
332.705136254989
 21
-30.2699118712149
 31
0.0
  0
LINE
  5
191
330
1F
100
AcDbEntity
  8
1
  6
DOT_CENTER
 62
     2
100
AcDbLine
 10
336.0538424624691
 20
-27.66991187121488
 30
0.0
 11
336.0538424624691
 21
-26.66991187121488
 31
0.0
  0
LINE
  5
192
330
1F
100
AcDbEntity
  8
1
  6
DOT_CENTER
 62
     2
100
AcDbLine
 10
336.0538424624691
 20
-27.66991187121488
 30
0.0
 11
336.0538424624691
 21
-32.86991187121487
 31
0.0
  0
LINE
  5
193
330
1F
100
AcDbEntity
  8
1
  6
DOT_CENTER
 62
     2
100
AcDbLine
 10
336.0538424624691
 20
-32.86991187121487
 30
0.0
 11
336.0538424624691
 21
-33.86991187121487
 31
0.0
  0
LINE
  5
194
330
1F
100
AcDbEntity
  8
1
  6
DOT_CENTER
 62
     2
100
AcDbLine
 10
338.0538424624691
 20
-27.66991187121488
 30
0.0
 11
338.0538424624691
 21
-26.66991187121488
 31
0.0
  0
LINE
  5
195
330
1F
100
AcDbEntity
  8
1
  6
DOT_CENTER
 62
     2
100
AcDbLine
 10
338.0538424624691
 20
-27.66991187121488
 30
0.0
 11
338.0538424624691
 21
-32.86991187121487
 31
0.0
  0
LINE
  5
196
330
1F
100
AcDbEntity
  8
1
  6
DOT_CENTER
 62
     2
100
AcDbLine
 10
338.0538424624691
 20
-32.86991187121487
 30
0.0
 11
338.0538424624691
 21
-33.86991187121487
 31
0.0
  0
LINE
  5
197
330
1F
100
AcDbEntity
  8
1
  6
DOT_CENTER
 62
     2
100
AcDbLine
 10
338.0538424624691
 20
50.33008812878524
 30
0.0
 11
338.0538424624691
 21
49.33008812878524
 31
0.0
  0
LINE
  5
198
330
1F
100
AcDbEntity
  8
1
  6
DOT_CENTER
 62
     2
100
AcDbLine
 10
338.0538424624691
 20
49.33008812878524
 30
0.0
 11
338.0538424624691
 21
44.13008812878525
 31
0.0
  0
LINE
  5
199
330
1F
100
AcDbEntity
  8
1
  6
DOT_CENTER
 62
     2
100
AcDbLine
 10
338.0538424624691
 20
43.13008812878525
 30
0.0
 11
338.0538424624691
 21
44.13008812878525
 31
0.0
  0
LINE
  5
19A
330
1F
100
AcDbEntity
  8
1
  6
DOT_CENTER
 62
     2
100
AcDbLine
 10
336.0538424624691
 20
50.33008812878524
 30
0.0
 11
336.0538424624691
 21
49.33008812878524
 31
0.0
  0
LINE
  5
19B
330
1F
100
AcDbEntity
  8
1
  6
DOT_CENTER
 62
     2
100
AcDbLine
 10
336.0538424624691
 20
49.33008812878524
 30
0.0
 11
336.0538424624691
 21
44.13008812878525
 31
0.0
  0
LINE
  5
19C
330
1F
100
AcDbEntity
  8
1
  6
DOT_CENTER
 62
     2
100
AcDbLine
 10
336.0538424624691
 20
43.13008812878525
 30
0.0
 11
336.0538424624691
 21
44.13008812878525
 31
0.0
  0
LINE
  5
19D
330
1F
100
AcDbEntity
  8
1
  6
DOT_CENTER
 62
     2
100
AcDbLine
 10
332.705136254989
 20
46.73008812878528
 30
0.0
 11
341.6577143292291
 21
46.73008812878528
 31
0.0
  0
LINE
  5
19E
330
1F
100
AcDbEntity
  8
1
  6
DOT_CENTER
 62
     2
100
AcDbLine
 10
323.0538424624691
 20
50.33008812878524
 30
0.0
 11
323.0538424624691
 21
49.33008812878524
 31
0.0
  0
LINE
  5
19F
330
1F
100
AcDbEntity
  8
1
  6
DOT_CENTER
 62
     2
100
AcDbLine
 10
325.0538424624691
 20
50.33008812878524
 30
0.0
 11
325.0538424624691
 21
49.33008812878524
 31
0.0
  0
LINE
  5
1A0
330
1F
100
AcDbEntity
  8
1
  6
DOT_CENTER
 62
     2
100
AcDbLine
 10
325.0538424624691
 20
49.33008812878524
 30
0.0
 11
325.0538424624691
 21
44.13008812878525
 31
0.0
  0
LINE
  5
1A1
330
1F
100
AcDbEntity
  8
1
  6
DOT_CENTER
 62
     2
100
AcDbLine
 10
325.0538424624691
 20
43.13008812878525
 30
0.0
 11
325.0538424624691
 21
44.13008812878525
 31
0.0
  0
LINE
  5
1A2
330
1F
100
AcDbEntity
  8
1
  6
DOT_CENTER
 62
     2
100
AcDbLine
 10
323.0538424624691
 20
49.33008812878524
 30
0.0
 11
323.0538424624691
 21
44.13008812878525
 31
0.0
  0
LINE
  5
1A3
330
1F
100
AcDbEntity
  8
1
  6
DOT_CENTER
 62
     2
100
AcDbLine
 10
323.0538424624691
 20
43.13008812878525
 30
0.0
 11
323.0538424624691
 21
44.13008812878525
 31
0.0
  0
LINE
  5
1A4
330
1F
100
AcDbEntity
  8
1
  6
DASHED
 62
     2
100
AcDbLine
 10
323.0538424624691
 20
44.13008812878525
 30
0.0
 11
325.0538424624691
 21
44.13008812878525
 31
0.0
  0
LINE
  5
1A5
330
1F
100
AcDbEntity
  8
1
  6
DASHED
 62
     2
100
AcDbLine
 10
325.0538424624691
 20
49.33008812878524
 30
0.0
 11
323.0538424624691
 21
49.33008812878524
 31
0.0
  0
LINE
  5
1A6
330
1F
100
AcDbEntity
  8
1
  6
DOT_CENTER
 62
     2
100
AcDbLine
 10
319.5274894467321
 20
46.73008812878528
 30
0.0
 11
329.0305185710846
 21
46.73008812878528
 31
0.0
  0
LINE
  5
1A7
330
1F
100
AcDbEntity
  8
1
  6
DASHED
 62
     2
100
AcDbLine
 10
338.0538424624691
 20
49.33008812878524
 30
0.0
 11
336.0538424624691
 21
49.33008812878524
 31
0.0
  0
LINE
  5
1A8
330
1F
100
AcDbEntity
  8
1
  6
DASHED
 62
     2
100
AcDbLine
 10
336.0538424624691
 20
44.13008812878525
 30
0.0
 11
338.0538424624691
 21
44.13008812878525
 31
0.0
  0
LINE
  5
1A9
330
1F
100
AcDbEntity
  8
1
  6
Continuous
 62
     7
100
AcDbLine
 10
343.5538424624693
 20
-24.2699118712149
 30
0.0
 11
342.5538424624692
 21
-24.2699118712149
 31
0.0
  0
LINE
  5
1AA
330
1F
100
AcDbEntity
  8
1
  6
Continuous
 62
     7
100
AcDbLine
 10
342.5538424624692
 20
-24.2699118712149
 30
0.0
 11
318.5538424624692
 21
-24.2699118712149
 31
0.0
  0
LINE
  5
1AB
330
1F
100
AcDbEntity
  8
1
  6
Continuous
 62
     7
100
AcDbLine
 10
318.5538424624692
 20
-24.2699118712149
 30
0.0
 11
317.5538424624691
 21
-24.26991187121491
 31
0.0
  0
LINE
  5
1AC
330
1F
100
AcDbEntity
  8
1
  6
DOT_CENTER
 62
     2
100
AcDbLine
 10
334.5538424624691
 20
-39.26991187121489
 30
0.0
 11
324.8566638665799
 21
-39.26991187121492
 31
0.0
  0
LINE
  5
1AD
330
1F
100
AcDbEntity
  8
1
  6
Continuous
 62
     7
100
AcDbLine
 10
331.0538424624691
 20
-38.26991187121486
 30
0.0
 11
331.3038424624691
 21
-38.51991187121486
 31
0.0
  0
LINE
  5
1AE
330
1F
100
AcDbEntity
  8
1
  6
Continuous
 62
     2
100
AcDbLine
 10
332.1448327201389
 20
-37.67892161354514
 30
0.0
 11
331.3038424624691
 21
-38.51991187121486
 31
0.0
  0
LINE
  5
1AF
330
1F
100
AcDbEntity
  8
1
  6
Continuous
 62
     7
100
AcDbLine
 10
329.5538424624691
 20
-38.76991187121486
 30
0.0
 11
329.8038424624691
 21
-38.51991187121486
 31
0.0
  0
LINE
  5
1B0
330
1F
100
AcDbEntity
  8
1
  6
Continuous
 62
     2
100
AcDbLine
 10
328.9628522047995
 20
-37.67892161354514
 30
0.0
 11
329.8038424624691
 21
-38.51991187121486
 31
0.0
  0
LINE
  5
1B1
330
1F
100
AcDbEntity
  8
1
  6
Continuous
 62
     7
100
AcDbLine
 10
329.5538424624691
 20
-39.76991187121486
 30
0.0
 11
329.8038424624691
 21
-40.01991187121486
 31
0.0
  0
LINE
  5
1B2
330
1F
100
AcDbEntity
  8
1
  6
Continuous
 62
     2
100
AcDbLine
 10
328.9628522047995
 20
-40.86090212888452
 30
0.0
 11
329.8038424624691
 21
-40.01991187121486
 31
0.0
  0
LINE
  5
1B3
330
1F
100
AcDbEntity
  8
1
  6
Continuous
 62
     7
100
AcDbLine
 10
331.5538424624691
 20
-39.76991187121486
 30
0.0
 11
331.3038424624691
 21
-40.01991187121486
 31
0.0
  0
LINE
  5
1B4
330
1F
100
AcDbEntity
  8
1
  6
Continuous
 62
     2
100
AcDbLine
 10
332.1448327201389
 20
-40.86090212888452
 30
0.0
 11
331.3038424624691
 21
-40.01991187121486
 31
0.0
  0
LINE
  5
1B5
330
1F
100
AcDbEntity
  8
1
  6
Continuous
 62
     7
100
AcDbLine
 10
329.8038424624691
 20
-38.51991187121486
 30
0.0
 11
330.0538424624691
 21
-38.26991187121486
 31
0.0
  0
LINE
  5
1B6
330
1F
100
AcDbEntity
  8
1
  6
Continuous
 62
     7
100
AcDbLine
 10
331.3038424624691
 20
-38.51991187121486
 30
0.0
 11
331.5538424624691
 21
-38.76991187121486
 31
0.0
  0
LINE
  5
1B7
330
1F
100
AcDbEntity
  8
1
  6
Continuous
 62
     7
100
AcDbLine
 10
331.3038424624691
 20
-40.01991187121486
 30
0.0
 11
331.0538424624691
 21
-40.26991187121486
 31
0.0
  0
LINE
  5
1B8
330
1F
100
AcDbEntity
  8
1
  6
Continuous
 62
     7
100
AcDbLine
 10
329.8038424624691
 20
-40.01991187121486
 30
0.0
 11
330.0538424624691
 21
-40.26991187121486
 31
0.0
  0
LINE
  5
1B9
330
1F
100
AcDbEntity
  8
1
  6
Continuous
 62
     7
100
AcDbLine
 10
330.0538424624691
 20
-41.51991187121486
 30
0.0
 11
330.0538424624691
 21
-40.26991187121486
 31
0.0
  0
LINE
  5
1BA
330
1F
100
AcDbEntity
  8
1
  6
Continuous
 62
     7
100
AcDbLine
 10
329.5538424624691
 20
-39.76991187121486
 30
0.0
 11
328.3038424624691
 21
-39.76991187121486
 31
0.0
  0
LINE
  5
1BB
330
1F
100
AcDbEntity
  8
1
  6
Continuous
 62
     7
100
AcDbLine
 10
328.3038424624691
 20
-39.76991187121486
 30
0.0
 11
328.3038424624691
 21
-38.76991187121486
 31
0.0
  0
LINE
  5
1BC
330
1F
100
AcDbEntity
  8
1
  6
Continuous
 62
     7
100
AcDbLine
 10
328.3038424624691
 20
-38.76991187121486
 30
0.0
 11
329.5538424624691
 21
-38.76991187121486
 31
0.0
  0
LINE
  5
1BD
330
1F
100
AcDbEntity
  8
1
  6
Continuous
 62
     7
100
AcDbLine
 10
330.0538424624691
 20
-38.26991187121486
 30
0.0
 11
330.0538424624691
 21
-37.01991187121486
 31
0.0
  0
LINE
  5
1BE
330
1F
100
AcDbEntity
  8
1
  6
Continuous
 62
     7
100
AcDbLine
 10
330.0538424624691
 20
-37.01991187121486
 30
0.0
 11
331.0538424624691
 21
-37.01991187121486
 31
0.0
  0
LINE
  5
1BF
330
1F
100
AcDbEntity
  8
1
  6
Continuous
 62
     7
100
AcDbLine
 10
331.0538424624691
 20
-37.01991187121486
 30
0.0
 11
331.0538424624691
 21
-38.26991187121486
 31
0.0
  0
LINE
  5
1C0
330
1F
100
AcDbEntity
  8
1
  6
Continuous
 62
     7
100
AcDbLine
 10
331.5538424624691
 20
-38.76991187121486
 30
0.0
 11
332.8038424624691
 21
-38.76991187121486
 31
0.0
  0
LINE
  5
1C1
330
1F
100
AcDbEntity
  8
1
  6
Continuous
 62
     7
100
AcDbLine
 10
332.8038424624691
 20
-38.76991187121486
 30
0.0
 11
332.8038424624691
 21
-39.76991187121486
 31
0.0
  0
LINE
  5
1C2
330
1F
100
AcDbEntity
  8
1
  6
Continuous
 62
     7
100
AcDbLine
 10
332.8038424624691
 20
-39.76991187121486
 30
0.0
 11
331.5538424624691
 21
-39.76991187121486
 31
0.0
  0
LINE
  5
1C3
330
1F
100
AcDbEntity
  8
1
  6
Continuous
 62
     7
100
AcDbLine
 10
331.0538424624691
 20
-40.26991187121486
 30
0.0
 11
331.0538424624691
 21
-41.51991187121486
 31
0.0
  0
LINE
  5
1C4
330
1F
100
AcDbEntity
  8
1
  6
Continuous
 62
     7
100
AcDbLine
 10
331.0538424624691
 20
-41.51991187121486
 30
0.0
 11
330.0538424624691
 21
-41.51991187121486
 31
0.0
  0
LINE
  5
1C5
330
1F
100
AcDbEntity
  8
1
  6
DOT_CENTER
 62
     2
100
AcDbLine
 10
335.980039209684
 20
-39.26991187121486
 30
0.0
 11
334.5538424624691
 21
-39.26991187121489
 31
0.0
  0
LINE
  5
1C6
330
1F
100
AcDbEntity
  8
1
  6
DOT_CENTER
 62
     2
100
AcDbLine
 10
330.5538424624691
 20
-44.62840829491996
 30
0.0
 11
330.5538424624691
 21
-34.12454063844884
 31
0.0
  0
LINE
  5
1C7
330
1F
100
AcDbEntity
  8
1
  6
Continuous
 62
     7
100
AcDbLine
 10
317.5538424624691
 20
40.73008812878526
 30
0.0
 11
318.5538424624692
 21
40.73008812878526
 31
0.0
  0
LINE
  5
1C8
330
1F
100
AcDbEntity
  8
1
  6
Continuous
 62
     7
100
AcDbLine
 10
318.5538424624692
 20
30.73008812878521
 30
0.0
 11
318.5538424624692
 21
40.73008812878526
 31
0.0
  0
LINE
  5
1C9
330
1F
100
AcDbEntity
  8
1
  6
Continuous
 62
     7
100
AcDbLine
 10
342.5538424624692
 20
40.73008812878526
 30
0.0
 11
343.5538424624692
 21
40.73008812878526
 31
0.0
  0
LINE
  5
1CA
330
1F
100
AcDbEntity
  8
1
  6
Continuous
 62
     7
100
AcDbLine
 10
318.5538424624692
 20
40.73008812878526
 30
0.0
 11
342.5538424624692
 21
40.73008812878526
 31
0.0
  0
LINE
  5
1CB
330
1F
100
AcDbEntity
  8
1
  6
DOT_CENTER
 62
     2
100
AcDbLine
 10
330.5538424624691
 20
50.5847168960192
 30
0.0
 11
330.5538424624691
 21
61.08858455249033
 31
0.0
  0
LINE
  5
1CC
330
1F
100
AcDbEntity
  8
1
  6
DOT_CENTER
 62
     2
100
AcDbLine
 10
334.5538424624691
 20
55.73008812878526
 30
0.0
 11
335.980039209684
 21
55.73008812878523
 31
0.0
  0
LINE
  5
1CD
330
1F
100
AcDbEntity
  8
1
  6
Continuous
 62
     7
100
AcDbLine
 10
330.0538424624691
 20
57.98008812878523
 30
0.0
 11
331.0538424624691
 21
57.98008812878523
 31
0.0
  0
LINE
  5
1CE
330
1F
100
AcDbEntity
  8
1
  6
Continuous
 62
     7
100
AcDbLine
 10
331.0538424624691
 20
57.98008812878523
 30
0.0
 11
331.0538424624691
 21
56.73008812878523
 31
0.0
  0
LINE
  5
1CF
330
1F
100
AcDbEntity
  8
1
  6
Continuous
 62
     7
100
AcDbLine
 10
331.5538424624691
 20
56.23008812878523
 30
0.0
 11
332.8038424624691
 21
56.23008812878523
 31
0.0
  0
LINE
  5
1D0
330
1F
100
AcDbEntity
  8
1
  6
Continuous
 62
     7
100
AcDbLine
 10
332.8038424624691
 20
56.23008812878523
 30
0.0
 11
332.8038424624691
 21
55.23008812878523
 31
0.0
  0
LINE
  5
1D1
330
1F
100
AcDbEntity
  8
1
  6
Continuous
 62
     7
100
AcDbLine
 10
332.8038424624691
 20
55.23008812878523
 30
0.0
 11
331.5538424624691
 21
55.23008812878523
 31
0.0
  0
LINE
  5
1D2
330
1F
100
AcDbEntity
  8
1
  6
Continuous
 62
     7
100
AcDbLine
 10
331.0538424624691
 20
54.73008812878523
 30
0.0
 11
331.0538424624691
 21
53.48008812878523
 31
0.0
  0
LINE
  5
1D3
330
1F
100
AcDbEntity
  8
1
  6
Continuous
 62
     7
100
AcDbLine
 10
331.0538424624691
 20
53.48008812878523
 30
0.0
 11
330.0538424624691
 21
53.48008812878523
 31
0.0
  0
LINE
  5
1D4
330
1F
100
AcDbEntity
  8
1
  6
Continuous
 62
     7
100
AcDbLine
 10
330.0538424624691
 20
53.48008812878523
 30
0.0
 11
330.0538424624691
 21
54.73008812878523
 31
0.0
  0
LINE
  5
1D5
330
1F
100
AcDbEntity
  8
1
  6
Continuous
 62
     7
100
AcDbLine
 10
329.5538424624691
 20
55.23008812878523
 30
0.0
 11
328.3038424624691
 21
55.23008812878523
 31
0.0
  0
LINE
  5
1D6
330
1F
100
AcDbEntity
  8
1
  6
Continuous
 62
     7
100
AcDbLine
 10
328.3038424624691
 20
55.23008812878523
 30
0.0
 11
328.3038424624691
 21
56.23008812878523
 31
0.0
  0
LINE
  5
1D7
330
1F
100
AcDbEntity
  8
1
  6
Continuous
 62
     7
100
AcDbLine
 10
328.3038424624691
 20
56.23008812878523
 30
0.0
 11
329.5538424624691
 21
56.23008812878523
 31
0.0
  0
LINE
  5
1D8
330
1F
100
AcDbEntity
  8
1
  6
Continuous
 62
     7
100
AcDbLine
 10
330.0538424624691
 20
56.73008812878523
 30
0.0
 11
330.0538424624691
 21
57.98008812878523
 31
0.0
  0
LINE
  5
1D9
330
1F
100
AcDbEntity
  8
1
  6
Continuous
 62
     7
100
AcDbLine
 10
330.0538424624691
 20
56.73008812878523
 30
0.0
 11
329.8038424624691
 21
56.48008812878523
 31
0.0
  0
LINE
  5
1DA
330
1F
100
AcDbEntity
  8
1
  6
Continuous
 62
     7
100
AcDbLine
 10
331.0538424624691
 20
56.73008812878523
 30
0.0
 11
331.3038424624691
 21
56.48008812878523
 31
0.0
  0
LINE
  5
1DB
330
1F
100
AcDbEntity
  8
1
  6
Continuous
 62
     7
100
AcDbLine
 10
331.5538424624691
 20
55.23008812878523
 30
0.0
 11
331.3038424624691
 21
54.98008812878523
 31
0.0
  0
LINE
  5
1DC
330
1F
100
AcDbEntity
  8
1
  6
Continuous
 62
     7
100
AcDbLine
 10
330.0538424624691
 20
54.73008812878523
 30
0.0
 11
329.8038424624691
 21
54.98008812878523
 31
0.0
  0
LINE
  5
1DD
330
1F
100
AcDbEntity
  8
1
  6
Continuous
 62
     2
100
AcDbLine
 10
331.3038424624691
 20
56.48008812878523
 30
0.0
 11
332.1448327201389
 21
57.32107838645489
 31
0.0
  0
LINE
  5
1DE
330
1F
100
AcDbEntity
  8
1
  6
Continuous
 62
     7
100
AcDbLine
 10
331.3038424624691
 20
56.48008812878523
 30
0.0
 11
331.5538424624691
 21
56.23008812878523
 31
0.0
  0
LINE
  5
1DF
330
1F
100
AcDbEntity
  8
1
  6
Continuous
 62
     2
100
AcDbLine
 10
329.8038424624691
 20
56.48008812878523
 30
0.0
 11
328.9628522047995
 21
57.32107838645489
 31
0.0
  0
LINE
  5
1E0
330
1F
100
AcDbEntity
  8
1
  6
Continuous
 62
     7
100
AcDbLine
 10
329.8038424624691
 20
56.48008812878523
 30
0.0
 11
329.5538424624691
 21
56.23008812878523
 31
0.0
  0
LINE
  5
1E1
330
1F
100
AcDbEntity
  8
1
  6
Continuous
 62
     2
100
AcDbLine
 10
329.8038424624691
 20
54.98008812878523
 30
0.0
 11
328.9628522047995
 21
54.13909787111551
 31
0.0
  0
LINE
  5
1E2
330
1F
100
AcDbEntity
  8
1
  6
Continuous
 62
     7
100
AcDbLine
 10
329.8038424624691
 20
54.98008812878523
 30
0.0
 11
329.5538424624691
 21
55.23008812878523
 31
0.0
  0
LINE
  5
1E3
330
1F
100
AcDbEntity
  8
1
  6
Continuous
 62
     2
100
AcDbLine
 10
331.3038424624691
 20
54.98008812878523
 30
0.0
 11
332.1448327201389
 21
54.13909787111551
 31
0.0
  0
LINE
  5
1E4
330
1F
100
AcDbEntity
  8
1
  6
Continuous
 62
     7
100
AcDbLine
 10
331.3038424624691
 20
54.98008812878523
 30
0.0
 11
331.0538424624691
 21
54.73008812878523
 31
0.0
  0
LINE
  5
1E5
330
1F
100
AcDbEntity
  8
1
  6
DOT_CENTER
 62
     2
100
AcDbLine
 10
324.8566638665799
 20
55.73008812878528
 30
0.0
 11
334.5538424624691
 21
55.73008812878526
 31
0.0
  0
ARC
  5
1E6
330
1F
100
AcDbEntity
  8
1
  6
Continuous
 62
     7
100
AcDbCircle
 10
289.5038424624691
 20
72.78008812878518
 30
0.0
 40
12.95009652473682
100
AcDbArc
 50
89.77878187333509
 51
179.7787818733351
  0
ARC
  5
1E7
330
1F
100
AcDbEntity
  8
1
  6
Continuous
 62
     7
100
AcDbCircle
 10
289.6038424624692
 20
-56.31991187121479
 30
0.0
 40
12.9500965247369
100
AcDbArc
 50
-90.22121812666516
 51
-0.2212181266653
  0
ARC
  5
1E8
330
1F
100
AcDbEntity
  8
1
  6
Continuous
 62
     7
100
AcDbCircle
 10
289.5038424624691
 20
-56.31991187121489
 30
0.0
 40
12.95009652473678
100
AcDbArc
 50
-179.7787818733351
 51
-89.77878187333509
  0
ARC
  5
1E9
330
1F
100
AcDbEntity
  8
1
  6
Continuous
 62
     7
100
AcDbCircle
 10
289.6038424624691
 20
72.78008812878515
 30
0.0
 40
12.95009652473678
100
AcDbArc
 50
0.2212181266646
 51
90.22121812666492
  0
ARC
  5
1EA
330
1F
100
AcDbEntity
  8
1
  6
Continuous
 62
     7
100
AcDbCircle
 10
330.6038424624692
 20
-56.31991187121479
 30
0.0
 40
12.9500965247369
100
AcDbArc
 50
-90.22121812666516
 51
-0.22121812666529
  0
ARC
  5
1EB
330
1F
100
AcDbEntity
  8
1
  6
Continuous
 62
     7
100
AcDbCircle
 10
330.5038424624691
 20
-56.31991187121489
 30
0.0
 40
12.95009652473678
100
AcDbArc
 50
-179.7787818733352
 51
-89.77878187333509
  0
ARC
  5
1EC
330
1F
100
AcDbEntity
  8
1
  6
DASHED
 62
     2
100
AcDbCircle
 10
336.0538424624691
 20
-30.2699118712149
 30
0.0
 40
2.600000000000023
100
AcDbArc
 50
180.0
 51
-90.0
  0
ARC
  5
1ED
330
1F
100
AcDbEntity
  8
1
  6
DASHED
 62
     2
100
AcDbCircle
 10
338.0538424624691
 20
-30.2699118712149
 30
0.0
 40
2.599999999999966
100
AcDbArc
 50
0.0
 51
90.0
  0
ARC
  5
1EE
330
1F
100
AcDbEntity
  8
1
  6
DASHED
 62
     2
100
AcDbCircle
 10
336.0538424624691
 20
-30.2699118712149
 30
0.0
 40
2.600000000000023
100
AcDbArc
 50
90.0
 51
180.0
  0
ARC
  5
1EF
330
1F
100
AcDbEntity
  8
1
  6
DASHED
 62
     2
100
AcDbCircle
 10
338.0538424624691
 20
-30.2699118712149
 30
0.0
 40
2.599999999999966
100
AcDbArc
 50
-90.0
 51
0.0
  0
ARC
  5
1F0
330
1F
100
AcDbEntity
  8
1
  6
DASHED
 62
     2
100
AcDbCircle
 10
323.0538424624691
 20
-30.2699118712149
 30
0.0
 40
2.600000000000023
100
AcDbArc
 50
180.0
 51
-90.0
  0
ARC
  5
1F1
330
1F
100
AcDbEntity
  8
1
  6
DASHED
 62
     2
100
AcDbCircle
 10
325.0538424624691
 20
-30.2699118712149
 30
0.0
 40
2.599999999999966
100
AcDbArc
 50
0.0
 51
90.0
  0
ARC
  5
1F2
330
1F
100
AcDbEntity
  8
1
  6
DASHED
 62
     2
100
AcDbCircle
 10
323.0538424624691
 20
-30.2699118712149
 30
0.0
 40
2.600000000000023
100
AcDbArc
 50
90.0
 51
180.0
  0
ARC
  5
1F3
330
1F
100
AcDbEntity
  8
1
  6
DASHED
 62
     2
100
AcDbCircle
 10
325.0538424624691
 20
-30.2699118712149
 30
0.0
 40
2.599999999999966
100
AcDbArc
 50
-90.0
 51
0.0
  0
ARC
  5
1F4
330
1F
100
AcDbEntity
  8
1
  6
Continuous
 62
     7
100
AcDbCircle
 10
296.215565896268
 20
20.23008812878521
 30
0.0
 40
2.5
100
AcDbArc
 50
180.0
 51
-90.0
  0
ARC
  5
1F5
330
1F
100
AcDbEntity
  8
1
  6
Continuous
 62
     7
100
AcDbCircle
 10
330.5038424624691
 20
72.78008812878517
 30
0.0
 40
12.95009652473684
100
AcDbArc
 50
89.77878187333509
 51
179.7787818733354
  0
ARC
  5
1F6
330
1F
100
AcDbEntity
  8
1
  6
Continuous
 62
     7
100
AcDbCircle
 10
330.6038424624692
 20
72.78008812878514
 30
0.0
 40
12.95009652473684
100
AcDbArc
 50
0.22121812666504
 51
90.22121812666518
  0
ARC
  5
1F7
330
1F
100
AcDbEntity
  8
1
  6
DASHED
 62
     2
100
AcDbCircle
 10
325.0538424624691
 20
46.73008812878528
 30
0.0
 40
2.599999999999966
100
AcDbArc
 50
0.0
 51
90.0
  0
ARC
  5
1F8
330
1F
100
AcDbEntity
  8
1
  6
DASHED
 62
     2
100
AcDbCircle
 10
323.0538424624691
 20
46.73008812878528
 30
0.0
 40
2.600000000000023
100
AcDbArc
 50
180.0
 51
-90.0
  0
ARC
  5
1F9
330
1F
100
AcDbEntity
  8
1
  6
DASHED
 62
     2
100
AcDbCircle
 10
325.0538424624691
 20
46.73008812878528
 30
0.0
 40
2.60000000000003
100
AcDbArc
 50
-90.0
 51
0.0
  0
ARC
  5
1FA
330
1F
100
AcDbEntity
  8
1
  6
DASHED
 62
     2
100
AcDbCircle
 10
323.0538424624691
 20
46.73008812878528
 30
0.0
 40
2.599999999999959
100
AcDbArc
 50
90.0
 51
180.0
  0
ARC
  5
1FB
330
1F
100
AcDbEntity
  8
1
  6
DASHED
 62
     2
100
AcDbCircle
 10
338.0538424624691
 20
46.73008812878528
 30
0.0
 40
2.599999999999966
100
AcDbArc
 50
0.0
 51
90.0
  0
ARC
  5
1FC
330
1F
100
AcDbEntity
  8
1
  6
DASHED
 62
     2
100
AcDbCircle
 10
336.0538424624691
 20
46.73008812878528
 30
0.0
 40
2.600000000000023
100
AcDbArc
 50
180.0
 51
-90.0
  0
ARC
  5
1FD
330
1F
100
AcDbEntity
  8
1
  6
DASHED
 62
     2
100
AcDbCircle
 10
338.0538424624691
 20
46.73008812878528
 30
0.0
 40
2.60000000000003
100
AcDbArc
 50
-90.0
 51
0.0
  0
ARC
  5
1FE
330
1F
100
AcDbEntity
  8
1
  6
DASHED
 62
     2
100
AcDbCircle
 10
336.0538424624691
 20
46.73008812878528
 30
0.0
 40
2.599999999999959
100
AcDbArc
 50
90.0
 51
180.0
  0
CIRCLE
  5
1FF
330
1F
100
AcDbEntity
  8
0
  6
DASHED
 62
     2
100
AcDbCircle
 10
295.5538424624691
 20
75.73008812878521
 30
0.0
 40
5.25
  0
CIRCLE
  5
200
330
1F
100
AcDbEntity
  8
0
  6
DASHED
 62
     2
100
AcDbCircle
 10
295.5538424624691
 20
-59.2699118712149
 30
0.0
 40
5.249999999999915
  0
CIRCLE
  5
201
330
1F
100
AcDbEntity
  8
0
  6
DASHED
 62
     2
100
AcDbCircle
 10
283.5538424624691
 20
65.73008812878521
 30
0.0
 40
5.25
  0
CIRCLE
  5
202
330
1F
100
AcDbEntity
  8
1
  6
DASHED
 62
     2
100
AcDbCircle
 10
324.5538424624691
 20
-59.2699118712149
 30
0.0
 40
5.25
  0
CIRCLE
  5
203
330
1F
100
AcDbEntity
  8
1
  6
DASHED
 62
     2
100
AcDbCircle
 10
336.5538424624691
 20
-49.2699118712149
 30
0.0
 40
5.25
  0
CIRCLE
  5
204
330
1F
100
AcDbEntity
  8
1
  6
DASHED
 62
     2
100
AcDbCircle
 10
336.5538424624691
 20
65.73008812878521
 30
0.0
 40
5.25
  0
CIRCLE
  5
205
330
1F
100
AcDbEntity
  8
1
  6
DASHED
 62
     2
100
AcDbCircle
 10
324.5538424624691
 20
75.73008812878521
 30
0.0
 40
5.25
  0
CIRCLE
  5
206
330
1F
100
AcDbEntity
  8
0
  6
DASHED
 62
     2
100
AcDbCircle
 10
283.5538424624691
 20
-49.26991187121499
 30
0.0
 40
5.249999999999964
  0
CIRCLE
  5
207
330
1F
100
AcDbEntity
  8
1
  6
DASHED
 62
     2
100
AcDbCircle
 10
283.5538424624691
 20
-49.26991187121499
 30
0.0
 40
3.0
  0
CIRCLE
  5
208
330
1F
100
AcDbEntity
  8
1
  6
DASHED
 62
     2
100
AcDbCircle
 10
295.5538424624691
 20
-59.2699118712149
 30
0.0
 40
3.0
  0
CIRCLE
  5
209
330
1F
100
AcDbEntity
  8
1
  6
DASHED
 62
     2
100
AcDbCircle
 10
324.5538424624691
 20
-59.2699118712149
 30
0.0
 40
3.0
  0
CIRCLE
  5
20A
330
1F
100
AcDbEntity
  8
1
  6
DASHED
 62
     2
100
AcDbCircle
 10
336.5538424624691
 20
-49.2699118712149
 30
0.0
 40
3.0
  0
CIRCLE
  5
20B
330
1F
100
AcDbEntity
  8
1
  6
DASHED
 62
     2
100
AcDbCircle
 10
283.5538424624691
 20
65.73008812878521
 30
0.0
 40
3.0
  0
CIRCLE
  5
20C
330
1F
100
AcDbEntity
  8
1
  6
DASHED
 62
     2
100
AcDbCircle
 10
295.5538424624691
 20
75.73008812878521
 30
0.0
 40
3.0
  0
CIRCLE
  5
20D
330
1F
100
AcDbEntity
  8
1
  6
Continuous
 62
     7
100
AcDbCircle
 10
289.5538424624691
 20
-40.26991187121499
 30
0.0
 40
4.0
  0
CIRCLE
  5
20E
330
1F
100
AcDbEntity
  8
1
  6
Continuous
 62
     7
100
AcDbCircle
 10
289.5538424624691
 20
56.73008812878538
 30
0.0
 40
4.0
  0
CIRCLE
  5
20F
330
1F
100
AcDbEntity
  8
1
  6
DASHED
 62
     2
100
AcDbCircle
 10
324.5538424624691
 20
75.73008812878521
 30
0.0
 40
3.0
  0
CIRCLE
  5
210
330
1F
100
AcDbEntity
  8
1
  6
DASHED
 62
     2
100
AcDbCircle
 10
336.5538424624691
 20
65.73008812878521
 30
0.0
 40
3.0
  0
CIRCLE
  5
211
330
1F
100
AcDbEntity
  8
1
  6
Continuous
 62
     7
100
AcDbCircle
 10
330.5538424624691
 20
-39.26991187121489
 30
0.0
 40
4.0
  0
CIRCLE
  5
212
330
1F
100
AcDbEntity
  8
1
  6
Continuous
 62
     7
100
AcDbCircle
 10
330.5538424624691
 20
55.73008812878526
 30
0.0
 40
4.0
  0
XLINE
  5
213
330
1F
100
AcDbEntity
  8
1
  6
DOT_CENTER
 62
     3
 60
     1
100
AcDbXline
 10
327.6333648816764
 20
32.48008812878521
 30
0.0
 11
-1.0
 21
0.0
 31
0.0
  0
XLINE
  5
214
330
1F
100
AcDbEntity
  8
1
  6
DOT_CENTER
 62
     3
 60
     1
100
AcDbXline
 10
327.6333648816764
 20
-16.20781739937377
 30
0.0
 11
-1.0
 21
0.0
 31
0.0
  0
XLINE
  5
215
330
1F
100
AcDbEntity
  8
1
  6
DOT_CENTER
 62
     3
 60
     1
100
AcDbXline
 10
325.0538424624691
 20
-26.66991187121488
 30
0.0
 11
-1.0
 21
0.0
 31
0.0
  0
XLINE
  5
216
330
1F
100
AcDbEntity
  8
1
  6
DOT_CENTER
 62
     3
 60
     1
100
AcDbXline
 10
323.0538424624691
 20
-33.86991187121487
 30
0.0
 11
-1.0
 21
0.0
 31
0.0
  0
XLINE
  5
217
330
1F
100
AcDbEntity
  8
1
  6
DOT_CENTER
 62
     3
 60
     1
100
AcDbXline
 10
336.0538424624691
 20
-26.66991187121488
 30
0.0
 11
-1.0
 21
0.0
 31
0.0
  0
XLINE
  5
218
330
1F
100
AcDbEntity
  8
1
  6
DOT_CENTER
 62
     3
 60
     1
100
AcDbXline
 10
336.0538424624691
 20
-32.86991187121487
 30
0.0
 11
-1.0
 21
0.0
 31
0.0
  0
XLINE
  5
219
330
1F
100
AcDbEntity
  8
1
  6
DOT_CENTER
 62
     3
 60
     1
100
AcDbXline
 10
336.0538424624691
 20
-33.86991187121487
 30
0.0
 11
-1.0
 21
0.0
 31
0.0
  0
XLINE
  5
21A
330
1F
100
AcDbEntity
  8
1
  6
DOT_CENTER
 62
     3
 60
     1
100
AcDbXline
 10
338.0538424624691
 20
-26.66991187121488
 30
0.0
 11
-1.0
 21
0.0
 31
0.0
  0
XLINE
  5
21B
330
1F
100
AcDbEntity
  8
1
  6
DOT_CENTER
 62
     3
 60
     1
100
AcDbXline
 10
338.0538424624691
 20
-32.86991187121487
 30
0.0
 11
-1.0
 21
0.0
 31
0.0
  0
XLINE
  5
21C
330
1F
100
AcDbEntity
  8
1
  6
DOT_CENTER
 62
     3
 60
     1
100
AcDbXline
 10
338.0538424624691
 20
-33.86991187121487
 30
0.0
 11
-1.0
 21
0.0
 31
0.0
  0
XLINE
  5
21D
330
1F
100
AcDbEntity
  8
1
  6
DOT_CENTER
 62
     3
 60
     1
100
AcDbXline
 10
316.8494913076972
 20
8.2300881287851
 30
0.0
 11
1.0
 21
0.0
 31
0.0
  0
XLINE
  5
21E
330
1F
100
AcDbEntity
  8
1
  6
DOT_CENTER
 62
     3
 60
     1
100
AcDbXline
 10
325.0538424624691
 20
43.13008812878525
 30
0.0
 11
-1.0
 21
0.0
 31
0.0
  0
XLINE
  5
21F
330
1F
100
AcDbEntity
  8
1
  6
DOT_CENTER
 62
     3
 60
     1
100
AcDbXline
 10
323.0538424624691
 20
50.33008812878524
 30
0.0
 11
-1.0
 21
0.0
 31
0.0
  0
XLINE
  5
220
330
1F
100
AcDbEntity
  8
1
  6
DOT_CENTER
 62
     3
 60
     1
100
AcDbXline
 10
336.0538424624691
 20
43.13008812878525
 30
0.0
 11
-1.0
 21
0.0
 31
0.0
  0
XLINE
  5
221
330
1F
100
AcDbEntity
  8
1
  6
DOT_CENTER
 62
     3
 60
     1
100
AcDbXline
 10
336.0538424624691
 20
49.33008812878524
 30
0.0
 11
-1.0
 21
0.0
 31
0.0
  0
XLINE
  5
222
330
1F
100
AcDbEntity
  8
1
  6
DOT_CENTER
 62
     3
 60
     1
100
AcDbXline
 10
336.0538424624691
 20
50.33008812878524
 30
0.0
 11
-1.0
 21
0.0
 31
0.0
  0
XLINE
  5
223
330
1F
100
AcDbEntity
  8
1
  6
DOT_CENTER
 62
     3
 60
     1
100
AcDbXline
 10
338.0538424624691
 20
43.13008812878525
 30
0.0
 11
-1.0
 21
0.0
 31
0.0
  0
XLINE
  5
224
330
1F
100
AcDbEntity
  8
1
  6
DOT_CENTER
 62
     3
 60
     1
100
AcDbXline
 10
338.0538424624691
 20
49.33008812878524
 30
0.0
 11
-1.0
 21
0.0
 31
0.0
  0
XLINE
  5
225
330
1F
100
AcDbEntity
  8
1
  6
DOT_CENTER
 62
     3
 60
     1
100
AcDbXline
 10
338.0538424624691
 20
50.33008812878524
 30
0.0
 11
-1.0
 21
0.0
 31
0.0
  0
XLINE
  5
226
330
1F
100
AcDbEntity
  8
1
  6
DOT_CENTER
 62
     3
 60
     1
100
AcDbXline
 10
316.8494913076972
 20
8.2300881287851
 30
0.0
 11
1.0
 21
0.0
 31
0.0
  0
ARC
  5
227
330
1F
100
AcDbEntity
  8
1
  6
Continuous
 62
     7
100
AcDbCircle
 10
323.8921190286703
 20
-0.51991187121479
 30
0.0
 40
2.5
100
AcDbArc
 50
-90.0
 51
0.0
  0
ARC
  5
228
330
1F
100
AcDbEntity
  8
1
  6
Continuous
 62
     7
100
AcDbCircle
 10
323.8921190286703
 20
16.98008812878521
 30
0.0
 40
2.5
100
AcDbArc
 50
0.0
 51
90.0
  0
ARC
  5
229
330
1F
100
AcDbEntity
  8
1
  6
Continuous
 62
     7
100
AcDbCircle
 10
296.215565896268
 20
-3.76991187121479
 30
0.0
 40
2.5
100
AcDbArc
 50
90.0
 51
180.0
  0
ARC
  5
22A
330
1F
100
AcDbEntity
  8
1
  6
Continuous
 62
     7
100
AcDbCircle
 10
341.5538424624692
 20
29.73008812878521
 30
0.0
 40
1.0
100
AcDbArc
 50
0.0
 51
90.0
  0
ARC
  5
22B
330
1F
100
AcDbEntity
  8
1
  6
Continuous
 62
     7
100
AcDbCircle
 10
341.5538424624692
 20
-13.26991187121479
 30
0.0
 40
1.0
100
AcDbArc
 50
-90.0
 51
0.0
  0
MTEXT
  5
22D
330
1F
100
AcDbEntity
  8
1
 62
     2
100
AcDbMText
 10
350.2672397467439
 20
10.6915344696291
 30
0.0
 40
2.5
 41
0.0
 71
     5
 72
     1
  1
BBL
  7
CONVERTER_11
 73
     1
 44
1.32052821128451
  0
DIMENSION
  5
238
330
1F
100
AcDbEntity
  8
1
100
AcDbDimension
  2
*D1
 10
266.361681033526
 20
85.73008812878521
 30
0.0
 11
262.611681033526
 21
8.47338917370769
 31
0.0
 70
    32
  1
<>
 71
     5
 42
-1.0
 53
90.0
  3
ME10_DIM_10
100
AcDbAlignedDimension
 13
289.5538424624691
 23
-69.2699118712149
 33
0.0
 14
289.5538424624691
 24
85.73008812878521
 34
0.0
 50
90.0
100
AcDbRotatedDimension
  0
DIMENSION
  5
244
330
1F
100
AcDbEntity
  8
1
100
AcDbDimension
  2
*D2
 10
276.5538424624691
 20
-79.3504641624156
 30
0.0
 11
289.5538424624692
 21
-75.6004641624156
 31
0.0
 70
    32
  1
<>
 71
     5
 42
-1.0
 53
0.00013888888889
  3
ME10_DIM_11
100
AcDbAlignedDimension
 13
302.5538424624691
 23
-56.36991187121489
 33
0.0
 14
276.5538424624691
 24
-56.3699118712149
 34
0.0
100
AcDbRotatedDimension
  0
DIMENSION
  5
24F
330
1F
100
AcDbEntity
  8
1
100
AcDbDimension
  2
*D3
 10
317.5538424624691
 20
-79.3504641624156
 30
0.0
 11
330.5538424624692
 21
-75.6004641624156
 31
0.0
 70
    32
  1
<>
 71
     5
 42
-1.0
 53
0.00013888888889
  3
ME10_DIM_12
100
AcDbAlignedDimension
 13
343.5538424624694
 23
-56.36991187121489
 33
0.0
 14
317.5538424624691
 24
-56.36991187121489
 34
0.0
100
AcDbRotatedDimension
  0
DIMENSION
  5
25A
330
1F
100
AcDbEntity
  8
1
100
AcDbDimension
  2
*D4
 10
302.5538424624691
 20
-79.3504641624156
 30
0.0
 11
310.0538424624691
 21
-75.6004641624156
 31
0.0
 70
    32
  1
<>
 71
     5
 42
-1.0
 53
0.00013888888889
  3
ME10_DIM_13
100
AcDbAlignedDimension
 13
317.5538424624691
 23
-56.36991187121489
 33
0.0
 14
302.5538424624691
 24
-56.36991187121489
 34
0.0
100
AcDbRotatedDimension
  0
ENDSEC
  0
SECTION
  2
OBJECTS
  0
DICTIONARY
  5
C
330
0
100
AcDbDictionary
281
     1
  3
ACAD_GROUP
350
D
  3
ACAD_LAYOUT
350
1A
  3
ACAD_MLINESTYLE
350
17
  3
ACAD_PLOTSETTINGS
350
19
  3
ACAD_PLOTSTYLENAME
350
E
  0
DICTIONARY
  5
D
102
{ACAD_REACTORS
330
C
102
}
330
C
100
AcDbDictionary
281
     1
  0
DICTIONARY
  5
1A
102
{ACAD_REACTORS
330
C
102
}
330
C
100
AcDbDictionary
281
     1
  3
Layout1
350
1E
  3
Layout2
350
26
  3
Model
350
22
  0
DICTIONARY
  5
17
102
{ACAD_REACTORS
330
C
102
}
330
C
100
AcDbDictionary
281
     1
  3
Standard
350
18
  0
DICTIONARY
  5
19
102
{ACAD_REACTORS
330
C
102
}
330
C
100
AcDbDictionary
281
     1
  0
ACDBDICTIONARYWDFLT
  5
E
102
{ACAD_REACTORS
330
C
102
}
330
C
100
AcDbDictionary
281
     1
  3
Normal
350
F
100
AcDbDictionaryWithDefault
340
F
  0
LAYOUT
  5
1E
102
{ACAD_REACTORS
330
1A
102
}
330
1A
100
AcDbPlotSettings
  1

  2

  4

  6

 40
0.0
 41
0.0
 42
0.0
 43
0.0
 44
0.0
 45
0.0
 46
0.0
 47
0.0
 48
0.0
 49
0.0
140
0.0
141
0.0
142
1.0
143
1.0
 70
   688
 72
     0
 73
     0
 74
     5
  7

 75
    16
 76
     0
 77
     2
 78
   300
147
1.0
148
0.0
149
0.0
100
AcDbLayout
  1
Layout1
 70
     1
 71
     1
 10
0.0
 20
0.0
 11
0.0
 21
0.0
 12
0.0
 22
0.0
 32
0.0
 14
0.0
 24
0.0
 34
0.0
 15
0.0
 25
0.0
 35
0.0
146
0.0
 13
0.0
 23
0.0
 33
0.0
 16
1.0
 26
0.0
 36
0.0
 17
0.0
 27
1.0
 37
0.0
 76
     0
330
1B
  0
LAYOUT
  5
26
102
{ACAD_REACTORS
330
1A
102
}
330
1A
100
AcDbPlotSettings
  1

  2

  4

  6

 40
0.0
 41
0.0
 42
0.0
 43
0.0
 44
0.0
 45
0.0
 46
0.0
 47
0.0
 48
0.0
 49
0.0
140
0.0
141
0.0
142
1.0
143
1.0
 70
   688
 72
     0
 73
     0
 74
     5
  7

 75
    16
 76
     0
 77
     2
 78
   300
147
1.0
148
0.0
149
0.0
100
AcDbLayout
  1
Layout2
 70
     1
 71
     2
 10
0.0
 20
0.0
 11
0.0
 21
0.0
 12
0.0
 22
0.0
 32
0.0
 14
0.0
 24
0.0
 34
0.0
 15
0.0
 25
0.0
 35
0.0
146
0.0
 13
0.0
 23
0.0
 33
0.0
 16
1.0
 26
0.0
 36
0.0
 17
0.0
 27
1.0
 37
0.0
 76
     0
330
23
  0
LAYOUT
  5
22
102
{ACAD_REACTORS
330
1A
102
}
330
1A
100
AcDbPlotSettings
  1

  2

  4

  6

 40
0.0
 41
0.0
 42
0.0
 43
0.0
 44
0.0
 45
0.0
 46
0.0
 47
0.0
 48
0.0
 49
0.0
140
0.0
141
0.0
142
1.0
143
1.0
 70
  1712
 72
     0
 73
     0
 74
     0
  7

 75
     0
 76
     0
 77
     2
 78
   300
147
1.0
148
0.0
149
0.0
100
AcDbLayout
  1
Model
 70
     1
 71
     0
 10
0.0
 20
0.0
 11
0.0
 21
0.0
 12
0.0
 22
0.0
 32
0.0
 14
260.861681033526
 24
-81.3504641624156
 34
0.0
 15
355.537889712561
 25
85.730184653522
 35
0.0
146
0.0
 13
0.0
 23
0.0
 33
0.0
 16
1.0
 26
0.0
 36
0.0
 17
0.0
 27
1.0
 37
0.0
 76
     0
330
1F
  0
MLINESTYLE
  5
18
102
{ACAD_REACTORS
330
17
102
}
330
17
100
AcDbMlineStyle
  2
Standard
 70
     0
  3

 62
   256
 51
90.0
 52
90.0
 71
     2
 49
0.5
 62
   256
  6
BYLAYER
 49
-0.5
 62
   256
  6
BYLAYER
  0
ACDBPLACEHOLDER
  5
F
102
{ACAD_REACTORS
330
E
102
}
330
E
  0
ENDSEC
  0
EOF
