  0
SECTION
  2
HEADER
  9
$ACADVER
  1
AC1018
  9
$ACADMAINTVER
 70
     0
  9
$DWGCODEPAGE
  3
ANSI_1252
  9
$INSBASE
 10
0.0
 20
0.0
 30
0.0
  9
$EXTMIN
 10
-176.633523425262
 20
-119.2574994986811
 30
0.0
  9
$EXTMAX
 10
182.56712298079
 20
107.4193999621323
 30
0.0
  9
$LIMMIN
 10
0.0
 20
0.0
  9
$LIMMAX
 10
12.0
 20
9.0
  9
$ORTHOMODE
 70
     0
  9
$REGENMODE
 70
     1
  9
$FILLMODE
 70
     1
  9
$QTEXTMODE
 70
     0
  9
$MIRRTEXT
 70
     1
  9
$LTSCALE
 40
1.0
  9
$ATTMODE
 70
     1
  9
$TEXTSIZE
 40
0.2
  9
$TRACEWID
 40
0.05
  9
$TEXTSTYLE
  7
Standard
  9
$CLAYER
  8
0
  9
$CELTYPE
  6
ByLayer
  9
$CECOLOR
 62
   256
  9
$CELTSCALE
 40
1.0
  9
$DISPSILH
 70
     0
  9
$DIMSCALE
 40
1.0
  9
$DIMASZ
 40
0.18
  9
$DIMEXO
 40
0.0625
  9
$DIMDLI
 40
0.38
  9
$DIMRND
 40
0.0
  9
$DIMDLE
 40
0.0
  9
$DIMEXE
 40
0.18
  9
$DIMTP
 40
0.0
  9
$DIMTM
 40
0.0
  9
$DIMTXT
 40
0.18
  9
$DIMCEN
 40
0.09
  9
$DIMTSZ
 40
0.0
  9
$DIMTOL
 70
     0
  9
$DIMLIM
 70
     0
  9
$DIMTIH
 70
     1
  9
$DIMTOH
 70
     1
  9
$DIMSE1
 70
     0
  9
$DIMSE2
 70
     0
  9
$DIMTAD
 70
     0
  9
$DIMZIN
 70
     0
  9
$DIMBLK
  1

  9
$DIMASO
 70
     1
  9
$DIMSHO
 70
     1
  9
$DIMPOST
  1

  9
$DIMAPOST
  1

  9
$DIMALT
 70
     0
  9
$DIMALTD
 70
     2
  9
$DIMALTF
 40
25.4
  9
$DIMLFAC
 40
1.0
  9
$DIMTOFL
 70
     0
  9
$DIMTVP
 40
0.0
  9
$DIMTIX
 70
     0
  9
$DIMSOXD
 70
     0
  9
$DIMSAH
 70
     0
  9
$DIMBLK1
  1

  9
$DIMBLK2
  1

  9
$DIMSTYLE
  2
Standard
  9
$DIMCLRD
 70
     0
  9
$DIMCLRE
 70
     0
  9
$DIMCLRT
 70
     0
  9
$DIMTFAC
 40
1.0
  9
$DIMGAP
 40
0.09
  9
$DIMJUST
 70
     0
  9
$DIMSD1
 70
     0
  9
$DIMSD2
 70
     0
  9
$DIMTOLJ
 70
     1
  9
$DIMTZIN
 70
     0
  9
$DIMALTZ
 70
     0
  9
$DIMALTTZ
 70
     0
  9
$DIMUPT
 70
     0
  9
$DIMDEC
 70
     4
  9
$DIMTDEC
 70
     4
  9
$DIMALTU
 70
     2
  9
$DIMALTTD
 70
     2
  9
$DIMTXSTY
  7
Standard
  9
$DIMAUNIT
 70
     0
  9
$DIMADEC
 70
     0
  9
$DIMALTRND
 40
0.0
  9
$DIMAZIN
 70
     0
  9
$DIMDSEP
 70
    46
  9
$DIMATFIT
 70
     3
  9
$DIMFRAC
 70
     0
  9
$DIMLDRBLK
  1

  9
$DIMLUNIT
 70
     2
  9
$DIMLWD
 70
    -2
  9
$DIMLWE
 70
    -2
  9
$DIMTMOVE
 70
     0
  9
$LUNITS
 70
     2
  9
$LUPREC
 70
     4
  9
$SKETCHINC
 40
0.1
  9
$FILLETRAD
 40
0.5
  9
$AUNITS
 70
     0
  9
$AUPREC
 70
     0
  9
$MENU
  1
.
  9
$ELEVATION
 40
0.0
  9
$PELEVATION
 40
0.0
  9
$THICKNESS
 40
0.0
  9
$LIMCHECK
 70
     0
  9
$CHAMFERA
 40
0.5
  9
$CHAMFERB
 40
0.5
  9
$CHAMFERC
 40
1.0
  9
$CHAMFERD
 40
0.0
  9
$SKPOLY
 70
     0
  9
$TDCREATE
 40
2456092.358786481
  9
$TDUCREATE
 40
2456092.275453148
  9
$TDUPDATE
 40
2456092.358786493
  9
$TDUUPDATE
 40
2456092.27545316
  9
$TDINDWG
 40
0.0000000116
  9
$TDUSRTIMER
 40
0.0000000116
  9
$USRTIMER
 70
     1
  9
$ANGBASE
 50
0.0
  9
$ANGDIR
 70
     0
  9
$PDMODE
 70
     0
  9
$PDSIZE
 40
0.0
  9
$PLINEWID
 40
0.0
  9
$SPLFRAME
 70
     0
  9
$SPLINETYPE
 70
     6
  9
$SPLINESEGS
 70
     8
  9
$HANDSEED
  5
1E6
  9
$SURFTAB1
 70
     6
  9
$SURFTAB2
 70
     6
  9
$SURFTYPE
 70
     6
  9
$SURFU
 70
     6
  9
$SURFV
 70
     6
  9
$UCSBASE
  2

  9
$UCSNAME
  2

  9
$UCSORG
 10
0.0
 20
0.0
 30
0.0
  9
$UCSXDIR
 10
1.0
 20
0.0
 30
0.0
  9
$UCSYDIR
 10
0.0
 20
1.0
 30
0.0
  9
$UCSORTHOREF
  2

  9
$UCSORTHOVIEW
 70
     0
  9
$UCSORGTOP
 10
0.0
 20
0.0
 30
0.0
  9
$UCSORGBOTTOM
 10
0.0
 20
0.0
 30
0.0
  9
$UCSORGLEFT
 10
0.0
 20
0.0
 30
0.0
  9
$UCSORGRIGHT
 10
0.0
 20
0.0
 30
0.0
  9
$UCSORGFRONT
 10
0.0
 20
0.0
 30
0.0
  9
$UCSORGBACK
 10
0.0
 20
0.0
 30
0.0
  9
$PUCSBASE
  2

  9
$PUCSNAME
  2

  9
$PUCSORG
 10
0.0
 20
0.0
 30
0.0
  9
$PUCSXDIR
 10
1.0
 20
0.0
 30
0.0
  9
$PUCSYDIR
 10
0.0
 20
1.0
 30
0.0
  9
$PUCSORTHOREF
  2

  9
$PUCSORTHOVIEW
 70
     0
  9
$PUCSORGTOP
 10
0.0
 20
0.0
 30
0.0
  9
$PUCSORGBOTTOM
 10
0.0
 20
0.0
 30
0.0
  9
$PUCSORGLEFT
 10
0.0
 20
0.0
 30
0.0
  9
$PUCSORGRIGHT
 10
0.0
 20
0.0
 30
0.0
  9
$PUCSORGFRONT
 10
0.0
 20
0.0
 30
0.0
  9
$PUCSORGBACK
 10
0.0
 20
0.0
 30
0.0
  9
$USERI1
 70
     0
  9
$USERI2
 70
     0
  9
$USERI3
 70
     0
  9
$USERI4
 70
     0
  9
$USERI5
 70
     0
  9
$USERR1
 40
14.5
  9
$USERR2
 40
0.0
  9
$USERR3
 40
0.0
  9
$USERR4
 40
0.0
  9
$USERR5
 40
0.0
  9
$WORLDVIEW
 70
     1
  9
$SHADEDGE
 70
     3
  9
$SHADEDIF
 70
    70
  9
$TILEMODE
 70
     1
  9
$MAXACTVP
 70
    64
  9
$PINSBASE
 10
0.0
 20
0.0
 30
0.0
  9
$PLIMCHECK
 70
     0
  9
$PEXTMIN
 10
1.00000000000000E+20
 20
1.00000000000000E+20
 30
1.00000000000000E+20
  9
$PEXTMAX
 10
-1.00000000000000E+20
 20
-1.00000000000000E+20
 30
-1.00000000000000E+20
  9
$PLIMMIN
 10
0.0
 20
0.0
  9
$PLIMMAX
 10
12.0
 20
9.0
  9
$UNITMODE
 70
     0
  9
$VISRETAIN
 70
     1
  9
$PLINEGEN
 70
     0
  9
$PSLTSCALE
 70
     1
  9
$TREEDEPTH
 70
  3020
  9
$CMLSTYLE
  2
Standard
  9
$CMLJUST
 70
     0
  9
$CMLSCALE
 40
1.0
  9
$PROXYGRAPHICS
 70
     1
  9
$MEASUREMENT
 70
     1
  9
$CELWEIGHT
370
    -1
  9
$ENDCAPS
280
     0
  9
$JOINSTYLE
280
     0
  9
$LWDISPLAY
290
     0
  9
$INSUNITS
 70
     1
  9
$HYPERLINKBASE
  1

  9
$STYLESHEET
  1

  9
$XEDIT
290
     1
  9
$CEPSNTYPE
380
     0
  9
$PSTYLEMODE
290
     1
  9
$FINGERPRINTGUID
  2
{D823B1DA-8429-4E9D-B31B-0380FFF1C260}
  9
$VERSIONGUID
  2
{FAEB1C32-E019-11D5-929B-00C0DF256EC4}
  9
$EXTNAMES
290
     1
  9
$PSVPSCALE
 40
0.0
  9
$OLESTARTUP
290
     0
  9
$SORTENTS
280
   127
  9
$INDEXCTL
280
     0
  9
$HIDETEXT
280
     1
  9
$XCLIPFRAME
290
     0
  9
$HALOGAP
280
     0
  9
$OBSCOLOR
 70
   257
  9
$OBSLTYPE
280
     0
  9
$INTERSECTIONDISPLAY
280
     0
  9
$INTERSECTIONCOLOR
 70
   257
  9
$DIMASSOC
280
     2
  9
$PROJECTNAME
  1

  0
ENDSEC
  0
SECTION
  2
CLASSES
  0
CLASS
  1
ACDBDICTIONARYWDFLT
  2
AcDbDictionaryWithDefault
  3
ObjectDBX Classes
 90
        0
 91
        3
280
     0
281
     0
  0
CLASS
  1

  2
exOdDbCircle
  3

 90
        0
 91
        3
280
     0
281
     1
  0
CLASS
  1

  2
exOdDbSpline
  3

 90
        0
 91
        3
280
     0
281
     1
  0
ENDSEC
  0
SECTION
  2
TABLES
  0
TABLE
  2
VPORT
  5
8
330
0
100
AcDbSymbolTable
 70
     1
  0
VPORT
  5
29
330
8
100
AcDbSymbolTableRecord
100
AcDbViewportTableRecord
  2
*Active
 70
     0
 10
0.0
 20
0.0
 11
1.0
 21
1.0
 12
2.966799777764
 22
-5.9190497682744
 13
0.0
 23
0.0
 14
0.5
 24
0.5
 15
0.5
 25
0.5
 16
0.0
 26
0.0
 36
1.0
 17
0.0
 27
0.0
 37
0.0
 40
249.3445894068948
 41
1.60267857142857
 42
50.0
 43
0.0
 44
0.0
 50
0.0
 51
0.0
 71
     0
 72
   100
 73
     1
 74
     3
 75
     0
 76
     0
 77
     0
 78
     0
281
     0
 65
     1
110
0.0
120
0.0
130
0.0
111
1.0
121
0.0
131
0.0
112
0.0
122
1.0
132
0.0
 79
     0
146
0.0
  0
ENDTAB
  0
TABLE
  2
LTYPE
  5
5
330
0
100
AcDbSymbolTable
 70
     8
  0
LTYPE
  5
14
330
5
100
AcDbSymbolTableRecord
100
AcDbLinetypeTableRecord
  2
ByBlock
 70
     0
  3

 72
    65
 73
     0
 40
0.0
  0
LTYPE
  5
15
330
5
100
AcDbSymbolTableRecord
100
AcDbLinetypeTableRecord
  2
ByLayer
 70
     0
  3

 72
    65
 73
     0
 40
0.0
  0
LTYPE
  5
16
330
5
100
AcDbSymbolTableRecord
100
AcDbLinetypeTableRecord
  2
Continuous
 70
     0
  3
Solid line
 72
    65
 73
     0
 40
0.0
  0
LTYPE
  5
2A
330
5
100
AcDbSymbolTableRecord
100
AcDbLinetypeTableRecord
  2
DASHED
 70
     0
  3
Dashed
 72
    65
 73
     2
 40
15.0
 49
7.0
 74
     0
 49
-8.0
 74
     0
  0
LTYPE
  5
2B
330
5
100
AcDbSymbolTableRecord
100
AcDbLinetypeTableRecord
  2
DOTTED
 70
     0
  3
Dotted
 72
    65
 73
     2
 40
1.0
 49
0.0
 74
     0
 49
-1.0
 74
     0
  0
LTYPE
  5
2C
330
5
100
AcDbSymbolTableRecord
100
AcDbLinetypeTableRecord
  2
DOT_CENTER
 70
     0
  3
Dot_Center
 72
    65
 73
     4
 40
14.0
 49
12.0
 74
     0
 49
-1.0
 74
     0
 49
0.0
 74
     0
 49
-1.0
 74
     0
  0
LTYPE
  5
2D
330
5
100
AcDbSymbolTableRecord
100
AcDbLinetypeTableRecord
  2
LONG_DASHED
 70
     0
  3
Long_Dashed
 72
    65
 73
     2
 40
15.0
 49
10.0
 74
     0
 49
-5.0
 74
     0
  0
LTYPE
  5
2E
330
5
100
AcDbSymbolTableRecord
100
AcDbLinetypeTableRecord
  2
DASH_CENTER
 70
     0
  3
Dash_Center
 72
    65
 73
     4
 40
14.0
 49
11.0
 74
     0
 49
-1.0
 74
     0
 49
1.0
 74
     0
 49
-1.0
 74
     0
  0
LTYPE
  5
2F
330
5
100
AcDbSymbolTableRecord
100
AcDbLinetypeTableRecord
  2
PHANTOM
 70
     0
  3
Phantom
 72
    65
 73
     6
 40
13.0
 49
10.0
 74
     0
 49
-1.0
 74
     0
 49
0.0
 74
     0
 49
-1.0
 74
     0
 49
0.0
 74
     0
 49
-1.0
 74
     0
  0
LTYPE
  5
30
330
5
100
AcDbSymbolTableRecord
100
AcDbLinetypeTableRecord
  2
CENTER_DASH_DASH
 70
     0
  3
Center_Dash_Dash
 72
    65
 73
     6
 40
14.0
 49
9.0
 74
     0
 49
-1.0
 74
     0
 49
1.0
 74
     0
 49
-1.0
 74
     0
 49
1.0
 74
     0
 49
-1.0
 74
     0
  0
ENDTAB
  0
TABLE
  2
LAYER
  5
2
330
0
100
AcDbSymbolTable
 70
     2
  0
LAYER
  5
10
330
2
100
AcDbSymbolTableRecord
100
AcDbLayerTableRecord
  2
0
 70
     0
 62
     7
  6
Continuous
370
    -3
390
F
  0
LAYER
  5
31
330
2
100
AcDbSymbolTableRecord
100
AcDbLayerTableRecord
  2
1
 70
     0
 62
     7
  6
Continuous
370
    -3
390
F
  0
ENDTAB
  0
TABLE
  2
STYLE
  5
3
330
0
100
AcDbSymbolTable
 70
     2
  0
STYLE
  5
11
330
3
100
AcDbSymbolTableRecord
100
AcDbTextStyleTableRecord
  2
Standard
 70
     0
 40
0.0
 41
1.0
 50
0.0
 71
     0
 42
0.2
  3
txt
  4

  0
STYLE
  5
114
330
3
100
AcDbSymbolTableRecord
100
AcDbTextStyleTableRecord
  2
CONVERTER_11
 70
     0
 40
0.0
 41
0.9
 50
0.0
 71
     0
 42
0.2
  3
txt.shx
  4

  0
ENDTAB
  0
TABLE
  2
VIEW
  5
6
330
0
100
AcDbSymbolTable
 70
     0
  0
ENDTAB
  0
TABLE
  2
UCS
  5
7
330
0
100
AcDbSymbolTable
 70
     0
  0
ENDTAB
  0
TABLE
  2
APPID
  5
9
330
0
100
AcDbSymbolTable
 70
     1
  0
APPID
  5
12
330
9
100
AcDbSymbolTableRecord
100
AcDbRegAppTableRecord
  2
ACAD
 70
     0
  0
ENDTAB
  0
TABLE
  2
DIMSTYLE
  5
A
330
0
100
AcDbSymbolTable
 70
    17
100
AcDbDimStyleTable
  0
DIMSTYLE
105
27
330
A
100
AcDbSymbolTableRecord
100
AcDbDimStyleTableRecord
  2
Standard
 70
     0
340
11
  0
DIMSTYLE
105
123
102
{ACAD_REACTORS
330
124
102
}
330
A
100
AcDbSymbolTableRecord
100
AcDbDimStyleTableRecord
  2
ME10_DIM_10
 70
     0
 41
3.5
 42
0.0
 44
2.0
 73
     0
 74
     0
 77
     1
 78
     8
140
3.5
147
2.0
172
     1
173
     1
176
     2
177
     2
178
     2
271
     3
340
114
  0
DIMSTYLE
105
12E
102
{ACAD_REACTORS
330
12F
102
}
330
A
100
AcDbSymbolTableRecord
100
AcDbDimStyleTableRecord
  2
ME10_DIM_11
 70
     0
 41
3.5
 42
0.0
 44
2.0
 73
     0
 74
     0
 77
     1
 78
     8
140
3.5
147
2.0
172
     1
173
     1
176
     2
177
     2
178
     2
271
     3
340
114
  0
DIMSTYLE
105
139
102
{ACAD_REACTORS
330
13A
102
}
330
A
100
AcDbSymbolTableRecord
100
AcDbDimStyleTableRecord
  2
ME10_DIM_12
 70
     0
 41
3.5
 42
0.0
 44
2.0
 73
     0
 74
     0
 77
     1
 78
     8
140
3.5
147
2.0
172
     1
173
     1
176
     2
177
     2
178
     2
271
     3
340
114
  0
DIMSTYLE
105
144
102
{ACAD_REACTORS
330
145
102
}
330
A
100
AcDbSymbolTableRecord
100
AcDbDimStyleTableRecord
  2
ME10_DIM_13
 70
     0
  3
min.<>
 41
3.5
 42
0.0
 44
2.0
 73
     0
 74
     0
 77
     1
 78
     8
140
3.5
147
2.0
172
     1
173
     1
176
     2
177
     2
178
     2
271
     2
340
114
  0
DIMSTYLE
105
14F
102
{ACAD_REACTORS
330
150
102
}
330
A
100
AcDbSymbolTableRecord
100
AcDbDimStyleTableRecord
  2
ME10_DIM_14
 70
     0
 41
3.5
 42
0.0
 44
2.0
 73
     0
 74
     0
 77
     1
 78
     8
140
3.5
147
2.0
172
     1
173
     1
176
     2
177
     2
178
     2
271
     3
340
114
  0
DIMSTYLE
105
15A
102
{ACAD_REACTORS
330
15B
102
}
330
A
100
AcDbSymbolTableRecord
100
AcDbDimStyleTableRecord
  2
ME10_DIM_15
 70
     0
 41
3.5
 42
0.0
 44
2.0
 73
     0
 74
     0
 77
     1
 78
     8
140
3.5
147
2.0
172
     1
173
     1
176
     2
177
     2
178
     2
271
     3
340
114
  0
DIMSTYLE
105
165
102
{ACAD_REACTORS
330
166
102
}
330
A
100
AcDbSymbolTableRecord
100
AcDbDimStyleTableRecord
  2
ME10_DIM_16
 70
     0
 41
3.5
 42
0.0
 44
2.0
 73
     0
 74
     0
 77
     1
 78
     8
140
3.5
147
2.0
172
     1
173
     1
176
     2
177
     2
178
     2
271
     3
340
114
  0
DIMSTYLE
105
170
102
{ACAD_REACTORS
330
171
102
}
330
A
100
AcDbSymbolTableRecord
100
AcDbDimStyleTableRecord
  2
ME10_DIM_17
 70
     0
 41
3.5
 42
0.0
 44
2.0
 73
     0
 74
     0
 77
     1
 78
     8
140
3.5
147
2.0
172
     1
173
     1
176
     2
177
     2
178
     2
271
     3
340
114
  0
DIMSTYLE
105
17D
102
{ACAD_REACTORS
330
17E
102
}
330
A
100
AcDbSymbolTableRecord
100
AcDbDimStyleTableRecord
  2
ME10_DIM_18
 70
     0
 41
3.5
 42
0.0
 44
2.0
 73
     0
 74
     0
 77
     1
 78
     8
140
3.5
147
2.0
172
     1
173
     1
176
     2
177
     2
178
     2
271
     2
340
114
  0
DIMSTYLE
105
18A
102
{ACAD_REACTORS
330
18B
102
}
330
A
100
AcDbSymbolTableRecord
100
AcDbDimStyleTableRecord
  2
ME10_DIM_19
 70
     0
 41
3.5
 42
0.0
 44
2.0
 73
     0
 74
     0
 77
     1
 78
     8
140
3.5
147
2.0
172
     1
173
     1
176
     2
177
     2
178
     2
271
     2
340
114
  0
DIMSTYLE
105
195
102
{ACAD_REACTORS
330
196
102
}
330
A
100
AcDbSymbolTableRecord
100
AcDbDimStyleTableRecord
  2
ME10_DIM_20
 70
     0
 41
3.5
 42
0.0
 44
2.0
 73
     0
 74
     0
 77
     1
 78
     8
140
3.5
147
2.0
172
     1
173
     1
176
     2
177
     2
178
     2
271
     2
340
114
  0
DIMSTYLE
105
1A0
102
{ACAD_REACTORS
330
1A1
102
}
330
A
100
AcDbSymbolTableRecord
100
AcDbDimStyleTableRecord
  2
ME10_DIM_21
 70
     0
 41
3.5
 42
0.0
 44
2.0
 73
     0
 74
     0
 77
     1
 78
     8
140
3.5
147
2.0
172
     1
173
     1
176
     2
177
     2
178
     2
271
     3
340
114
  0
DIMSTYLE
105
1AB
102
{ACAD_REACTORS
330
1AC
102
}
330
A
100
AcDbSymbolTableRecord
100
AcDbDimStyleTableRecord
  2
ME10_DIM_22
 70
     0
 41
3.5
 42
0.0
 44
2.0
 73
     0
 74
     0
 77
     1
 78
     8
140
3.5
147
2.0
172
     1
173
     1
176
     2
177
     2
178
     2
271
     3
340
114
  0
DIMSTYLE
105
1B8
102
{ACAD_REACTORS
330
1B9
102
}
330
A
100
AcDbSymbolTableRecord
100
AcDbDimStyleTableRecord
  2
ME10_DIM_23
 70
     0
 41
3.5
 42
0.0
 44
2.0
 73
     0
 74
     0
 77
     1
 78
     8
140
3.5
147
2.0
172
     1
173
     1
176
     2
177
     2
178
     2
271
     3
340
114
  0
DIMSTYLE
105
1C3
102
{ACAD_REACTORS
330
1C4
102
}
330
A
100
AcDbSymbolTableRecord
100
AcDbDimStyleTableRecord
  2
ME10_DIM_24
 70
     0
 41
3.5
 42
0.0
 44
2.0
 73
     0
 74
     0
 77
     1
 78
     8
140
3.5
147
2.0
172
     1
173
     1
176
     2
177
     2
178
     2
271
     3
340
114
  0
DIMSTYLE
105
1CE
102
{ACAD_REACTORS
330
1CF
102
}
330
A
100
AcDbSymbolTableRecord
100
AcDbDimStyleTableRecord
  2
ME10_DIM_25
 70
     0
 41
3.5
 42
0.0
 44
2.0
 73
     0
 74
     0
 77
     1
 78
     8
140
3.5
147
2.0
172
     1
173
     1
176
     2
177
     2
178
     2
271
     2
340
114
  0
ENDTAB
  0
TABLE
  2
BLOCK_RECORD
  5
1
330
0
100
AcDbSymbolTable
 70
    20
  0
BLOCK_RECORD
  5
1F
330
1
100
AcDbSymbolTableRecord
100
AcDbBlockTableRecord
  2
*Model_Space
340
22
  0
BLOCK_RECORD
  5
1B
330
1
100
AcDbSymbolTableRecord
100
AcDbBlockTableRecord
  2
*Paper_Space
340
1E
  0
BLOCK_RECORD
  5
23
330
1
100
AcDbSymbolTableRecord
100
AcDbBlockTableRecord
  2
*Paper_Space0
340
26
  0
BLOCK_RECORD
  5
118
330
1
100
AcDbSymbolTableRecord
100
AcDbBlockTableRecord
  2
*D1
340
0
  0
BLOCK_RECORD
  5
125
330
1
100
AcDbSymbolTableRecord
100
AcDbBlockTableRecord
  2
*D2
340
0
  0
BLOCK_RECORD
  5
130
330
1
100
AcDbSymbolTableRecord
100
AcDbBlockTableRecord
  2
*D3
340
0
  0
BLOCK_RECORD
  5
13B
330
1
100
AcDbSymbolTableRecord
100
AcDbBlockTableRecord
  2
*D4
340
0
  0
BLOCK_RECORD
  5
146
330
1
100
AcDbSymbolTableRecord
100
AcDbBlockTableRecord
  2
*D5
340
0
  0
BLOCK_RECORD
  5
151
330
1
100
AcDbSymbolTableRecord
100
AcDbBlockTableRecord
  2
*D6
340
0
  0
BLOCK_RECORD
  5
15C
330
1
100
AcDbSymbolTableRecord
100
AcDbBlockTableRecord
  2
*D7
340
0
  0
BLOCK_RECORD
  5
167
330
1
100
AcDbSymbolTableRecord
100
AcDbBlockTableRecord
  2
*D8
340
0
  0
BLOCK_RECORD
  5
172
330
1
100
AcDbSymbolTableRecord
100
AcDbBlockTableRecord
  2
*D9
340
0
  0
BLOCK_RECORD
  5
17F
330
1
100
AcDbSymbolTableRecord
100
AcDbBlockTableRecord
  2
*D10
340
0
  0
BLOCK_RECORD
  5
18C
330
1
100
AcDbSymbolTableRecord
100
AcDbBlockTableRecord
  2
*D11
340
0
  0
BLOCK_RECORD
  5
197
330
1
100
AcDbSymbolTableRecord
100
AcDbBlockTableRecord
  2
*D12
340
0
  0
BLOCK_RECORD
  5
1A2
330
1
100
AcDbSymbolTableRecord
100
AcDbBlockTableRecord
  2
*D13
340
0
  0
BLOCK_RECORD
  5
1AD
330
1
100
AcDbSymbolTableRecord
100
AcDbBlockTableRecord
  2
*D14
340
0
  0
BLOCK_RECORD
  5
1BA
330
1
100
AcDbSymbolTableRecord
100
AcDbBlockTableRecord
  2
*D15
340
0
  0
BLOCK_RECORD
  5
1C5
330
1
100
AcDbSymbolTableRecord
100
AcDbBlockTableRecord
  2
*D16
340
0
  0
BLOCK_RECORD
  5
1D0
330
1
100
AcDbSymbolTableRecord
100
AcDbBlockTableRecord
  2
*D17
340
0
102
{BLKREFS
331
1D6
102
}
  0
BLOCK_RECORD
  5
1D7
330
1
100
AcDbSymbolTableRecord
100
AcDbBlockTableRecord
  2
*D18
340
0
102
{BLKREFS
331
1DD
102
}
  0
BLOCK_RECORD
  5
1DE
330
1
100
AcDbSymbolTableRecord
100
AcDbBlockTableRecord
  2
*D19
340
0
102
{BLKREFS
331
1E5
102
}
  0
ENDTAB
  0
ENDSEC
  0
SECTION
  2
BLOCKS
  0
BLOCK
  5
20
330
1F
100
AcDbEntity
  8
0
100
AcDbBlockBegin
  2
*Model_Space
 70
     0
 71
     0
 10
0.0
 20
0.0
 30
0.0
  3
*Model_Space
  1

  0
ENDBLK
  5
21
330
1F
100
AcDbEntity
  8
0
100
AcDbBlockEnd
  0
BLOCK
  5
1C
330
1B
100
AcDbEntity
 67
     1
  8
0
100
AcDbBlockBegin
  2
*Paper_Space
 70
     0
 71
     0
 10
0.0
 20
0.0
 30
0.0
  3
*Paper_Space
  1

  0
ENDBLK
  5
1D
330
1B
100
AcDbEntity
 67
     1
  8
0
100
AcDbBlockEnd
  0
BLOCK
  5
24
330
23
100
AcDbEntity
  8
0
100
AcDbBlockBegin
  2
*Paper_Space0
 70
     0
 71
     0
 10
0.0
 20
0.0
 30
0.0
  3
*Paper_Space0
  1

  0
ENDBLK
  5
25
330
23
100
AcDbEntity
  8
0
100
AcDbBlockEnd
  0
BLOCK
  5
121
330
118
100
AcDbEntity
  8
0
100
AcDbBlockBegin
  2
*D1
 70
     1
 71
     0
 10
0.0
 20
0.0
 30
0.0
  3
*D1
  1

  0
LINE
  5
119
330
118
100
AcDbEntity
  8
1
  6
Continuous
 62
     2
100
AcDbLine
 10
-168.077652587566
 20
-108.487423372669
 30
0.0
 11
-159.3592983114338
 21
-108.487423372669
 31
0.0
  0
LINE
  5
11A
330
118
100
AcDbEntity
  8
1
  6
Continuous
 62
     2
100
AcDbLine
 10
-159.3592983114338
 20
-108.487423372669
 30
0.0
 11
-154.3592983114338
 21
-108.487423372669
 31
0.0
  0
LINE
  5
11B
330
118
100
AcDbEntity
  8
1
  6
Continuous
 62
     2
100
AcDbLine
 10
-154.3592983114338
 20
-108.487423372669
 30
0.0
 11
-147.3592983114338
 21
-108.487423372669
 31
0.0
  0
LINE
  5
11C
330
118
100
AcDbEntity
  8
1
  6
Continuous
 62
     2
100
AcDbLine
 10
-154.3592983114338
 20
-59.02339990768866
 30
0.0
 11
-154.3592983114338
 21
-110.487423372669
 31
0.0
  0
LINE
  5
11D
330
118
100
AcDbEntity
  8
1
  6
Continuous
 62
     2
100
AcDbLine
 10
-159.3592983114338
 20
-94.62339990768861
 30
0.0
 11
-159.3592983114338
 21
-110.487423372669
 31
0.0
  0
SOLID
  5
11E
330
118
100
AcDbEntity
  8
1
 62
     2
100
AcDbTrace
 10
-162.8592983114338
 20
-108.9482071142249
 30
0.0
 11
-162.8592983114338
 21
-108.0266396311131
 31
0.0
 12
-159.3592983114338
 22
-108.487423372669
 32
0.0
 13
-159.3592983114338
 23
-108.487423372669
 33
0.0
  0
SOLID
  5
11F
330
118
100
AcDbEntity
  8
1
 62
     2
100
AcDbTrace
 10
-150.8592983114338
 20
-108.0266396311131
 30
0.0
 11
-150.8592983114338
 21
-108.9482071142249
 31
0.0
 12
-154.3592983114338
 22
-108.487423372669
 32
0.0
 13
-154.3592983114338
 23
-108.487423372669
 33
0.0
  0
MTEXT
  5
120
330
118
100
AcDbEntity
  8
1
 62
     2
100
AcDbMText
 10
-168.077652587566
 20
-106.487423372669
 30
0.0
 40
3.5
 41
0.0
 71
     7
 72
     1
  1
5
  7
CONVERTER_11
 11
0.9999999999970621
 21
2.424068405545307E-6
 31
0.0
 73
     1
 44
0.60024009603842
  0
ENDBLK
  5
122
330
118
100
AcDbEntity
  8
0
100
AcDbBlockEnd
  0
BLOCK
  5
12C
330
125
100
AcDbEntity
  8
0
100
AcDbBlockBegin
  2
*D2
 70
     1
 71
     0
 10
0.0
 20
0.0
 30
0.0
  3
*D2
  1

  0
LINE
  5
126
330
125
100
AcDbEntity
  8
1
  6
Continuous
 62
     2
100
AcDbLine
 10
-22.61320632733299
 20
1.48654219122906
 30
0.0
 11
-55.11320632733307
 21
1.48654219122906
 31
0.0
  0
LINE
  5
127
330
125
100
AcDbEntity
  8
1
  6
Continuous
 62
     2
100
AcDbLine
 10
-22.61320632733299
 20
-10.19793997026323
 30
0.0
 11
-22.61320632733299
 21
3.48654219122906
 31
0.0
  0
LINE
  5
128
330
125
100
AcDbEntity
  8
1
  6
Continuous
 62
     2
100
AcDbLine
 10
-55.11320632733307
 20
-34.19793997026321
 30
0.0
 11
-55.11320632733307
 21
3.48654219122906
 31
0.0
  0
SOLID
  5
129
330
125
100
AcDbEntity
  8
1
 62
     2
100
AcDbTrace
 10
-26.11320632733299
 20
1.02575844967317
 30
0.0
 11
-26.11320632733299
 21
1.94732593278494
 31
0.0
 12
-22.61320632733299
 22
1.48654219122906
 32
0.0
 13
-22.61320632733299
 23
1.48654219122906
 33
0.0
  0
SOLID
  5
12A
330
125
100
AcDbEntity
  8
1
 62
     2
100
AcDbTrace
 10
-51.61320632733307
 20
1.94732593278494
 30
0.0
 11
-51.61320632733307
 21
1.02575844967317
 31
0.0
 12
-55.11320632733307
 22
1.48654219122906
 32
0.0
 13
-55.11320632733307
 23
1.48654219122906
 33
0.0
  0
MTEXT
  5
12B
330
125
100
AcDbEntity
  8
1
 62
     2
100
AcDbMText
 10
-44.1012050086044
 20
3.48654219122906
 30
0.0
 40
3.5
 41
0.0
 71
     7
 72
     1
  1
32.5
  7
CONVERTER_11
 11
0.9999999999970621
 21
2.424068405545307E-6
 31
0.0
 73
     1
 44
0.60024009603842
  0
ENDBLK
  5
12D
330
125
100
AcDbEntity
  8
0
100
AcDbBlockEnd
  0
BLOCK
  5
137
330
130
100
AcDbEntity
  8
0
100
AcDbBlockBegin
  2
*D3
 70
     1
 71
     0
 10
0.0
 20
0.0
 30
0.0
  3
*D3
  1

  0
LINE
  5
131
330
130
100
AcDbEntity
  8
1
  6
Continuous
 62
     2
100
AcDbLine
 10
-68.7755987420266
 20
-67.6979399702632
 30
0.0
 11
-68.7755987420266
 21
-32.19793997026321
 31
0.0
  0
LINE
  5
132
330
130
100
AcDbEntity
  8
1
  6
Continuous
 62
     2
100
AcDbLine
 10
-58.6132063273335
 20
-67.6979399702632
 30
0.0
 11
-70.7755987420266
 21
-67.6979399702632
 31
0.0
  0
LINE
  5
133
330
130
100
AcDbEntity
  8
1
  6
Continuous
 62
     2
100
AcDbLine
 10
-53.11320632733307
 20
-32.19793997026321
 30
0.0
 11
-70.7755987420266
 21
-32.19793997026321
 31
0.0
  0
SOLID
  5
134
330
130
100
AcDbEntity
  8
1
 62
     2
100
AcDbTrace
 10
-69.23638248358249
 20
-64.1979399702632
 30
0.0
 11
-68.31481500047072
 21
-64.1979399702632
 31
0.0
 12
-68.7755987420266
 22
-67.6979399702632
 32
0.0
 13
-68.7755987420266
 23
-67.6979399702632
 33
0.0
  0
SOLID
  5
135
330
130
100
AcDbEntity
  8
1
 62
     2
100
AcDbTrace
 10
-68.31481500047072
 20
-35.69793997026321
 30
0.0
 11
-69.23638248358249
 21
-35.69793997026321
 31
0.0
 12
-68.7755987420266
 22
-32.19793997026321
 32
0.0
 13
-68.7755987420266
 23
-32.19793997026321
 33
0.0
  0
MTEXT
  5
136
330
130
100
AcDbEntity
  8
1
 62
     2
100
AcDbMText
 10
-70.7755987420266
 20
-53.418671512644
 30
0.0
 40
3.5
 41
0.0
 71
     7
 72
     1
  1
35.5
  7
CONVERTER_11
 11
0.0
 21
1.0
 31
0.0
 73
     1
 44
0.60024009603842
  0
ENDBLK
  5
138
330
130
100
AcDbEntity
  8
0
100
AcDbBlockEnd
  0
BLOCK
  5
142
330
13B
100
AcDbEntity
  8
0
100
AcDbBlockBegin
  2
*D4
 70
     1
 71
     0
 10
0.0
 20
0.0
 30
0.0
  3
*D4
  1

  0
LINE
  5
13C
330
13B
100
AcDbEntity
  8
1
  6
Continuous
 62
     2
100
AcDbLine
 10
-61.11320632733347
 20
-79.05532035087067
 30
0.0
 11
-21.11320632733296
 21
-79.05532035087067
 31
0.0
  0
LINE
  5
13D
330
13B
100
AcDbEntity
  8
1
  6
Continuous
 62
     2
100
AcDbLine
 10
-61.11320632733347
 20
-65.19793997026319
 30
0.0
 11
-61.11320632733347
 21
-81.05532035087067
 31
0.0
  0
LINE
  5
13E
330
13B
100
AcDbEntity
  8
1
  6
Continuous
 62
     2
100
AcDbLine
 10
-21.11320632733296
 20
-65.19793997026314
 30
0.0
 11
-21.11320632733296
 21
-81.05532035087067
 31
0.0
  0
SOLID
  5
13F
330
13B
100
AcDbEntity
  8
1
 62
     2
100
AcDbTrace
 10
-24.61320632733296
 20
-79.51610409242656
 30
0.0
 11
-24.61320632733296
 21
-78.59453660931479
 31
0.0
 12
-21.11320632733296
 22
-79.05532035087067
 32
0.0
 13
-21.11320632733296
 23
-79.05532035087067
 33
0.0
  0
SOLID
  5
140
330
13B
100
AcDbEntity
  8
1
 62
     2
100
AcDbTrace
 10
-57.61320632733347
 20
-78.59453660931479
 30
0.0
 11
-57.61320632733347
 21
-79.51610409242656
 31
0.0
 12
-61.11320632733347
 22
-79.05532035087067
 32
0.0
 13
-61.11320632733347
 23
-79.05532035087067
 33
0.0
  0
MTEXT
  5
141
330
13B
100
AcDbEntity
  8
1
 62
     2
100
AcDbMText
 10
-52.79599126374907
 20
-77.05534817917597
 30
0.0
 40
3.5
 41
0.0
 71
     7
 72
     1
  1
\C2;min.\C2;40
  7
CONVERTER_11
 11
0.9999999999970621
 21
2.424068405545307E-6
 31
0.0
 73
     1
 44
0.60024009603842
  0
ENDBLK
  5
143
330
13B
100
AcDbEntity
  8
0
100
AcDbBlockEnd
  0
BLOCK
  5
14D
330
146
100
AcDbEntity
  8
0
100
AcDbBlockBegin
  2
*D5
 70
     1
 71
     0
 10
0.0
 20
0.0
 30
0.0
  3
*D5
  1

  0
LINE
  5
147
330
146
100
AcDbEntity
  8
1
  6
Continuous
 62
     2
100
AcDbLine
 10
180.56712298079
 20
-72.12339990768865
 30
0.0
 11
180.56712298079
 21
82.87660009231135
 31
0.0
  0
LINE
  5
148
330
146
100
AcDbEntity
  8
1
  6
Continuous
 62
     2
100
AcDbLine
 10
141.1986003432113
 20
-72.12339990768865
 30
0.0
 11
182.56712298079
 21
-72.12339990768865
 31
0.0
  0
LINE
  5
149
330
146
100
AcDbEntity
  8
1
  6
Continuous
 62
     2
100
AcDbLine
 10
141.1986003432113
 20
82.87660009231135
 30
0.0
 11
182.56712298079
 21
82.87660009231135
 31
0.0
  0
SOLID
  5
14A
330
146
100
AcDbEntity
  8
1
 62
     2
100
AcDbTrace
 10
181.0279067223459
 20
79.37660009231135
 30
0.0
 11
180.1063392392341
 21
79.37660009231135
 31
0.0
 12
180.56712298079
 22
82.87660009231135
 32
0.0
 13
180.56712298079
 23
82.87660009231135
 33
0.0
  0
SOLID
  5
14B
330
146
100
AcDbEntity
  8
1
 62
     2
100
AcDbTrace
 10
180.1063392392341
 20
-68.62339990768865
 30
0.0
 11
181.0279067223459
 21
-68.62339990768865
 31
0.0
 12
180.56712298079
 22
-72.12339990768865
 32
0.0
 13
180.56712298079
 23
-72.12339990768865
 33
0.0
  0
MTEXT
  5
14C
330
146
100
AcDbEntity
  8
1
 62
     2
100
AcDbMText
 10
178.56712298079
 20
4.1530805743713
 30
0.0
 40
3.5
 41
0.0
 71
     7
 72
     1
  1
155
  7
CONVERTER_11
 11
0.0
 21
1.0
 31
0.0
 73
     1
 44
0.60024009603842
  0
ENDBLK
  5
14E
330
146
100
AcDbEntity
  8
0
100
AcDbBlockEnd
  0
BLOCK
  5
158
330
151
100
AcDbEntity
  8
0
100
AcDbBlockBegin
  2
*D6
 70
     1
 71
     0
 10
0.0
 20
0.0
 30
0.0
  3
*D6
  1

  0
LINE
  5
152
330
151
100
AcDbEntity
  8
1
  6
Continuous
 62
     2
100
AcDbLine
 10
172.981243299206
 20
-62.12339990768865
 30
0.0
 11
172.981243299206
 21
72.87660009231135
 31
0.0
  0
LINE
  5
153
330
151
100
AcDbEntity
  8
1
  6
Continuous
 62
     2
100
AcDbLine
 10
149.4486003432113
 20
-62.12339990768865
 30
0.0
 11
174.981243299206
 21
-62.12339990768865
 31
0.0
  0
LINE
  5
154
330
151
100
AcDbEntity
  8
1
  6
Continuous
 62
     2
100
AcDbLine
 10
149.4486003432113
 20
72.87660009231135
 30
0.0
 11
174.981243299206
 21
72.87660009231135
 31
0.0
  0
SOLID
  5
155
330
151
100
AcDbEntity
  8
1
 62
     2
100
AcDbTrace
 10
173.4420270407619
 20
69.37660009231135
 30
0.0
 11
172.5204595576501
 21
69.37660009231135
 31
0.0
 12
172.981243299206
 22
72.87660009231135
 32
0.0
 13
172.981243299206
 23
72.87660009231135
 33
0.0
  0
SOLID
  5
156
330
151
100
AcDbEntity
  8
1
 62
     2
100
AcDbTrace
 10
172.5204595576501
 20
-58.62339990768865
 30
0.0
 11
173.4420270407619
 21
-58.62339990768865
 31
0.0
 12
172.981243299206
 22
-62.12339990768865
 32
0.0
 13
172.981243299206
 23
-62.12339990768865
 33
0.0
  0
MTEXT
  5
157
330
151
100
AcDbEntity
  8
1
 62
     2
100
AcDbMText
 10
170.981243299206
 20
6.24098880907338
 30
0.0
 40
3.5
 41
0.0
 71
     7
 72
     1
  1
135
  7
CONVERTER_11
 11
0.0
 21
1.0
 31
0.0
 73
     1
 44
0.60024009603842
  0
ENDBLK
  5
159
330
151
100
AcDbEntity
  8
0
100
AcDbBlockEnd
  0
BLOCK
  5
163
330
15C
100
AcDbEntity
  8
0
100
AcDbBlockBegin
  2
*D7
 70
     1
 71
     0
 10
0.0
 20
0.0
 30
0.0
  3
*D7
  1

  0
LINE
  5
15D
330
15C
100
AcDbEntity
  8
1
  6
Continuous
 62
     2
100
AcDbLine
 10
165.934205758223
 20
-45.62339990768865
 30
0.0
 11
165.934205758223
 21
56.37660009231139
 31
0.0
  0
LINE
  5
15E
330
15C
100
AcDbEntity
  8
1
  6
Continuous
 62
     2
100
AcDbLine
 10
142.1986003432113
 20
-45.62339990768865
 30
0.0
 11
167.934205758223
 21
-45.62339990768865
 31
0.0
  0
LINE
  5
15F
330
15C
100
AcDbEntity
  8
1
  6
Continuous
 62
     2
100
AcDbLine
 10
142.1986003432113
 20
56.37660009231139
 30
0.0
 11
167.934205758223
 21
56.37660009231139
 31
0.0
  0
SOLID
  5
160
330
15C
100
AcDbEntity
  8
1
 62
     2
100
AcDbTrace
 10
166.3949894997789
 20
52.87660009231139
 30
0.0
 11
165.4734220166671
 21
52.87660009231139
 31
0.0
 12
165.934205758223
 22
56.37660009231139
 32
0.0
 13
165.934205758223
 23
56.37660009231139
 33
0.0
  0
SOLID
  5
161
330
15C
100
AcDbEntity
  8
1
 62
     2
100
AcDbTrace
 10
165.4734220166671
 20
-42.12339990768865
 30
0.0
 11
166.3949894997789
 21
-42.12339990768865
 31
0.0
 12
165.934205758223
 22
-45.62339990768865
 32
0.0
 13
165.934205758223
 23
-45.62339990768865
 33
0.0
  0
MTEXT
  5
162
330
15C
100
AcDbEntity
  8
1
 62
     2
100
AcDbMText
 10
163.934205758223
 20
-4.51844931111359
 30
0.0
 40
3.5
 41
0.0
 71
     7
 72
     1
  1
102
  7
CONVERTER_11
 11
0.0
 21
1.0
 31
0.0
 73
     1
 44
0.60024009603842
  0
ENDBLK
  5
164
330
15C
100
AcDbEntity
  8
0
100
AcDbBlockEnd
  0
BLOCK
  5
16E
330
167
100
AcDbEntity
  8
0
100
AcDbBlockBegin
  2
*D8
 70
     1
 71
     0
 10
0.0
 20
0.0
 30
0.0
  3
*D8
  1

  0
LINE
  5
168
330
167
100
AcDbEntity
  8
1
  6
Continuous
 62
     2
100
AcDbLine
 10
135.1986003432113
 20
92.7043589412298
 30
0.0
 11
147.1986003432113
 21
92.7043589412298
 31
0.0
  0
LINE
  5
169
330
167
100
AcDbEntity
  8
1
  6
Continuous
 62
     2
100
AcDbLine
 10
135.1986003432113
 20
65.12660009231135
 30
0.0
 11
135.1986003432113
 21
94.7043589412298
 31
0.0
  0
LINE
  5
16A
330
167
100
AcDbEntity
  8
1
  6
Continuous
 62
     2
100
AcDbLine
 10
147.1986003432113
 20
75.12660009231135
 30
0.0
 11
147.1986003432113
 21
94.7043589412298
 31
0.0
  0
SOLID
  5
16B
330
167
100
AcDbEntity
  8
1
 62
     2
100
AcDbTrace
 10
138.6986003432113
 20
93.16514268278569
 30
0.0
 11
138.6986003432113
 21
92.24357519967391
 31
0.0
 12
135.1986003432113
 22
92.7043589412298
 32
0.0
 13
135.1986003432113
 23
92.7043589412298
 33
0.0
  0
SOLID
  5
16C
330
167
100
AcDbEntity
  8
1
 62
     2
100
AcDbTrace
 10
143.6986003432113
 20
92.24357519967391
 30
0.0
 11
143.6986003432113
 21
93.16514268278569
 31
0.0
 12
147.1986003432113
 22
92.7043589412298
 32
0.0
 13
147.1986003432113
 23
92.7043589412298
 33
0.0
  0
MTEXT
  5
16D
330
167
100
AcDbEntity
  8
1
 62
     2
100
AcDbMText
 10
138.7361144918926
 20
94.7043589412298
 30
0.0
 40
3.5
 41
0.0
 71
     7
 72
     1
  1
12
  7
CONVERTER_11
 11
0.9999999999970621
 21
2.424068405545307E-6
 31
0.0
 73
     1
 44
0.60024009603842
  0
ENDBLK
  5
16F
330
167
100
AcDbEntity
  8
0
100
AcDbBlockEnd
  0
BLOCK
  5
17B
330
172
100
AcDbEntity
  8
0
100
AcDbBlockBegin
  2
*D9
 70
     1
 71
     0
 10
0.0
 20
0.0
 30
0.0
  3
*D9
  1

  0
LINE
  5
173
330
172
100
AcDbEntity
  8
1
  6
Continuous
 62
     2
100
AcDbLine
 10
9.7663647008797
 20
-73.6979399702632
 30
0.0
 11
9.7663647008797
 21
-66.6979399702632
 31
0.0
  0
LINE
  5
174
330
172
100
AcDbEntity
  8
1
  6
Continuous
 62
     2
100
AcDbLine
 10
9.7663647008797
 20
-66.6979399702632
 30
0.0
 11
9.7663647008797
 21
-62.69793997026342
 31
0.0
  0
LINE
  5
175
330
172
100
AcDbEntity
  8
1
  6
Continuous
 62
     2
100
AcDbLine
 10
9.7663647008797
 20
-62.69793997026342
 30
0.0
 11
9.7663647008797
 21
-55.69793997026342
 31
0.0
  0
LINE
  5
176
330
172
100
AcDbEntity
  8
1
  6
Continuous
 62
     2
100
AcDbLine
 10
27.38679367266684
 20
-66.6979399702632
 30
0.0
 11
7.7663647008797
 21
-66.6979399702632
 31
0.0
  0
LINE
  5
177
330
172
100
AcDbEntity
  8
1
  6
Continuous
 62
     2
100
AcDbLine
 10
18.38679367266665
 20
-62.69793997026342
 30
0.0
 11
7.7663647008797
 21
-62.69793997026342
 31
0.0
  0
SOLID
  5
178
330
172
100
AcDbEntity
  8
1
 62
     2
100
AcDbTrace
 10
10.22714844243558
 20
-70.1979399702632
 30
0.0
 11
9.30558095932381
 21
-70.1979399702632
 31
0.0
 12
9.7663647008797
 22
-66.6979399702632
 32
0.0
 13
9.7663647008797
 23
-66.6979399702632
 33
0.0
  0
SOLID
  5
179
330
172
100
AcDbEntity
  8
1
 62
     2
100
AcDbTrace
 10
9.30558095932381
 20
-59.19793997026342
 30
0.0
 11
10.22714844243558
 21
-59.19793997026342
 31
0.0
 12
9.7663647008797
 22
-62.69793997026342
 32
0.0
 13
9.7663647008797
 23
-62.69793997026342
 33
0.0
  0
MTEXT
  5
17A
330
172
100
AcDbEntity
  8
1
 62
     2
100
AcDbMText
 10
7.7663647008797
 20
-73.008103989833
 30
0.0
 40
3.5
 41
0.0
 71
     7
 72
     1
  1
4
  7
CONVERTER_11
 11
0.0
 21
1.0
 31
0.0
 73
     1
 44
0.60024009603842
  0
ENDBLK
  5
17C
330
172
100
AcDbEntity
  8
0
100
AcDbBlockEnd
  0
BLOCK
  5
188
330
17F
100
AcDbEntity
  8
0
100
AcDbBlockBegin
  2
*D10
 70
     1
 71
     0
 10
0.0
 20
0.0
 30
0.0
  3
*D10
  1

  0
LINE
  5
180
330
17F
100
AcDbEntity
  8
1
  6
Continuous
 62
     2
100
AcDbLine
 10
48.9119338369392
 20
-103.785670014645
 30
0.0
 11
41.9119338369392
 21
-103.785670014645
 31
0.0
  0
LINE
  5
181
330
17F
100
AcDbEntity
  8
1
  6
Continuous
 62
     2
100
AcDbLine
 10
54.9119338369392
 20
-103.785670014645
 30
0.0
 11
48.9119338369392
 21
-103.785670014645
 31
0.0
  0
LINE
  5
182
330
17F
100
AcDbEntity
  8
1
  6
Continuous
 62
     2
100
AcDbLine
 10
61.9119338369392
 20
-103.785670014645
 30
0.0
 11
54.9119338369392
 21
-103.785670014645
 31
0.0
  0
LINE
  5
183
330
17F
100
AcDbEntity
  8
1
  6
Continuous
 62
     2
100
AcDbLine
 10
48.9119338369392
 20
-94.62339990768866
 30
0.0
 11
48.9119338369392
 21
-105.785670014645
 31
0.0
  0
LINE
  5
184
330
17F
100
AcDbEntity
  8
1
  6
Continuous
 62
     2
100
AcDbLine
 10
54.9119338369392
 20
-72.12339990768865
 30
0.0
 11
54.9119338369392
 21
-105.785670014645
 31
0.0
  0
SOLID
  5
185
330
17F
100
AcDbEntity
  8
1
 62
     2
100
AcDbTrace
 10
58.4119338369392
 20
-103.3248862730891
 30
0.0
 11
58.4119338369392
 21
-104.2464537562009
 31
0.0
 12
54.9119338369392
 22
-103.785670014645
 32
0.0
 13
54.9119338369392
 23
-103.785670014645
 33
0.0
  0
SOLID
  5
186
330
17F
100
AcDbEntity
  8
1
 62
     2
100
AcDbTrace
 10
45.4119338369392
 20
-104.2464537562009
 30
0.0
 11
45.4119338369392
 21
-103.3248862730891
 31
0.0
 12
48.9119338369392
 22
-103.785670014645
 32
0.0
 13
48.9119338369392
 23
-103.785670014645
 33
0.0
  0
MTEXT
  5
187
330
17F
100
AcDbEntity
  8
1
 62
     2
100
AcDbMText
 10
51.15084083533331
 20
-101.785670014645
 30
0.0
 40
3.5
 41
0.0
 71
     7
 72
     1
  1
6
  7
CONVERTER_11
 11
0.9999999999970621
 21
2.424068405545307E-6
 31
0.0
 73
     1
 44
0.60024009603842
  0
ENDBLK
  5
189
330
17F
100
AcDbEntity
  8
0
100
AcDbBlockEnd
  0
BLOCK
  5
193
330
18C
100
AcDbEntity
  8
0
100
AcDbBlockBegin
  2
*D11
 70
     1
 71
     0
 10
0.0
 20
0.0
 30
0.0
  3
*D11
  1

  0
LINE
  5
18D
330
18C
100
AcDbEntity
  8
1
  6
Continuous
 62
     2
100
AcDbLine
 10
48.91193383693926
 20
-113.493763582592
 30
0.0
 11
86.41193383693926
 21
-113.493763582592
 31
0.0
  0
LINE
  5
18E
330
18C
100
AcDbEntity
  8
1
  6
Continuous
 62
     2
100
AcDbLine
 10
48.91193383693926
 20
-72.12339990768865
 30
0.0
 11
48.91193383693926
 21
-115.493763582592
 31
0.0
  0
LINE
  5
18F
330
18C
100
AcDbEntity
  8
1
  6
Continuous
 62
     2
100
AcDbLine
 10
86.41193383693926
 20
-45.62339990768864
 30
0.0
 11
86.41193383693926
 21
-115.493763582592
 31
0.0
  0
SOLID
  5
190
330
18C
100
AcDbEntity
  8
1
 62
     2
100
AcDbTrace
 10
52.41193383693926
 20
-113.0329798410361
 30
0.0
 11
52.41193383693926
 21
-113.9545473241479
 31
0.0
 12
48.91193383693926
 22
-113.493763582592
 32
0.0
 13
48.91193383693926
 23
-113.493763582592
 33
0.0
  0
SOLID
  5
191
330
18C
100
AcDbEntity
  8
1
 62
     2
100
AcDbTrace
 10
82.91193383693926
 20
-113.9545473241479
 30
0.0
 11
82.91193383693926
 21
-113.0329798410361
 31
0.0
 12
86.41193383693926
 22
-113.493763582592
 32
0.0
 13
86.41193383693926
 23
-113.493763582592
 33
0.0
  0
MTEXT
  5
192
330
18C
100
AcDbEntity
  8
1
 62
     2
100
AcDbMText
 10
61.4470295492997
 20
-111.493763582592
 30
0.0
 40
3.5
 41
0.0
 71
     7
 72
     1
  1
37.5
  7
CONVERTER_11
 11
0.9999999999970621
 21
2.424068405545307E-6
 31
0.0
 73
     1
 44
0.60024009603842
  0
ENDBLK
  5
194
330
18C
100
AcDbEntity
  8
0
100
AcDbBlockEnd
  0
BLOCK
  5
19E
330
197
100
AcDbEntity
  8
0
100
AcDbBlockBegin
  2
*D12
 70
     1
 71
     0
 10
0.0
 20
0.0
 30
0.0
  3
*D12
  1

  0
LINE
  5
198
330
197
100
AcDbEntity
  8
1
  6
Continuous
 62
     2
100
AcDbLine
 10
124.8907394958871
 20
-52.12339990768865
 30
0.0
 11
124.8907394958871
 21
62.87660009231135
 31
0.0
  0
LINE
  5
199
330
197
100
AcDbEntity
  8
1
  6
Continuous
 62
     2
100
AcDbLine
 10
132.9486003432113
 20
-52.12339990768865
 30
0.0
 11
122.8907394958871
 21
-52.12339990768865
 31
0.0
  0
LINE
  5
19A
330
197
100
AcDbEntity
  8
1
  6
Continuous
 62
     2
100
AcDbLine
 10
132.9486003432113
 20
62.87660009231135
 30
0.0
 11
122.8907394958871
 21
62.87660009231135
 31
0.0
  0
SOLID
  5
19B
330
197
100
AcDbEntity
  8
1
 62
     2
100
AcDbTrace
 10
124.4299557543312
 20
-48.62339990768865
 30
0.0
 11
125.351523237443
 21
-48.62339990768865
 31
0.0
 12
124.8907394958871
 22
-52.12339990768865
 32
0.0
 13
124.8907394958871
 23
-52.12339990768865
 33
0.0
  0
SOLID
  5
19C
330
197
100
AcDbEntity
  8
1
 62
     2
100
AcDbTrace
 10
125.351523237443
 20
59.37660009231135
 30
0.0
 11
124.4299557543312
 21
59.37660009231135
 31
0.0
 12
124.8907394958871
 22
62.87660009231135
 32
0.0
 13
124.8907394958871
 23
62.87660009231135
 33
0.0
  0
MTEXT
  5
19D
330
197
100
AcDbEntity
  8
1
 62
     2
100
AcDbMText
 10
122.8907394958871
 20
9.9027661725658
 30
0.0
 40
3.5
 41
0.0
 71
     7
 72
     1
  1
115
  7
CONVERTER_11
 11
0.0
 21
1.0
 31
0.0
 73
     1
 44
0.60024009603842
  0
ENDBLK
  5
19F
330
197
100
AcDbEntity
  8
0
100
AcDbBlockEnd
  0
BLOCK
  5
1A9
330
1A2
100
AcDbEntity
  8
0
100
AcDbBlockBegin
  2
*D13
 70
     1
 71
     0
 10
0.0
 20
0.0
 30
0.0
  3
*D13
  1

  0
LINE
  5
1A3
330
1A2
100
AcDbEntity
  8
1
  6
Continuous
 62
     2
100
AcDbLine
 10
-171.133523425262
 20
-72.12339990768865
 30
0.0
 11
-171.133523425262
 21
82.87660009231134
 31
0.0
  0
LINE
  5
1A4
330
1A2
100
AcDbEntity
  8
1
  6
Continuous
 62
     2
100
AcDbLine
 10
-141.2592983114338
 20
82.87660009231134
 30
0.0
 11
-173.133523425262
 21
82.87660009231134
 31
0.0
  0
LINE
  5
1A5
330
1A2
100
AcDbEntity
  8
1
  6
Continuous
 62
     2
100
AcDbLine
 10
-141.2592983114338
 20
-72.12339990768865
 30
0.0
 11
-173.133523425262
 21
-72.12339990768865
 31
0.0
  0
SOLID
  5
1A6
330
1A2
100
AcDbEntity
  8
1
 62
     2
100
AcDbTrace
 10
-171.5943071668179
 20
-68.62339990768865
 30
0.0
 11
-170.6727396837061
 21
-68.62339990768865
 31
0.0
 12
-171.133523425262
 22
-72.12339990768865
 32
0.0
 13
-171.133523425262
 23
-72.12339990768865
 33
0.0
  0
SOLID
  5
1A7
330
1A2
100
AcDbEntity
  8
1
 62
     2
100
AcDbTrace
 10
-170.6727396837061
 20
79.37660009231134
 30
0.0
 11
-171.5943071668179
 21
79.37660009231134
 31
0.0
 12
-171.133523425262
 22
82.87660009231134
 32
0.0
 13
-171.133523425262
 23
82.87660009231134
 33
0.0
  0
MTEXT
  5
1A8
330
1A2
100
AcDbEntity
  8
1
 62
     2
100
AcDbMText
 10
-173.133523425262
 20
1.55661300630551
 30
0.0
 40
3.5
 41
0.0
 71
     7
 72
     1
  1
155
  7
CONVERTER_11
 11
0.0
 21
1.0
 31
0.0
 73
     1
 44
0.60024009603842
  0
ENDBLK
  5
1AA
330
1A2
100
AcDbEntity
  8
0
100
AcDbBlockEnd
  0
BLOCK
  5
1B6
330
1AD
100
AcDbEntity
  8
0
100
AcDbBlockBegin
  2
*D14
 70
     1
 71
     0
 10
0.0
 20
0.0
 30
0.0
  3
*D14
  1

  0
LINE
  5
1AE
330
1AD
100
AcDbEntity
  8
1
  6
Continuous
 62
     2
100
AcDbLine
 10
165.1986003432113
 20
-103.785670014645
 30
0.0
 11
158.1986003432113
 21
-103.785670014645
 31
0.0
  0
LINE
  5
1AF
330
1AD
100
AcDbEntity
  8
1
  6
Continuous
 62
     2
100
AcDbLine
 10
158.1986003432113
 20
-103.785670014645
 30
0.0
 11
154.1986003432113
 21
-103.785670014645
 31
0.0
  0
LINE
  5
1B0
330
1AD
100
AcDbEntity
  8
1
  6
Continuous
 62
     2
100
AcDbLine
 10
154.1986003432113
 20
-103.785670014645
 30
0.0
 11
147.1986003432113
 21
-103.785670014645
 31
0.0
  0
LINE
  5
1B1
330
1AD
100
AcDbEntity
  8
1
  6
Continuous
 62
     2
100
AcDbLine
 10
154.1986003432113
 20
-59.12339990768864
 30
0.0
 11
154.1986003432113
 21
-105.785670014645
 31
0.0
  0
LINE
  5
1B2
330
1AD
100
AcDbEntity
  8
1
  6
Continuous
 62
     2
100
AcDbLine
 10
158.1986003432113
 20
-94.62339990768866
 30
0.0
 11
158.1986003432113
 21
-105.785670014645
 31
0.0
  0
SOLID
  5
1B3
330
1AD
100
AcDbEntity
  8
1
 62
     2
100
AcDbTrace
 10
161.6986003432113
 20
-103.3248862730891
 30
0.0
 11
161.6986003432113
 21
-104.2464537562009
 31
0.0
 12
158.1986003432113
 22
-103.785670014645
 32
0.0
 13
158.1986003432113
 23
-103.785670014645
 33
0.0
  0
SOLID
  5
1B4
330
1AD
100
AcDbEntity
  8
1
 62
     2
100
AcDbTrace
 10
150.6986003432113
 20
-104.2464537562009
 30
0.0
 11
150.6986003432113
 21
-103.3248862730891
 31
0.0
 12
154.1986003432113
 22
-103.785670014645
 32
0.0
 13
154.1986003432113
 23
-103.785670014645
 33
0.0
  0
MTEXT
  5
1B5
330
1AD
100
AcDbEntity
  8
1
 62
     2
100
AcDbMText
 10
160.153569999456
 20
-101.785670014645
 30
0.0
 40
3.5
 41
0.0
 71
     7
 72
     1
  1
4
  7
CONVERTER_11
 11
0.9999999999970621
 21
2.424068405545307E-6
 31
0.0
 73
     1
 44
0.60024009603842
  0
ENDBLK
  5
1B7
330
1AD
100
AcDbEntity
  8
0
100
AcDbBlockEnd
  0
BLOCK
  5
1C1
330
1BA
100
AcDbEntity
  8
0
100
AcDbBlockBegin
  2
*D15
 70
     1
 71
     0
 10
0.0
 20
0.0
 30
0.0
  3
*D15
  1

  0
LINE
  5
1BB
330
1BA
100
AcDbEntity
  8
1
  6
Continuous
 62
     2
100
AcDbLine
 10
154.1986003432113
 20
-103.785670014645
 30
0.0
 11
128.1986003432113
 21
-103.785670014645
 31
0.0
  0
LINE
  5
1BC
330
1BA
100
AcDbEntity
  8
1
  6
Continuous
 62
     2
100
AcDbLine
 10
128.1986003432113
 20
-59.12339990768864
 30
0.0
 11
128.1986003432113
 21
-105.785670014645
 31
0.0
  0
LINE
  5
1BD
330
1BA
100
AcDbEntity
  8
1
  6
Continuous
 62
     2
100
AcDbLine
 10
154.1986003432113
 20
-59.12339990768864
 30
0.0
 11
154.1986003432113
 21
-105.785670014645
 31
0.0
  0
SOLID
  5
1BE
330
1BA
100
AcDbEntity
  8
1
 62
     2
100
AcDbTrace
 10
150.6986003432113
 20
-104.2464537562009
 30
0.0
 11
150.6986003432113
 21
-103.3248862730891
 31
0.0
 12
154.1986003432113
 22
-103.785670014645
 32
0.0
 13
154.1986003432113
 23
-103.785670014645
 33
0.0
  0
SOLID
  5
1BF
330
1BA
100
AcDbEntity
  8
1
 62
     2
100
AcDbTrace
 10
131.6986003432113
 20
-103.3248862730891
 30
0.0
 11
131.6986003432113
 21
-104.2464537562009
 31
0.0
 12
128.1986003432113
 22
-103.785670014645
 32
0.0
 13
128.1986003432113
 23
-103.785670014645
 33
0.0
  0
MTEXT
  5
1C0
330
1BA
100
AcDbEntity
  8
1
 62
     2
100
AcDbMText
 10
138.5736003432113
 20
-101.785670014645
 30
0.0
 40
3.5
 41
0.0
 71
     7
 72
     1
  1
26
  7
CONVERTER_11
 11
0.9999999999970621
 21
2.424068405545307E-6
 31
0.0
 73
     1
 44
0.60024009603842
  0
ENDBLK
  5
1C2
330
1BA
100
AcDbEntity
  8
0
100
AcDbBlockEnd
  0
BLOCK
  5
1CC
330
1C5
100
AcDbEntity
  8
0
100
AcDbBlockBegin
  2
*D16
 70
     1
 71
     0
 10
0.0
 20
0.0
 30
0.0
  3
*D16
  1

  0
LINE
  5
1C6
330
1C5
100
AcDbEntity
  8
1
  6
Continuous
 62
     2
100
AcDbLine
 10
-154.3592983114338
 20
-108.487423372669
 30
0.0
 11
-128.1592983114338
 21
-108.487423372669
 31
0.0
  0
LINE
  5
1C7
330
1C5
100
AcDbEntity
  8
1
  6
Continuous
 62
     2
100
AcDbLine
 10
-128.1592983114338
 20
-59.02339990768866
 30
0.0
 11
-128.1592983114338
 21
-110.487423372669
 31
0.0
  0
LINE
  5
1C8
330
1C5
100
AcDbEntity
  8
1
  6
Continuous
 62
     2
100
AcDbLine
 10
-154.3592983114338
 20
-59.02339990768866
 30
0.0
 11
-154.3592983114338
 21
-110.487423372669
 31
0.0
  0
SOLID
  5
1C9
330
1C5
100
AcDbEntity
  8
1
 62
     2
100
AcDbTrace
 10
-150.8592983114338
 20
-108.0266396311131
 30
0.0
 11
-150.8592983114338
 21
-108.9482071142249
 31
0.0
 12
-154.3592983114338
 22
-108.487423372669
 32
0.0
 13
-154.3592983114338
 23
-108.487423372669
 33
0.0
  0
SOLID
  5
1CA
330
1C5
100
AcDbEntity
  8
1
 62
     2
100
AcDbTrace
 10
-131.6592983114338
 20
-108.9482071142249
 30
0.0
 11
-131.6592983114338
 21
-108.0266396311131
 31
0.0
 12
-128.1592983114338
 22
-108.487423372669
 32
0.0
 13
-128.1592983114338
 23
-108.487423372669
 33
0.0
  0
MTEXT
  5
1CB
330
1C5
100
AcDbEntity
  8
1
 62
     2
100
AcDbMText
 10
-146.0280483114338
 20
-106.487423372669
 30
0.0
 40
3.5
 41
0.0
 71
     7
 72
     1
  1
26.2
  7
CONVERTER_11
 11
0.9999999999970621
 21
2.424068405545307E-6
 31
0.0
 73
     1
 44
0.60024009603842
  0
ENDBLK
  5
1CD
330
1C5
100
AcDbEntity
  8
0
100
AcDbBlockEnd
  0
BLOCK
  5
1D4
330
1D0
100
AcDbEntity
  8
0
100
AcDbBlockBegin
  2
*D17
 70
     1
 71
     0
 10
0.0
 20
0.0
 30
0.0
  3
*D17
  1

  0
LINE
  5
1D1
330
1D0
100
AcDbEntity
  8
1
  6
Continuous
 62
     2
100
AcDbLine
 10
132.6285830252591
 20
38.94310545703624
 30
0.0
 11
152.6339590593193
 21
50.30140291317792
 31
0.0
  0
SOLID
  5
1D2
330
1D0
100
AcDbEntity
  8
1
 62
     2
100
AcDbTrace
 10
149.8178171681028
 20
48.17263178761799
 30
0.0
 11
149.3628083661395
 21
48.974039059899
 31
0.0
 12
152.6339590593193
 22
50.30140291317792
 32
0.0
 13
152.6339590593193
 23
50.30140291317792
 33
0.0
  0
MTEXT
  5
1D3
330
1D0
100
AcDbEntity
  8
1
 62
     2
100
AcDbMText
 10
132.5298160261372
 20
41.8108243632775
 30
0.0
 40
3.5
 41
0.0
 71
     7
 72
     1
  1
\C2;R\C2;12
  7
CONVERTER_11
 11
0.869613226342336
 21
0.4937335684055452
 31
0.0
 73
     1
 44
0.60024009603842
  0
ENDBLK
  5
1D5
330
1D0
100
AcDbEntity
  8
0
100
AcDbBlockEnd
  0
BLOCK
  5
1DB
330
1D7
100
AcDbEntity
  8
0
100
AcDbBlockBegin
  2
*D18
 70
     1
 71
     0
 10
0.0
 20
0.0
 30
0.0
  3
*D18
  1

  0
LINE
  5
1D8
330
1D7
100
AcDbEntity
  8
1
  6
Continuous
 62
     2
100
AcDbLine
 10
-133.4122673579646
 20
80.26631435034984
 30
0.0
 11
-123.9479076534132
 21
92.91803313733217
 31
0.0
  0
SOLID
  5
1D9
330
1D7
100
AcDbEntity
  8
1
 62
     2
100
AcDbTrace
 10
-131.684701056173
 20
83.3449238301956
 30
0.0
 11
-130.9467636846201
 21
82.79289569541021
 31
0.0
 12
-133.4122673579646
 22
80.26631435034984
 32
0.0
 13
-133.4122673579646
 23
80.26631435034984
 33
0.0
  0
MTEXT
  5
1DA
330
1D7
100
AcDbEntity
  8
1
 62
     2
100
AcDbMText
 10
-131.7236862846316
 20
85.86240964055403
 30
0.0
 40
3.5
 41
0.0
 71
     7
 72
     1
  1
\C2;R\C2;13.1
  7
CONVERTER_11
 11
0.5990099964480301
 21
0.8007415464151532
 31
0.0
 73
     1
 44
0.60024009603842
  0
ENDBLK
  5
1DC
330
1D7
100
AcDbEntity
  8
0
100
AcDbBlockEnd
  0
BLOCK
  5
1E3
330
1DE
100
AcDbEntity
  8
0
100
AcDbBlockBegin
  2
*D19
 70
     1
 71
     0
 10
0.0
 20
0.0
 30
0.0
  3
*D19
  1

  0
LINE
  5
1DF
330
1DE
100
AcDbEntity
  8
1
  6
Continuous
 62
     2
100
AcDbLine
 10
151.2778058325414
 20
-45.90168648902775
 30
0.0
 11
99.0662677167913
 21
-108.2099444935171
 31
0.0
  0
SOLID
  5
1E0
330
1DE
100
AcDbEntity
  8
1
 62
     2
100
AcDbTrace
 10
130.5965519660642
 20
-71.29972893656301
 30
0.0
 11
129.8901924786636
 21
-70.70783122539315
 31
0.0
 12
132.4913269593295
 22
-68.32111359023531
 32
0.0
 13
132.4913269593295
 23
-68.32111359023531
 33
0.0
  0
SOLID
  5
1E1
330
1DE
100
AcDbEntity
  8
1
 62
     2
100
AcDbTrace
 10
149.8006487203584
 20
-46.94707087881423
 30
0.0
 11
150.507008207759
 21
-47.53896858998409
 31
0.0
 12
147.9058737270931
 22
-49.92568622514194
 32
0.0
 13
147.9058737270931
 23
-49.92568622514194
 33
0.0
  0
MTEXT
  5
1E2
330
1DE
100
AcDbEntity
  8
1
 62
     2
100
AcDbMText
 10
98.34257914167445
 20
-105.9596389928694
 30
0.0
 40
3.5
 41
0.0
 71
     7
 72
     1
  1
\C2;Fräserø\C2;24
  7
CONVERTER_11
 11
0.6422727819901526
 21
0.7664761402122248
 31
0.0
 73
     1
 44
0.60024009603842
  0
ENDBLK
  5
1E4
330
1DE
100
AcDbEntity
  8
0
100
AcDbBlockEnd
  0
ENDSEC
  0
SECTION
  2
ENTITIES
  0
LINE
  5
32
330
1F
100
AcDbEntity
  8
1
  6
Continuous
 62
     2
100
AcDbLine
 10
-72.10106980548292
 20
20.40321183698165
 30
0.0
 11
-19.65228005397011
 21
20.40321183698165
 31
0.0
  0
LINE
  5
33
330
1F
100
AcDbEntity
  8
1
  6
Continuous
 62
     2
100
AcDbLine
 10
-72.10106980548292
 20
20.40321183698165
 30
0.0
 11
-47.46212858301152
 21
-40.9586232303909
 31
0.0
  0
LINE
  5
34
330
1F
100
AcDbEntity
  8
1
  6
Continuous
 62
     7
100
AcDbLine
 10
-148.8592983114338
 20
80.44665163857859
 30
0.0
 11
-148.8592983114338
 21
-69.69345145395592
 31
0.0
  0
LINE
  5
35
330
1F
100
AcDbEntity
  8
1
  6
DASHED
 62
     2
100
AcDbLine
 10
-148.8592983114338
 20
-69.69345145395592
 30
0.0
 11
-148.8592983114338
 21
-94.62339990768861
 31
0.0
  0
LINE
  5
36
330
1F
100
AcDbEntity
  8
1
  6
DASHED
 62
     2
100
AcDbLine
 10
-148.8592983114338
 20
105.3766000923114
 30
0.0
 11
-148.8592983114338
 21
80.44665163857859
 31
0.0
  0
LINE
  5
37
330
1F
100
AcDbEntity
  8
1
  6
DOT_CENTER
 62
     2
100
AcDbLine
 10
-157.8592983114338
 20
105.3766000923114
 30
0.0
 11
-87.18777610874281
 21
105.3766000923114
 31
0.0
  0
LINE
  5
38
330
1F
100
AcDbEntity
  8
1
  6
DOT_CENTER
 62
     2
100
AcDbLine
 10
-90.5978423128906
 20
-94.62339990768861
 30
0.0
 11
-90.5978423128906
 21
-98.53789930058731
 31
0.0
  0
LINE
  5
39
330
1F
100
AcDbEntity
  8
1
  6
DOT_CENTER
 62
     2
100
AcDbLine
 10
-90.5978423128906
 20
-94.62339990768861
 30
0.0
 11
-86.62794954102174
 21
-94.62339990768861
 31
0.0
  0
LINE
  5
3A
330
1F
100
AcDbEntity
  8
1
  6
DOT_CENTER
 62
     2
100
AcDbLine
 10
-90.5978423128906
 20
105.3766000923114
 30
0.0
 11
-90.5978423128906
 21
-94.62339990768861
 31
0.0
  0
LINE
  5
3B
330
1F
100
AcDbEntity
  8
1
  6
DOT_CENTER
 62
     2
100
AcDbLine
 10
-98.3592983114338
 20
-94.62339990768861
 30
0.0
 11
-90.5978423128906
 21
-94.62339990768861
 31
0.0
  0
LINE
  5
3C
330
1F
100
AcDbEntity
  8
1
  6
DASHED
 62
     2
100
AcDbLine
 10
-98.3592983114338
 20
105.3766000923114
 30
0.0
 11
-98.3592983114338
 21
-94.62339990768861
 31
0.0
  0
LINE
  5
3D
330
1F
100
AcDbEntity
  8
1
  6
DOT_CENTER
 62
     2
100
AcDbLine
 10
-99.8592983114338
 20
-94.62339990768861
 30
0.0
 11
-98.3592983114338
 21
-94.62339990768861
 31
0.0
  0
LINE
  5
3E
330
1F
100
AcDbEntity
  8
1
  6
DASHED
 62
     2
100
AcDbLine
 10
-99.8592983114338
 20
105.3766000923114
 30
0.0
 11
-99.8592983114338
 21
-94.62339990768861
 31
0.0
  0
LINE
  5
3F
330
1F
100
AcDbEntity
  8
1
  6
DOT_CENTER
 62
     2
100
AcDbLine
 10
-111.8592983114338
 20
-94.62339990768861
 30
0.0
 11
-99.8592983114338
 21
-94.62339990768861
 31
0.0
  0
LINE
  5
40
330
1F
100
AcDbEntity
  8
1
  6
DASHED
 62
     2
100
AcDbLine
 10
-111.8592983114338
 20
105.3766000923114
 30
0.0
 11
-111.8592983114338
 21
-94.62339990768861
 31
0.0
  0
LINE
  5
41
330
1F
100
AcDbEntity
  8
1
  6
DOT_CENTER
 62
     2
100
AcDbLine
 10
-157.8592983114338
 20
-94.62339990768861
 30
0.0
 11
-113.3592983114338
 21
-94.62339990768861
 31
0.0
  0
LINE
  5
42
330
1F
100
AcDbEntity
  8
1
  6
DASHED
 62
     2
100
AcDbLine
 10
-157.8592983114338
 20
105.3766000923114
 30
0.0
 11
-157.8592983114338
 21
-94.62339990768861
 31
0.0
  0
LINE
  5
43
330
1F
100
AcDbEntity
  8
1
  6
DOT_CENTER
 62
     2
100
AcDbLine
 10
-113.3592983114338
 20
-94.62339990768861
 30
0.0
 11
-111.8592983114338
 21
-94.62339990768861
 31
0.0
  0
LINE
  5
44
330
1F
100
AcDbEntity
  8
1
  6
Continuous
 62
     7
100
AcDbLine
 10
-113.3592983114338
 20
105.3766000923114
 30
0.0
 11
-113.3592983114338
 21
-94.62339990768861
 31
0.0
  0
LINE
  5
45
330
1F
100
AcDbEntity
  8
1
  6
DOT_CENTER
 62
     2
100
AcDbLine
 10
-159.3592983114338
 20
-94.62339990768861
 30
0.0
 11
-157.8592983114338
 21
-94.62339990768861
 31
0.0
  0
LINE
  5
46
330
1F
100
AcDbEntity
  8
1
  6
DOT_CENTER
 62
     2
100
AcDbLine
 10
-159.3592983114338
 20
105.3766000923114
 30
0.0
 11
-157.8592983114338
 21
105.3766000923114
 31
0.0
  0
LINE
  5
47
330
1F
100
AcDbEntity
  8
1
  6
Continuous
 62
     7
100
AcDbLine
 10
-159.3592983114338
 20
105.3766000923114
 30
0.0
 11
-159.3592983114338
 21
-94.62339990768861
 31
0.0
  0
LINE
  5
48
330
1F
100
AcDbEntity
  8
1
  6
DOT_CENTER
 62
     2
100
AcDbLine
 10
-162.9358319555978
 20
-94.62339990768861
 30
0.0
 11
-159.3592983114338
 21
-94.62339990768861
 31
0.0
  0
LINE
  5
49
330
1F
100
AcDbEntity
  8
1
  6
DOT_CENTER
 62
     2
100
AcDbLine
 10
-160.4358319555978
 20
5.37660009231134
 30
0.0
 11
-86.62794954102174
 21
5.37660009231134
 31
0.0
  0
LINE
  5
4A
330
1F
100
AcDbEntity
  8
1
  6
DOT_CENTER
 62
     2
100
AcDbLine
 10
-162.9358319555978
 20
105.3766000923114
 30
0.0
 11
-159.3592983114338
 21
105.3766000923114
 31
0.0
  0
LINE
  5
4B
330
1F
100
AcDbEntity
  8
1
  6
Continuous
 62
     7
100
AcDbLine
 10
-128.1592983114338
 20
69.77660009231134
 30
0.0
 11
-128.1592983114338
 21
-59.02339990768866
 31
0.0
  0
LINE
  5
4C
330
1F
100
AcDbEntity
  8
1
  6
Continuous
 62
     7
100
AcDbLine
 10
-154.3592983114338
 20
69.77660009231134
 30
0.0
 11
-154.3592983114338
 21
-59.02339990768866
 31
0.0
  0
LINE
  5
4D
330
1F
100
AcDbEntity
  8
1
  6
DOT_CENTER
 62
     2
100
AcDbLine
 10
-163.1000806359427
 20
5.37660009231135
 30
0.0
 11
-94.8383329234636
 21
5.37660009231135
 31
0.0
  0
LINE
  5
4E
330
1F
100
AcDbEntity
  8
1
  6
DOT_CENTER
 62
     2
100
AcDbLine
 10
-26.93110542758387
 20
-49.69793997026321
 30
0.0
 11
-19.63611702236497
 21
-49.69793997026321
 31
0.0
  0
LINE
  5
4F
330
1F
100
AcDbEntity
  8
1
  6
Continuous
 62
     7
100
AcDbLine
 10
-22.61320632733299
 20
-36.69793997026321
 30
0.0
 11
-22.61320632733299
 21
-10.19793997026323
 31
0.0
  0
LINE
  5
50
330
1F
100
AcDbEntity
  8
1
  6
Continuous
 62
     7
100
AcDbLine
 10
-21.11320632733299
 20
-62.69793997026315
 30
0.0
 11
-21.11320632733299
 21
-65.19793997026315
 31
0.0
  0
LINE
  5
51
330
1F
100
AcDbEntity
  8
1
  6
Continuous
 62
     7
100
AcDbLine
 10
-22.61320632733299
 20
-62.69793997026315
 30
0.0
 11
-22.61320632733299
 21
-36.69793997026321
 31
0.0
  0
LINE
  5
52
330
1F
100
AcDbEntity
  8
1
  6
Continuous
 62
     7
100
AcDbLine
 10
-21.1132063273331
 20
-36.69793997026321
 30
0.0
 11
-21.11320632733299
 21
-62.69793997026315
 31
0.0
  0
LINE
  5
53
330
1F
100
AcDbEntity
  8
1
  6
Continuous
 62
     7
100
AcDbLine
 10
-7.61320632733299
 20
-21.19793997026324
 30
0.0
 11
-7.61320632733299
 21
-1.10523713256271
 31
0.0
  0
LINE
  5
54
330
1F
100
AcDbEntity
  8
1
  6
Continuous
 62
     7
100
AcDbLine
 10
-6.11320632733299
 20
-21.69793997026324
 30
0.0
 11
-6.11320632733299
 21
-1.10523713256271
 31
0.0
  0
LINE
  5
55
330
1F
100
AcDbEntity
  8
1
  6
Continuous
 62
     7
100
AcDbLine
 10
-10.12406967947067
 20
-23.69793997026325
 30
0.0
 11
-8.11320632733299
 21
-23.69793997026325
 31
0.0
  0
LINE
  5
56
330
1F
100
AcDbEntity
  8
1
  6
Continuous
 62
     7
100
AcDbLine
 10
-9.47245699305
 20
-22.19793997026324
 30
0.0
 11
-8.61320632733299
 21
-22.19793997026324
 31
0.0
  0
LINE
  5
57
330
1F
100
AcDbEntity
  8
1
  6
Continuous
 62
     7
100
AcDbLine
 10
-7.66431758789929
 20
-10.58616853791705
 30
0.0
 11
-10.43838281933915
 21
-20.93912092516069
 31
0.0
  0
LINE
  5
58
330
1F
100
AcDbEntity
  8
1
  6
Continuous
 62
     7
100
AcDbLine
 10
-21.11320632733299
 20
-8.69793997026322
 30
0.0
 11
-9.11320632733299
 21
-8.69793997026322
 31
0.0
  0
LINE
  5
59
330
1F
100
AcDbEntity
  8
1
  6
Continuous
 62
     7
100
AcDbLine
 10
-9.28185610060899
 20
-10.82734949281451
 30
0.0
 11
-10.12510496698928
 21
-13.9743971055708
 31
0.0
  0
LINE
  5
5A
330
1F
100
AcDbEntity
  8
1
  6
Continuous
 62
     7
100
AcDbLine
 10
-20.61320632733299
 20
-10.19793997026324
 30
0.0
 11
-18.11320632733299
 21
-10.19793997026324
 31
0.0
  0
LINE
  5
5B
330
1F
100
AcDbEntity
  8
1
  6
Continuous
 62
     7
100
AcDbLine
 10
-21.11320632733299
 20
-24.69793997026319
 30
0.0
 11
-21.11320632733299
 21
-13.19793997026324
 31
0.0
  0
LINE
  5
5C
330
1F
100
AcDbEntity
  8
1
  6
Continuous
 62
     7
100
AcDbLine
 10
-19.11320632733299
 20
-26.6979399702632
 30
0.0
 11
-11.30728563609057
 21
-26.69793997026325
 31
0.0
  0
LINE
  5
5D
330
1F
100
AcDbEntity
  8
1
  6
Continuous
 62
     7
100
AcDbLine
 10
-18.11320632733299
 20
-10.19793997026324
 30
0.0
 11
-13.02288244585645
 21
-10.19793997026324
 31
0.0
  0
LINE
  5
5E
330
1F
100
AcDbEntity
  8
1
  6
Continuous
 62
     7
100
AcDbLine
 10
-21.11320632733299
 20
-13.19793997026324
 30
0.0
 11
-21.11320632733299
 21
-10.69793997026325
 31
0.0
  0
LINE
  5
5F
330
1F
100
AcDbEntity
  8
1
  6
Continuous
 62
     7
100
AcDbLine
 10
-13.02288244585645
 20
-10.19793997026324
 30
0.0
 11
-9.76481901375348
 21
-10.19793997026324
 31
0.0
  0
LINE
  5
60
330
1F
100
AcDbEntity
  8
1
  6
Continuous
 62
     7
100
AcDbLine
 10
-10.12510496698928
 20
-13.9743971055708
 30
0.0
 11
-12.05592133204868
 21
-21.18030188005821
 31
0.0
  0
LINE
  5
61
330
1F
100
AcDbEntity
  8
1
  6
Continuous
 62
     7
100
AcDbLine
 10
-19.11320632733299
 20
-25.6979399702632
 30
0.0
 11
-11.30728563609057
 21
-25.6979399702632
 31
0.0
  0
LINE
  5
62
330
1F
100
AcDbEntity
  8
1
  6
Continuous
 62
     7
100
AcDbLine
 10
-20.11320632733299
 20
-24.69793997026319
 30
0.0
 11
-20.11320632733299
 21
-13.19793997026324
 31
0.0
  0
LINE
  5
63
330
1F
100
AcDbEntity
  8
1
  6
Continuous
 62
     7
100
AcDbLine
 10
-18.11320632733299
 20
-11.19793997026324
 30
0.0
 11
-13.02288244585645
 21
-11.19793997026324
 31
0.0
  0
LINE
  5
64
330
1F
100
AcDbEntity
  8
1
  6
Continuous
 62
     7
100
AcDbLine
 10
-11.09103079327838
 20
-13.71557806046826
 30
0.0
 11
-13.02184715833778
 21
-20.92148283495567
 31
0.0
  0
LINE
  5
65
330
1F
100
AcDbEntity
  8
1
  6
Continuous
 62
     7
100
AcDbLine
 10
-59.6132063273335
 20
-57.69793997026324
 30
0.0
 11
-61.1132063273335
 21
-57.69793997026324
 31
0.0
  0
LINE
  5
66
330
1F
100
AcDbEntity
  8
1
  6
Continuous
 62
     7
100
AcDbLine
 10
-61.1132063273335
 20
-57.69793997026324
 30
0.0
 11
-61.1132063273335
 21
-65.1979399702632
 31
0.0
  0
LINE
  5
67
330
1F
100
AcDbEntity
  8
1
  6
Continuous
 62
     7
100
AcDbLine
 10
-58.6132063273335
 20
-67.6979399702632
 30
0.0
 11
-23.61320632733299
 21
-67.69793997026315
 31
0.0
  0
LINE
  5
68
330
1F
100
AcDbEntity
  8
1
  6
Continuous
 62
     7
100
AcDbLine
 10
-21.1132063273331
 20
-36.69793997026321
 30
0.0
 11
-21.11320632733299
 21
-24.69793997026319
 31
0.0
  0
LINE
  5
69
330
1F
100
AcDbEntity
  8
1
  6
Continuous
 62
     7
100
AcDbLine
 10
-23.61320632733299
 20
-66.19793997026315
 30
0.0
 11
-58.6132063273335
 21
-66.1979399702632
 31
0.0
  0
LINE
  5
6A
330
1F
100
AcDbEntity
  8
1
  6
Continuous
 62
     7
100
AcDbLine
 10
-59.6132063273335
 20
-65.1979399702632
 30
0.0
 11
-59.6132063273335
 21
-57.69793997026324
 31
0.0
  0
LINE
  5
6B
330
1F
100
AcDbEntity
  8
1
  6
Continuous
 62
     7
100
AcDbLine
 10
-22.61320632733299
 20
-65.19793997026315
 30
0.0
 11
-22.61320632733299
 21
-62.69793997026315
 31
0.0
  0
LINE
  5
6C
330
1F
100
AcDbEntity
  8
1
  6
Continuous
 62
     7
100
AcDbLine
 10
-21.11320632733299
 20
-62.69793997026315
 30
0.0
 11
-22.61320632733299
 21
-62.69793997026315
 31
0.0
  0
LINE
  5
6D
330
1F
100
AcDbEntity
  8
1
  6
Continuous
 62
     7
100
AcDbLine
 10
-22.61320632733299
 20
-36.69793997026321
 30
0.0
 11
-21.1132063273331
 21
-36.69793997026321
 31
0.0
  0
LINE
  5
6E
330
1F
100
AcDbEntity
  8
1
  6
DASHED
 62
     2
100
AcDbLine
 10
-33.61320632733307
 20
-65.655979861813
 30
0.0
 11
-33.61320632733307
 21
-62.69793997026321
 31
0.0
  0
LINE
  5
6F
330
1F
100
AcDbEntity
  8
1
  6
Continuous
 62
     7
100
AcDbLine
 10
-31.11320632733307
 20
-54.69793997026321
 30
0.0
 11
-31.11320632733307
 21
-54.94793997026321
 31
0.0
  0
LINE
  5
70
330
1F
100
AcDbEntity
  8
1
  6
Continuous
 62
     7
100
AcDbLine
 10
-33.61320632733307
 20
-54.69793997026321
 30
0.0
 11
-33.61320632733307
 21
-54.94793997026321
 31
0.0
  0
LINE
  5
71
330
1F
100
AcDbEntity
  8
1
  6
DASHED
 62
     2
100
AcDbLine
 10
-31.11320632733307
 20
-36.69793997026321
 30
0.0
 11
-31.11320632733307
 21
-44.44793997026321
 31
0.0
  0
LINE
  5
72
330
1F
100
AcDbEntity
  8
1
  6
DASHED
 62
     2
100
AcDbLine
 10
-33.61320632733307
 20
-36.19793997026321
 30
0.0
 11
-33.61320632733307
 21
-44.44793997026321
 31
0.0
  0
LINE
  5
73
330
1F
100
AcDbEntity
  8
1
  6
Continuous
 62
     7
100
AcDbLine
 10
-31.11320632733307
 20
-44.44793997026321
 30
0.0
 11
-31.11320632733307
 21
-44.69793997026321
 31
0.0
  0
LINE
  5
74
330
1F
100
AcDbEntity
  8
1
  6
Continuous
 62
     7
100
AcDbLine
 10
-33.61320632733307
 20
-44.44793997026321
 30
0.0
 11
-33.61320632733307
 21
-44.69793997026321
 31
0.0
  0
LINE
  5
75
330
1F
100
AcDbEntity
  8
1
  6
Continuous
 62
     7
100
AcDbLine
 10
-31.11320632733307
 20
-44.69793997026321
 30
0.0
 11
-33.61320632733307
 21
-44.69793997026321
 31
0.0
  0
LINE
  5
76
330
1F
100
AcDbEntity
  8
1
  6
Continuous
 62
     7
100
AcDbLine
 10
-31.11320632733307
 20
-44.69793997026321
 30
0.0
 11
-31.11320632733307
 21
-54.69793997026321
 31
0.0
  0
LINE
  5
77
330
1F
100
AcDbEntity
  8
1
  6
Continuous
 62
     7
100
AcDbLine
 10
-33.61320632733307
 20
-44.69793997026321
 30
0.0
 11
-33.61320632733307
 21
-54.69793997026321
 31
0.0
  0
LINE
  5
78
330
1F
100
AcDbEntity
  8
1
  6
Continuous
 62
     7
100
AcDbLine
 10
-31.11320632733307
 20
-54.69793997026321
 30
0.0
 11
-33.61320632733307
 21
-54.69793997026321
 31
0.0
  0
LINE
  5
79
330
1F
100
AcDbEntity
  8
1
  6
DASHED
 62
     2
100
AcDbLine
 10
-43.61320632733307
 20
-63.19793997026321
 30
0.0
 11
-33.61320632733307
 21
-63.19793997026321
 31
0.0
  0
LINE
  5
7A
330
1F
100
AcDbEntity
  8
1
  6
DASHED
 62
     2
100
AcDbLine
 10
-31.11320632733307
 20
-54.94793997026321
 30
0.0
 11
-31.11320632733307
 21
-62.69793997026321
 31
0.0
  0
LINE
  5
7B
330
1F
100
AcDbEntity
  8
1
  6
DASHED
 62
     2
100
AcDbLine
 10
-31.11320632733307
 20
-62.69793997026321
 30
0.0
 11
-26.06320632733312
 21
-62.69793997026321
 31
0.0
  0
LINE
  5
7C
330
1F
100
AcDbEntity
  8
1
  6
Continuous
 62
     7
100
AcDbLine
 10
-25.11320632733307
 20
-36.69793997026321
 30
0.0
 11
-26.06320632733312
 21
-36.69793997026321
 31
0.0
  0
LINE
  5
7D
330
1F
100
AcDbEntity
  8
1
  6
DOT_CENTER
 62
     2
100
AcDbLine
 10
-16.89550371360249
 20
-49.69793997026321
 30
0.0
 11
-60.10352560068085
 21
-49.69793997026321
 31
0.0
  0
LINE
  5
7E
330
1F
100
AcDbEntity
  8
1
  6
DASHED
 62
     2
100
AcDbLine
 10
-43.61320632733307
 20
-63.19793997026321
 30
0.0
 11
-43.61320632733307
 21
-65.6979399702632
 31
0.0
  0
LINE
  5
7F
330
1F
100
AcDbEntity
  8
1
  6
DASHED
 62
     2
100
AcDbLine
 10
-33.61320632733307
 20
-62.69793997026321
 30
0.0
 11
-31.11320632733307
 21
-62.69793997026321
 31
0.0
  0
LINE
  5
80
330
1F
100
AcDbEntity
  8
1
  6
DASHED
 62
     2
100
AcDbLine
 10
-22.61320632733307
 20
-57.19793997026321
 30
0.0
 11
-33.61320632733307
 21
-57.19793997026321
 31
0.0
  0
LINE
  5
81
330
1F
100
AcDbEntity
  8
1
  6
Continuous
 62
     7
100
AcDbLine
 10
-26.06320632733312
 20
-62.69793997026321
 30
0.0
 11
-25.11320632733307
 21
-62.69793997026321
 31
0.0
  0
LINE
  5
82
330
1F
100
AcDbEntity
  8
1
  6
DASHED
 62
     2
100
AcDbLine
 10
-26.06320632733312
 20
-36.69793997026321
 30
0.0
 11
-31.11320632733307
 21
-36.69793997026321
 31
0.0
  0
LINE
  5
83
330
1F
100
AcDbEntity
  8
1
  6
DASHED
 62
     2
100
AcDbLine
 10
-43.61320632733307
 20
-36.19793997026321
 30
0.0
 11
-43.61320632733307
 21
-33.69793997026321
 31
0.0
  0
LINE
  5
84
330
1F
100
AcDbEntity
  8
1
  6
DASHED
 62
     2
100
AcDbLine
 10
-43.61320632733307
 20
-36.19793997026321
 30
0.0
 11
-33.61320632733307
 21
-36.19793997026321
 31
0.0
  0
LINE
  5
85
330
1F
100
AcDbEntity
  8
1
  6
DASHED
 62
     2
100
AcDbLine
 10
-33.61320632733307
 20
-36.69793997026321
 30
0.0
 11
-31.11320632733307
 21
-36.69793997026321
 31
0.0
  0
LINE
  5
86
330
1F
100
AcDbEntity
  8
1
  6
DASHED
 62
     2
100
AcDbLine
 10
-33.61320632733307
 20
-54.94793997026321
 30
0.0
 11
-33.61320632733307
 21
-62.69793997026321
 31
0.0
  0
LINE
  5
87
330
1F
100
AcDbEntity
  8
1
  6
DASHED
 62
     2
100
AcDbLine
 10
-33.61320632733307
 20
-42.19793997026321
 30
0.0
 11
-22.61320632733307
 21
-42.19793997026321
 31
0.0
  0
LINE
  5
88
330
1F
100
AcDbEntity
  8
1
  6
Continuous
 62
     7
100
AcDbLine
 10
-25.11320632733307
 20
-36.69793997026321
 30
0.0
 11
-22.61320632733299
 21
-36.69793997026321
 31
0.0
  0
LINE
  5
89
330
1F
100
AcDbEntity
  8
1
  6
Continuous
 62
     7
100
AcDbLine
 10
-25.11320632733307
 20
-62.69793997026321
 30
0.0
 11
-25.11320632733307
 21
-36.69793997026321
 31
0.0
  0
LINE
  5
8A
330
1F
100
AcDbEntity
  8
1
  6
Continuous
 62
     7
100
AcDbLine
 10
-22.61320632733299
 20
-62.69793997026315
 30
0.0
 11
-25.11320632733307
 21
-62.69793997026321
 31
0.0
  0
LINE
  5
8B
330
1F
100
AcDbEntity
  8
1
  6
Continuous
 62
     7
100
AcDbLine
 10
-22.61320632733307
 20
-57.19793997026321
 30
0.0
 11
-22.61320632733299
 21
-62.69793997026315
 31
0.0
  0
LINE
  5
8C
330
1F
100
AcDbEntity
  8
1
  6
Continuous
 62
     7
100
AcDbLine
 10
-22.61320632733299
 20
-36.69793997026321
 30
0.0
 11
-22.61320632733307
 21
-57.19793997026321
 31
0.0
  0
LINE
  5
8D
330
1F
100
AcDbEntity
  8
1
  6
Continuous
 62
     7
100
AcDbLine
 10
-53.61320632733307
 20
-65.6979399702632
 30
0.0
 11
-25.61320632733307
 21
-65.6979399702632
 31
0.0
  0
LINE
  5
8E
330
1F
100
AcDbEntity
  8
1
  6
Continuous
 62
     7
100
AcDbLine
 10
-25.61320632733307
 20
-57.69793997026321
 30
0.0
 11
-25.61320632733307
 21
-65.6979399702632
 31
0.0
  0
LINE
  5
8F
330
1F
100
AcDbEntity
  8
1
  6
Continuous
 62
     7
100
AcDbLine
 10
-33.61320632733307
 20
-54.94793997026321
 30
0.0
 11
-33.61320632733307
 21
-44.44793997026321
 31
0.0
  0
LINE
  5
90
330
1F
100
AcDbEntity
  8
1
  6
Continuous
 62
     7
100
AcDbLine
 10
-33.61320632733307
 20
-44.44793997026321
 30
0.0
 11
-31.01320632733311
 21
-44.44793997026321
 31
0.0
  0
LINE
  5
91
330
1F
100
AcDbEntity
  8
1
  6
Continuous
 62
     7
100
AcDbLine
 10
-31.01320632733311
 20
-44.44793997026321
 30
0.0
 11
-31.01320632733311
 21
-54.94793997026321
 31
0.0
  0
LINE
  5
92
330
1F
100
AcDbEntity
  8
1
  6
Continuous
 62
     7
100
AcDbLine
 10
-31.01320632733311
 20
-54.94793997026321
 30
0.0
 11
-33.61320632733307
 21
-54.94793997026321
 31
0.0
  0
LINE
  5
93
330
1F
100
AcDbEntity
  8
1
  6
Continuous
 62
     7
100
AcDbLine
 10
-55.11320632733307
 20
-34.19793997026321
 30
0.0
 11
-55.11320632733307
 21
-65.6979399702632
 31
0.0
  0
LINE
  5
94
330
1F
100
AcDbEntity
  8
1
  6
Continuous
 62
     7
100
AcDbLine
 10
-26.06320632733312
 20
-32.19793997026321
 30
0.0
 11
-53.11320632733307
 21
-32.19793997026321
 31
0.0
  0
LINE
  5
95
330
1F
100
AcDbEntity
  8
1
  6
DASHED
 62
     2
100
AcDbLine
 10
-53.61320632733307
 20
-34.19793997026321
 30
0.0
 11
-53.61320632733307
 21
-65.6979399702632
 31
0.0
  0
LINE
  5
96
330
1F
100
AcDbEntity
  8
1
  6
Continuous
 62
     7
100
AcDbLine
 10
-55.11320632733307
 20
-65.6979399702632
 30
0.0
 11
-53.61320632733307
 21
-65.6979399702632
 31
0.0
  0
LINE
  5
97
330
1F
100
AcDbEntity
  8
1
  6
Continuous
 62
     7
100
AcDbLine
 10
-25.61320632733307
 20
-33.69793997026321
 30
0.0
 11
-55.04969800043679
 21
-33.69793997026321
 31
0.0
  0
LINE
  5
98
330
1F
100
AcDbEntity
  8
1
  6
Continuous
 62
     7
100
AcDbLine
 10
-22.61320632733307
 20
-32.19793997026321
 30
0.0
 11
-26.06320632733312
 21
-32.19793997026321
 31
0.0
  0
LINE
  5
99
330
1F
100
AcDbEntity
  8
1
  6
Continuous
 62
     7
100
AcDbLine
 10
-22.61320632733307
 20
-33.69793997026321
 30
0.0
 11
-22.61320632733307
 21
-32.19793997026321
 31
0.0
  0
LINE
  5
9A
330
1F
100
AcDbEntity
  8
1
  6
Continuous
 62
     7
100
AcDbLine
 10
-25.61320632733307
 20
-33.69793997026321
 30
0.0
 11
-22.61320632733307
 21
-33.69793997026321
 31
0.0
  0
LINE
  5
9B
330
1F
100
AcDbEntity
  8
1
  6
Continuous
 62
     2
100
AcDbLine
 10
-31.01320632733311
 20
-56.69793997026321
 30
0.0
 11
-31.01320632733311
 21
-54.94793997026321
 31
0.0
  0
LINE
  5
9C
330
1F
100
AcDbEntity
  8
1
  6
Continuous
 62
     2
100
AcDbLine
 10
-25.61320632733307
 20
-57.69793997026321
 30
0.0
 11
-30.01320632733311
 21
-57.69793997026321
 31
0.0
  0
LINE
  5
9D
330
1F
100
AcDbEntity
  8
1
  6
Continuous
 62
     7
100
AcDbLine
 10
-25.61320632733307
 20
-41.69793997026321
 30
0.0
 11
-25.61320632733307
 21
-57.69793997026321
 31
0.0
  0
LINE
  5
9E
330
1F
100
AcDbEntity
  8
1
  6
Continuous
 62
     2
100
AcDbLine
 10
-31.01320632733311
 20
-42.69793997026321
 30
0.0
 11
-31.01320632733311
 21
-44.44793997026321
 31
0.0
  0
LINE
  5
9F
330
1F
100
AcDbEntity
  8
1
  6
Continuous
 62
     2
100
AcDbLine
 10
-25.61320632733307
 20
-41.69793997026321
 30
0.0
 11
-30.01320632733311
 21
-41.69793997026321
 31
0.0
  0
LINE
  5
A0
330
1F
100
AcDbEntity
  8
1
  6
Continuous
 62
     7
100
AcDbLine
 10
-25.61320632733307
 20
-33.69793997026321
 30
0.0
 11
-25.61320632733307
 21
-41.69793997026321
 31
0.0
  0
LINE
  5
A1
330
1F
100
AcDbEntity
  8
1
  6
DOT_CENTER
 62
     2
100
AcDbLine
 10
147.1986003432113
 20
-64.37339990768865
 30
0.0
 11
147.1986003432113
 21
-59.87339990768865
 31
0.0
  0
LINE
  5
A2
330
1F
100
AcDbEntity
  8
1
  6
DOT_CENTER
 62
     2
100
AcDbLine
 10
144.9486003432113
 20
-62.12339990768865
 30
0.0
 11
149.4486003432113
 21
-62.12339990768865
 31
0.0
  0
LINE
  5
A3
330
1F
100
AcDbEntity
  8
1
  6
DOT_CENTER
 62
     2
100
AcDbLine
 10
135.1986003432113
 20
-54.37339990768865
 30
0.0
 11
135.1986003432113
 21
-49.87339990768865
 31
0.0
  0
LINE
  5
A4
330
1F
100
AcDbEntity
  8
1
  6
DOT_CENTER
 62
     2
100
AcDbLine
 10
132.9486003432113
 20
-52.12339990768865
 30
0.0
 11
137.4486003432113
 21
-52.12339990768865
 31
0.0
  0
LINE
  5
A5
330
1F
100
AcDbEntity
  8
1
  6
DOT_CENTER
 62
     2
100
AcDbLine
 10
147.1986003432113
 20
70.62660009231135
 30
0.0
 11
147.1986003432113
 21
75.12660009231135
 31
0.0
  0
LINE
  5
A6
330
1F
100
AcDbEntity
  8
1
  6
DOT_CENTER
 62
     2
100
AcDbLine
 10
144.9486003432113
 20
72.87660009231135
 30
0.0
 11
149.4486003432113
 21
72.87660009231135
 31
0.0
  0
LINE
  5
A7
330
1F
100
AcDbEntity
  8
1
  6
DOT_CENTER
 62
     2
100
AcDbLine
 10
135.1986003432113
 20
60.62660009231135
 30
0.0
 11
135.1986003432113
 21
65.12660009231135
 31
0.0
  0
LINE
  5
A8
330
1F
100
AcDbEntity
  8
1
  6
DOT_CENTER
 62
     2
100
AcDbLine
 10
132.9486003432113
 20
62.87660009231135
 30
0.0
 11
137.4486003432113
 21
62.87660009231135
 31
0.0
  0
LINE
  5
A9
330
1F
100
AcDbEntity
  8
1
  6
DOT_CENTER
 62
     2
100
AcDbLine
 10
141.1986003432113
 20
86.579663813348
 30
0.0
 11
141.1986003432113
 21
-75.26360711333238
 31
0.0
  0
LINE
  5
AA
330
1F
100
AcDbEntity
  8
1
  6
Continuous
 62
     7
100
AcDbLine
 10
128.1986003432113
 20
69.87660009231135
 30
0.0
 11
128.1986003432113
 21
44.37660009231139
 31
0.0
  0
LINE
  5
AB
330
1F
100
AcDbEntity
  8
1
  6
Continuous
 62
     7
100
AcDbLine
 10
154.1986003432113
 20
69.87660009231135
 30
0.0
 11
154.1986003432113
 21
44.37660009231139
 31
0.0
  0
LINE
  5
AC
330
1F
100
AcDbEntity
  8
1
  6
Continuous
 62
     7
100
AcDbLine
 10
-17.61320632733336
 20
-62.69793997026321
 30
0.0
 11
-17.61320632733319
 21
-36.69793997026312
 31
0.0
  0
LINE
  5
AD
330
1F
100
AcDbEntity
  8
1
  6
PHANTOM
 62
     2
100
AcDbLine
 10
27.38679367266684
 20
-68.47367057736668
 30
0.0
 11
27.38679367266684
 21
-66.6979399702632
 31
0.0
  0
LINE
  5
AE
330
1F
100
AcDbEntity
  8
1
  6
PHANTOM
 62
     2
100
AcDbLine
 10
27.38679367266683
 20
-26.69793997026321
 30
0.0
 11
27.38679367266684
 21
-21.87239328400037
 31
0.0
  0
LINE
  5
AF
330
1F
100
AcDbEntity
  8
1
  6
Continuous
 62
     7
100
AcDbLine
 10
-17.61320632733313
 20
-26.69793997026321
 30
0.0
 11
27.38679367266683
 21
-26.69793997026321
 31
0.0
  0
LINE
  5
B0
330
1F
100
AcDbEntity
  8
1
  6
Continuous
 62
     7
100
AcDbLine
 10
-17.61320632733319
 20
-36.69793997026312
 30
0.0
 11
-17.61320632733313
 21
-26.69793997026321
 31
0.0
  0
LINE
  5
B1
330
1F
100
AcDbEntity
  8
1
  6
Continuous
 62
     7
100
AcDbLine
 10
18.38679367266682
 20
-36.69793997026321
 30
0.0
 11
-11.61320632733321
 21
-36.69793997026321
 31
0.0
  0
LINE
  5
B2
330
1F
100
AcDbEntity
  8
1
  6
Continuous
 62
     7
100
AcDbLine
 10
18.38679367266665
 20
-62.69793997026342
 30
0.0
 11
18.38679367266682
 21
-36.69793997026321
 31
0.0
  0
LINE
  5
B3
330
1F
100
AcDbEntity
  8
1
  6
Continuous
 62
     7
100
AcDbLine
 10
-17.61320632733336
 20
-62.69793997026321
 30
0.0
 11
-11.61320632733336
 21
-62.69793997026325
 31
0.0
  0
LINE
  5
B4
330
1F
100
AcDbEntity
  8
1
  6
Continuous
 62
     7
100
AcDbLine
 10
-17.61320632733336
 20
-66.6979399702632
 30
0.0
 11
-17.61320632733336
 21
-62.69793997026321
 31
0.0
  0
LINE
  5
B5
330
1F
100
AcDbEntity
  8
1
  6
PHANTOM
 62
     2
100
AcDbLine
 10
27.38679367266684
 20
-66.6979399702632
 30
0.0
 11
27.38679367266683
 21
-26.69793997026321
 31
0.0
  0
LINE
  5
B6
330
1F
100
AcDbEntity
  8
1
  6
Continuous
 62
     7
100
AcDbLine
 10
27.38679367266684
 20
-66.6979399702632
 30
0.0
 11
-17.61320632733336
 21
-66.6979399702632
 31
0.0
  0
LINE
  5
B7
330
1F
100
AcDbEntity
  8
1
  6
DOT_CENTER
 62
     2
100
AcDbLine
 10
116.0594379311456
 20
105.3766000923114
 30
0.0
 11
118.1986003432113
 21
105.3766000923114
 31
0.0
  0
LINE
  5
B8
330
1F
100
AcDbEntity
  8
1
  6
DOT_CENTER
 62
     2
100
AcDbLine
 10
116.0594379311456
 20
-94.62339990768866
 30
0.0
 11
118.1986003432113
 21
-94.62339990768866
 31
0.0
  0
LINE
  5
B9
330
1F
100
AcDbEntity
  8
1
  6
Continuous
 62
     7
100
AcDbLine
 10
118.1986003432113
 20
-94.62339990768866
 30
0.0
 11
118.1986003432113
 21
105.3766000923114
 31
0.0
  0
LINE
  5
BA
330
1F
100
AcDbEntity
  8
1
  6
DOT_CENTER
 62
     2
100
AcDbLine
 10
118.1986003432113
 20
105.3766000923114
 30
0.0
 11
158.1986003432113
 21
105.3766000923114
 31
0.0
  0
LINE
  5
BB
330
1F
100
AcDbEntity
  8
1
  6
DOT_CENTER
 62
     2
100
AcDbLine
 10
118.1986003432113
 20
-94.62339990768866
 30
0.0
 11
158.1986003432113
 21
-94.62339990768866
 31
0.0
  0
LINE
  5
BC
330
1F
100
AcDbEntity
  8
1
  6
Continuous
 62
     7
100
AcDbLine
 10
158.1986003432113
 20
-94.62339990768866
 30
0.0
 11
158.1986003432113
 21
105.3766000923114
 31
0.0
  0
LINE
  5
BD
330
1F
100
AcDbEntity
  8
1
  6
DOT_CENTER
 62
     2
100
AcDbLine
 10
158.1986003432113
 20
105.3766000923114
 30
0.0
 11
160.8813092857647
 21
105.3766000923114
 31
0.0
  0
LINE
  5
BE
330
1F
100
AcDbEntity
  8
1
  6
DOT_CENTER
 62
     2
100
AcDbLine
 10
158.1986003432113
 20
-94.62339990768866
 30
0.0
 11
160.8813092857647
 21
-94.62339990768866
 31
0.0
  0
LINE
  5
BF
330
1F
100
AcDbEntity
  8
1
  6
DOT_CENTER
 62
     2
100
AcDbLine
 10
116.0594379311456
 20
5.37660009231135
 30
0.0
 11
160.8813092857647
 21
5.37660009231135
 31
0.0
  0
LINE
  5
C0
330
1F
100
AcDbEntity
  8
1
  6
Continuous
 62
     7
100
AcDbLine
 10
-11.61320632733321
 20
-36.69793997026321
 30
0.0
 11
-11.61320632733336
 21
-62.69793997026325
 31
0.0
  0
LINE
  5
C1
330
1F
100
AcDbEntity
  8
1
  6
Continuous
 62
     7
100
AcDbLine
 10
-11.61320632733321
 20
-36.69793997026321
 30
0.0
 11
-17.61320632733319
 21
-36.69793997026312
 31
0.0
  0
LINE
  5
C2
330
1F
100
AcDbEntity
  8
1
  6
Continuous
 62
     7
100
AcDbLine
 10
-11.61320632733336
 20
-62.69793997026325
 30
0.0
 11
18.38679367266665
 21
-62.69793997026342
 31
0.0
  0
LINE
  5
C3
330
1F
100
AcDbEntity
  8
1
  6
DOT_CENTER
 62
     2
100
AcDbLine
 10
88.9119338369392
 20
105.3766000923114
 30
0.0
 11
95.0510962490049
 21
105.3766000923114
 31
0.0
  0
LINE
  5
C4
330
1F
100
AcDbEntity
  8
1
  6
DOT_CENTER
 62
     2
100
AcDbLine
 10
48.9119338369392
 20
105.3766000923114
 30
0.0
 11
93.9119338369392
 21
105.3766000923114
 31
0.0
  0
LINE
  5
C5
330
1F
100
AcDbEntity
  8
1
  6
DOT_CENTER
 62
     2
100
AcDbLine
 10
46.22922489438579
 20
105.3766000923114
 30
0.0
 11
48.9119338369392
 21
105.3766000923114
 31
0.0
  0
LINE
  5
C6
330
1F
100
AcDbEntity
  8
1
  6
DOT_CENTER
 62
     2
100
AcDbLine
 10
88.9119338369392
 20
-94.62339990768866
 30
0.0
 11
95.0510962490049
 21
-94.62339990768866
 31
0.0
  0
LINE
  5
C7
330
1F
100
AcDbEntity
  8
1
  6
DOT_CENTER
 62
     2
100
AcDbLine
 10
48.9119338369392
 20
-94.62339990768866
 30
0.0
 11
93.9119338369392
 21
-94.62339990768866
 31
0.0
  0
LINE
  5
C8
330
1F
100
AcDbEntity
  8
1
  6
DOT_CENTER
 62
     2
100
AcDbLine
 10
46.22922489438579
 20
-94.62339990768866
 30
0.0
 11
48.9119338369392
 21
-94.62339990768866
 31
0.0
  0
LINE
  5
C9
330
1F
100
AcDbEntity
  8
1
  6
Continuous
 62
     7
100
AcDbLine
 10
48.9119338369392
 20
82.87660009231135
 30
0.0
 11
48.9119338369392
 21
105.3766000923114
 31
0.0
  0
LINE
  5
CA
330
1F
100
AcDbEntity
  8
1
  6
Continuous
 62
     7
100
AcDbLine
 10
54.9119338369392
 20
82.87660009231135
 30
0.0
 11
48.9119338369392
 21
82.87660009231135
 31
0.0
  0
LINE
  5
CB
330
1F
100
AcDbEntity
  8
1
  6
Continuous
 62
     7
100
AcDbLine
 10
48.9119338369392
 20
-72.12339990768865
 30
0.0
 11
48.9119338369392
 21
82.87660009231135
 31
0.0
  0
LINE
  5
CC
330
1F
100
AcDbEntity
  8
1
  6
Continuous
 62
     7
100
AcDbLine
 10
54.9119338369392
 20
56.37660009231134
 30
0.0
 11
54.9119338369392
 21
82.87660009231135
 31
0.0
  0
LINE
  5
CD
330
1F
100
AcDbEntity
  8
1
  6
Continuous
 62
     7
100
AcDbLine
 10
86.4119338369392
 20
56.37660009231139
 30
0.0
 11
54.9119338369392
 21
56.37660009231134
 31
0.0
  0
LINE
  5
CE
330
1F
100
AcDbEntity
  8
1
  6
Continuous
 62
     7
100
AcDbLine
 10
86.4119338369392
 20
-45.62339990768863
 30
0.0
 11
86.4119338369392
 21
56.37660009231139
 31
0.0
  0
LINE
  5
CF
330
1F
100
AcDbEntity
  8
1
  6
Continuous
 62
     7
100
AcDbLine
 10
54.9119338369392
 20
-45.62339990768866
 30
0.0
 11
86.4119338369392
 21
-45.62339990768863
 31
0.0
  0
LINE
  5
D0
330
1F
100
AcDbEntity
  8
1
  6
Continuous
 62
     7
100
AcDbLine
 10
54.9119338369392
 20
-72.12339990768865
 30
0.0
 11
54.9119338369392
 21
-45.62339990768866
 31
0.0
  0
LINE
  5
D1
330
1F
100
AcDbEntity
  8
1
  6
Continuous
 62
     7
100
AcDbLine
 10
48.9119338369392
 20
-72.12339990768865
 30
0.0
 11
54.9119338369392
 21
-72.12339990768865
 31
0.0
  0
LINE
  5
D2
330
1F
100
AcDbEntity
  8
1
  6
Continuous
 62
     7
100
AcDbLine
 10
48.9119338369392
 20
-94.62339990768866
 30
0.0
 11
48.9119338369392
 21
-72.12339990768865
 31
0.0
  0
LINE
  5
D3
330
1F
100
AcDbEntity
  8
1
  6
DOT_CENTER
 62
     2
100
AcDbLine
 10
93.9119338369392
 20
-94.62339990768866
 30
0.0
 11
93.9119338369392
 21
105.3766000923114
 31
0.0
  0
LINE
  5
D4
330
1F
100
AcDbEntity
  8
1
  6
DOT_CENTER
 62
     2
100
AcDbLine
 10
93.9119338369392
 20
-98.1112895265787
 30
0.0
 11
93.9119338369392
 21
-94.62339990768866
 31
0.0
  0
LINE
  5
D5
330
1F
100
AcDbEntity
  8
1
  6
DOT_CENTER
 62
     2
100
AcDbLine
 10
93.9119338369392
 20
107.4193999621323
 30
0.0
 11
93.9119338369392
 21
105.3766000923114
 31
0.0
  0
LINE
  5
D6
330
1F
100
AcDbEntity
  8
1
  6
Continuous
 62
     7
100
AcDbLine
 10
154.1986003432113
 20
5.37660009231135
 30
0.0
 11
154.1986003432113
 21
-33.62339990768865
 31
0.0
  0
LINE
  5
D7
330
1F
100
AcDbEntity
  8
1
  6
DOT_CENTER
 62
     2
100
AcDbLine
 10
42.5029719603491
 20
5.37660009231135
 30
0.0
 11
98.01639349968849
 21
5.37660009231135
 31
0.0
  0
LINE
  5
D8
330
1F
100
AcDbEntity
  8
1
  6
Continuous
 62
     7
100
AcDbLine
 10
128.1986003432113
 20
5.37660009231135
 30
0.0
 11
128.1986003432113
 21
-33.62339990768865
 31
0.0
  0
LINE
  5
D9
330
1F
100
AcDbEntity
  8
1
  6
DOT_CENTER
 62
     2
100
AcDbLine
 10
20.84299765474177
 20
-49.69793997026321
 30
0.0
 11
-19.63611702236497
 21
-49.69793997026321
 31
0.0
  0
LINE
  5
DA
330
1F
100
AcDbEntity
  8
1
  6
Continuous
 62
     7
100
AcDbLine
 10
54.9119338369392
 20
44.37660009231139
 30
0.0
 11
54.9119338369392
 21
56.37660009231134
 31
0.0
  0
LINE
  5
DB
330
1F
100
AcDbEntity
  8
1
  6
Continuous
 62
     7
100
AcDbLine
 10
54.9119338369392
 20
-33.62339990768865
 30
0.0
 11
54.9119338369392
 21
-45.62339990768866
 31
0.0
  0
LINE
  5
DC
330
1F
100
AcDbEntity
  8
1
  6
Continuous
 62
     7
100
AcDbLine
 10
140.1986003432113
 20
56.37660009231135
 30
0.0
 11
142.1986003432113
 21
56.37660009231138
 31
0.0
  0
LINE
  5
DD
330
1F
100
AcDbEntity
  8
1
  6
Continuous
 62
     7
100
AcDbLine
 10
128.1986003432113
 20
44.37660009231139
 30
0.0
 11
128.1986003432113
 21
5.37660009231135
 31
0.0
  0
LINE
  5
DE
330
1F
100
AcDbEntity
  8
1
  6
Continuous
 62
     7
100
AcDbLine
 10
154.1986003432113
 20
44.37660009231139
 30
0.0
 11
154.1986003432113
 21
5.37660009231135
 31
0.0
  0
LINE
  5
DF
330
1F
100
AcDbEntity
  8
1
  6
Continuous
 62
     7
100
AcDbLine
 10
142.1986003432113
 20
-45.62339990768865
 30
0.0
 11
140.1986003432113
 21
-45.62339990768865
 31
0.0
  0
LINE
  5
E0
330
1F
100
AcDbEntity
  8
1
  6
Continuous
 62
     7
100
AcDbLine
 10
128.1986003432113
 20
-33.62339990768865
 30
0.0
 11
128.1986003432113
 21
-59.12339990768865
 31
0.0
  0
LINE
  5
E1
330
1F
100
AcDbEntity
  8
1
  6
Continuous
 62
     7
100
AcDbLine
 10
154.1986003432113
 20
-33.62339990768865
 30
0.0
 11
154.1986003432113
 21
-59.12339990768865
 31
0.0
  0
ARC
  5
E2
330
1F
100
AcDbEntity
  8
1
  6
Continuous
 62
     7
100
AcDbCircle
 10
-141.2592983114338
 20
-59.02339990768866
 30
0.0
 40
13.09999999999999
100
AcDbArc
 50
-90.0
 51
0.0
  0
ARC
  5
E3
330
1F
100
AcDbEntity
  8
1
  6
Continuous
 62
     7
100
AcDbCircle
 10
-141.2592983114338
 20
69.77660009231134
 30
0.0
 40
13.1
100
AcDbArc
 50
125.4612814730713
 51
180.0
  0
ARC
  5
E4
330
1F
100
AcDbEntity
  8
1
  6
Continuous
 62
     7
100
AcDbCircle
 10
-141.2592983114338
 20
-59.02339990768866
 30
0.0
 40
13.1
100
AcDbArc
 50
-125.4612814730712
 51
-90.0
  0
ARC
  5
E5
330
1F
100
AcDbEntity
  8
1
  6
Continuous
 62
     7
100
AcDbCircle
 10
-141.2592983114338
 20
69.77660009231134
 30
0.0
 40
13.10000000000002
100
AcDbArc
 50
0.0
 51
90.0
  0
ARC
  5
E6
330
1F
100
AcDbEntity
  8
1
  6
Continuous
 62
     7
100
AcDbCircle
 10
-141.2592983114338
 20
69.77660009231134
 30
0.0
 40
13.09999999999999
100
AcDbArc
 50
90.0
 51
125.4612814730713
  0
ARC
  5
E7
330
1F
100
AcDbEntity
  8
1
  6
Continuous
 62
     7
100
AcDbCircle
 10
-141.2592983114338
 20
-59.02339990768866
 30
0.0
 40
13.09999999999999
100
AcDbArc
 50
180.0
 51
-125.4612814730712
  0
ARC
  5
E8
330
1F
100
AcDbEntity
  8
1
  6
Continuous
 62
     7
100
AcDbCircle
 10
-19.11320632733299
 20
-24.69793997026319
 30
0.0
 40
2.0
100
AcDbArc
 50
180.0
 51
-90.0
  0
ARC
  5
E9
330
1F
100
AcDbEntity
  8
1
  6
Continuous
 62
     7
100
AcDbCircle
 10
-11.30728563609057
 20
-25.09793997026321
 30
0.0
 40
1.600000000000041
100
AcDbArc
 50
-90.0
 51
70.81186354628015
  0
ARC
  5
EA
330
1F
100
AcDbEntity
  8
1
  6
Continuous
 62
     7
100
AcDbCircle
 10
-18.11320632733299
 20
-13.19793997026325
 30
0.0
 40
3.000000000000009
100
AcDbArc
 50
90.0
 51
179.9999999999999
  0
ARC
  5
EB
330
1F
100
AcDbEntity
  8
1
  6
Continuous
 62
     7
100
AcDbCircle
 10
-13.02288244585645
 20
-13.19793997026325
 30
0.0
 40
2.999999999999963
100
AcDbArc
 50
-14.99999999999996
 51
90.0
  0
ARC
  5
EC
330
1F
100
AcDbEntity
  8
1
  6
Continuous
 62
     7
100
AcDbCircle
 10
-19.11320632733299
 20
-24.69793997026319
 30
0.0
 40
1.0
100
AcDbArc
 50
180.0
 51
-90.0
  0
ARC
  5
ED
330
1F
100
AcDbEntity
  8
1
  6
Continuous
 62
     7
100
AcDbCircle
 10
-18.11320632733299
 20
-13.19793997026325
 30
0.0
 40
2.000000000000009
100
AcDbArc
 50
90.0
 51
179.9999999999997
  0
ARC
  5
EE
330
1F
100
AcDbEntity
  8
1
  6
Continuous
 62
     7
100
AcDbCircle
 10
-13.02288244585645
 20
-13.19793997026325
 30
0.0
 40
1.999999999999928
100
AcDbArc
 50
-14.99999999999966
 51
90.0
  0
ARC
  5
EF
330
1F
100
AcDbEntity
  8
1
  6
Continuous
 62
     7
100
AcDbCircle
 10
-11.30728563609057
 20
-25.09793997026321
 30
0.0
 40
0.5999999999999908
100
AcDbArc
 50
-90.0
 51
70.81186354628544
  0
ARC
  5
F0
330
1F
100
AcDbEntity
  8
1
  6
Continuous
 62
     7
100
AcDbCircle
 10
141.1986003432113
 20
-59.12339990768865
 30
0.0
 40
13.0
100
AcDbArc
 50
180.0
 51
-90.0
  0
ARC
  5
F1
330
1F
100
AcDbEntity
  8
1
  6
Continuous
 62
     7
100
AcDbCircle
 10
141.1986003432113
 20
69.87660009231135
 30
0.0
 40
13.0
100
AcDbArc
 50
0.0
 51
90.0
  0
ARC
  5
F2
330
1F
100
AcDbEntity
  8
1
  6
Continuous
 62
     7
100
AcDbCircle
 10
141.1986003432113
 20
-59.12339990768865
 30
0.0
 40
13.0
100
AcDbArc
 50
-90.0
 51
0.0
  0
ARC
  5
F3
330
1F
100
AcDbEntity
  8
1
  6
Continuous
 62
     7
100
AcDbCircle
 10
141.1986003432113
 20
69.87660009231135
 30
0.0
 40
13.0
100
AcDbArc
 50
90.0
 51
180.0
  0
CIRCLE
  5
F4
330
1F
100
AcDbEntity
  8
1
  6
Continuous
 62
     7
100
AcDbCircle
 10
147.1986003432113
 20
-62.12339990768865
 30
0.0
 40
1.5
  0
CIRCLE
  5
F5
330
1F
100
AcDbEntity
  8
1
  6
Continuous
 62
     7
100
AcDbCircle
 10
135.1986003432113
 20
-52.12339990768865
 30
0.0
 40
1.5
  0
CIRCLE
  5
F6
330
1F
100
AcDbEntity
  8
1
  6
Continuous
 62
     7
100
AcDbCircle
 10
147.1986003432113
 20
72.87660009231135
 30
0.0
 40
1.5
  0
CIRCLE
  5
F7
330
1F
100
AcDbEntity
  8
1
  6
Continuous
 62
     7
100
AcDbCircle
 10
135.1986003432113
 20
62.87660009231135
 30
0.0
 40
1.5
  0
CIRCLE
  5
F8
330
1F
100
AcDbEntity
  8
1
  6
DOT_CENTER
 62
     2
100
AcDbCircle
 10
140.1986003432113
 20
-59.12339990768862
 30
0.0
 40
12.0
  0
SPLINE
  5
F9
330
1F
100
AcDbEntity
  8
1
  6
Continuous
 62
     2
100
AcDbSpline
210
0.0
220
0.0
230
1.0
 70
     8
 71
     3
 72
    12
 73
     8
 74
     6
 42
0.0000000001
 43
0.0000000001
 44
0.00000001
 40
0.0
 40
0.0
 40
0.0
 40
0.0
 40
0.2775291599796289
 40
0.5641738536599643
 40
0.8992522958634324
 40
1.297504019331647
 40
1.680834346735568
 40
1.680834346735568
 40
1.680834346735568
 40
1.680834346735568
 10
-7.613206327332989
 20
-1.105237132562709
 30
0.0
 10
-7.52526245338201
 20
-1.036037425791651
 30
0.0
 10
-7.346486160914749
 20
-0.8953651258285296
 30
0.0
 10
-7.145338577299611
 20
-1.260113104523524
 30
0.0
 10
-6.775754933991472
 20
-1.095960896415524
 30
0.0
 10
-6.456907118565738
 20
-0.8311787026173965
 30
0.0
 10
-6.226305766646369
 20
-1.015054463344093
 30
0.0
 10
-6.113206327332989
 20
-1.105237132562709
 30
0.0
 11
-7.613206327332989
 21
-1.105237132562709
 31
0.0
 11
-7.362098387791206
 21
-0.9870540655096046
 31
0.0
 11
-7.137847119741118
 21
-1.165594114778728
 31
0.0
 11
-6.81040544583035
 21
-1.094463863717616
 31
0.0
 11
-6.450717197949892
 21
-0.9234995411760698
 31
0.0
 11
-6.113206327332989
 21
-1.105237132562709
 31
0.0
  0
ARC
  5
FA
330
1F
100
AcDbEntity
  8
1
  6
Continuous
 62
     7
100
AcDbCircle
 10
-21.11320632733299
 20
-10.19793997026324
 30
0.0
 40
1.500000000000016
100
AcDbArc
 50
90.0
 51
179.9999999999996
  0
ARC
  5
FB
330
1F
100
AcDbEntity
  8
1
  6
Continuous
 62
     7
100
AcDbCircle
 10
-20.61320632733299
 20
-10.69793997026324
 30
0.0
 40
0.5
100
AcDbArc
 50
90.0
 51
-179.999999999999
  0
ARC
  5
FC
330
1F
100
AcDbEntity
  8
1
  6
Continuous
 62
     7
100
AcDbCircle
 10
-8.11320632733299
 20
-21.69793997026324
 30
0.0
 40
2.000000000000011
100
AcDbArc
 50
-90.0
 51
0.0
  0
ARC
  5
FD
330
1F
100
AcDbEntity
  8
1
  6
Continuous
 62
     7
100
AcDbCircle
 10
-10.12406967947067
 20
-21.69793997026324
 30
0.0
 40
1.999999999999976
100
AcDbArc
 50
-109.1881364537214
 51
-90.0
  0
ARC
  5
FE
330
1F
100
AcDbEntity
  8
1
  6
Continuous
 62
     7
100
AcDbCircle
 10
-8.61320632733299
 20
-21.19793997026324
 30
0.0
 40
1.0
100
AcDbArc
 50
-90.0
 51
0.0
  0
ARC
  5
FF
330
1F
100
AcDbEntity
  8
1
  6
Continuous
 62
     7
100
AcDbCircle
 10
-9.47245699305
 20
-21.19793997026324
 30
0.0
 40
1.000000000000084
100
AcDbArc
 50
164.9999999999997
 51
-90.0
  0
ARC
  5
100
330
1F
100
AcDbEntity
  8
1
  6
Continuous
 62
     7
100
AcDbCircle
 10
-9.11320632733299
 20
-10.19793997026324
 30
0.0
 40
1.5000000000001
100
AcDbArc
 50
-15.00000000000012
 51
90.0
  0
ARC
  5
101
330
1F
100
AcDbEntity
  8
1
  6
Continuous
 62
     7
100
AcDbCircle
 10
-9.76481901375348
 20
-10.69793997026324
 30
0.0
 40
0.4999999999999603
100
AcDbArc
 50
-15.00000000000243
 51
90.0
  0
ARC
  5
102
330
1F
100
AcDbEntity
  8
1
  6
Continuous
 62
     7
100
AcDbCircle
 10
-10.12406967947067
 20
-21.69793997026324
 30
0.0
 40
1.999999999999874
100
AcDbArc
 50
164.9999999999994
 51
-109.1881364537214
  0
ARC
  5
103
330
1F
100
AcDbEntity
  8
1
  6
Continuous
 62
     7
100
AcDbCircle
 10
-10.12406967947067
 20
-21.69793997026324
 30
0.0
 40
2.99999999999991
100
AcDbArc
 50
164.9999999999994
 51
-109.188136453722
  0
ARC
  5
104
330
1F
100
AcDbEntity
  8
1
  6
Continuous
 62
     7
100
AcDbCircle
 10
-58.6132063273335
 20
-65.1979399702632
 30
0.0
 40
1.0
100
AcDbArc
 50
180.0
 51
-90.0
  0
ARC
  5
105
330
1F
100
AcDbEntity
  8
1
  6
Continuous
 62
     7
100
AcDbCircle
 10
-58.6132063273335
 20
-65.1979399702632
 30
0.0
 40
2.5
100
AcDbArc
 50
180.0
 51
-90.0
  0
ARC
  5
106
330
1F
100
AcDbEntity
  8
1
  6
Continuous
 62
     7
100
AcDbCircle
 10
-23.61320632733299
 20
-65.19793997026315
 30
0.0
 40
2.5
100
AcDbArc
 50
-90.0
 51
0.0
  0
ARC
  5
107
330
1F
100
AcDbEntity
  8
1
  6
Continuous
 62
     7
100
AcDbCircle
 10
-23.61320632733299
 20
-65.19793997026315
 30
0.0
 40
1.0
100
AcDbArc
 50
-90.0
 51
0.0
  0
ARC
  5
108
330
1F
100
AcDbEntity
  8
1
  6
DASHED
 62
     2
100
AcDbCircle
 10
-34.11320632733307
 20
-62.69793997026321
 30
0.0
 40
2.99999999999998
100
AcDbArc
 50
-80.40593177313947
 51
0.0
  0
ARC
  5
109
330
1F
100
AcDbEntity
  8
1
  6
DASHED
 62
     2
100
AcDbCircle
 10
-34.11320632733307
 20
-62.69793997026321
 30
0.0
 40
3.0
100
AcDbArc
 50
-90.0
 51
-80.40593177313947
  0
ARC
  5
10A
330
1F
100
AcDbEntity
  8
1
  6
DASHED
 62
     2
100
AcDbCircle
 10
-34.11320632733307
 20
-36.69793997026321
 30
0.0
 40
2.999999999999996
100
AcDbArc
 50
0.0
 51
90.0
  0
ARC
  5
10B
330
1F
100
AcDbEntity
  8
1
  6
Continuous
 62
     7
100
AcDbCircle
 10
-53.11320632733307
 20
-34.19793997026321
 30
0.0
 40
2.000000000000015
100
AcDbArc
 50
165.5224878140702
 51
180.0
  0
ARC
  5
10C
330
1F
100
AcDbEntity
  8
1
  6
DASHED
 62
     2
100
AcDbCircle
 10
-53.11320632733307
 20
-34.19793997026321
 30
0.0
 40
0.5
100
AcDbArc
 50
90.0
 51
180.0
  0
ARC
  5
10D
330
1F
100
AcDbEntity
  8
1
  6
Continuous
 62
     7
100
AcDbCircle
 10
-53.11320632733307
 20
-34.19793997026321
 30
0.0
 40
2.0
100
AcDbArc
 50
90.0
 51
165.5224878140702
  0
ARC
  5
10E
330
1F
100
AcDbEntity
  8
1
  6
Continuous
 62
     2
100
AcDbCircle
 10
-30.01320632733311
 20
-42.69793997026321
 30
0.0
 40
1.0
100
AcDbArc
 50
90.0
 51
180.0
  0
ARC
  5
10F
330
1F
100
AcDbEntity
  8
1
  6
Continuous
 62
     2
100
AcDbCircle
 10
-30.01320632733311
 20
-56.69793997026321
 30
0.0
 40
1.0
100
AcDbArc
 50
180.0
 51
-90.0
  0
ARC
  5
110
330
1F
100
AcDbEntity
  8
1
  6
Continuous
 62
     7
100
AcDbCircle
 10
142.1986003432113
 20
-33.62339990768865
 30
0.0
 40
12.0
100
AcDbArc
 50
-90.0
 51
0.0
  0
ARC
  5
111
330
1F
100
AcDbEntity
  8
1
  6
Continuous
 62
     7
100
AcDbCircle
 10
140.1986003432113
 20
-33.62339990768865
 30
0.0
 40
12.0
100
AcDbArc
 50
180.0
 51
-90.0
  0
ARC
  5
112
330
1F
100
AcDbEntity
  8
1
  6
Continuous
 62
     7
100
AcDbCircle
 10
140.1986003432113
 20
44.37660009231139
 30
0.0
 40
11.99999999999996
100
AcDbArc
 50
90.0
 51
180.0
  0
ARC
  5
113
330
1F
100
AcDbEntity
  8
1
  6
Continuous
 62
     7
100
AcDbCircle
 10
142.1986003432113
 20
44.37660009231139
 30
0.0
 40
12.0
100
AcDbArc
 50
0.0
 51
90.0
  0
MTEXT
  5
115
330
1F
100
AcDbEntity
  8
1
 62
     3
100
AcDbMText
 10
-13.59445011864071
 20
-100.7574994986811
 30
0.0
 40
5.0
 41
0.0
 71
     4
 72
     1
  1
Fräsbild\PFlügel
  7
CONVERTER_11
 73
     1
 44
1.32052821128451
  0
MTEXT
  5
116
330
1F
100
AcDbEntity
  8
1
 62
     3
100
AcDbMText
 10
-70.5654894524427
 20
-105.7574994986811
 30
0.0
 40
5.0
 41
0.0
 71
     4
 72
     1
  1
Fräsbild\PStahlzarge\PRahmen
  7
CONVERTER_11
 73
     1
 44
1.32052821128451
  0
MTEXT
  5
117
330
1F
100
AcDbEntity
  8
1
 62
     2
100
AcDbMText
 10
-68.42440575569894
 20
20.67154493409982
 30
0.0
 40
3.5
 41
0.0
 71
     4
 72
     1
  1
Aufnahmeelement\PTE525-3D SZ
  7
CONVERTER_11
 73
     1
 44
1.32052821128451
  0
DIMENSION
  5
124
330
1F
100
AcDbEntity
  8
1
100
AcDbDimension
  2
*D1
 10
-159.3592983114338
 20
-108.487423372669
 30
0.0
 11
-167.027652587566
 21
-104.737423372669
 31
0.0
 70
    32
  1
<>
 71
     5
 42
-1.0
 53
0.00013888888889
  3
ME10_DIM_10
100
AcDbAlignedDimension
 13
-154.3592983114338
 23
-59.02339990768866
 33
0.0
 14
-159.3592983114338
 24
-94.62339990768861
 34
0.0
100
AcDbRotatedDimension
  0
DIMENSION
  5
12F
330
1F
100
AcDbEntity
  8
1
100
AcDbDimension
  2
*D2
 10
-22.61320632733299
 20
1.48654219122906
 30
0.0
 11
-39.3324550086044
 21
5.23654219122906
 31
0.0
 70
    32
  1
<>
 71
     5
 42
-1.0
 53
0.00013888888889
  3
ME10_DIM_11
100
AcDbAlignedDimension
 13
-55.11320632733307
 23
-34.19793997026321
 33
0.0
 14
-22.61320632733299
 24
-10.19793997026323
 34
0.0
100
AcDbRotatedDimension
  0
DIMENSION
  5
13A
330
1F
100
AcDbEntity
  8
1
100
AcDbDimension
  2
*D3
 10
-68.7755987420266
 20
-67.6979399702632
 30
0.0
 11
-72.5255987420266
 21
-48.649921512644
 31
0.0
 70
    32
  1
<>
 71
     5
 42
-1.0
 53
90.0
  3
ME10_DIM_12
100
AcDbAlignedDimension
 13
-53.11320632733307
 23
-32.19793997026321
 33
0.0
 14
-58.6132063273335
 24
-67.6979399702632
 34
0.0
 50
90.0
100
AcDbRotatedDimension
  0
DIMENSION
  5
145
330
1F
100
AcDbEntity
  8
1
100
AcDbDimension
  2
*D4
 10
-21.11320632733296
 20
-79.05532035087067
 30
0.0
 11
-43.4597412637828
 21
-75.30532035087067
 31
0.0
 70
    32
  1
<>
 71
     5
 42
-1.0
 53
0.00013888888889
  3
ME10_DIM_13
100
AcDbAlignedDimension
 13
-61.1132063273335
 23
-65.1979399702632
 33
0.0
 14
-21.11320632733299
 24
-65.19793997026315
 34
0.0
100
AcDbRotatedDimension
  0
DIMENSION
  5
150
330
1F
100
AcDbEntity
  8
1
100
AcDbDimension
  2
*D5
 10
180.56712298079
 20
82.87660009231135
 30
0.0
 11
176.81712298079
 21
7.8280805743713
 31
0.0
 70
    32
  1
<>
 71
     5
 42
-1.0
 53
90.0
  3
ME10_DIM_14
100
AcDbAlignedDimension
 13
141.1986003432113
 23
-72.12339990768865
 33
0.0
 14
141.1986003432113
 24
82.87660009231135
 34
0.0
 50
90.0
100
AcDbRotatedDimension
  0
DIMENSION
  5
15B
330
1F
100
AcDbEntity
  8
1
100
AcDbDimension
  2
*D6
 10
172.981243299206
 20
72.87660009231135
 30
0.0
 11
169.231243299206
 21
9.91598880907338
 31
0.0
 70
    32
  1
<>
 71
     5
 42
-1.0
 53
90.0
  3
ME10_DIM_15
100
AcDbAlignedDimension
 13
149.4486003432113
 23
-62.12339990768865
 33
0.0
 14
149.4486003432113
 24
72.87660009231135
 34
0.0
 50
90.0
100
AcDbRotatedDimension
  0
DIMENSION
  5
166
330
1F
100
AcDbEntity
  8
1
100
AcDbDimension
  2
*D7
 10
165.934205758223
 20
56.37660009231139
 30
0.0
 11
162.184205758223
 21
-0.84344931111359
 31
0.0
 70
    32
  1
<>
 71
     5
 42
-1.0
 53
90.0
  3
ME10_DIM_16
100
AcDbAlignedDimension
 13
142.1986003432113
 23
-45.62339990768865
 33
0.0
 14
142.1986003432113
 24
56.37660009231138
 34
0.0
 50
90.0
100
AcDbRotatedDimension
  0
DIMENSION
  5
171
330
1F
100
AcDbEntity
  8
1
100
AcDbDimension
  2
*D8
 10
135.1986003432113
 20
92.7043589412298
 30
0.0
 11
140.8361144918926
 21
96.4543589412298
 31
0.0
 70
    32
  1
<>
 71
     5
 42
-1.0
 53
0.00013888888889
  3
ME10_DIM_17
100
AcDbAlignedDimension
 13
147.1986003432113
 23
75.12660009231135
 33
0.0
 14
135.1986003432113
 24
65.12660009231135
 34
0.0
100
AcDbRotatedDimension
  0
DIMENSION
  5
17E
330
1F
100
AcDbEntity
  8
1
100
AcDbDimension
  2
*D9
 10
9.7663647008797
 20
-66.6979399702632
 30
0.0
 11
6.0163647008797
 21
-71.958103989833
 31
0.0
 70
    32
  1
<>
 71
     5
 42
-1.0
 53
90.0
  3
ME10_DIM_18
100
AcDbAlignedDimension
 13
18.38679367266665
 23
-62.69793997026342
 33
0.0
 14
27.38679367266684
 24
-66.6979399702632
 34
0.0
 50
90.0
100
AcDbRotatedDimension
  0
DIMENSION
  5
18B
330
1F
100
AcDbEntity
  8
1
100
AcDbDimension
  2
*D10
 10
54.9119338369392
 20
-103.785670014645
 30
0.0
 11
52.20084083533331
 21
-100.035670014645
 31
0.0
 70
    32
  1
<>
 71
     5
 42
-1.0
 53
0.00013888888889
  3
ME10_DIM_19
100
AcDbAlignedDimension
 13
48.9119338369392
 23
-94.62339990768866
 33
0.0
 14
54.9119338369392
 24
-72.12339990768865
 34
0.0
100
AcDbRotatedDimension
  0
DIMENSION
  5
196
330
1F
100
AcDbEntity
  8
1
100
AcDbDimension
  2
*D11
 10
48.91193383693926
 20
-113.493763582592
 30
0.0
 11
66.2157795492997
 21
-109.743763582592
 31
0.0
 70
    32
  1
<>
 71
     5
 42
-1.0
 53
0.00013888888889
  3
ME10_DIM_20
100
AcDbAlignedDimension
 13
86.4119338369392
 23
-45.62339990768863
 33
0.0
 14
48.9119338369392
 24
-72.12339990768865
 34
0.0
100
AcDbRotatedDimension
  0
DIMENSION
  5
1A1
330
1F
100
AcDbEntity
  8
1
100
AcDbDimension
  2
*D12
 10
124.8907394958871
 20
-52.12339990768865
 30
0.0
 11
121.1407394958871
 21
13.0527661725658
 31
0.0
 70
    32
  1
<>
 71
     5
 42
-1.0
 53
90.0
  3
ME10_DIM_21
100
AcDbAlignedDimension
 13
132.9486003432113
 23
62.87660009231135
 33
0.0
 14
132.9486003432113
 24
-52.12339990768865
 34
0.0
 50
90.0
100
AcDbRotatedDimension
  0
DIMENSION
  5
1AC
330
1F
100
AcDbEntity
  8
1
100
AcDbDimension
  2
*D13
 10
-171.133523425262
 20
-72.12339990768865
 30
0.0
 11
-174.883523425262
 21
5.23161300630551
 31
0.0
 70
    32
  1
<>
 71
     5
 42
-1.0
 53
90.0
  3
ME10_DIM_22
100
AcDbAlignedDimension
 13
-141.2592983114338
 23
82.87660009231134
 33
0.0
 14
-141.2592983114338
 24
-72.12339990768865
 34
0.0
 50
90.0
100
AcDbRotatedDimension
  0
DIMENSION
  5
1B9
330
1F
100
AcDbEntity
  8
1
100
AcDbDimension
  2
*D14
 10
158.1986003432113
 20
-103.785670014645
 30
0.0
 11
161.203569999456
 21
-100.035670014645
 31
0.0
 70
    32
  1
<>
 71
     5
 42
-1.0
 53
0.00013888888889
  3
ME10_DIM_23
100
AcDbAlignedDimension
 13
154.1986003432113
 23
-59.12339990768865
 33
0.0
 14
158.1986003432113
 24
-94.62339990768866
 34
0.0
100
AcDbRotatedDimension
  0
DIMENSION
  5
1C4
330
1F
100
AcDbEntity
  8
1
100
AcDbDimension
  2
*D15
 10
154.1986003432113
 20
-103.785670014645
 30
0.0
 11
141.1986003432113
 21
-100.035670014645
 31
0.0
 70
    32
  1
<>
 71
     5
 42
-1.0
 53
0.00013888888889
  3
ME10_DIM_24
100
AcDbAlignedDimension
 13
128.1986003432113
 23
-59.12339990768865
 33
0.0
 14
154.1986003432113
 24
-59.12339990768865
 34
0.0
100
AcDbRotatedDimension
  0
DIMENSION
  5
1CF
330
1F
100
AcDbEntity
  8
1
100
AcDbDimension
  2
*D16
 10
-154.3592983114338
 20
-108.487423372669
 30
0.0
 11
-141.2592983114338
 21
-104.737423372669
 31
0.0
 70
    32
  1
<>
 71
     5
 42
-1.0
 53
0.00013888888889
  3
ME10_DIM_25
100
AcDbAlignedDimension
 13
-128.1592983114338
 23
-59.02339990768866
 33
0.0
 14
-154.3592983114338
 24
-59.02339990768866
 34
0.0
100
AcDbRotatedDimension
  0
INSERT
  5
1D6
330
1F
100
AcDbEntity
  8
1
100
AcDbBlockReference
  2
*D17
 10
0.0
 20
0.0
 30
0.0
  0
INSERT
  5
1DD
330
1F
100
AcDbEntity
  8
1
100
AcDbBlockReference
  2
*D18
 10
0.0
 20
0.0
 30
0.0
  0
INSERT
  5
1E5
330
1F
100
AcDbEntity
  8
1
100
AcDbBlockReference
  2
*D19
 10
0.0
 20
0.0
 30
0.0
  0
ENDSEC
  0
SECTION
  2
OBJECTS
  0
DICTIONARY
  5
C
330
0
100
AcDbDictionary
281
     1
  3
ACAD_GROUP
350
D
  3
ACAD_LAYOUT
350
1A
  3
ACAD_MLINESTYLE
350
17
  3
ACAD_PLOTSETTINGS
350
19
  3
ACAD_PLOTSTYLENAME
350
E
  0
DICTIONARY
  5
D
102
{ACAD_REACTORS
330
C
102
}
330
C
100
AcDbDictionary
281
     1
  0
DICTIONARY
  5
1A
102
{ACAD_REACTORS
330
C
102
}
330
C
100
AcDbDictionary
281
     1
  3
Layout1
350
1E
  3
Layout2
350
26
  3
Model
350
22
  0
DICTIONARY
  5
17
102
{ACAD_REACTORS
330
C
102
}
330
C
100
AcDbDictionary
281
     1
  3
Standard
350
18
  0
DICTIONARY
  5
19
102
{ACAD_REACTORS
330
C
102
}
330
C
100
AcDbDictionary
281
     1
  0
ACDBDICTIONARYWDFLT
  5
E
102
{ACAD_REACTORS
330
C
102
}
330
C
100
AcDbDictionary
281
     1
  3
Normal
350
F
100
AcDbDictionaryWithDefault
340
F
  0
LAYOUT
  5
1E
102
{ACAD_REACTORS
330
1A
102
}
330
1A
100
AcDbPlotSettings
  1

  2

  4

  6

 40
0.0
 41
0.0
 42
0.0
 43
0.0
 44
0.0
 45
0.0
 46
0.0
 47
0.0
 48
0.0
 49
0.0
140
0.0
141
0.0
142
1.0
143
1.0
 70
   688
 72
     0
 73
     0
 74
     5
  7

 75
    16
 76
     0
 77
     2
 78
   300
147
1.0
148
0.0
149
0.0
100
AcDbLayout
  1
Layout1
 70
     1
 71
     1
 10
0.0
 20
0.0
 11
0.0
 21
0.0
 12
0.0
 22
0.0
 32
0.0
 14
0.0
 24
0.0
 34
0.0
 15
0.0
 25
0.0
 35
0.0
146
0.0
 13
0.0
 23
0.0
 33
0.0
 16
1.0
 26
0.0
 36
0.0
 17
0.0
 27
1.0
 37
0.0
 76
     0
330
1B
  0
LAYOUT
  5
26
102
{ACAD_REACTORS
330
1A
102
}
330
1A
100
AcDbPlotSettings
  1

  2

  4

  6

 40
0.0
 41
0.0
 42
0.0
 43
0.0
 44
0.0
 45
0.0
 46
0.0
 47
0.0
 48
0.0
 49
0.0
140
0.0
141
0.0
142
1.0
143
1.0
 70
   688
 72
     0
 73
     0
 74
     5
  7

 75
    16
 76
     0
 77
     2
 78
   300
147
1.0
148
0.0
149
0.0
100
AcDbLayout
  1
Layout2
 70
     1
 71
     2
 10
0.0
 20
0.0
 11
0.0
 21
0.0
 12
0.0
 22
0.0
 32
0.0
 14
0.0
 24
0.0
 34
0.0
 15
0.0
 25
0.0
 35
0.0
146
0.0
 13
0.0
 23
0.0
 33
0.0
 16
1.0
 26
0.0
 36
0.0
 17
0.0
 27
1.0
 37
0.0
 76
     0
330
23
  0
LAYOUT
  5
22
102
{ACAD_REACTORS
330
1A
102
}
330
1A
100
AcDbPlotSettings
  1

  2

  4

  6

 40
0.0
 41
0.0
 42
0.0
 43
0.0
 44
0.0
 45
0.0
 46
0.0
 47
0.0
 48
0.0
 49
0.0
140
0.0
141
0.0
142
1.0
143
1.0
 70
  1712
 72
     0
 73
     0
 74
     0
  7

 75
     0
 76
     0
 77
     2
 78
   300
147
1.0
148
0.0
149
0.0
100
AcDbLayout
  1
Model
 70
     1
 71
     0
 10
0.0
 20
0.0
 11
0.0
 21
0.0
 12
0.0
 22
0.0
 32
0.0
 14
-176.633523425262
 24
-119.2574994986811
 34
0.0
 15
182.56712298079
 25
107.4193999621323
 35
0.0
146
0.0
 13
0.0
 23
0.0
 33
0.0
 16
1.0
 26
0.0
 36
0.0
 17
0.0
 27
1.0
 37
0.0
 76
     0
330
1F
  0
MLINESTYLE
  5
18
102
{ACAD_REACTORS
330
17
102
}
330
17
100
AcDbMlineStyle
  2
Standard
 70
     0
  3

 62
   256
 51
90.0
 52
90.0
 71
     2
 49
0.5
 62
   256
  6
BYLAYER
 49
-0.5
 62
   256
  6
BYLAYER
  0
ACDBPLACEHOLDER
  5
F
102
{ACAD_REACTORS
330
E
102
}
330
E
  0
ENDSEC
  0
EOF
