  0
SECTION
  2
HEADER
  9
$ACADVER
  1
AC1018
  9
$ACADMAINTVER
 70
     0
  9
$DWGCODEPAGE
  3
ANSI_1252
  9
$INSBASE
 10
0.0
 20
0.0
 30
0.0
  9
$EXTMIN
 10
158.241390300947
 20
-21.2689912949453
 30
0.0
  9
$EXTMAX
 10
262.953192516357
 20
96.47581162456683
 30
0.0
  9
$LIMMIN
 10
0.0
 20
0.0
  9
$LIMMAX
 10
12.0
 20
9.0
  9
$ORTHOMODE
 70
     0
  9
$REGENMODE
 70
     1
  9
$FILLMODE
 70
     1
  9
$QTEXTMODE
 70
     0
  9
$MIRRTEXT
 70
     1
  9
$LTSCALE
 40
1.0
  9
$ATTMODE
 70
     1
  9
$TEXTSIZE
 40
0.2
  9
$TRACEWID
 40
0.05
  9
$TEXTSTYLE
  7
Standard
  9
$CLAYER
  8
0
  9
$CELTYPE
  6
ByLayer
  9
$CECOLOR
 62
   256
  9
$CELTSCALE
 40
1.0
  9
$DISPSILH
 70
     0
  9
$DIMSCALE
 40
1.0
  9
$DIMASZ
 40
0.18
  9
$DIMEXO
 40
0.0625
  9
$DIMDLI
 40
0.38
  9
$DIMRND
 40
0.0
  9
$DIMDLE
 40
0.0
  9
$DIMEXE
 40
0.18
  9
$DIMTP
 40
0.0
  9
$DIMTM
 40
0.0
  9
$DIMTXT
 40
0.18
  9
$DIMCEN
 40
0.09
  9
$DIMTSZ
 40
0.0
  9
$DIMTOL
 70
     0
  9
$DIMLIM
 70
     0
  9
$DIMTIH
 70
     1
  9
$DIMTOH
 70
     1
  9
$DIMSE1
 70
     0
  9
$DIMSE2
 70
     0
  9
$DIMTAD
 70
     0
  9
$DIMZIN
 70
     0
  9
$DIMBLK
  1

  9
$DIMASO
 70
     1
  9
$DIMSHO
 70
     1
  9
$DIMPOST
  1

  9
$DIMAPOST
  1

  9
$DIMALT
 70
     0
  9
$DIMALTD
 70
     2
  9
$DIMALTF
 40
25.4
  9
$DIMLFAC
 40
1.0
  9
$DIMTOFL
 70
     0
  9
$DIMTVP
 40
0.0
  9
$DIMTIX
 70
     0
  9
$DIMSOXD
 70
     0
  9
$DIMSAH
 70
     0
  9
$DIMBLK1
  1

  9
$DIMBLK2
  1

  9
$DIMSTYLE
  2
Standard
  9
$DIMCLRD
 70
     0
  9
$DIMCLRE
 70
     0
  9
$DIMCLRT
 70
     0
  9
$DIMTFAC
 40
1.0
  9
$DIMGAP
 40
0.09
  9
$DIMJUST
 70
     0
  9
$DIMSD1
 70
     0
  9
$DIMSD2
 70
     0
  9
$DIMTOLJ
 70
     1
  9
$DIMTZIN
 70
     0
  9
$DIMALTZ
 70
     0
  9
$DIMALTTZ
 70
     0
  9
$DIMUPT
 70
     0
  9
$DIMDEC
 70
     4
  9
$DIMTDEC
 70
     4
  9
$DIMALTU
 70
     2
  9
$DIMALTTD
 70
     2
  9
$DIMTXSTY
  7
Standard
  9
$DIMAUNIT
 70
     0
  9
$DIMADEC
 70
     0
  9
$DIMALTRND
 40
0.0
  9
$DIMAZIN
 70
     0
  9
$DIMDSEP
 70
    46
  9
$DIMATFIT
 70
     3
  9
$DIMFRAC
 70
     0
  9
$DIMLDRBLK
  1

  9
$DIMLUNIT
 70
     2
  9
$DIMLWD
 70
    -2
  9
$DIMLWE
 70
    -2
  9
$DIMTMOVE
 70
     0
  9
$LUNITS
 70
     2
  9
$LUPREC
 70
     4
  9
$SKETCHINC
 40
0.1
  9
$FILLETRAD
 40
0.5
  9
$AUNITS
 70
     0
  9
$AUPREC
 70
     0
  9
$MENU
  1
.
  9
$ELEVATION
 40
0.0
  9
$PELEVATION
 40
0.0
  9
$THICKNESS
 40
0.0
  9
$LIMCHECK
 70
     0
  9
$CHAMFERA
 40
0.5
  9
$CHAMFERB
 40
0.5
  9
$CHAMFERC
 40
1.0
  9
$CHAMFERD
 40
0.0
  9
$SKPOLY
 70
     0
  9
$TDCREATE
 40
2455845.502177176
  9
$TDUCREATE
 40
2455845.418843843
  9
$TDUPDATE
 40
2455845.502177188
  9
$TDUUPDATE
 40
2455845.418843854
  9
$TDINDWG
 40
0.0000000116
  9
$TDUSRTIMER
 40
0.0000000116
  9
$USRTIMER
 70
     1
  9
$ANGBASE
 50
0.0
  9
$ANGDIR
 70
     0
  9
$PDMODE
 70
     0
  9
$PDSIZE
 40
0.0
  9
$PLINEWID
 40
0.0
  9
$SPLFRAME
 70
     0
  9
$SPLINETYPE
 70
     6
  9
$SPLINESEGS
 70
     8
  9
$HANDSEED
  5
14B
  9
$SURFTAB1
 70
     6
  9
$SURFTAB2
 70
     6
  9
$SURFTYPE
 70
     6
  9
$SURFU
 70
     6
  9
$SURFV
 70
     6
  9
$UCSBASE
  2

  9
$UCSNAME
  2

  9
$UCSORG
 10
0.0
 20
0.0
 30
0.0
  9
$UCSXDIR
 10
1.0
 20
0.0
 30
0.0
  9
$UCSYDIR
 10
0.0
 20
1.0
 30
0.0
  9
$UCSORTHOREF
  2

  9
$UCSORTHOVIEW
 70
     0
  9
$UCSORGTOP
 10
0.0
 20
0.0
 30
0.0
  9
$UCSORGBOTTOM
 10
0.0
 20
0.0
 30
0.0
  9
$UCSORGLEFT
 10
0.0
 20
0.0
 30
0.0
  9
$UCSORGRIGHT
 10
0.0
 20
0.0
 30
0.0
  9
$UCSORGFRONT
 10
0.0
 20
0.0
 30
0.0
  9
$UCSORGBACK
 10
0.0
 20
0.0
 30
0.0
  9
$PUCSBASE
  2

  9
$PUCSNAME
  2

  9
$PUCSORG
 10
0.0
 20
0.0
 30
0.0
  9
$PUCSXDIR
 10
1.0
 20
0.0
 30
0.0
  9
$PUCSYDIR
 10
0.0
 20
1.0
 30
0.0
  9
$PUCSORTHOREF
  2

  9
$PUCSORTHOVIEW
 70
     0
  9
$PUCSORGTOP
 10
0.0
 20
0.0
 30
0.0
  9
$PUCSORGBOTTOM
 10
0.0
 20
0.0
 30
0.0
  9
$PUCSORGLEFT
 10
0.0
 20
0.0
 30
0.0
  9
$PUCSORGRIGHT
 10
0.0
 20
0.0
 30
0.0
  9
$PUCSORGFRONT
 10
0.0
 20
0.0
 30
0.0
  9
$PUCSORGBACK
 10
0.0
 20
0.0
 30
0.0
  9
$USERI1
 70
     0
  9
$USERI2
 70
     0
  9
$USERI3
 70
     0
  9
$USERI4
 70
     0
  9
$USERI5
 70
     0
  9
$USERR1
 40
14.5
  9
$USERR2
 40
0.0
  9
$USERR3
 40
0.0
  9
$USERR4
 40
0.0
  9
$USERR5
 40
0.0
  9
$WORLDVIEW
 70
     1
  9
$SHADEDGE
 70
     3
  9
$SHADEDIF
 70
    70
  9
$TILEMODE
 70
     1
  9
$MAXACTVP
 70
    64
  9
$PINSBASE
 10
0.0
 20
0.0
 30
0.0
  9
$PLIMCHECK
 70
     0
  9
$PEXTMIN
 10
1.00000000000000E+20
 20
1.00000000000000E+20
 30
1.00000000000000E+20
  9
$PEXTMAX
 10
-1.00000000000000E+20
 20
-1.00000000000000E+20
 30
-1.00000000000000E+20
  9
$PLIMMIN
 10
0.0
 20
0.0
  9
$PLIMMAX
 10
12.0
 20
9.0
  9
$UNITMODE
 70
     0
  9
$VISRETAIN
 70
     1
  9
$PLINEGEN
 70
     0
  9
$PSLTSCALE
 70
     1
  9
$TREEDEPTH
 70
  3020
  9
$CMLSTYLE
  2
Standard
  9
$CMLJUST
 70
     0
  9
$CMLSCALE
 40
1.0
  9
$PROXYGRAPHICS
 70
     1
  9
$MEASUREMENT
 70
     1
  9
$CELWEIGHT
370
    -1
  9
$ENDCAPS
280
     0
  9
$JOINSTYLE
280
     0
  9
$LWDISPLAY
290
     0
  9
$INSUNITS
 70
     1
  9
$HYPERLINKBASE
  1

  9
$STYLESHEET
  1

  9
$XEDIT
290
     1
  9
$CEPSNTYPE
380
     0
  9
$PSTYLEMODE
290
     1
  9
$FINGERPRINTGUID
  2
{C081B8D6-58B3-4FA1-9171-DAFE6A554419}
  9
$VERSIONGUID
  2
{FAEB1C32-E019-11D5-929B-00C0DF256EC4}
  9
$EXTNAMES
290
     1
  9
$PSVPSCALE
 40
0.0
  9
$OLESTARTUP
290
     0
  9
$SORTENTS
280
   127
  9
$INDEXCTL
280
     0
  9
$HIDETEXT
280
     1
  9
$XCLIPFRAME
290
     0
  9
$HALOGAP
280
     0
  9
$OBSCOLOR
 70
   257
  9
$OBSLTYPE
280
     0
  9
$INTERSECTIONDISPLAY
280
     0
  9
$INTERSECTIONCOLOR
 70
   257
  9
$DIMASSOC
280
     2
  9
$PROJECTNAME
  1

  0
ENDSEC
  0
SECTION
  2
CLASSES
  0
CLASS
  1
ACDBDICTIONARYWDFLT
  2
AcDbDictionaryWithDefault
  3
ObjectDBX Classes
 90
        0
 91
        3
280
     0
281
     0
  0
CLASS
  1

  2
exOdDbCircle
  3

 90
        0
 91
        3
280
     0
281
     1
  0
ENDSEC
  0
SECTION
  2
TABLES
  0
TABLE
  2
VPORT
  5
8
330
0
100
AcDbSymbolTable
 70
     1
  0
VPORT
  5
29
330
8
100
AcDbSymbolTableRecord
100
AcDbViewportTableRecord
  2
*Active
 70
     0
 10
0.0
 20
0.0
 11
1.0
 21
1.0
 12
210.597291408652
 22
37.60341016481077
 13
0.0
 23
0.0
 14
0.5
 24
0.5
 15
0.5
 25
0.5
 16
0.0
 26
0.0
 36
1.0
 17
0.0
 27
0.0
 37
0.0
 40
129.5192832114633
 41
1.60267857142857
 42
50.0
 43
0.0
 44
0.0
 50
0.0
 51
0.0
 71
     0
 72
   100
 73
     1
 74
     3
 75
     0
 76
     0
 77
     0
 78
     0
281
     0
 65
     1
110
0.0
120
0.0
130
0.0
111
1.0
121
0.0
131
0.0
112
0.0
122
1.0
132
0.0
 79
     0
146
0.0
  0
ENDTAB
  0
TABLE
  2
LTYPE
  5
5
330
0
100
AcDbSymbolTable
 70
     8
  0
LTYPE
  5
14
330
5
100
AcDbSymbolTableRecord
100
AcDbLinetypeTableRecord
  2
ByBlock
 70
     0
  3

 72
    65
 73
     0
 40
0.0
  0
LTYPE
  5
15
330
5
100
AcDbSymbolTableRecord
100
AcDbLinetypeTableRecord
  2
ByLayer
 70
     0
  3

 72
    65
 73
     0
 40
0.0
  0
LTYPE
  5
16
330
5
100
AcDbSymbolTableRecord
100
AcDbLinetypeTableRecord
  2
Continuous
 70
     0
  3
Solid line
 72
    65
 73
     0
 40
0.0
  0
LTYPE
  5
2A
330
5
100
AcDbSymbolTableRecord
100
AcDbLinetypeTableRecord
  2
DASHED
 70
     0
  3
Dashed
 72
    65
 73
     2
 40
15.0
 49
7.0
 74
     0
 49
-8.0
 74
     0
  0
LTYPE
  5
2B
330
5
100
AcDbSymbolTableRecord
100
AcDbLinetypeTableRecord
  2
DOTTED
 70
     0
  3
Dotted
 72
    65
 73
     2
 40
1.0
 49
0.0
 74
     0
 49
-1.0
 74
     0
  0
LTYPE
  5
2C
330
5
100
AcDbSymbolTableRecord
100
AcDbLinetypeTableRecord
  2
DOT_CENTER
 70
     0
  3
Dot_Center
 72
    65
 73
     4
 40
14.0
 49
12.0
 74
     0
 49
-1.0
 74
     0
 49
0.0
 74
     0
 49
-1.0
 74
     0
  0
LTYPE
  5
2D
330
5
100
AcDbSymbolTableRecord
100
AcDbLinetypeTableRecord
  2
LONG_DASHED
 70
     0
  3
Long_Dashed
 72
    65
 73
     2
 40
15.0
 49
10.0
 74
     0
 49
-5.0
 74
     0
  0
LTYPE
  5
2E
330
5
100
AcDbSymbolTableRecord
100
AcDbLinetypeTableRecord
  2
DASH_CENTER
 70
     0
  3
Dash_Center
 72
    65
 73
     4
 40
14.0
 49
11.0
 74
     0
 49
-1.0
 74
     0
 49
1.0
 74
     0
 49
-1.0
 74
     0
  0
LTYPE
  5
2F
330
5
100
AcDbSymbolTableRecord
100
AcDbLinetypeTableRecord
  2
PHANTOM
 70
     0
  3
Phantom
 72
    65
 73
     6
 40
13.0
 49
10.0
 74
     0
 49
-1.0
 74
     0
 49
0.0
 74
     0
 49
-1.0
 74
     0
 49
0.0
 74
     0
 49
-1.0
 74
     0
  0
LTYPE
  5
30
330
5
100
AcDbSymbolTableRecord
100
AcDbLinetypeTableRecord
  2
CENTER_DASH_DASH
 70
     0
  3
Center_Dash_Dash
 72
    65
 73
     6
 40
14.0
 49
9.0
 74
     0
 49
-1.0
 74
     0
 49
1.0
 74
     0
 49
-1.0
 74
     0
 49
1.0
 74
     0
 49
-1.0
 74
     0
  0
ENDTAB
  0
TABLE
  2
LAYER
  5
2
330
0
100
AcDbSymbolTable
 70
     2
  0
LAYER
  5
10
330
2
100
AcDbSymbolTableRecord
100
AcDbLayerTableRecord
  2
0
 70
     0
 62
     7
  6
Continuous
370
    -3
390
F
  0
LAYER
  5
31
330
2
100
AcDbSymbolTableRecord
100
AcDbLayerTableRecord
  2
1
 70
     0
 62
     7
  6
Continuous
370
    -3
390
F
  0
ENDTAB
  0
TABLE
  2
STYLE
  5
3
330
0
100
AcDbSymbolTable
 70
     2
  0
STYLE
  5
11
330
3
100
AcDbSymbolTableRecord
100
AcDbTextStyleTableRecord
  2
Standard
 70
     0
 40
0.0
 41
1.0
 50
0.0
 71
     0
 42
0.2
  3
txt
  4

  0
STYLE
  5
115
330
3
100
AcDbSymbolTableRecord
100
AcDbTextStyleTableRecord
  2
CONVERTER_11
 70
     0
 40
0.0
 41
0.9
 50
0.0
 71
     0
 42
0.2
  3
txt.shx
  4

  0
ENDTAB
  0
TABLE
  2
VIEW
  5
6
330
0
100
AcDbSymbolTable
 70
     0
  0
ENDTAB
  0
TABLE
  2
UCS
  5
7
330
0
100
AcDbSymbolTable
 70
     0
  0
ENDTAB
  0
TABLE
  2
APPID
  5
9
330
0
100
AcDbSymbolTable
 70
     1
  0
APPID
  5
12
330
9
100
AcDbSymbolTableRecord
100
AcDbRegAppTableRecord
  2
ACAD
 70
     0
  0
ENDTAB
  0
TABLE
  2
DIMSTYLE
  5
A
330
0
100
AcDbSymbolTable
 70
     6
100
AcDbDimStyleTable
  0
DIMSTYLE
105
27
330
A
100
AcDbSymbolTableRecord
100
AcDbDimStyleTableRecord
  2
Standard
 70
     0
340
11
  0
DIMSTYLE
105
119
102
{ACAD_REACTORS
330
11A
102
}
330
A
100
AcDbSymbolTableRecord
100
AcDbDimStyleTableRecord
  2
ME10_DIM_10
 70
     0
 41
3.5
 42
0.0
 44
2.0
 73
     0
 74
     0
 77
     1
 78
     8
140
3.5
147
2.0
172
     1
173
     1
176
     2
177
     2
178
     2
271
     3
340
115
  0
DIMSTYLE
105
124
102
{ACAD_REACTORS
330
125
102
}
330
A
100
AcDbSymbolTableRecord
100
AcDbDimStyleTableRecord
  2
ME10_DIM_11
 70
     0
 41
3.5
 42
0.0
 44
2.0
 73
     0
 74
     0
 77
     1
 78
     8
140
3.5
147
2.0
172
     1
173
     1
176
     2
177
     2
178
     2
271
     3
340
115
  0
DIMSTYLE
105
131
102
{ACAD_REACTORS
330
132
102
}
330
A
100
AcDbSymbolTableRecord
100
AcDbDimStyleTableRecord
  2
ME10_DIM_12
 70
     0
 41
3.5
 42
0.0
 44
2.0
 73
     0
 74
     0
 77
     1
 78
     8
140
3.5
147
2.0
172
     1
173
     1
176
     2
177
     2
178
     2
271
     3
340
115
  0
DIMSTYLE
105
13E
102
{ACAD_REACTORS
330
13F
102
}
330
A
100
AcDbSymbolTableRecord
100
AcDbDimStyleTableRecord
  2
ME10_DIM_13
 70
     0
 41
3.5
 42
0.0
 44
2.0
 73
     0
 74
     0
 77
     1
 78
     8
140
3.5
147
2.0
172
     1
173
     1
176
     2
177
     2
178
     2
271
     3
340
115
  0
DIMSTYLE
105
149
102
{ACAD_REACTORS
330
14A
102
}
330
A
100
AcDbSymbolTableRecord
100
AcDbDimStyleTableRecord
  2
ME10_DIM_14
 70
     0
 41
3.5
 42
0.0
 44
2.0
 73
     0
 74
     0
 77
     1
 78
     8
140
3.5
147
2.0
172
     1
173
     1
176
     2
177
     2
178
     2
271
     3
340
115
  0
ENDTAB
  0
TABLE
  2
BLOCK_RECORD
  5
1
330
0
100
AcDbSymbolTable
 70
     6
  0
BLOCK_RECORD
  5
1F
330
1
100
AcDbSymbolTableRecord
100
AcDbBlockTableRecord
  2
*Model_Space
340
22
  0
BLOCK_RECORD
  5
1B
330
1
100
AcDbSymbolTableRecord
100
AcDbBlockTableRecord
  2
*Paper_Space
340
1E
  0
BLOCK_RECORD
  5
23
330
1
100
AcDbSymbolTableRecord
100
AcDbBlockTableRecord
  2
*Paper_Space0
340
26
  0
BLOCK_RECORD
  5
10F
330
1
100
AcDbSymbolTableRecord
100
AcDbBlockTableRecord
  2
*D1
340
0
  0
BLOCK_RECORD
  5
11B
330
1
100
AcDbSymbolTableRecord
100
AcDbBlockTableRecord
  2
*D2
340
0
  0
BLOCK_RECORD
  5
126
330
1
100
AcDbSymbolTableRecord
100
AcDbBlockTableRecord
  2
*D3
340
0
  0
BLOCK_RECORD
  5
133
330
1
100
AcDbSymbolTableRecord
100
AcDbBlockTableRecord
  2
*D4
340
0
  0
BLOCK_RECORD
  5
140
330
1
100
AcDbSymbolTableRecord
100
AcDbBlockTableRecord
  2
*D5
340
0
  0
ENDTAB
  0
ENDSEC
  0
SECTION
  2
BLOCKS
  0
BLOCK
  5
20
330
1F
100
AcDbEntity
  8
0
100
AcDbBlockBegin
  2
*Model_Space
 70
     0
 71
     0
 10
0.0
 20
0.0
 30
0.0
  3
*Model_Space
  1

  0
ENDBLK
  5
21
330
1F
100
AcDbEntity
  8
0
100
AcDbBlockEnd
  0
BLOCK
  5
1C
330
1B
100
AcDbEntity
 67
     1
  8
0
100
AcDbBlockBegin
  2
*Paper_Space
 70
     0
 71
     0
 10
0.0
 20
0.0
 30
0.0
  3
*Paper_Space
  1

  0
ENDBLK
  5
1D
330
1B
100
AcDbEntity
 67
     1
  8
0
100
AcDbBlockEnd
  0
BLOCK
  5
24
330
23
100
AcDbEntity
  8
0
100
AcDbBlockBegin
  2
*Paper_Space0
 70
     0
 71
     0
 10
0.0
 20
0.0
 30
0.0
  3
*Paper_Space0
  1

  0
ENDBLK
  5
25
330
23
100
AcDbEntity
  8
0
100
AcDbBlockEnd
  0
BLOCK
  5
117
330
10F
100
AcDbEntity
  8
0
100
AcDbBlockBegin
  2
*D1
 70
     1
 71
     0
 10
0.0
 20
0.0
 30
0.0
  3
*D1
  1

  0
LINE
  5
110
330
10F
100
AcDbEntity
  8
1
  6
Continuous
 62
     2
100
AcDbLine
 10
206.741390300947
 20
-14.2765303809574
 30
0.0
 11
244.241390300947
 21
-14.2765303809574
 31
0.0
  0
LINE
  5
111
330
10F
100
AcDbEntity
  8
1
  6
Continuous
 62
     2
100
AcDbLine
 10
244.241390300947
 20
0.47581162456632
 30
0.0
 11
244.241390300947
 21
-16.2765303809574
 31
0.0
  0
LINE
  5
112
330
10F
100
AcDbEntity
  8
1
  6
Continuous
 62
     2
100
AcDbLine
 10
206.741390300947
 20
-3.52418837543325
 30
0.0
 11
206.741390300947
 21
-16.2765303809574
 31
0.0
  0
SOLID
  5
113
330
10F
100
AcDbEntity
  8
1
 62
     2
100
AcDbTrace
 10
210.241390300947
 20
-13.81574663940151
 30
0.0
 11
210.241390300947
 21
-14.73731412251329
 31
0.0
 12
206.741390300947
 22
-14.2765303809574
 32
0.0
 13
206.741390300947
 23
-14.2765303809574
 33
0.0
  0
SOLID
  5
114
330
10F
100
AcDbEntity
  8
1
 62
     2
100
AcDbTrace
 10
240.741390300947
 20
-14.73731412251328
 30
0.0
 11
240.741390300947
 21
-13.81574663940151
 31
0.0
 12
244.241390300947
 22
-14.2765303809574
 32
0.0
 13
244.241390300947
 23
-14.2765303809574
 33
0.0
  0
MTEXT
  5
116
330
10F
100
AcDbEntity
  8
1
 62
     2
100
AcDbMText
 10
219.704838129659
 20
-12.2765303809574
 30
0.0
 40
3.5
 41
0.0
 71
     7
 72
     1
  1
37.5
  7
CONVERTER_11
 11
0.9999999999970621
 21
2.424068405545307E-6
 31
0.0
 73
     1
 44
0.60024009603842
  0
ENDBLK
  5
118
330
10F
100
AcDbEntity
  8
0
100
AcDbBlockEnd
  0
BLOCK
  5
122
330
11B
100
AcDbEntity
  8
0
100
AcDbBlockBegin
  2
*D2
 70
     1
 71
     0
 10
0.0
 20
0.0
 30
0.0
  3
*D2
  1

  0
LINE
  5
11C
330
11B
100
AcDbEntity
  8
1
  6
Continuous
 62
     2
100
AcDbLine
 10
170.2413903009468
 20
-14.2765303809574
 30
0.0
 11
203.241390300947
 21
-14.2765303809574
 31
0.0
  0
LINE
  5
11D
330
11B
100
AcDbEntity
  8
1
  6
Continuous
 62
     2
100
AcDbLine
 10
203.241390300947
 20
1.47581162456667
 30
0.0
 11
203.241390300947
 21
-16.2765303809574
 31
0.0
  0
LINE
  5
11E
330
11B
100
AcDbEntity
  8
1
  6
Continuous
 62
     2
100
AcDbLine
 10
170.2413903009468
 20
0.47581162456663
 30
0.0
 11
170.2413903009468
 21
-16.2765303809574
 31
0.0
  0
SOLID
  5
11F
330
11B
100
AcDbEntity
  8
1
 62
     2
100
AcDbTrace
 10
173.7413903009468
 20
-13.81574663940151
 30
0.0
 11
173.7413903009468
 21
-14.73731412251329
 31
0.0
 12
170.2413903009468
 22
-14.2765303809574
 32
0.0
 13
170.2413903009468
 23
-14.2765303809574
 33
0.0
  0
SOLID
  5
120
330
11B
100
AcDbEntity
  8
1
 62
     2
100
AcDbTrace
 10
199.741390300947
 20
-14.73731412251328
 30
0.0
 11
199.741390300947
 21
-13.81574663940151
 31
0.0
 12
203.241390300947
 22
-14.2765303809574
 32
0.0
 13
203.241390300947
 23
-14.2765303809574
 33
0.0
  0
MTEXT
  5
121
330
11B
100
AcDbEntity
  8
1
 62
     2
100
AcDbMText
 10
181.953917914033
 20
-12.2765303809574
 30
0.0
 40
3.5
 41
0.0
 71
     7
 72
     1
  1
33
  7
CONVERTER_11
 11
0.9999999999970621
 21
2.424068405545307E-6
 31
0.0
 73
     1
 44
0.60024009603842
  0
ENDBLK
  5
123
330
11B
100
AcDbEntity
  8
0
100
AcDbBlockEnd
  0
BLOCK
  5
12F
330
126
100
AcDbEntity
  8
0
100
AcDbBlockBegin
  2
*D3
 70
     1
 71
     0
 10
0.0
 20
0.0
 30
0.0
  3
*D3
  1

  0
LINE
  5
127
330
126
100
AcDbEntity
  8
1
  6
Continuous
 62
     2
100
AcDbLine
 10
206.741390300947
 20
-14.2765303809574
 30
0.0
 11
213.741390300947
 21
-14.2765303809574
 31
0.0
  0
LINE
  5
128
330
126
100
AcDbEntity
  8
1
  6
Continuous
 62
     2
100
AcDbLine
 10
203.241390300947
 20
-14.2765303809574
 30
0.0
 11
206.741390300947
 21
-14.2765303809574
 31
0.0
  0
LINE
  5
129
330
126
100
AcDbEntity
  8
1
  6
Continuous
 62
     2
100
AcDbLine
 10
196.241390300947
 20
-14.2765303809574
 30
0.0
 11
203.241390300947
 21
-14.2765303809574
 31
0.0
  0
LINE
  5
12A
330
126
100
AcDbEntity
  8
1
  6
Continuous
 62
     2
100
AcDbLine
 10
206.741390300947
 20
-3.52418837543324
 30
0.0
 11
206.741390300947
 21
-16.2765303809574
 31
0.0
  0
LINE
  5
12B
330
126
100
AcDbEntity
  8
1
  6
Continuous
 62
     2
100
AcDbLine
 10
203.241390300947
 20
1.47581162456668
 30
0.0
 11
203.241390300947
 21
-16.2765303809574
 31
0.0
  0
SOLID
  5
12C
330
126
100
AcDbEntity
  8
1
 62
     2
100
AcDbTrace
 10
199.741390300947
 20
-14.73731412251328
 30
0.0
 11
199.741390300947
 21
-13.81574663940151
 31
0.0
 12
203.241390300947
 22
-14.2765303809574
 32
0.0
 13
203.241390300947
 23
-14.2765303809574
 33
0.0
  0
SOLID
  5
12D
330
126
100
AcDbEntity
  8
1
 62
     2
100
AcDbTrace
 10
210.241390300947
 20
-13.81574663940151
 30
0.0
 11
210.241390300947
 21
-14.73731412251329
 31
0.0
 12
206.741390300947
 22
-14.2765303809574
 32
0.0
 13
206.741390300947
 23
-14.2765303809574
 33
0.0
  0
MTEXT
  5
12E
330
126
100
AcDbEntity
  8
1
 62
     2
100
AcDbMText
 10
201.797640300947
 20
-21.2689912949453
 30
0.0
 40
3.5
 41
0.0
 71
     7
 72
     1
  1
3.5
  7
CONVERTER_11
 11
0.9999999999970621
 21
2.424068405545307E-6
 31
0.0
 73
     1
 44
0.60024009603842
  0
ENDBLK
  5
130
330
126
100
AcDbEntity
  8
0
100
AcDbBlockEnd
  0
BLOCK
  5
13C
330
133
100
AcDbEntity
  8
0
100
AcDbBlockBegin
  2
*D4
 70
     1
 71
     0
 10
0.0
 20
0.0
 30
0.0
  3
*D4
  1

  0
LINE
  5
134
330
133
100
AcDbEntity
  8
1
  6
Continuous
 62
     2
100
AcDbLine
 10
260.953192516357
 20
0.47581162456635
 30
0.0
 11
260.953192516357
 21
7.47581162456635
 31
0.0
  0
LINE
  5
135
330
133
100
AcDbEntity
  8
1
  6
Continuous
 62
     2
100
AcDbLine
 10
260.953192516357
 20
-3.52418837543325
 30
0.0
 11
260.953192516357
 21
0.47581162456635
 31
0.0
  0
LINE
  5
136
330
133
100
AcDbEntity
  8
1
  6
Continuous
 62
     2
100
AcDbLine
 10
260.953192516357
 20
-10.52418837543325
 30
0.0
 11
260.953192516357
 21
-3.52418837543325
 31
0.0
  0
LINE
  5
137
330
133
100
AcDbEntity
  8
1
  6
Continuous
 62
     2
100
AcDbLine
 10
242.241390300947
 20
0.47581162456635
 30
0.0
 11
262.953192516357
 21
0.47581162456635
 31
0.0
  0
LINE
  5
138
330
133
100
AcDbEntity
  8
1
  6
Continuous
 62
     2
100
AcDbLine
 10
251.7413903009472
 20
-3.52418837543325
 30
0.0
 11
262.953192516357
 21
-3.52418837543325
 31
0.0
  0
SOLID
  5
139
330
133
100
AcDbEntity
  8
1
 62
     2
100
AcDbTrace
 10
261.4139762579129
 20
-7.02418837543325
 30
0.0
 11
260.4924087748011
 21
-7.02418837543325
 31
0.0
 12
260.953192516357
 22
-3.52418837543325
 32
0.0
 13
260.953192516357
 23
-3.52418837543325
 33
0.0
  0
SOLID
  5
13A
330
133
100
AcDbEntity
  8
1
 62
     2
100
AcDbTrace
 10
260.4924087748011
 20
3.97581162456635
 30
0.0
 11
261.4139762579129
 21
3.97581162456635
 31
0.0
 12
260.953192516357
 22
0.47581162456635
 32
0.0
 13
260.953192516357
 23
0.47581162456635
 33
0.0
  0
MTEXT
  5
13B
330
133
100
AcDbEntity
  8
1
 62
     2
100
AcDbMText
 10
258.953192516357
 20
-2.6462766982167
 30
0.0
 40
3.5
 41
0.0
 71
     7
 72
     1
  1
4
  7
CONVERTER_11
 11
0.0
 21
1.0
 31
0.0
 73
     1
 44
0.60024009603842
  0
ENDBLK
  5
13D
330
133
100
AcDbEntity
  8
0
100
AcDbBlockEnd
  0
BLOCK
  5
147
330
140
100
AcDbEntity
  8
0
100
AcDbBlockBegin
  2
*D5
 70
     1
 71
     0
 10
0.0
 20
0.0
 30
0.0
  3
*D5
  1

  0
LINE
  5
141
330
140
100
AcDbEntity
  8
1
  6
Continuous
 62
     2
100
AcDbLine
 10
260.953192516357
 20
0.47581162456635
 30
0.0
 11
260.953192516357
 21
26.47581162456658
 31
0.0
  0
LINE
  5
142
330
140
100
AcDbEntity
  8
1
  6
Continuous
 62
     2
100
AcDbLine
 10
244.241390300947
 20
26.47581162456658
 30
0.0
 11
262.953192516357
 21
26.47581162456658
 31
0.0
  0
LINE
  5
143
330
140
100
AcDbEntity
  8
1
  6
Continuous
 62
     2
100
AcDbLine
 10
242.241390300947
 20
0.47581162456635
 30
0.0
 11
262.953192516357
 21
0.47581162456635
 31
0.0
  0
SOLID
  5
144
330
140
100
AcDbEntity
  8
1
 62
     2
100
AcDbTrace
 10
260.4924087748011
 20
3.97581162456635
 30
0.0
 11
261.4139762579129
 21
3.97581162456635
 31
0.0
 12
260.953192516357
 22
0.47581162456635
 32
0.0
 13
260.953192516357
 23
0.47581162456635
 33
0.0
  0
SOLID
  5
145
330
140
100
AcDbEntity
  8
1
 62
     2
100
AcDbTrace
 10
261.4139762579129
 20
22.97581162456658
 30
0.0
 11
260.4924087748011
 21
22.97581162456658
 31
0.0
 12
260.953192516357
 22
26.47581162456658
 32
0.0
 13
260.953192516357
 23
26.47581162456658
 33
0.0
  0
MTEXT
  5
146
330
140
100
AcDbEntity
  8
1
 62
     2
100
AcDbMText
 10
258.953192516357
 20
10.85081162456646
 30
0.0
 40
3.5
 41
0.0
 71
     7
 72
     1
  1
26
  7
CONVERTER_11
 11
0.0
 21
1.0
 31
0.0
 73
     1
 44
0.60024009603842
  0
ENDBLK
  5
148
330
140
100
AcDbEntity
  8
0
100
AcDbBlockEnd
  0
ENDSEC
  0
SECTION
  2
ENTITIES
  0
POINT
  5
32
330
1F
100
AcDbEntity
  8
1
 62
     3
 60
     1
100
AcDbPoint
 10
170.2413903009468
 20
0.47581162456663
 30
0.0
  0
POINT
  5
33
330
1F
100
AcDbEntity
  8
1
 62
     3
 60
     1
100
AcDbPoint
 10
193.2413903009468
 20
0.47581162456663
 30
0.0
  0
POINT
  5
34
330
1F
100
AcDbEntity
  8
1
 62
     3
 60
     1
100
AcDbPoint
 10
243.9610602150571
 20
10.2561417104565
 30
0.0
  0
LINE
  5
35
330
1F
100
AcDbEntity
  8
1
  6
Continuous
 62
     7
100
AcDbLine
 10
170.241390300947
 20
16.47581162456675
 30
0.0
 11
170.2413903009468
 21
0.47581162456663
 31
0.0
  0
LINE
  5
36
330
1F
100
AcDbEntity
  8
1
  6
Continuous
 62
     7
100
AcDbLine
 10
189.741390300947
 20
25.47581162456664
 30
0.0
 11
193.2413903009468
 21
25.47581162456663
 31
0.0
  0
LINE
  5
37
330
1F
100
AcDbEntity
  8
1
  6
DOT_CENTER
 62
     2
100
AcDbLine
 10
216.2413903009469
 20
96.47581162456683
 30
0.0
 11
193.241390300947
 21
96.47581162456683
 31
0.0
  0
LINE
  5
38
330
1F
100
AcDbEntity
  8
1
  6
DOT_CENTER
 62
     2
100
AcDbLine
 10
216.2413903009469
 20
96.47581162456683
 30
0.0
 11
220.1648321052681
 21
96.47581162456683
 31
0.0
  0
LINE
  5
39
330
1F
100
AcDbEntity
  8
1
  6
DOT_CENTER
 62
     2
100
AcDbLine
 10
193.241390300947
 20
96.47581162456683
 30
0.0
 11
189.1041350012879
 21
96.47581162456683
 31
0.0
  0
LINE
  5
3A
330
1F
100
AcDbEntity
  8
1
  6
Continuous
 62
     7
100
AcDbLine
 10
193.241390300947
 20
80.47581162456675
 30
0.0
 11
189.741390300947
 21
80.47581162456675
 31
0.0
  0
LINE
  5
3B
330
1F
100
AcDbEntity
  8
1
  6
Continuous
 62
     7
100
AcDbLine
 10
216.2413903009469
 20
96.47581162456683
 30
0.0
 11
216.241390300947
 21
41.47581162456677
 31
0.0
  0
LINE
  5
3C
330
1F
100
AcDbEntity
  8
1
  6
DOT_CENTER
 62
     2
100
AcDbLine
 10
209.877491907404
 20
63.47581162456675
 30
0.0
 11
188.241390300947
 21
63.47581162456675
 31
0.0
  0
LINE
  5
3D
330
1F
100
AcDbEntity
  8
1
  6
DOT_CENTER
 62
     2
100
AcDbLine
 10
209.877491907404
 20
50.47581162456675
 30
0.0
 11
188.241390300947
 21
50.47581162456675
 31
0.0
  0
LINE
  5
3E
330
1F
100
AcDbEntity
  8
1
  6
Continuous
 62
     7
100
AcDbLine
 10
193.241390300947
 20
96.47581162456683
 30
0.0
 11
193.2413903009468
 21
26.22581162456662
 31
0.0
  0
LINE
  5
3F
330
1F
100
AcDbEntity
  8
1
  6
Continuous
 62
     7
100
AcDbLine
 10
189.741390300947
 20
80.47581162456675
 30
0.0
 11
189.741390300947
 21
25.47581162456664
 31
0.0
  0
LINE
  5
40
330
1F
100
AcDbEntity
  8
1
  6
Continuous
 62
     7
100
AcDbLine
 10
158.241390300947
 20
-3.52418837543324
 30
0.0
 11
158.241390300947
 21
16.47581162456675
 31
0.0
  0
LINE
  5
41
330
1F
100
AcDbEntity
  8
1
  6
Continuous
 62
     7
100
AcDbLine
 10
203.241390300947
 20
-3.52418837543325
 30
0.0
 11
158.241390300947
 21
-3.52418837543324
 31
0.0
  0
LINE
  5
42
330
1F
100
AcDbEntity
  8
1
  6
Continuous
 62
     7
100
AcDbLine
 10
158.241390300947
 20
16.47581162456675
 30
0.0
 11
170.241390300947
 21
16.47581162456675
 31
0.0
  0
LINE
  5
43
330
1F
100
AcDbEntity
  8
1
  6
Continuous
 62
     7
100
AcDbLine
 10
234.741390300947
 20
8.47581162456666
 30
0.0
 11
234.741390300947
 21
0.47581162456665
 31
0.0
  0
LINE
  5
44
330
1F
100
AcDbEntity
  8
1
  6
Continuous
 62
     7
100
AcDbLine
 10
230.9244030028393
 20
16.72581162456665
 30
0.0
 11
233.9554919160848
 21
11.47581162456676
 31
0.0
  0
LINE
  5
45
330
1F
100
AcDbEntity
  8
1
  6
Continuous
 62
     7
100
AcDbLine
 10
234.741390300947
 20
16.72581162456665
 30
0.0
 11
234.741390300947
 21
9.47581162456666
 31
0.0
  0
LINE
  5
46
330
1F
100
AcDbEntity
  8
1
  6
Continuous
 62
     7
100
AcDbLine
 10
230.4913903009471
 20
17.47581162456665
 30
0.0
 11
230.9244030028393
 21
16.72581162456665
 31
0.0
  0
LINE
  5
47
330
1F
100
AcDbEntity
  8
1
  6
Continuous
 62
     7
100
AcDbLine
 10
234.741390300947
 20
9.47581162456666
 30
0.0
 11
234.741390300947
 21
8.47581162456666
 31
0.0
  0
LINE
  5
48
330
1F
100
AcDbEntity
  8
1
  6
Continuous
 62
     7
100
AcDbLine
 10
234.741390300947
 20
18.47581162456665
 30
0.0
 11
234.741390300947
 21
17.47581162456665
 31
0.0
  0
LINE
  5
49
330
1F
100
AcDbEntity
  8
1
  6
Continuous
 62
     7
100
AcDbLine
 10
234.741390300947
 20
17.47581162456665
 30
0.0
 11
234.741390300947
 21
16.72581162456665
 31
0.0
  0
LINE
  5
4A
330
1F
100
AcDbEntity
  8
1
  6
Continuous
 62
     7
100
AcDbLine
 10
234.741390300947
 20
23.37581162456653
 30
0.0
 11
234.741390300947
 21
18.47581162456665
 31
0.0
  0
LINE
  5
4B
330
1F
100
AcDbEntity
  8
1
  6
Continuous
 62
     2
100
AcDbLine
 10
234.741390300947
 20
10.22581162456666
 30
0.0
 11
239.241390300947
 21
10.22581162456666
 31
0.0
  0
LINE
  5
4C
330
1F
100
AcDbEntity
  8
1
  6
Continuous
 62
     2
100
AcDbLine
 10
234.741390300947
 20
16.72581162456665
 30
0.0
 11
239.241390300947
 21
16.72581162456665
 31
0.0
  0
LINE
  5
4D
330
1F
100
AcDbEntity
  8
1
  6
Continuous
 62
     7
100
AcDbLine
 10
234.741390300947
 20
17.47581162456665
 30
0.0
 11
238.741390300947
 21
17.47581162456665
 31
0.0
  0
LINE
  5
4E
330
1F
100
AcDbEntity
  8
1
  6
Continuous
 62
     7
100
AcDbLine
 10
238.741390300947
 20
9.47581162456666
 30
0.0
 11
234.741390300947
 21
9.47581162456666
 31
0.0
  0
LINE
  5
4F
330
1F
100
AcDbEntity
  8
1
  6
Continuous
 62
     7
100
AcDbLine
 10
239.241390300947
 20
16.97581162456665
 30
0.0
 11
238.741390300947
 21
17.47581162456665
 31
0.0
  0
LINE
  5
50
330
1F
100
AcDbEntity
  8
1
  6
Continuous
 62
     7
100
AcDbLine
 10
239.241390300947
 20
16.97581162456665
 30
0.0
 11
239.241390300947
 21
16.72581162456665
 31
0.0
  0
LINE
  5
51
330
1F
100
AcDbEntity
  8
1
  6
Continuous
 62
     7
100
AcDbLine
 10
238.241390300947
 20
23.37581162456653
 30
0.0
 11
226.4484947401184
 21
23.37581162456653
 31
0.0
  0
LINE
  5
52
330
1F
100
AcDbEntity
  8
1
  6
Continuous
 62
     7
100
AcDbLine
 10
239.241390300947
 20
16.07581162456645
 30
0.0
 11
239.241390300947
 21
22.37581162456653
 31
0.0
  0
LINE
  5
53
330
1F
100
AcDbEntity
  8
1
  6
Continuous
 62
     7
100
AcDbLine
 10
239.241390300947
 20
0.57581162456645
 30
0.0
 11
239.241390300947
 21
16.07581162456645
 31
0.0
  0
LINE
  5
54
330
1F
100
AcDbEntity
  8
1
  6
Continuous
 62
     7
100
AcDbLine
 10
239.241390300947
 20
9.97581162456666
 30
0.0
 11
238.741390300947
 21
9.47581162456666
 31
0.0
  0
LINE
  5
55
330
1F
100
AcDbEntity
  8
1
  6
Continuous
 62
     7
100
AcDbLine
 10
239.241390300947
 20
10.22581162456666
 30
0.0
 11
239.241390300947
 21
9.97581162456666
 31
0.0
  0
LINE
  5
56
330
1F
100
AcDbEntity
  8
1
  6
DASHED
 62
     2
100
AcDbLine
 10
239.241390300947
 20
10.97581162456666
 30
0.0
 11
243.2413903009469
 21
10.97581162456666
 31
0.0
  0
LINE
  5
57
330
1F
100
AcDbEntity
  8
1
  6
Continuous
 62
     7
100
AcDbLine
 10
238.741390300947
 20
9.47581162456666
 30
0.0
 11
238.741390300947
 21
17.47581162456665
 31
0.0
  0
LINE
  5
58
330
1F
100
AcDbEntity
  8
1
  6
DASHED
 62
     2
100
AcDbLine
 10
243.052050472727
 20
11.72581162456667
 30
0.0
 11
237.7413903009469
 21
11.72581162456666
 31
0.0
  0
LINE
  5
59
330
1F
100
AcDbEntity
  8
1
  6
DASHED
 62
     2
100
AcDbLine
 10
237.7413903009469
 20
11.72581162456666
 30
0.0
 11
236.741390300947
 21
13.45786243213549
 31
0.0
  0
LINE
  5
5A
330
1F
100
AcDbEntity
  8
1
  6
DASHED
 62
     2
100
AcDbLine
 10
236.741390300947
 20
13.45786243213549
 30
0.0
 11
237.7413903009469
 21
15.22581162456666
 31
0.0
  0
LINE
  5
5B
330
1F
100
AcDbEntity
  8
1
  6
DASHED
 62
     2
100
AcDbLine
 10
237.7413903009469
 20
11.72581162456666
 30
0.0
 11
237.7413903009469
 21
15.22581162456666
 31
0.0
  0
LINE
  5
5C
330
1F
100
AcDbEntity
  8
1
  6
DASHED
 62
     2
100
AcDbLine
 10
237.7413903009469
 20
15.22581162456666
 30
0.0
 11
243.0520504727269
 21
15.22581162456667
 31
0.0
  0
LINE
  5
5D
330
1F
100
AcDbEntity
  8
1
  6
DASHED
 62
     2
100
AcDbLine
 10
243.2413903009469
 20
15.97581162456666
 30
0.0
 11
239.241390300947
 21
15.97581162456666
 31
0.0
  0
LINE
  5
5E
330
1F
100
AcDbEntity
  8
1
  6
Continuous
 62
     7
100
AcDbLine
 10
243.9610602150571
 20
16.69548153867679
 30
0.0
 11
243.2413903009469
 21
15.97581162456666
 31
0.0
  0
LINE
  5
5F
330
1F
100
AcDbEntity
  8
1
  6
Continuous
 62
     7
100
AcDbLine
 10
244.241390300947
 20
16.41515145278684
 30
0.0
 11
243.9610602150571
 21
16.69548153867679
 31
0.0
  0
LINE
  5
60
330
1F
100
AcDbEntity
  8
1
  6
Continuous
 62
     7
100
AcDbLine
 10
243.9610602150571
 20
10.2561417104565
 30
0.0
 11
244.241390300947
 21
10.53647179634645
 31
0.0
  0
LINE
  5
61
330
1F
100
AcDbEntity
  8
1
  6
Continuous
 62
     7
100
AcDbLine
 10
243.2413903009469
 20
10.97581162456666
 30
0.0
 11
243.9610602150571
 21
10.2561417104565
 31
0.0
  0
LINE
  5
62
330
1F
100
AcDbEntity
  8
1
  6
DASHED
 62
     2
100
AcDbLine
 10
243.0520504727269
 20
15.22581162456667
 30
0.0
 11
244.241390300947
 21
16.41515145278684
 31
0.0
  0
LINE
  5
63
330
1F
100
AcDbEntity
  8
1
  6
DASHED
 62
     2
100
AcDbLine
 10
244.241390300947
 20
10.53647179634645
 30
0.0
 11
243.052050472727
 21
11.72581162456667
 31
0.0
  0
LINE
  5
64
330
1F
100
AcDbEntity
  8
1
  6
Continuous
 62
     7
100
AcDbLine
 10
243.2413903009469
 20
10.97581162456666
 30
0.0
 11
243.2413903009469
 21
15.97581162456666
 31
0.0
  0
LINE
  5
65
330
1F
100
AcDbEntity
  8
1
  6
DASHED
 62
     2
100
AcDbLine
 10
243.052050472727
 20
11.72581162456667
 30
0.0
 11
243.0520504727269
 21
15.22581162456667
 31
0.0
  0
LINE
  5
66
330
1F
100
AcDbEntity
  8
1
  6
Continuous
 62
     7
100
AcDbLine
 10
243.2413903009469
 20
18.47581162456665
 30
0.0
 11
242.241390300947
 21
18.47581162456665
 31
0.0
  0
LINE
  5
67
330
1F
100
AcDbEntity
  8
1
  6
Continuous
 62
     7
100
AcDbLine
 10
243.2413903009469
 20
8.47581162456666
 30
0.0
 11
243.2413903009469
 21
18.47581162456665
 31
0.0
  0
LINE
  5
68
330
1F
100
AcDbEntity
  8
1
  6
Continuous
 62
     7
100
AcDbLine
 10
242.241390300947
 20
8.47581162456666
 30
0.0
 11
243.2413903009469
 21
8.47581162456666
 31
0.0
  0
LINE
  5
69
330
1F
100
AcDbEntity
  8
1
  6
Continuous
 62
     7
100
AcDbLine
 10
193.2413903009468
 20
0.47581162456663
 30
0.0
 11
170.2413903009468
 21
0.47581162456663
 31
0.0
  0
LINE
  5
6A
330
1F
100
AcDbEntity
  8
1
  6
Continuous
 62
     7
100
AcDbLine
 10
193.2413903009468
 20
26.22581162456662
 30
0.0
 11
193.2413903009468
 21
25.47581162456663
 31
0.0
  0
LINE
  5
6B
330
1F
100
AcDbEntity
  8
1
  6
Continuous
 62
     7
100
AcDbLine
 10
201.7413903009468
 20
16.81159806219351
 30
0.0
 11
201.7413903009468
 21
8.27581162456663
 31
0.0
  0
LINE
  5
6C
330
1F
100
AcDbEntity
  8
1
  6
Continuous
 62
     7
100
AcDbLine
 10
201.741390300947
 20
2.83006031350211
 30
0.0
 11
201.741390300947
 21
0.47581162456663
 31
0.0
  0
LINE
  5
6D
330
1F
100
AcDbEntity
  8
1
  6
DASHED
 62
     2
100
AcDbLine
 10
174.2413903009471
 20
18.97581162456653
 30
0.0
 11
171.7413903009471
 21
21.47581162456635
 31
0.0
  0
LINE
  5
6E
330
1F
100
AcDbEntity
  8
1
  6
DASHED
 62
     2
100
AcDbLine
 10
171.7413903009471
 20
11.47581162456671
 30
0.0
 11
174.2413903009471
 21
13.97581162456653
 31
0.0
  0
LINE
  5
6F
330
1F
100
AcDbEntity
  8
1
  6
Continuous
 62
     7
100
AcDbLine
 10
196.7413903009468
 20
24.47581162456675
 30
0.0
 11
196.7413903009468
 21
25.47581162456663
 31
0.0
  0
LINE
  5
70
330
1F
100
AcDbEntity
  8
1
  6
Continuous
 62
     7
100
AcDbLine
 10
203.241390300947
 20
1.47581162456667
 30
0.0
 11
201.741390300947
 21
1.47581162456661
 31
0.0
  0
LINE
  5
71
330
1F
100
AcDbEntity
  8
1
  6
Continuous
 62
     7
100
AcDbLine
 10
201.741390300947
 20
0.47581162456663
 30
0.0
 11
196.741390300947
 21
0.47581162456663
 31
0.0
  0
LINE
  5
72
330
1F
100
AcDbEntity
  8
1
  6
Continuous
 62
     7
100
AcDbLine
 10
196.741390300947
 20
0.47581162456663
 30
0.0
 11
196.7413903009467
 21
2.01171000942916
 31
0.0
  0
LINE
  5
73
330
1F
100
AcDbEntity
  8
1
  6
Continuous
 62
     7
100
AcDbLine
 10
193.2413903009468
 20
0.47581162456663
 30
0.0
 11
196.741390300947
 21
0.47581162456663
 31
0.0
  0
LINE
  5
74
330
1F
100
AcDbEntity
  8
1
  6
Continuous
 62
     7
100
AcDbLine
 10
193.2413903009468
 20
1.47581162456657
 30
0.0
 11
193.2413903009468
 21
0.47581162456663
 31
0.0
  0
LINE
  5
75
330
1F
100
AcDbEntity
  8
1
  6
Continuous
 62
     7
100
AcDbLine
 10
174.2413903009471
 20
4.32581162456662
 30
0.0
 11
174.2413903009471
 21
13.47581162456662
 31
0.0
  0
LINE
  5
76
330
1F
100
AcDbEntity
  8
1
  6
DASHED
 62
     2
100
AcDbLine
 10
174.2413903009471
 20
1.47581162456662
 30
0.0
 11
174.2413903009471
 21
4.32581162456662
 31
0.0
  0
LINE
  5
77
330
1F
100
AcDbEntity
  8
1
  6
Continuous
 62
     7
100
AcDbLine
 10
193.2413903009468
 20
1.47581162456657
 30
0.0
 11
171.7413903009471
 21
1.47581162456662
 31
0.0
  0
LINE
  5
78
330
1F
100
AcDbEntity
  8
1
  6
Continuous
 62
     7
100
AcDbLine
 10
171.7413903009471
 20
1.47581162456662
 30
0.0
 11
171.7413903009471
 21
4.32581162456662
 31
0.0
  0
LINE
  5
79
330
1F
100
AcDbEntity
  8
1
  6
Continuous
 62
     7
100
AcDbLine
 10
171.7413903009471
 20
4.32581162456662
 30
0.0
 11
174.2413903009471
 21
4.32581162456662
 31
0.0
  0
LINE
  5
7A
330
1F
100
AcDbEntity
  8
1
  6
DOT_CENTER
 62
     2
100
AcDbLine
 10
175.051753272029
 20
16.47581162456653
 30
0.0
 11
171.0717563593424
 21
16.47581162456653
 31
0.0
  0
LINE
  5
7B
330
1F
100
AcDbEntity
  8
1
  6
Continuous
 62
     7
100
AcDbLine
 10
171.7413903009471
 20
22.62581162456663
 30
0.0
 11
171.7413903009471
 21
4.32581162456662
 31
0.0
  0
LINE
  5
7C
330
1F
100
AcDbEntity
  8
1
  6
Continuous
 62
     7
100
AcDbLine
 10
174.2413903009471
 20
13.47581162456662
 30
0.0
 11
174.2413903009471
 21
22.62581162456663
 31
0.0
  0
LINE
  5
7D
330
1F
100
AcDbEntity
  8
1
  6
Continuous
 62
     7
100
AcDbLine
 10
171.7413903009471
 20
22.62581162456663
 30
0.0
 11
171.7413903009471
 21
25.47581162456671
 31
0.0
  0
LINE
  5
7E
330
1F
100
AcDbEntity
  8
1
  6
Continuous
 62
     7
100
AcDbLine
 10
171.7413903009471
 20
22.62581162456663
 30
0.0
 11
174.2413903009471
 21
22.62581162456663
 31
0.0
  0
LINE
  5
7F
330
1F
100
AcDbEntity
  8
1
  6
DASHED
 62
     2
100
AcDbLine
 10
174.2413903009471
 20
25.47581162456663
 30
0.0
 11
174.2413903009471
 21
22.62581162456663
 31
0.0
  0
LINE
  5
80
330
1F
100
AcDbEntity
  8
1
  6
Continuous
 62
     7
100
AcDbLine
 10
171.7413903009471
 20
25.47581162456671
 30
0.0
 11
189.741390300947
 21
25.47581162456664
 31
0.0
  0
LINE
  5
81
330
1F
100
AcDbEntity
  8
1
  6
Continuous
 62
     7
100
AcDbLine
 10
196.7413903009468
 20
25.47581162456663
 30
0.0
 11
196.741390300947
 21
26.22581162456662
 31
0.0
  0
LINE
  5
82
330
1F
100
AcDbEntity
  8
1
  6
Continuous
 62
     7
100
AcDbLine
 10
196.741390300947
 20
26.22581162456662
 30
0.0
 11
193.2413903009468
 21
26.22581162456662
 31
0.0
  0
LINE
  5
83
330
1F
100
AcDbEntity
  8
1
  6
DASHED
 62
     2
100
AcDbLine
 10
193.2413903009468
 20
25.47581162456663
 30
0.0
 11
201.741390300947
 21
25.47581162456663
 31
0.0
  0
LINE
  5
84
330
1F
100
AcDbEntity
  8
1
  6
Continuous
 62
     7
100
AcDbLine
 10
196.741390300947
 20
26.22581162456662
 30
0.0
 11
201.741390300947
 21
26.22581162456662
 31
0.0
  0
LINE
  5
85
330
1F
100
AcDbEntity
  8
1
  6
Continuous
 62
     7
100
AcDbLine
 10
201.741390300947
 20
26.22581162456662
 30
0.0
 11
201.7413903009469
 21
23.8826658740591
 31
0.0
  0
LINE
  5
86
330
1F
100
AcDbEntity
  8
1
  6
Continuous
 62
     7
100
AcDbLine
 10
201.741390300947
 20
25.47581162456663
 30
0.0
 11
203.241390300947
 21
25.47581162456665
 31
0.0
  0
LINE
  5
87
330
1F
100
AcDbEntity
  8
1
  6
DOT_CENTER
 62
     2
100
AcDbLine
 10
211.241390300947
 20
-0.42418837543325
 30
0.0
 11
211.241390300947
 21
11.37581162456674
 31
0.0
  0
LINE
  5
88
330
1F
100
AcDbEntity
  8
1
  6
DOT_CENTER
 62
     2
100
AcDbLine
 10
217.141390300947
 20
5.47581162456675
 30
0.0
 11
205.341390300947
 21
5.47581162456675
 31
0.0
  0
LINE
  5
89
330
1F
100
AcDbEntity
  8
1
  6
Continuous
 62
     7
100
AcDbLine
 10
206.741390300947
 20
25.07268526705128
 30
0.0
 11
206.741390300947
 21
26.47581162456665
 31
0.0
  0
LINE
  5
8A
330
1F
100
AcDbEntity
  8
1
  6
Continuous
 62
     7
100
AcDbLine
 10
244.241390300947
 20
0.47581162456632
 30
0.0
 11
244.241390300947
 21
26.47581162456659
 31
0.0
  0
LINE
  5
8B
330
1F
100
AcDbEntity
  8
1
  6
Continuous
 62
     7
100
AcDbLine
 10
244.241390300947
 20
26.47581162456659
 30
0.0
 11
240.241390300947
 21
26.47581162456659
 31
0.0
  0
LINE
  5
8C
330
1F
100
AcDbEntity
  8
1
  6
Continuous
 62
     7
100
AcDbLine
 10
206.741390300947
 20
26.47581162456665
 30
0.0
 11
230.741390300947
 21
26.47581162456663
 31
0.0
  0
LINE
  5
8D
330
1F
100
AcDbEntity
  8
1
  6
Continuous
 62
     7
100
AcDbLine
 10
206.741390300947
 20
0.47581162456663
 30
0.0
 11
206.741390300947
 21
17.60306528008704
 31
0.0
  0
LINE
  5
8E
330
1F
100
AcDbEntity
  8
1
  6
Continuous
 62
     7
100
AcDbLine
 10
230.741390300947
 20
0.47581162456663
 30
0.0
 11
206.741390300947
 21
0.47581162456663
 31
0.0
  0
LINE
  5
8F
330
1F
100
AcDbEntity
  8
1
  6
PHANTOM
 62
     2
100
AcDbLine
 10
251.7413903009472
 20
-5.29991898253672
 30
0.0
 11
251.7413903009472
 21
-3.52418837543325
 31
0.0
  0
LINE
  5
90
330
1F
100
AcDbEntity
  8
1
  6
PHANTOM
 62
     2
100
AcDbLine
 10
251.7413903009472
 20
36.47581162456685
 30
0.0
 11
251.7413903009472
 21
41.3013583108297
 31
0.0
  0
LINE
  5
91
330
1F
100
AcDbEntity
  8
1
  6
Continuous
 62
     7
100
AcDbLine
 10
206.7413903009472
 20
36.47581162456685
 30
0.0
 11
251.7413903009472
 21
36.47581162456685
 31
0.0
  0
LINE
  5
92
330
1F
100
AcDbEntity
  8
1
  6
Continuous
 62
     7
100
AcDbLine
 10
206.741390300947
 20
26.47581162456665
 30
0.0
 11
206.7413903009472
 21
36.47581162456685
 31
0.0
  0
LINE
  5
93
330
1F
100
AcDbEntity
  8
1
  6
Continuous
 62
     7
100
AcDbLine
 10
242.241390300947
 20
0.47581162456635
 30
0.0
 11
242.241390300947
 21
21.87581162456652
 31
0.0
  0
LINE
  5
94
330
1F
100
AcDbEntity
  8
1
  6
Continuous
 62
     7
100
AcDbLine
 10
206.741390300947
 20
-3.52418837543325
 30
0.0
 11
206.741390300947
 21
0.47581162456663
 31
0.0
  0
LINE
  5
95
330
1F
100
AcDbEntity
  8
1
  6
PHANTOM
 62
     2
100
AcDbLine
 10
251.7413903009472
 20
-3.52418837543325
 30
0.0
 11
251.7413903009472
 21
36.47581162456685
 31
0.0
  0
LINE
  5
96
330
1F
100
AcDbEntity
  8
1
  6
Continuous
 62
     7
100
AcDbLine
 10
251.7413903009472
 20
-3.52418837543325
 30
0.0
 11
206.741390300947
 21
-3.52418837543325
 31
0.0
  0
LINE
  5
97
330
1F
100
AcDbEntity
  8
1
  6
Continuous
 62
     7
100
AcDbLine
 10
219.7225329807219
 20
13.82059051843322
 30
0.0
 11
227.9488576927011
 21
12.81052485082811
 31
0.0
  0
LINE
  5
98
330
1F
100
AcDbEntity
  8
1
  6
Continuous
 62
     7
100
AcDbLine
 10
216.8146248997005
 20
10.65135234620143
 30
0.0
 11
216.9364942431056
 21
11.64389849784291
 31
0.0
  0
LINE
  5
99
330
1F
100
AcDbEntity
  8
1
  6
Continuous
 62
     7
100
AcDbLine
 10
234.741390300947
 20
5.93144776435292
 30
0.0
 11
232.7518125527288
 21
6.17573719455008
 31
0.0
  0
LINE
  5
9A
330
1F
100
AcDbEntity
  8
1
  6
DOT_CENTER
 62
     2
100
AcDbLine
 10
216.0588627647312
 20
11.24790318082012
 30
0.0
 11
234.741390300947
 21
8.95397724072941
 31
0.0
  0
LINE
  5
9B
330
1F
100
AcDbEntity
  8
1
  6
DASHED
 62
     2
100
AcDbLine
 10
227.9488576927011
 20
12.81052485082811
 30
0.0
 11
233.584396529056
 21
12.11856768935505
 31
0.0
  0
LINE
  5
9C
330
1F
100
AcDbEntity
  8
1
  6
Continuous
 62
     7
100
AcDbLine
 10
227.4997519887344
 20
6.82060914473554
 30
0.0
 11
218.991316920291
 21
7.86531360858522
 31
0.0
  0
LINE
  5
9D
330
1F
100
AcDbEntity
  8
1
  6
DASHED
 62
     2
100
AcDbLine
 10
232.7518125527288
 20
6.17573719455008
 30
0.0
 11
227.4997519887344
 21
6.82060914473554
 31
0.0
  0
LINE
  5
9E
330
1F
100
AcDbEntity
  8
1
  6
Continuous
 62
     7
100
AcDbLine
 10
236.241390300947
 20
26.47581162456659
 30
0.0
 11
230.741390300947
 21
26.47581162456663
 31
0.0
  0
LINE
  5
9F
330
1F
100
AcDbEntity
  8
1
  6
Continuous
 62
     7
100
AcDbLine
 10
230.741390300947
 20
0.47581162456663
 30
0.0
 11
237.741390300947
 21
0.47581162456645
 31
0.0
  0
LINE
  5
A0
330
1F
100
AcDbEntity
  8
1
  6
Continuous
 62
     7
100
AcDbLine
 10
233.584396529056
 20
12.11856768935505
 30
0.0
 11
234.741390300947
 21
11.97650671710602
 31
0.0
  0
LINE
  5
A1
330
1F
100
AcDbEntity
  8
1
  6
DOT_CENTER
 62
     2
100
AcDbLine
 10
234.741390300947
 20
8.95328214819006
 30
0.0
 11
237.0783985598175
 21
8.66633361529826
 31
0.0
  0
LINE
  5
A2
330
1F
100
AcDbEntity
  8
1
  6
Continuous
 62
     7
100
AcDbLine
 10
237.741390300947
 20
26.47581162456659
 30
0.0
 11
236.241390300947
 21
26.47581162456659
 31
0.0
  0
LINE
  5
A3
330
1F
100
AcDbEntity
  8
1
  6
Continuous
 62
     7
100
AcDbLine
 10
237.741390300947
 20
0.47581162456645
 30
0.0
 11
240.241390300947
 21
0.47581162456639
 31
0.0
  0
LINE
  5
A4
330
1F
100
AcDbEntity
  8
1
  6
Continuous
 62
     7
100
AcDbLine
 10
240.241390300947
 20
26.47581162456659
 30
0.0
 11
237.741390300947
 21
26.47581162456659
 31
0.0
  0
LINE
  5
A5
330
1F
100
AcDbEntity
  8
1
  6
Continuous
 62
     7
100
AcDbLine
 10
240.241390300947
 20
0.47581162456639
 30
0.0
 11
244.241390300947
 21
0.47581162456632
 31
0.0
  0
LINE
  5
A6
330
1F
100
AcDbEntity
  8
1
  6
DOT_CENTER
 62
     2
100
AcDbLine
 10
245.314965720526
 20
13.47581162456663
 30
0.0
 11
231.4509802269491
 21
13.47581162456663
 31
0.0
  0
LINE
  5
A7
330
1F
100
AcDbEntity
  8
1
  6
Continuous
 62
     7
100
AcDbLine
 10
211.6482445504394
 20
20.47581162456676
 30
0.0
 11
213.4840309880663
 21
18.64002518693984
 31
0.0
  0
LINE
  5
A8
330
1F
100
AcDbEntity
  8
1
  6
DASHED
 62
     2
100
AcDbLine
 10
198.3345360514546
 20
20.47581162456675
 30
0.0
 11
199.5141647258953
 21
20.47581162456675
 31
0.0
  0
LINE
  5
A9
330
1F
100
AcDbEntity
  8
1
  6
DOT_CENTER
 62
     2
100
AcDbLine
 10
179.491390300947
 20
3.57581162456675
 30
0.0
 11
179.491390300947
 21
19.74740559378255
 31
0.0
  0
LINE
  5
AA
330
1F
100
AcDbEntity
  8
1
  6
DOT_CENTER
 62
     2
100
AcDbLine
 10
185.391390300947
 20
9.47581162456675
 30
0.0
 11
173.591390300947
 21
9.47581162456675
 31
0.0
  0
LINE
  5
AB
330
1F
100
AcDbEntity
  8
1
  6
Continuous
 62
     7
100
AcDbLine
 10
182.150706818268
 20
15.08188294597387
 30
0.0
 11
184.5432051563562
 21
19.22581162456675
 31
0.0
  0
LINE
  5
AC
330
1F
100
AcDbEntity
  8
1
  6
Continuous
 62
     7
100
AcDbLine
 10
186.7082686658173
 20
20.47581162456675
 30
0.0
 11
198.3345360514546
 21
20.47581162456675
 31
0.0
  0
LINE
  5
AD
330
1F
100
AcDbEntity
  8
1
  6
Continuous
 62
     7
100
AcDbLine
 10
208.1572668659678
 20
16.89572149717277
 30
0.0
 11
209.0260960519988
 21
16.02689231114179
 31
0.0
  0
LINE
  5
AE
330
1F
100
AcDbEntity
  8
1
  6
Continuous
 62
     7
100
AcDbLine
 10
176.0272886858092
 20
11.47581162456675
 30
0.0
 11
181.8007913777055
 21
21.47581162456675
 31
0.0
  0
LINE
  5
AF
330
1F
100
AcDbEntity
  8
1
  6
Continuous
 62
     7
100
AcDbLine
 10
188.1516443387914
 20
24.47581162456675
 30
0.0
 11
201.5272886858092
 21
24.47581162456675
 31
0.0
  0
LINE
  5
B0
330
1F
100
AcDbEntity
  8
1
  6
DASHED
 62
     2
100
AcDbLine
 10
207.8198174256932
 20
24.30423874931294
 30
0.0
 11
211.6482445504394
 21
20.47581162456676
 31
0.0
  0
LINE
  5
B1
330
1F
100
AcDbEntity
  8
1
  6
DASHED
 62
     2
100
AcDbLine
 10
185.7262178582484
 20
20.2748497302434
 30
0.0
 11
188.1516443387914
 21
24.47581162456675
 31
0.0
  0
LINE
  5
B2
330
1F
100
AcDbEntity
  8
1
  6
Continuous
 62
     7
100
AcDbLine
 10
186.9969438004121
 20
24.47581162456675
 30
0.0
 11
188.1516443387914
 21
24.47581162456675
 31
0.0
  0
LINE
  5
B3
330
1F
100
AcDbEntity
  8
1
  6
Continuous
 62
     7
100
AcDbLine
 10
215.241390300947
 20
5.47581162456675
 30
0.0
 11
215.241390300947
 21
14.39738449982055
 31
0.0
  0
LINE
  5
B4
330
1F
100
AcDbEntity
  8
1
  6
Continuous
 62
     7
100
AcDbLine
 10
207.6773642041935
 20
7.29177362352494
 30
0.0
 11
209.7616950240061
 21
11.38250318743732
 31
0.0
  0
LINE
  5
B5
330
1F
100
AcDbEntity
  8
1
  6
Continuous
 62
     7
100
AcDbLine
 10
194.741390300947
 20
6.15383064820136
 30
0.0
 11
199.8897730680292
 21
12.28943430692166
 31
0.0
  0
LINE
  5
B6
330
1F
100
AcDbEntity
  8
1
  6
Continuous
 62
     7
100
AcDbLine
 10
221.8311362631026
 20
24.47581162456676
 30
0.0
 11
222.9858368014819
 21
24.47581162456676
 31
0.0
  0
LINE
  5
B7
330
1F
100
AcDbEntity
  8
1
  6
Continuous
 62
     7
100
AcDbLine
 10
221.8311362631026
 20
24.47581162456676
 30
0.0
 11
224.2565627436456
 21
20.27484973024342
 31
0.0
  0
LINE
  5
B8
330
1F
100
AcDbEntity
  8
1
  6
DOT_CENTER
 62
     2
100
AcDbLine
 10
198.741390300947
 20
11.37581162456675
 30
0.0
 11
198.741390300947
 21
-0.42418837543323
 31
0.0
  0
LINE
  5
B9
330
1F
100
AcDbEntity
  8
1
  6
DOT_CENTER
 62
     2
100
AcDbLine
 10
204.641390300947
 20
5.47581162456676
 30
0.0
 11
192.841390300947
 21
5.47581162456676
 31
0.0
  0
LINE
  5
BA
330
1F
100
AcDbEntity
  8
1
  6
DOT_CENTER
 62
     2
100
AcDbLine
 10
204.991390300947
 20
27.37581162456675
 30
0.0
 11
204.991390300947
 21
15.57581162456677
 31
0.0
  0
LINE
  5
BB
330
1F
100
AcDbEntity
  8
1
  6
DOT_CENTER
 62
     2
100
AcDbLine
 10
210.891390300947
 20
21.47581162456676
 30
0.0
 11
199.091390300947
 21
21.47581162456676
 31
0.0
  0
LINE
  5
BC
330
1F
100
AcDbEntity
  8
1
  6
DOT_CENTER
 62
     2
100
AcDbLine
 10
230.491390300947
 20
15.5177961262147
 30
0.0
 11
230.491390300947
 21
3.57581162456677
 31
0.0
  0
LINE
  5
BD
330
1F
100
AcDbEntity
  8
1
  6
DOT_CENTER
 62
     2
100
AcDbLine
 10
236.391390300947
 20
9.47581162456676
 30
0.0
 11
224.591390300947
 21
9.47581162456676
 31
0.0
  0
LINE
  5
BE
330
1F
100
AcDbEntity
  8
1
  6
Continuous
 62
     7
100
AcDbLine
 10
225.4395754455378
 20
19.22581162456676
 30
0.0
 11
227.832073783626
 21
15.08188294597389
 31
0.0
  0
LINE
  5
BF
330
1F
100
AcDbEntity
  8
1
  6
Continuous
 62
     7
100
AcDbLine
 10
210.4686158759987
 20
20.47581162456676
 30
0.0
 11
223.2745119360767
 21
20.47581162456676
 31
0.0
  0
LINE
  5
C0
330
1F
100
AcDbEntity
  8
1
  6
Continuous
 62
     7
100
AcDbLine
 10
200.9566845498951
 20
16.02689231114184
 30
0.0
 11
201.8255137359261
 21
16.89572149717279
 31
0.0
  0
LINE
  5
C1
330
1F
100
AcDbEntity
  8
1
  6
Continuous
 62
     7
100
AcDbLine
 10
228.1819892241885
 20
21.47581162456676
 30
0.0
 11
230.4913903009471
 21
17.47581162456665
 31
0.0
  0
LINE
  5
C2
330
1F
100
AcDbEntity
  8
1
  6
Continuous
 62
     7
100
AcDbLine
 10
208.4554919160848
 20
24.47581162456676
 30
0.0
 11
221.8311362631026
 21
24.47581162456676
 31
0.0
  0
LINE
  5
C3
330
1F
100
AcDbEntity
  8
1
  6
Continuous
 62
     7
100
AcDbLine
 10
194.741390300947
 20
14.39738449982056
 30
0.0
 11
194.741390300947
 21
5.47581162456676
 31
0.0
  0
LINE
  5
C4
330
1F
100
AcDbEntity
  8
1
  6
Continuous
 62
     7
100
AcDbLine
 10
196.4987496138277
 20
18.64002518693985
 30
0.0
 11
202.1629631762008
 21
24.30423874931296
 31
0.0
  0
LINE
  5
C5
330
1F
100
AcDbEntity
  8
1
  6
Continuous
 62
     7
100
AcDbLine
 10
200.2210855778878
 20
11.38250318743739
 30
0.0
 11
202.3054163977005
 21
7.29177362352495
 31
0.0
  0
LINE
  5
C6
330
1F
100
AcDbEntity
  8
1
  6
Continuous
 62
     7
100
AcDbLine
 10
177.2301051262718
 20
6.17632842885352
 30
0.0
 11
174.241390300947
 21
5.80936039136205
 31
0.0
  0
LINE
  5
C7
330
1F
100
AcDbEntity
  8
1
  6
DASHED
 62
     2
100
AcDbLine
 10
182.4837228710318
 20
6.82139157679557
 30
0.0
 11
177.2301051262718
 21
6.17632842885352
 31
0.0
  0
LINE
  5
C8
330
1F
100
AcDbEntity
  8
1
  6
Continuous
 62
     7
100
AcDbLine
 10
182.0336272128133
 20
12.81118573179012
 30
0.0
 11
190.2527937728134
 21
13.82037248884755
 31
0.0
  0
LINE
  5
C9
330
1F
100
AcDbEntity
  8
1
  6
DASHED
 62
     2
100
AcDbLine
 10
176.3988173062533
 20
12.11931807164183
 30
0.0
 11
182.0336272128133
 21
12.81118573179012
 31
0.0
  0
LINE
  5
CA
330
1F
100
AcDbEntity
  8
1
  6
Continuous
 62
     7
100
AcDbLine
 10
190.9840098332443
 20
7.86509557899946
 30
0.0
 11
182.4837228710318
 21
6.82139157679557
 31
0.0
  0
LINE
  5
CB
330
1F
100
AcDbEntity
  8
1
  6
Continuous
 62
     7
100
AcDbLine
 10
193.0388325104295
 20
11.64368046825705
 30
0.0
 11
193.1607018538347
 21
10.65113431661565
 31
0.0
  0
LINE
  5
CC
330
1F
100
AcDbEntity
  8
1
  6
Continuous
 62
     7
100
AcDbLine
 10
174.241390300947
 20
11.85441934411524
 30
0.0
 11
176.3988173062533
 21
12.11931807164183
 31
0.0
  0
LINE
  5
CD
330
1F
100
AcDbEntity
  8
1
  6
DOT_CENTER
 62
     2
100
AcDbLine
 10
172.6596372447122
 20
8.63767501327199
 30
0.0
 11
195.9239178371628
 21
11.49416949053794
 31
0.0
  0
LINE
  5
CE
330
1F
100
AcDbEntity
  8
1
  6
Continuous
 62
     7
100
AcDbLine
 10
216.241390300947
 20
41.47581162456677
 30
0.0
 11
203.241390300947
 21
41.47581162456675
 31
0.0
  0
LINE
  5
CF
330
1F
100
AcDbEntity
  8
1
  6
Continuous
 62
     7
100
AcDbLine
 10
203.241390300947
 20
41.47581162456675
 30
0.0
 11
203.241390300947
 21
25.47581162456665
 31
0.0
  0
LINE
  5
D0
330
1F
100
AcDbEntity
  8
1
  6
Continuous
 62
     7
100
AcDbLine
 10
203.241390300947
 20
39.47581162456675
 30
0.0
 11
204.9734411085157
 21
36.47581162456675
 31
0.0
  0
LINE
  5
D1
330
1F
100
AcDbEntity
  8
1
  6
Continuous
 62
     7
100
AcDbLine
 10
204.9734411085157
 20
36.47581162456675
 30
0.0
 11
214.5093394933781
 21
36.47581162456675
 31
0.0
  0
LINE
  5
D2
330
1F
100
AcDbEntity
  8
1
  6
Continuous
 62
     7
100
AcDbLine
 10
214.5093394933781
 20
36.47581162456675
 30
0.0
 11
216.241390300947
 21
39.47581162456675
 31
0.0
  0
LINE
  5
D3
330
1F
100
AcDbEntity
  8
1
  6
Continuous
 62
     7
100
AcDbLine
 10
216.241390300947
 20
39.47581162456675
 30
0.0
 11
216.241390300947
 21
41.47581162456677
 31
0.0
  0
LINE
  5
D4
330
1F
100
AcDbEntity
  8
1
  6
Continuous
 62
     7
100
AcDbLine
 10
215.241390300947
 20
40.47581162456675
 30
0.0
 11
215.241390300947
 21
39.74376081699786
 31
0.0
  0
LINE
  5
D5
330
1F
100
AcDbEntity
  8
1
  6
Continuous
 62
     7
100
AcDbLine
 10
215.241390300947
 20
39.74376081699786
 30
0.0
 11
213.9319892241884
 21
37.47581162456675
 31
0.0
  0
LINE
  5
D6
330
1F
100
AcDbEntity
  8
1
  6
Continuous
 62
     7
100
AcDbLine
 10
213.9319892241884
 20
37.47581162456675
 30
0.0
 11
205.5507913777054
 21
37.47581162456675
 31
0.0
  0
LINE
  5
D7
330
1F
100
AcDbEntity
  8
1
  6
Continuous
 62
     7
100
AcDbLine
 10
204.241390300947
 20
39.74376081699786
 30
0.0
 11
204.241390300947
 21
40.47581162456675
 31
0.0
  0
LINE
  5
D8
330
1F
100
AcDbEntity
  8
1
  6
Continuous
 62
     7
100
AcDbLine
 10
204.241390300947
 20
40.47581162456675
 30
0.0
 11
215.241390300947
 21
40.47581162456675
 31
0.0
  0
LINE
  5
D9
330
1F
100
AcDbEntity
  8
1
  6
Continuous
 62
     7
100
AcDbLine
 10
205.5507913777054
 20
37.47581162456675
 30
0.0
 11
204.241390300947
 21
39.74376081699786
 31
0.0
  0
LINE
  5
DA
330
1F
100
AcDbEntity
  8
1
  6
Continuous
 62
     7
100
AcDbLine
 10
203.241390300947
 20
1.47581162456667
 30
0.0
 11
203.241390300947
 21
-3.52418837543325
 31
0.0
  0
LINE
  5
DB
330
1F
100
AcDbEntity
  8
1
  6
Continuous
 62
     7
100
AcDbLine
 10
203.241390300947
 20
25.47581162456665
 30
0.0
 11
203.241390300947
 21
25.0726852670513
 31
0.0
  0
LINE
  5
DC
330
1F
100
AcDbEntity
  8
1
  6
Continuous
 62
     7
100
AcDbLine
 10
203.241390300947
 20
17.60306528008705
 30
0.0
 11
203.241390300947
 21
1.47581162456667
 31
0.0
  0
LINE
  5
DD
330
1F
100
AcDbEntity
  8
1
  6
Continuous
 62
     7
100
AcDbLine
 10
243.9610602150571
 20
16.69548153867679
 30
0.0
 11
243.9610602150571
 21
10.2561417104565
 31
0.0
  0
ARC
  5
DE
330
1F
100
AcDbEntity
  8
1
  6
Continuous
 62
     7
100
AcDbCircle
 10
198.741390300947
 20
5.47581162456676
 30
0.0
 40
4.0
100
AcDbArc
 50
180.0
 51
-120.0000000000046
  0
ARC
  5
DF
330
1F
100
AcDbEntity
  8
1
  6
Continuous
 62
     7
100
AcDbCircle
 10
179.491390300947
 20
9.47581162456675
 30
0.0
 40
4.0
100
AcDbArc
 50
180.0
 51
-90.0
  0
ARC
  5
E0
330
1F
100
AcDbEntity
  8
1
  6
Continuous
 62
     7
100
AcDbCircle
 10
179.491390300947
 20
9.47581162456675
 30
0.0
 40
4.0
100
AcDbArc
 50
-90.0
 51
42.0797868606079
  0
ARC
  5
E1
330
1F
100
AcDbEntity
  8
1
  6
Continuous
 62
     7
100
AcDbCircle
 10
211.241390300947
 20
5.47581162456675
 30
0.0
 40
4.000000000000014
100
AcDbArc
 50
-90.0
 51
0.0
  0
ARC
  5
E2
330
1F
100
AcDbEntity
  8
1
  6
Continuous
 62
     7
100
AcDbCircle
 10
204.991390300947
 20
21.47581162456676
 30
0.0
 40
4.0
100
AcDbArc
 50
90.0
 51
122.2042275039723
  0
ARC
  5
E3
330
1F
100
AcDbEntity
  8
1
  6
DASHED
 62
     2
100
AcDbCircle
 10
204.991390300947
 20
21.47581162456676
 30
0.0
 40
4.000000000000041
100
AcDbArc
 50
-147.4210296071961
 51
-77.57897039280384
  0
ARC
  5
E4
330
1F
100
AcDbEntity
  8
1
  6
Continuous
 62
     7
100
AcDbCircle
 10
179.491390300947
 20
9.47581162456675
 30
0.0
 40
4.000000000000036
100
AcDbArc
 50
150.0000000000002
 51
180.0
  0
ARC
  5
E5
330
1F
100
AcDbEntity
  8
1
  6
Continuous
 62
     7
100
AcDbCircle
 10
211.241390300947
 20
5.47581162456675
 30
0.0
 40
4.000000000000011
100
AcDbArc
 50
153.0
 51
-90.0
  0
ARC
  5
E6
330
1F
100
AcDbEntity
  8
1
  6
DASHED
 62
     2
100
AcDbCircle
 10
204.991390300947
 20
21.47581162456676
 30
0.0
 40
4.00000000000001
100
AcDbArc
 50
44.99999999999967
 51
90.0
  0
ARC
  5
E7
330
1F
100
AcDbEntity
  8
1
  6
Continuous
 62
     7
100
AcDbCircle
 10
230.491390300947
 20
9.47581162456676
 30
0.0
 40
4.0
100
AcDbArc
 50
-90.0
 51
0.0
  0
ARC
  5
E8
330
1F
100
AcDbEntity
  8
1
  6
Continuous
 62
     7
100
AcDbCircle
 10
230.491390300947
 20
9.47581162456676
 30
0.0
 40
3.999999999999962
100
AcDbArc
 50
137.9202131393919
 51
-90.0
  0
ARC
  5
E9
330
1F
100
AcDbEntity
  8
1
  6
Continuous
 62
     7
100
AcDbCircle
 10
198.741390300947
 20
5.47581162456676
 30
0.0
 40
4.000000000000011
100
AcDbArc
 50
-120.0000000000046
 51
-90.0
  0
ARC
  5
EA
330
1F
100
AcDbEntity
  8
1
  6
Continuous
 62
     7
100
AcDbCircle
 10
204.991390300947
 20
21.47581162456676
 30
0.0
 40
4.000000000000042
100
AcDbArc
 50
57.79577249602747
 51
90.0
  0
ARC
  5
EB
330
1F
100
AcDbEntity
  8
1
  6
Continuous
 62
     7
100
AcDbCircle
 10
204.991390300947
 20
21.47581162456676
 30
0.0
 40
3.999999999999997
100
AcDbArc
 50
-102.4210296071958
 51
-32.57897039280351
  0
ARC
  5
EC
330
1F
100
AcDbEntity
  8
1
  6
Continuous
 62
     7
100
AcDbCircle
 10
230.491390300947
 20
9.47581162456676
 30
0.0
 40
4.0
100
AcDbArc
 50
0.0
 51
29.99999999999953
  0
ARC
  5
ED
330
1F
100
AcDbEntity
  8
1
  6
Continuous
 62
     7
100
AcDbCircle
 10
198.741390300947
 20
5.47581162456676
 30
0.0
 40
4.000000000000014
100
AcDbArc
 50
-90.0
 51
26.99999999999986
  0
ARC
  5
EE
330
1F
100
AcDbEntity
  8
1
  6
Continuous
 62
     7
100
AcDbCircle
 10
204.991390300947
 20
21.47581162456676
 30
0.0
 40
4.0
100
AcDbArc
 50
90.0
 51
134.9999999999998
  0
CIRCLE
  5
EF
330
1F
100
AcDbEntity
  8
1
  6
Continuous
 62
     7
100
AcDbCircle
 10
211.241390300947
 20
5.47581162456675
 30
0.0
 40
2.0
  0
CIRCLE
  5
F0
330
1F
100
AcDbEntity
  8
1
  6
Continuous
 62
     7
100
AcDbCircle
 10
179.491390300947
 20
9.47581162456675
 30
0.0
 40
2.0
  0
CIRCLE
  5
F1
330
1F
100
AcDbEntity
  8
1
  6
Continuous
 62
     7
100
AcDbCircle
 10
230.491390300947
 20
9.47581162456676
 30
0.0
 40
2.0
  0
CIRCLE
  5
F2
330
1F
100
AcDbEntity
  8
1
  6
Continuous
 62
     7
100
AcDbCircle
 10
198.741390300947
 20
5.47581162456676
 30
0.0
 40
2.0
  0
CIRCLE
  5
F3
330
1F
100
AcDbEntity
  8
1
  6
Continuous
 62
     7
100
AcDbCircle
 10
204.991390300947
 20
21.47581162456676
 30
0.0
 40
2.0
  0
XLINE
  5
F4
330
1F
100
AcDbEntity
  8
1
  6
DOT_CENTER
 62
     3
 60
     1
100
AcDbXline
 10
175.051753272029
 20
16.47581162456653
 30
0.0
 11
1.0
 21
0.0
 31
0.0
  0
ARC
  5
F5
330
1F
100
AcDbEntity
  8
1
  6
Continuous
 62
     7
100
AcDbCircle
 10
214.3380448676429
 20
21.92581162456655
 30
0.0
 40
4.551026489184999
100
AcDbArc
 50
91.21693757503962
 51
145.9225428983753
  0
ARC
  5
F6
330
1F
100
AcDbEntity
  8
1
  6
Continuous
 62
     7
100
AcDbCircle
 10
237.741390300947
 20
21.87581162456652
 30
0.0
 40
4.5
100
AcDbArc
 50
0.0
 51
19.47122063449055
  0
ARC
  5
F7
330
1F
100
AcDbEntity
  8
1
  6
Continuous
 62
     7
100
AcDbCircle
 10
238.241390300947
 20
22.37581162456653
 30
0.0
 40
1.0
100
AcDbArc
 50
0.0
 51
90.0
  0
ARC
  5
F8
330
1F
100
AcDbEntity
  8
1
  6
Continuous
 62
     7
100
AcDbCircle
 10
237.6706796228283
 20
21.92581162456656
 30
0.0
 40
4.550549417378146
100
AcDbArc
 50
18.58086957783259
 51
89.10964894334212
  0
ARC
  5
F9
330
1F
100
AcDbEntity
  8
1
  6
Continuous
 62
     7
100
AcDbCircle
 10
219.417859622209
 20
11.33922513932992
 30
0.0
 40
2.499999999999997
100
AcDbArc
 50
82.99999999999926
 51
172.9999999999975
  0
ARC
  5
FA
330
1F
100
AcDbEntity
  8
1
  6
Continuous
 62
     7
100
AcDbCircle
 10
219.2959902788037
 20
10.34667898768852
 30
0.0
 40
2.49999999999991
100
AcDbArc
 50
172.9999999999988
 51
-96.9999999999962
  0
ARC
  5
FB
330
1F
100
AcDbEntity
  8
1
  6
Continuous
 62
     7
100
AcDbCircle
 10
201.5272886858092
 20
26.97581162456675
 30
0.0
 40
2.5
100
AcDbArc
 50
-90.0
 51
-57.7957724960275
  0
ARC
  5
FC
330
1F
100
AcDbEntity
  8
1
  6
Continuous
 62
     7
100
AcDbCircle
 10
209.241390300947
 20
14.39738449982055
 30
0.0
 40
6.0
100
AcDbArc
 50
0.0
 51
44.99999999999981
  0
ARC
  5
FD
330
1F
100
AcDbEntity
  8
1
  6
Continuous
 62
     7
100
AcDbCircle
 10
184.3157703277291
 20
13.83188294597387
 30
0.0
 40
2.500000000000008
100
AcDbArc
 50
150.0000000000001
 51
-137.9202131393926
  0
ARC
  5
FE
330
1F
100
AcDbEntity
  8
1
  6
Continuous
 62
     7
100
AcDbCircle
 10
186.7082686658173
 20
17.97581162456675
 30
0.0
 40
2.5
100
AcDbArc
 50
90.0
 51
113.1301023541564
  0
ARC
  5
FF
330
1F
100
AcDbEntity
  8
1
  6
Continuous
 62
     7
100
AcDbCircle
 10
206.3894999130015
 20
15.1279545442064
 30
0.0
 40
2.49999999999997
100
AcDbArc
 50
45.0000000000007
 51
102.4210296071952
  0
ARC
  5
100
330
1F
100
AcDbEntity
  8
1
  6
DASHED
 62
     2
100
AcDbCircle
 10
199.5141647258953
 20
17.97581162456675
 30
0.0
 40
2.499999999999978
100
AcDbArc
 50
32.57897039280456
 51
90.0
  0
ARC
  5
101
330
1F
100
AcDbEntity
  8
1
  6
Continuous
 62
     7
100
AcDbCircle
 10
186.9969438004121
 20
18.47581162456675
 30
0.0
 40
6.0
100
AcDbArc
 50
90.0
 51
149.9999999999999
  0
ARC
  5
102
330
1F
100
AcDbEntity
  8
1
  6
Continuous
 62
     7
100
AcDbCircle
 10
186.7082686658173
 20
17.97581162456675
 30
0.0
 40
2.500000000000001
100
AcDbArc
 50
113.1301023541564
 51
149.9999999999998
  0
ARC
  5
103
330
1F
100
AcDbEntity
  8
1
  6
Continuous
 62
     7
100
AcDbCircle
 10
206.1976689272527
 20
13.19846518639553
 30
0.0
 40
3.999999999999942
100
AcDbArc
 50
-27.00000000000079
 51
45.00000000000162
  0
ARC
  5
104
330
1F
100
AcDbEntity
  8
1
  6
Continuous
 62
     7
100
AcDbCircle
 10
223.2745119360767
 20
17.97581162456676
 30
0.0
 40
2.500000000000008
100
AcDbArc
 50
29.99999999999989
 51
66.86989764584365
  0
ARC
  5
105
330
1F
100
AcDbEntity
  8
1
  6
Continuous
 62
     7
100
AcDbCircle
 10
208.4554919160848
 20
26.97581162456676
 30
0.0
 40
2.499999999999994
100
AcDbArc
 50
-122.2042275039725
 51
-90.0
  0
ARC
  5
106
330
1F
100
AcDbEntity
  8
1
  6
Continuous
 62
     7
100
AcDbCircle
 10
200.741390300947
 20
14.39738449982056
 30
0.0
 40
6.000000000000008
100
AcDbArc
 50
135.0
 51
180.0
  0
ARC
  5
107
330
1F
100
AcDbEntity
  8
1
  6
Continuous
 62
     7
100
AcDbCircle
 10
225.6670102741649
 20
13.83188294597389
 30
0.0
 40
2.500000000000002
100
AcDbArc
 50
-42.07978686060757
 51
30.00000000000022
  0
ARC
  5
108
330
1F
100
AcDbEntity
  8
1
  6
Continuous
 62
     7
100
AcDbCircle
 10
223.2745119360767
 20
17.97581162456676
 30
0.0
 40
2.500000000000011
100
AcDbArc
 50
66.86989764584365
 51
90.0
  0
ARC
  5
109
330
1F
100
AcDbEntity
  8
1
  6
Continuous
 62
     7
100
AcDbCircle
 10
203.5932806888925
 20
15.12795454420642
 30
0.0
 40
2.500000000000008
100
AcDbArc
 50
77.5789703928041
 51
135.0000000000002
  0
ARC
  5
10A
330
1F
100
AcDbEntity
  8
1
  6
Continuous
 62
     7
100
AcDbCircle
 10
210.4686158759987
 20
17.97581162456676
 30
0.0
 40
2.5
100
AcDbArc
 50
90.0
 51
147.4210296071955
  0
ARC
  5
10B
330
1F
100
AcDbEntity
  8
1
  6
Continuous
 62
     7
100
AcDbCircle
 10
222.9858368014819
 20
18.47581162456676
 30
0.0
 40
5.999999999999975
100
AcDbArc
 50
30.00000000000014
 51
90.0
  0
ARC
  5
10C
330
1F
100
AcDbEntity
  8
1
  6
Continuous
 62
     7
100
AcDbCircle
 10
203.7851116746413
 20
13.1984651863956
 30
0.0
 40
4.000000000000052
100
AcDbArc
 50
134.9999999999997
 51
-152.9999999999999
  0
ARC
  5
10D
330
1F
100
AcDbEntity
  8
1
  6
Continuous
 62
     7
100
AcDbCircle
 10
190.6793364747313
 20
10.34646095810265
 30
0.0
 40
2.499999999999905
100
AcDbArc
 50
-82.99999999999638
 51
7.0000000000027
  0
ARC
  5
10E
330
1F
100
AcDbEntity
  8
1
  6
Continuous
 62
     7
100
AcDbCircle
 10
190.5574671313261
 20
11.33900710974426
 30
0.0
 40
2.500000000000093
100
AcDbArc
 50
6.99999999999793
 51
96.99999999999625
  0
DIMENSION
  5
11A
330
1F
100
AcDbEntity
  8
1
100
AcDbDimension
  2
*D1
 10
206.741390300947
 20
-14.2765303809574
 30
0.0
 11
224.473588129659
 21
-10.5265303809574
 31
0.0
 70
    32
  1
<>
 71
     5
 42
-1.0
 53
0.00013888888889
  3
ME10_DIM_10
100
AcDbAlignedDimension
 13
244.241390300947
 23
0.47581162456632
 33
0.0
 14
206.741390300947
 24
-3.52418837543325
 34
0.0
100
AcDbRotatedDimension
  0
DIMENSION
  5
125
330
1F
100
AcDbEntity
  8
1
100
AcDbDimension
  2
*D2
 10
170.2413903009468
 20
-14.2765303809574
 30
0.0
 11
184.578917914033
 21
-10.5265303809574
 31
0.0
 70
    32
  1
<>
 71
     5
 42
-1.0
 53
0.00013888888889
  3
ME10_DIM_11
100
AcDbAlignedDimension
 13
203.241390300947
 23
1.47581162456667
 33
0.0
 14
170.2413903009468
 24
0.47581162456663
 34
0.0
100
AcDbRotatedDimension
  0
DIMENSION
  5
132
330
1F
100
AcDbEntity
  8
1
100
AcDbDimension
  2
*D3
 10
203.241390300947
 20
-14.2765303809574
 30
0.0
 11
204.991390300947
 21
-19.5189912949453
 31
0.0
 70
    32
  1
<>
 71
     5
 42
-1.0
 53
0.00013888888889
  3
ME10_DIM_12
100
AcDbAlignedDimension
 13
206.741390300947
 23
-3.52418837543325
 33
0.0
 14
203.241390300947
 24
1.47581162456667
 34
0.0
100
AcDbRotatedDimension
  0
DIMENSION
  5
13F
330
1F
100
AcDbEntity
  8
1
100
AcDbDimension
  2
*D4
 10
260.953192516357
 20
-3.52418837543325
 30
0.0
 11
257.203192516357
 21
-1.5962766982167
 31
0.0
 70
    32
  1
<>
 71
     5
 42
-1.0
 53
90.0
  3
ME10_DIM_13
100
AcDbAlignedDimension
 13
242.241390300947
 23
0.47581162456635
 33
0.0
 14
251.7413903009472
 24
-3.52418837543325
 34
0.0
 50
90.0
100
AcDbRotatedDimension
  0
DIMENSION
  5
14A
330
1F
100
AcDbEntity
  8
1
100
AcDbDimension
  2
*D5
 10
260.953192516357
 20
0.47581162456635
 30
0.0
 11
257.203192516357
 21
13.47581162456646
 31
0.0
 70
    32
  1
<>
 71
     5
 42
-1.0
 53
90.0
  3
ME10_DIM_14
100
AcDbAlignedDimension
 13
244.241390300947
 23
26.47581162456659
 33
0.0
 14
242.241390300947
 24
0.47581162456635
 34
0.0
 50
90.0
100
AcDbRotatedDimension
  0
ENDSEC
  0
SECTION
  2
OBJECTS
  0
DICTIONARY
  5
C
330
0
100
AcDbDictionary
281
     1
  3
ACAD_GROUP
350
D
  3
ACAD_LAYOUT
350
1A
  3
ACAD_MLINESTYLE
350
17
  3
ACAD_PLOTSETTINGS
350
19
  3
ACAD_PLOTSTYLENAME
350
E
  0
DICTIONARY
  5
D
102
{ACAD_REACTORS
330
C
102
}
330
C
100
AcDbDictionary
281
     1
  0
DICTIONARY
  5
1A
102
{ACAD_REACTORS
330
C
102
}
330
C
100
AcDbDictionary
281
     1
  3
Layout1
350
1E
  3
Layout2
350
26
  3
Model
350
22
  0
DICTIONARY
  5
17
102
{ACAD_REACTORS
330
C
102
}
330
C
100
AcDbDictionary
281
     1
  3
Standard
350
18
  0
DICTIONARY
  5
19
102
{ACAD_REACTORS
330
C
102
}
330
C
100
AcDbDictionary
281
     1
  0
ACDBDICTIONARYWDFLT
  5
E
102
{ACAD_REACTORS
330
C
102
}
330
C
100
AcDbDictionary
281
     1
  3
Normal
350
F
100
AcDbDictionaryWithDefault
340
F
  0
LAYOUT
  5
1E
102
{ACAD_REACTORS
330
1A
102
}
330
1A
100
AcDbPlotSettings
  1

  2

  4

  6

 40
0.0
 41
0.0
 42
0.0
 43
0.0
 44
0.0
 45
0.0
 46
0.0
 47
0.0
 48
0.0
 49
0.0
140
0.0
141
0.0
142
1.0
143
1.0
 70
   688
 72
     0
 73
     0
 74
     5
  7

 75
    16
 76
     0
 77
     2
 78
   300
147
1.0
148
0.0
149
0.0
100
AcDbLayout
  1
Layout1
 70
     1
 71
     1
 10
0.0
 20
0.0
 11
0.0
 21
0.0
 12
0.0
 22
0.0
 32
0.0
 14
0.0
 24
0.0
 34
0.0
 15
0.0
 25
0.0
 35
0.0
146
0.0
 13
0.0
 23
0.0
 33
0.0
 16
1.0
 26
0.0
 36
0.0
 17
0.0
 27
1.0
 37
0.0
 76
     0
330
1B
  0
LAYOUT
  5
26
102
{ACAD_REACTORS
330
1A
102
}
330
1A
100
AcDbPlotSettings
  1

  2

  4

  6

 40
0.0
 41
0.0
 42
0.0
 43
0.0
 44
0.0
 45
0.0
 46
0.0
 47
0.0
 48
0.0
 49
0.0
140
0.0
141
0.0
142
1.0
143
1.0
 70
   688
 72
     0
 73
     0
 74
     5
  7

 75
    16
 76
     0
 77
     2
 78
   300
147
1.0
148
0.0
149
0.0
100
AcDbLayout
  1
Layout2
 70
     1
 71
     2
 10
0.0
 20
0.0
 11
0.0
 21
0.0
 12
0.0
 22
0.0
 32
0.0
 14
0.0
 24
0.0
 34
0.0
 15
0.0
 25
0.0
 35
0.0
146
0.0
 13
0.0
 23
0.0
 33
0.0
 16
1.0
 26
0.0
 36
0.0
 17
0.0
 27
1.0
 37
0.0
 76
     0
330
23
  0
LAYOUT
  5
22
102
{ACAD_REACTORS
330
1A
102
}
330
1A
100
AcDbPlotSettings
  1

  2

  4

  6

 40
0.0
 41
0.0
 42
0.0
 43
0.0
 44
0.0
 45
0.0
 46
0.0
 47
0.0
 48
0.0
 49
0.0
140
0.0
141
0.0
142
1.0
143
1.0
 70
  1712
 72
     0
 73
     0
 74
     0
  7

 75
     0
 76
     0
 77
     2
 78
   300
147
1.0
148
0.0
149
0.0
100
AcDbLayout
  1
Model
 70
     1
 71
     0
 10
0.0
 20
0.0
 11
0.0
 21
0.0
 12
0.0
 22
0.0
 32
0.0
 14
158.241390300947
 24
-21.2689912949453
 34
0.0
 15
262.953192516357
 25
96.47581162456683
 35
0.0
146
0.0
 13
0.0
 23
0.0
 33
0.0
 16
1.0
 26
0.0
 36
0.0
 17
0.0
 27
1.0
 37
0.0
 76
     0
330
1F
  0
MLINESTYLE
  5
18
102
{ACAD_REACTORS
330
17
102
}
330
17
100
AcDbMlineStyle
  2
Standard
 70
     0
  3

 62
   256
 51
90.0
 52
90.0
 71
     2
 49
0.5
 62
   256
  6
BYLAYER
 49
-0.5
 62
   256
  6
BYLAYER
  0
ACDBPLACEHOLDER
  5
F
102
{ACAD_REACTORS
330
E
102
}
330
E
  0
ENDSEC
  0
EOF
