  0
SECTION
  2
HEADER
  9
$ACADVER
  1
AC1018
  9
$ACADMAINTVER
 70
     0
  9
$DWGCODEPAGE
  3
ANSI_1252
  9
$INSBASE
 10
0.0
 20
0.0
 30
0.0
  9
$EXTMIN
 10
-206.3592983114338
 20
-124.2555123094665
 30
0.0
  9
$EXTMAX
 10
193.377605793731
 20
109.761881720986
 30
0.0
  9
$LIMMIN
 10
0.0
 20
0.0
  9
$LIMMAX
 10
12.0
 20
9.0
  9
$ORTHOMODE
 70
     0
  9
$REGENMODE
 70
     1
  9
$FILLMODE
 70
     1
  9
$QTEXTMODE
 70
     0
  9
$MIRRTEXT
 70
     1
  9
$LTSCALE
 40
1.0
  9
$ATTMODE
 70
     1
  9
$TEXTSIZE
 40
0.2
  9
$TRACEWID
 40
0.05
  9
$TEXTSTYLE
  7
Standard
  9
$CLAYER
  8
0
  9
$CELTYPE
  6
ByLayer
  9
$CECOLOR
 62
   256
  9
$CELTSCALE
 40
1.0
  9
$DISPSILH
 70
     0
  9
$DIMSCALE
 40
1.0
  9
$DIMASZ
 40
0.18
  9
$DIMEXO
 40
0.0625
  9
$DIMDLI
 40
0.38
  9
$DIMRND
 40
0.0
  9
$DIMDLE
 40
0.0
  9
$DIMEXE
 40
0.18
  9
$DIMTP
 40
0.0
  9
$DIMTM
 40
0.0
  9
$DIMTXT
 40
0.18
  9
$DIMCEN
 40
0.09
  9
$DIMTSZ
 40
0.0
  9
$DIMTOL
 70
     0
  9
$DIMLIM
 70
     0
  9
$DIMTIH
 70
     1
  9
$DIMTOH
 70
     1
  9
$DIMSE1
 70
     0
  9
$DIMSE2
 70
     0
  9
$DIMTAD
 70
     0
  9
$DIMZIN
 70
     0
  9
$DIMBLK
  1

  9
$DIMASO
 70
     1
  9
$DIMSHO
 70
     1
  9
$DIMPOST
  1

  9
$DIMAPOST
  1

  9
$DIMALT
 70
     0
  9
$DIMALTD
 70
     2
  9
$DIMALTF
 40
25.4
  9
$DIMLFAC
 40
1.0
  9
$DIMTOFL
 70
     0
  9
$DIMTVP
 40
0.0
  9
$DIMTIX
 70
     0
  9
$DIMSOXD
 70
     0
  9
$DIMSAH
 70
     0
  9
$DIMBLK1
  1

  9
$DIMBLK2
  1

  9
$DIMSTYLE
  2
Standard
  9
$DIMCLRD
 70
     0
  9
$DIMCLRE
 70
     0
  9
$DIMCLRT
 70
     0
  9
$DIMTFAC
 40
1.0
  9
$DIMGAP
 40
0.09
  9
$DIMJUST
 70
     0
  9
$DIMSD1
 70
     0
  9
$DIMSD2
 70
     0
  9
$DIMTOLJ
 70
     1
  9
$DIMTZIN
 70
     0
  9
$DIMALTZ
 70
     0
  9
$DIMALTTZ
 70
     0
  9
$DIMUPT
 70
     0
  9
$DIMDEC
 70
     4
  9
$DIMTDEC
 70
     4
  9
$DIMALTU
 70
     2
  9
$DIMALTTD
 70
     2
  9
$DIMTXSTY
  7
Standard
  9
$DIMAUNIT
 70
     0
  9
$DIMADEC
 70
     0
  9
$DIMALTRND
 40
0.0
  9
$DIMAZIN
 70
     0
  9
$DIMDSEP
 70
    46
  9
$DIMATFIT
 70
     3
  9
$DIMFRAC
 70
     0
  9
$DIMLDRBLK
  1

  9
$DIMLUNIT
 70
     2
  9
$DIMLWD
 70
    -2
  9
$DIMLWE
 70
    -2
  9
$DIMTMOVE
 70
     0
  9
$LUNITS
 70
     2
  9
$LUPREC
 70
     4
  9
$SKETCHINC
 40
0.1
  9
$FILLETRAD
 40
0.5
  9
$AUNITS
 70
     0
  9
$AUPREC
 70
     0
  9
$MENU
  1
.
  9
$ELEVATION
 40
0.0
  9
$PELEVATION
 40
0.0
  9
$THICKNESS
 40
0.0
  9
$LIMCHECK
 70
     0
  9
$CHAMFERA
 40
0.5
  9
$CHAMFERB
 40
0.5
  9
$CHAMFERC
 40
1.0
  9
$CHAMFERD
 40
0.0
  9
$SKPOLY
 70
     0
  9
$TDCREATE
 40
2456092.356359583
  9
$TDUCREATE
 40
2456092.27302625
  9
$TDUPDATE
 40
2456092.356359595
  9
$TDUUPDATE
 40
2456092.273026261
  9
$TDINDWG
 40
0.0000000116
  9
$TDUSRTIMER
 40
0.0000000116
  9
$USRTIMER
 70
     1
  9
$ANGBASE
 50
0.0
  9
$ANGDIR
 70
     0
  9
$PDMODE
 70
     0
  9
$PDSIZE
 40
0.0
  9
$PLINEWID
 40
0.0
  9
$SPLFRAME
 70
     0
  9
$SPLINETYPE
 70
     6
  9
$SPLINESEGS
 70
     8
  9
$HANDSEED
  5
206
  9
$SURFTAB1
 70
     6
  9
$SURFTAB2
 70
     6
  9
$SURFTYPE
 70
     6
  9
$SURFU
 70
     6
  9
$SURFV
 70
     6
  9
$UCSBASE
  2

  9
$UCSNAME
  2

  9
$UCSORG
 10
0.0
 20
0.0
 30
0.0
  9
$UCSXDIR
 10
1.0
 20
0.0
 30
0.0
  9
$UCSYDIR
 10
0.0
 20
1.0
 30
0.0
  9
$UCSORTHOREF
  2

  9
$UCSORTHOVIEW
 70
     0
  9
$UCSORGTOP
 10
0.0
 20
0.0
 30
0.0
  9
$UCSORGBOTTOM
 10
0.0
 20
0.0
 30
0.0
  9
$UCSORGLEFT
 10
0.0
 20
0.0
 30
0.0
  9
$UCSORGRIGHT
 10
0.0
 20
0.0
 30
0.0
  9
$UCSORGFRONT
 10
0.0
 20
0.0
 30
0.0
  9
$UCSORGBACK
 10
0.0
 20
0.0
 30
0.0
  9
$PUCSBASE
  2

  9
$PUCSNAME
  2

  9
$PUCSORG
 10
0.0
 20
0.0
 30
0.0
  9
$PUCSXDIR
 10
1.0
 20
0.0
 30
0.0
  9
$PUCSYDIR
 10
0.0
 20
1.0
 30
0.0
  9
$PUCSORTHOREF
  2

  9
$PUCSORTHOVIEW
 70
     0
  9
$PUCSORGTOP
 10
0.0
 20
0.0
 30
0.0
  9
$PUCSORGBOTTOM
 10
0.0
 20
0.0
 30
0.0
  9
$PUCSORGLEFT
 10
0.0
 20
0.0
 30
0.0
  9
$PUCSORGRIGHT
 10
0.0
 20
0.0
 30
0.0
  9
$PUCSORGFRONT
 10
0.0
 20
0.0
 30
0.0
  9
$PUCSORGBACK
 10
0.0
 20
0.0
 30
0.0
  9
$USERI1
 70
     0
  9
$USERI2
 70
     0
  9
$USERI3
 70
     0
  9
$USERI4
 70
     0
  9
$USERI5
 70
     0
  9
$USERR1
 40
14.5
  9
$USERR2
 40
0.0
  9
$USERR3
 40
0.0
  9
$USERR4
 40
0.0
  9
$USERR5
 40
0.0
  9
$WORLDVIEW
 70
     1
  9
$SHADEDGE
 70
     3
  9
$SHADEDIF
 70
    70
  9
$TILEMODE
 70
     1
  9
$MAXACTVP
 70
    64
  9
$PINSBASE
 10
0.0
 20
0.0
 30
0.0
  9
$PLIMCHECK
 70
     0
  9
$PEXTMIN
 10
1.00000000000000E+20
 20
1.00000000000000E+20
 30
1.00000000000000E+20
  9
$PEXTMAX
 10
-1.00000000000000E+20
 20
-1.00000000000000E+20
 30
-1.00000000000000E+20
  9
$PLIMMIN
 10
0.0
 20
0.0
  9
$PLIMMAX
 10
12.0
 20
9.0
  9
$UNITMODE
 70
     0
  9
$VISRETAIN
 70
     1
  9
$PLINEGEN
 70
     0
  9
$PSLTSCALE
 70
     1
  9
$TREEDEPTH
 70
  3020
  9
$CMLSTYLE
  2
Standard
  9
$CMLJUST
 70
     0
  9
$CMLSCALE
 40
1.0
  9
$PROXYGRAPHICS
 70
     1
  9
$MEASUREMENT
 70
     1
  9
$CELWEIGHT
370
    -1
  9
$ENDCAPS
280
     0
  9
$JOINSTYLE
280
     0
  9
$LWDISPLAY
290
     0
  9
$INSUNITS
 70
     1
  9
$HYPERLINKBASE
  1

  9
$STYLESHEET
  1

  9
$XEDIT
290
     1
  9
$CEPSNTYPE
380
     0
  9
$PSTYLEMODE
290
     1
  9
$FINGERPRINTGUID
  2
{75552255-A429-4BC0-BC43-7ADD66B15924}
  9
$VERSIONGUID
  2
{FAEB1C32-E019-11D5-929B-00C0DF256EC4}
  9
$EXTNAMES
290
     1
  9
$PSVPSCALE
 40
0.0
  9
$OLESTARTUP
290
     0
  9
$SORTENTS
280
   127
  9
$INDEXCTL
280
     0
  9
$HIDETEXT
280
     1
  9
$XCLIPFRAME
290
     0
  9
$HALOGAP
280
     0
  9
$OBSCOLOR
 70
   257
  9
$OBSLTYPE
280
     0
  9
$INTERSECTIONDISPLAY
280
     0
  9
$INTERSECTIONCOLOR
 70
   257
  9
$DIMASSOC
280
     2
  9
$PROJECTNAME
  1

  0
ENDSEC
  0
SECTION
  2
CLASSES
  0
CLASS
  1
ACDBDICTIONARYWDFLT
  2
AcDbDictionaryWithDefault
  3
ObjectDBX Classes
 90
        0
 91
        3
280
     0
281
     0
  0
CLASS
  1

  2
exOdDbCircle
  3

 90
        0
 91
        3
280
     0
281
     1
  0
ENDSEC
  0
SECTION
  2
TABLES
  0
TABLE
  2
VPORT
  5
8
330
0
100
AcDbSymbolTable
 70
     1
  0
VPORT
  5
29
330
8
100
AcDbSymbolTableRecord
100
AcDbViewportTableRecord
  2
*Active
 70
     0
 10
0.0
 20
0.0
 11
1.0
 21
1.0
 12
-6.49084625885141
 22
-7.24681529424025
 13
0.0
 23
0.0
 14
0.5
 24
0.5
 15
0.5
 25
0.5
 16
0.0
 26
0.0
 36
1.0
 17
0.0
 27
0.0
 37
0.0
 40
274.3598138482247
 41
1.60267857142857
 42
50.0
 43
0.0
 44
0.0
 50
0.0
 51
0.0
 71
     0
 72
   100
 73
     1
 74
     3
 75
     0
 76
     0
 77
     0
 78
     0
281
     0
 65
     1
110
0.0
120
0.0
130
0.0
111
1.0
121
0.0
131
0.0
112
0.0
122
1.0
132
0.0
 79
     0
146
0.0
  0
ENDTAB
  0
TABLE
  2
LTYPE
  5
5
330
0
100
AcDbSymbolTable
 70
     8
  0
LTYPE
  5
14
330
5
100
AcDbSymbolTableRecord
100
AcDbLinetypeTableRecord
  2
ByBlock
 70
     0
  3

 72
    65
 73
     0
 40
0.0
  0
LTYPE
  5
15
330
5
100
AcDbSymbolTableRecord
100
AcDbLinetypeTableRecord
  2
ByLayer
 70
     0
  3

 72
    65
 73
     0
 40
0.0
  0
LTYPE
  5
16
330
5
100
AcDbSymbolTableRecord
100
AcDbLinetypeTableRecord
  2
Continuous
 70
     0
  3
Solid line
 72
    65
 73
     0
 40
0.0
  0
LTYPE
  5
2A
330
5
100
AcDbSymbolTableRecord
100
AcDbLinetypeTableRecord
  2
DASHED
 70
     0
  3
Dashed
 72
    65
 73
     2
 40
15.0
 49
7.0
 74
     0
 49
-8.0
 74
     0
  0
LTYPE
  5
2B
330
5
100
AcDbSymbolTableRecord
100
AcDbLinetypeTableRecord
  2
DOTTED
 70
     0
  3
Dotted
 72
    65
 73
     2
 40
1.0
 49
0.0
 74
     0
 49
-1.0
 74
     0
  0
LTYPE
  5
2C
330
5
100
AcDbSymbolTableRecord
100
AcDbLinetypeTableRecord
  2
DOT_CENTER
 70
     0
  3
Dot_Center
 72
    65
 73
     4
 40
14.0
 49
12.0
 74
     0
 49
-1.0
 74
     0
 49
0.0
 74
     0
 49
-1.0
 74
     0
  0
LTYPE
  5
2D
330
5
100
AcDbSymbolTableRecord
100
AcDbLinetypeTableRecord
  2
LONG_DASHED
 70
     0
  3
Long_Dashed
 72
    65
 73
     2
 40
15.0
 49
10.0
 74
     0
 49
-5.0
 74
     0
  0
LTYPE
  5
2E
330
5
100
AcDbSymbolTableRecord
100
AcDbLinetypeTableRecord
  2
DASH_CENTER
 70
     0
  3
Dash_Center
 72
    65
 73
     4
 40
14.0
 49
11.0
 74
     0
 49
-1.0
 74
     0
 49
1.0
 74
     0
 49
-1.0
 74
     0
  0
LTYPE
  5
2F
330
5
100
AcDbSymbolTableRecord
100
AcDbLinetypeTableRecord
  2
PHANTOM
 70
     0
  3
Phantom
 72
    65
 73
     6
 40
13.0
 49
10.0
 74
     0
 49
-1.0
 74
     0
 49
0.0
 74
     0
 49
-1.0
 74
     0
 49
0.0
 74
     0
 49
-1.0
 74
     0
  0
LTYPE
  5
30
330
5
100
AcDbSymbolTableRecord
100
AcDbLinetypeTableRecord
  2
CENTER_DASH_DASH
 70
     0
  3
Center_Dash_Dash
 72
    65
 73
     6
 40
14.0
 49
9.0
 74
     0
 49
-1.0
 74
     0
 49
1.0
 74
     0
 49
-1.0
 74
     0
 49
1.0
 74
     0
 49
-1.0
 74
     0
  0
ENDTAB
  0
TABLE
  2
LAYER
  5
2
330
0
100
AcDbSymbolTable
 70
     2
  0
LAYER
  5
10
330
2
100
AcDbSymbolTableRecord
100
AcDbLayerTableRecord
  2
0
 70
     0
 62
     7
  6
Continuous
370
    -3
390
F
  0
LAYER
  5
31
330
2
100
AcDbSymbolTableRecord
100
AcDbLayerTableRecord
  2
1
 70
     0
 62
     7
  6
Continuous
370
    -3
390
F
  0
ENDTAB
  0
TABLE
  2
STYLE
  5
3
330
0
100
AcDbSymbolTable
 70
     2
  0
STYLE
  5
11
330
3
100
AcDbSymbolTableRecord
100
AcDbTextStyleTableRecord
  2
Standard
 70
     0
 40
0.0
 41
1.0
 50
0.0
 71
     0
 42
0.2
  3
txt
  4

  0
STYLE
  5
E0
330
3
100
AcDbSymbolTableRecord
100
AcDbTextStyleTableRecord
  2
CONVERTER_11
 70
     0
 40
0.0
 41
0.9
 50
0.0
 71
     0
 42
0.2
  3
txt.shx
  4

  0
ENDTAB
  0
TABLE
  2
VIEW
  5
6
330
0
100
AcDbSymbolTable
 70
     0
  0
ENDTAB
  0
TABLE
  2
UCS
  5
7
330
0
100
AcDbSymbolTable
 70
     0
  0
ENDTAB
  0
TABLE
  2
APPID
  5
9
330
0
100
AcDbSymbolTable
 70
     1
  0
APPID
  5
12
330
9
100
AcDbSymbolTableRecord
100
AcDbRegAppTableRecord
  2
ACAD
 70
     0
  0
ENDTAB
  0
TABLE
  2
DIMSTYLE
  5
A
330
0
100
AcDbSymbolTable
 70
    23
100
AcDbDimStyleTable
  0
DIMSTYLE
105
27
330
A
100
AcDbSymbolTableRecord
100
AcDbDimStyleTableRecord
  2
Standard
 70
     0
340
11
  0
DIMSTYLE
105
EC
102
{ACAD_REACTORS
330
ED
102
}
330
A
100
AcDbSymbolTableRecord
100
AcDbDimStyleTableRecord
  2
ME10_DIM_10
 70
     0
 41
3.5
 42
0.0
 44
2.0
 73
     0
 74
     0
 77
     1
 78
     8
140
3.5
147
2.0
172
     1
173
     1
176
     2
177
     2
178
     2
271
     3
340
E0
  0
DIMSTYLE
105
F7
102
{ACAD_REACTORS
330
F8
102
}
330
A
100
AcDbSymbolTableRecord
100
AcDbDimStyleTableRecord
  2
ME10_DIM_11
 70
     0
 41
3.5
 42
0.0
 44
2.0
 73
     0
 74
     0
 77
     1
 78
     8
140
3.5
147
2.0
172
     1
173
     1
176
     2
177
     2
178
     2
271
     3
340
E0
  0
DIMSTYLE
105
102
102
{ACAD_REACTORS
330
103
102
}
330
A
100
AcDbSymbolTableRecord
100
AcDbDimStyleTableRecord
  2
ME10_DIM_12
 70
     0
 41
3.5
 42
0.0
 44
2.0
 73
     0
 74
     0
 77
     1
 78
     8
140
3.5
147
2.0
172
     1
173
     1
176
     2
177
     2
178
     2
271
     3
340
E0
  0
DIMSTYLE
105
10D
102
{ACAD_REACTORS
330
10E
102
}
330
A
100
AcDbSymbolTableRecord
100
AcDbDimStyleTableRecord
  2
ME10_DIM_13
 70
     0
 41
3.5
 42
0.0
 44
2.0
 73
     0
 74
     0
 77
     1
 78
     8
140
3.5
147
2.0
172
     1
173
     1
176
     2
177
     2
178
     2
271
     3
340
E0
  0
DIMSTYLE
105
118
102
{ACAD_REACTORS
330
119
102
}
330
A
100
AcDbSymbolTableRecord
100
AcDbDimStyleTableRecord
  2
ME10_DIM_14
 70
     0
 41
3.5
 42
0.0
 44
2.0
 73
     0
 74
     0
 77
     1
 78
     8
140
3.5
147
2.0
172
     1
173
     1
176
     2
177
     2
178
     2
271
     3
340
E0
  0
DIMSTYLE
105
123
102
{ACAD_REACTORS
330
124
102
}
330
A
100
AcDbSymbolTableRecord
100
AcDbDimStyleTableRecord
  2
ME10_DIM_15
 70
     0
 41
3.5
 42
0.0
 44
2.0
 73
     0
 74
     0
 77
     1
 78
     8
140
3.5
147
2.0
172
     1
173
     1
176
     2
177
     2
178
     2
271
     3
340
E0
  0
DIMSTYLE
105
12E
102
{ACAD_REACTORS
330
12F
102
}
330
A
100
AcDbSymbolTableRecord
100
AcDbDimStyleTableRecord
  2
ME10_DIM_16
 70
     0
 41
3.5
 42
0.0
 44
2.0
 73
     0
 74
     0
 77
     1
 78
     8
140
3.5
147
2.0
172
     1
173
     1
176
     2
177
     2
178
     2
271
     3
340
E0
  0
DIMSTYLE
105
139
102
{ACAD_REACTORS
330
13A
102
}
330
A
100
AcDbSymbolTableRecord
100
AcDbDimStyleTableRecord
  2
ME10_DIM_17
 70
     0
 41
3.5
 42
0.0
 44
2.0
 73
     0
 74
     0
 77
     1
 78
     8
140
3.5
147
2.0
172
     1
173
     1
176
     2
177
     2
178
     2
271
     3
340
E0
  0
DIMSTYLE
105
144
102
{ACAD_REACTORS
330
145
102
}
330
A
100
AcDbSymbolTableRecord
100
AcDbDimStyleTableRecord
  2
ME10_DIM_18
 70
     0
 41
3.5
 42
0.0
 44
2.0
 73
     0
 74
     0
 77
     1
 78
     8
140
3.5
147
2.0
172
     1
173
     1
176
     2
177
     2
178
     2
271
     2
340
E0
  0
DIMSTYLE
105
151
102
{ACAD_REACTORS
330
152
102
}
330
A
100
AcDbSymbolTableRecord
100
AcDbDimStyleTableRecord
  2
ME10_DIM_19
 70
     0
 41
3.5
 42
0.0
 44
2.0
 73
     0
 74
     0
 77
     1
 78
     8
140
3.5
147
2.0
172
     1
173
     1
176
     2
177
     2
178
     2
271
     2
340
E0
  0
DIMSTYLE
105
15E
102
{ACAD_REACTORS
330
15F
102
}
330
A
100
AcDbSymbolTableRecord
100
AcDbDimStyleTableRecord
  2
ME10_DIM_20
 70
     0
 41
3.5
 42
0.0
 44
2.0
 73
     0
 74
     0
 77
     1
 78
     8
140
3.5
147
2.0
172
     1
173
     1
176
     2
177
     2
178
     2
271
     2
340
E0
  0
DIMSTYLE
105
169
102
{ACAD_REACTORS
330
16A
102
}
330
A
100
AcDbSymbolTableRecord
100
AcDbDimStyleTableRecord
  2
ME10_DIM_21
 70
     0
 41
3.5
 42
0.0
 44
2.0
 73
     0
 74
     0
 77
     1
 78
     8
140
3.5
147
2.0
172
     1
173
     1
176
     2
177
     2
178
     2
271
     2
340
E0
  0
DIMSTYLE
105
174
102
{ACAD_REACTORS
330
175
102
}
330
A
100
AcDbSymbolTableRecord
100
AcDbDimStyleTableRecord
  2
ME10_DIM_22
 70
     0
 41
3.5
 42
0.0
 44
2.0
 73
     0
 74
     0
 77
     1
 78
     8
140
3.5
147
2.0
172
     1
173
     1
176
     2
177
     2
178
     2
271
     2
340
E0
  0
DIMSTYLE
105
17F
102
{ACAD_REACTORS
330
180
102
}
330
A
100
AcDbSymbolTableRecord
100
AcDbDimStyleTableRecord
  2
ME10_DIM_23
 70
     0
 41
3.5
 42
0.0
 44
2.0
 73
     0
 74
     0
 77
     1
 78
     8
140
3.5
147
2.0
172
     1
173
     1
176
     2
177
     2
178
     2
271
     2
340
E0
  0
DIMSTYLE
105
18A
102
{ACAD_REACTORS
330
18B
102
}
330
A
100
AcDbSymbolTableRecord
100
AcDbDimStyleTableRecord
  2
ME10_DIM_24
 70
     0
 41
3.5
 42
0.0
 44
2.0
 73
     0
 74
     0
 77
     1
 78
     8
140
3.5
147
2.0
172
     1
173
     1
176
     2
177
     2
178
     2
271
     2
340
E0
  0
DIMSTYLE
105
197
102
{ACAD_REACTORS
330
198
102
}
330
A
100
AcDbSymbolTableRecord
100
AcDbDimStyleTableRecord
  2
ME10_DIM_25
 70
     0
 41
3.5
 42
0.0
 44
2.0
 73
     0
 74
     0
 77
     1
 78
     8
140
3.5
147
2.0
172
     1
173
     1
176
     2
177
     2
178
     2
271
     2
340
E0
  0
DIMSTYLE
105
1A2
102
{ACAD_REACTORS
330
1A3
102
}
330
A
100
AcDbSymbolTableRecord
100
AcDbDimStyleTableRecord
  2
ME10_DIM_26
 70
     0
 41
3.5
 42
0.0
 44
2.0
 73
     0
 74
     0
 77
     1
 78
     8
140
3.5
147
2.0
172
     1
173
     1
176
     2
177
     2
178
     2
271
     2
340
E0
  0
DIMSTYLE
105
1AD
102
{ACAD_REACTORS
330
1AE
102
}
330
A
100
AcDbSymbolTableRecord
100
AcDbDimStyleTableRecord
  2
ME10_DIM_27
 70
     0
 41
3.5
 42
0.0
 44
2.0
 73
     0
 74
     0
 77
     1
 78
     8
140
3.5
147
2.0
172
     1
173
     1
176
     2
177
     2
178
     2
271
     3
340
E0
  0
DIMSTYLE
105
1BA
102
{ACAD_REACTORS
330
1BB
102
}
330
A
100
AcDbSymbolTableRecord
100
AcDbDimStyleTableRecord
  2
ME10_DIM_28
 70
     0
 41
3.5
 42
0.0
 44
2.0
 73
     0
 74
     0
 77
     1
 78
     8
140
3.5
147
2.0
172
     1
173
     1
176
     2
177
     2
178
     2
271
     3
340
E0
  0
DIMSTYLE
105
1C5
102
{ACAD_REACTORS
330
1C6
102
}
330
A
100
AcDbSymbolTableRecord
100
AcDbDimStyleTableRecord
  2
ME10_DIM_29
 70
     0
 41
3.5
 42
0.0
 44
2.0
 73
     0
 74
     0
 77
     1
 78
     8
140
3.5
147
2.0
172
     1
173
     1
176
     2
177
     2
178
     2
271
     3
340
E0
  0
DIMSTYLE
105
1D2
102
{ACAD_REACTORS
330
1D3
102
}
330
A
100
AcDbSymbolTableRecord
100
AcDbDimStyleTableRecord
  2
ME10_DIM_30
 70
     0
 41
3.5
 42
0.0
 44
2.0
 73
     0
 74
     0
 77
     1
 78
     8
140
3.5
147
2.0
172
     1
173
     1
176
     2
177
     2
178
     2
271
     2
340
E0
  0
DIMSTYLE
105
1DD
102
{ACAD_REACTORS
330
1DE
102
}
330
A
100
AcDbSymbolTableRecord
100
AcDbDimStyleTableRecord
  2
ME10_DIM_31
 70
     0
 41
3.5
 42
0.0
 44
2.0
 73
     0
 74
     0
 77
     1
 78
     8
140
3.5
147
2.0
172
     1
173
     1
176
     2
177
     2
178
     2
271
     2
340
E0
  0
ENDTAB
  0
TABLE
  2
BLOCK_RECORD
  5
1
330
0
100
AcDbSymbolTable
 70
    28
  0
BLOCK_RECORD
  5
1F
330
1
100
AcDbSymbolTableRecord
100
AcDbBlockTableRecord
  2
*Model_Space
340
22
  0
BLOCK_RECORD
  5
1B
330
1
100
AcDbSymbolTableRecord
100
AcDbBlockTableRecord
  2
*Paper_Space
340
1E
  0
BLOCK_RECORD
  5
23
330
1
100
AcDbSymbolTableRecord
100
AcDbBlockTableRecord
  2
*Paper_Space0
340
26
  0
BLOCK_RECORD
  5
E3
330
1
100
AcDbSymbolTableRecord
100
AcDbBlockTableRecord
  2
*D1
340
0
  0
BLOCK_RECORD
  5
EE
330
1
100
AcDbSymbolTableRecord
100
AcDbBlockTableRecord
  2
*D2
340
0
  0
BLOCK_RECORD
  5
F9
330
1
100
AcDbSymbolTableRecord
100
AcDbBlockTableRecord
  2
*D3
340
0
  0
BLOCK_RECORD
  5
104
330
1
100
AcDbSymbolTableRecord
100
AcDbBlockTableRecord
  2
*D4
340
0
  0
BLOCK_RECORD
  5
10F
330
1
100
AcDbSymbolTableRecord
100
AcDbBlockTableRecord
  2
*D5
340
0
  0
BLOCK_RECORD
  5
11A
330
1
100
AcDbSymbolTableRecord
100
AcDbBlockTableRecord
  2
*D6
340
0
  0
BLOCK_RECORD
  5
125
330
1
100
AcDbSymbolTableRecord
100
AcDbBlockTableRecord
  2
*D7
340
0
  0
BLOCK_RECORD
  5
130
330
1
100
AcDbSymbolTableRecord
100
AcDbBlockTableRecord
  2
*D8
340
0
  0
BLOCK_RECORD
  5
13B
330
1
100
AcDbSymbolTableRecord
100
AcDbBlockTableRecord
  2
*D9
340
0
  0
BLOCK_RECORD
  5
146
330
1
100
AcDbSymbolTableRecord
100
AcDbBlockTableRecord
  2
*D10
340
0
  0
BLOCK_RECORD
  5
153
330
1
100
AcDbSymbolTableRecord
100
AcDbBlockTableRecord
  2
*D11
340
0
  0
BLOCK_RECORD
  5
160
330
1
100
AcDbSymbolTableRecord
100
AcDbBlockTableRecord
  2
*D12
340
0
  0
BLOCK_RECORD
  5
16B
330
1
100
AcDbSymbolTableRecord
100
AcDbBlockTableRecord
  2
*D13
340
0
  0
BLOCK_RECORD
  5
176
330
1
100
AcDbSymbolTableRecord
100
AcDbBlockTableRecord
  2
*D14
340
0
  0
BLOCK_RECORD
  5
181
330
1
100
AcDbSymbolTableRecord
100
AcDbBlockTableRecord
  2
*D15
340
0
  0
BLOCK_RECORD
  5
18C
330
1
100
AcDbSymbolTableRecord
100
AcDbBlockTableRecord
  2
*D16
340
0
  0
BLOCK_RECORD
  5
199
330
1
100
AcDbSymbolTableRecord
100
AcDbBlockTableRecord
  2
*D17
340
0
  0
BLOCK_RECORD
  5
1A4
330
1
100
AcDbSymbolTableRecord
100
AcDbBlockTableRecord
  2
*D18
340
0
  0
BLOCK_RECORD
  5
1AF
330
1
100
AcDbSymbolTableRecord
100
AcDbBlockTableRecord
  2
*D19
340
0
  0
BLOCK_RECORD
  5
1BC
330
1
100
AcDbSymbolTableRecord
100
AcDbBlockTableRecord
  2
*D20
340
0
  0
BLOCK_RECORD
  5
1C7
330
1
100
AcDbSymbolTableRecord
100
AcDbBlockTableRecord
  2
*D21
340
0
  0
BLOCK_RECORD
  5
1D4
330
1
100
AcDbSymbolTableRecord
100
AcDbBlockTableRecord
  2
*D22
340
0
  0
BLOCK_RECORD
  5
1DF
330
1
100
AcDbSymbolTableRecord
100
AcDbBlockTableRecord
  2
*D23
340
0
102
{BLKREFS
331
1E5
102
}
  0
BLOCK_RECORD
  5
1E6
330
1
100
AcDbSymbolTableRecord
100
AcDbBlockTableRecord
  2
*D24
340
0
102
{BLKREFS
331
1EC
102
}
  0
BLOCK_RECORD
  5
1ED
330
1
100
AcDbSymbolTableRecord
100
AcDbBlockTableRecord
  2
*D25
340
0
102
{BLKREFS
331
1F4
102
}
  0
BLOCK_RECORD
  5
1F5
330
1
100
AcDbSymbolTableRecord
100
AcDbBlockTableRecord
  2
*D26
340
0
102
{BLKREFS
331
1FC
102
}
  0
BLOCK_RECORD
  5
1FD
330
1
100
AcDbSymbolTableRecord
100
AcDbBlockTableRecord
  2
*D27
340
0
102
{BLKREFS
331
205
102
}
  0
ENDTAB
  0
ENDSEC
  0
SECTION
  2
BLOCKS
  0
BLOCK
  5
20
330
1F
100
AcDbEntity
  8
0
100
AcDbBlockBegin
  2
*Model_Space
 70
     0
 71
     0
 10
0.0
 20
0.0
 30
0.0
  3
*Model_Space
  1

  0
ENDBLK
  5
21
330
1F
100
AcDbEntity
  8
0
100
AcDbBlockEnd
  0
BLOCK
  5
1C
330
1B
100
AcDbEntity
 67
     1
  8
0
100
AcDbBlockBegin
  2
*Paper_Space
 70
     0
 71
     0
 10
0.0
 20
0.0
 30
0.0
  3
*Paper_Space
  1

  0
ENDBLK
  5
1D
330
1B
100
AcDbEntity
 67
     1
  8
0
100
AcDbBlockEnd
  0
BLOCK
  5
24
330
23
100
AcDbEntity
  8
0
100
AcDbBlockBegin
  2
*Paper_Space0
 70
     0
 71
     0
 10
0.0
 20
0.0
 30
0.0
  3
*Paper_Space0
  1

  0
ENDBLK
  5
25
330
23
100
AcDbEntity
  8
0
100
AcDbBlockEnd
  0
BLOCK
  5
EA
330
E3
100
AcDbEntity
  8
0
100
AcDbBlockBegin
  2
*D1
 70
     1
 71
     0
 10
0.0
 20
0.0
 30
0.0
  3
*D1
  1

  0
LINE
  5
E4
330
E3
100
AcDbEntity
  8
1
  6
Continuous
 62
     2
100
AcDbLine
 10
117.927317388799
 20
82.87660009231135
 30
0.0
 11
117.927317388799
 21
-72.12339990768865
 31
0.0
  0
LINE
  5
E5
330
E3
100
AcDbEntity
  8
1
  6
Continuous
 62
     2
100
AcDbLine
 10
162.9119338369392
 20
82.87660009231135
 30
0.0
 11
115.927317388799
 21
82.87660009231135
 31
0.0
  0
LINE
  5
E6
330
E3
100
AcDbEntity
  8
1
  6
Continuous
 62
     2
100
AcDbLine
 10
162.9119338369392
 20
-72.12339990768865
 30
0.0
 11
115.927317388799
 21
-72.12339990768865
 31
0.0
  0
SOLID
  5
E7
330
E3
100
AcDbEntity
  8
1
 62
     2
100
AcDbTrace
 10
118.3881011303549
 20
79.37660009231135
 30
0.0
 11
117.4665336472431
 21
79.37660009231135
 31
0.0
 12
117.927317388799
 22
82.87660009231135
 32
0.0
 13
117.927317388799
 23
82.87660009231135
 33
0.0
  0
SOLID
  5
E8
330
E3
100
AcDbEntity
  8
1
 62
     2
100
AcDbTrace
 10
117.4665336472431
 20
-68.62339990768865
 30
0.0
 11
118.3881011303549
 21
-68.62339990768865
 31
0.0
 12
117.927317388799
 22
-72.12339990768865
 32
0.0
 13
117.927317388799
 23
-72.12339990768865
 33
0.0
  0
MTEXT
  5
E9
330
E3
100
AcDbEntity
  8
1
 62
     2
100
AcDbMText
 10
115.927317388799
 20
1.49087507449884
 30
0.0
 40
3.5
 41
0.0
 71
     7
 72
     1
  1
155
  7
CONVERTER_11
 11
0.0
 21
1.0
 31
0.0
 73
     1
 44
0.60024009603842
  0
ENDBLK
  5
EB
330
E3
100
AcDbEntity
  8
0
100
AcDbBlockEnd
  0
BLOCK
  5
F5
330
EE
100
AcDbEntity
  8
0
100
AcDbBlockBegin
  2
*D2
 70
     1
 71
     0
 10
0.0
 20
0.0
 30
0.0
  3
*D2
  1

  0
LINE
  5
EF
330
EE
100
AcDbEntity
  8
1
  6
Continuous
 62
     2
100
AcDbLine
 10
134.371228322766
 20
56.37660009231139
 30
0.0
 11
134.371228322766
 21
-45.62339990768865
 31
0.0
  0
LINE
  5
F0
330
EE
100
AcDbEntity
  8
1
  6
Continuous
 62
     2
100
AcDbLine
 10
161.9119338369392
 20
56.37660009231139
 30
0.0
 11
132.371228322766
 21
56.37660009231139
 31
0.0
  0
LINE
  5
F1
330
EE
100
AcDbEntity
  8
1
  6
Continuous
 62
     2
100
AcDbLine
 10
161.9119338369392
 20
-45.62339990768865
 30
0.0
 11
132.371228322766
 21
-45.62339990768865
 31
0.0
  0
SOLID
  5
F2
330
EE
100
AcDbEntity
  8
1
 62
     2
100
AcDbTrace
 10
134.8320120643219
 20
52.87660009231139
 30
0.0
 11
133.9104445812101
 21
52.87660009231139
 31
0.0
 12
134.371228322766
 22
56.37660009231139
 32
0.0
 13
134.371228322766
 23
56.37660009231139
 33
0.0
  0
SOLID
  5
F3
330
EE
100
AcDbEntity
  8
1
 62
     2
100
AcDbTrace
 10
133.9104445812101
 20
-42.12339990768865
 30
0.0
 11
134.8320120643219
 21
-42.12339990768865
 31
0.0
 12
134.371228322766
 22
-45.62339990768865
 32
0.0
 13
134.371228322766
 23
-45.62339990768865
 33
0.0
  0
MTEXT
  5
F4
330
EE
100
AcDbEntity
  8
1
 62
     2
100
AcDbMText
 10
132.371228322766
 20
1.49087507449884
 30
0.0
 40
3.5
 41
0.0
 71
     7
 72
     1
  1
102
  7
CONVERTER_11
 11
0.0
 21
1.0
 31
0.0
 73
     1
 44
0.60024009603842
  0
ENDBLK
  5
F6
330
EE
100
AcDbEntity
  8
0
100
AcDbBlockEnd
  0
BLOCK
  5
100
330
F9
100
AcDbEntity
  8
0
100
AcDbBlockBegin
  2
*D3
 70
     1
 71
     0
 10
0.0
 20
0.0
 30
0.0
  3
*D3
  1

  0
LINE
  5
FA
330
F9
100
AcDbEntity
  8
1
  6
Continuous
 62
     2
100
AcDbLine
 10
126.290444127128
 20
72.87660009231135
 30
0.0
 11
126.290444127128
 21
-62.12339990768865
 31
0.0
  0
LINE
  5
FB
330
F9
100
AcDbEntity
  8
1
  6
Continuous
 62
     2
100
AcDbLine
 10
166.6619338369392
 20
72.87660009231135
 30
0.0
 11
124.290444127128
 21
72.87660009231135
 31
0.0
  0
LINE
  5
FC
330
F9
100
AcDbEntity
  8
1
  6
Continuous
 62
     2
100
AcDbLine
 10
166.6619338369392
 20
-62.12339990768865
 30
0.0
 11
124.290444127128
 21
-62.12339990768865
 31
0.0
  0
SOLID
  5
FD
330
F9
100
AcDbEntity
  8
1
 62
     2
100
AcDbTrace
 10
126.7512278686839
 20
69.37660009231135
 30
0.0
 11
125.8296603855721
 21
69.37660009231135
 31
0.0
 12
126.290444127128
 22
72.87660009231135
 32
0.0
 13
126.290444127128
 23
72.87660009231135
 33
0.0
  0
SOLID
  5
FE
330
F9
100
AcDbEntity
  8
1
 62
     2
100
AcDbTrace
 10
125.8296603855721
 20
-58.62339990768865
 30
0.0
 11
126.7512278686839
 21
-58.62339990768865
 31
0.0
 12
126.290444127128
 22
-62.12339990768865
 32
0.0
 13
126.290444127128
 23
-62.12339990768865
 33
0.0
  0
MTEXT
  5
FF
330
F9
100
AcDbEntity
  8
1
 62
     2
100
AcDbMText
 10
124.290444127128
 20
1.80593885584947
 30
0.0
 40
3.5
 41
0.0
 71
     7
 72
     1
  1
135
  7
CONVERTER_11
 11
0.0
 21
1.0
 31
0.0
 73
     1
 44
0.60024009603842
  0
ENDBLK
  5
101
330
F9
100
AcDbEntity
  8
0
100
AcDbBlockEnd
  0
BLOCK
  5
10B
330
104
100
AcDbEntity
  8
0
100
AcDbBlockBegin
  2
*D4
 70
     1
 71
     0
 10
0.0
 20
0.0
 30
0.0
  3
*D4
  1

  0
LINE
  5
105
330
104
100
AcDbEntity
  8
1
  6
Continuous
 62
     2
100
AcDbLine
 10
191.377605793731
 20
62.87660009231135
 30
0.0
 11
191.377605793731
 21
-52.12339990768865
 31
0.0
  0
LINE
  5
106
330
104
100
AcDbEntity
  8
1
  6
Continuous
 62
     2
100
AcDbLine
 10
159.1619338369392
 20
62.87660009231135
 30
0.0
 11
193.377605793731
 21
62.87660009231135
 31
0.0
  0
LINE
  5
107
330
104
100
AcDbEntity
  8
1
  6
Continuous
 62
     2
100
AcDbLine
 10
159.1619338369392
 20
-52.12339990768865
 30
0.0
 11
193.377605793731
 21
-52.12339990768865
 31
0.0
  0
SOLID
  5
108
330
104
100
AcDbEntity
  8
1
 62
     2
100
AcDbTrace
 10
191.8383895352869
 20
59.37660009231135
 30
0.0
 11
190.9168220521751
 21
59.37660009231135
 31
0.0
 12
191.377605793731
 22
62.87660009231135
 32
0.0
 13
191.377605793731
 23
62.87660009231135
 33
0.0
  0
SOLID
  5
109
330
104
100
AcDbEntity
  8
1
 62
     2
100
AcDbTrace
 10
190.9168220521751
 20
-48.62339990768865
 30
0.0
 11
191.8383895352869
 21
-48.62339990768865
 31
0.0
 12
191.377605793731
 22
-52.12339990768865
 32
0.0
 13
191.377605793731
 23
-52.12339990768865
 33
0.0
  0
MTEXT
  5
10A
330
104
100
AcDbEntity
  8
1
 62
     2
100
AcDbMText
 10
189.377605793731
 20
1.51059594712659
 30
0.0
 40
3.5
 41
0.0
 71
     7
 72
     1
  1
115
  7
CONVERTER_11
 11
0.0
 21
1.0
 31
0.0
 73
     1
 44
0.60024009603842
  0
ENDBLK
  5
10C
330
104
100
AcDbEntity
  8
0
100
AcDbBlockEnd
  0
BLOCK
  5
116
330
10F
100
AcDbEntity
  8
0
100
AcDbBlockBegin
  2
*D5
 70
     1
 71
     0
 10
0.0
 20
0.0
 30
0.0
  3
*D5
  1

  0
LINE
  5
110
330
10F
100
AcDbEntity
  8
1
  6
Continuous
 62
     2
100
AcDbLine
 10
156.9119338369392
 20
92.7043589412298
 30
0.0
 11
168.9119338369392
 21
92.7043589412298
 31
0.0
  0
LINE
  5
111
330
10F
100
AcDbEntity
  8
1
  6
Continuous
 62
     2
100
AcDbLine
 10
156.9119338369392
 20
65.12660009231135
 30
0.0
 11
156.9119338369392
 21
94.7043589412298
 31
0.0
  0
LINE
  5
112
330
10F
100
AcDbEntity
  8
1
  6
Continuous
 62
     2
100
AcDbLine
 10
168.9119338369392
 20
75.12660009231135
 30
0.0
 11
168.9119338369392
 21
94.7043589412298
 31
0.0
  0
SOLID
  5
113
330
10F
100
AcDbEntity
  8
1
 62
     2
100
AcDbTrace
 10
160.4119338369392
 20
93.16514268278569
 30
0.0
 11
160.4119338369392
 21
92.24357519967391
 31
0.0
 12
156.9119338369392
 22
92.7043589412298
 32
0.0
 13
156.9119338369392
 23
92.7043589412298
 33
0.0
  0
SOLID
  5
114
330
10F
100
AcDbEntity
  8
1
 62
     2
100
AcDbTrace
 10
165.4119338369392
 20
92.24357519967391
 30
0.0
 11
165.4119338369392
 21
93.16514268278569
 31
0.0
 12
168.9119338369392
 22
92.7043589412298
 32
0.0
 13
168.9119338369392
 23
92.7043589412298
 33
0.0
  0
MTEXT
  5
115
330
10F
100
AcDbEntity
  8
1
 62
     2
100
AcDbMText
 10
160.4494479856205
 20
94.7043589412298
 30
0.0
 40
3.5
 41
0.0
 71
     7
 72
     1
  1
12
  7
CONVERTER_11
 11
0.9999999999970621
 21
2.424068405545307E-6
 31
0.0
 73
     1
 44
0.60024009603842
  0
ENDBLK
  5
117
330
10F
100
AcDbEntity
  8
0
100
AcDbBlockEnd
  0
BLOCK
  5
121
330
11A
100
AcDbEntity
  8
0
100
AcDbBlockBegin
  2
*D6
 70
     1
 71
     0
 10
0.0
 20
0.0
 30
0.0
  3
*D6
  1

  0
LINE
  5
11B
330
11A
100
AcDbEntity
  8
1
  6
Continuous
 62
     2
100
AcDbLine
 10
-187.3592983114339
 20
90.4656621265976
 30
0.0
 11
-175.3592983114339
 21
90.4656621265976
 31
0.0
  0
LINE
  5
11C
330
11A
100
AcDbEntity
  8
1
  6
Continuous
 62
     2
100
AcDbLine
 10
-187.3592983114339
 20
75.12660009231135
 30
0.0
 11
-187.3592983114339
 21
92.4656621265976
 31
0.0
  0
LINE
  5
11D
330
11A
100
AcDbEntity
  8
1
  6
Continuous
 62
     2
100
AcDbLine
 10
-175.3592983114339
 20
65.12660009231135
 30
0.0
 11
-175.3592983114339
 21
92.4656621265976
 31
0.0
  0
SOLID
  5
11E
330
11A
100
AcDbEntity
  8
1
 62
     2
100
AcDbTrace
 10
-183.8592983114339
 20
90.9264458681535
 30
0.0
 11
-183.8592983114339
 21
90.00487838504172
 31
0.0
 12
-187.3592983114339
 22
90.4656621265976
 32
0.0
 13
-187.3592983114339
 23
90.4656621265976
 33
0.0
  0
SOLID
  5
11F
330
11A
100
AcDbEntity
  8
1
 62
     2
100
AcDbTrace
 10
-178.8592983114339
 20
90.00487838504172
 30
0.0
 11
-178.8592983114339
 21
90.9264458681535
 31
0.0
 12
-175.3592983114339
 22
90.4656621265976
 32
0.0
 13
-175.3592983114339
 23
90.4656621265976
 33
0.0
  0
MTEXT
  5
120
330
11A
100
AcDbEntity
  8
1
 62
     2
100
AcDbMText
 10
-182.965306270544
 20
92.4656621265976
 30
0.0
 40
3.5
 41
0.0
 71
     7
 72
     1
  1
12
  7
CONVERTER_11
 11
0.9999999999970621
 21
2.424068405545307E-6
 31
0.0
 73
     1
 44
0.60024009603842
  0
ENDBLK
  5
122
330
11A
100
AcDbEntity
  8
0
100
AcDbBlockEnd
  0
BLOCK
  5
12C
330
125
100
AcDbEntity
  8
0
100
AcDbBlockBegin
  2
*D7
 70
     1
 71
     0
 10
0.0
 20
0.0
 30
0.0
  3
*D7
  1

  0
LINE
  5
126
330
125
100
AcDbEntity
  8
1
  6
Continuous
 62
     2
100
AcDbLine
 10
-120.183239933898
 20
-72.12339990768865
 30
0.0
 11
-120.183239933898
 21
82.87660009231135
 31
0.0
  0
LINE
  5
127
330
125
100
AcDbEntity
  8
1
  6
Continuous
 62
     2
100
AcDbLine
 10
-181.3592983114338
 20
-72.12339990768865
 30
0.0
 11
-118.183239933898
 21
-72.12339990768865
 31
0.0
  0
LINE
  5
128
330
125
100
AcDbEntity
  8
1
  6
Continuous
 62
     2
100
AcDbLine
 10
-181.3592983114338
 20
82.87660009231135
 30
0.0
 11
-118.183239933898
 21
82.87660009231135
 31
0.0
  0
SOLID
  5
129
330
125
100
AcDbEntity
  8
1
 62
     2
100
AcDbTrace
 10
-119.7224561923421
 20
79.37660009231135
 30
0.0
 11
-120.6440236754539
 21
79.37660009231135
 31
0.0
 12
-120.183239933898
 22
82.87660009231135
 32
0.0
 13
-120.183239933898
 23
82.87660009231135
 33
0.0
  0
SOLID
  5
12A
330
125
100
AcDbEntity
  8
1
 62
     2
100
AcDbTrace
 10
-120.6440236754539
 20
-68.62339990768865
 30
0.0
 11
-119.7224561923421
 21
-68.62339990768865
 31
0.0
 12
-120.183239933898
 22
-72.12339990768865
 32
0.0
 13
-120.183239933898
 23
-72.12339990768865
 33
0.0
  0
MTEXT
  5
12B
330
125
100
AcDbEntity
  8
1
 62
     2
100
AcDbMText
 10
-122.183239933898
 20
4.49938872937187
 30
0.0
 40
3.5
 41
0.0
 71
     7
 72
     1
  1
155
  7
CONVERTER_11
 11
0.0
 21
1.0
 31
0.0
 73
     1
 44
0.60024009603842
  0
ENDBLK
  5
12D
330
125
100
AcDbEntity
  8
0
100
AcDbBlockEnd
  0
BLOCK
  5
137
330
130
100
AcDbEntity
  8
0
100
AcDbBlockBegin
  2
*D8
 70
     1
 71
     0
 10
0.0
 20
0.0
 30
0.0
  3
*D8
  1

  0
LINE
  5
131
330
130
100
AcDbEntity
  8
1
  6
Continuous
 62
     2
100
AcDbLine
 10
-143.386767793525
 20
-52.12339990768865
 30
0.0
 11
-143.386767793525
 21
62.87660009231135
 31
0.0
  0
LINE
  5
132
330
130
100
AcDbEntity
  8
1
  6
Continuous
 62
     2
100
AcDbLine
 10
-173.1092983114338
 20
-52.12339990768865
 30
0.0
 11
-141.386767793525
 21
-52.12339990768865
 31
0.0
  0
LINE
  5
133
330
130
100
AcDbEntity
  8
1
  6
Continuous
 62
     2
100
AcDbLine
 10
-173.1092983114338
 20
62.87660009231135
 30
0.0
 11
-141.386767793525
 21
62.87660009231135
 31
0.0
  0
SOLID
  5
134
330
130
100
AcDbEntity
  8
1
 62
     2
100
AcDbTrace
 10
-142.9259840519691
 20
59.37660009231135
 30
0.0
 11
-143.8475515350809
 21
59.37660009231135
 31
0.0
 12
-143.386767793525
 22
62.87660009231135
 32
0.0
 13
-143.386767793525
 23
62.87660009231135
 33
0.0
  0
SOLID
  5
135
330
130
100
AcDbEntity
  8
1
 62
     2
100
AcDbTrace
 10
-143.8475515350809
 20
-48.62339990768865
 30
0.0
 11
-142.9259840519691
 21
-48.62339990768865
 31
0.0
 12
-143.386767793525
 22
-52.12339990768865
 32
0.0
 13
-143.386767793525
 23
-52.12339990768865
 33
0.0
  0
MTEXT
  5
136
330
130
100
AcDbEntity
  8
1
 62
     2
100
AcDbMText
 10
-145.386767793525
 20
-6.62667294603022
 30
0.0
 40
3.5
 41
0.0
 71
     7
 72
     1
  1
115
  7
CONVERTER_11
 11
0.0
 21
1.0
 31
0.0
 73
     1
 44
0.60024009603842
  0
ENDBLK
  5
138
330
130
100
AcDbEntity
  8
0
100
AcDbBlockEnd
  0
BLOCK
  5
142
330
13B
100
AcDbEntity
  8
0
100
AcDbBlockBegin
  2
*D9
 70
     1
 71
     0
 10
0.0
 20
0.0
 30
0.0
  3
*D9
  1

  0
LINE
  5
13C
330
13B
100
AcDbEntity
  8
1
  6
Continuous
 62
     2
100
AcDbLine
 10
56.2871329836921
 20
-66.6979399702632
 30
0.0
 11
56.2871329836921
 21
-26.69793997026321
 31
0.0
  0
LINE
  5
13D
330
13B
100
AcDbEntity
  8
1
  6
Continuous
 62
     2
100
AcDbLine
 10
47.38679367266683
 20
-26.69793997026321
 30
0.0
 11
58.2871329836921
 21
-26.69793997026321
 31
0.0
  0
LINE
  5
13E
330
13B
100
AcDbEntity
  8
1
  6
Continuous
 62
     2
100
AcDbLine
 10
47.38679367266684
 20
-66.6979399702632
 30
0.0
 11
58.2871329836921
 21
-66.6979399702632
 31
0.0
  0
SOLID
  5
13F
330
13B
100
AcDbEntity
  8
1
 62
     2
100
AcDbTrace
 10
55.82634924213622
 20
-63.19793997026321
 30
0.0
 11
56.74791672524799
 21
-63.19793997026321
 31
0.0
 12
56.2871329836921
 22
-66.6979399702632
 32
0.0
 13
56.2871329836921
 23
-66.6979399702632
 33
0.0
  0
SOLID
  5
140
330
13B
100
AcDbEntity
  8
1
 62
     2
100
AcDbTrace
 10
56.74791672524799
 20
-30.19793997026321
 30
0.0
 11
55.82634924213622
 21
-30.19793997026321
 31
0.0
 12
56.2871329836921
 22
-26.69793997026321
 32
0.0
 13
56.2871329836921
 23
-26.69793997026321
 33
0.0
  0
MTEXT
  5
141
330
13B
100
AcDbEntity
  8
1
 62
     2
100
AcDbMText
 10
54.2871329836921
 20
-46.91926126913521
 30
0.0
 40
3.5
 41
0.0
 71
     7
 72
     1
  1
B
  7
CONVERTER_11
 11
0.0
 21
1.0
 31
0.0
 73
     1
 44
0.60024009603842
  0
ENDBLK
  5
143
330
13B
100
AcDbEntity
  8
0
100
AcDbBlockEnd
  0
BLOCK
  5
14F
330
146
100
AcDbEntity
  8
0
100
AcDbBlockBegin
  2
*D10
 70
     1
 71
     0
 10
0.0
 20
0.0
 30
0.0
  3
*D10
  1

  0
LINE
  5
147
330
146
100
AcDbEntity
  8
1
  6
Continuous
 62
     2
100
AcDbLine
 10
29.7663647008797
 20
-73.6979399702632
 30
0.0
 11
29.7663647008797
 21
-66.6979399702632
 31
0.0
  0
LINE
  5
148
330
146
100
AcDbEntity
  8
1
  6
Continuous
 62
     2
100
AcDbLine
 10
29.7663647008797
 20
-66.6979399702632
 30
0.0
 11
29.7663647008797
 21
-62.69793997026342
 31
0.0
  0
LINE
  5
149
330
146
100
AcDbEntity
  8
1
  6
Continuous
 62
     2
100
AcDbLine
 10
29.7663647008797
 20
-62.69793997026342
 30
0.0
 11
29.7663647008797
 21
-55.69793997026342
 31
0.0
  0
LINE
  5
14A
330
146
100
AcDbEntity
  8
1
  6
Continuous
 62
     2
100
AcDbLine
 10
47.38679367266684
 20
-66.6979399702632
 30
0.0
 11
27.7663647008797
 21
-66.6979399702632
 31
0.0
  0
LINE
  5
14B
330
146
100
AcDbEntity
  8
1
  6
Continuous
 62
     2
100
AcDbLine
 10
38.38679367266665
 20
-62.69793997026342
 30
0.0
 11
27.7663647008797
 21
-62.69793997026342
 31
0.0
  0
SOLID
  5
14C
330
146
100
AcDbEntity
  8
1
 62
     2
100
AcDbTrace
 10
30.22714844243558
 20
-70.1979399702632
 30
0.0
 11
29.30558095932381
 21
-70.1979399702632
 31
0.0
 12
29.7663647008797
 22
-66.6979399702632
 32
0.0
 13
29.7663647008797
 23
-66.6979399702632
 33
0.0
  0
SOLID
  5
14D
330
146
100
AcDbEntity
  8
1
 62
     2
100
AcDbTrace
 10
29.30558095932381
 20
-59.19793997026342
 30
0.0
 11
30.22714844243558
 21
-59.19793997026342
 31
0.0
 12
29.7663647008797
 22
-62.69793997026342
 32
0.0
 13
29.7663647008797
 23
-62.69793997026342
 33
0.0
  0
MTEXT
  5
14E
330
146
100
AcDbEntity
  8
1
 62
     2
100
AcDbMText
 10
27.7663647008797
 20
-73.008103989833
 30
0.0
 40
3.5
 41
0.0
 71
     7
 72
     1
  1
4
  7
CONVERTER_11
 11
0.0
 21
1.0
 31
0.0
 73
     1
 44
0.60024009603842
  0
ENDBLK
  5
150
330
146
100
AcDbEntity
  8
0
100
AcDbBlockEnd
  0
BLOCK
  5
15C
330
153
100
AcDbEntity
  8
0
100
AcDbBlockBegin
  2
*D11
 70
     1
 71
     0
 10
0.0
 20
0.0
 30
0.0
  3
*D11
  1

  0
LINE
  5
154
330
153
100
AcDbEntity
  8
1
  6
Continuous
 62
     2
100
AcDbLine
 10
-23.6195974268593
 20
-76.16063629732079
 30
0.0
 11
-23.6195974268593
 21
-67.6979399702632
 31
0.0
  0
LINE
  5
155
330
153
100
AcDbEntity
  8
1
  6
Continuous
 62
     2
100
AcDbLine
 10
-23.6195974268593
 20
-67.6979399702632
 30
0.0
 11
-23.6195974268593
 21
-62.69793997026321
 31
0.0
  0
LINE
  5
156
330
153
100
AcDbEntity
  8
1
  6
Continuous
 62
     2
100
AcDbLine
 10
-23.6195974268593
 20
-62.69793997026321
 30
0.0
 11
-23.6195974268593
 21
-55.69793997026321
 31
0.0
  0
LINE
  5
157
330
153
100
AcDbEntity
  8
1
  6
Continuous
 62
     2
100
AcDbLine
 10
-44.11320632733307
 20
-67.6979399702632
 30
0.0
 11
-21.6195974268593
 21
-67.6979399702632
 31
0.0
  0
LINE
  5
158
330
153
100
AcDbEntity
  8
1
  6
Continuous
 62
     2
100
AcDbLine
 10
-34.11320632733315
 20
-62.69793997026321
 30
0.0
 11
-21.6195974268593
 21
-62.69793997026321
 31
0.0
  0
SOLID
  5
159
330
153
100
AcDbEntity
  8
1
 62
     2
100
AcDbTrace
 10
-23.15881368530342
 20
-71.1979399702632
 30
0.0
 11
-24.08038116841519
 21
-71.1979399702632
 31
0.0
 12
-23.6195974268593
 22
-67.6979399702632
 32
0.0
 13
-23.6195974268593
 23
-67.6979399702632
 33
0.0
  0
SOLID
  5
15A
330
153
100
AcDbEntity
  8
1
 62
     2
100
AcDbTrace
 10
-24.08038116841519
 20
-59.19793997026321
 30
0.0
 11
-23.15881368530341
 21
-59.19793997026321
 31
0.0
 12
-23.6195974268593
 22
-62.69793997026321
 32
0.0
 13
-23.6195974268593
 23
-62.69793997026321
 33
0.0
  0
MTEXT
  5
15B
330
153
100
AcDbEntity
  8
1
 62
     2
100
AcDbMText
 10
-25.6195974268593
 20
-76.16063629732079
 30
0.0
 40
3.5
 41
0.0
 71
     7
 72
     1
  1
X
  7
CONVERTER_11
 11
0.0
 21
1.0
 31
0.0
 73
     1
 44
0.60024009603842
  0
ENDBLK
  5
15D
330
153
100
AcDbEntity
  8
0
100
AcDbBlockEnd
  0
BLOCK
  5
167
330
160
100
AcDbEntity
  8
0
100
AcDbBlockBegin
  2
*D12
 70
     1
 71
     0
 10
0.0
 20
0.0
 30
0.0
  3
*D12
  1

  0
LINE
  5
161
330
160
100
AcDbEntity
  8
1
  6
Continuous
 62
     2
100
AcDbLine
 10
-47.2313070115275
 20
-67.6979399702632
 30
0.0
 11
-47.2313070115275
 21
-26.69793997026321
 31
0.0
  0
LINE
  5
162
330
160
100
AcDbEntity
  8
1
  6
Continuous
 62
     2
100
AcDbLine
 10
0.61884448023571
 20
-26.69793997026321
 30
0.0
 11
-49.2313070115275
 21
-26.69793997026321
 31
0.0
  0
LINE
  5
163
330
160
100
AcDbEntity
  8
1
  6
Continuous
 62
     2
100
AcDbLine
 10
-44.11320632733307
 20
-67.6979399702632
 30
0.0
 11
-49.2313070115275
 21
-67.6979399702632
 31
0.0
  0
SOLID
  5
164
330
160
100
AcDbEntity
  8
1
 62
     2
100
AcDbTrace
 10
-47.69209075308338
 20
-64.1979399702632
 30
0.0
 11
-46.77052326997161
 21
-64.1979399702632
 31
0.0
 12
-47.2313070115275
 22
-67.6979399702632
 32
0.0
 13
-47.2313070115275
 23
-67.6979399702632
 33
0.0
  0
SOLID
  5
165
330
160
100
AcDbEntity
  8
1
 62
     2
100
AcDbTrace
 10
-46.77052326997161
 20
-30.19793997026321
 30
0.0
 11
-47.69209075308338
 21
-30.19793997026321
 31
0.0
 12
-47.2313070115275
 22
-26.69793997026321
 32
0.0
 13
-47.2313070115275
 23
-26.69793997026321
 33
0.0
  0
MTEXT
  5
166
330
160
100
AcDbEntity
  8
1
 62
     2
100
AcDbMText
 10
-49.2313070115275
 20
-47.24592710905293
 30
0.0
 40
3.5
 41
0.0
 71
     7
 72
     1
  1
A
  7
CONVERTER_11
 11
0.0
 21
1.0
 31
0.0
 73
     1
 44
0.60024009603842
  0
ENDBLK
  5
168
330
160
100
AcDbEntity
  8
0
100
AcDbBlockEnd
  0
BLOCK
  5
172
330
16B
100
AcDbEntity
  8
0
100
AcDbBlockBegin
  2
*D13
 70
     1
 71
     0
 10
0.0
 20
0.0
 30
0.0
  3
*D13
  1

  0
LINE
  5
16C
330
16B
100
AcDbEntity
  8
1
  6
Continuous
 62
     2
100
AcDbLine
 10
-101.8017786518812
 20
-118.2833961103276
 30
0.0
 11
-68.80177865188125
 21
-118.2833961103276
 31
0.0
  0
LINE
  5
16D
330
16B
100
AcDbEntity
  8
1
  6
Continuous
 62
     2
100
AcDbLine
 10
-101.8017786518812
 20
-45.62339990768865
 30
0.0
 11
-101.8017786518812
 21
-120.2833961103276
 31
0.0
  0
LINE
  5
16E
330
16B
100
AcDbEntity
  8
1
  6
Continuous
 62
     2
100
AcDbLine
 10
-68.80177865188125
 20
-72.12339990768862
 30
0.0
 11
-68.80177865188125
 21
-120.2833961103276
 31
0.0
  0
SOLID
  5
16F
330
16B
100
AcDbEntity
  8
1
 62
     2
100
AcDbTrace
 10
-72.30177865188125
 20
-118.7441798518835
 30
0.0
 11
-72.30177865188125
 21
-117.8226123687717
 31
0.0
 12
-68.80177865188125
 22
-118.2833961103276
 32
0.0
 13
-68.80177865188125
 23
-118.2833961103276
 33
0.0
  0
SOLID
  5
170
330
16B
100
AcDbEntity
  8
1
 62
     2
100
AcDbTrace
 10
-98.3017786518812
 20
-117.8226123687717
 30
0.0
 11
-98.3017786518812
 21
-118.7441798518835
 31
0.0
 12
-101.8017786518812
 22
-118.2833961103276
 32
0.0
 13
-101.8017786518812
 23
-118.2833961103276
 33
0.0
  0
MTEXT
  5
171
330
16B
100
AcDbEntity
  8
1
 62
     2
100
AcDbMText
 10
-88.16415944951406
 20
-116.2833961103276
 30
0.0
 40
3.5
 41
0.0
 71
     7
 72
     1
  1
33
  7
CONVERTER_11
 11
0.9999999999970621
 21
2.424068405545307E-6
 31
0.0
 73
     1
 44
0.60024009603842
  0
ENDBLK
  5
173
330
16B
100
AcDbEntity
  8
0
100
AcDbBlockEnd
  0
BLOCK
  5
17D
330
176
100
AcDbEntity
  8
0
100
AcDbBlockBegin
  2
*D14
 70
     1
 71
     0
 10
0.0
 20
0.0
 30
0.0
  3
*D14
  1

  0
LINE
  5
177
330
176
100
AcDbEntity
  8
1
  6
Continuous
 62
     2
100
AcDbLine
 10
-78.80177865188125
 20
-107.2653824624736
 30
0.0
 11
-68.80177865188125
 21
-107.2653824624736
 31
0.0
  0
LINE
  5
178
330
176
100
AcDbEntity
  8
1
  6
Continuous
 62
     2
100
AcDbLine
 10
-78.80177865188125
 20
-72.12339990768865
 30
0.0
 11
-78.80177865188125
 21
-109.2653824624736
 31
0.0
  0
LINE
  5
179
330
176
100
AcDbEntity
  8
1
  6
Continuous
 62
     2
100
AcDbLine
 10
-68.80177865188125
 20
-94.62339990768865
 30
0.0
 11
-68.80177865188125
 21
-109.2653824624736
 31
0.0
  0
SOLID
  5
17A
330
176
100
AcDbEntity
  8
1
 62
     2
100
AcDbTrace
 10
-75.30177865188125
 20
-106.8045987209177
 30
0.0
 11
-75.30177865188125
 21
-107.7261662040295
 31
0.0
 12
-78.80177865188125
 22
-107.2653824624736
 32
0.0
 13
-78.80177865188125
 23
-107.2653824624736
 33
0.0
  0
SOLID
  5
17B
330
176
100
AcDbEntity
  8
1
 62
     2
100
AcDbTrace
 10
-72.30177865188125
 20
-107.7261662040295
 30
0.0
 11
-72.30177865188125
 21
-106.8045987209177
 31
0.0
 12
-68.80177865188125
 22
-107.2653824624736
 32
0.0
 13
-68.80177865188125
 23
-107.2653824624736
 33
0.0
  0
MTEXT
  5
17C
330
176
100
AcDbEntity
  8
1
 62
     2
100
AcDbMText
 10
-75.83414482681312
 20
-105.2653824624736
 30
0.0
 40
3.5
 41
0.0
 71
     7
 72
     1
  1
10
  7
CONVERTER_11
 11
0.9999999999970621
 21
2.424068405545307E-6
 31
0.0
 73
     1
 44
0.60024009603842
  0
ENDBLK
  5
17E
330
176
100
AcDbEntity
  8
0
100
AcDbBlockEnd
  0
BLOCK
  5
188
330
181
100
AcDbEntity
  8
0
100
AcDbBlockBegin
  2
*D15
 70
     1
 71
     0
 10
0.0
 20
0.0
 30
0.0
  3
*D15
  1

  0
LINE
  5
182
330
181
100
AcDbEntity
  8
1
  6
Continuous
 62
     2
100
AcDbLine
 10
-159.78009619214
 20
-45.62339990768865
 30
0.0
 11
-159.78009619214
 21
56.37660009231135
 31
0.0
  0
LINE
  5
183
330
181
100
AcDbEntity
  8
1
  6
Continuous
 62
     2
100
AcDbLine
 10
-180.3592983114338
 20
-45.62339990768865
 30
0.0
 11
-157.78009619214
 21
-45.62339990768865
 31
0.0
  0
LINE
  5
184
330
181
100
AcDbEntity
  8
1
  6
Continuous
 62
     2
100
AcDbLine
 10
-180.3592983114338
 20
56.37660009231135
 30
0.0
 11
-157.78009619214
 21
56.37660009231135
 31
0.0
  0
SOLID
  5
185
330
181
100
AcDbEntity
  8
1
 62
     2
100
AcDbTrace
 10
-159.3193124505841
 20
52.87660009231135
 30
0.0
 11
-160.2408799336959
 21
52.87660009231135
 31
0.0
 12
-159.78009619214
 22
56.37660009231135
 32
0.0
 13
-159.78009619214
 23
56.37660009231135
 33
0.0
  0
SOLID
  5
186
330
181
100
AcDbEntity
  8
1
 62
     2
100
AcDbTrace
 10
-160.2408799336959
 20
-42.12339990768865
 30
0.0
 11
-159.3193124505841
 21
-42.12339990768865
 31
0.0
 12
-159.78009619214
 22
-45.62339990768865
 32
0.0
 13
-159.78009619214
 23
-45.62339990768865
 33
0.0
  0
MTEXT
  5
187
330
181
100
AcDbEntity
  8
1
 62
     2
100
AcDbMText
 10
-161.78009619214
 20
-7.83472829597253
 30
0.0
 40
3.5
 41
0.0
 71
     7
 72
     1
  1
102
  7
CONVERTER_11
 11
0.0
 21
1.0
 31
0.0
 73
     1
 44
0.60024009603842
  0
ENDBLK
  5
189
330
181
100
AcDbEntity
  8
0
100
AcDbBlockEnd
  0
BLOCK
  5
195
330
18C
100
AcDbEntity
  8
0
100
AcDbBlockBegin
  2
*D16
 70
     1
 71
     0
 10
0.0
 20
0.0
 30
0.0
  3
*D16
  1

  0
LINE
  5
18D
330
18C
100
AcDbEntity
  8
1
  6
Continuous
 62
     2
100
AcDbLine
 10
61.19860034321127
 20
-103.785670014645
 30
0.0
 11
54.19860034321127
 21
-103.785670014645
 31
0.0
  0
LINE
  5
18E
330
18C
100
AcDbEntity
  8
1
  6
Continuous
 62
     2
100
AcDbLine
 10
67.19860034321127
 20
-103.785670014645
 30
0.0
 11
61.19860034321127
 21
-103.785670014645
 31
0.0
  0
LINE
  5
18F
330
18C
100
AcDbEntity
  8
1
  6
Continuous
 62
     2
100
AcDbLine
 10
74.19860034321127
 20
-103.785670014645
 30
0.0
 11
67.19860034321127
 21
-103.785670014645
 31
0.0
  0
LINE
  5
190
330
18C
100
AcDbEntity
  8
1
  6
Continuous
 62
     2
100
AcDbLine
 10
67.19860034321127
 20
-72.12339990768865
 30
0.0
 11
67.19860034321127
 21
-105.785670014645
 31
0.0
  0
LINE
  5
191
330
18C
100
AcDbEntity
  8
1
  6
Continuous
 62
     2
100
AcDbLine
 10
61.19860034321127
 20
-94.62339990768866
 30
0.0
 11
61.19860034321127
 21
-105.785670014645
 31
0.0
  0
SOLID
  5
192
330
18C
100
AcDbEntity
  8
1
 62
     2
100
AcDbTrace
 10
70.69860034321127
 20
-103.3248862730891
 30
0.0
 11
70.69860034321127
 21
-104.2464537562009
 31
0.0
 12
67.19860034321127
 22
-103.785670014645
 32
0.0
 13
67.19860034321127
 23
-103.785670014645
 33
0.0
  0
SOLID
  5
193
330
18C
100
AcDbEntity
  8
1
 62
     2
100
AcDbTrace
 10
57.69860034321127
 20
-104.2464537562009
 30
0.0
 11
57.69860034321127
 21
-103.3248862730891
 31
0.0
 12
61.19860034321127
 22
-103.785670014645
 32
0.0
 13
61.19860034321127
 23
-103.785670014645
 33
0.0
  0
MTEXT
  5
194
330
18C
100
AcDbEntity
  8
1
 62
     2
100
AcDbMText
 10
63.43750734160538
 20
-101.785670014645
 30
0.0
 40
3.5
 41
0.0
 71
     7
 72
     1
  1
6
  7
CONVERTER_11
 11
0.9999999999970621
 21
2.424068405545307E-6
 31
0.0
 73
     1
 44
0.60024009603842
  0
ENDBLK
  5
196
330
18C
100
AcDbEntity
  8
0
100
AcDbBlockEnd
  0
BLOCK
  5
1A0
330
199
100
AcDbEntity
  8
0
100
AcDbBlockBegin
  2
*D17
 70
     1
 71
     0
 10
0.0
 20
0.0
 30
0.0
  3
*D17
  1

  0
LINE
  5
19A
330
199
100
AcDbEntity
  8
1
  6
Continuous
 62
     2
100
AcDbLine
 10
61.19860034321133
 20
-113.493763582592
 30
0.0
 11
98.69860034321133
 21
-113.493763582592
 31
0.0
  0
LINE
  5
19B
330
199
100
AcDbEntity
  8
1
  6
Continuous
 62
     2
100
AcDbLine
 10
61.19860034321133
 20
-72.12339990768865
 30
0.0
 11
61.19860034321133
 21
-115.493763582592
 31
0.0
  0
LINE
  5
19C
330
199
100
AcDbEntity
  8
1
  6
Continuous
 62
     2
100
AcDbLine
 10
98.69860034321133
 20
-45.62339990768864
 30
0.0
 11
98.69860034321133
 21
-115.493763582592
 31
0.0
  0
SOLID
  5
19D
330
199
100
AcDbEntity
  8
1
 62
     2
100
AcDbTrace
 10
64.69860034321133
 20
-113.0329798410361
 30
0.0
 11
64.69860034321133
 21
-113.9545473241479
 31
0.0
 12
61.19860034321133
 22
-113.493763582592
 32
0.0
 13
61.19860034321133
 23
-113.493763582592
 33
0.0
  0
SOLID
  5
19E
330
199
100
AcDbEntity
  8
1
 62
     2
100
AcDbTrace
 10
95.19860034321133
 20
-113.9545473241479
 30
0.0
 11
95.19860034321133
 21
-113.0329798410361
 31
0.0
 12
98.69860034321133
 22
-113.493763582592
 32
0.0
 13
98.69860034321133
 23
-113.493763582592
 33
0.0
  0
MTEXT
  5
19F
330
199
100
AcDbEntity
  8
1
 62
     2
100
AcDbMText
 10
73.73369605557177
 20
-111.493763582592
 30
0.0
 40
3.5
 41
0.0
 71
     7
 72
     1
  1
37.5
  7
CONVERTER_11
 11
0.9999999999970621
 21
2.424068405545307E-6
 31
0.0
 73
     1
 44
0.60024009603842
  0
ENDBLK
  5
1A1
330
199
100
AcDbEntity
  8
0
100
AcDbBlockEnd
  0
BLOCK
  5
1AB
330
1A4
100
AcDbEntity
  8
0
100
AcDbBlockBegin
  2
*D18
 70
     1
 71
     0
 10
0.0
 20
0.0
 30
0.0
  3
*D18
  1

  0
LINE
  5
1A5
330
1A4
100
AcDbEntity
  8
1
  6
Continuous
 62
     2
100
AcDbLine
 10
-128.359550094794
 20
-62.12339990768865
 30
0.0
 11
-128.359550094794
 21
72.87660009231135
 31
0.0
  0
LINE
  5
1A6
330
1A4
100
AcDbEntity
  8
1
  6
Continuous
 62
     2
100
AcDbLine
 10
-185.1092983114338
 20
-62.12339990768865
 30
0.0
 11
-126.359550094794
 21
-62.12339990768865
 31
0.0
  0
LINE
  5
1A7
330
1A4
100
AcDbEntity
  8
1
  6
Continuous
 62
     2
100
AcDbLine
 10
-185.1092983114338
 20
72.87660009231135
 30
0.0
 11
-126.359550094794
 21
72.87660009231135
 31
0.0
  0
SOLID
  5
1A8
330
1A4
100
AcDbEntity
  8
1
 62
     2
100
AcDbTrace
 10
-127.8987663532381
 20
69.37660009231135
 30
0.0
 11
-128.8203338363499
 21
69.37660009231135
 31
0.0
 12
-128.359550094794
 22
72.87660009231135
 32
0.0
 13
-128.359550094794
 23
72.87660009231135
 33
0.0
  0
SOLID
  5
1A9
330
1A4
100
AcDbEntity
  8
1
 62
     2
100
AcDbTrace
 10
-128.8203338363499
 20
-58.62339990768865
 30
0.0
 11
-127.8987663532381
 21
-58.62339990768865
 31
0.0
 12
-128.359550094794
 22
-62.12339990768865
 32
0.0
 13
-128.359550094794
 23
-62.12339990768865
 33
0.0
  0
MTEXT
  5
1AA
330
1A4
100
AcDbEntity
  8
1
 62
     2
100
AcDbMText
 10
-130.359550094794
 20
-4.19176642961357
 30
0.0
 40
3.5
 41
0.0
 71
     7
 72
     1
  1
135
  7
CONVERTER_11
 11
0.0
 21
1.0
 31
0.0
 73
     1
 44
0.60024009603842
  0
ENDBLK
  5
1AC
330
1A4
100
AcDbEntity
  8
0
100
AcDbBlockEnd
  0
BLOCK
  5
1B8
330
1AF
100
AcDbEntity
  8
0
100
AcDbBlockBegin
  2
*D19
 70
     1
 71
     0
 10
0.0
 20
0.0
 30
0.0
  3
*D19
  1

  0
LINE
  5
1B0
330
1AF
100
AcDbEntity
  8
1
  6
Continuous
 62
     2
100
AcDbLine
 10
175.9119338369392
 20
-103.7856700146451
 30
0.0
 11
168.9119338369392
 21
-103.7856700146451
 31
0.0
  0
LINE
  5
1B1
330
1AF
100
AcDbEntity
  8
1
  6
Continuous
 62
     2
100
AcDbLine
 10
179.9119338369392
 20
-103.7856700146451
 30
0.0
 11
175.9119338369392
 21
-103.7856700146451
 31
0.0
  0
LINE
  5
1B2
330
1AF
100
AcDbEntity
  8
1
  6
Continuous
 62
     2
100
AcDbLine
 10
186.9119338369392
 20
-103.7856700146451
 30
0.0
 11
179.9119338369392
 21
-103.7856700146451
 31
0.0
  0
LINE
  5
1B3
330
1AF
100
AcDbEntity
  8
1
  6
Continuous
 62
     2
100
AcDbLine
 10
179.9119338369392
 20
-94.62339990768876
 30
0.0
 11
179.9119338369392
 21
-105.7856700146451
 31
0.0
  0
LINE
  5
1B4
330
1AF
100
AcDbEntity
  8
1
  6
Continuous
 62
     2
100
AcDbLine
 10
175.9119338369392
 20
-59.12339990768871
 30
0.0
 11
175.9119338369392
 21
-105.7856700146451
 31
0.0
  0
SOLID
  5
1B5
330
1AF
100
AcDbEntity
  8
1
 62
     2
100
AcDbTrace
 10
183.4119338369392
 20
-103.3248862730892
 30
0.0
 11
183.4119338369392
 21
-104.246453756201
 31
0.0
 12
179.9119338369392
 22
-103.7856700146451
 32
0.0
 13
179.9119338369392
 23
-103.7856700146451
 33
0.0
  0
SOLID
  5
1B6
330
1AF
100
AcDbEntity
  8
1
 62
     2
100
AcDbTrace
 10
172.4119338369392
 20
-104.246453756201
 30
0.0
 11
172.4119338369392
 21
-103.3248862730892
 31
0.0
 12
175.9119338369392
 22
-103.7856700146451
 32
0.0
 13
175.9119338369392
 23
-103.7856700146451
 33
0.0
  0
MTEXT
  5
1B7
330
1AF
100
AcDbEntity
  8
1
 62
     2
100
AcDbMText
 10
181.8669034931839
 20
-101.7856700146451
 30
0.0
 40
3.5
 41
0.0
 71
     7
 72
     1
  1
4
  7
CONVERTER_11
 11
0.9999999999970621
 21
2.424068405545307E-6
 31
0.0
 73
     1
 44
0.60024009603842
  0
ENDBLK
  5
1B9
330
1AF
100
AcDbEntity
  8
0
100
AcDbBlockEnd
  0
BLOCK
  5
1C3
330
1BC
100
AcDbEntity
  8
0
100
AcDbBlockBegin
  2
*D20
 70
     1
 71
     0
 10
0.0
 20
0.0
 30
0.0
  3
*D20
  1

  0
LINE
  5
1BD
330
1BC
100
AcDbEntity
  8
1
  6
Continuous
 62
     2
100
AcDbLine
 10
175.9119338369392
 20
-103.7856700146451
 30
0.0
 11
149.9119338369392
 21
-103.7856700146451
 31
0.0
  0
LINE
  5
1BE
330
1BC
100
AcDbEntity
  8
1
  6
Continuous
 62
     2
100
AcDbLine
 10
175.9119338369392
 20
-59.12339990768871
 30
0.0
 11
175.9119338369392
 21
-105.7856700146451
 31
0.0
  0
LINE
  5
1BF
330
1BC
100
AcDbEntity
  8
1
  6
Continuous
 62
     2
100
AcDbLine
 10
149.9119338369392
 20
-59.12339990768871
 30
0.0
 11
149.9119338369392
 21
-105.7856700146451
 31
0.0
  0
SOLID
  5
1C0
330
1BC
100
AcDbEntity
  8
1
 62
     2
100
AcDbTrace
 10
172.4119338369392
 20
-104.246453756201
 30
0.0
 11
172.4119338369392
 21
-103.3248862730892
 31
0.0
 12
175.9119338369392
 22
-103.7856700146451
 32
0.0
 13
175.9119338369392
 23
-103.7856700146451
 33
0.0
  0
SOLID
  5
1C1
330
1BC
100
AcDbEntity
  8
1
 62
     2
100
AcDbTrace
 10
153.4119338369392
 20
-103.3248862730892
 30
0.0
 11
153.4119338369392
 21
-104.246453756201
 31
0.0
 12
149.9119338369392
 22
-103.7856700146451
 32
0.0
 13
149.9119338369392
 23
-103.7856700146451
 33
0.0
  0
MTEXT
  5
1C2
330
1BC
100
AcDbEntity
  8
1
 62
     2
100
AcDbMText
 10
160.2869338369392
 20
-101.7856700146451
 30
0.0
 40
3.5
 41
0.0
 71
     7
 72
     1
  1
26
  7
CONVERTER_11
 11
0.9999999999970621
 21
2.424068405545307E-6
 31
0.0
 73
     1
 44
0.60024009603842
  0
ENDBLK
  5
1C4
330
1BC
100
AcDbEntity
  8
0
100
AcDbBlockEnd
  0
BLOCK
  5
1D0
330
1C7
100
AcDbEntity
  8
0
100
AcDbBlockBegin
  2
*D21
 70
     1
 71
     0
 10
0.0
 20
0.0
 30
0.0
  3
*D21
  1

  0
LINE
  5
1C8
330
1C7
100
AcDbEntity
  8
1
  6
Continuous
 62
     2
100
AcDbLine
 10
-206.3592983114338
 20
-108.487423372669
 30
0.0
 11
-199.3592983114338
 21
-108.487423372669
 31
0.0
  0
LINE
  5
1C9
330
1C7
100
AcDbEntity
  8
1
  6
Continuous
 62
     2
100
AcDbLine
 10
-199.3592983114338
 20
-108.487423372669
 30
0.0
 11
-194.3592983114338
 21
-108.487423372669
 31
0.0
  0
LINE
  5
1CA
330
1C7
100
AcDbEntity
  8
1
  6
Continuous
 62
     2
100
AcDbLine
 10
-194.3592983114338
 20
-108.487423372669
 30
0.0
 11
-187.3592983114338
 21
-108.487423372669
 31
0.0
  0
LINE
  5
1CB
330
1C7
100
AcDbEntity
  8
1
  6
Continuous
 62
     2
100
AcDbLine
 10
-194.3592983114338
 20
-59.12339990768865
 30
0.0
 11
-194.3592983114338
 21
-110.487423372669
 31
0.0
  0
LINE
  5
1CC
330
1C7
100
AcDbEntity
  8
1
  6
Continuous
 62
     2
100
AcDbLine
 10
-199.3592983114338
 20
-94.62339990768865
 30
0.0
 11
-199.3592983114338
 21
-110.487423372669
 31
0.0
  0
SOLID
  5
1CD
330
1C7
100
AcDbEntity
  8
1
 62
     2
100
AcDbTrace
 10
-202.8592983114338
 20
-108.9482071142249
 30
0.0
 11
-202.8592983114338
 21
-108.0266396311131
 31
0.0
 12
-199.3592983114338
 22
-108.487423372669
 32
0.0
 13
-199.3592983114338
 23
-108.487423372669
 33
0.0
  0
SOLID
  5
1CE
330
1C7
100
AcDbEntity
  8
1
 62
     2
100
AcDbTrace
 10
-190.8592983114338
 20
-108.0266396311131
 30
0.0
 11
-190.8592983114338
 21
-108.9482071142249
 31
0.0
 12
-194.3592983114338
 22
-108.487423372669
 32
0.0
 13
-194.3592983114338
 23
-108.487423372669
 33
0.0
  0
MTEXT
  5
1CF
330
1C7
100
AcDbEntity
  8
1
 62
     2
100
AcDbMText
 10
-205.334809088377
 20
-106.487423372669
 30
0.0
 40
3.5
 41
0.0
 71
     7
 72
     1
  1
X
  7
CONVERTER_11
 11
0.9999999999970621
 21
2.424068405545307E-6
 31
0.0
 73
     1
 44
0.60024009603842
  0
ENDBLK
  5
1D1
330
1C7
100
AcDbEntity
  8
0
100
AcDbBlockEnd
  0
BLOCK
  5
1DB
330
1D4
100
AcDbEntity
  8
0
100
AcDbBlockBegin
  2
*D22
 70
     1
 71
     0
 10
0.0
 20
0.0
 30
0.0
  3
*D22
  1

  0
LINE
  5
1D5
330
1D4
100
AcDbEntity
  8
1
  6
Continuous
 62
     2
100
AcDbLine
 10
-194.3592983114338
 20
-108.487423372669
 30
0.0
 11
-168.3592983114338
 21
-108.487423372669
 31
0.0
  0
LINE
  5
1D6
330
1D4
100
AcDbEntity
  8
1
  6
Continuous
 62
     2
100
AcDbLine
 10
-168.3592983114338
 20
-59.12339990768865
 30
0.0
 11
-168.3592983114338
 21
-110.487423372669
 31
0.0
  0
LINE
  5
1D7
330
1D4
100
AcDbEntity
  8
1
  6
Continuous
 62
     2
100
AcDbLine
 10
-194.3592983114338
 20
-59.12339990768865
 30
0.0
 11
-194.3592983114338
 21
-110.487423372669
 31
0.0
  0
SOLID
  5
1D8
330
1D4
100
AcDbEntity
  8
1
 62
     2
100
AcDbTrace
 10
-190.8592983114338
 20
-108.0266396311131
 30
0.0
 11
-190.8592983114338
 21
-108.9482071142249
 31
0.0
 12
-194.3592983114338
 22
-108.487423372669
 32
0.0
 13
-194.3592983114338
 23
-108.487423372669
 33
0.0
  0
SOLID
  5
1D9
330
1D4
100
AcDbEntity
  8
1
 62
     2
100
AcDbTrace
 10
-171.8592983114338
 20
-108.9482071142249
 30
0.0
 11
-171.8592983114338
 21
-108.0266396311131
 31
0.0
 12
-168.3592983114338
 22
-108.487423372669
 32
0.0
 13
-168.3592983114338
 23
-108.487423372669
 33
0.0
  0
MTEXT
  5
1DA
330
1D4
100
AcDbEntity
  8
1
 62
     2
100
AcDbMText
 10
-183.9842983114338
 20
-106.487423372669
 30
0.0
 40
3.5
 41
0.0
 71
     7
 72
     1
  1
26
  7
CONVERTER_11
 11
0.9999999999970621
 21
2.424068405545307E-6
 31
0.0
 73
     1
 44
0.60024009603842
  0
ENDBLK
  5
1DC
330
1D4
100
AcDbEntity
  8
0
100
AcDbBlockEnd
  0
BLOCK
  5
1E3
330
1DF
100
AcDbEntity
  8
0
100
AcDbBlockBegin
  2
*D23
 70
     1
 71
     0
 10
0.0
 20
0.0
 30
0.0
  3
*D23
  1

  0
LINE
  5
1E0
330
1DF
100
AcDbEntity
  8
1
  6
Continuous
 62
     2
100
AcDbLine
 10
-188.2787894730987
 20
38.46167660311992
 30
0.0
 11
-170.7449271210682
 21
51.55739855862888
 31
0.0
  0
SOLID
  5
1E1
330
1DF
100
AcDbEntity
  8
1
 62
     2
100
AcDbTrace
 10
-173.2733857862025
 20
49.09382017846929
 30
0.0
 11
-173.8248516503139
 21
49.83217783343659
 31
0.0
 12
-170.7449271210682
 22
51.55739855862888
 32
0.0
 13
-170.7449271210682
 23
51.55739855862888
 33
0.0
  0
MTEXT
  5
1E2
330
1DF
100
AcDbEntity
  8
1
 62
     2
100
AcDbMText
 10
-188.4099964105528
 20
40.85994363153104
 30
0.0
 40
3.5
 41
0.0
 71
     7
 72
     1
  1
\C2;R\C2;12
  7
CONVERTER_11
 11
0.8011975991971324
 21
0.5983998721931274
 31
0.0
 73
     1
 44
0.60024009603842
  0
ENDBLK
  5
1E4
330
1DF
100
AcDbEntity
  8
0
100
AcDbBlockEnd
  0
BLOCK
  5
1EA
330
1E6
100
AcDbEntity
  8
0
100
AcDbBlockBegin
  2
*D24
 70
     1
 71
     0
 10
0.0
 20
0.0
 30
0.0
  3
*D24
  1

  0
LINE
  5
1E7
330
1E6
100
AcDbEntity
  8
1
  6
Continuous
 62
     2
100
AcDbLine
 10
157.9999714357924
 20
34.23271376915592
 30
0.0
 11
169.9543405032072
 21
54.74430580184222
 31
0.0
  0
SOLID
  5
1E8
330
1E6
100
AcDbEntity
  8
1
 62
     2
100
AcDbTrace
 10
168.5900777445614
 20
51.48837140725529
 30
0.0
 11
167.7938660398634
 21
51.9524118658695
 31
0.0
 12
169.9543405032072
 22
54.74430580184222
 32
0.0
 13
169.9543405032072
 23
54.74430580184222
 33
0.0
  0
MTEXT
  5
1E9
330
1E6
100
AcDbEntity
  8
1
 62
     2
100
AcDbMText
 10
156.941720556382
 20
36.38886892967361
 30
0.0
 40
3.5
 41
0.0
 71
     7
 72
     1
  1
\C2;R\C2;12
  7
CONVERTER_11
 11
0.5035338888556758
 21
0.8639754757942379
 31
0.0
 73
     1
 44
0.60024009603842
  0
ENDBLK
  5
1EB
330
1E6
100
AcDbEntity
  8
0
100
AcDbBlockEnd
  0
BLOCK
  5
1F2
330
1ED
100
AcDbEntity
  8
0
100
AcDbBlockBegin
  2
*D25
 70
     1
 71
     0
 10
0.0
 20
0.0
 30
0.0
  3
*D25
  1

  0
LINE
  5
1EE
330
1ED
100
AcDbEntity
  8
1
  6
Continuous
 62
     2
100
AcDbLine
 10
-189.0446284126106
 20
-44.21945609963598
 30
0.0
 11
-142.4033113805957
 21
-124.2555123094665
 31
0.0
  0
SOLID
  5
1EF
330
1ED
100
AcDbEntity
  8
1
 62
     2
100
AcDbTrace
 10
-172.1569730036046
 20
-72.28334600184219
 30
0.0
 11
-172.9532043070033
 21
-72.74735283090516
 31
0.0
 12
-174.3173295453978
 22
-69.49136081763834
 32
0.0
 13
-174.3173295453978
 23
-69.49136081763834
 33
0.0
  0
SOLID
  5
1F0
330
1ED
100
AcDbEntity
  8
1
 62
     2
100
AcDbTrace
 10
-188.561623619263
 20
-45.96345381353511
 30
0.0
 11
-187.7653923158644
 21
-45.49944698447214
 31
0.0
 12
-186.4012670774698
 22
-48.75543899773896
 32
0.0
 13
-186.4012670774698
 23
-48.75543899773896
 33
0.0
  0
MTEXT
  5
1F1
330
1ED
100
AcDbEntity
  8
1
 62
     2
100
AcDbMText
 10
-153.4339419398835
 20
-101.3548400602834
 30
0.0
 40
3.5
 41
0.0
 71
     7
 72
     1
  1
\C2;Fräserø\C2;24
  7
CONVERTER_11
 11
0.5034973971696706
 21
-0.8639967424958077
 31
0.0
 73
     1
 44
0.60024009603842
  0
ENDBLK
  5
1F3
330
1ED
100
AcDbEntity
  8
0
100
AcDbBlockEnd
  0
BLOCK
  5
1FA
330
1F5
100
AcDbEntity
  8
0
100
AcDbBlockBegin
  2
*D26
 70
     1
 71
     0
 10
0.0
 20
0.0
 30
0.0
  3
*D26
  1

  0
LINE
  5
1F6
330
1F5
100
AcDbEntity
  8
1
  6
Continuous
 62
     2
100
AcDbLine
 10
173.1870021231078
 20
-46.0683114306911
 30
0.0
 11
119.5923653421602
 21
-108.1240531175181
 31
0.0
  0
SOLID
  5
1F7
330
1F5
100
AcDbEntity
  8
1
 62
     2
100
AcDbTrace
 10
152.1294418994992
 20
-71.15523988129213
 30
0.0
 11
151.4319842166268
 21
-70.55287835651545
 31
0.0
 12
154.068408072648
 22
-68.20520058733908
 32
0.0
 13
154.068408072648
 23
-68.20520058733908
 33
0.0
  0
SOLID
  5
1F8
330
1F5
100
AcDbEntity
  8
1
 62
     2
100
AcDbTrace
 10
171.6944257743792
 20
-47.09155993408513
 30
0.0
 11
172.3918834572516
 21
-47.69392145886182
 31
0.0
 12
169.7554596012304
 22
-50.04159922803817
 32
0.0
 13
169.7554596012304
 23
-50.04159922803817
 33
0.0
  0
MTEXT
  5
1F9
330
1F5
100
AcDbEntity
  8
1
 62
     2
100
AcDbMText
 10
118.9023021008024
 20
-105.8632097521063
 30
0.0
 40
3.5
 41
0.0
 71
     7
 72
     1
  1
\C2;Fräserø\C2;24
  7
CONVERTER_11
 11
0.6536271470242702
 21
0.7568167233042047
 31
0.0
 73
     1
 44
0.60024009603842
  0
ENDBLK
  5
1FB
330
1F5
100
AcDbEntity
  8
0
100
AcDbBlockEnd
  0
BLOCK
  5
203
330
1FD
100
AcDbEntity
  8
0
100
AcDbBlockBegin
  2
*D27
 70
     1
 71
     0
 10
0.0
 20
0.0
 30
0.0
  3
*D27
  1

  0
LINE
  5
1FE
330
1FD
100
AcDbEntity
  8
1
  6
Continuous
 62
     2
100
AcDbLine
 10
-173.9391323030841
 20
63.35943392369446
 30
0.0
 11
-168.9685512738602
 21
65.04935233353535
 31
0.0
  0
LINE
  5
1FF
330
1FD
100
AcDbEntity
  8
1
  6
Continuous
 62
     2
100
AcDbLine
 10
-188.5504584252491
 20
58.3918156792956
 30
0.0
 11
-176.7794643197835
 21
62.39376626092824
 31
0.0
  0
SOLID
  5
200
330
1FD
100
AcDbEntity
  8
1
 62
     2
100
AcDbTrace
 10
-179.9448636863498
 20
60.83089438306241
 30
0.0
 11
-180.2415063255158
 21
61.70341359233957
 31
0.0
 12
-176.7794643197835
 22
62.39376626092824
 32
0.0
 13
-176.7794643197835
 23
62.39376626092824
 33
0.0
  0
SOLID
  5
201
330
1FD
100
AcDbEntity
  8
1
 62
     2
100
AcDbTrace
 10
-170.7737329365178
 20
64.92230580156028
 30
0.0
 11
-170.4770902973518
 21
64.04978659228314
 31
0.0
 12
-173.9391323030841
 22
63.35943392369446
 32
0.0
 13
-173.9391323030841
 23
63.35943392369446
 33
0.0
  0
MTEXT
  5
202
330
1FD
100
AcDbEntity
  8
1
 62
     2
100
AcDbMText
 10
-188.2663950749715
 20
60.60082179359881
 30
0.0
 40
3.5
 41
0.0
 71
     7
 72
     1
  1
\C2;ø\C2;3
  7
CONVERTER_11
 11
0.9467773388997961
 21
0.3218892209220754
 31
0.0
 73
     1
 44
0.60024009603842
  0
ENDBLK
  5
204
330
1FD
100
AcDbEntity
  8
0
100
AcDbBlockEnd
  0
ENDSEC
  0
SECTION
  2
ENTITIES
  0
LINE
  5
32
330
1F
100
AcDbEntity
  8
1
  6
DOT_CENTER
 62
     2
100
AcDbLine
 10
-175.3592983114338
 20
-54.37339990768865
 30
0.0
 11
-175.3592983114338
 21
-49.87339990768865
 31
0.0
  0
LINE
  5
33
330
1F
100
AcDbEntity
  8
1
  6
DOT_CENTER
 62
     2
100
AcDbLine
 10
-177.6092983114338
 20
-52.12339990768865
 30
0.0
 11
-173.1092983114338
 21
-52.12339990768865
 31
0.0
  0
LINE
  5
34
330
1F
100
AcDbEntity
  8
1
  6
DOT_CENTER
 62
     2
100
AcDbLine
 10
-187.3592983114338
 20
-64.37339990768865
 30
0.0
 11
-187.3592983114338
 21
-59.87339990768865
 31
0.0
  0
LINE
  5
35
330
1F
100
AcDbEntity
  8
1
  6
DOT_CENTER
 62
     2
100
AcDbLine
 10
-189.6092983114338
 20
-62.12339990768865
 30
0.0
 11
-185.1092983114338
 21
-62.12339990768865
 31
0.0
  0
LINE
  5
36
330
1F
100
AcDbEntity
  8
1
  6
DOT_CENTER
 62
     2
100
AcDbLine
 10
-175.3592983114338
 20
60.62660009231135
 30
0.0
 11
-175.3592983114338
 21
65.12660009231135
 31
0.0
  0
LINE
  5
37
330
1F
100
AcDbEntity
  8
1
  6
DOT_CENTER
 62
     2
100
AcDbLine
 10
-177.6092983114338
 20
62.87660009231135
 30
0.0
 11
-173.1092983114338
 21
62.87660009231135
 31
0.0
  0
LINE
  5
38
330
1F
100
AcDbEntity
  8
1
  6
DOT_CENTER
 62
     2
100
AcDbLine
 10
-187.3592983114338
 20
70.62660009231135
 30
0.0
 11
-187.3592983114338
 21
75.12660009231135
 31
0.0
  0
LINE
  5
39
330
1F
100
AcDbEntity
  8
1
  6
DOT_CENTER
 62
     2
100
AcDbLine
 10
-189.6092983114338
 20
72.87660009231135
 30
0.0
 11
-185.1092983114338
 21
72.87660009231135
 31
0.0
  0
LINE
  5
3A
330
1F
100
AcDbEntity
  8
1
  6
DOT_CENTER
 62
     2
100
AcDbLine
 10
-181.3592983114338
 20
85.9038620770942
 30
0.0
 11
-181.3592983114338
 21
-75.00437030567211
 31
0.0
  0
LINE
  5
3B
330
1F
100
AcDbEntity
  8
1
  6
Continuous
 62
     7
100
AcDbLine
 10
-168.3592983114338
 20
-33.62339990768865
 30
0.0
 11
-168.3592983114338
 21
-59.12339990768865
 31
0.0
  0
LINE
  5
3C
330
1F
100
AcDbEntity
  8
1
  6
Continuous
 62
     7
100
AcDbLine
 10
-194.3592983114338
 20
-33.62339990768865
 30
0.0
 11
-194.3592983114338
 21
-59.12339990768865
 31
0.0
  0
LINE
  5
3D
330
1F
100
AcDbEntity
  8
1
  6
Continuous
 62
     7
100
AcDbLine
 10
-168.3592983114338
 20
69.87660009231135
 30
0.0
 11
-168.3592983114338
 21
44.37660009231136
 31
0.0
  0
LINE
  5
3E
330
1F
100
AcDbEntity
  8
1
  6
DOT_CENTER
 62
     2
100
AcDbLine
 10
0.36388297763503
 20
-49.69793997026321
 30
0.0
 11
-35.37802811920605
 21
-49.69793997026321
 31
0.0
  0
LINE
  5
3F
330
1F
100
AcDbEntity
  8
1
  6
Continuous
 62
     7
100
AcDbLine
 10
-78.80177865188125
 20
56.37660009231135
 30
0.0
 11
-78.80177865188125
 21
44.37660009231136
 31
0.0
  0
LINE
  5
40
330
1F
100
AcDbEntity
  8
1
  6
Continuous
 62
     7
100
AcDbLine
 10
-78.80177865188125
 20
-45.62339990768865
 30
0.0
 11
-78.80177865188125
 21
-33.62339990768865
 31
0.0
  0
LINE
  5
41
330
1F
100
AcDbEntity
  8
1
  6
Continuous
 62
     7
100
AcDbLine
 10
-194.3592983114338
 20
69.87660009231135
 30
0.0
 11
-194.3592983114338
 21
44.37660009231135
 31
0.0
  0
LINE
  5
42
330
1F
100
AcDbEntity
  8
1
  6
Continuous
 62
     7
100
AcDbLine
 10
-11.11320632733319
 20
-36.69793997026317
 30
0.0
 11
-1.11320632733307
 21
-36.69793997026321
 31
0.0
  0
LINE
  5
43
330
1F
100
AcDbEntity
  8
1
  6
Continuous
 62
     7
100
AcDbLine
 10
-11.11320632733307
 20
-62.69793997026321
 30
0.0
 11
-34.11320632733315
 21
-62.69793997026321
 31
0.0
  0
LINE
  5
44
330
1F
100
AcDbEntity
  8
1
  6
Continuous
 62
     7
100
AcDbLine
 10
-11.11320632733307
 20
-62.69793997026321
 30
0.0
 11
-11.11320632733319
 21
-36.69793997026317
 31
0.0
  0
LINE
  5
45
330
1F
100
AcDbEntity
  8
1
  6
Continuous
 62
     7
100
AcDbLine
 10
-68.80177865188125
 20
-72.12339990768862
 30
0.0
 11
-68.80177865188125
 21
-94.62339990768865
 31
0.0
  0
LINE
  5
46
330
1F
100
AcDbEntity
  8
1
  6
Continuous
 62
     7
100
AcDbLine
 10
-78.80177865188125
 20
-72.12339990768865
 30
0.0
 11
-68.80177865188125
 21
-72.12339990768862
 31
0.0
  0
LINE
  5
47
330
1F
100
AcDbEntity
  8
1
  6
Continuous
 62
     7
100
AcDbLine
 10
-78.80177865188125
 20
-45.62339990768865
 30
0.0
 11
-78.80177865188125
 21
-72.12339990768865
 31
0.0
  0
LINE
  5
48
330
1F
100
AcDbEntity
  8
1
  6
Continuous
 62
     7
100
AcDbLine
 10
-101.8017786518812
 20
-45.62339990768865
 30
0.0
 11
-78.80177865188125
 21
-45.62339990768865
 31
0.0
  0
LINE
  5
49
330
1F
100
AcDbEntity
  8
1
  6
Continuous
 62
     7
100
AcDbLine
 10
-101.8017786518812
 20
56.37660009231135
 30
0.0
 11
-101.8017786518812
 21
-45.62339990768865
 31
0.0
  0
LINE
  5
4A
330
1F
100
AcDbEntity
  8
1
  6
Continuous
 62
     7
100
AcDbLine
 10
-78.80177865188125
 20
56.37660009231135
 30
0.0
 11
-101.8017786518812
 21
56.37660009231135
 31
0.0
  0
LINE
  5
4B
330
1F
100
AcDbEntity
  8
1
  6
Continuous
 62
     7
100
AcDbLine
 10
-78.80177865188125
 20
82.87660009231135
 30
0.0
 11
-78.80177865188125
 21
56.37660009231135
 31
0.0
  0
LINE
  5
4C
330
1F
100
AcDbEntity
  8
1
  6
Continuous
 62
     7
100
AcDbLine
 10
-68.80177865188125
 20
82.87660009231138
 30
0.0
 11
-68.80177865188125
 21
-72.12339990768862
 31
0.0
  0
LINE
  5
4D
330
1F
100
AcDbEntity
  8
1
  6
Continuous
 62
     7
100
AcDbLine
 10
-68.80177865188125
 20
82.87660009231138
 30
0.0
 11
-78.80177865188125
 21
82.87660009231135
 31
0.0
  0
LINE
  5
4E
330
1F
100
AcDbEntity
  8
1
  6
DOT_CENTER
 62
     2
100
AcDbLine
 10
-68.80177865188125
 20
-94.62339990768865
 30
0.0
 11
-55.80177865188119
 21
-94.62339990768865
 31
0.0
  0
LINE
  5
4F
330
1F
100
AcDbEntity
  8
1
  6
DOT_CENTER
 62
     2
100
AcDbLine
 10
-68.80177865188125
 20
105.3766000923113
 30
0.0
 11
-55.80177865188119
 21
105.3766000923113
 31
0.0
  0
LINE
  5
50
330
1F
100
AcDbEntity
  8
1
  6
Continuous
 62
     7
100
AcDbLine
 10
-68.80177865188125
 20
105.3766000923113
 30
0.0
 11
-68.80177865188125
 21
82.87660009231138
 31
0.0
  0
LINE
  5
51
330
1F
100
AcDbEntity
  8
1
  6
DOT_CENTER
 62
     2
100
AcDbLine
 10
-55.80177865188119
 20
-94.62339990768865
 30
0.0
 11
-51.29189472598307
 21
-94.62339990768865
 31
0.0
  0
LINE
  5
52
330
1F
100
AcDbEntity
  8
1
  6
DOT_CENTER
 62
     2
100
AcDbLine
 10
-55.80177865188119
 20
105.3766000923113
 30
0.0
 11
-51.29189472598307
 21
105.3766000923113
 31
0.0
  0
LINE
  5
53
330
1F
100
AcDbEntity
  8
1
  6
Continuous
 62
     7
100
AcDbLine
 10
-55.80177865188119
 20
-94.62339990768865
 30
0.0
 11
-55.80177865188119
 21
105.3766000923113
 31
0.0
  0
LINE
  5
54
330
1F
100
AcDbEntity
  8
1
  6
DOT_CENTER
 62
     2
100
AcDbLine
 10
-111.8017786518812
 20
-94.62339990768865
 30
0.0
 11
-68.80177865188125
 21
-94.62339990768865
 31
0.0
  0
LINE
  5
55
330
1F
100
AcDbEntity
  8
1
  6
DOT_CENTER
 62
     2
100
AcDbLine
 10
-111.8017786518812
 20
105.3766000923113
 30
0.0
 11
-68.80177865188125
 21
105.3766000923113
 31
0.0
  0
LINE
  5
56
330
1F
100
AcDbEntity
  8
1
  6
Continuous
 62
     7
100
AcDbLine
 10
-111.8017786518812
 20
105.3766000923113
 30
0.0
 11
-111.8017786518812
 21
-94.62339990768865
 31
0.0
  0
LINE
  5
57
330
1F
100
AcDbEntity
  8
1
  6
DOT_CENTER
 62
     2
100
AcDbLine
 10
-114.5635309971518
 20
-94.62339990768865
 30
0.0
 11
-111.8017786518812
 21
-94.62339990768865
 31
0.0
  0
LINE
  5
58
330
1F
100
AcDbEntity
  8
1
  6
DOT_CENTER
 62
     2
100
AcDbLine
 10
-114.5635309971518
 20
5.37660009231135
 30
0.0
 11
-51.29189472598307
 21
5.37660009231135
 31
0.0
  0
LINE
  5
59
330
1F
100
AcDbEntity
  8
1
  6
DOT_CENTER
 62
     2
100
AcDbLine
 10
-114.5635309971518
 20
105.3766000923113
 30
0.0
 11
-111.8017786518812
 21
105.3766000923113
 31
0.0
  0
LINE
  5
5A
330
1F
100
AcDbEntity
  8
1
  6
DOT_CENTER
 62
     2
100
AcDbLine
 10
-203.1000806359427
 20
5.37660009231135
 30
0.0
 11
-134.8383329234636
 21
5.37660009231135
 31
0.0
  0
LINE
  5
5B
330
1F
100
AcDbEntity
  8
1
  6
DOT_CENTER
 62
     2
100
AcDbLine
 10
-153.3592983114338
 20
-94.62339990768865
 30
0.0
 11
-136.7937815471108
 21
-94.62339990768865
 31
0.0
  0
LINE
  5
5C
330
1F
100
AcDbEntity
  8
1
  6
DOT_CENTER
 62
     2
100
AcDbLine
 10
-153.3592983114338
 20
105.3766000923113
 30
0.0
 11
-136.7937815471108
 21
105.3766000923113
 31
0.0
  0
LINE
  5
5D
330
1F
100
AcDbEntity
  8
1
  6
Continuous
 62
     7
100
AcDbLine
 10
-153.3592983114338
 20
105.3766000923113
 30
0.0
 11
-153.3592983114338
 21
-94.62339990768865
 31
0.0
  0
LINE
  5
5E
330
1F
100
AcDbEntity
  8
1
  6
DOT_CENTER
 62
     2
100
AcDbLine
 10
-199.3592983114338
 20
-94.62339990768865
 30
0.0
 11
-153.3592983114338
 21
-94.62339990768865
 31
0.0
  0
LINE
  5
5F
330
1F
100
AcDbEntity
  8
1
  6
DOT_CENTER
 62
     2
100
AcDbLine
 10
-199.3592983114338
 20
105.3766000923113
 30
0.0
 11
-153.3592983114338
 21
105.3766000923113
 31
0.0
  0
LINE
  5
60
330
1F
100
AcDbEntity
  8
1
  6
Continuous
 62
     7
100
AcDbLine
 10
-199.3592983114338
 20
105.3766000923113
 30
0.0
 11
-199.3592983114338
 21
-94.62339990768865
 31
0.0
  0
LINE
  5
61
330
1F
100
AcDbEntity
  8
1
  6
DOT_CENTER
 62
     2
100
AcDbLine
 10
-136.7937815471108
 20
105.3766000923113
 30
0.0
 11
-136.7937815471108
 21
109.761881720986
 31
0.0
  0
LINE
  5
62
330
1F
100
AcDbEntity
  8
1
  6
DOT_CENTER
 62
     2
100
AcDbLine
 10
-136.7937815471108
 20
-94.62339990768865
 30
0.0
 11
-136.7937815471108
 21
-99.90359801694666
 31
0.0
  0
LINE
  5
63
330
1F
100
AcDbEntity
  8
1
  6
DOT_CENTER
 62
     2
100
AcDbLine
 10
-136.7937815471108
 20
-94.62339990768865
 30
0.0
 11
-131.8383329234636
 21
-94.62339990768865
 31
0.0
  0
LINE
  5
64
330
1F
100
AcDbEntity
  8
1
  6
DOT_CENTER
 62
     2
100
AcDbLine
 10
-136.7937815471108
 20
105.3766000923113
 30
0.0
 11
-131.8383329234636
 21
105.3766000923113
 31
0.0
  0
LINE
  5
65
330
1F
100
AcDbEntity
  8
1
  6
DOT_CENTER
 62
     2
100
AcDbLine
 10
-136.7937815471108
 20
105.3766000923113
 30
0.0
 11
-136.7937815471108
 21
-94.62339990768865
 31
0.0
  0
LINE
  5
66
330
1F
100
AcDbEntity
  8
1
  6
DOT_CENTER
 62
     2
100
AcDbLine
 10
-203.1000806359427
 20
-94.62339990768865
 30
0.0
 11
-199.3592983114338
 21
-94.62339990768865
 31
0.0
  0
LINE
  5
67
330
1F
100
AcDbEntity
  8
1
  6
DOT_CENTER
 62
     2
100
AcDbLine
 10
-203.1000806359427
 20
105.3766000923113
 30
0.0
 11
-199.3592983114338
 21
105.3766000923113
 31
0.0
  0
LINE
  5
68
330
1F
100
AcDbEntity
  8
1
  6
Continuous
 62
     7
100
AcDbLine
 10
-1.11320632733307
 20
-67.6979399702632
 30
0.0
 11
-44.11320632733307
 21
-67.6979399702632
 31
0.0
  0
LINE
  5
69
330
1F
100
AcDbEntity
  8
1
  6
Continuous
 62
     7
100
AcDbLine
 10
-1.11320632733307
 20
-62.69793997026321
 30
0.0
 11
-1.11320632733307
 21
-67.6979399702632
 31
0.0
  0
LINE
  5
6A
330
1F
100
AcDbEntity
  8
1
  6
DOT_CENTER
 62
     2
100
AcDbLine
 10
11.88679367266695
 20
-5.13242320594023
 30
0.0
 11
-44.11320632733307
 21
-5.13242320594023
 31
0.0
  0
LINE
  5
6B
330
1F
100
AcDbEntity
  8
1
  6
Continuous
 62
     7
100
AcDbLine
 10
11.88679367266695
 20
-21.69793997026321
 30
0.0
 11
11.88679367266695
 21
-5.13242320594023
 31
0.0
  0
LINE
  5
6C
330
1F
100
AcDbEntity
  8
1
  6
Continuous
 62
     7
100
AcDbLine
 10
-1.11320632733319
 20
-21.69793997026321
 30
0.0
 11
11.88679367266695
 21
-21.69793997026321
 31
0.0
  0
LINE
  5
6D
330
1F
100
AcDbEntity
  8
1
  6
Continuous
 62
     7
100
AcDbLine
 10
-1.11320632733307
 20
-36.69793997026321
 30
0.0
 11
-1.11320632733319
 21
-21.69793997026321
 31
0.0
  0
LINE
  5
6E
330
1F
100
AcDbEntity
  8
1
  6
Continuous
 62
     7
100
AcDbLine
 10
-34.11320632733315
 20
-62.69793997026321
 30
0.0
 11
-34.11320632733319
 21
-36.69793997026326
 31
0.0
  0
LINE
  5
6F
330
1F
100
AcDbEntity
  8
1
  6
Continuous
 62
     7
100
AcDbLine
 10
-44.11320632733307
 20
-5.13242320594023
 30
0.0
 11
-44.11320632733307
 21
-67.6979399702632
 31
0.0
  0
LINE
  5
70
330
1F
100
AcDbEntity
  8
1
  6
Continuous
 62
     7
100
AcDbLine
 10
-34.11320632733319
 20
-36.69793997026326
 30
0.0
 11
-11.11320632733319
 21
-36.69793997026317
 31
0.0
  0
LINE
  5
71
330
1F
100
AcDbEntity
  8
1
  6
Continuous
 62
     7
100
AcDbLine
 10
-1.11320632733307
 20
-36.69793997026321
 30
0.0
 11
-1.11320632733307
 21
-62.69793997026321
 31
0.0
  0
LINE
  5
72
330
1F
100
AcDbEntity
  8
1
  6
Continuous
 62
     7
100
AcDbLine
 10
-1.11320632733307
 20
-62.69793997026321
 30
0.0
 11
-11.11320632733307
 21
-62.69793997026321
 31
0.0
  0
LINE
  5
73
330
1F
100
AcDbEntity
  8
1
  6
Continuous
 62
     7
100
AcDbLine
 10
-0.11320632733307
 20
-23.42999077783213
 30
0.0
 11
-0.11320632733307
 21
-22.69793997026321
 31
0.0
  0
LINE
  5
74
330
1F
100
AcDbEntity
  8
1
  6
Continuous
 62
     7
100
AcDbLine
 10
1.19619474942533
 20
-25.69793997026321
 30
0.0
 11
-0.11320632733307
 21
-23.42999077783213
 31
0.0
  0
LINE
  5
75
330
1F
100
AcDbEntity
  8
1
  6
Continuous
 62
     7
100
AcDbLine
 10
9.57739259590841
 20
-25.69793997026321
 30
0.0
 11
1.19619474942533
 21
-25.69793997026321
 31
0.0
  0
LINE
  5
76
330
1F
100
AcDbEntity
  8
1
  6
Continuous
 62
     7
100
AcDbLine
 10
10.88679367266695
 20
-23.42999077783213
 30
0.0
 11
9.57739259590841
 21
-25.69793997026321
 31
0.0
  0
LINE
  5
77
330
1F
100
AcDbEntity
  8
1
  6
Continuous
 62
     7
100
AcDbLine
 10
10.88679367266695
 20
-22.69793997026321
 30
0.0
 11
10.88679367266695
 21
-23.42999077783213
 31
0.0
  0
LINE
  5
78
330
1F
100
AcDbEntity
  8
1
  6
Continuous
 62
     7
100
AcDbLine
 10
-0.11320632733307
 20
-22.69793997026321
 30
0.0
 11
10.88679367266695
 21
-22.69793997026321
 31
0.0
  0
LINE
  5
79
330
1F
100
AcDbEntity
  8
1
  6
Continuous
 62
     7
100
AcDbLine
 10
11.88679367266695
 20
-23.69793997026321
 30
0.0
 11
11.88679367266695
 21
-21.69793997026321
 31
0.0
  0
LINE
  5
7A
330
1F
100
AcDbEntity
  8
1
  6
Continuous
 62
     7
100
AcDbLine
 10
10.15474286509806
 20
-26.69793997026321
 30
0.0
 11
11.88679367266695
 21
-23.69793997026321
 31
0.0
  0
LINE
  5
7B
330
1F
100
AcDbEntity
  8
1
  6
Continuous
 62
     7
100
AcDbLine
 10
0.61884448023571
 20
-26.69793997026321
 30
0.0
 11
10.15474286509806
 21
-26.69793997026321
 31
0.0
  0
LINE
  5
7C
330
1F
100
AcDbEntity
  8
1
  6
Continuous
 62
     7
100
AcDbLine
 10
-1.11320632733307
 20
-23.69793997026321
 30
0.0
 11
0.61884448023571
 21
-26.69793997026321
 31
0.0
  0
LINE
  5
7D
330
1F
100
AcDbEntity
  8
1
  6
DOT_CENTER
 62
     2
100
AcDbLine
 10
-44.11320632733307
 20
-5.13242320594023
 30
0.0
 11
-48.58147486355819
 21
-5.13242320594023
 31
0.0
  0
LINE
  5
7E
330
1F
100
AcDbEntity
  8
1
  6
DOT_CENTER
 62
     2
100
AcDbLine
 10
11.88679367266695
 20
-5.13242320594023
 30
0.0
 11
18.90126688979785
 21
-5.13242320594023
 31
0.0
  0
LINE
  5
7F
330
1F
100
AcDbEntity
  8
1
  6
Continuous
 62
     7
100
AcDbLine
 10
-194.3592983114338
 20
5.37660009231135
 30
0.0
 11
-194.3592983114338
 21
-33.62339990768865
 31
0.0
  0
LINE
  5
80
330
1F
100
AcDbEntity
  8
1
  6
Continuous
 62
     7
100
AcDbLine
 10
-168.3592983114337
 20
5.37660009231135
 30
0.0
 11
-168.3592983114338
 21
-33.62339990768865
 31
0.0
  0
LINE
  5
81
330
1F
100
AcDbEntity
  8
1
  6
Continuous
 62
     7
100
AcDbLine
 10
-182.3592983114338
 20
56.37660009231135
 30
0.0
 11
-180.3592983114338
 21
56.37660009231135
 31
0.0
  0
LINE
  5
82
330
1F
100
AcDbEntity
  8
1
  6
Continuous
 62
     7
100
AcDbLine
 10
-168.3592983114338
 20
44.37660009231136
 30
0.0
 11
-168.3592983114337
 21
5.37660009231135
 31
0.0
  0
LINE
  5
83
330
1F
100
AcDbEntity
  8
1
  6
Continuous
 62
     7
100
AcDbLine
 10
-194.3592983114338
 20
44.37660009231135
 30
0.0
 11
-194.3592983114338
 21
5.37660009231135
 31
0.0
  0
LINE
  5
84
330
1F
100
AcDbEntity
  8
1
  6
Continuous
 62
     7
100
AcDbLine
 10
-182.3592983114338
 20
-45.62339990768865
 30
0.0
 11
-180.3592983114338
 21
-45.62339990768865
 31
0.0
  0
LINE
  5
85
330
1F
100
AcDbEntity
  8
1
  6
DOT_CENTER
 62
     2
100
AcDbLine
 10
168.9119338369392
 20
-64.37339990768865
 30
0.0
 11
168.9119338369392
 21
-59.87339990768865
 31
0.0
  0
LINE
  5
86
330
1F
100
AcDbEntity
  8
1
  6
DOT_CENTER
 62
     2
100
AcDbLine
 10
166.6619338369392
 20
-62.12339990768865
 30
0.0
 11
171.1619338369392
 21
-62.12339990768865
 31
0.0
  0
LINE
  5
87
330
1F
100
AcDbEntity
  8
1
  6
DOT_CENTER
 62
     2
100
AcDbLine
 10
156.9119338369392
 20
-54.37339990768865
 30
0.0
 11
156.9119338369392
 21
-49.87339990768865
 31
0.0
  0
LINE
  5
88
330
1F
100
AcDbEntity
  8
1
  6
DOT_CENTER
 62
     2
100
AcDbLine
 10
154.6619338369392
 20
-52.12339990768865
 30
0.0
 11
159.1619338369392
 21
-52.12339990768865
 31
0.0
  0
LINE
  5
89
330
1F
100
AcDbEntity
  8
1
  6
DOT_CENTER
 62
     2
100
AcDbLine
 10
168.9119338369392
 20
70.62660009231135
 30
0.0
 11
168.9119338369392
 21
75.12660009231135
 31
0.0
  0
LINE
  5
8A
330
1F
100
AcDbEntity
  8
1
  6
DOT_CENTER
 62
     2
100
AcDbLine
 10
166.6619338369392
 20
72.87660009231135
 30
0.0
 11
171.1619338369392
 21
72.87660009231135
 31
0.0
  0
LINE
  5
8B
330
1F
100
AcDbEntity
  8
1
  6
DOT_CENTER
 62
     2
100
AcDbLine
 10
156.9119338369392
 20
60.62660009231135
 30
0.0
 11
156.9119338369392
 21
65.12660009231135
 31
0.0
  0
LINE
  5
8C
330
1F
100
AcDbEntity
  8
1
  6
DOT_CENTER
 62
     2
100
AcDbLine
 10
154.6619338369392
 20
62.87660009231135
 30
0.0
 11
159.1619338369392
 21
62.87660009231135
 31
0.0
  0
LINE
  5
8D
330
1F
100
AcDbEntity
  8
1
  6
DOT_CENTER
 62
     2
100
AcDbLine
 10
162.9119338369392
 20
86.579663813348
 30
0.0
 11
162.9119338369392
 21
-75.26360711333238
 31
0.0
  0
LINE
  5
8E
330
1F
100
AcDbEntity
  8
1
  6
Continuous
 62
     7
100
AcDbLine
 10
149.9119338369392
 20
69.87660009231135
 30
0.0
 11
149.9119338369392
 21
44.37660009231139
 31
0.0
  0
LINE
  5
8F
330
1F
100
AcDbEntity
  8
1
  6
Continuous
 62
     7
100
AcDbLine
 10
175.9119338369392
 20
69.87660009231135
 30
0.0
 11
175.9119338369392
 21
44.37660009231139
 31
0.0
  0
LINE
  5
90
330
1F
100
AcDbEntity
  8
1
  6
Continuous
 62
     7
100
AcDbLine
 10
2.38679367266664
 20
-62.69793997026321
 30
0.0
 11
2.38679367266681
 21
-36.69793997026312
 31
0.0
  0
LINE
  5
91
330
1F
100
AcDbEntity
  8
1
  6
PHANTOM
 62
     2
100
AcDbLine
 10
47.38679367266684
 20
-68.47367057736668
 30
0.0
 11
47.38679367266684
 21
-66.6979399702632
 31
0.0
  0
LINE
  5
92
330
1F
100
AcDbEntity
  8
1
  6
PHANTOM
 62
     2
100
AcDbLine
 10
47.38679367266683
 20
-26.69793997026321
 30
0.0
 11
47.38679367266684
 21
-21.87239328400037
 31
0.0
  0
LINE
  5
93
330
1F
100
AcDbEntity
  8
1
  6
Continuous
 62
     7
100
AcDbLine
 10
2.38679367266687
 20
-26.69793997026321
 30
0.0
 11
47.38679367266683
 21
-26.69793997026321
 31
0.0
  0
LINE
  5
94
330
1F
100
AcDbEntity
  8
1
  6
Continuous
 62
     7
100
AcDbLine
 10
2.38679367266681
 20
-36.69793997026312
 30
0.0
 11
2.38679367266687
 21
-26.69793997026321
 31
0.0
  0
LINE
  5
95
330
1F
100
AcDbEntity
  8
1
  6
Continuous
 62
     7
100
AcDbLine
 10
38.38679367266682
 20
-36.69793997026321
 30
0.0
 11
8.38679367266679
 21
-36.69793997026321
 31
0.0
  0
LINE
  5
96
330
1F
100
AcDbEntity
  8
1
  6
Continuous
 62
     7
100
AcDbLine
 10
38.38679367266665
 20
-62.69793997026342
 30
0.0
 11
38.38679367266682
 21
-36.69793997026321
 31
0.0
  0
LINE
  5
97
330
1F
100
AcDbEntity
  8
1
  6
Continuous
 62
     7
100
AcDbLine
 10
2.38679367266664
 20
-62.69793997026321
 30
0.0
 11
8.38679367266664
 21
-62.69793997026325
 31
0.0
  0
LINE
  5
98
330
1F
100
AcDbEntity
  8
1
  6
Continuous
 62
     7
100
AcDbLine
 10
2.38679367266664
 20
-66.6979399702632
 30
0.0
 11
2.38679367266664
 21
-62.69793997026321
 31
0.0
  0
LINE
  5
99
330
1F
100
AcDbEntity
  8
1
  6
PHANTOM
 62
     2
100
AcDbLine
 10
47.38679367266684
 20
-66.6979399702632
 30
0.0
 11
47.38679367266683
 21
-26.69793997026321
 31
0.0
  0
LINE
  5
9A
330
1F
100
AcDbEntity
  8
1
  6
Continuous
 62
     7
100
AcDbLine
 10
47.38679367266684
 20
-66.6979399702632
 30
0.0
 11
2.38679367266664
 21
-66.6979399702632
 31
0.0
  0
LINE
  5
9B
330
1F
100
AcDbEntity
  8
1
  6
DOT_CENTER
 62
     2
100
AcDbLine
 10
137.7727714248735
 20
105.3766000923114
 30
0.0
 11
139.9119338369392
 21
105.3766000923114
 31
0.0
  0
LINE
  5
9C
330
1F
100
AcDbEntity
  8
1
  6
DOT_CENTER
 62
     2
100
AcDbLine
 10
137.7727714248735
 20
-94.62339990768866
 30
0.0
 11
139.9119338369392
 21
-94.62339990768871
 31
0.0
  0
LINE
  5
9D
330
1F
100
AcDbEntity
  8
1
  6
Continuous
 62
     7
100
AcDbLine
 10
139.9119338369392
 20
-94.62339990768871
 30
0.0
 11
139.9119338369392
 21
105.3766000923114
 31
0.0
  0
LINE
  5
9E
330
1F
100
AcDbEntity
  8
1
  6
DOT_CENTER
 62
     2
100
AcDbLine
 10
139.9119338369392
 20
105.3766000923114
 30
0.0
 11
179.9119338369392
 21
105.3766000923114
 31
0.0
  0
LINE
  5
9F
330
1F
100
AcDbEntity
  8
1
  6
DOT_CENTER
 62
     2
100
AcDbLine
 10
139.9119338369392
 20
-94.62339990768871
 30
0.0
 11
179.9119338369392
 21
-94.62339990768871
 31
0.0
  0
LINE
  5
A0
330
1F
100
AcDbEntity
  8
1
  6
Continuous
 62
     7
100
AcDbLine
 10
179.9119338369392
 20
-94.62339990768871
 30
0.0
 11
179.9119338369392
 21
105.3766000923114
 31
0.0
  0
LINE
  5
A1
330
1F
100
AcDbEntity
  8
1
  6
DOT_CENTER
 62
     2
100
AcDbLine
 10
179.9119338369392
 20
105.3766000923114
 30
0.0
 11
182.5946427794926
 21
105.3766000923114
 31
0.0
  0
LINE
  5
A2
330
1F
100
AcDbEntity
  8
1
  6
DOT_CENTER
 62
     2
100
AcDbLine
 10
179.9119338369392
 20
-94.62339990768871
 30
0.0
 11
182.5946427794926
 21
-94.62339990768866
 31
0.0
  0
LINE
  5
A3
330
1F
100
AcDbEntity
  8
1
  6
DOT_CENTER
 62
     2
100
AcDbLine
 10
137.7727714248735
 20
5.37660009231135
 30
0.0
 11
182.5946427794926
 21
5.37660009231135
 31
0.0
  0
LINE
  5
A4
330
1F
100
AcDbEntity
  8
1
  6
Continuous
 62
     7
100
AcDbLine
 10
8.38679367266679
 20
-36.69793997026321
 30
0.0
 11
8.38679367266664
 21
-62.69793997026325
 31
0.0
  0
LINE
  5
A5
330
1F
100
AcDbEntity
  8
1
  6
Continuous
 62
     7
100
AcDbLine
 10
8.38679367266679
 20
-36.69793997026321
 30
0.0
 11
2.38679367266681
 21
-36.69793997026312
 31
0.0
  0
LINE
  5
A6
330
1F
100
AcDbEntity
  8
1
  6
Continuous
 62
     7
100
AcDbLine
 10
8.38679367266664
 20
-62.69793997026325
 30
0.0
 11
38.38679367266665
 21
-62.69793997026342
 31
0.0
  0
LINE
  5
A7
330
1F
100
AcDbEntity
  8
1
  6
DOT_CENTER
 62
     2
100
AcDbLine
 10
101.1986003432113
 20
105.3766000923114
 30
0.0
 11
107.337762755277
 21
105.3766000923114
 31
0.0
  0
LINE
  5
A8
330
1F
100
AcDbEntity
  8
1
  6
DOT_CENTER
 62
     2
100
AcDbLine
 10
61.19860034321128
 20
105.3766000923114
 30
0.0
 11
106.1986003432113
 21
105.3766000923114
 31
0.0
  0
LINE
  5
A9
330
1F
100
AcDbEntity
  8
1
  6
DOT_CENTER
 62
     2
100
AcDbLine
 10
58.51589140065786
 20
105.3766000923114
 30
0.0
 11
61.19860034321128
 21
105.3766000923114
 31
0.0
  0
LINE
  5
AA
330
1F
100
AcDbEntity
  8
1
  6
DOT_CENTER
 62
     2
100
AcDbLine
 10
101.1986003432113
 20
-94.62339990768866
 30
0.0
 11
107.337762755277
 21
-94.62339990768866
 31
0.0
  0
LINE
  5
AB
330
1F
100
AcDbEntity
  8
1
  6
DOT_CENTER
 62
     2
100
AcDbLine
 10
61.19860034321127
 20
-94.62339990768866
 30
0.0
 11
106.1986003432113
 21
-94.62339990768866
 31
0.0
  0
LINE
  5
AC
330
1F
100
AcDbEntity
  8
1
  6
DOT_CENTER
 62
     2
100
AcDbLine
 10
58.51589140065786
 20
-94.62339990768866
 30
0.0
 11
61.19860034321127
 21
-94.62339990768866
 31
0.0
  0
LINE
  5
AD
330
1F
100
AcDbEntity
  8
1
  6
Continuous
 62
     7
100
AcDbLine
 10
61.19860034321127
 20
82.87660009231135
 30
0.0
 11
61.19860034321128
 21
105.3766000923114
 31
0.0
  0
LINE
  5
AE
330
1F
100
AcDbEntity
  8
1
  6
Continuous
 62
     7
100
AcDbLine
 10
67.19860034321127
 20
82.87660009231135
 30
0.0
 11
61.19860034321127
 21
82.87660009231135
 31
0.0
  0
LINE
  5
AF
330
1F
100
AcDbEntity
  8
1
  6
Continuous
 62
     7
100
AcDbLine
 10
61.19860034321127
 20
-72.12339990768865
 30
0.0
 11
61.19860034321127
 21
82.87660009231135
 31
0.0
  0
LINE
  5
B0
330
1F
100
AcDbEntity
  8
1
  6
Continuous
 62
     7
100
AcDbLine
 10
67.19860034321127
 20
56.37660009231134
 30
0.0
 11
67.19860034321127
 21
82.87660009231135
 31
0.0
  0
LINE
  5
B1
330
1F
100
AcDbEntity
  8
1
  6
Continuous
 62
     7
100
AcDbLine
 10
98.69860034321127
 20
56.37660009231139
 30
0.0
 11
67.19860034321127
 21
56.37660009231134
 31
0.0
  0
LINE
  5
B2
330
1F
100
AcDbEntity
  8
1
  6
Continuous
 62
     7
100
AcDbLine
 10
98.69860034321127
 20
-45.62339990768863
 30
0.0
 11
98.69860034321127
 21
56.37660009231139
 31
0.0
  0
LINE
  5
B3
330
1F
100
AcDbEntity
  8
1
  6
Continuous
 62
     7
100
AcDbLine
 10
67.19860034321127
 20
-45.62339990768866
 30
0.0
 11
98.69860034321127
 21
-45.62339990768863
 31
0.0
  0
LINE
  5
B4
330
1F
100
AcDbEntity
  8
1
  6
Continuous
 62
     7
100
AcDbLine
 10
67.19860034321127
 20
-72.12339990768865
 30
0.0
 11
67.19860034321127
 21
-45.62339990768866
 31
0.0
  0
LINE
  5
B5
330
1F
100
AcDbEntity
  8
1
  6
Continuous
 62
     7
100
AcDbLine
 10
61.19860034321127
 20
-72.12339990768865
 30
0.0
 11
67.19860034321127
 21
-72.12339990768865
 31
0.0
  0
LINE
  5
B6
330
1F
100
AcDbEntity
  8
1
  6
Continuous
 62
     7
100
AcDbLine
 10
61.19860034321127
 20
-94.62339990768866
 30
0.0
 11
61.19860034321127
 21
-72.12339990768865
 31
0.0
  0
LINE
  5
B7
330
1F
100
AcDbEntity
  8
1
  6
DOT_CENTER
 62
     2
100
AcDbLine
 10
106.1986003432113
 20
-94.62339990768866
 30
0.0
 11
106.1986003432113
 21
105.3766000923114
 31
0.0
  0
LINE
  5
B8
330
1F
100
AcDbEntity
  8
1
  6
DOT_CENTER
 62
     2
100
AcDbLine
 10
106.1986003432113
 20
-98.1112895265787
 30
0.0
 11
106.1986003432113
 21
-94.62339990768866
 31
0.0
  0
LINE
  5
B9
330
1F
100
AcDbEntity
  8
1
  6
DOT_CENTER
 62
     2
100
AcDbLine
 10
106.1986003432113
 20
107.4193999621323
 30
0.0
 11
106.1986003432113
 21
105.3766000923114
 31
0.0
  0
LINE
  5
BA
330
1F
100
AcDbEntity
  8
1
  6
Continuous
 62
     7
100
AcDbLine
 10
175.9119338369392
 20
5.37660009231135
 30
0.0
 11
175.9119338369392
 21
-33.62339990768865
 31
0.0
  0
LINE
  5
BB
330
1F
100
AcDbEntity
  8
1
  6
DOT_CENTER
 62
     2
100
AcDbLine
 10
54.78963846662117
 20
5.37660009231135
 30
0.0
 11
110.3030600059606
 21
5.37660009231135
 31
0.0
  0
LINE
  5
BC
330
1F
100
AcDbEntity
  8
1
  6
Continuous
 62
     7
100
AcDbLine
 10
149.9119338369392
 20
5.37660009231135
 30
0.0
 11
149.9119338369392
 21
-33.62339990768865
 31
0.0
  0
LINE
  5
BD
330
1F
100
AcDbEntity
  8
1
  6
DOT_CENTER
 62
     2
100
AcDbLine
 10
40.84299765474177
 20
-49.69793997026321
 30
0.0
 11
0.36388297763503
 21
-49.69793997026321
 31
0.0
  0
LINE
  5
BE
330
1F
100
AcDbEntity
  8
1
  6
Continuous
 62
     7
100
AcDbLine
 10
67.19860034321127
 20
44.37660009231139
 30
0.0
 11
67.19860034321127
 21
56.37660009231134
 31
0.0
  0
LINE
  5
BF
330
1F
100
AcDbEntity
  8
1
  6
Continuous
 62
     7
100
AcDbLine
 10
67.19860034321127
 20
-33.62339990768865
 30
0.0
 11
67.19860034321127
 21
-45.62339990768866
 31
0.0
  0
LINE
  5
C0
330
1F
100
AcDbEntity
  8
1
  6
Continuous
 62
     7
100
AcDbLine
 10
161.9119338369392
 20
56.37660009231138
 30
0.0
 11
163.9119338369392
 21
56.37660009231135
 31
0.0
  0
LINE
  5
C1
330
1F
100
AcDbEntity
  8
1
  6
Continuous
 62
     7
100
AcDbLine
 10
149.9119338369392
 20
44.37660009231139
 30
0.0
 11
149.9119338369392
 21
5.37660009231135
 31
0.0
  0
LINE
  5
C2
330
1F
100
AcDbEntity
  8
1
  6
Continuous
 62
     7
100
AcDbLine
 10
175.9119338369392
 20
44.37660009231139
 30
0.0
 11
175.9119338369392
 21
5.37660009231135
 31
0.0
  0
LINE
  5
C3
330
1F
100
AcDbEntity
  8
1
  6
Continuous
 62
     7
100
AcDbLine
 10
163.9119338369392
 20
-45.62339990768865
 30
0.0
 11
161.9119338369392
 21
-45.62339990768865
 31
0.0
  0
LINE
  5
C4
330
1F
100
AcDbEntity
  8
1
  6
Continuous
 62
     7
100
AcDbLine
 10
149.9119338369392
 20
-33.62339990768865
 30
0.0
 11
149.9119338369392
 21
-59.12339990768865
 31
0.0
  0
LINE
  5
C5
330
1F
100
AcDbEntity
  8
1
  6
Continuous
 62
     7
100
AcDbLine
 10
175.9119338369392
 20
-33.62339990768865
 30
0.0
 11
175.9119338369392
 21
-59.12339990768865
 31
0.0
  0
ARC
  5
C6
330
1F
100
AcDbEntity
  8
1
  6
Continuous
 62
     7
100
AcDbCircle
 10
-181.3592983114338
 20
69.87660009231135
 30
0.0
 40
13.0
100
AcDbArc
 50
0.0
 51
90.0
  0
ARC
  5
C7
330
1F
100
AcDbEntity
  8
1
  6
Continuous
 62
     7
100
AcDbCircle
 10
-181.3592983114338
 20
-59.12339990768865
 30
0.0
 40
13.0
100
AcDbArc
 50
180.0
 51
-90.0
  0
ARC
  5
C8
330
1F
100
AcDbEntity
  8
1
  6
Continuous
 62
     7
100
AcDbCircle
 10
-181.3592983114338
 20
-59.12339990768865
 30
0.0
 40
13.0
100
AcDbArc
 50
-90.0
 51
0.0
  0
ARC
  5
C9
330
1F
100
AcDbEntity
  8
1
  6
Continuous
 62
     7
100
AcDbCircle
 10
-181.3592983114338
 20
69.87660009231135
 30
0.0
 40
13.0
100
AcDbArc
 50
90.0
 51
180.0
  0
ARC
  5
CA
330
1F
100
AcDbEntity
  8
1
  6
Continuous
 62
     7
100
AcDbCircle
 10
162.9119338369392
 20
-59.12339990768865
 30
0.0
 40
13.0
100
AcDbArc
 50
180.0
 51
-90.0
  0
ARC
  5
CB
330
1F
100
AcDbEntity
  8
1
  6
Continuous
 62
     7
100
AcDbCircle
 10
162.9119338369392
 20
69.87660009231135
 30
0.0
 40
13.0
100
AcDbArc
 50
0.0
 51
90.0
  0
ARC
  5
CC
330
1F
100
AcDbEntity
  8
1
  6
Continuous
 62
     7
100
AcDbCircle
 10
162.9119338369392
 20
-59.12339990768865
 30
0.0
 40
13.0
100
AcDbArc
 50
-90.0
 51
0.0
  0
ARC
  5
CD
330
1F
100
AcDbEntity
  8
1
  6
Continuous
 62
     7
100
AcDbCircle
 10
162.9119338369392
 20
69.87660009231135
 30
0.0
 40
13.0
100
AcDbArc
 50
90.0
 51
180.0
  0
CIRCLE
  5
CE
330
1F
100
AcDbEntity
  8
1
  6
Continuous
 62
     7
100
AcDbCircle
 10
-175.3592983114338
 20
-52.12339990768865
 30
0.0
 40
1.5
  0
CIRCLE
  5
CF
330
1F
100
AcDbEntity
  8
1
  6
Continuous
 62
     7
100
AcDbCircle
 10
-187.3592983114338
 20
-62.12339990768865
 30
0.0
 40
1.5
  0
CIRCLE
  5
D0
330
1F
100
AcDbEntity
  8
1
  6
Continuous
 62
     7
100
AcDbCircle
 10
-175.3592983114338
 20
62.87660009231135
 30
0.0
 40
1.5
  0
CIRCLE
  5
D1
330
1F
100
AcDbEntity
  8
1
  6
Continuous
 62
     7
100
AcDbCircle
 10
-187.3592983114338
 20
72.87660009231135
 30
0.0
 40
1.5
  0
CIRCLE
  5
D2
330
1F
100
AcDbEntity
  8
1
  6
DOT_CENTER
 62
     2
100
AcDbCircle
 10
-180.3592983114338
 20
-59.12339990768865
 30
0.0
 40
12.0
  0
CIRCLE
  5
D3
330
1F
100
AcDbEntity
  8
1
  6
Continuous
 62
     7
100
AcDbCircle
 10
168.9119338369392
 20
-62.12339990768865
 30
0.0
 40
1.5
  0
CIRCLE
  5
D4
330
1F
100
AcDbEntity
  8
1
  6
Continuous
 62
     7
100
AcDbCircle
 10
156.9119338369392
 20
-52.12339990768865
 30
0.0
 40
1.5
  0
CIRCLE
  5
D5
330
1F
100
AcDbEntity
  8
1
  6
Continuous
 62
     7
100
AcDbCircle
 10
168.9119338369392
 20
72.87660009231135
 30
0.0
 40
1.5
  0
CIRCLE
  5
D6
330
1F
100
AcDbEntity
  8
1
  6
Continuous
 62
     7
100
AcDbCircle
 10
156.9119338369392
 20
62.87660009231135
 30
0.0
 40
1.5
  0
CIRCLE
  5
D7
330
1F
100
AcDbEntity
  8
1
  6
DOT_CENTER
 62
     2
100
AcDbCircle
 10
161.9119338369392
 20
-59.12339990768862
 30
0.0
 40
12.0
  0
ARC
  5
D8
330
1F
100
AcDbEntity
  8
1
  6
Continuous
 62
     7
100
AcDbCircle
 10
-182.3592983114338
 20
-33.62339990768865
 30
0.0
 40
12.0
100
AcDbArc
 50
180.0
 51
-90.0
  0
ARC
  5
D9
330
1F
100
AcDbEntity
  8
1
  6
Continuous
 62
     7
100
AcDbCircle
 10
-182.3592983114338
 20
44.37660009231135
 30
0.0
 40
12.0
100
AcDbArc
 50
90.0
 51
180.0
  0
ARC
  5
DA
330
1F
100
AcDbEntity
  8
1
  6
Continuous
 62
     7
100
AcDbCircle
 10
-180.3592983114338
 20
44.37660009231135
 30
0.0
 40
12.0
100
AcDbArc
 50
0.00000000000003
 51
90.0
  0
ARC
  5
DB
330
1F
100
AcDbEntity
  8
1
  6
Continuous
 62
     7
100
AcDbCircle
 10
-180.3592983114338
 20
-33.62339990768865
 30
0.0
 40
12.0
100
AcDbArc
 50
-90.0
 51
0.0
  0
ARC
  5
DC
330
1F
100
AcDbEntity
  8
1
  6
Continuous
 62
     7
100
AcDbCircle
 10
163.9119338369392
 20
-33.62339990768869
 30
0.0
 40
11.99999999999996
100
AcDbArc
 50
-90.0
 51
0.0000000000002
  0
ARC
  5
DD
330
1F
100
AcDbEntity
  8
1
  6
Continuous
 62
     7
100
AcDbCircle
 10
161.9119338369392
 20
-33.62339990768869
 30
0.0
 40
12.0
100
AcDbArc
 50
179.9999999999998
 51
-90.0
  0
ARC
  5
DE
330
1F
100
AcDbEntity
  8
1
  6
Continuous
 62
     7
100
AcDbCircle
 10
161.9119338369392
 20
44.37660009231139
 30
0.0
 40
11.99999999999999
100
AcDbArc
 50
90.0
 51
180.0
  0
ARC
  5
DF
330
1F
100
AcDbEntity
  8
1
  6
Continuous
 62
     7
100
AcDbCircle
 10
163.9119338369392
 20
44.37660009231139
 30
0.0
 40
12.0
100
AcDbArc
 50
0.0
 51
90.0
  0
MTEXT
  5
E1
330
1F
100
AcDbEntity
  8
1
 62
     3
100
AcDbMText
 10
15.40554988135929
 20
-100.7574994986811
 30
0.0
 40
5.0
 41
0.0
 71
     4
 72
     1
  1
Fräsbild\PFlügel
  7
CONVERTER_11
 73
     1
 44
1.32052821128451
  0
MTEXT
  5
E2
330
1F
100
AcDbEntity
  8
1
 62
     3
100
AcDbMText
 10
-46.76073053579021
 20
-108.1821562603432
 30
0.0
 40
5.0
 41
0.0
 71
     4
 72
     1
  1
Fräsbild\PBlockzarge\PRahmen
  7
CONVERTER_11
 73
     1
 44
1.32052821128451
  0
DIMENSION
  5
ED
330
1F
100
AcDbEntity
  8
1
100
AcDbDimension
  2
*D1
 10
117.927317388799
 20
82.87660009231135
 30
0.0
 11
114.177317388799
 21
5.16587507449884
 31
0.0
 70
    32
  1
<>
 71
     5
 42
-1.0
 53
90.0
  3
ME10_DIM_10
100
AcDbAlignedDimension
 13
162.9119338369392
 23
-72.12339990768865
 33
0.0
 14
162.9119338369392
 24
82.87660009231135
 34
0.0
 50
90.0
100
AcDbRotatedDimension
  0
DIMENSION
  5
F8
330
1F
100
AcDbEntity
  8
1
100
AcDbDimension
  2
*D2
 10
134.371228322766
 20
56.37660009231139
 30
0.0
 11
130.621228322766
 21
5.16587507449884
 31
0.0
 70
    32
  1
<>
 71
     5
 42
-1.0
 53
90.0
  3
ME10_DIM_11
100
AcDbAlignedDimension
 13
161.9119338369392
 23
-45.62339990768865
 33
0.0
 14
161.9119338369392
 24
56.37660009231138
 34
0.0
 50
90.0
100
AcDbRotatedDimension
  0
DIMENSION
  5
103
330
1F
100
AcDbEntity
  8
1
100
AcDbDimension
  2
*D3
 10
126.290444127128
 20
72.87660009231135
 30
0.0
 11
122.540444127128
 21
5.48093885584947
 31
0.0
 70
    32
  1
<>
 71
     5
 42
-1.0
 53
90.0
  3
ME10_DIM_12
100
AcDbAlignedDimension
 13
166.6619338369392
 23
-62.12339990768865
 33
0.0
 14
166.6619338369392
 24
72.87660009231135
 34
0.0
 50
90.0
100
AcDbRotatedDimension
  0
DIMENSION
  5
10E
330
1F
100
AcDbEntity
  8
1
100
AcDbDimension
  2
*D4
 10
191.377605793731
 20
62.87660009231135
 30
0.0
 11
187.627605793731
 21
4.66059594712659
 31
0.0
 70
    32
  1
<>
 71
     5
 42
-1.0
 53
90.0
  3
ME10_DIM_13
100
AcDbAlignedDimension
 13
159.1619338369392
 23
-52.12339990768865
 33
0.0
 14
159.1619338369392
 24
62.87660009231135
 34
0.0
 50
90.0
100
AcDbRotatedDimension
  0
DIMENSION
  5
119
330
1F
100
AcDbEntity
  8
1
100
AcDbDimension
  2
*D5
 10
156.9119338369392
 20
92.7043589412298
 30
0.0
 11
162.5494479856205
 21
96.4543589412298
 31
0.0
 70
    32
  1
<>
 71
     5
 42
-1.0
 53
0.00013888888889
  3
ME10_DIM_14
100
AcDbAlignedDimension
 13
168.9119338369392
 23
75.12660009231135
 33
0.0
 14
156.9119338369392
 24
65.12660009231135
 34
0.0
100
AcDbRotatedDimension
  0
DIMENSION
  5
124
330
1F
100
AcDbEntity
  8
1
100
AcDbDimension
  2
*D6
 10
-187.3592983114339
 20
90.4656621265976
 30
0.0
 11
-180.865306270544
 21
94.2156621265976
 31
0.0
 70
    32
  1
<>
 71
     5
 42
-1.0
 53
0.00013888888889
  3
ME10_DIM_15
100
AcDbAlignedDimension
 13
-175.3592983114338
 23
65.12660009231135
 33
0.0
 14
-187.3592983114338
 24
75.12660009231135
 34
0.0
100
AcDbRotatedDimension
  0
DIMENSION
  5
12F
330
1F
100
AcDbEntity
  8
1
100
AcDbDimension
  2
*D7
 10
-120.183239933898
 20
82.87660009231135
 30
0.0
 11
-123.933239933898
 21
8.17438872937187
 31
0.0
 70
    32
  1
<>
 71
     5
 42
-1.0
 53
90.0
  3
ME10_DIM_16
100
AcDbAlignedDimension
 13
-181.3592983114338
 23
-72.12339990768865
 33
0.0
 14
-181.3592983114338
 24
82.87660009231135
 34
0.0
 50
90.0
100
AcDbRotatedDimension
  0
DIMENSION
  5
13A
330
1F
100
AcDbEntity
  8
1
100
AcDbDimension
  2
*D8
 10
-143.386767793525
 20
62.87660009231135
 30
0.0
 11
-147.136767793525
 21
-3.47667294603022
 31
0.0
 70
    32
  1
<>
 71
     5
 42
-1.0
 53
90.0
  3
ME10_DIM_17
100
AcDbAlignedDimension
 13
-173.1092983114338
 23
-52.12339990768865
 33
0.0
 14
-173.1092983114338
 24
62.87660009231135
 34
0.0
 50
90.0
100
AcDbRotatedDimension
  0
DIMENSION
  5
145
330
1F
100
AcDbEntity
  8
1
100
AcDbDimension
  2
*D9
 10
56.2871329836921
 20
-66.6979399702632
 30
0.0
 11
52.5371329836921
 21
-45.7817612691352
 31
0.0
 70
    32
  1
B
 71
     5
 42
-1.0
 53
90.0
  3
ME10_DIM_18
100
AcDbAlignedDimension
 13
47.38679367266683
 23
-26.69793997026321
 33
0.0
 14
47.38679367266684
 24
-66.6979399702632
 34
0.0
 50
90.0
100
AcDbRotatedDimension
  0
DIMENSION
  5
152
330
1F
100
AcDbEntity
  8
1
100
AcDbDimension
  2
*D10
 10
29.7663647008797
 20
-66.6979399702632
 30
0.0
 11
26.0163647008797
 21
-71.958103989833
 31
0.0
 70
    32
  1
<>
 71
     5
 42
-1.0
 53
90.0
  3
ME10_DIM_19
100
AcDbAlignedDimension
 13
38.38679367266665
 23
-62.69793997026342
 33
0.0
 14
47.38679367266684
 24
-66.6979399702632
 34
0.0
 50
90.0
100
AcDbRotatedDimension
  0
DIMENSION
  5
15F
330
1F
100
AcDbEntity
  8
1
100
AcDbDimension
  2
*D11
 10
-23.6195974268593
 20
-67.6979399702632
 30
0.0
 11
-27.3695974268593
 21
-74.9356362973208
 31
0.0
 70
    32
  1
X
 71
     5
 42
-1.0
 53
90.0
  3
ME10_DIM_20
100
AcDbAlignedDimension
 13
-34.11320632733315
 23
-62.69793997026321
 33
0.0
 14
-44.11320632733307
 24
-67.6979399702632
 34
0.0
 50
90.0
100
AcDbRotatedDimension
  0
DIMENSION
  5
16A
330
1F
100
AcDbEntity
  8
1
100
AcDbDimension
  2
*D12
 10
-47.2313070115275
 20
-67.6979399702632
 30
0.0
 11
-50.9813070115275
 21
-45.84592710905293
 31
0.0
 70
    32
  1
A
 71
     5
 42
-1.0
 53
90.0
  3
ME10_DIM_21
100
AcDbAlignedDimension
 13
0.61884448023571
 23
-26.69793997026321
 33
0.0
 14
-44.11320632733307
 24
-67.6979399702632
 34
0.0
 50
90.0
100
AcDbRotatedDimension
  0
DIMENSION
  5
175
330
1F
100
AcDbEntity
  8
1
100
AcDbDimension
  2
*D13
 10
-68.80177865188125
 20
-118.2833961103276
 30
0.0
 11
-85.53915944951406
 21
-114.5333961103276
 31
0.0
 70
    32
  1
<>
 71
     5
 42
-1.0
 53
0.00013888888889
  3
ME10_DIM_22
100
AcDbAlignedDimension
 13
-101.8017786518812
 23
-45.62339990768865
 33
0.0
 14
-68.80177865188125
 24
-72.12339990768862
 34
0.0
100
AcDbRotatedDimension
  0
DIMENSION
  5
180
330
1F
100
AcDbEntity
  8
1
100
AcDbDimension
  2
*D14
 10
-78.80177865188125
 20
-107.2653824624736
 30
0.0
 11
-73.73414482681312
 21
-103.5153824624736
 31
0.0
 70
    32
  1
<>
 71
     5
 42
-1.0
 53
0.00013888888889
  3
ME10_DIM_23
100
AcDbAlignedDimension
 13
-68.80177865188125
 23
-94.62339990768865
 33
0.0
 14
-78.80177865188125
 24
-72.12339990768865
 34
0.0
100
AcDbRotatedDimension
  0
DIMENSION
  5
18B
330
1F
100
AcDbEntity
  8
1
100
AcDbDimension
  2
*D15
 10
-159.78009619214
 20
56.37660009231135
 30
0.0
 11
-163.53009619214
 21
-4.15972829597253
 31
0.0
 70
    32
  1
<>
 71
     5
 42
-1.0
 53
90.0
  3
ME10_DIM_24
100
AcDbAlignedDimension
 13
-180.3592983114338
 23
-45.62339990768865
 33
0.0
 14
-180.3592983114338
 24
56.37660009231135
 34
0.0
 50
90.0
100
AcDbRotatedDimension
  0
DIMENSION
  5
198
330
1F
100
AcDbEntity
  8
1
100
AcDbDimension
  2
*D16
 10
67.19860034321127
 20
-103.785670014645
 30
0.0
 11
64.48750734160538
 21
-100.035670014645
 31
0.0
 70
    32
  1
<>
 71
     5
 42
-1.0
 53
0.00013888888889
  3
ME10_DIM_25
100
AcDbAlignedDimension
 13
61.19860034321127
 23
-94.62339990768866
 33
0.0
 14
67.19860034321127
 24
-72.12339990768865
 34
0.0
100
AcDbRotatedDimension
  0
DIMENSION
  5
1A3
330
1F
100
AcDbEntity
  8
1
100
AcDbDimension
  2
*D17
 10
61.19860034321133
 20
-113.493763582592
 30
0.0
 11
78.50244605557177
 21
-109.743763582592
 31
0.0
 70
    32
  1
<>
 71
     5
 42
-1.0
 53
0.00013888888889
  3
ME10_DIM_26
100
AcDbAlignedDimension
 13
98.69860034321127
 23
-45.62339990768863
 33
0.0
 14
61.19860034321127
 24
-72.12339990768865
 34
0.0
100
AcDbRotatedDimension
  0
DIMENSION
  5
1AE
330
1F
100
AcDbEntity
  8
1
100
AcDbDimension
  2
*D18
 10
-128.359550094794
 20
72.87660009231135
 30
0.0
 11
-132.109550094794
 21
-0.51676642961357
 31
0.0
 70
    32
  1
<>
 71
     5
 42
-1.0
 53
90.0
  3
ME10_DIM_27
100
AcDbAlignedDimension
 13
-185.1092983114338
 23
-62.12339990768865
 33
0.0
 14
-185.1092983114338
 24
72.87660009231135
 34
0.0
 50
90.0
100
AcDbRotatedDimension
  0
DIMENSION
  5
1BB
330
1F
100
AcDbEntity
  8
1
100
AcDbDimension
  2
*D19
 10
179.9119338369392
 20
-103.7856700146451
 30
0.0
 11
182.9169034931839
 21
-100.0356700146451
 31
0.0
 70
    32
  1
<>
 71
     5
 42
-1.0
 53
0.00013888888889
  3
ME10_DIM_28
100
AcDbAlignedDimension
 13
175.9119338369392
 23
-59.12339990768865
 33
0.0
 14
179.9119338369392
 24
-94.62339990768871
 34
0.0
100
AcDbRotatedDimension
  0
DIMENSION
  5
1C6
330
1F
100
AcDbEntity
  8
1
100
AcDbDimension
  2
*D20
 10
175.9119338369392
 20
-103.7856700146451
 30
0.0
 11
162.9119338369392
 21
-100.0356700146451
 31
0.0
 70
    32
  1
<>
 71
     5
 42
-1.0
 53
0.00013888888889
  3
ME10_DIM_29
100
AcDbAlignedDimension
 13
149.9119338369392
 23
-59.12339990768865
 33
0.0
 14
175.9119338369392
 24
-59.12339990768865
 34
0.0
100
AcDbRotatedDimension
  0
DIMENSION
  5
1D3
330
1F
100
AcDbEntity
  8
1
100
AcDbDimension
  2
*D21
 10
-199.3592983114338
 20
-108.487423372669
 30
0.0
 11
-204.109809088377
 21
-104.737423372669
 31
0.0
 70
    32
  1
X
 71
     5
 42
-1.0
 53
0.00013888888889
  3
ME10_DIM_30
100
AcDbAlignedDimension
 13
-194.3592983114338
 23
-59.12339990768865
 33
0.0
 14
-199.3592983114338
 24
-94.62339990768865
 34
0.0
100
AcDbRotatedDimension
  0
DIMENSION
  5
1DE
330
1F
100
AcDbEntity
  8
1
100
AcDbDimension
  2
*D22
 10
-194.3592983114338
 20
-108.487423372669
 30
0.0
 11
-181.3592983114338
 21
-104.737423372669
 31
0.0
 70
    32
  1
<>
 71
     5
 42
-1.0
 53
0.00013888888889
  3
ME10_DIM_31
100
AcDbAlignedDimension
 13
-168.3592983114338
 23
-59.12339990768865
 33
0.0
 14
-194.3592983114338
 24
-59.12339990768865
 34
0.0
100
AcDbRotatedDimension
  0
INSERT
  5
1E5
330
1F
100
AcDbEntity
  8
1
100
AcDbBlockReference
  2
*D23
 10
0.0
 20
0.0
 30
0.0
  0
INSERT
  5
1EC
330
1F
100
AcDbEntity
  8
1
100
AcDbBlockReference
  2
*D24
 10
0.0
 20
0.0
 30
0.0
  0
INSERT
  5
1F4
330
1F
100
AcDbEntity
  8
1
100
AcDbBlockReference
  2
*D25
 10
0.0
 20
0.0
 30
0.0
  0
INSERT
  5
1FC
330
1F
100
AcDbEntity
  8
1
100
AcDbBlockReference
  2
*D26
 10
0.0
 20
0.0
 30
0.0
  0
INSERT
  5
205
330
1F
100
AcDbEntity
  8
1
100
AcDbBlockReference
  2
*D27
 10
0.0
 20
0.0
 30
0.0
  0
ENDSEC
  0
SECTION
  2
OBJECTS
  0
DICTIONARY
  5
C
330
0
100
AcDbDictionary
281
     1
  3
ACAD_GROUP
350
D
  3
ACAD_LAYOUT
350
1A
  3
ACAD_MLINESTYLE
350
17
  3
ACAD_PLOTSETTINGS
350
19
  3
ACAD_PLOTSTYLENAME
350
E
  0
DICTIONARY
  5
D
102
{ACAD_REACTORS
330
C
102
}
330
C
100
AcDbDictionary
281
     1
  0
DICTIONARY
  5
1A
102
{ACAD_REACTORS
330
C
102
}
330
C
100
AcDbDictionary
281
     1
  3
Layout1
350
1E
  3
Layout2
350
26
  3
Model
350
22
  0
DICTIONARY
  5
17
102
{ACAD_REACTORS
330
C
102
}
330
C
100
AcDbDictionary
281
     1
  3
Standard
350
18
  0
DICTIONARY
  5
19
102
{ACAD_REACTORS
330
C
102
}
330
C
100
AcDbDictionary
281
     1
  0
ACDBDICTIONARYWDFLT
  5
E
102
{ACAD_REACTORS
330
C
102
}
330
C
100
AcDbDictionary
281
     1
  3
Normal
350
F
100
AcDbDictionaryWithDefault
340
F
  0
LAYOUT
  5
1E
102
{ACAD_REACTORS
330
1A
102
}
330
1A
100
AcDbPlotSettings
  1

  2

  4

  6

 40
0.0
 41
0.0
 42
0.0
 43
0.0
 44
0.0
 45
0.0
 46
0.0
 47
0.0
 48
0.0
 49
0.0
140
0.0
141
0.0
142
1.0
143
1.0
 70
   688
 72
     0
 73
     0
 74
     5
  7

 75
    16
 76
     0
 77
     2
 78
   300
147
1.0
148
0.0
149
0.0
100
AcDbLayout
  1
Layout1
 70
     1
 71
     1
 10
0.0
 20
0.0
 11
0.0
 21
0.0
 12
0.0
 22
0.0
 32
0.0
 14
0.0
 24
0.0
 34
0.0
 15
0.0
 25
0.0
 35
0.0
146
0.0
 13
0.0
 23
0.0
 33
0.0
 16
1.0
 26
0.0
 36
0.0
 17
0.0
 27
1.0
 37
0.0
 76
     0
330
1B
  0
LAYOUT
  5
26
102
{ACAD_REACTORS
330
1A
102
}
330
1A
100
AcDbPlotSettings
  1

  2

  4

  6

 40
0.0
 41
0.0
 42
0.0
 43
0.0
 44
0.0
 45
0.0
 46
0.0
 47
0.0
 48
0.0
 49
0.0
140
0.0
141
0.0
142
1.0
143
1.0
 70
   688
 72
     0
 73
     0
 74
     5
  7

 75
    16
 76
     0
 77
     2
 78
   300
147
1.0
148
0.0
149
0.0
100
AcDbLayout
  1
Layout2
 70
     1
 71
     2
 10
0.0
 20
0.0
 11
0.0
 21
0.0
 12
0.0
 22
0.0
 32
0.0
 14
0.0
 24
0.0
 34
0.0
 15
0.0
 25
0.0
 35
0.0
146
0.0
 13
0.0
 23
0.0
 33
0.0
 16
1.0
 26
0.0
 36
0.0
 17
0.0
 27
1.0
 37
0.0
 76
     0
330
23
  0
LAYOUT
  5
22
102
{ACAD_REACTORS
330
1A
102
}
330
1A
100
AcDbPlotSettings
  1

  2

  4

  6

 40
0.0
 41
0.0
 42
0.0
 43
0.0
 44
0.0
 45
0.0
 46
0.0
 47
0.0
 48
0.0
 49
0.0
140
0.0
141
0.0
142
1.0
143
1.0
 70
  1712
 72
     0
 73
     0
 74
     0
  7

 75
     0
 76
     0
 77
     2
 78
   300
147
1.0
148
0.0
149
0.0
100
AcDbLayout
  1
Model
 70
     1
 71
     0
 10
0.0
 20
0.0
 11
0.0
 21
0.0
 12
0.0
 22
0.0
 32
0.0
 14
-206.3592983114338
 24
-124.2555123094665
 34
0.0
 15
193.377605793731
 25
109.761881720986
 35
0.0
146
0.0
 13
0.0
 23
0.0
 33
0.0
 16
1.0
 26
0.0
 36
0.0
 17
0.0
 27
1.0
 37
0.0
 76
     0
330
1F
  0
MLINESTYLE
  5
18
102
{ACAD_REACTORS
330
17
102
}
330
17
100
AcDbMlineStyle
  2
Standard
 70
     0
  3

 62
   256
 51
90.0
 52
90.0
 71
     2
 49
0.5
 62
   256
  6
BYLAYER
 49
-0.5
 62
   256
  6
BYLAYER
  0
ACDBPLACEHOLDER
  5
F
102
{ACAD_REACTORS
330
E
102
}
330
E
  0
ENDSEC
  0
EOF
