  0
SECTION
  2
HEADER
  9
$ACADVER
  1
AC1018
  9
$ACADMAINTVER
 70
     0
  9
$DWGCODEPAGE
  3
ANSI_1252
  9
$INSBASE
 10
0.0
 20
0.0
 30
0.0
  9
$EXTMIN
 10
122.80282934636
 20
84.1979481973223
 30
0.0
  9
$EXTMAX
 10
231.428932328493
 20
286.1769915748802
 30
0.0
  9
$LIMMIN
 10
0.0
 20
0.0
  9
$LIMMAX
 10
12.0
 20
9.0
  9
$ORTHOMODE
 70
     0
  9
$REGENMODE
 70
     1
  9
$FILLMODE
 70
     1
  9
$QTEXTMODE
 70
     0
  9
$MIRRTEXT
 70
     1
  9
$LTSCALE
 40
1.0
  9
$ATTMODE
 70
     1
  9
$TEXTSIZE
 40
0.2
  9
$TRACEWID
 40
0.05
  9
$TEXTSTYLE
  7
Standard
  9
$CLAYER
  8
0
  9
$CELTYPE
  6
ByLayer
  9
$CECOLOR
 62
   256
  9
$CELTSCALE
 40
1.0
  9
$DISPSILH
 70
     0
  9
$DIMSCALE
 40
1.0
  9
$DIMASZ
 40
0.18
  9
$DIMEXO
 40
0.0625
  9
$DIMDLI
 40
0.38
  9
$DIMRND
 40
0.0
  9
$DIMDLE
 40
0.0
  9
$DIMEXE
 40
0.18
  9
$DIMTP
 40
0.0
  9
$DIMTM
 40
0.0
  9
$DIMTXT
 40
0.18
  9
$DIMCEN
 40
0.09
  9
$DIMTSZ
 40
0.0
  9
$DIMTOL
 70
     0
  9
$DIMLIM
 70
     0
  9
$DIMTIH
 70
     1
  9
$DIMTOH
 70
     1
  9
$DIMSE1
 70
     0
  9
$DIMSE2
 70
     0
  9
$DIMTAD
 70
     0
  9
$DIMZIN
 70
     0
  9
$DIMBLK
  1

  9
$DIMASO
 70
     1
  9
$DIMSHO
 70
     1
  9
$DIMPOST
  1

  9
$DIMAPOST
  1

  9
$DIMALT
 70
     0
  9
$DIMALTD
 70
     2
  9
$DIMALTF
 40
25.4
  9
$DIMLFAC
 40
1.0
  9
$DIMTOFL
 70
     0
  9
$DIMTVP
 40
0.0
  9
$DIMTIX
 70
     0
  9
$DIMSOXD
 70
     0
  9
$DIMSAH
 70
     0
  9
$DIMBLK1
  1

  9
$DIMBLK2
  1

  9
$DIMSTYLE
  2
Standard
  9
$DIMCLRD
 70
     0
  9
$DIMCLRE
 70
     0
  9
$DIMCLRT
 70
     0
  9
$DIMTFAC
 40
1.0
  9
$DIMGAP
 40
0.09
  9
$DIMJUST
 70
     0
  9
$DIMSD1
 70
     0
  9
$DIMSD2
 70
     0
  9
$DIMTOLJ
 70
     1
  9
$DIMTZIN
 70
     0
  9
$DIMALTZ
 70
     0
  9
$DIMALTTZ
 70
     0
  9
$DIMUPT
 70
     0
  9
$DIMDEC
 70
     4
  9
$DIMTDEC
 70
     4
  9
$DIMALTU
 70
     2
  9
$DIMALTTD
 70
     2
  9
$DIMTXSTY
  7
Standard
  9
$DIMAUNIT
 70
     0
  9
$DIMADEC
 70
     0
  9
$DIMALTRND
 40
0.0
  9
$DIMAZIN
 70
     0
  9
$DIMDSEP
 70
    46
  9
$DIMATFIT
 70
     3
  9
$DIMFRAC
 70
     0
  9
$DIMLDRBLK
  1

  9
$DIMLUNIT
 70
     2
  9
$DIMLWD
 70
    -2
  9
$DIMLWE
 70
    -2
  9
$DIMTMOVE
 70
     0
  9
$LUNITS
 70
     2
  9
$LUPREC
 70
     4
  9
$SKETCHINC
 40
0.1
  9
$FILLETRAD
 40
0.5
  9
$AUNITS
 70
     0
  9
$AUPREC
 70
     0
  9
$MENU
  1
.
  9
$ELEVATION
 40
0.0
  9
$PELEVATION
 40
0.0
  9
$THICKNESS
 40
0.0
  9
$LIMCHECK
 70
     0
  9
$CHAMFERA
 40
0.5
  9
$CHAMFERB
 40
0.5
  9
$CHAMFERC
 40
1.0
  9
$CHAMFERD
 40
0.0
  9
$SKPOLY
 70
     0
  9
$TDCREATE
 40
2457004.426112338
  9
$TDUCREATE
 40
2457004.384445671
  9
$TDUPDATE
 40
2457004.42611235
  9
$TDUUPDATE
 40
2457004.384445683
  9
$TDINDWG
 40
0.0000000116
  9
$TDUSRTIMER
 40
0.0000000116
  9
$USRTIMER
 70
     1
  9
$ANGBASE
 50
0.0
  9
$ANGDIR
 70
     0
  9
$PDMODE
 70
     0
  9
$PDSIZE
 40
0.0
  9
$PLINEWID
 40
0.0
  9
$SPLFRAME
 70
     0
  9
$SPLINETYPE
 70
     6
  9
$SPLINESEGS
 70
     8
  9
$HANDSEED
  5
209
  9
$SURFTAB1
 70
     6
  9
$SURFTAB2
 70
     6
  9
$SURFTYPE
 70
     6
  9
$SURFU
 70
     6
  9
$SURFV
 70
     6
  9
$UCSBASE
  2

  9
$UCSNAME
  2

  9
$UCSORG
 10
0.0
 20
0.0
 30
0.0
  9
$UCSXDIR
 10
1.0
 20
0.0
 30
0.0
  9
$UCSYDIR
 10
0.0
 20
1.0
 30
0.0
  9
$UCSORTHOREF
  2

  9
$UCSORTHOVIEW
 70
     0
  9
$UCSORGTOP
 10
0.0
 20
0.0
 30
0.0
  9
$UCSORGBOTTOM
 10
0.0
 20
0.0
 30
0.0
  9
$UCSORGLEFT
 10
0.0
 20
0.0
 30
0.0
  9
$UCSORGRIGHT
 10
0.0
 20
0.0
 30
0.0
  9
$UCSORGFRONT
 10
0.0
 20
0.0
 30
0.0
  9
$UCSORGBACK
 10
0.0
 20
0.0
 30
0.0
  9
$PUCSBASE
  2

  9
$PUCSNAME
  2

  9
$PUCSORG
 10
0.0
 20
0.0
 30
0.0
  9
$PUCSXDIR
 10
1.0
 20
0.0
 30
0.0
  9
$PUCSYDIR
 10
0.0
 20
1.0
 30
0.0
  9
$PUCSORTHOREF
  2

  9
$PUCSORTHOVIEW
 70
     0
  9
$PUCSORGTOP
 10
0.0
 20
0.0
 30
0.0
  9
$PUCSORGBOTTOM
 10
0.0
 20
0.0
 30
0.0
  9
$PUCSORGLEFT
 10
0.0
 20
0.0
 30
0.0
  9
$PUCSORGRIGHT
 10
0.0
 20
0.0
 30
0.0
  9
$PUCSORGFRONT
 10
0.0
 20
0.0
 30
0.0
  9
$PUCSORGBACK
 10
0.0
 20
0.0
 30
0.0
  9
$USERI1
 70
     0
  9
$USERI2
 70
     0
  9
$USERI3
 70
     0
  9
$USERI4
 70
     0
  9
$USERI5
 70
     0
  9
$USERR1
 40
14.5
  9
$USERR2
 40
0.0
  9
$USERR3
 40
0.0
  9
$USERR4
 40
0.0
  9
$USERR5
 40
0.0
  9
$WORLDVIEW
 70
     1
  9
$SHADEDGE
 70
     3
  9
$SHADEDIF
 70
    70
  9
$TILEMODE
 70
     1
  9
$MAXACTVP
 70
    64
  9
$PINSBASE
 10
0.0
 20
0.0
 30
0.0
  9
$PLIMCHECK
 70
     0
  9
$PEXTMIN
 10
1.00000000000000E+20
 20
1.00000000000000E+20
 30
1.00000000000000E+20
  9
$PEXTMAX
 10
-1.00000000000000E+20
 20
-1.00000000000000E+20
 30
-1.00000000000000E+20
  9
$PLIMMIN
 10
0.0
 20
0.0
  9
$PLIMMAX
 10
12.0
 20
9.0
  9
$UNITMODE
 70
     0
  9
$VISRETAIN
 70
     1
  9
$PLINEGEN
 70
     0
  9
$PSLTSCALE
 70
     1
  9
$TREEDEPTH
 70
  3020
  9
$CMLSTYLE
  2
Standard
  9
$CMLJUST
 70
     0
  9
$CMLSCALE
 40
1.0
  9
$PROXYGRAPHICS
 70
     1
  9
$MEASUREMENT
 70
     1
  9
$CELWEIGHT
370
    -1
  9
$ENDCAPS
280
     0
  9
$JOINSTYLE
280
     0
  9
$LWDISPLAY
290
     0
  9
$INSUNITS
 70
     1
  9
$HYPERLINKBASE
  1

  9
$STYLESHEET
  1

  9
$XEDIT
290
     1
  9
$CEPSNTYPE
380
     0
  9
$PSTYLEMODE
290
     1
  9
$FINGERPRINTGUID
  2
{954EAEF9-B233-4993-B41F-CEBA9598E99C}
  9
$VERSIONGUID
  2
{FAEB1C32-E019-11D5-929B-00C0DF256EC4}
  9
$EXTNAMES
290
     1
  9
$PSVPSCALE
 40
0.0
  9
$OLESTARTUP
290
     0
  9
$SORTENTS
280
   127
  9
$INDEXCTL
280
     0
  9
$HIDETEXT
280
     1
  9
$XCLIPFRAME
290
     0
  9
$HALOGAP
280
     0
  9
$OBSCOLOR
 70
   257
  9
$OBSLTYPE
280
     0
  9
$INTERSECTIONDISPLAY
280
     0
  9
$INTERSECTIONCOLOR
 70
   257
  9
$DIMASSOC
280
     2
  9
$PROJECTNAME
  1

  0
ENDSEC
  0
SECTION
  2
CLASSES
  0
CLASS
  1
ACDBDICTIONARYWDFLT
  2
AcDbDictionaryWithDefault
  3
ObjectDBX Classes
 90
        0
 91
        3
280
     0
281
     0
  0
CLASS
  1

  2
exOdDbCircle
  3

 90
        0
 91
        3
280
     0
281
     1
  0
ENDSEC
  0
SECTION
  2
TABLES
  0
TABLE
  2
VPORT
  5
8
330
0
100
AcDbSymbolTable
 70
     1
  0
VPORT
  5
29
330
8
100
AcDbSymbolTableRecord
100
AcDbViewportTableRecord
  2
*Active
 70
     0
 10
0.0
 20
0.0
 11
1.0
 21
1.0
 12
177.1158808374265
 22
185.1874698861013
 13
0.0
 23
0.0
 14
0.5
 24
0.5
 15
0.5
 25
0.5
 16
0.0
 26
0.0
 36
1.0
 17
0.0
 27
0.0
 37
0.0
 40
222.1769477153137
 41
1.60267857142857
 42
50.0
 43
0.0
 44
0.0
 50
0.0
 51
0.0
 71
     0
 72
   100
 73
     1
 74
     3
 75
     0
 76
     0
 77
     0
 78
     0
281
     0
 65
     1
110
0.0
120
0.0
130
0.0
111
1.0
121
0.0
131
0.0
112
0.0
122
1.0
132
0.0
 79
     0
146
0.0
  0
ENDTAB
  0
TABLE
  2
LTYPE
  5
5
330
0
100
AcDbSymbolTable
 70
     9
  0
LTYPE
  5
14
330
5
100
AcDbSymbolTableRecord
100
AcDbLinetypeTableRecord
  2
ByBlock
 70
     0
  3

 72
    65
 73
     0
 40
0.0
  0
LTYPE
  5
15
330
5
100
AcDbSymbolTableRecord
100
AcDbLinetypeTableRecord
  2
ByLayer
 70
     0
  3

 72
    65
 73
     0
 40
0.0
  0
LTYPE
  5
16
330
5
100
AcDbSymbolTableRecord
100
AcDbLinetypeTableRecord
  2
Continuous
 70
     0
  3
Solid line
 72
    65
 73
     0
 40
0.0
  0
LTYPE
  5
2A
330
5
100
AcDbSymbolTableRecord
100
AcDbLinetypeTableRecord
  2
DASHED
 70
     0
  3
Dashed
 72
    65
 73
     2
 40
15.0
 49
7.0
 74
     0
 49
-8.0
 74
     0
  0
LTYPE
  5
2B
330
5
100
AcDbSymbolTableRecord
100
AcDbLinetypeTableRecord
  2
DOTTED
 70
     0
  3
Dotted
 72
    65
 73
     2
 40
1.0
 49
0.0
 74
     0
 49
-1.0
 74
     0
  0
LTYPE
  5
2C
330
5
100
AcDbSymbolTableRecord
100
AcDbLinetypeTableRecord
  2
DOT_CENTER
 70
     0
  3
Dot_Center
 72
    65
 73
     4
 40
14.0
 49
12.0
 74
     0
 49
-1.0
 74
     0
 49
0.0
 74
     0
 49
-1.0
 74
     0
  0
LTYPE
  5
2D
330
5
100
AcDbSymbolTableRecord
100
AcDbLinetypeTableRecord
  2
LONG_DASHED
 70
     0
  3
Long_Dashed
 72
    65
 73
     2
 40
15.0
 49
10.0
 74
     0
 49
-5.0
 74
     0
  0
LTYPE
  5
2E
330
5
100
AcDbSymbolTableRecord
100
AcDbLinetypeTableRecord
  2
DASH_CENTER
 70
     0
  3
Dash_Center
 72
    65
 73
     4
 40
14.0
 49
11.0
 74
     0
 49
-1.0
 74
     0
 49
1.0
 74
     0
 49
-1.0
 74
     0
  0
LTYPE
  5
2F
330
5
100
AcDbSymbolTableRecord
100
AcDbLinetypeTableRecord
  2
PHANTOM
 70
     0
  3
Phantom
 72
    65
 73
     6
 40
13.0
 49
10.0
 74
     0
 49
-1.0
 74
     0
 49
0.0
 74
     0
 49
-1.0
 74
     0
 49
0.0
 74
     0
 49
-1.0
 74
     0
  0
LTYPE
  5
30
330
5
100
AcDbSymbolTableRecord
100
AcDbLinetypeTableRecord
  2
CENTER_DASH_DASH
 70
     0
  3
Center_Dash_Dash
 72
    65
 73
     6
 40
14.0
 49
9.0
 74
     0
 49
-1.0
 74
     0
 49
1.0
 74
     0
 49
-1.0
 74
     0
 49
1.0
 74
     0
 49
-1.0
 74
     0
  0
LTYPE
  5
31
330
5
100
AcDbSymbolTableRecord
100
AcDbLinetypeTableRecord
  2
CENTER
 70
     0
  3
CENTER
 72
    65
 73
     4
 40
15.0
 49
9.0
 74
     0
 49
-2.0
 74
     0
 49
2.0
 74
     0
 49
-2.0
 74
     0
  0
ENDTAB
  0
TABLE
  2
LAYER
  5
2
330
0
100
AcDbSymbolTable
 70
     8
  0
LAYER
  5
10
330
2
100
AcDbSymbolTableRecord
100
AcDbLayerTableRecord
  2
0
 70
     0
 62
     7
  6
Continuous
370
    -3
390
F
  0
LAYER
  5
32
330
2
100
AcDbSymbolTableRecord
100
AcDbLayerTableRecord
  2
1
 70
     0
 62
     7
  6
Continuous
370
    -3
390
F
  0
LAYER
  5
33
330
2
100
AcDbSymbolTableRecord
100
AcDbLayerTableRecord
  2
ABDECKPLATTEN
 70
     0
 62
     7
  6
Continuous
370
    -3
390
F
  0
LAYER
  5
34
330
2
100
AcDbSymbolTableRecord
100
AcDbLayerTableRecord
  2
A_ACHSEN
 70
     0
 62
     7
  6
Continuous
370
    -3
390
F
  0
LAYER
  5
35
330
2
100
AcDbSymbolTableRecord
100
AcDbLayerTableRecord
  2
A_FASEN
 70
     0
 62
     7
  6
Continuous
370
    -3
390
F
  0
LAYER
  5
36
330
2
100
AcDbSymbolTableRecord
100
AcDbLayerTableRecord
  2
A_RUNDUNGEN
 70
     0
 62
     7
  6
Continuous
370
    -3
390
F
  0
LAYER
  5
37
330
2
100
AcDbSymbolTableRecord
100
AcDbLayerTableRecord
  2
DEFAULT_1
 70
     0
 62
     7
  6
Continuous
370
    -3
390
F
  0
LAYER
  5
38
330
2
100
AcDbSymbolTableRecord
100
AcDbLayerTableRecord
  2
ZUBEHOER
 70
     0
 62
     7
  6
Continuous
370
    -3
390
F
  0
ENDTAB
  0
TABLE
  2
STYLE
  5
3
330
0
100
AcDbSymbolTable
 70
     2
  0
STYLE
  5
11
330
3
100
AcDbSymbolTableRecord
100
AcDbTextStyleTableRecord
  2
Standard
 70
     0
 40
0.0
 41
1.0
 50
0.0
 71
     0
 42
0.2
  3
txt
  4

  0
STYLE
  5
1C5
330
3
100
AcDbSymbolTableRecord
100
AcDbTextStyleTableRecord
  2
CONVERTER_11
 70
     0
 40
0.0
 41
0.9
 50
0.0
 71
     0
 42
0.2
  3
txt.shx
  4

  0
ENDTAB
  0
TABLE
  2
VIEW
  5
6
330
0
100
AcDbSymbolTable
 70
     0
  0
ENDTAB
  0
TABLE
  2
UCS
  5
7
330
0
100
AcDbSymbolTable
 70
     0
  0
ENDTAB
  0
TABLE
  2
APPID
  5
9
330
0
100
AcDbSymbolTable
 70
     1
  0
APPID
  5
12
330
9
100
AcDbSymbolTableRecord
100
AcDbRegAppTableRecord
  2
ACAD
 70
     0
  0
ENDTAB
  0
TABLE
  2
DIMSTYLE
  5
A
330
0
100
AcDbSymbolTable
 70
     7
100
AcDbDimStyleTable
  0
DIMSTYLE
105
27
330
A
100
AcDbSymbolTableRecord
100
AcDbDimStyleTableRecord
  2
Standard
 70
     0
340
11
  0
DIMSTYLE
105
1D0
102
{ACAD_REACTORS
330
1D1
102
}
330
A
100
AcDbSymbolTableRecord
100
AcDbDimStyleTableRecord
  2
ME10_DIM_10
 70
     0
 41
3.5
 42
0.0
 44
2.0
 73
     0
 74
     0
 77
     1
 78
     8
140
3.5
147
2.0
172
     1
173
     1
176
     2
177
     2
178
     2
271
     3
340
1C5
  0
DIMSTYLE
105
1DB
102
{ACAD_REACTORS
330
1DC
102
}
330
A
100
AcDbSymbolTableRecord
100
AcDbDimStyleTableRecord
  2
ME10_DIM_11
 70
     0
 41
3.5
 42
0.0
 44
2.0
 73
     0
 74
     0
 77
     1
 78
     1
140
3.5
147
2.0
172
     1
173
     1
176
     2
177
     2
178
     2
271
     1
340
1C5
  0
DIMSTYLE
105
1E6
102
{ACAD_REACTORS
330
1E7
102
}
330
A
100
AcDbSymbolTableRecord
100
AcDbDimStyleTableRecord
  2
ME10_DIM_12
 70
     0
 41
3.5
 42
0.0
 44
2.0
 73
     0
 74
     0
 77
     1
 78
     8
140
3.5
147
2.0
172
     1
173
     1
176
     2
177
     2
178
     2
271
     1
340
1C5
  0
DIMSTYLE
105
1F1
102
{ACAD_REACTORS
330
1F2
102
}
330
A
100
AcDbSymbolTableRecord
100
AcDbDimStyleTableRecord
  2
ME10_DIM_13
 70
     0
 41
3.5
 42
0.0
 44
2.0
 73
     0
 74
     0
 77
     1
 78
     8
140
3.5
147
2.0
172
     1
173
     1
176
     2
177
     2
178
     2
271
     1
340
1C5
  0
DIMSTYLE
105
1FC
102
{ACAD_REACTORS
330
1FD
102
}
330
A
100
AcDbSymbolTableRecord
100
AcDbDimStyleTableRecord
  2
ME10_DIM_14
 70
     0
 41
3.5
 42
0.0
 44
2.0
 73
     0
 74
     0
 77
     1
 78
     8
140
3.5
147
2.0
172
     1
173
     1
176
     2
177
     2
178
     2
271
     3
340
1C5
  0
DIMSTYLE
105
207
102
{ACAD_REACTORS
330
208
102
}
330
A
100
AcDbSymbolTableRecord
100
AcDbDimStyleTableRecord
  2
ME10_DIM_15
 70
     0
 41
3.5
 42
0.0
 44
2.0
 73
     0
 74
     0
 77
     1
 78
     8
140
3.5
147
2.0
172
     1
173
     1
176
     2
177
     2
178
     2
271
     3
340
1C5
  0
ENDTAB
  0
TABLE
  2
BLOCK_RECORD
  5
1
330
0
100
AcDbSymbolTable
 70
     7
  0
BLOCK_RECORD
  5
1F
330
1
100
AcDbSymbolTableRecord
100
AcDbBlockTableRecord
  2
*Model_Space
340
22
  0
BLOCK_RECORD
  5
1B
330
1
100
AcDbSymbolTableRecord
100
AcDbBlockTableRecord
  2
*Paper_Space
340
1E
  0
BLOCK_RECORD
  5
23
330
1
100
AcDbSymbolTableRecord
100
AcDbBlockTableRecord
  2
*Paper_Space0
340
26
  0
BLOCK_RECORD
  5
1C7
330
1
100
AcDbSymbolTableRecord
100
AcDbBlockTableRecord
  2
*D1
340
0
  0
BLOCK_RECORD
  5
1D2
330
1
100
AcDbSymbolTableRecord
100
AcDbBlockTableRecord
  2
*D2
340
0
  0
BLOCK_RECORD
  5
1DD
330
1
100
AcDbSymbolTableRecord
100
AcDbBlockTableRecord
  2
*D3
340
0
  0
BLOCK_RECORD
  5
1E8
330
1
100
AcDbSymbolTableRecord
100
AcDbBlockTableRecord
  2
*D4
340
0
  0
BLOCK_RECORD
  5
1F3
330
1
100
AcDbSymbolTableRecord
100
AcDbBlockTableRecord
  2
*D5
340
0
  0
BLOCK_RECORD
  5
1FE
330
1
100
AcDbSymbolTableRecord
100
AcDbBlockTableRecord
  2
*D6
340
0
  0
ENDTAB
  0
ENDSEC
  0
SECTION
  2
BLOCKS
  0
BLOCK
  5
20
330
1F
100
AcDbEntity
  8
0
100
AcDbBlockBegin
  2
*Model_Space
 70
     0
 71
     0
 10
0.0
 20
0.0
 30
0.0
  3
*Model_Space
  1

  0
ENDBLK
  5
21
330
1F
100
AcDbEntity
  8
0
100
AcDbBlockEnd
  0
BLOCK
  5
1C
330
1B
100
AcDbEntity
 67
     1
  8
0
100
AcDbBlockBegin
  2
*Paper_Space
 70
     0
 71
     0
 10
0.0
 20
0.0
 30
0.0
  3
*Paper_Space
  1

  0
ENDBLK
  5
1D
330
1B
100
AcDbEntity
 67
     1
  8
0
100
AcDbBlockEnd
  0
BLOCK
  5
24
330
23
100
AcDbEntity
  8
0
100
AcDbBlockBegin
  2
*Paper_Space0
 70
     0
 71
     0
 10
0.0
 20
0.0
 30
0.0
  3
*Paper_Space0
  1

  0
ENDBLK
  5
25
330
23
100
AcDbEntity
  8
0
100
AcDbBlockEnd
  0
BLOCK
  5
1CE
330
1C7
100
AcDbEntity
  8
0
100
AcDbBlockBegin
  2
*D1
 70
     1
 71
     0
 10
0.0
 20
0.0
 30
0.0
  3
*D1
  1

  0
LINE
  5
1C8
330
1C7
100
AcDbEntity
  8
1
  6
Continuous
 62
     2
100
AcDbLine
 10
148.00445888295
 20
96.1015436800156
 30
0.0
 11
167.80445888235
 21
96.1015436800156
 31
0.0
  0
LINE
  5
1C9
330
1C7
100
AcDbEntity
  8
1
  6
Continuous
 62
     2
100
AcDbLine
 10
148.00445888295
 20
121.07725217505
 30
0.0
 11
148.00445888295
 21
94.1015436800156
 31
0.0
  0
LINE
  5
1CA
330
1C7
100
AcDbEntity
  8
1
  6
Continuous
 62
     2
100
AcDbLine
 10
167.80445888235
 20
121.07716323315
 30
0.0
 11
167.80445888235
 21
94.1015436800156
 31
0.0
  0
SOLID
  5
1CB
330
1C7
100
AcDbEntity
  8
1
 62
     2
100
AcDbTrace
 10
151.50445888295
 20
96.56232742157148
 30
0.0
 11
151.50445888295
 21
95.64075993845971
 31
0.0
 12
148.00445888295
 22
96.1015436800156
 32
0.0
 13
148.00445888295
 23
96.1015436800156
 33
0.0
  0
SOLID
  5
1CC
330
1C7
100
AcDbEntity
  8
1
 62
     2
100
AcDbTrace
 10
164.30445888235
 20
95.64075993845971
 30
0.0
 11
164.30445888235
 21
96.56232742157148
 31
0.0
 12
167.80445888235
 22
96.1015436800156
 32
0.0
 13
167.80445888235
 23
96.1015436800156
 33
0.0
  0
MTEXT
  5
1CD
330
1C7
100
AcDbEntity
  8
1
 62
     2
100
AcDbMText
 10
155.28008866355
 20
98.1015436800156
 30
0.0
 40
3.5
 41
0.0
 71
     7
 72
     1
  1
20
  7
CONVERTER_11
 11
0.9999999999970621
 21
2.424068405545307E-6
 31
0.0
 73
     1
 44
0.60024009603842
  0
ENDBLK
  5
1CF
330
1C7
100
AcDbEntity
  8
0
100
AcDbBlockEnd
  0
BLOCK
  5
1D9
330
1D2
100
AcDbEntity
  8
0
100
AcDbBlockBegin
  2
*D2
 70
     1
 71
     0
 10
0.0
 20
0.0
 30
0.0
  3
*D2
  1

  0
LINE
  5
1D3
330
1D2
100
AcDbEntity
  8
1
  6
Continuous
 62
     2
100
AcDbLine
 10
148.00445888295
 20
86.1979481973223
 30
0.0
 11
176.50469613365
 21
86.1979481973223
 31
0.0
  0
LINE
  5
1D4
330
1D2
100
AcDbEntity
  8
1
  6
Continuous
 62
     2
100
AcDbLine
 10
148.00445888295
 20
121.07725217505
 30
0.0
 11
148.00445888295
 21
84.1979481973223
 31
0.0
  0
LINE
  5
1D5
330
1D2
100
AcDbEntity
  8
1
  6
Continuous
 62
     2
100
AcDbLine
 10
176.50469613365
 20
154.54462114945
 30
0.0
 11
176.50469613365
 21
84.1979481973223
 31
0.0
  0
SOLID
  5
1D6
330
1D2
100
AcDbEntity
  8
1
 62
     2
100
AcDbTrace
 10
151.50445888295
 20
86.65873193887819
 30
0.0
 11
151.50445888295
 21
85.73716445576642
 31
0.0
 12
148.00445888295
 22
86.1979481973223
 32
0.0
 13
148.00445888295
 23
86.1979481973223
 33
0.0
  0
SOLID
  5
1D7
330
1D2
100
AcDbEntity
  8
1
 62
     2
100
AcDbTrace
 10
173.00469613365
 20
85.73716445576642
 30
0.0
 11
173.00469613365
 21
86.65873193887819
 31
0.0
 12
176.50469613365
 22
86.1979481973223
 32
0.0
 13
176.50469613365
 23
86.1979481973223
 33
0.0
  0
MTEXT
  5
1D8
330
1D2
100
AcDbEntity
  8
1
 62
     2
100
AcDbMText
 10
157.218705523418
 20
88.1979481973223
 30
0.0
 40
3.5
 41
0.0
 71
     7
 72
     1
  1
28.5
  7
CONVERTER_11
 11
0.9999999999970621
 21
2.424068405545307E-6
 31
0.0
 73
     1
 44
0.60024009603842
  0
ENDBLK
  5
1DA
330
1D2
100
AcDbEntity
  8
0
100
AcDbBlockEnd
  0
BLOCK
  5
1E4
330
1DD
100
AcDbEntity
  8
0
100
AcDbBlockBegin
  2
*D3
 70
     1
 71
     0
 10
0.0
 20
0.0
 30
0.0
  3
*D3
  1

  0
LINE
  5
1DE
330
1DD
100
AcDbEntity
  8
1
  6
Continuous
 62
     2
100
AcDbLine
 10
176.50469613365
 20
86.1979481973223
 30
0.0
 11
193.06820598835
 21
86.1979481973223
 31
0.0
  0
LINE
  5
1DF
330
1DD
100
AcDbEntity
  8
1
  6
Continuous
 62
     2
100
AcDbLine
 10
176.50469613365
 20
154.54462114945
 30
0.0
 11
176.50469613365
 21
84.1979481973223
 31
0.0
  0
LINE
  5
1E0
330
1DD
100
AcDbEntity
  8
1
  6
Continuous
 62
     2
100
AcDbLine
 10
193.06820598835
 20
146.82704974815
 30
0.0
 11
193.06820598835
 21
84.1979481973223
 31
0.0
  0
SOLID
  5
1E1
330
1DD
100
AcDbEntity
  8
1
 62
     2
100
AcDbTrace
 10
180.00469613365
 20
86.65873193887819
 30
0.0
 11
180.00469613365
 21
85.73716445576642
 31
0.0
 12
176.50469613365
 22
86.1979481973223
 32
0.0
 13
176.50469613365
 23
86.1979481973223
 33
0.0
  0
SOLID
  5
1E2
330
1DD
100
AcDbEntity
  8
1
 62
     2
100
AcDbTrace
 10
189.56820598835
 20
85.73716445576642
 30
0.0
 11
189.56820598835
 21
86.65873193887819
 31
0.0
 12
193.06820598835
 22
86.1979481973223
 32
0.0
 13
193.06820598835
 23
86.1979481973223
 33
0.0
  0
MTEXT
  5
1E3
330
1DD
100
AcDbEntity
  8
1
 62
     2
100
AcDbMText
 10
180.666646892136
 20
88.1979481973223
 30
0.0
 40
3.5
 41
0.0
 71
     7
 72
     1
  1
16.6
  7
CONVERTER_11
 11
0.9999999999970621
 21
2.424068405545307E-6
 31
0.0
 73
     1
 44
0.60024009603842
  0
ENDBLK
  5
1E5
330
1DD
100
AcDbEntity
  8
0
100
AcDbBlockEnd
  0
BLOCK
  5
1EF
330
1E8
100
AcDbEntity
  8
0
100
AcDbBlockBegin
  2
*D4
 70
     1
 71
     0
 10
0.0
 20
0.0
 30
0.0
  3
*D4
  1

  0
LINE
  5
1E9
330
1E8
100
AcDbEntity
  8
1
  6
Continuous
 62
     2
100
AcDbLine
 10
193.0680502354517
 20
86.1979481973223
 30
0.0
 11
218.918059814052
 21
86.1979481973223
 31
0.0
  0
LINE
  5
1EA
330
1E8
100
AcDbEntity
  8
1
  6
Continuous
 62
     2
100
AcDbLine
 10
193.0680502354517
 20
109.1770497485486
 30
0.0
 11
193.0680502354517
 21
84.1979481973223
 31
0.0
  0
LINE
  5
1EB
330
1E8
100
AcDbEntity
  8
1
  6
Continuous
 62
     2
100
AcDbLine
 10
218.918059814052
 20
109.0769336298472
 30
0.0
 11
218.918059814052
 21
84.1979481973223
 31
0.0
  0
SOLID
  5
1EC
330
1E8
100
AcDbEntity
  8
1
 62
     2
100
AcDbTrace
 10
196.5680502354517
 20
86.65873193887819
 30
0.0
 11
196.5680502354517
 21
85.73716445576642
 31
0.0
 12
193.0680502354517
 22
86.1979481973223
 32
0.0
 13
193.0680502354517
 23
86.1979481973223
 33
0.0
  0
SOLID
  5
1ED
330
1E8
100
AcDbEntity
  8
1
 62
     2
100
AcDbTrace
 10
215.418059814052
 20
85.73716445576642
 30
0.0
 11
215.418059814052
 21
86.65873193887819
 31
0.0
 12
218.918059814052
 22
86.1979481973223
 32
0.0
 13
218.918059814052
 23
86.1979481973223
 33
0.0
  0
MTEXT
  5
1EE
330
1E8
100
AcDbEntity
  8
1
 62
     2
100
AcDbMText
 10
203.39305981445
 20
88.1979481973223
 30
0.0
 40
3.5
 41
0.0
 71
     7
 72
     1
  1
26
  7
CONVERTER_11
 11
0.9999999999970621
 21
2.424068405545307E-6
 31
0.0
 73
     1
 44
0.60024009603842
  0
ENDBLK
  5
1F0
330
1E8
100
AcDbEntity
  8
0
100
AcDbBlockEnd
  0
BLOCK
  5
1FA
330
1F3
100
AcDbEntity
  8
0
100
AcDbBlockBegin
  2
*D5
 70
     1
 71
     0
 10
0.0
 20
0.0
 30
0.0
  3
*D5
  1

  0
LINE
  5
1F4
330
1F3
100
AcDbEntity
  8
1
  6
Continuous
 62
     2
100
AcDbLine
 10
128.30282934636
 20
271.17720770235
 30
0.0
 11
128.30282934636
 21
111.17720770445
 31
0.0
  0
LINE
  5
1F5
330
1F3
100
AcDbEntity
  8
1
  6
Continuous
 62
     2
100
AcDbLine
 10
157.9044144120757
 20
111.17720770445
 30
0.0
 11
126.30282934636
 21
111.17720770445
 31
0.0
  0
LINE
  5
1F6
330
1F3
100
AcDbEntity
  8
1
  6
Continuous
 62
     2
100
AcDbLine
 10
157.9051331345
 20
271.17720770235
 30
0.0
 11
126.30282934636
 21
271.17720770235
 31
0.0
  0
SOLID
  5
1F7
330
1F3
100
AcDbEntity
  8
1
 62
     2
100
AcDbTrace
 10
128.7636130879159
 20
267.67720770235
 30
0.0
 11
127.8420456048041
 21
267.67720770235
 31
0.0
 12
128.30282934636
 22
271.17720770235
 32
0.0
 13
128.30282934636
 23
271.17720770235
 33
0.0
  0
SOLID
  5
1F8
330
1F3
100
AcDbEntity
  8
1
 62
     2
100
AcDbTrace
 10
127.8420456048041
 20
114.67720770445
 30
0.0
 11
128.7636130879159
 21
114.67720770445
 31
0.0
 12
128.30282934636
 22
111.17720770445
 32
0.0
 13
128.30282934636
 23
111.17720770445
 33
0.0
  0
MTEXT
  5
1F9
330
1F3
100
AcDbEntity
  8
1
 62
     2
100
AcDbMText
 10
126.30282934636
 20
188.7256541875
 30
0.0
 40
3.5
 41
0.0
 71
     7
 72
     1
  1
160
  7
CONVERTER_11
 11
0.0
 21
1.0
 31
0.0
 73
     1
 44
0.60024009603842
  0
ENDBLK
  5
1FB
330
1F3
100
AcDbEntity
  8
0
100
AcDbBlockEnd
  0
BLOCK
  5
205
330
1FE
100
AcDbEntity
  8
0
100
AcDbBlockBegin
  2
*D6
 70
     1
 71
     0
 10
0.0
 20
0.0
 30
0.0
  3
*D6
  1

  0
LINE
  5
1FF
330
1FE
100
AcDbEntity
  8
1
  6
Continuous
 62
     2
100
AcDbLine
 10
229.428932328493
 20
286.1769915748424
 30
0.0
 11
229.428932328493
 21
96.17699157711985
 31
0.0
  0
LINE
  5
200
330
1FE
100
AcDbEntity
  8
1
  6
Continuous
 62
     2
100
AcDbLine
 10
206.0188286074996
 20
286.1769915748424
 30
0.0
 11
231.428932328493
 21
286.1769915748424
 31
0.0
  0
LINE
  5
201
330
1FE
100
AcDbEntity
  8
1
  6
Continuous
 62
     2
100
AcDbLine
 10
206.01805981445
 20
96.17699157711985
 30
0.0
 11
231.428932328493
 21
96.17699157711985
 31
0.0
  0
SOLID
  5
202
330
1FE
100
AcDbEntity
  8
1
 62
     2
100
AcDbTrace
 10
229.8897160700489
 20
282.6769915748424
 30
0.0
 11
228.9681485869371
 21
282.6769915748424
 31
0.0
 12
229.428932328493
 22
286.1769915748424
 32
0.0
 13
229.428932328493
 23
286.1769915748424
 33
0.0
  0
SOLID
  5
203
330
1FE
100
AcDbEntity
  8
1
 62
     2
100
AcDbTrace
 10
228.9681485869371
 20
99.67699157711985
 30
0.0
 11
229.8897160700489
 21
99.67699157711985
 31
0.0
 12
229.428932328493
 22
96.17699157711985
 32
0.0
 13
229.428932328493
 23
96.17699157711985
 33
0.0
  0
MTEXT
  5
204
330
1FE
100
AcDbEntity
  8
1
 62
     2
100
AcDbMText
 10
227.428932328493
 20
190.371866397603
 30
0.0
 40
3.5
 41
0.0
 71
     7
 72
     1
  1
190
  7
CONVERTER_11
 11
0.0
 21
1.0
 31
0.0
 73
     1
 44
0.60024009603842
  0
ENDBLK
  5
206
330
1FE
100
AcDbEntity
  8
0
100
AcDbBlockEnd
  0
ENDSEC
  0
SECTION
  2
ENTITIES
  0
POINT
  5
39
330
1F
100
AcDbEntity
  8
1
 62
     3
 60
     1
100
AcDbPoint
 10
222.6954173367496
 20
191.1772805160853
 30
0.0
  0
POINT
  5
3A
330
1F
100
AcDbEntity
  8
1
 62
     3
 60
     1
100
AcDbPoint
 10
136.6954173367496
 20
191.1772805160853
 30
0.0
  0
POINT
  5
3B
330
1F
100
AcDbEntity
  8
1
 62
     3
 60
     1
100
AcDbPoint
 10
213.2686397131504
 20
250.5769706876501
 30
0.0
  0
POINT
  5
3C
330
1F
100
AcDbEntity
  8
1
 62
     3
 60
     1
100
AcDbPoint
 10
213.2680782109505
 20
125.5769706893501
 30
0.0
  0
POINT
  5
3D
330
1F
100
AcDbEntity
  8
1
 62
     3
 60
     1
100
AcDbPoint
 10
208.0680782109494
 20
125.5769706893501
 30
0.0
  0
POINT
  5
3E
330
1F
100
AcDbEntity
  8
1
 62
     3
 60
     1
100
AcDbPoint
 10
208.0686397131496
 20
250.5769706876501
 30
0.0
  0
POINT
  5
3F
330
1F
100
AcDbEntity
  8
1
 62
     3
 60
     1
100
AcDbPoint
 10
208.0680503604503
 20
125.5769706893501
 30
0.0
  0
POINT
  5
40
330
1F
100
AcDbEntity
  8
1
 62
     3
 60
     1
100
AcDbPoint
 10
208.0686118626504
 20
250.5769706876501
 30
0.0
  0
POINT
  5
41
330
1F
100
AcDbEntity
  8
1
 62
     3
 60
     1
100
AcDbPoint
 10
213.2686118626495
 20
250.5769706876501
 30
0.0
  0
LINE
  5
42
330
1F
100
AcDbEntity
  8
1
  6
DOT_CENTER
 62
     7
100
AcDbLine
 10
136.6954173367496
 20
191.1772805160853
 30
0.0
 11
222.6954173367496
 21
191.1772805160853
 31
0.0
  0
LINE
  5
43
330
1F
100
AcDbEntity
  8
DEFAULT_1
  6
DOT_CENTER
 62
     2
100
AcDbLine
 10
206.01876895775
 20
269.17699157525
 30
0.0
 11
201.01876895775
 21
269.17699157525
 31
0.0
  0
LINE
  5
44
330
1F
100
AcDbEntity
  8
DEFAULT_1
  6
DOT_CENTER
 62
     2
100
AcDbLine
 10
206.01876895775
 20
269.17699157525
 30
0.0
 11
211.01876895775
 21
269.17699157525
 31
0.0
  0
LINE
  5
45
330
1F
100
AcDbEntity
  8
DEFAULT_1
  6
DOT_CENTER
 62
     2
100
AcDbLine
 10
157.90503386095
 20
249.07720770285
 30
0.0
 11
152.90503386105
 21
249.07720770285
 31
0.0
  0
LINE
  5
46
330
1F
100
AcDbEntity
  8
DEFAULT_1
  6
DOT_CENTER
 62
     2
100
AcDbLine
 10
157.90503386095
 20
249.07720770285
 30
0.0
 11
162.90503386085
 21
249.07720770285
 31
0.0
  0
LINE
  5
47
330
1F
100
AcDbEntity
  8
A_ACHSEN
  6
Continuous
 62
     7
100
AcDbLine
 10
187.06398147885
 20
221.44924550365
 30
0.0
 11
187.36398013125
 21
221.14924415605
 31
0.0
  0
LINE
  5
48
330
1F
100
AcDbEntity
  8
A_RUNDUNGEN
  6
Continuous
 62
     7
100
AcDbLine
 10
193.06860443025
 20
235.52704974725
 30
0.0
 11
193.11862018935
 21
235.52704952265
 31
0.0
  0
LINE
  5
49
330
1F
100
AcDbEntity
  8
A_RUNDUNGEN
  6
Continuous
 62
     7
100
AcDbLine
 10
218.91862648395
 20
235.52693362855
 30
0.0
 11
218.96860442945
 21
235.52693340405
 31
0.0
  0
LINE
  5
4A
330
1F
100
AcDbEntity
  8
ABDECKPLATTEN
  6
Continuous
 62
     7
100
AcDbLine
 10
148.50495435255
 20
231.37724992795
 30
0.0
 11
167.30495435195
 21
231.37716547805
 31
0.0
  0
LINE
  5
4B
330
1F
100
AcDbEntity
  8
0
  6
Continuous
 62
     7
100
AcDbLine
 10
150.00494365005
 20
231.22724318995
 30
0.0
 11
170.00494364935
 21
231.22715334965
 31
0.0
  0
LINE
  5
4C
330
1F
100
AcDbEntity
  8
0
  6
Continuous
 62
     7
100
AcDbLine
 10
148.00495233115
 20
230.92725217395
 30
0.0
 11
170.00503924545
 21
230.92715334915
 31
0.0
  0
LINE
  5
4D
330
1F
100
AcDbEntity
  8
ABDECKPLATTEN
  6
Continuous
 62
     7
100
AcDbLine
 10
193.61857154965
 20
225.67704727675
 30
0.0
 11
218.41857154885
 21
225.67693587465
 31
0.0
  0
LINE
  5
4E
330
1F
100
AcDbEntity
  8
A_ACHSEN
  6
Continuous
 62
     7
100
AcDbLine
 10
194.06850484965
 20
222.42704525555
 30
0.0
 11
194.16848438495
 21
222.42704480645
 31
0.0
  0
LINE
  5
4F
330
1F
100
AcDbEntity
  8
0
  6
Continuous
 62
     7
100
AcDbLine
 10
194.16854692195
 20
222.42704480625
 30
0.0
 11
216.96854692125
 21
222.42694238825
 31
0.0
  0
LINE
  5
50
330
1F
100
AcDbEntity
  8
0
  6
Continuous
 62
     7
100
AcDbLine
 10
148.00491369975
 20
222.32725217405
 30
0.0
 11
170.00500061405
 21
222.32715334925
 31
0.0
  0
LINE
  5
51
330
1F
100
AcDbEntity
  8
A_ACHSEN
  6
Continuous
 62
     7
100
AcDbLine
 10
183.66424024945
 20
221.44926077535
 30
0.0
 11
187.06372270825
 21
221.44924550485
 31
0.0
  0
LINE
  5
52
330
1F
100
AcDbEntity
  8
0
  6
Continuous
 62
     7
100
AcDbLine
 10
149.50474807545
 20
221.17724543675
 30
0.0
 11
148.00474807545
 21
221.17725217475
 31
0.0
  0
LINE
  5
53
330
1F
100
AcDbEntity
  8
A_RUNDUNGEN
  6
Continuous
 62
     7
100
AcDbLine
 10
148.00474807545
 20
221.17725217475
 30
0.0
 11
149.50474807545
 21
221.17724543675
 31
0.0
  0
LINE
  5
54
330
1F
100
AcDbEntity
  8
A_ACHSEN
  6
Continuous
 62
     7
100
AcDbLine
 10
194.06849923465
 20
221.17704525565
 30
0.0
 11
204.42470884875
 21
221.17699873535
 31
0.0
  0
LINE
  5
55
330
1F
100
AcDbEntity
  8
A_ACHSEN
  6
Continuous
 62
     7
100
AcDbLine
 10
183.36398013125
 20
221.14926212415
 30
0.0
 11
187.36398013125
 21
221.14924415605
 31
0.0
  0
LINE
  5
56
330
1F
100
AcDbEntity
  8
A_RUNDUNGEN
  6
Continuous
 62
     7
100
AcDbLine
 10
158.38258156365
 20
221.07720555735
 30
0.0
 11
160.13652979725
 21
221.07719767865
 31
0.0
  0
LINE
  5
57
330
1F
100
AcDbEntity
  8
A_ACHSEN
  6
Continuous
 62
     7
100
AcDbLine
 10
160.13652979725
 20
221.07719767865
 30
0.0
 11
209.08690876325
 21
221.07697779265
 31
0.0
  0
LINE
  5
58
330
1F
100
AcDbEntity
  8
A_RUNDUNGEN
  6
Continuous
 62
     7
100
AcDbLine
 10
217.36851076715
 20
219.02694059155
 30
0.0
 11
218.96851359675
 21
219.02693340425
 31
0.0
  0
LINE
  5
59
330
1F
100
AcDbEntity
  8
0
  6
Continuous
 62
     7
100
AcDbLine
 10
160.13588671655
 20
209.07719768135
 30
0.0
 11
189.72398566085
 21
209.07706477115
 31
0.0
  0
LINE
  5
5A
330
1F
100
AcDbEntity
  8
A_RUNDUNGEN
  6
Continuous
 62
     7
100
AcDbLine
 10
189.72398566085
 20
209.07706477115
 30
0.0
 11
202.4635547787409
 21
209.0770075447729
 31
0.0
  0
LINE
  5
5B
330
1F
100
AcDbEntity
  8
A_ACHSEN
  6
Continuous
 62
     7
100
AcDbLine
 10
170.00494087025
 20
209.02715334945
 30
0.0
 11
166.40527890405
 21
209.02716951915
 31
0.0
  0
LINE
  5
5C
330
1F
100
AcDbEntity
  8
A_ACHSEN
  6
Continuous
 62
     7
100
AcDbLine
 10
181.36400210295
 20
209.02710232435
 30
0.0
 11
189.36398647285
 21
209.02706638825
 31
0.0
  0
LINE
  5
5D
330
1F
100
AcDbEntity
  8
A_RUNDUNGEN
  6
Continuous
 62
     7
100
AcDbLine
 10
164.75933651175
 20
207.77717691275
 30
0.0
 11
158.3823080847053
 21
207.7772055585162
 31
0.0
  0
LINE
  5
5E
330
1F
100
AcDbEntity
  8
0
  6
Continuous
 62
     7
100
AcDbLine
 10
164.75933651175
 20
207.77717691275
 30
0.0
 11
181.30259574255
 21
207.77710260015
 31
0.0
  0
LINE
  5
5F
330
1F
100
AcDbEntity
  8
A_ACHSEN
  6
Continuous
 62
     7
100
AcDbLine
 10
181.36399648795
 20
207.77710232435
 30
0.0
 11
187.30662950985
 21
207.77707562995
 31
0.0
  0
LINE
  5
60
330
1F
100
AcDbEntity
  8
0
  6
Continuous
 62
     7
100
AcDbLine
 10
181.36421311195
 20
207.77710232335
 30
0.0
 11
202.4635489391172
 21
207.7770075447362
 31
0.0
  0
LINE
  5
61
330
1F
100
AcDbEntity
  8
A_RUNDUNGEN
  6
Continuous
 62
     7
100
AcDbLine
 10
202.38480621995
 20
207.77700789845
 30
0.0
 11
202.41521427165
 21
207.77700776185
 31
0.0
  0
LINE
  5
62
330
1F
100
AcDbEntity
  8
A_ACHSEN
  6
Continuous
 62
     7
100
AcDbLine
 10
183.43587996805
 20
161.27709301695
 30
0.0
 11
183.66371016105
 21
161.04926077715
 31
0.0
  0
LINE
  5
63
330
1F
100
AcDbEntity
  8
0
  6
Continuous
 62
     7
100
AcDbLine
 10
148.00475246295
 20
219.17725217475
 30
0.0
 11
148.00450090995
 21
163.17725217535
 31
0.0
  0
LINE
  5
64
330
1F
100
AcDbEntity
  8
ABDECKPLATTEN
  6
Continuous
 62
     7
100
AcDbLine
 10
148.00508866385
 20
261.27725217365
 30
0.0
 11
148.00495659855
 21
231.87725217395
 31
0.0
  0
LINE
  5
65
330
1F
100
AcDbEntity
  8
0
  6
Continuous
 62
     7
100
AcDbLine
 10
148.00463384705
 20
160.02725217465
 30
0.0
 11
148.00459521575
 21
151.42725217475
 31
0.0
  0
LINE
  5
66
330
1F
100
AcDbEntity
  8
ZUBEHOER
  6
Continuous
 62
     7
100
AcDbLine
 10
148.00459094835
 20
150.47725217475
 30
0.0
 11
148.00445888295
 21
121.07725217505
 31
0.0
  0
LINE
  5
67
330
1F
100
AcDbEntity
  8
A_RUNDUNGEN
  6
Continuous
 62
     7
100
AcDbLine
 10
148.00446670285
 20
160.02725217545
 30
0.0
 11
148.00450090995
 21
163.17725217535
 31
0.0
  0
LINE
  5
68
330
1F
100
AcDbEntity
  8
A_RUNDUNGEN
  6
Continuous
 62
     7
100
AcDbLine
 10
148.00475246295
 20
219.17725217475
 30
0.0
 11
148.00474655555
 21
222.32725217485
 31
0.0
  0
LINE
  5
69
330
1F
100
AcDbEntity
  8
A_RUNDUNGEN
  6
Continuous
 62
     7
100
AcDbLine
 10
148.00452917145
 20
150.47725217515
 30
0.0
 11
148.00454005815
 21
151.42725217505
 31
0.0
  0
LINE
  5
6A
330
1F
100
AcDbEntity
  8
0
  6
Continuous
 62
     7
100
AcDbLine
 10
148.00489482165
 20
231.87725217415
 30
0.0
 11
148.00491369975
 21
222.32725217405
 31
0.0
  0
LINE
  5
6B
330
1F
100
AcDbEntity
  8
0
  6
Continuous
 62
     7
100
AcDbLine
 10
149.50475246295
 20
219.17724543675
 30
0.0
 11
149.50450090995
 21
163.17724543725
 31
0.0
  0
LINE
  5
6C
330
1F
100
AcDbEntity
  8
A_RUNDUNGEN
  6
Continuous
 62
     7
100
AcDbLine
 10
149.50450090995
 20
163.17724543725
 30
0.0
 11
149.50446670275
 21
160.02724543745
 31
0.0
  0
LINE
  5
6D
330
1F
100
AcDbEntity
  8
A_RUNDUNGEN
  6
Continuous
 62
     7
100
AcDbLine
 10
149.50474655545
 20
222.32724543675
 30
0.0
 11
149.50475246295
 21
219.17724543675
 31
0.0
  0
LINE
  5
6E
330
1F
100
AcDbEntity
  8
DEFAULT_1
  6
DOT_CENTER
 62
     2
100
AcDbLine
 10
157.90451368525
 20
133.27720770395
 30
0.0
 11
157.90451368525
 21
138.27720770385
 31
0.0
  0
LINE
  5
6F
330
1F
100
AcDbEntity
  8
DEFAULT_1
  6
DOT_CENTER
 62
     2
100
AcDbLine
 10
157.90451368525
 20
133.27720770395
 30
0.0
 11
157.90451368525
 21
128.27720770405
 31
0.0
  0
LINE
  5
70
330
1F
100
AcDbEntity
  8
DEFAULT_1
  6
DOT_CENTER
 62
     2
100
AcDbLine
 10
157.90503386095
 20
249.07720770285
 30
0.0
 11
157.90503386095
 21
254.07720770275
 31
0.0
  0
LINE
  5
71
330
1F
100
AcDbEntity
  8
DEFAULT_1
  6
DOT_CENTER
 62
     2
100
AcDbLine
 10
157.90503386095
 20
249.07720770285
 30
0.0
 11
157.90503386095
 21
244.07720770285
 31
0.0
  0
LINE
  5
72
330
1F
100
AcDbEntity
  8
A_ACHSEN
  6
Continuous
 62
     7
100
AcDbLine
 10
158.38209920585
 20
161.27720555895
 30
0.0
 11
158.3821589496946
 21
174.5772055588162
 31
0.0
  0
LINE
  5
73
330
1F
100
AcDbEntity
  8
A_ACHSEN
  6
Continuous
 62
     7
100
AcDbLine
 10
183.66398147885
 20
221.44926077655
 30
0.0
 11
183.36398013125
 21
221.14926212415
 31
0.0
  0
LINE
  5
74
330
1F
100
AcDbEntity
  8
A_ACHSEN
  6
Continuous
 62
     7
100
AcDbLine
 10
187.30648037485
 20
174.57707563025
 30
0.0
 11
181.36384735295
 21
174.57710232465
 31
0.0
  0
LINE
  5
75
330
1F
100
AcDbEntity
  8
A_RUNDUNGEN
  6
Continuous
 62
     7
100
AcDbLine
 10
158.3821589496946
 20
174.5772055588162
 30
0.0
 11
164.75918737685
 21
174.57717691305
 31
0.0
  0
LINE
  5
76
330
1F
100
AcDbEntity
  8
0
  6
Continuous
 62
     7
100
AcDbLine
 10
164.75918737685
 20
174.57717691305
 30
0.0
 11
202.4633998041114
 21
174.5770075451365
 31
0.0
  0
LINE
  5
77
330
1F
100
AcDbEntity
  8
A_ACHSEN
  6
Continuous
 62
     7
100
AcDbLine
 10
159.23983626135
 20
160.02720170595
 30
0.0
 11
159.23984187635
 21
161.27720170595
 31
0.0
  0
LINE
  5
78
330
1F
100
AcDbEntity
  8
A_ACHSEN
  6
Continuous
 62
     7
100
AcDbLine
 10
159.24011611405
 20
222.32720170535
 30
0.0
 11
159.24011049895
 21
221.07720170535
 31
0.0
  0
LINE
  5
79
330
1F
100
AcDbEntity
  8
A_ACHSEN
  6
Continuous
 62
     7
100
AcDbLine
 10
160.13567189325
 20
161.27719768185
 30
0.0
 11
160.13572579745
 21
173.27719768175
 31
0.0
  0
LINE
  5
7A
330
1F
100
AcDbEntity
  8
A_ACHSEN
  6
Continuous
 62
     7
100
AcDbLine
 10
160.13588661175
 20
209.07719768135
 30
0.0
 11
160.13594051595
 21
221.07719768125
 31
0.0
  0
LINE
  5
7B
330
1F
100
AcDbEntity
  8
0
  6
Continuous
 62
     7
100
AcDbLine
 10
161.00494712825
 20
222.32719377765
 30
0.0
 11
161.00498575955
 21
230.92719377755
 31
0.0
  0
LINE
  5
7C
330
1F
100
AcDbEntity
  8
0
  6
Continuous
 62
     7
100
AcDbLine
 10
161.00466727555
 20
160.02719377835
 30
0.0
 11
161.00462864415
 21
151.42719377835
 31
0.0
  0
LINE
  5
7D
330
1F
100
AcDbEntity
  8
A_ACHSEN
  6
DOT_CENTER
 62
     2
100
AcDbLine
 10
163.62964410005
 20
231.17718198755
 30
0.0
 11
163.62928473865
 21
151.17718198835
 31
0.0
  0
LINE
  5
7E
330
1F
100
AcDbEntity
  8
A_ACHSEN
  6
Continuous
 62
     7
100
AcDbLine
 10
170.00478050525
 20
173.32715334975
 30
0.0
 11
166.40511853905
 21
173.32716951955
 31
0.0
  0
LINE
  5
7F
330
1F
100
AcDbEntity
  8
A_ACHSEN
  6
Continuous
 62
     7
100
AcDbLine
 10
181.36384173795
 20
173.32710232465
 30
0.0
 11
189.36382610785
 21
173.32706638855
 31
0.0
  0
LINE
  5
80
330
1F
100
AcDbEntity
  8
0
  6
Continuous
 62
     7
100
AcDbLine
 10
160.13572590235
 20
173.27719768175
 30
0.0
 11
189.72382484665
 21
173.27706477145
 31
0.0
  0
LINE
  5
81
330
1F
100
AcDbEntity
  8
A_RUNDUNGEN
  6
Continuous
 62
     7
100
AcDbLine
 10
189.72382484665
 20
173.27706477145
 30
0.0
 11
202.4633939644877
 21
173.2770075450729
 31
0.0
  0
LINE
  5
82
330
1F
100
AcDbEntity
  8
A_ACHSEN
  6
Continuous
 62
     7
100
AcDbLine
 10
166.40488404125
 20
209.02716952095
 30
0.0
 11
166.40487842615
 21
207.77716952095
 31
0.0
  0
LINE
  5
83
330
1F
100
AcDbEntity
  8
A_ACHSEN
  6
Continuous
 62
     7
100
AcDbLine
 10
166.40472929125
 20
174.57716952125
 30
0.0
 11
166.40472367615
 21
173.32716952125
 31
0.0
  0
LINE
  5
84
330
1F
100
AcDbEntity
  8
0
  6
Continuous
 62
     7
100
AcDbLine
 10
166.40495381375
 20
222.32716952075
 30
0.0
 11
166.40499244515
 21
230.92716952065
 31
0.0
  0
LINE
  5
85
330
1F
100
AcDbEntity
  8
0
  6
Continuous
 62
     7
100
AcDbLine
 10
166.40467396115
 20
160.02716952135
 30
0.0
 11
166.40463532975
 21
151.42716952145
 31
0.0
  0
LINE
  5
86
330
1F
100
AcDbEntity
  8
A_ACHSEN
  6
Continuous
 62
     7
100
AcDbLine
 10
166.90466393245
 20
160.02716727545
 30
0.0
 11
166.90466954745
 21
161.27716727545
 31
0.0
  0
LINE
  5
87
330
1F
100
AcDbEntity
  8
A_ACHSEN
  6
Continuous
 62
     7
100
AcDbLine
 10
166.90493817005
 20
221.07716727475
 30
0.0
 11
166.90494378505
 21
222.32716727475
 31
0.0
  0
LINE
  5
88
330
1F
100
AcDbEntity
  8
A_ACHSEN
  6
Continuous
 62
     7
100
AcDbLine
 10
167.66135832555
 20
173.27716387645
 30
0.0
 11
167.66135855015
 21
173.32716387645
 31
0.0
  0
LINE
  5
89
330
1F
100
AcDbEntity
  8
A_ACHSEN
  6
Continuous
 62
     7
100
AcDbLine
 10
167.66151891525
 20
209.02716387615
 30
0.0
 11
167.66151913985
 21
209.07716387615
 31
0.0
  0
LINE
  5
8A
330
1F
100
AcDbEntity
  8
ZUBEHOER
  6
Continuous
 62
     7
100
AcDbLine
 10
167.80445888235
 20
121.07716323315
 30
0.0
 11
167.80459094765
 21
150.47716323285
 31
0.0
  0
LINE
  5
8B
330
1F
100
AcDbEntity
  8
ABDECKPLATTEN
  6
Continuous
 62
     7
100
AcDbLine
 10
167.80495659785
 20
231.87716323205
 30
0.0
 11
167.80508866325
 21
261.27716323175
 31
0.0
  0
LINE
  5
8C
330
1F
100
AcDbEntity
  8
A_ACHSEN
  6
Continuous
 62
     7
100
AcDbLine
 10
168.95472367615
 20
173.32715806665
 30
0.0
 11
168.95472345155
 21
173.27715806665
 31
0.0
  0
LINE
  5
8D
330
1F
100
AcDbEntity
  8
0
  6
Continuous
 62
     7
100
AcDbLine
 10
170.00465405495
 20
145.17715335005
 30
0.0
 11
170.00472637645
 21
161.27715334985
 31
0.0
  0
LINE
  5
8E
330
1F
100
AcDbEntity
  8
0
  6
Continuous
 62
     7
100
AcDbLine
 10
170.00478028065
 20
173.27715334975
 30
0.0
 11
170.00478612025
 21
174.57715334975
 31
0.0
  0
LINE
  5
8F
330
1F
100
AcDbEntity
  8
0
  6
Continuous
 62
     7
100
AcDbLine
 10
170.00493525525
 20
207.77715334945
 30
0.0
 11
170.00494109485
 21
209.07715334945
 31
0.0
  0
LINE
  5
90
330
1F
100
AcDbEntity
  8
0
  6
Continuous
 62
     7
100
AcDbLine
 10
170.00499499905
 20
221.07715334925
 30
0.0
 11
170.00506732055
 21
237.17715334915
 31
0.0
  0
LINE
  5
91
330
1F
100
AcDbEntity
  8
0
  6
Continuous
 62
     7
100
AcDbLine
 10
170.11810361955
 20
174.57715284075
 30
0.0
 11
170.11825275455
 21
207.77715284035
 31
0.0
  0
LINE
  5
92
330
1F
100
AcDbEntity
  8
A_RUNDUNGEN
  6
Continuous
 62
     7
100
AcDbLine
 10
217.36826056175
 20
163.32694059205
 30
0.0
 11
218.96826339135
 21
163.32693340485
 31
0.0
  0
LINE
  5
93
330
1F
100
AcDbEntity
  8
A_RUNDUNGEN
  6
Continuous
 62
     7
100
AcDbLine
 10
158.38231294105
 20
161.27720555795
 30
0.0
 11
160.13626117465
 21
161.27719767925
 31
0.0
  0
LINE
  5
94
330
1F
100
AcDbEntity
  8
A_ACHSEN
  6
Continuous
 62
     7
100
AcDbLine
 10
160.13626117465
 20
161.27719767925
 30
0.0
 11
209.08664014065
 21
161.27697779325
 31
0.0
  0
LINE
  5
95
330
1F
100
AcDbEntity
  8
0
  6
Continuous
 62
     7
100
AcDbLine
 10
149.50447855435
 20
161.17724543735
 30
0.0
 11
148.00447855445
 21
161.17725217535
 31
0.0
  0
LINE
  5
96
330
1F
100
AcDbEntity
  8
A_RUNDUNGEN
  6
Continuous
 62
     7
100
AcDbLine
 10
148.00447855445
 20
161.17725217535
 30
0.0
 11
149.50447855435
 21
161.17724543735
 31
0.0
  0
LINE
  5
97
330
1F
100
AcDbEntity
  8
A_ACHSEN
  6
Continuous
 62
     7
100
AcDbLine
 10
194.06855458015
 20
161.17704525475
 30
0.0
 11
204.42443932765
 21
161.17699873595
 31
0.0
  0
LINE
  5
98
330
1F
100
AcDbEntity
  8
A_ACHSEN
  6
Continuous
 62
     7
100
AcDbLine
 10
183.66396893165
 20
161.04926077595
 30
0.0
 11
187.06345139035
 21
161.04924550545
 31
0.0
  0
LINE
  5
99
330
1F
100
AcDbEntity
  8
A_RUNDUNGEN
  6
Continuous
 62
     7
100
AcDbLine
 10
148.00463384705
 20
160.02725217465
 30
0.0
 11
161.00466727555
 21
160.02719377835
 31
0.0
  0
LINE
  5
9A
330
1F
100
AcDbEntity
  8
0
  6
Continuous
 62
     7
100
AcDbLine
 10
161.00466727555
 20
160.02719377835
 30
0.0
 11
170.00472076135
 21
160.02715334995
 31
0.0
  0
LINE
  5
9B
330
1F
100
AcDbEntity
  8
0
  6
Continuous
 62
     7
100
AcDbLine
 10
216.96826617015
 20
159.92694238885
 30
0.0
 11
194.16826617085
 21
159.92704480685
 31
0.0
  0
LINE
  5
9C
330
1F
100
AcDbEntity
  8
A_ACHSEN
  6
Continuous
 62
     7
100
AcDbLine
 10
194.16820363995
 20
159.92704480715
 30
0.0
 11
194.06854896515
 21
159.92704525475
 31
0.0
  0
LINE
  5
9D
330
1F
100
AcDbEntity
  8
0
  6
Continuous
 62
     7
100
AcDbLine
 10
176.50502524135
 20
227.80962715355
 30
0.0
 11
176.50499499885
 21
221.07712415115
 31
0.0
  0
LINE
  5
9E
330
1F
100
AcDbEntity
  8
0
  6
Continuous
 62
     7
100
AcDbLine
 10
176.50494109465
 20
209.07712415125
 30
0.0
 11
176.50493525505
 21
207.77712415135
 31
0.0
  0
LINE
  5
9F
330
1F
100
AcDbEntity
  8
0
  6
Continuous
 62
     7
100
AcDbLine
 10
176.50478612005
 20
174.57712415165
 30
0.0
 11
176.50478028045
 21
173.27712415165
 31
0.0
  0
LINE
  5
A0
330
1F
100
AcDbEntity
  8
0
  6
Continuous
 62
     7
100
AcDbLine
 10
176.50472637615
 20
161.27712415175
 30
0.0
 11
176.50469613365
 21
154.54462114945
 31
0.0
  0
LINE
  5
A1
330
1F
100
AcDbEntity
  8
A_ACHSEN
  6
Continuous
 62
     7
100
AcDbLine
 10
181.36399428795
 20
209.02710232435
 30
0.0
 11
181.36383392295
 21
173.32710232475
 31
0.0
  0
LINE
  5
A2
330
1F
100
AcDbEntity
  8
ZUBEHOER
  6
Continuous
 62
     7
100
AcDbLine
 10
218.41826159965
 20
156.67693587535
 30
0.0
 11
193.61826160045
 21
156.67704727745
 31
0.0
  0
LINE
  5
A3
330
1F
100
AcDbEntity
  8
A_RUNDUNGEN
  6
Continuous
 62
     7
100
AcDbLine
 10
148.00459521575
 20
151.42725217475
 30
0.0
 11
161.00462864415
 21
151.42719377835
 31
0.0
  0
LINE
  5
A4
330
1F
100
AcDbEntity
  8
0
  6
Continuous
 62
     7
100
AcDbLine
 10
161.00462864415
 20
151.42719377835
 30
0.0
 11
169.40465538695
 21
151.42715604535
 31
0.0
  0
LINE
  5
A5
330
1F
100
AcDbEntity
  8
A_RUNDUNGEN
  6
Continuous
 62
     7
100
AcDbLine
 10
169.40465538695
 20
151.42715604535
 30
0.0
 11
170.00468213005
 21
151.42715334995
 31
0.0
  0
LINE
  5
A6
330
1F
100
AcDbEntity
  8
0
  6
Continuous
 62
     7
100
AcDbLine
 10
170.00458383875
 20
151.12715335045
 30
0.0
 11
150.00458383945
 21
151.12724319075
 31
0.0
  0
LINE
  5
A7
330
1F
100
AcDbEntity
  8
ZUBEHOER
  6
Continuous
 62
     7
100
AcDbLine
 10
167.30459319365
 20
150.97716547885
 30
0.0
 11
148.50459319435
 21
150.97724992875
 31
0.0
  0
LINE
  5
A8
330
1F
100
AcDbEntity
  8
A_ACHSEN
  6
Continuous
 62
     7
100
AcDbLine
 10
183.36398013125
 20
221.14926212415
 30
0.0
 11
183.36397980705
 21
221.07709334045
 31
0.0
  0
LINE
  5
A9
330
1F
100
AcDbEntity
  8
A_ACHSEN
  6
Continuous
 62
     7
100
AcDbLine
 10
183.36392590285
 20
209.07709334065
 30
0.0
 11
183.36392567825
 21
209.02709334065
 31
0.0
  0
LINE
  5
AA
330
1F
100
AcDbEntity
  8
A_ACHSEN
  6
Continuous
 62
     7
100
AcDbLine
 10
183.36376531325
 20
173.32709334095
 30
0.0
 11
183.36376508865
 21
173.27709334095
 31
0.0
  0
LINE
  5
AB
330
1F
100
AcDbEntity
  8
A_ACHSEN
  6
DOT_CENTER
 62
     2
100
AcDbLine
 10
185.36374152395
 20
152.75749410675
 30
0.0
 11
185.36407756255
 21
227.56544688485
 31
0.0
  0
LINE
  5
AC
330
1F
100
AcDbEntity
  8
A_ACHSEN
  6
Continuous
 62
     7
100
AcDbLine
 10
187.36398013125
 20
221.14924415605
 30
0.0
 11
187.36397980705
 21
221.07707537245
 31
0.0
  0
LINE
  5
AD
330
1F
100
AcDbEntity
  8
A_ACHSEN
  6
Continuous
 62
     7
100
AcDbLine
 10
187.36392590285
 20
209.07707537255
 30
0.0
 11
187.36392567825
 21
209.02707537255
 31
0.0
  0
LINE
  5
AE
330
1F
100
AcDbEntity
  8
A_ACHSEN
  6
Continuous
 62
     7
100
AcDbLine
 10
187.36376531325
 20
173.32707537295
 30
0.0
 11
187.36376508865
 21
173.27707537295
 31
0.0
  0
LINE
  5
AF
330
1F
100
AcDbEntity
  8
A_ACHSEN
  6
Continuous
 62
     7
100
AcDbLine
 10
189.36383392285
 20
173.32706638855
 30
0.0
 11
189.36383953785
 21
174.57706638855
 31
0.0
  0
LINE
  5
B0
330
1F
100
AcDbEntity
  8
A_ACHSEN
  6
Continuous
 62
     7
100
AcDbLine
 10
189.36399428785
 20
209.02706638825
 30
0.0
 11
189.36398867285
 21
207.77706638825
 31
0.0
  0
LINE
  5
B1
330
1F
100
AcDbEntity
  8
A_RUNDUNGEN
  6
Continuous
 62
     7
100
AcDbLine
 10
218.96820598745
 20
146.82693340495
 30
0.0
 11
218.91822174655
 21
146.82693362945
 31
0.0
  0
LINE
  5
B2
330
1F
100
AcDbEntity
  8
A_RUNDUNGEN
  6
Continuous
 62
     7
100
AcDbLine
 10
193.11822804285
 20
146.82704952345
 30
0.0
 11
193.06820598835
 21
146.82704974815
 31
0.0
  0
LINE
  5
B3
330
1F
100
AcDbEntity
  8
0
  6
Continuous
 62
     7
100
AcDbLine
 10
193.06850882375
 20
235.52704974775
 30
0.0
 11
193.06844391415
 21
221.07704974785
 31
0.0
  0
LINE
  5
B4
330
1F
100
AcDbEntity
  8
0
  6
Continuous
 62
     7
100
AcDbLine
 10
193.06839000985
 20
209.07704974795
 30
0.0
 11
193.06838417025
 21
207.77704974805
 31
0.0
  0
LINE
  5
B5
330
1F
100
AcDbEntity
  8
0
  6
Continuous
 62
     7
100
AcDbLine
 10
193.06823503525
 20
174.57704974835
 30
0.0
 11
193.06822919565
 21
173.27704974835
 31
0.0
  0
LINE
  5
B6
330
1F
100
AcDbEntity
  8
0
  6
Continuous
 62
     7
100
AcDbLine
 10
193.06817529145
 20
161.27704974845
 30
0.0
 11
193.06811038185
 21
146.82704974865
 31
0.0
  0
LINE
  5
B7
330
1F
100
AcDbEntity
  8
A_RUNDUNGEN
  6
Continuous
 62
     7
100
AcDbLine
 10
193.06878692625
 20
273.17704974685
 30
0.0
 11
193.06860443025
 21
235.52704974725
 31
0.0
  0
LINE
  5
B8
330
1F
100
AcDbEntity
  8
A_RUNDUNGEN
  6
Continuous
 62
     7
100
AcDbLine
 10
193.06820598835
 20
146.82704974815
 30
0.0
 11
193.06805023545
 21
109.17704974855
 31
0.0
  0
LINE
  5
B9
330
1F
100
AcDbEntity
  8
ABDECKPLATTEN
  6
Continuous
 62
     7
100
AcDbLine
 10
193.11857379575
 20
226.17704952275
 30
0.0
 11
193.11879740415
 21
273.27704952225
 31
0.0
  0
LINE
  5
BA
330
1F
100
AcDbEntity
  8
ZUBEHOER
  6
Continuous
 62
     7
100
AcDbLine
 10
193.11825935445
 20
156.17704952345
 30
0.0
 11
193.11805981485
 21
109.07704952385
 31
0.0
  0
LINE
  5
BB
330
1F
100
AcDbEntity
  8
A_ACHSEN
  6
Continuous
 62
     7
100
AcDbLine
 10
194.06847311205
 20
221.17704525575
 30
0.0
 11
194.06847872705
 21
222.42704525575
 31
0.0
  0
LINE
  5
BC
330
1F
100
AcDbEntity
  8
A_ACHSEN
  6
Continuous
 62
     7
100
AcDbLine
 10
194.06820359095
 20
161.17704525635
 30
0.0
 11
194.06819797595
 21
159.92704525635
 31
0.0
  0
LINE
  5
BD
330
1F
100
AcDbEntity
  8
A_RUNDUNGEN
  6
Continuous
 62
     7
100
AcDbLine
 10
194.16825157185
 20
156.67704480685
 30
0.0
 11
194.16826617085
 21
159.92704480685
 31
0.0
  0
LINE
  5
BE
330
1F
100
AcDbEntity
  8
A_RUNDUNGEN
  6
Continuous
 62
     7
100
AcDbLine
 10
194.16856152105
 20
225.67704480615
 30
0.0
 11
194.16854692195
 21
222.42704480625
 31
0.0
  0
LINE
  5
BF
330
1F
100
AcDbEntity
  8
A_ACHSEN
  6
Continuous
 62
     7
100
AcDbLine
 10
194.46339396465
 20
173.27704348125
 30
0.0
 11
194.46339980425
 21
174.57704348125
 31
0.0
  0
LINE
  5
C0
330
1F
100
AcDbEntity
  8
A_ACHSEN
  6
Continuous
 62
     7
100
AcDbLine
 10
194.46354893925
 20
207.77704348095
 30
0.0
 11
194.46355477885
 21
209.07704348085
 31
0.0
  0
LINE
  5
C1
330
1F
100
AcDbEntity
  8
0
  6
Continuous
 62
     7
100
AcDbLine
 10
194.46844436325
 20
221.17704345905
 30
0.0
 11
194.46844391405
 21
221.07704345905
 31
0.0
  0
LINE
  5
C2
330
1F
100
AcDbEntity
  8
0
  6
Continuous
 62
     7
100
AcDbLine
 10
194.46817529145
 20
161.27704345965
 30
0.0
 11
194.46817484225
 21
161.17704345965
 31
0.0
  0
LINE
  5
C3
330
1F
100
AcDbEntity
  8
A_RUNDUNGEN
  6
Continuous
 62
     7
100
AcDbLine
 10
194.86836480255
 20
221.17704166255
 30
0.0
 11
194.86836435335
 21
221.07704166255
 31
0.0
  0
LINE
  5
C4
330
1F
100
AcDbEntity
  8
A_RUNDUNGEN
  6
Continuous
 62
     7
100
AcDbLine
 10
196.06836435335
 20
221.07703627215
 30
0.0
 11
196.06836480255
 21
221.17703627215
 31
0.0
  0
LINE
  5
C5
330
1F
100
AcDbEntity
  8
A_ACHSEN
  6
Continuous
 62
     7
100
AcDbLine
 10
196.11847311195
 20
221.17703604705
 30
0.0
 11
196.11847266275
 21
221.07703604705
 31
0.0
  0
LINE
  5
C6
330
1F
100
AcDbEntity
  8
A_ACHSEN
  6
Continuous
 62
     7
100
AcDbLine
 10
187.29154240075
 20
161.27707569725
 30
0.0
 11
187.06371016095
 21
161.04924550425
 31
0.0
  0
LINE
  5
C7
330
1F
100
AcDbEntity
  8
A_ACHSEN
  6
DOT_CENTER
 62
     2
100
AcDbLine
 10
198.06815867075
 20
151.17702728835
 30
0.0
 11
198.06851803215
 21
231.17702728755
 31
0.0
  0
LINE
  5
C8
330
1F
100
AcDbEntity
  8
A_ACHSEN
  6
Continuous
 62
     7
100
AcDbLine
 10
200.01847311195
 20
221.17701852825
 30
0.0
 11
200.01847266275
 21
221.07701852825
 31
0.0
  0
LINE
  5
C9
330
1F
100
AcDbEntity
  8
A_ACHSEN
  6
Continuous
 62
     7
100
AcDbLine
 10
202.06847311195
 20
221.17700931955
 30
0.0
 11
202.06847872695
 21
222.42700931955
 31
0.0
  0
LINE
  5
CA
330
1F
100
AcDbEntity
  8
A_ACHSEN
  6
Continuous
 62
     7
100
AcDbLine
 10
202.06820359085
 20
161.17700932015
 30
0.0
 11
202.06819797585
 21
159.92700932025
 31
0.0
  0
LINE
  5
CB
330
1F
100
AcDbEntity
  8
A_ACHSEN
  6
Continuous
 62
     7
100
AcDbLine
 10
202.38030603145
 20
221.17700791885
 30
0.0
 11
202.38030558225
 21
221.07700791885
 31
0.0
  0
LINE
  5
CC
330
1F
100
AcDbEntity
  8
A_ACHSEN
  6
Continuous
 62
     7
100
AcDbLine
 10
202.38003695955
 20
161.27700791945
 30
0.0
 11
202.38003651035
 21
161.17700791945
 31
0.0
  0
LINE
  5
CD
330
1F
100
AcDbEntity
  8
A_ACHSEN
  6
Continuous
 62
     7
100
AcDbLine
 10
202.4633939644877
 20
173.2770075450729
 30
0.0
 11
202.4633998041114
 21
174.5770075451365
 31
0.0
  0
LINE
  5
CE
330
1F
100
AcDbEntity
  8
A_ACHSEN
  6
Continuous
 62
     7
100
AcDbLine
 10
204.42444260765
 20
159.92699873595
 30
0.0
 11
204.42444822265
 21
161.17699873585
 31
0.0
  0
LINE
  5
CF
330
1F
100
AcDbEntity
  8
A_ACHSEN
  6
Continuous
 62
     7
100
AcDbLine
 10
204.42472335875
 20
222.42699873525
 30
0.0
 11
204.42471774375
 21
221.17699873525
 31
0.0
  0
LINE
  5
D0
330
1F
100
AcDbEntity
  8
DEFAULT_1
  6
DOT_CENTER
 62
     2
100
AcDbLine
 10
157.90451368525
 20
133.27720770395
 30
0.0
 11
152.90451368535
 21
133.27720770395
 31
0.0
  0
LINE
  5
D1
330
1F
100
AcDbEntity
  8
DEFAULT_1
  6
DOT_CENTER
 62
     2
100
AcDbLine
 10
157.90451368525
 20
133.27720770395
 30
0.0
 11
162.90451368525
 21
133.27720770395
 31
0.0
  0
LINE
  5
D2
330
1F
100
AcDbEntity
  8
DEFAULT_1
  6
DOT_CENTER
 62
     2
100
AcDbLine
 10
206.01806820305
 20
113.17699157685
 30
0.0
 11
206.01806820305
 21
118.17699157685
 31
0.0
  0
LINE
  5
D3
330
1F
100
AcDbEntity
  8
DEFAULT_1
  6
DOT_CENTER
 62
     2
100
AcDbLine
 10
206.01806820305
 20
113.17699157685
 30
0.0
 11
206.01806820305
 21
108.17699157685
 31
0.0
  0
LINE
  5
D4
330
1F
100
AcDbEntity
  8
DEFAULT_1
  6
DOT_CENTER
 62
     2
100
AcDbLine
 10
206.01876895775
 20
269.17699157525
 30
0.0
 11
206.01876895775
 21
274.17699157525
 31
0.0
  0
LINE
  5
D5
330
1F
100
AcDbEntity
  8
DEFAULT_1
  6
DOT_CENTER
 62
     2
100
AcDbLine
 10
206.01876895775
 20
269.17699157525
 30
0.0
 11
206.01876895775
 21
264.17699157525
 31
0.0
  0
LINE
  5
D6
330
1F
100
AcDbEntity
  8
A_ACHSEN
  6
Continuous
 62
     7
100
AcDbLine
 10
209.08666225285
 20
161.27697779315
 30
0.0
 11
209.08693087555
 21
221.07697779255
 31
0.0
  0
LINE
  5
D7
330
1F
100
AcDbEntity
  8
0
  6
Continuous
 62
     7
100
AcDbLine
 10
214.76806893995
 20
159.92695227215
 30
0.0
 11
214.76834969105
 21
222.42695227155
 31
0.0
  0
LINE
  5
D8
330
1F
100
AcDbEntity
  8
A_RUNDUNGEN
  6
Continuous
 62
     7
100
AcDbLine
 10
215.26808966585
 20
159.92695002605
 30
0.0
 11
215.26837041695
 21
222.42695002545
 31
0.0
  0
LINE
  5
D9
330
1F
100
AcDbEntity
  8
A_RUNDUNGEN
  6
Continuous
 62
     7
100
AcDbLine
 10
216.96825157105
 20
156.67694238885
 30
0.0
 11
216.96826617015
 21
159.92694238885
 31
0.0
  0
LINE
  5
DA
330
1F
100
AcDbEntity
  8
A_RUNDUNGEN
  6
Continuous
 62
     7
100
AcDbLine
 10
216.96856152025
 20
225.67694238815
 30
0.0
 11
216.96854692125
 21
222.42694238825
 31
0.0
  0
LINE
  5
DB
330
1F
100
AcDbEntity
  8
A_FASEN
  6
Continuous
 62
     7
100
AcDbLine
 10
217.36851076715
 20
219.02694059155
 30
0.0
 11
217.36826056175
 21
163.32694059205
 31
0.0
  0
LINE
  5
DC
330
1F
100
AcDbEntity
  8
A_RUNDUNGEN
  6
Continuous
 62
     7
100
AcDbLine
 10
217.36815329025
 20
156.67694059255
 30
0.0
 11
217.36819319085
 21
163.32694059235
 31
0.0
  0
LINE
  5
DD
330
1F
100
AcDbEntity
  8
A_RUNDUNGEN
  6
Continuous
 62
     7
100
AcDbLine
 10
217.36844339615
 20
219.02694059185
 30
0.0
 11
217.36846323945
 21
225.67694059185
 31
0.0
  0
LINE
  5
DE
330
1F
100
AcDbEntity
  8
ABDECKPLATTEN
  6
Continuous
 62
     7
100
AcDbLine
 10
218.91857379485
 20
226.17693362865
 30
0.0
 11
218.91879740325
 21
273.27693362815
 31
0.0
  0
LINE
  5
DF
330
1F
100
AcDbEntity
  8
ZUBEHOER
  6
Continuous
 62
     7
100
AcDbLine
 10
218.91825935365
 20
156.17693362935
 30
0.0
 11
218.91805981405
 21
109.07693362985
 31
0.0
  0
LINE
  5
E0
330
1F
100
AcDbEntity
  8
A_RUNDUNGEN
  6
Continuous
 62
     7
100
AcDbLine
 10
218.96805023455
 20
109.17693340525
 30
0.0
 11
218.96817642405
 21
161.82693340525
 31
0.0
  0
LINE
  5
E1
330
1F
100
AcDbEntity
  8
A_RUNDUNGEN
  6
Continuous
 62
     7
100
AcDbLine
 10
218.96878692545
 20
273.17693340365
 30
0.0
 11
218.96817642405
 21
161.82693340525
 31
0.0
  0
LINE
  5
E2
330
1F
100
AcDbEntity
  8
DEFAULT_1
  6
DOT_CENTER
 62
     2
100
AcDbLine
 10
206.01806820305
 20
113.17699157685
 30
0.0
 11
201.01806820305
 21
113.17699157685
 31
0.0
  0
LINE
  5
E3
330
1F
100
AcDbEntity
  8
DEFAULT_1
  6
DOT_CENTER
 62
     2
100
AcDbLine
 10
206.01806820305
 20
113.17699157685
 30
0.0
 11
211.01806820305
 21
113.17699157685
 31
0.0
  0
LINE
  5
E4
330
1F
100
AcDbEntity
  8
A_ACHSEN
  6
Continuous
 62
     7
100
AcDbLine
 10
202.4633998041114
 20
174.5770075451365
 30
0.0
 11
202.4635489391172
 21
207.7770075447362
 31
0.0
  0
LINE
  5
E5
330
1F
100
AcDbEntity
  8
A_ACHSEN
  6
Continuous
 62
     7
100
AcDbLine
 10
202.4635489391172
 20
207.7770075447362
 30
0.0
 11
202.4635547787409
 21
209.0770075447729
 31
0.0
  0
LINE
  5
E6
330
1F
100
AcDbEntity
  8
A_ACHSEN
  6
Continuous
 62
     7
100
AcDbLine
 10
158.3823080847053
 20
207.7772055585162
 30
0.0
 11
158.38236782855
 21
221.07720555835
 31
0.0
  0
LINE
  5
E7
330
1F
100
AcDbEntity
  8
A_ACHSEN
  6
Continuous
 62
     7
100
AcDbLine
 10
158.3821589496946
 20
174.5772055588162
 30
0.0
 11
158.3823080847053
 21
207.7772055585162
 31
0.0
  0
LINE
  5
E8
330
1F
100
AcDbEntity
  8
A_ACHSEN
  6
DOT_CENTER
 62
     2
100
AcDbLine
 10
199.51873239535
 20
275.1770207736501
 30
0.0
 11
193.26873239535
 21
275.1770207736501
 31
0.0
  0
LINE
  5
E9
330
1F
100
AcDbEntity
  8
A_ACHSEN
  6
DOT_CENTER
 62
     2
100
AcDbLine
 10
199.51873239535
 20
275.1770207736501
 30
0.0
 11
207.76873239535
 21
275.1770207736501
 31
0.0
  0
LINE
  5
EA
330
1F
100
AcDbEntity
  8
A_ACHSEN
  6
DOT_CENTER
 62
     2
100
AcDbLine
 10
212.51873239485
 20
275.17696237735
 30
0.0
 11
207.76873239535
 21
275.1770207736501
 31
0.0
  0
LINE
  5
EB
330
1F
100
AcDbEntity
  8
A_ACHSEN
  6
DOT_CENTER
 62
     2
100
AcDbLine
 10
212.51873239485
 20
275.17696237735
 30
0.0
 11
218.76873239485
 21
275.17696237735
 31
0.0
  0
LINE
  5
EC
330
1F
100
AcDbEntity
  8
A_ACHSEN
  6
DOT_CENTER
 62
     2
100
AcDbLine
 10
153.15509270655
 20
262.17722903975
 30
0.0
 11
147.65509270655
 21
262.17722903975
 31
0.0
  0
LINE
  5
ED
330
1F
100
AcDbEntity
  8
A_ACHSEN
  6
DOT_CENTER
 62
     2
100
AcDbLine
 10
153.15509270655
 20
262.17722903975
 30
0.0
 11
158.65509270655
 21
262.17722903975
 31
0.0
  0
LINE
  5
EE
330
1F
100
AcDbEntity
  8
A_ACHSEN
  6
DOT_CENTER
 62
     2
100
AcDbLine
 10
210.66870657085
 20
256.7769706875501
 30
0.0
 11
208.0686397131496
 21
256.7769706875501
 31
0.0
  0
LINE
  5
EF
330
1F
100
AcDbEntity
  8
A_ACHSEN
  6
DOT_CENTER
 62
     2
100
AcDbLine
 10
210.66870657085
 20
256.7769706875501
 30
0.0
 11
213.2686397131504
 21
256.7769706875501
 31
0.0
  0
LINE
  5
F0
330
1F
100
AcDbEntity
  8
A_ACHSEN
  6
DOT_CENTER
 62
     2
100
AcDbLine
 10
162.65506575415
 20
256.17718636565
 30
0.0
 11
157.15506575415
 21
256.17718636565
 31
0.0
  0
LINE
  5
F1
330
1F
100
AcDbEntity
  8
A_ACHSEN
  6
DOT_CENTER
 62
     2
100
AcDbLine
 10
162.65506575415
 20
256.17718636565
 30
0.0
 11
168.15506575415
 21
256.17718636565
 31
0.0
  0
LINE
  5
F2
330
1F
100
AcDbEntity
  8
A_ACHSEN
  6
DOT_CENTER
 62
     2
100
AcDbLine
 10
210.66867872035
 20
250.5769706876501
 30
0.0
 11
208.0686397131496
 21
250.5769706876501
 31
0.0
  0
LINE
  5
F3
330
1F
100
AcDbEntity
  8
A_ACHSEN
  6
DOT_CENTER
 62
     2
100
AcDbLine
 10
210.66867872035
 20
250.5769706876501
 30
0.0
 11
213.2686118626495
 21
250.5769706876501
 31
0.0
  0
LINE
  5
F4
330
1F
100
AcDbEntity
  8
A_ACHSEN
  6
DOT_CENTER
 62
     2
100
AcDbLine
 10
153.15445484005
 20
120.17722904115
 30
0.0
 11
153.15445484005
 21
125.67722904115
 31
0.0
  0
LINE
  5
F5
330
1F
100
AcDbEntity
  8
A_ACHSEN
  6
DOT_CENTER
 62
     2
100
AcDbLine
 10
153.15445484005
 20
120.17722904115
 30
0.0
 11
153.15445484005
 21
114.67722904115
 31
0.0
  0
LINE
  5
F6
330
1F
100
AcDbEntity
  8
A_ACHSEN
  6
DOT_CENTER
 62
     2
100
AcDbLine
 10
153.15509270655
 20
262.17722903975
 30
0.0
 11
153.15509270655
 21
267.67722903975
 31
0.0
  0
LINE
  5
F7
330
1F
100
AcDbEntity
  8
A_ACHSEN
  6
DOT_CENTER
 62
     2
100
AcDbLine
 10
153.15509270655
 20
262.17722903975
 30
0.0
 11
153.15509270655
 21
256.67722903975
 31
0.0
  0
LINE
  5
F8
330
1F
100
AcDbEntity
  8
A_ACHSEN
  6
DOT_CENTER
 62
     2
100
AcDbLine
 10
162.65448179185
 20
126.17718636695
 30
0.0
 11
162.65448179185
 21
131.67718636695
 31
0.0
  0
LINE
  5
F9
330
1F
100
AcDbEntity
  8
A_ACHSEN
  6
DOT_CENTER
 62
     2
100
AcDbLine
 10
162.65448179185
 20
126.17718636695
 30
0.0
 11
162.65448179185
 21
120.67718636695
 31
0.0
  0
LINE
  5
FA
330
1F
100
AcDbEntity
  8
A_ACHSEN
  6
DOT_CENTER
 62
     2
100
AcDbLine
 10
162.65506575415
 20
256.17718636565
 30
0.0
 11
162.65506575415
 21
261.67718636565
 31
0.0
  0
LINE
  5
FB
330
1F
100
AcDbEntity
  8
A_ACHSEN
  6
DOT_CENTER
 62
     2
100
AcDbLine
 10
162.65506575415
 20
256.17718636565
 30
0.0
 11
162.65506575415
 21
250.67718636565
 31
0.0
  0
LINE
  5
FC
330
1F
100
AcDbEntity
  8
A_ACHSEN
  6
DOT_CENTER
 62
     2
100
AcDbLine
 10
199.51797439345
 20
107.1770207753501
 30
0.0
 11
199.51797439345
 21
113.4270207753501
 31
0.0
  0
LINE
  5
FD
330
1F
100
AcDbEntity
  8
A_ACHSEN
  6
DOT_CENTER
 62
     2
100
AcDbLine
 10
199.51797439345
 20
107.1770207753501
 30
0.0
 11
199.51797439345
 21
100.9270207753501
 31
0.0
  0
LINE
  5
FE
330
1F
100
AcDbEntity
  8
A_ACHSEN
  6
DOT_CENTER
 62
     2
100
AcDbLine
 10
199.51873239535
 20
275.1770207736501
 30
0.0
 11
199.51873239535
 21
281.4270207736501
 31
0.0
  0
LINE
  5
FF
330
1F
100
AcDbEntity
  8
A_ACHSEN
  6
DOT_CENTER
 62
     2
100
AcDbLine
 10
199.51873239535
 20
275.1770207736501
 30
0.0
 11
199.51873239535
 21
268.9270207736501
 31
0.0
  0
LINE
  5
100
330
1F
100
AcDbEntity
  8
A_ACHSEN
  6
DOT_CENTER
 62
     2
100
AcDbLine
 10
210.66803809635
 20
131.7769706892501
 30
0.0
 11
208.0680782109494
 21
131.7769706892501
 31
0.0
  0
LINE
  5
101
330
1F
100
AcDbEntity
  8
A_ACHSEN
  6
DOT_CENTER
 62
     2
100
AcDbLine
 10
210.66803809635
 20
131.7769706892501
 30
0.0
 11
213.2680782109505
 21
131.7769706892501
 31
0.0
  0
LINE
  5
102
330
1F
100
AcDbEntity
  8
A_ACHSEN
  6
DASHED
 62
     2
100
AcDbLine
 10
205.56867872055
 20
250.5769935968501
 30
0.0
 11
205.56870657105
 21
256.7769935968501
 31
0.0
  0
LINE
  5
103
330
1F
100
AcDbEntity
  8
0
  6
DASHED
 62
     2
100
AcDbLine
 10
205.56814506885
 20
131.7769935980501
 30
0.0
 11
205.56811721835
 21
125.5769935981501
 31
0.0
  0
LINE
  5
104
330
1F
100
AcDbEntity
  8
A_ACHSEN
  6
DOT_CENTER
 62
     2
100
AcDbLine
 10
210.66792054165
 20
128.67697068975
 30
0.0
 11
210.66792054165
 21
133.97697068975
 31
0.0
  0
LINE
  5
105
330
1F
100
AcDbEntity
  8
A_ACHSEN
  6
DOT_CENTER
 62
     2
100
AcDbLine
 10
210.66792054165
 20
128.67697068975
 30
0.0
 11
210.66792054165
 21
123.3769706898501
 31
0.0
  0
LINE
  5
106
330
1F
100
AcDbEntity
  8
A_ACHSEN
  6
CENTER
 62
     2
100
AcDbLine
 10
210.66792054165
 20
123.3769706898501
 30
0.0
 11
210.6680102458502
 21
118.57687068935
 31
0.0
  0
LINE
  5
107
330
1F
100
AcDbEntity
  8
A_ACHSEN
  6
DOT_CENTER
 62
     2
100
AcDbLine
 10
210.66792054165
 20
133.97697068975
 30
0.0
 11
210.66803809635
 21
137.8008760220131
 31
0.0
  0
LINE
  5
108
330
1F
100
AcDbEntity
  8
A_ACHSEN
  6
DOT_CENTER
 62
     2
100
AcDbLine
 10
210.66857564465
 20
253.67697068815
 30
0.0
 11
210.66857564465
 21
262.486349666893
 31
0.0
  0
LINE
  5
109
330
1F
100
AcDbEntity
  8
A_ACHSEN
  6
DOT_CENTER
 62
     2
100
AcDbLine
 10
210.66857564465
 20
253.67697068815
 30
0.0
 11
210.66857564465
 21
244.37697068815
 31
0.0
  0
LINE
  5
10A
330
1F
100
AcDbEntity
  8
A_ACHSEN
  6
DOT_CENTER
 62
     2
100
AcDbLine
 10
162.65448179185
 20
126.17718636695
 30
0.0
 11
157.15448179185
 21
126.17718636695
 31
0.0
  0
LINE
  5
10B
330
1F
100
AcDbEntity
  8
A_ACHSEN
  6
DOT_CENTER
 62
     2
100
AcDbLine
 10
162.65448179185
 20
126.17718636695
 30
0.0
 11
168.15448179185
 21
126.17718636695
 31
0.0
  0
LINE
  5
10C
330
1F
100
AcDbEntity
  8
A_ACHSEN
  6
DOT_CENTER
 62
     2
100
AcDbLine
 10
210.6680102458499
 20
125.5769706893501
 30
0.0
 11
208.0680782109494
 21
125.5769706893501
 31
0.0
  0
LINE
  5
10D
330
1F
100
AcDbEntity
  8
A_ACHSEN
  6
DOT_CENTER
 62
     2
100
AcDbLine
 10
210.6680102458499
 20
125.5769706893501
 30
0.0
 11
213.2680503604498
 21
125.5769706893501
 31
0.0
  0
LINE
  5
10E
330
1F
100
AcDbEntity
  8
A_ACHSEN
  6
DOT_CENTER
 62
     2
100
AcDbLine
 10
153.15445484005
 20
120.17722904115
 30
0.0
 11
147.65445484005
 21
120.17722904115
 31
0.0
  0
LINE
  5
10F
330
1F
100
AcDbEntity
  8
A_ACHSEN
  6
DOT_CENTER
 62
     2
100
AcDbLine
 10
153.15445484005
 20
120.17722904115
 30
0.0
 11
158.65445484005
 21
120.17722904115
 31
0.0
  0
LINE
  5
110
330
1F
100
AcDbEntity
  8
A_ACHSEN
  6
DOT_CENTER
 62
     2
100
AcDbLine
 10
212.51797773595
 20
107.1769623790501
 30
0.0
 11
212.51797773595
 21
113.4269623790501
 31
0.0
  0
LINE
  5
111
330
1F
100
AcDbEntity
  8
A_ACHSEN
  6
DOT_CENTER
 62
     2
100
AcDbLine
 10
212.51797773595
 20
107.1769623790501
 30
0.0
 11
212.51797773595
 21
100.9269623790501
 31
0.0
  0
LINE
  5
112
330
1F
100
AcDbEntity
  8
A_ACHSEN
  6
DOT_CENTER
 62
     2
100
AcDbLine
 10
212.51873239485
 20
275.17696237735
 30
0.0
 11
212.51873239485
 21
281.42696237735
 31
0.0
  0
LINE
  5
113
330
1F
100
AcDbEntity
  8
A_ACHSEN
  6
DOT_CENTER
 62
     2
100
AcDbLine
 10
212.51873239485
 20
275.17696237735
 30
0.0
 11
212.51873239485
 21
268.92696237735
 31
0.0
  0
LINE
  5
114
330
1F
100
AcDbEntity
  8
0
  6
DASHED
 62
     2
100
AcDbLine
 10
215.76867872015
 20
250.5769477783501
 30
0.0
 11
215.7687065707499
 21
256.7769477782501
 31
0.0
  0
LINE
  5
115
330
1F
100
AcDbEntity
  8
0
  6
DASHED
 62
     2
100
AcDbLine
 10
215.76814506855
 20
131.7769477795501
 30
0.0
 11
215.76811721805
 21
125.57694777955
 31
0.0
  0
LINE
  5
116
330
1F
100
AcDbEntity
  8
A_ACHSEN
  6
DOT_CENTER
 62
     2
100
AcDbLine
 10
199.51797439345
 20
107.1770207753501
 30
0.0
 11
193.26797439345
 21
107.1770207753501
 31
0.0
  0
LINE
  5
117
330
1F
100
AcDbEntity
  8
A_ACHSEN
  6
DOT_CENTER
 62
     2
100
AcDbLine
 10
199.51797439345
 20
107.1770207753501
 30
0.0
 11
207.76797439345
 21
107.1770207753501
 31
0.0
  0
LINE
  5
118
330
1F
100
AcDbEntity
  8
A_ACHSEN
  6
DOT_CENTER
 62
     2
100
AcDbLine
 10
212.51797773595
 20
107.1769623790501
 30
0.0
 11
207.76797439345
 21
107.1770207753501
 31
0.0
  0
LINE
  5
119
330
1F
100
AcDbEntity
  8
A_ACHSEN
  6
DOT_CENTER
 62
     2
100
AcDbLine
 10
212.51797773595
 20
107.1769623790501
 30
0.0
 11
218.76797773595
 21
107.1769623790501
 31
0.0
  0
LINE
  5
11A
330
1F
100
AcDbEntity
  8
A_ACHSEN
  6
DOT_CENTER
 62
     2
100
AcDbLine
 10
213.2686118626495
 20
250.5769706876501
 30
0.0
 11
213.2686397131504
 21
250.5769706876501
 31
0.0
  0
LINE
  5
11B
330
1F
100
AcDbEntity
  8
A_ACHSEN
  6
DOT_CENTER
 62
     2
100
AcDbLine
 10
208.0686118626504
 20
250.5769706876501
 30
0.0
 11
204.6685787203501
 21
250.5769706876502
 31
0.0
  0
LINE
  5
11C
330
1F
100
AcDbEntity
  8
A_ACHSEN
  6
DOT_CENTER
 62
     2
100
AcDbLine
 10
208.0686397131496
 20
256.7769706875501
 30
0.0
 11
204.66860657085
 21
256.7769706875502
 31
0.0
  0
LINE
  5
11D
330
1F
100
AcDbEntity
  8
A_ACHSEN
  6
DOT_CENTER
 62
     2
100
AcDbLine
 10
213.2686397131504
 20
256.7769706875501
 30
0.0
 11
216.6688065708499
 21
256.7769706875502
 31
0.0
  0
LINE
  5
11E
330
1F
100
AcDbEntity
  8
A_ACHSEN
  6
DOT_CENTER
 62
     2
100
AcDbLine
 10
213.2680782109505
 20
131.7769706892501
 30
0.0
 11
216.6681380963501
 21
131.77697068925
 31
0.0
  0
LINE
  5
11F
330
1F
100
AcDbEntity
  8
A_ACHSEN
  6
DOT_CENTER
 62
     2
100
AcDbLine
 10
208.0680782109494
 20
131.7769706892501
 30
0.0
 11
204.6679380963501
 21
131.77697068925
 31
0.0
  0
LINE
  5
120
330
1F
100
AcDbEntity
  8
A_ACHSEN
  6
DOT_CENTER
 62
     2
100
AcDbLine
 10
208.0680503604503
 20
125.5769706893501
 30
0.0
 11
204.6679102458502
 21
125.57697068935
 31
0.0
  0
LINE
  5
121
330
1F
100
AcDbEntity
  8
A_ACHSEN
  6
DOT_CENTER
 62
     2
100
AcDbLine
 10
213.2680503604498
 20
125.5769706893501
 30
0.0
 11
213.2680782109505
 21
125.5769706893501
 31
0.0
  0
LINE
  5
122
330
1F
100
AcDbEntity
  8
1
  6
DASHED
 62
     2
100
AcDbLine
 10
208.0686397131496
 20
256.7769706875501
 30
0.0
 11
208.0686397131496
 21
250.5769706876501
 31
0.0
  0
LINE
  5
123
330
1F
100
AcDbEntity
  8
A_ACHSEN
  6
DOT_CENTER
 62
     2
100
AcDbLine
 10
208.0686397131496
 20
250.5769706876501
 30
0.0
 11
208.0686118626504
 21
250.5769706876501
 31
0.0
  0
LINE
  5
124
330
1F
100
AcDbEntity
  8
1
  6
DASHED
 62
     2
100
AcDbLine
 10
213.2686397131504
 20
256.7769706875501
 30
0.0
 11
213.2686397131504
 21
250.5769706876501
 31
0.0
  0
LINE
  5
125
330
1F
100
AcDbEntity
  8
A_ACHSEN
  6
DOT_CENTER
 62
     2
100
AcDbLine
 10
213.2686397131504
 20
250.5769706876501
 30
0.0
 11
216.66877872035
 21
250.5769706876502
 31
0.0
  0
LINE
  5
126
330
1F
100
AcDbEntity
  8
1
  6
DASHED
 62
     2
100
AcDbLine
 10
208.0680782109494
 20
131.7769706892501
 30
0.0
 11
208.0680782109494
 21
125.5769706893501
 31
0.0
  0
LINE
  5
127
330
1F
100
AcDbEntity
  8
A_ACHSEN
  6
DOT_CENTER
 62
     2
100
AcDbLine
 10
208.0680782109494
 20
125.5769706893501
 30
0.0
 11
208.0680503604503
 21
125.5769706893501
 31
0.0
  0
LINE
  5
128
330
1F
100
AcDbEntity
  8
1
  6
DASHED
 62
     2
100
AcDbLine
 10
213.2680782109505
 20
131.7769706892501
 30
0.0
 11
213.2680782109505
 21
125.5769706893501
 31
0.0
  0
LINE
  5
129
330
1F
100
AcDbEntity
  8
A_ACHSEN
  6
DOT_CENTER
 62
     2
100
AcDbLine
 10
213.2680782109505
 20
125.5769706893501
 30
0.0
 11
216.6681102458499
 21
125.57697068935
 31
0.0
  0
LINE
  5
12A
330
1F
100
AcDbEntity
  8
1
  6
Continuous
 62
     7
100
AcDbLine
 10
157.40503386095
 20
251.3272077028499
 30
0.0
 11
158.40503386095
 21
251.3272077028499
 31
0.0
  0
LINE
  5
12B
330
1F
100
AcDbEntity
  8
1
  6
Continuous
 62
     7
100
AcDbLine
 10
158.40503386095
 20
251.3272077028499
 30
0.0
 11
158.40503386095
 21
250.0772077028499
 31
0.0
  0
LINE
  5
12C
330
1F
100
AcDbEntity
  8
1
  6
Continuous
 62
     7
100
AcDbLine
 10
158.90503386095
 20
249.5772077028499
 30
0.0
 11
160.15503386095
 21
249.5772077028499
 31
0.0
  0
LINE
  5
12D
330
1F
100
AcDbEntity
  8
1
  6
Continuous
 62
     7
100
AcDbLine
 10
160.15503386095
 20
249.5772077028499
 30
0.0
 11
160.15503386095
 21
248.5772077028499
 31
0.0
  0
LINE
  5
12E
330
1F
100
AcDbEntity
  8
1
  6
Continuous
 62
     7
100
AcDbLine
 10
160.15503386095
 20
248.5772077028499
 30
0.0
 11
158.90503386095
 21
248.5772077028499
 31
0.0
  0
LINE
  5
12F
330
1F
100
AcDbEntity
  8
1
  6
Continuous
 62
     7
100
AcDbLine
 10
158.40503386095
 20
248.0772077028499
 30
0.0
 11
158.40503386095
 21
246.8272077028499
 31
0.0
  0
LINE
  5
130
330
1F
100
AcDbEntity
  8
1
  6
Continuous
 62
     7
100
AcDbLine
 10
158.40503386095
 20
246.8272077028499
 30
0.0
 11
157.40503386095
 21
246.8272077028499
 31
0.0
  0
LINE
  5
131
330
1F
100
AcDbEntity
  8
1
  6
Continuous
 62
     7
100
AcDbLine
 10
157.40503386095
 20
246.8272077028499
 30
0.0
 11
157.40503386095
 21
248.0772077028499
 31
0.0
  0
LINE
  5
132
330
1F
100
AcDbEntity
  8
1
  6
Continuous
 62
     7
100
AcDbLine
 10
156.90503386095
 20
248.5772077028499
 30
0.0
 11
155.65503386095
 21
248.5772077028499
 31
0.0
  0
LINE
  5
133
330
1F
100
AcDbEntity
  8
1
  6
Continuous
 62
     7
100
AcDbLine
 10
155.65503386095
 20
248.5772077028499
 30
0.0
 11
155.65503386095
 21
249.5772077028499
 31
0.0
  0
LINE
  5
134
330
1F
100
AcDbEntity
  8
1
  6
Continuous
 62
     7
100
AcDbLine
 10
155.65503386095
 20
249.5772077028499
 30
0.0
 11
156.90503386095
 21
249.5772077028499
 31
0.0
  0
LINE
  5
135
330
1F
100
AcDbEntity
  8
1
  6
Continuous
 62
     7
100
AcDbLine
 10
157.40503386095
 20
250.0772077028499
 30
0.0
 11
157.40503386095
 21
251.3272077028499
 31
0.0
  0
LINE
  5
136
330
1F
100
AcDbEntity
  8
1
  6
Continuous
 62
     7
100
AcDbLine
 10
157.40503386095
 20
250.0772077028499
 30
0.0
 11
157.15503386095
 21
249.8272077028499
 31
0.0
  0
LINE
  5
137
330
1F
100
AcDbEntity
  8
1
  6
Continuous
 62
     7
100
AcDbLine
 10
158.40503386095
 20
250.0772077028499
 30
0.0
 11
158.65503386095
 21
249.8272077028499
 31
0.0
  0
LINE
  5
138
330
1F
100
AcDbEntity
  8
1
  6
Continuous
 62
     7
100
AcDbLine
 10
158.90503386095
 20
248.5772077028499
 30
0.0
 11
158.65503386095
 21
248.3272077028499
 31
0.0
  0
LINE
  5
139
330
1F
100
AcDbEntity
  8
1
  6
Continuous
 62
     7
100
AcDbLine
 10
157.40503386095
 20
248.0772077028499
 30
0.0
 11
157.15503386095
 21
248.3272077028499
 31
0.0
  0
LINE
  5
13A
330
1F
100
AcDbEntity
  8
1
  6
Continuous
 62
     2
100
AcDbLine
 10
158.65503386095
 20
249.8272077028499
 30
0.0
 11
159.4960241186197
 21
250.6681979605197
 31
0.0
  0
LINE
  5
13B
330
1F
100
AcDbEntity
  8
1
  6
Continuous
 62
     7
100
AcDbLine
 10
158.65503386095
 20
249.8272077028499
 30
0.0
 11
158.90503386095
 21
249.5772077028499
 31
0.0
  0
LINE
  5
13C
330
1F
100
AcDbEntity
  8
1
  6
Continuous
 62
     2
100
AcDbLine
 10
157.15503386095
 20
249.8272077028499
 30
0.0
 11
156.3140436032802
 21
250.6681979605197
 31
0.0
  0
LINE
  5
13D
330
1F
100
AcDbEntity
  8
1
  6
Continuous
 62
     7
100
AcDbLine
 10
157.15503386095
 20
249.8272077028499
 30
0.0
 11
156.90503386095
 21
249.5772077028499
 31
0.0
  0
LINE
  5
13E
330
1F
100
AcDbEntity
  8
1
  6
Continuous
 62
     2
100
AcDbLine
 10
157.15503386095
 20
248.3272077028499
 30
0.0
 11
156.3140436032802
 21
247.4862174451802
 31
0.0
  0
LINE
  5
13F
330
1F
100
AcDbEntity
  8
1
  6
Continuous
 62
     7
100
AcDbLine
 10
157.15503386095
 20
248.3272077028499
 30
0.0
 11
156.90503386095
 21
248.5772077028499
 31
0.0
  0
LINE
  5
140
330
1F
100
AcDbEntity
  8
1
  6
Continuous
 62
     2
100
AcDbLine
 10
158.65503386095
 20
248.3272077028499
 30
0.0
 11
159.4960241186197
 21
247.4862174451802
 31
0.0
  0
LINE
  5
141
330
1F
100
AcDbEntity
  8
1
  6
Continuous
 62
     7
100
AcDbLine
 10
158.65503386095
 20
248.3272077028499
 30
0.0
 11
158.40503386095
 21
248.0772077028499
 31
0.0
  0
LINE
  5
142
330
1F
100
AcDbEntity
  8
1
  6
Continuous
 62
     7
100
AcDbLine
 10
206.76876895775
 20
268.4269915752499
 30
0.0
 11
206.51876895775
 21
268.1769915752499
 31
0.0
  0
LINE
  5
143
330
1F
100
AcDbEntity
  8
1
  6
Continuous
 62
     2
100
AcDbLine
 10
206.76876895775
 20
268.4269915752499
 30
0.0
 11
207.6097592154197
 21
267.5860013175802
 31
0.0
  0
LINE
  5
144
330
1F
100
AcDbEntity
  8
1
  6
Continuous
 62
     7
100
AcDbLine
 10
205.26876895775
 20
268.4269915752499
 30
0.0
 11
205.01876895775
 21
268.6769915752499
 31
0.0
  0
LINE
  5
145
330
1F
100
AcDbEntity
  8
1
  6
Continuous
 62
     2
100
AcDbLine
 10
205.26876895775
 20
268.4269915752499
 30
0.0
 11
204.4277787000803
 21
267.5860013175802
 31
0.0
  0
LINE
  5
146
330
1F
100
AcDbEntity
  8
1
  6
Continuous
 62
     7
100
AcDbLine
 10
205.26876895775
 20
269.9269915752499
 30
0.0
 11
205.01876895775
 21
269.6769915752499
 31
0.0
  0
LINE
  5
147
330
1F
100
AcDbEntity
  8
1
  6
Continuous
 62
     2
100
AcDbLine
 10
205.26876895775
 20
269.9269915752499
 30
0.0
 11
204.4277787000803
 21
270.7679818329197
 31
0.0
  0
LINE
  5
148
330
1F
100
AcDbEntity
  8
1
  6
Continuous
 62
     7
100
AcDbLine
 10
206.76876895775
 20
269.9269915752499
 30
0.0
 11
207.01876895775
 21
269.6769915752499
 31
0.0
  0
LINE
  5
149
330
1F
100
AcDbEntity
  8
1
  6
Continuous
 62
     2
100
AcDbLine
 10
206.76876895775
 20
269.9269915752499
 30
0.0
 11
207.6097592154197
 21
270.7679818329197
 31
0.0
  0
LINE
  5
14A
330
1F
100
AcDbEntity
  8
1
  6
Continuous
 62
     7
100
AcDbLine
 10
205.51876895775
 20
268.1769915752499
 30
0.0
 11
205.26876895775
 21
268.4269915752499
 31
0.0
  0
LINE
  5
14B
330
1F
100
AcDbEntity
  8
1
  6
Continuous
 62
     7
100
AcDbLine
 10
207.01876895775
 20
268.6769915752499
 30
0.0
 11
206.76876895775
 21
268.4269915752499
 31
0.0
  0
LINE
  5
14C
330
1F
100
AcDbEntity
  8
1
  6
Continuous
 62
     7
100
AcDbLine
 10
206.51876895775
 20
270.1769915752499
 30
0.0
 11
206.76876895775
 21
269.9269915752499
 31
0.0
  0
LINE
  5
14D
330
1F
100
AcDbEntity
  8
1
  6
Continuous
 62
     7
100
AcDbLine
 10
205.51876895775
 20
270.1769915752499
 30
0.0
 11
205.26876895775
 21
269.9269915752499
 31
0.0
  0
LINE
  5
14E
330
1F
100
AcDbEntity
  8
1
  6
Continuous
 62
     7
100
AcDbLine
 10
205.51876895775
 20
270.1769915752499
 30
0.0
 11
205.51876895775
 21
271.4269915752499
 31
0.0
  0
LINE
  5
14F
330
1F
100
AcDbEntity
  8
1
  6
Continuous
 62
     7
100
AcDbLine
 10
203.76876895775
 20
269.6769915752499
 30
0.0
 11
205.01876895775
 21
269.6769915752499
 31
0.0
  0
LINE
  5
150
330
1F
100
AcDbEntity
  8
1
  6
Continuous
 62
     7
100
AcDbLine
 10
203.76876895775
 20
268.6769915752499
 30
0.0
 11
203.76876895775
 21
269.6769915752499
 31
0.0
  0
LINE
  5
151
330
1F
100
AcDbEntity
  8
1
  6
Continuous
 62
     7
100
AcDbLine
 10
205.01876895775
 20
268.6769915752499
 30
0.0
 11
203.76876895775
 21
268.6769915752499
 31
0.0
  0
LINE
  5
152
330
1F
100
AcDbEntity
  8
1
  6
Continuous
 62
     7
100
AcDbLine
 10
205.51876895775
 20
266.9269915752499
 30
0.0
 11
205.51876895775
 21
268.1769915752499
 31
0.0
  0
LINE
  5
153
330
1F
100
AcDbEntity
  8
1
  6
Continuous
 62
     7
100
AcDbLine
 10
206.51876895775
 20
266.9269915752499
 30
0.0
 11
205.51876895775
 21
266.9269915752499
 31
0.0
  0
LINE
  5
154
330
1F
100
AcDbEntity
  8
1
  6
Continuous
 62
     7
100
AcDbLine
 10
206.51876895775
 20
268.1769915752499
 30
0.0
 11
206.51876895775
 21
266.9269915752499
 31
0.0
  0
LINE
  5
155
330
1F
100
AcDbEntity
  8
1
  6
Continuous
 62
     7
100
AcDbLine
 10
208.26876895775
 20
268.6769915752499
 30
0.0
 11
207.01876895775
 21
268.6769915752499
 31
0.0
  0
LINE
  5
156
330
1F
100
AcDbEntity
  8
1
  6
Continuous
 62
     7
100
AcDbLine
 10
208.26876895775
 20
269.6769915752499
 30
0.0
 11
208.26876895775
 21
268.6769915752499
 31
0.0
  0
LINE
  5
157
330
1F
100
AcDbEntity
  8
1
  6
Continuous
 62
     7
100
AcDbLine
 10
207.01876895775
 20
269.6769915752499
 30
0.0
 11
208.26876895775
 21
269.6769915752499
 31
0.0
  0
LINE
  5
158
330
1F
100
AcDbEntity
  8
1
  6
Continuous
 62
     7
100
AcDbLine
 10
206.51876895775
 20
271.4269915752499
 30
0.0
 11
206.51876895775
 21
270.1769915752499
 31
0.0
  0
LINE
  5
159
330
1F
100
AcDbEntity
  8
1
  6
Continuous
 62
     7
100
AcDbLine
 10
205.51876895775
 20
271.4269915752499
 30
0.0
 11
206.51876895775
 21
271.4269915752499
 31
0.0
  0
LINE
  5
15A
330
1F
100
AcDbEntity
  8
1
  6
Continuous
 62
     7
100
AcDbLine
 10
206.51806820305
 20
114.1769915768501
 30
0.0
 11
206.76806820305
 21
113.9269915768501
 31
0.0
  0
LINE
  5
15B
330
1F
100
AcDbEntity
  8
1
  6
Continuous
 62
     2
100
AcDbLine
 10
207.6090584607196
 20
114.7679818345198
 30
0.0
 11
206.76806820305
 21
113.9269915768501
 31
0.0
  0
LINE
  5
15C
330
1F
100
AcDbEntity
  8
1
  6
Continuous
 62
     7
100
AcDbLine
 10
205.01806820305
 20
113.6769915768501
 30
0.0
 11
205.26806820305
 21
113.9269915768501
 31
0.0
  0
LINE
  5
15D
330
1F
100
AcDbEntity
  8
1
  6
Continuous
 62
     2
100
AcDbLine
 10
204.4270779453802
 20
114.7679818345198
 30
0.0
 11
205.26806820305
 21
113.9269915768501
 31
0.0
  0
LINE
  5
15E
330
1F
100
AcDbEntity
  8
1
  6
Continuous
 62
     7
100
AcDbLine
 10
205.01806820305
 20
112.6769915768501
 30
0.0
 11
205.26806820305
 21
112.4269915768501
 31
0.0
  0
LINE
  5
15F
330
1F
100
AcDbEntity
  8
1
  6
Continuous
 62
     2
100
AcDbLine
 10
204.4270779453802
 20
111.5860013191803
 30
0.0
 11
205.26806820305
 21
112.4269915768501
 31
0.0
  0
LINE
  5
160
330
1F
100
AcDbEntity
  8
1
  6
Continuous
 62
     7
100
AcDbLine
 10
207.01806820305
 20
112.6769915768501
 30
0.0
 11
206.76806820305
 21
112.4269915768501
 31
0.0
  0
LINE
  5
161
330
1F
100
AcDbEntity
  8
1
  6
Continuous
 62
     2
100
AcDbLine
 10
207.6090584607196
 20
111.5860013191803
 30
0.0
 11
206.76806820305
 21
112.4269915768501
 31
0.0
  0
LINE
  5
162
330
1F
100
AcDbEntity
  8
1
  6
Continuous
 62
     7
100
AcDbLine
 10
205.26806820305
 20
113.9269915768501
 30
0.0
 11
205.51806820305
 21
114.1769915768501
 31
0.0
  0
LINE
  5
163
330
1F
100
AcDbEntity
  8
1
  6
Continuous
 62
     7
100
AcDbLine
 10
206.76806820305
 20
113.9269915768501
 30
0.0
 11
207.01806820305
 21
113.6769915768501
 31
0.0
  0
LINE
  5
164
330
1F
100
AcDbEntity
  8
1
  6
Continuous
 62
     7
100
AcDbLine
 10
206.76806820305
 20
112.4269915768501
 30
0.0
 11
206.51806820305
 21
112.1769915768501
 31
0.0
  0
LINE
  5
165
330
1F
100
AcDbEntity
  8
1
  6
Continuous
 62
     7
100
AcDbLine
 10
205.26806820305
 20
112.4269915768501
 30
0.0
 11
205.51806820305
 21
112.1769915768501
 31
0.0
  0
LINE
  5
166
330
1F
100
AcDbEntity
  8
1
  6
Continuous
 62
     7
100
AcDbLine
 10
205.51806820305
 20
110.9269915768501
 30
0.0
 11
205.51806820305
 21
112.1769915768501
 31
0.0
  0
LINE
  5
167
330
1F
100
AcDbEntity
  8
1
  6
Continuous
 62
     7
100
AcDbLine
 10
205.01806820305
 20
112.6769915768501
 30
0.0
 11
203.76806820305
 21
112.6769915768501
 31
0.0
  0
LINE
  5
168
330
1F
100
AcDbEntity
  8
1
  6
Continuous
 62
     7
100
AcDbLine
 10
203.76806820305
 20
112.6769915768501
 30
0.0
 11
203.76806820305
 21
113.6769915768501
 31
0.0
  0
LINE
  5
169
330
1F
100
AcDbEntity
  8
1
  6
Continuous
 62
     7
100
AcDbLine
 10
203.76806820305
 20
113.6769915768501
 30
0.0
 11
205.01806820305
 21
113.6769915768501
 31
0.0
  0
LINE
  5
16A
330
1F
100
AcDbEntity
  8
1
  6
Continuous
 62
     7
100
AcDbLine
 10
205.51806820305
 20
114.1769915768501
 30
0.0
 11
205.51806820305
 21
115.4269915768501
 31
0.0
  0
LINE
  5
16B
330
1F
100
AcDbEntity
  8
1
  6
Continuous
 62
     7
100
AcDbLine
 10
205.51806820305
 20
115.4269915768501
 30
0.0
 11
206.51806820305
 21
115.4269915768501
 31
0.0
  0
LINE
  5
16C
330
1F
100
AcDbEntity
  8
1
  6
Continuous
 62
     7
100
AcDbLine
 10
206.51806820305
 20
115.4269915768501
 30
0.0
 11
206.51806820305
 21
114.1769915768501
 31
0.0
  0
LINE
  5
16D
330
1F
100
AcDbEntity
  8
1
  6
Continuous
 62
     7
100
AcDbLine
 10
207.01806820305
 20
113.6769915768501
 30
0.0
 11
208.26806820305
 21
113.6769915768501
 31
0.0
  0
LINE
  5
16E
330
1F
100
AcDbEntity
  8
1
  6
Continuous
 62
     7
100
AcDbLine
 10
208.26806820305
 20
113.6769915768501
 30
0.0
 11
208.26806820305
 21
112.6769915768501
 31
0.0
  0
LINE
  5
16F
330
1F
100
AcDbEntity
  8
1
  6
Continuous
 62
     7
100
AcDbLine
 10
208.26806820305
 20
112.6769915768501
 30
0.0
 11
207.01806820305
 21
112.6769915768501
 31
0.0
  0
LINE
  5
170
330
1F
100
AcDbEntity
  8
1
  6
Continuous
 62
     7
100
AcDbLine
 10
206.51806820305
 20
112.1769915768501
 30
0.0
 11
206.51806820305
 21
110.9269915768501
 31
0.0
  0
LINE
  5
171
330
1F
100
AcDbEntity
  8
1
  6
Continuous
 62
     7
100
AcDbLine
 10
206.51806820305
 20
110.9269915768501
 30
0.0
 11
205.51806820305
 21
110.9269915768501
 31
0.0
  0
LINE
  5
172
330
1F
100
AcDbEntity
  8
1
  6
Continuous
 62
     7
100
AcDbLine
 10
158.40451368525
 20
131.0272077039501
 30
0.0
 11
157.40451368525
 21
131.0272077039501
 31
0.0
  0
LINE
  5
173
330
1F
100
AcDbEntity
  8
1
  6
Continuous
 62
     7
100
AcDbLine
 10
158.40451368525
 20
132.2772077039501
 30
0.0
 11
158.40451368525
 21
131.0272077039501
 31
0.0
  0
LINE
  5
174
330
1F
100
AcDbEntity
  8
1
  6
Continuous
 62
     7
100
AcDbLine
 10
160.15451368525
 20
132.7772077039501
 30
0.0
 11
158.90451368525
 21
132.7772077039501
 31
0.0
  0
LINE
  5
175
330
1F
100
AcDbEntity
  8
1
  6
Continuous
 62
     7
100
AcDbLine
 10
160.15451368525
 20
133.7772077039501
 30
0.0
 11
160.15451368525
 21
132.7772077039501
 31
0.0
  0
LINE
  5
176
330
1F
100
AcDbEntity
  8
1
  6
Continuous
 62
     7
100
AcDbLine
 10
158.90451368525
 20
133.7772077039501
 30
0.0
 11
160.15451368525
 21
133.7772077039501
 31
0.0
  0
LINE
  5
177
330
1F
100
AcDbEntity
  8
1
  6
Continuous
 62
     7
100
AcDbLine
 10
158.40451368525
 20
135.5272077039501
 30
0.0
 11
158.40451368525
 21
134.2772077039501
 31
0.0
  0
LINE
  5
178
330
1F
100
AcDbEntity
  8
1
  6
Continuous
 62
     7
100
AcDbLine
 10
157.40451368525
 20
135.5272077039501
 30
0.0
 11
158.40451368525
 21
135.5272077039501
 31
0.0
  0
LINE
  5
179
330
1F
100
AcDbEntity
  8
1
  6
Continuous
 62
     7
100
AcDbLine
 10
157.40451368525
 20
134.2772077039501
 30
0.0
 11
157.40451368525
 21
135.5272077039501
 31
0.0
  0
LINE
  5
17A
330
1F
100
AcDbEntity
  8
1
  6
Continuous
 62
     7
100
AcDbLine
 10
155.65451368525
 20
133.7772077039501
 30
0.0
 11
156.90451368525
 21
133.7772077039501
 31
0.0
  0
LINE
  5
17B
330
1F
100
AcDbEntity
  8
1
  6
Continuous
 62
     7
100
AcDbLine
 10
155.65451368525
 20
132.7772077039501
 30
0.0
 11
155.65451368525
 21
133.7772077039501
 31
0.0
  0
LINE
  5
17C
330
1F
100
AcDbEntity
  8
1
  6
Continuous
 62
     7
100
AcDbLine
 10
156.90451368525
 20
132.7772077039501
 30
0.0
 11
155.65451368525
 21
132.7772077039501
 31
0.0
  0
LINE
  5
17D
330
1F
100
AcDbEntity
  8
1
  6
Continuous
 62
     7
100
AcDbLine
 10
157.40451368525
 20
131.0272077039501
 30
0.0
 11
157.40451368525
 21
132.2772077039501
 31
0.0
  0
LINE
  5
17E
330
1F
100
AcDbEntity
  8
1
  6
Continuous
 62
     7
100
AcDbLine
 10
157.15451368525
 20
132.5272077039501
 30
0.0
 11
157.40451368525
 21
132.2772077039501
 31
0.0
  0
LINE
  5
17F
330
1F
100
AcDbEntity
  8
1
  6
Continuous
 62
     7
100
AcDbLine
 10
158.65451368525
 20
132.5272077039501
 30
0.0
 11
158.40451368525
 21
132.2772077039501
 31
0.0
  0
LINE
  5
180
330
1F
100
AcDbEntity
  8
1
  6
Continuous
 62
     7
100
AcDbLine
 10
158.65451368525
 20
134.0272077039501
 30
0.0
 11
158.90451368525
 21
133.7772077039501
 31
0.0
  0
LINE
  5
181
330
1F
100
AcDbEntity
  8
1
  6
Continuous
 62
     7
100
AcDbLine
 10
157.15451368525
 20
134.0272077039501
 30
0.0
 11
157.40451368525
 21
134.2772077039501
 31
0.0
  0
LINE
  5
182
330
1F
100
AcDbEntity
  8
1
  6
Continuous
 62
     2
100
AcDbLine
 10
159.4955039429197
 20
131.6862174462803
 30
0.0
 11
158.65451368525
 21
132.5272077039501
 31
0.0
  0
LINE
  5
183
330
1F
100
AcDbEntity
  8
1
  6
Continuous
 62
     7
100
AcDbLine
 10
158.90451368525
 20
132.7772077039501
 30
0.0
 11
158.65451368525
 21
132.5272077039501
 31
0.0
  0
LINE
  5
184
330
1F
100
AcDbEntity
  8
1
  6
Continuous
 62
     2
100
AcDbLine
 10
156.3135234275803
 20
131.6862174462803
 30
0.0
 11
157.15451368525
 21
132.5272077039501
 31
0.0
  0
LINE
  5
185
330
1F
100
AcDbEntity
  8
1
  6
Continuous
 62
     7
100
AcDbLine
 10
156.90451368525
 20
132.7772077039501
 30
0.0
 11
157.15451368525
 21
132.5272077039501
 31
0.0
  0
LINE
  5
186
330
1F
100
AcDbEntity
  8
1
  6
Continuous
 62
     2
100
AcDbLine
 10
156.3135234275803
 20
134.8681979616198
 30
0.0
 11
157.15451368525
 21
134.0272077039501
 31
0.0
  0
LINE
  5
187
330
1F
100
AcDbEntity
  8
1
  6
Continuous
 62
     7
100
AcDbLine
 10
156.90451368525
 20
133.7772077039501
 30
0.0
 11
157.15451368525
 21
134.0272077039501
 31
0.0
  0
LINE
  5
188
330
1F
100
AcDbEntity
  8
1
  6
Continuous
 62
     2
100
AcDbLine
 10
159.4955039429197
 20
134.8681979616198
 30
0.0
 11
158.65451368525
 21
134.0272077039501
 31
0.0
  0
LINE
  5
189
330
1F
100
AcDbEntity
  8
1
  6
Continuous
 62
     7
100
AcDbLine
 10
158.40451368525
 20
134.2772077039501
 30
0.0
 11
158.65451368525
 21
134.0272077039501
 31
0.0
  0
ARC
  5
18A
330
1F
100
AcDbEntity
  8
0
  6
Continuous
 62
     7
100
AcDbCircle
 10
166.5050252415276
 20
227.8096720738264
 30
0.0
 40
9.999999999923284
100
AcDbArc
 50
-0.00025737422504
 51
69.51242751087402
  0
ARC
  5
18B
330
1F
100
AcDbEntity
  8
0
  6
Continuous
 62
     7
100
AcDbCircle
 10
166.50492808405
 20
227.76202913325
 30
0.0
 40
10.00000000000001
100
AcDbArc
 50
69.5929503986989
 51
82.53015031010068
  0
ARC
  5
18C
330
1F
100
AcDbEntity
  8
ABDECKPLATTEN
  6
Continuous
 62
     7
100
AcDbCircle
 10
157.90508866355
 20
261.27720770265
 30
0.0
 40
9.899999999799897
100
AcDbArc
 50
89.9997426264903
 51
179.9997426262008
  0
ARC
  5
18D
330
1F
100
AcDbEntity
  8
A_RUNDUNGEN
  6
Continuous
 62
     7
100
AcDbCircle
 10
150.00495263405
 20
233.22724318995
 30
0.0
 40
2.000000000000151
100
AcDbArc
 50
-111.5452594883023
 51
-90.0002573726417
  0
ARC
  5
18E
330
1F
100
AcDbEntity
  8
ABDECKPLATTEN
  6
Continuous
 62
     7
100
AcDbCircle
 10
148.50495659855
 20
231.87724992795
 30
0.0
 40
0.5000000000050445
100
AcDbArc
 50
179.9997426273575
 51
-90.00025737264251
  0
ARC
  5
18F
330
1F
100
AcDbEntity
  8
ABDECKPLATTEN
  6
Continuous
 62
     7
100
AcDbCircle
 10
167.30495659795
 20
231.87716547805
 30
0.0
 40
0.5000000000050445
100
AcDbArc
 50
-90.00025737264251
 51
-0.00025737263931
  0
ARC
  5
190
330
1F
100
AcDbEntity
  8
0
  6
Continuous
 62
     7
100
AcDbCircle
 10
206.01878692585
 20
273.17699157525
 30
0.0
 40
12.94999999973064
100
AcDbArc
 50
-0.00025737352628
 51
18.01366046589972
  0
ARC
  5
191
330
1F
100
AcDbEntity
  8
0
  6
Continuous
 62
     7
100
AcDbCircle
 10
206.01875349705
 20
273.17699157535
 30
0.0
 40
12.95000000000001
100
AcDbArc
 50
18.86701892350013
 51
25.69744233349976
  0
ARC
  5
192
330
1F
100
AcDbEntity
  8
0
  6
Continuous
 62
     7
100
AcDbCircle
 10
206.01875349705
 20
273.17699157535
 30
0.0
 40
12.94999999999975
100
AcDbArc
 50
154.2961204509995
 51
179.9997426263983
  0
ARC
  5
193
330
1F
100
AcDbEntity
  8
ABDECKPLATTEN
  6
Continuous
 62
     7
100
AcDbCircle
 10
206.01879740375
 20
273.27699157515
 30
0.0
 40
12.89999999973014
100
AcDbArc
 50
89.99986140750727
 51
179.9997426260259
  0
ARC
  5
194
330
1F
100
AcDbEntity
  8
ABDECKPLATTEN
  6
Continuous
 62
     7
100
AcDbCircle
 10
193.61857379575
 20
226.17704727675
 30
0.0
 40
0.5000000000050445
100
AcDbArc
 50
179.9997426273575
 51
-90.00025738410024
  0
ARC
  5
195
330
1F
100
AcDbEntity
  8
ABDECKPLATTEN
  6
Continuous
 62
     7
100
AcDbCircle
 10
218.41857379495
 20
226.17693587465
 30
0.0
 40
0.500000000005045
100
AcDbArc
 50
-90.00025738410024
 51
-0.00025737264256
  0
ARC
  5
196
330
1F
100
AcDbEntity
  8
0
  6
Continuous
 62
     7
100
AcDbCircle
 10
166.5046961338345
 20
154.5446660694835
 30
0.0
 40
9.999999999916396
100
AcDbArc
 50
-69.5129422580619
 51
-0.00025737283353
  0
ARC
  5
197
330
1F
100
AcDbEntity
  8
0
  6
Continuous
 62
     7
100
AcDbCircle
 10
166.50459940435
 20
154.59230901095
 30
0.0
 40
10.00000000000028
100
AcDbArc
 50
-82.53066505739946
 51
-69.59346514600058
  0
ARC
  5
198
330
1F
100
AcDbEntity
  8
ZUBEHOER
  6
Continuous
 62
     7
100
AcDbCircle
 10
157.90445888265
 20
121.07720770415
 30
0.0
 40
9.899999999799881
100
AcDbArc
 50
-90.00025737133532
 51
-0.00025737379904
  0
ARC
  5
199
330
1F
100
AcDbEntity
  8
A_RUNDUNGEN
  6
Continuous
 62
     7
100
AcDbCircle
 10
150.00457485535
 20
149.12724319085
 30
0.0
 40
1.999999999920163
100
AcDbArc
 50
89.99974262449386
 51
111.5447447410044
  0
ARC
  5
19A
330
1F
100
AcDbEntity
  8
ZUBEHOER
  6
Continuous
 62
     7
100
AcDbCircle
 10
167.30459094765
 20
150.47716547885
 30
0.0
 40
0.5000000000050445
100
AcDbArc
 50
-0.00025737264251
 51
89.99974262736075
  0
ARC
  5
19B
330
1F
100
AcDbEntity
  8
ZUBEHOER
  6
Continuous
 62
     7
100
AcDbCircle
 10
148.50459094825
 20
150.47724992875
 30
0.0
 40
0.500000000005045
100
AcDbArc
 50
89.99974261589975
 51
179.9997426273607
  0
ARC
  5
19C
330
1F
100
AcDbEntity
  8
0
  6
Continuous
 62
     7
100
AcDbCircle
 10
206.0180502351346
 20
109.1769915756856
 30
0.0
 40
12.94999999981525
100
AcDbArc
 50
179.9997426208793
 51
-161.9853047775499
  0
ARC
  5
19D
330
1F
100
AcDbEntity
  8
0
  6
Continuous
 62
     7
100
AcDbCircle
 10
206.01801680615
 20
109.17699157705
 30
0.0
 40
12.94999999999993
100
AcDbArc
 50
-161.1340966087994
 51
-154.2966351983022
  0
ARC
  5
19E
330
1F
100
AcDbEntity
  8
0
  6
Continuous
 62
     7
100
AcDbCircle
 10
206.01801680615
 20
109.17699157705
 30
0.0
 40
12.95000000000004
100
AcDbArc
 50
-25.69795708079797
 51
-0.00025737360166
  0
ARC
  5
19F
330
1F
100
AcDbEntity
  8
ZUBEHOER
  6
Continuous
 62
     7
100
AcDbCircle
 10
206.01805981445
 20
109.07699157685
 30
0.0
 40
12.89999999973016
100
AcDbArc
 50
-90.0
 51
-0.00025737352989
  0
ARC
  5
1A0
330
1F
100
AcDbEntity
  8
ZUBEHOER
  6
Continuous
 62
     7
100
AcDbCircle
 10
218.41825935365
 20
156.17693587545
 30
0.0
 40
0.500000000005045
100
AcDbArc
 50
-0.00025738410024
 51
89.99974262735743
  0
ARC
  5
1A1
330
1F
100
AcDbEntity
  8
ZUBEHOER
  6
Continuous
 62
     7
100
AcDbCircle
 10
193.61825935445
 20
156.17704727745
 30
0.0
 40
0.5000000000050445
100
AcDbArc
 50
89.99974262735749
 51
179.9997426273575
  0
ARC
  5
1A2
330
1F
100
AcDbEntity
  8
A_ACHSEN
  6
DASHED
 62
     2
100
AcDbCircle
 10
210.66870657085
 20
256.7769706875501
 30
0.0
 40
5.099999999951376
100
AcDbArc
 50
-0.00025737376518
 51
179.9997426262348
  0
ARC
  5
1A3
330
1F
100
AcDbEntity
  8
A_ACHSEN
  6
DASHED
 62
     2
100
AcDbCircle
 10
210.66867872035
 20
250.5769706876501
 30
0.0
 40
5.099999999851445
100
AcDbArc
 50
179.9997426273584
 51
-0.00025737376487
  0
ARC
  5
1A4
330
1F
100
AcDbEntity
  8
A_ACHSEN
  6
DASHED
 62
     2
100
AcDbCircle
 10
210.66861186265
 20
250.57697068795
 30
0.0
 40
2.599999999999596
100
AcDbArc
 50
-179.999999993391
 51
-0.00000000660898
  0
ARC
  5
1A5
330
1F
100
AcDbEntity
  8
A_ACHSEN
  6
DASHED
 62
     2
100
AcDbCircle
 10
210.66863971315
 20
256.77697068785
 30
0.0
 40
2.600000000000421
100
AcDbArc
 50
-0.00000000660898
 51
-179.999999993391
  0
ARC
  5
1A6
330
1F
100
AcDbEntity
  8
0
  6
DASHED
 62
     2
100
AcDbCircle
 10
210.66814506865
 20
131.77697068885
 30
0.0
 40
5.099999999951461
100
AcDbArc
 50
-0.00025737376391
 51
179.9997426273575
  0
ARC
  5
1A7
330
1F
100
AcDbEntity
  8
A_ACHSEN
  6
DASHED
 62
     2
100
AcDbCircle
 10
210.6680782109499
 20
131.77697068915
 30
0.0
 40
2.60000000000062
100
AcDbArc
 50
0.00000000220592
 51
179.9999999977941
  0
ARC
  5
1A8
330
1F
100
AcDbEntity
  8
0
  6
DASHED
 62
     2
100
AcDbCircle
 10
210.66811721815
 20
125.5769706888501
 30
0.0
 40
5.099999999851446
100
AcDbArc
 50
179.999742626235
 51
-0.00025737376614
  0
ARC
  5
1A9
330
1F
100
AcDbEntity
  8
A_ACHSEN
  6
DASHED
 62
     2
100
AcDbCircle
 10
210.66805036045
 20
125.5769706891501
 30
0.0
 40
2.59999999999971
100
AcDbArc
 50
179.9999999955926
 51
0.00000000440745
  0
ARC
  5
1AA
330
1F
100
AcDbEntity
  8
ABDECKPLATTEN
  6
Continuous
 62
     7
100
AcDbCircle
 10
206.01879740375
 20
273.27699157515
 30
0.0
 40
12.89999999963016
100
AcDbArc
 50
-0.00025737352996
 51
89.99986140750727
  0
ARC
  5
1AB
330
1F
100
AcDbEntity
  8
ZUBEHOER
  6
Continuous
 62
     7
100
AcDbCircle
 10
206.01805981445
 20
109.07699157685
 30
0.0
 40
12.89999999973015
100
AcDbArc
 50
179.9997426264702
 51
-90.0
  0
ARC
  5
1AC
330
1F
100
AcDbEntity
  8
ABDECKPLATTEN
  6
Continuous
 62
     7
100
AcDbCircle
 10
157.90508866355
 20
261.27720770265
 30
0.0
 40
9.899999999799869
100
AcDbArc
 50
-0.0002573732202
 51
89.9997426264903
  0
ARC
  5
1AD
330
1F
100
AcDbEntity
  8
ZUBEHOER
  6
Continuous
 62
     7
100
AcDbCircle
 10
157.90445888265
 20
121.07720770415
 30
0.0
 40
9.899999999799897
100
AcDbArc
 50
179.9997426267796
 51
-90.00025737133532
  0
CIRCLE
  5
1AE
330
1F
100
AcDbEntity
  8
A_ACHSEN
  6
DASHED
 62
     2
100
AcDbCircle
 10
153.15509270655
 20
262.17722903975
 30
0.0
 40
4.5
  0
CIRCLE
  5
1AF
330
1F
100
AcDbEntity
  8
A_ACHSEN
  6
DASHED
 62
     2
100
AcDbCircle
 10
162.65506575415
 20
256.17718636565
 30
0.0
 40
4.500000000000028
  0
CIRCLE
  5
1B0
330
1F
100
AcDbEntity
  8
A_ACHSEN
  6
DASHED
 62
     2
100
AcDbCircle
 10
162.65504569685
 20
256.1771863657501
 30
0.0
 40
2.500000000000028
  0
CIRCLE
  5
1B1
330
1F
100
AcDbEntity
  8
A_ACHSEN
  6
DASHED
 62
     2
100
AcDbCircle
 10
153.15507264925
 20
262.17722903985
 30
0.0
 40
2.5
  0
CIRCLE
  5
1B2
330
1F
100
AcDbEntity
  8
A_ACHSEN
  6
DASHED
 62
     2
100
AcDbCircle
 10
199.51880593875
 20
275.17702077325
 30
0.0
 40
5.25
  0
CIRCLE
  5
1B3
330
1F
100
AcDbEntity
  8
A_ACHSEN
  6
DASHED
 62
     2
100
AcDbCircle
 10
199.51878253855
 20
275.17702077335
 30
0.0
 40
2.75
  0
CIRCLE
  5
1B4
330
1F
100
AcDbEntity
  8
A_ACHSEN
  6
DASHED
 62
     2
100
AcDbCircle
 10
212.5188059383499
 20
275.1769623770501
 30
0.0
 40
5.25
  0
CIRCLE
  5
1B5
330
1F
100
AcDbEntity
  8
A_ACHSEN
  6
DASHED
 62
     2
100
AcDbCircle
 10
212.5187825381499
 20
275.1769623771501
 30
0.0
 40
2.75
  0
CIRCLE
  5
1B6
330
1F
100
AcDbEntity
  8
A_ACHSEN
  6
DASHED
 62
     2
100
AcDbCircle
 10
153.15445484005
 20
120.17722904115
 30
0.0
 40
4.5
  0
CIRCLE
  5
1B7
330
1F
100
AcDbEntity
  8
A_ACHSEN
  6
DASHED
 62
     2
100
AcDbCircle
 10
162.65448179185
 20
126.17718636695
 30
0.0
 40
4.5
  0
CIRCLE
  5
1B8
330
1F
100
AcDbEntity
  8
A_ACHSEN
  6
DASHED
 62
     2
100
AcDbCircle
 10
162.65446173455
 20
126.1771863670501
 30
0.0
 40
2.5
  0
CIRCLE
  5
1B9
330
1F
100
AcDbEntity
  8
A_ACHSEN
  6
DASHED
 62
     2
100
AcDbCircle
 10
153.15443478275
 20
120.1772290412501
 30
0.0
 40
2.5
  0
CIRCLE
  5
1BA
330
1F
100
AcDbEntity
  8
A_ACHSEN
  6
DASHED
 62
     2
100
AcDbCircle
 10
199.5180512798499
 20
107.17702077495
 30
0.0
 40
5.25
  0
CIRCLE
  5
1BB
330
1F
100
AcDbEntity
  8
A_ACHSEN
  6
DASHED
 62
     2
100
AcDbCircle
 10
199.51802787965
 20
107.17702077505
 30
0.0
 40
2.75
  0
CIRCLE
  5
1BC
330
1F
100
AcDbEntity
  8
A_ACHSEN
  6
DASHED
 62
     2
100
AcDbCircle
 10
212.51805127945
 20
107.17696237875
 30
0.0
 40
5.25
  0
CIRCLE
  5
1BD
330
1F
100
AcDbEntity
  8
A_ACHSEN
  6
DASHED
 62
     2
100
AcDbCircle
 10
212.51802787925
 20
107.1769623788501
 30
0.0
 40
2.75
  0
CIRCLE
  5
1BE
330
1F
100
AcDbEntity
  8
1
  6
Continuous
 62
     7
100
AcDbCircle
 10
157.90503386095
 20
249.07720770285
 30
0.0
 40
3.999999999999915
  0
CIRCLE
  5
1BF
330
1F
100
AcDbEntity
  8
1
  6
Continuous
 62
     7
100
AcDbCircle
 10
206.01876895775
 20
269.17699157525
 30
0.0
 40
4.0
  0
CIRCLE
  5
1C0
330
1F
100
AcDbEntity
  8
1
  6
Continuous
 62
     7
100
AcDbCircle
 10
206.01806820305
 20
113.17699157685
 30
0.0
 40
3.999999999999901
  0
CIRCLE
  5
1C1
330
1F
100
AcDbEntity
  8
1
  6
Continuous
 62
     7
100
AcDbCircle
 10
157.90451368525
 20
133.27720770395
 30
0.0
 40
4.0
  0
XLINE
  5
1C2
330
1F
100
AcDbEntity
  8
1
  6
DOT_CENTER
 62
     3
 60
     1
100
AcDbXline
 10
213.2686397131504
 20
250.5769706876501
 30
0.0
 11
-1.0
 21
0.0
 31
0.0
  0
XLINE
  5
1C3
330
1F
100
AcDbEntity
  8
1
  6
DOT_CENTER
 62
     3
 60
     1
100
AcDbXline
 10
208.0680782109494
 20
125.5769706893501
 30
0.0
 11
-1.0
 21
0.0
 31
0.0
  0
XLINE
  5
1C4
330
1F
100
AcDbEntity
  8
1
  6
DOT_CENTER
 62
     3
 60
     1
100
AcDbXline
 10
208.0686397131496
 20
250.5769706876501
 30
0.0
 11
-1.0
 21
0.0
 31
0.0
  0
MTEXT
  5
1C6
330
1F
100
AcDbEntity
  8
1
 62
     2
100
AcDbMText
 10
142.009077324637
 20
194.901935311856
 30
0.0
 40
2.5
 41
0.0
 71
     5
 72
     1
  1
BBL
  7
CONVERTER_11
 73
     1
 44
1.32052821128451
  0
DIMENSION
  5
1D1
330
1F
100
AcDbEntity
  8
1
100
AcDbDimension
  2
*D1
 10
148.00445888295
 20
96.1015436800156
 30
0.0
 11
157.90508866355
 21
99.8515436800156
 31
0.0
 70
    32
  1
20
 71
     5
 42
-1.0
 53
0.00013888888889
  3
ME10_DIM_10
100
AcDbAlignedDimension
 13
167.80445888235
 23
121.07716323315
 33
0.0
 14
148.00445888295
 24
121.07725217505
 34
0.0
100
AcDbRotatedDimension
  0
DIMENSION
  5
1DC
330
1F
100
AcDbEntity
  8
1
100
AcDbDimension
  2
*D2
 10
148.00445888295
 20
86.1979481973223
 30
0.0
 11
161.987455523418
 21
89.9479481973223
 31
0.0
 70
    32
  1
<>
 71
     5
 42
-1.0
 53
0.00013888888889
  3
ME10_DIM_11
100
AcDbAlignedDimension
 13
176.50469613365
 23
154.54462114945
 33
0.0
 14
148.00445888295
 24
121.07725217505
 34
0.0
100
AcDbRotatedDimension
  0
DIMENSION
  5
1E7
330
1F
100
AcDbEntity
  8
1
100
AcDbDimension
  2
*D3
 10
176.50469613365
 20
86.1979481973223
 30
0.0
 11
184.910396892136
 21
89.9479481973223
 31
0.0
 70
    32
  1
<>
 71
     5
 42
-1.0
 53
0.00013888888889
  3
ME10_DIM_12
100
AcDbAlignedDimension
 13
193.06820598835
 23
146.82704974815
 33
0.0
 14
176.50469613365
 24
154.54462114945
 34
0.0
100
AcDbRotatedDimension
  0
DIMENSION
  5
1F2
330
1F
100
AcDbEntity
  8
1
100
AcDbDimension
  2
*D4
 10
193.0680502354517
 20
86.1979481973223
 30
0.0
 11
206.01805981445
 21
89.9479481973223
 31
0.0
 70
    32
  1
26
 71
     5
 42
-1.0
 53
0.00013888888889
  3
ME10_DIM_13
100
AcDbAlignedDimension
 13
218.91805981405
 23
109.07693362985
 33
0.0
 14
193.06805023545
 24
109.17704974855
 34
0.0
100
AcDbRotatedDimension
  0
DIMENSION
  5
1FD
330
1F
100
AcDbEntity
  8
1
100
AcDbDimension
  2
*D5
 10
128.30282934636
 20
271.17720770235
 30
0.0
 11
124.55282934636
 21
192.4006541875
 31
0.0
 70
    32
  1
<>
 71
     5
 42
-1.0
 53
90.0
  3
ME10_DIM_14
100
AcDbAlignedDimension
 13
157.9044144120757
 23
111.17720770445
 33
0.0
 14
157.9051331345
 24
271.17720770235
 34
0.0
 50
90.0
100
AcDbRotatedDimension
  0
DIMENSION
  5
208
330
1F
100
AcDbEntity
  8
1
100
AcDbDimension
  2
*D6
 10
229.428932328493
 20
286.1769915748424
 30
0.0
 11
225.678932328493
 21
194.046866397603
 31
0.0
 70
    32
  1
<>
 71
     5
 42
-1.0
 53
90.0
  3
ME10_DIM_15
100
AcDbAlignedDimension
 13
206.01805981445
 23
96.17699157711985
 33
0.0
 14
206.0188286074996
 24
286.1769915748424
 34
0.0
 50
90.0
100
AcDbRotatedDimension
  0
ENDSEC
  0
SECTION
  2
OBJECTS
  0
DICTIONARY
  5
C
330
0
100
AcDbDictionary
281
     1
  3
ACAD_GROUP
350
D
  3
ACAD_LAYOUT
350
1A
  3
ACAD_MLINESTYLE
350
17
  3
ACAD_PLOTSETTINGS
350
19
  3
ACAD_PLOTSTYLENAME
350
E
  0
DICTIONARY
  5
D
102
{ACAD_REACTORS
330
C
102
}
330
C
100
AcDbDictionary
281
     1
  0
DICTIONARY
  5
1A
102
{ACAD_REACTORS
330
C
102
}
330
C
100
AcDbDictionary
281
     1
  3
Layout1
350
1E
  3
Layout2
350
26
  3
Model
350
22
  0
DICTIONARY
  5
17
102
{ACAD_REACTORS
330
C
102
}
330
C
100
AcDbDictionary
281
     1
  3
Standard
350
18
  0
DICTIONARY
  5
19
102
{ACAD_REACTORS
330
C
102
}
330
C
100
AcDbDictionary
281
     1
  0
ACDBDICTIONARYWDFLT
  5
E
102
{ACAD_REACTORS
330
C
102
}
330
C
100
AcDbDictionary
281
     1
  3
Normal
350
F
100
AcDbDictionaryWithDefault
340
F
  0
LAYOUT
  5
1E
102
{ACAD_REACTORS
330
1A
102
}
330
1A
100
AcDbPlotSettings
  1

  2

  4

  6

 40
0.0
 41
0.0
 42
0.0
 43
0.0
 44
0.0
 45
0.0
 46
0.0
 47
0.0
 48
0.0
 49
0.0
140
0.0
141
0.0
142
1.0
143
1.0
 70
   688
 72
     0
 73
     0
 74
     5
  7

 75
    16
 76
     0
 77
     2
 78
   300
147
1.0
148
0.0
149
0.0
100
AcDbLayout
  1
Layout1
 70
     1
 71
     1
 10
0.0
 20
0.0
 11
0.0
 21
0.0
 12
0.0
 22
0.0
 32
0.0
 14
0.0
 24
0.0
 34
0.0
 15
0.0
 25
0.0
 35
0.0
146
0.0
 13
0.0
 23
0.0
 33
0.0
 16
1.0
 26
0.0
 36
0.0
 17
0.0
 27
1.0
 37
0.0
 76
     0
330
1B
  0
LAYOUT
  5
26
102
{ACAD_REACTORS
330
1A
102
}
330
1A
100
AcDbPlotSettings
  1

  2

  4

  6

 40
0.0
 41
0.0
 42
0.0
 43
0.0
 44
0.0
 45
0.0
 46
0.0
 47
0.0
 48
0.0
 49
0.0
140
0.0
141
0.0
142
1.0
143
1.0
 70
   688
 72
     0
 73
     0
 74
     5
  7

 75
    16
 76
     0
 77
     2
 78
   300
147
1.0
148
0.0
149
0.0
100
AcDbLayout
  1
Layout2
 70
     1
 71
     2
 10
0.0
 20
0.0
 11
0.0
 21
0.0
 12
0.0
 22
0.0
 32
0.0
 14
0.0
 24
0.0
 34
0.0
 15
0.0
 25
0.0
 35
0.0
146
0.0
 13
0.0
 23
0.0
 33
0.0
 16
1.0
 26
0.0
 36
0.0
 17
0.0
 27
1.0
 37
0.0
 76
     0
330
23
  0
LAYOUT
  5
22
102
{ACAD_REACTORS
330
1A
102
}
330
1A
100
AcDbPlotSettings
  1

  2

  4

  6

 40
0.0
 41
0.0
 42
0.0
 43
0.0
 44
0.0
 45
0.0
 46
0.0
 47
0.0
 48
0.0
 49
0.0
140
0.0
141
0.0
142
1.0
143
1.0
 70
  1712
 72
     0
 73
     0
 74
     0
  7

 75
     0
 76
     0
 77
     2
 78
   300
147
1.0
148
0.0
149
0.0
100
AcDbLayout
  1
Model
 70
     1
 71
     0
 10
0.0
 20
0.0
 11
0.0
 21
0.0
 12
0.0
 22
0.0
 32
0.0
 14
122.80282934636
 24
84.1979481973223
 34
0.0
 15
231.428932328493
 25
286.1769915748802
 35
0.0
146
0.0
 13
0.0
 23
0.0
 33
0.0
 16
1.0
 26
0.0
 36
0.0
 17
0.0
 27
1.0
 37
0.0
 76
     0
330
1F
  0
MLINESTYLE
  5
18
102
{ACAD_REACTORS
330
17
102
}
330
17
100
AcDbMlineStyle
  2
Standard
 70
     0
  3

 62
   256
 51
90.0
 52
90.0
 71
     2
 49
0.5
 62
   256
  6
BYLAYER
 49
-0.5
 62
   256
  6
BYLAYER
  0
ACDBPLACEHOLDER
  5
F
102
{ACAD_REACTORS
330
E
102
}
330
E
  0
ENDSEC
  0
EOF
