  0
SECTION
  2
HEADER
  9
$ACADVER
  1
AC1018
  9
$ACADMAINTVER
 70
     0
  9
$DWGCODEPAGE
  3
ANSI_1252
  9
$INSBASE
 10
0.0
 20
0.0
 30
0.0
  9
$EXTMIN
 10
678.788227939791
 20
133.7391418590762
 30
0.0
  9
$EXTMAX
 10
829.289440800299
 20
232.2561578523417
 30
0.0
  9
$LIMMIN
 10
0.0
 20
0.0
  9
$LIMMAX
 10
12.0
 20
9.0
  9
$ORTHOMODE
 70
     0
  9
$REGENMODE
 70
     1
  9
$FILLMODE
 70
     1
  9
$QTEXTMODE
 70
     0
  9
$MIRRTEXT
 70
     1
  9
$LTSCALE
 40
1.0
  9
$ATTMODE
 70
     1
  9
$TEXTSIZE
 40
0.2
  9
$TRACEWID
 40
0.05
  9
$TEXTSTYLE
  7
Standard
  9
$CLAYER
  8
0
  9
$CELTYPE
  6
ByLayer
  9
$CECOLOR
 62
   256
  9
$CELTSCALE
 40
1.0
  9
$DISPSILH
 70
     0
  9
$DIMSCALE
 40
1.0
  9
$DIMASZ
 40
0.18
  9
$DIMEXO
 40
0.0625
  9
$DIMDLI
 40
0.38
  9
$DIMRND
 40
0.0
  9
$DIMDLE
 40
0.0
  9
$DIMEXE
 40
0.18
  9
$DIMTP
 40
0.0
  9
$DIMTM
 40
0.0
  9
$DIMTXT
 40
0.18
  9
$DIMCEN
 40
0.09
  9
$DIMTSZ
 40
0.0
  9
$DIMTOL
 70
     0
  9
$DIMLIM
 70
     0
  9
$DIMTIH
 70
     1
  9
$DIMTOH
 70
     1
  9
$DIMSE1
 70
     0
  9
$DIMSE2
 70
     0
  9
$DIMTAD
 70
     0
  9
$DIMZIN
 70
     0
  9
$DIMBLK
  1

  9
$DIMASO
 70
     1
  9
$DIMSHO
 70
     1
  9
$DIMPOST
  1

  9
$DIMAPOST
  1

  9
$DIMALT
 70
     0
  9
$DIMALTD
 70
     2
  9
$DIMALTF
 40
25.4
  9
$DIMLFAC
 40
1.0
  9
$DIMTOFL
 70
     0
  9
$DIMTVP
 40
0.0
  9
$DIMTIX
 70
     0
  9
$DIMSOXD
 70
     0
  9
$DIMSAH
 70
     0
  9
$DIMBLK1
  1

  9
$DIMBLK2
  1

  9
$DIMSTYLE
  2
Standard
  9
$DIMCLRD
 70
     0
  9
$DIMCLRE
 70
     0
  9
$DIMCLRT
 70
     0
  9
$DIMTFAC
 40
1.0
  9
$DIMGAP
 40
0.09
  9
$DIMJUST
 70
     0
  9
$DIMSD1
 70
     0
  9
$DIMSD2
 70
     0
  9
$DIMTOLJ
 70
     1
  9
$DIMTZIN
 70
     0
  9
$DIMALTZ
 70
     0
  9
$DIMALTTZ
 70
     0
  9
$DIMUPT
 70
     0
  9
$DIMDEC
 70
     4
  9
$DIMTDEC
 70
     4
  9
$DIMALTU
 70
     2
  9
$DIMALTTD
 70
     2
  9
$DIMTXSTY
  7
Standard
  9
$DIMAUNIT
 70
     0
  9
$DIMADEC
 70
     0
  9
$DIMALTRND
 40
0.0
  9
$DIMAZIN
 70
     0
  9
$DIMDSEP
 70
    46
  9
$DIMATFIT
 70
     3
  9
$DIMFRAC
 70
     0
  9
$DIMLDRBLK
  1

  9
$DIMLUNIT
 70
     2
  9
$DIMLWD
 70
    -2
  9
$DIMLWE
 70
    -2
  9
$DIMTMOVE
 70
     0
  9
$LUNITS
 70
     2
  9
$LUPREC
 70
     4
  9
$SKETCHINC
 40
0.1
  9
$FILLETRAD
 40
0.5
  9
$AUNITS
 70
     0
  9
$AUPREC
 70
     0
  9
$MENU
  1
.
  9
$ELEVATION
 40
0.0
  9
$PELEVATION
 40
0.0
  9
$THICKNESS
 40
0.0
  9
$LIMCHECK
 70
     0
  9
$CHAMFERA
 40
0.5
  9
$CHAMFERB
 40
0.5
  9
$CHAMFERC
 40
1.0
  9
$CHAMFERD
 40
0.0
  9
$SKPOLY
 70
     0
  9
$TDCREATE
 40
2457058.365750857
  9
$TDUCREATE
 40
2457058.32408419
  9
$TDUPDATE
 40
2457058.365750868
  9
$TDUUPDATE
 40
2457058.324084201
  9
$TDINDWG
 40
0.0000000116
  9
$TDUSRTIMER
 40
0.0000000116
  9
$USRTIMER
 70
     1
  9
$ANGBASE
 50
0.0
  9
$ANGDIR
 70
     0
  9
$PDMODE
 70
     0
  9
$PDSIZE
 40
0.0
  9
$PLINEWID
 40
0.0
  9
$SPLFRAME
 70
     0
  9
$SPLINETYPE
 70
     6
  9
$SPLINESEGS
 70
     8
  9
$HANDSEED
  5
220
  9
$SURFTAB1
 70
     6
  9
$SURFTAB2
 70
     6
  9
$SURFTYPE
 70
     6
  9
$SURFU
 70
     6
  9
$SURFV
 70
     6
  9
$UCSBASE
  2

  9
$UCSNAME
  2

  9
$UCSORG
 10
0.0
 20
0.0
 30
0.0
  9
$UCSXDIR
 10
1.0
 20
0.0
 30
0.0
  9
$UCSYDIR
 10
0.0
 20
1.0
 30
0.0
  9
$UCSORTHOREF
  2

  9
$UCSORTHOVIEW
 70
     0
  9
$UCSORGTOP
 10
0.0
 20
0.0
 30
0.0
  9
$UCSORGBOTTOM
 10
0.0
 20
0.0
 30
0.0
  9
$UCSORGLEFT
 10
0.0
 20
0.0
 30
0.0
  9
$UCSORGRIGHT
 10
0.0
 20
0.0
 30
0.0
  9
$UCSORGFRONT
 10
0.0
 20
0.0
 30
0.0
  9
$UCSORGBACK
 10
0.0
 20
0.0
 30
0.0
  9
$PUCSBASE
  2

  9
$PUCSNAME
  2

  9
$PUCSORG
 10
0.0
 20
0.0
 30
0.0
  9
$PUCSXDIR
 10
1.0
 20
0.0
 30
0.0
  9
$PUCSYDIR
 10
0.0
 20
1.0
 30
0.0
  9
$PUCSORTHOREF
  2

  9
$PUCSORTHOVIEW
 70
     0
  9
$PUCSORGTOP
 10
0.0
 20
0.0
 30
0.0
  9
$PUCSORGBOTTOM
 10
0.0
 20
0.0
 30
0.0
  9
$PUCSORGLEFT
 10
0.0
 20
0.0
 30
0.0
  9
$PUCSORGRIGHT
 10
0.0
 20
0.0
 30
0.0
  9
$PUCSORGFRONT
 10
0.0
 20
0.0
 30
0.0
  9
$PUCSORGBACK
 10
0.0
 20
0.0
 30
0.0
  9
$USERI1
 70
     0
  9
$USERI2
 70
     0
  9
$USERI3
 70
     0
  9
$USERI4
 70
     0
  9
$USERI5
 70
     0
  9
$USERR1
 40
14.5
  9
$USERR2
 40
0.0
  9
$USERR3
 40
0.0
  9
$USERR4
 40
0.0
  9
$USERR5
 40
0.0
  9
$WORLDVIEW
 70
     1
  9
$SHADEDGE
 70
     3
  9
$SHADEDIF
 70
    70
  9
$TILEMODE
 70
     1
  9
$MAXACTVP
 70
    64
  9
$PINSBASE
 10
0.0
 20
0.0
 30
0.0
  9
$PLIMCHECK
 70
     0
  9
$PEXTMIN
 10
1.00000000000000E+20
 20
1.00000000000000E+20
 30
1.00000000000000E+20
  9
$PEXTMAX
 10
-1.00000000000000E+20
 20
-1.00000000000000E+20
 30
-1.00000000000000E+20
  9
$PLIMMIN
 10
0.0
 20
0.0
  9
$PLIMMAX
 10
12.0
 20
9.0
  9
$UNITMODE
 70
     0
  9
$VISRETAIN
 70
     1
  9
$PLINEGEN
 70
     0
  9
$PSLTSCALE
 70
     1
  9
$TREEDEPTH
 70
  3020
  9
$CMLSTYLE
  2
Standard
  9
$CMLJUST
 70
     0
  9
$CMLSCALE
 40
1.0
  9
$PROXYGRAPHICS
 70
     1
  9
$MEASUREMENT
 70
     1
  9
$CELWEIGHT
370
    -1
  9
$ENDCAPS
280
     0
  9
$JOINSTYLE
280
     0
  9
$LWDISPLAY
290
     0
  9
$INSUNITS
 70
     1
  9
$HYPERLINKBASE
  1

  9
$STYLESHEET
  1

  9
$XEDIT
290
     1
  9
$CEPSNTYPE
380
     0
  9
$PSTYLEMODE
290
     1
  9
$FINGERPRINTGUID
  2
{9AF52BD9-D991-4049-B583-45E316717FD3}
  9
$VERSIONGUID
  2
{FAEB1C32-E019-11D5-929B-00C0DF256EC4}
  9
$EXTNAMES
290
     1
  9
$PSVPSCALE
 40
0.0
  9
$OLESTARTUP
290
     0
  9
$SORTENTS
280
   127
  9
$INDEXCTL
280
     0
  9
$HIDETEXT
280
     1
  9
$XCLIPFRAME
290
     0
  9
$HALOGAP
280
     0
  9
$OBSCOLOR
 70
   257
  9
$OBSLTYPE
280
     0
  9
$INTERSECTIONDISPLAY
280
     0
  9
$INTERSECTIONCOLOR
 70
   257
  9
$DIMASSOC
280
     2
  9
$PROJECTNAME
  1

  0
ENDSEC
  0
SECTION
  2
CLASSES
  0
CLASS
  1
ACDBDICTIONARYWDFLT
  2
AcDbDictionaryWithDefault
  3
ObjectDBX Classes
 90
        0
 91
        3
280
     0
281
     0
  0
CLASS
  1

  2
exOdDbCircle
  3

 90
        0
 91
        3
280
     0
281
     1
  0
CLASS
  1

  2
exOdDbSpline
  3

 90
        0
 91
        3
280
     0
281
     1
  0
CLASS
  1

  2
exOdDbPolyline
  3

 90
        0
 91
        3
280
     0
281
     1
  0
ENDSEC
  0
SECTION
  2
TABLES
  0
TABLE
  2
VPORT
  5
8
330
0
100
AcDbSymbolTable
 70
     1
  0
VPORT
  5
29
330
8
100
AcDbSymbolTableRecord
100
AcDbViewportTableRecord
  2
*Active
 70
     0
 10
0.0
 20
0.0
 11
1.0
 21
1.0
 12
754.0388343700449
 22
182.9976498557089
 13
0.0
 23
0.0
 14
0.5
 24
0.5
 15
0.5
 25
0.5
 16
0.0
 26
0.0
 36
1.0
 17
0.0
 27
0.0
 37
0.0
 40
108.368717592592
 41
1.60267857142857
 42
50.0
 43
0.0
 44
0.0
 50
0.0
 51
0.0
 71
     0
 72
   100
 73
     1
 74
     3
 75
     0
 76
     0
 77
     0
 78
     0
281
     0
 65
     1
110
0.0
120
0.0
130
0.0
111
1.0
121
0.0
131
0.0
112
0.0
122
1.0
132
0.0
 79
     0
146
0.0
  0
ENDTAB
  0
TABLE
  2
LTYPE
  5
5
330
0
100
AcDbSymbolTable
 70
    12
  0
LTYPE
  5
14
330
5
100
AcDbSymbolTableRecord
100
AcDbLinetypeTableRecord
  2
ByBlock
 70
     0
  3

 72
    65
 73
     0
 40
0.0
  0
LTYPE
  5
15
330
5
100
AcDbSymbolTableRecord
100
AcDbLinetypeTableRecord
  2
ByLayer
 70
     0
  3

 72
    65
 73
     0
 40
0.0
  0
LTYPE
  5
16
330
5
100
AcDbSymbolTableRecord
100
AcDbLinetypeTableRecord
  2
Continuous
 70
     0
  3
Solid line
 72
    65
 73
     0
 40
0.0
  0
LTYPE
  5
2A
330
5
100
AcDbSymbolTableRecord
100
AcDbLinetypeTableRecord
  2
DASHED
 70
     0
  3
Dashed
 72
    65
 73
     2
 40
15.0
 49
7.0
 74
     0
 49
-8.0
 74
     0
  0
LTYPE
  5
2B
330
5
100
AcDbSymbolTableRecord
100
AcDbLinetypeTableRecord
  2
DOTTED
 70
     0
  3
Dotted
 72
    65
 73
     2
 40
1.0
 49
0.0
 74
     0
 49
-1.0
 74
     0
  0
LTYPE
  5
2C
330
5
100
AcDbSymbolTableRecord
100
AcDbLinetypeTableRecord
  2
DOT_CENTER
 70
     0
  3
Dot_Center
 72
    65
 73
     4
 40
14.0
 49
12.0
 74
     0
 49
-1.0
 74
     0
 49
0.0
 74
     0
 49
-1.0
 74
     0
  0
LTYPE
  5
2D
330
5
100
AcDbSymbolTableRecord
100
AcDbLinetypeTableRecord
  2
LONG_DASHED
 70
     0
  3
Long_Dashed
 72
    65
 73
     2
 40
15.0
 49
10.0
 74
     0
 49
-5.0
 74
     0
  0
LTYPE
  5
2E
330
5
100
AcDbSymbolTableRecord
100
AcDbLinetypeTableRecord
  2
DASH_CENTER
 70
     0
  3
Dash_Center
 72
    65
 73
     4
 40
14.0
 49
11.0
 74
     0
 49
-1.0
 74
     0
 49
1.0
 74
     0
 49
-1.0
 74
     0
  0
LTYPE
  5
2F
330
5
100
AcDbSymbolTableRecord
100
AcDbLinetypeTableRecord
  2
PHANTOM
 70
     0
  3
Phantom
 72
    65
 73
     6
 40
13.0
 49
10.0
 74
     0
 49
-1.0
 74
     0
 49
0.0
 74
     0
 49
-1.0
 74
     0
 49
0.0
 74
     0
 49
-1.0
 74
     0
  0
LTYPE
  5
30
330
5
100
AcDbSymbolTableRecord
100
AcDbLinetypeTableRecord
  2
CENTER_DASH_DASH
 70
     0
  3
Center_Dash_Dash
 72
    65
 73
     6
 40
14.0
 49
9.0
 74
     0
 49
-1.0
 74
     0
 49
1.0
 74
     0
 49
-1.0
 74
     0
 49
1.0
 74
     0
 49
-1.0
 74
     0
  0
LTYPE
  5
31
330
5
100
AcDbSymbolTableRecord
100
AcDbLinetypeTableRecord
  2
HIDDEN
 70
     0
  3
HIDDEN
 72
    65
 73
     2
 40
4.0
 49
2.0
 74
     0
 49
-2.0
 74
     0
  0
LTYPE
  5
32
330
5
100
AcDbSymbolTableRecord
100
AcDbLinetypeTableRecord
  2
CENTER
 70
     0
  3
CENTER
 72
    65
 73
     4
 40
14.0
 49
8.0
 74
     0
 49
-2.0
 74
     0
 49
2.0
 74
     0
 49
-2.0
 74
     0
  0
LTYPE
  5
33
330
5
100
AcDbSymbolTableRecord
100
AcDbLinetypeTableRecord
  2
CENTER_1
 70
     0
  3
CENTER_1
 72
    65
 73
     4
 40
15.0
 49
9.0
 74
     0
 49
-2.0
 74
     0
 49
2.0
 74
     0
 49
-2.0
 74
     0
  0
LTYPE
  5
34
330
5
100
AcDbSymbolTableRecord
100
AcDbLinetypeTableRecord
  2
CENTER_3
 70
     0
  3
CENTER_3
 72
    65
 73
     4
 40
15.0
 49
9.0
 74
     0
 49
-2.0
 74
     0
 49
2.0
 74
     0
 49
-2.0
 74
     0
  0
ENDTAB
  0
TABLE
  2
LAYER
  5
2
330
0
100
AcDbSymbolTable
 70
     7
  0
LAYER
  5
10
330
2
100
AcDbSymbolTableRecord
100
AcDbLayerTableRecord
  2
0
 70
     0
 62
     7
  6
Continuous
370
    -3
390
F
  0
LAYER
  5
35
330
2
100
AcDbSymbolTableRecord
100
AcDbLayerTableRecord
  2
1
 70
     0
 62
     7
  6
Continuous
370
    -3
390
F
  0
LAYER
  5
36
330
2
100
AcDbSymbolTableRecord
100
AcDbLayerTableRecord
  2
A_ACHSEN
 70
     0
 62
     7
  6
Continuous
370
    -3
390
F
  0
LAYER
  5
37
330
2
100
AcDbSymbolTableRecord
100
AcDbLayerTableRecord
  2
A_BEMASSUNGEN
 70
     0
 62
     7
  6
Continuous
370
    -3
390
F
  0
LAYER
  5
38
330
2
100
AcDbSymbolTableRecord
100
AcDbLayerTableRecord
  2
A_RUNDUNGEN
 70
     0
 62
     7
  6
Continuous
370
    -3
390
F
  0
LAYER
  5
39
330
2
100
AcDbSymbolTableRecord
100
AcDbLayerTableRecord
  2
DEFAULT_1
 70
     0
 62
     7
  6
Continuous
370
    -3
390
F
  0
LAYER
  5
3A
330
2
100
AcDbSymbolTableRecord
100
AcDbLayerTableRecord
  2
DEFAULT_2
 70
     0
 62
     7
  6
Continuous
370
    -3
390
F
  0
ENDTAB
  0
TABLE
  2
STYLE
  5
3
330
0
100
AcDbSymbolTable
 70
     2
  0
STYLE
  5
11
330
3
100
AcDbSymbolTableRecord
100
AcDbTextStyleTableRecord
  2
Standard
 70
     0
 40
0.0
 41
1.0
 50
0.0
 71
     0
 42
0.2
  3
txt
  4

  0
STYLE
  5
1C6
330
3
100
AcDbSymbolTableRecord
100
AcDbTextStyleTableRecord
  2
CONVERTER_11
 70
     0
 40
0.0
 41
0.9
 50
0.0
 71
     0
 42
0.2
  3
txt.shx
  4

  0
ENDTAB
  0
TABLE
  2
VIEW
  5
6
330
0
100
AcDbSymbolTable
 70
     0
  0
ENDTAB
  0
TABLE
  2
UCS
  5
7
330
0
100
AcDbSymbolTable
 70
     0
  0
ENDTAB
  0
TABLE
  2
APPID
  5
9
330
0
100
AcDbSymbolTable
 70
     1
  0
APPID
  5
12
330
9
100
AcDbSymbolTableRecord
100
AcDbRegAppTableRecord
  2
ACAD
 70
     0
  0
ENDTAB
  0
TABLE
  2
DIMSTYLE
  5
A
330
0
100
AcDbSymbolTable
 70
     9
100
AcDbDimStyleTable
  0
DIMSTYLE
105
27
330
A
100
AcDbSymbolTableRecord
100
AcDbDimStyleTableRecord
  2
Standard
 70
     0
340
11
  0
DIMSTYLE
105
1CA
102
{ACAD_REACTORS
330
1CB
102
}
330
A
100
AcDbSymbolTableRecord
100
AcDbDimStyleTableRecord
  2
ME10_DIM_10
 70
     0
 41
3.5
 42
0.0
 44
2.0
 73
     0
 74
     0
 77
     1
 78
     8
140
3.5
147
2.0
172
     1
173
     1
176
     2
177
     2
178
     2
271
     3
340
1C6
  0
DIMSTYLE
105
1D5
102
{ACAD_REACTORS
330
1D6
102
}
330
A
100
AcDbSymbolTableRecord
100
AcDbDimStyleTableRecord
  2
ME10_DIM_11
 70
     0
 41
3.5
 42
0.0
 44
2.0
 73
     0
 74
     0
 77
     1
 78
     8
140
3.5
147
2.0
172
     1
173
     1
176
     2
177
     2
178
     2
271
     3
340
1C6
  0
DIMSTYLE
105
1E0
102
{ACAD_REACTORS
330
1E1
102
}
330
A
100
AcDbSymbolTableRecord
100
AcDbDimStyleTableRecord
  2
ME10_DIM_12
 70
     0
 41
3.5
 42
0.0
 44
2.0
 73
     0
 74
     0
 77
     1
 78
     8
140
3.5
147
2.0
172
     1
173
     1
176
     2
177
     2
178
     2
271
     3
340
1C6
  0
DIMSTYLE
105
1ED
102
{ACAD_REACTORS
330
1EE
102
}
330
A
100
AcDbSymbolTableRecord
100
AcDbDimStyleTableRecord
  2
ME10_DIM_13
 70
     0
 41
3.5
 42
0.0
 44
2.0
 73
     0
 74
     0
 77
     1
 78
     8
140
3.5
147
2.0
172
     1
173
     1
176
     2
177
     2
178
     2
271
     3
340
1C6
  0
DIMSTYLE
105
1F9
102
{ACAD_REACTORS
330
1FA
102
}
330
A
100
AcDbSymbolTableRecord
100
AcDbDimStyleTableRecord
  2
ME10_DIM_14
 70
     0
  3
max.<>
 41
3.5
 42
0.0
 44
2.0
 73
     0
 74
     0
 77
     1
 78
     8
140
3.5
147
2.0
172
     1
173
     1
176
     2
177
     2
178
     2
271
     3
340
1C6
  0
DIMSTYLE
105
208
102
{ACAD_REACTORS
330
209
102
}
330
A
100
AcDbSymbolTableRecord
100
AcDbDimStyleTableRecord
  2
ME10_DIM_15
 70
     0
 41
3.5
 42
0.0
 44
2.0
 73
     0
 74
     0
 77
     1
 78
     8
140
3.5
147
2.0
172
     1
173
     1
176
     2
177
     2
178
     2
271
     3
340
1C6
  0
DIMSTYLE
105
213
102
{ACAD_REACTORS
330
214
102
}
330
A
100
AcDbSymbolTableRecord
100
AcDbDimStyleTableRecord
  2
ME10_DIM_16
 70
     0
 41
3.5
 42
0.0
 44
2.0
 73
     0
 74
     0
 77
     1
 78
     8
140
3.5
147
2.0
172
     1
173
     1
176
     2
177
     2
178
     2
271
     3
340
1C6
  0
DIMSTYLE
105
21E
102
{ACAD_REACTORS
330
21F
102
}
330
A
100
AcDbSymbolTableRecord
100
AcDbDimStyleTableRecord
  2
ME10_DIM_17
 70
     0
 41
3.5
 42
0.0
 44
2.0
 73
     0
 74
     0
 77
     1
 78
     8
140
3.5
147
2.0
172
     1
173
     1
176
     2
177
     2
178
     2
271
     3
340
1C6
  0
ENDTAB
  0
TABLE
  2
BLOCK_RECORD
  5
1
330
0
100
AcDbSymbolTable
 70
     9
  0
BLOCK_RECORD
  5
1F
330
1
100
AcDbSymbolTableRecord
100
AcDbBlockTableRecord
  2
*Model_Space
340
22
  0
BLOCK_RECORD
  5
1B
330
1
100
AcDbSymbolTableRecord
100
AcDbBlockTableRecord
  2
*Paper_Space
340
1E
  0
BLOCK_RECORD
  5
23
330
1
100
AcDbSymbolTableRecord
100
AcDbBlockTableRecord
  2
*Paper_Space0
340
26
  0
BLOCK_RECORD
  5
1BE
330
1
100
AcDbSymbolTableRecord
100
AcDbBlockTableRecord
  2
*D1
340
0
  0
BLOCK_RECORD
  5
1CC
330
1
100
AcDbSymbolTableRecord
100
AcDbBlockTableRecord
  2
*D2
340
0
  0
BLOCK_RECORD
  5
1D7
330
1
100
AcDbSymbolTableRecord
100
AcDbBlockTableRecord
  2
*D3
340
0
  0
BLOCK_RECORD
  5
1E2
330
1
100
AcDbSymbolTableRecord
100
AcDbBlockTableRecord
  2
*D4
340
0
  0
BLOCK_RECORD
  5
1EF
330
1
100
AcDbSymbolTableRecord
100
AcDbBlockTableRecord
  2
*D5
340
0
  0
BLOCK_RECORD
  5
1FB
330
1
100
AcDbSymbolTableRecord
100
AcDbBlockTableRecord
  2
*D6
340
0
  0
BLOCK_RECORD
  5
20A
330
1
100
AcDbSymbolTableRecord
100
AcDbBlockTableRecord
  2
*D7
340
0
  0
BLOCK_RECORD
  5
215
330
1
100
AcDbSymbolTableRecord
100
AcDbBlockTableRecord
  2
*D8
340
0
  0
ENDTAB
  0
ENDSEC
  0
SECTION
  2
BLOCKS
  0
BLOCK
  5
20
330
1F
100
AcDbEntity
  8
0
100
AcDbBlockBegin
  2
*Model_Space
 70
     0
 71
     0
 10
0.0
 20
0.0
 30
0.0
  3
*Model_Space
  1

  0
ENDBLK
  5
21
330
1F
100
AcDbEntity
  8
0
100
AcDbBlockEnd
  0
BLOCK
  5
1C
330
1B
100
AcDbEntity
 67
     1
  8
0
100
AcDbBlockBegin
  2
*Paper_Space
 70
     0
 71
     0
 10
0.0
 20
0.0
 30
0.0
  3
*Paper_Space
  1

  0
ENDBLK
  5
1D
330
1B
100
AcDbEntity
 67
     1
  8
0
100
AcDbBlockEnd
  0
BLOCK
  5
24
330
23
100
AcDbEntity
  8
0
100
AcDbBlockBegin
  2
*Paper_Space0
 70
     0
 71
     0
 10
0.0
 20
0.0
 30
0.0
  3
*Paper_Space0
  1

  0
ENDBLK
  5
25
330
23
100
AcDbEntity
  8
0
100
AcDbBlockEnd
  0
BLOCK
  5
1C8
330
1BE
100
AcDbEntity
  8
0
100
AcDbBlockBegin
  2
*D1
 70
     1
 71
     0
 10
0.0
 20
0.0
 30
0.0
  3
*D1
  1

  0
LINE
  5
1BF
330
1BE
100
AcDbEntity
  8
1
  6
Continuous
 62
     2
100
AcDbLine
 10
758.6175876895143
 20
224.169618247177
 30
0.0
 11
750.8695547965219
 21
224.169618247177
 31
0.0
  0
LINE
  5
1C0
330
1BE
100
AcDbEntity
  8
1
  6
Continuous
 62
     2
100
AcDbLine
 10
762.117588616024
 20
224.169618247177
 30
0.0
 11
758.6175876895143
 21
224.169618247177
 31
0.0
  0
LINE
  5
1C1
330
1BE
100
AcDbEntity
  8
1
  6
Continuous
 62
     2
100
AcDbLine
 10
769.117588616024
 20
224.169618247177
 30
0.0
 11
762.117588616024
 21
224.169618247177
 31
0.0
  0
LINE
  5
1C2
330
1BE
100
AcDbEntity
  8
1
  6
Continuous
 62
     2
100
AcDbLine
 10
758.6175876895143
 20
202.5016241685937
 30
0.0
 11
758.6175876895143
 21
226.169618247177
 31
0.0
  0
LINE
  5
1C3
330
1BE
100
AcDbEntity
  8
1
  6
Continuous
 62
     2
100
AcDbLine
 10
762.117588616024
 20
197.0016200796937
 30
0.0
 11
762.117588616024
 21
226.169618247177
 31
0.0
  0
SOLID
  5
1C4
330
1BE
100
AcDbEntity
  8
1
 62
     2
100
AcDbTrace
 10
765.617588616024
 20
224.6304019887329
 30
0.0
 11
765.617588616024
 21
223.7088345056211
 31
0.0
 12
762.117588616024
 22
224.169618247177
 32
0.0
 13
762.117588616024
 23
224.169618247177
 33
0.0
  0
SOLID
  5
1C5
330
1BE
100
AcDbEntity
  8
1
 62
     2
100
AcDbTrace
 10
755.1175876895143
 20
223.7088345056211
 30
0.0
 11
755.1175876895143
 21
224.6304019887329
 31
0.0
 12
758.6175876895143
 22
224.169618247177
 32
0.0
 13
758.6175876895143
 23
224.169618247177
 33
0.0
  0
MTEXT
  5
1C7
330
1BE
100
AcDbEntity
  8
1
 62
     2
100
AcDbMText
 10
750.8695547965219
 20
226.169618247177
 30
0.0
 40
3.5
 41
0.0
 71
     7
 72
     1
  1
3.5
  7
CONVERTER_11
 11
0.9999999999970621
 21
2.424068405545307E-6
 31
0.0
 73
     1
 44
0.60024009603842
  0
ENDBLK
  5
1C9
330
1BE
100
AcDbEntity
  8
0
100
AcDbBlockEnd
  0
BLOCK
  5
1D3
330
1CC
100
AcDbEntity
  8
0
100
AcDbBlockBegin
  2
*D2
 70
     1
 71
     0
 10
0.0
 20
0.0
 30
0.0
  3
*D2
  1

  0
LINE
  5
1CD
330
1CC
100
AcDbEntity
  8
1
  6
Continuous
 62
     2
100
AcDbLine
 10
827.289440800299
 20
164.9019197853493
 30
0.0
 11
827.289440800299
 21
193.4019197844604
 31
0.0
  0
LINE
  5
1CE
330
1CC
100
AcDbEntity
  8
1
  6
Continuous
 62
     2
100
AcDbLine
 10
794.6174355128143
 20
193.4019197844604
 30
0.0
 11
829.289440800299
 21
193.4019197844604
 31
0.0
  0
LINE
  5
1CF
330
1CC
100
AcDbEntity
  8
1
  6
Continuous
 62
     2
100
AcDbLine
 10
794.6176260571835
 20
164.9019197853493
 30
0.0
 11
829.289440800299
 21
164.9019197853493
 31
0.0
  0
SOLID
  5
1D0
330
1CC
100
AcDbEntity
  8
1
 62
     2
100
AcDbTrace
 10
826.828657058743
 20
168.4019197853493
 30
0.0
 11
827.7502245418549
 21
168.4019197853493
 31
0.0
 12
827.289440800299
 22
164.9019197853493
 32
0.0
 13
827.289440800299
 23
164.9019197853493
 33
0.0
  0
SOLID
  5
1D1
330
1CC
100
AcDbEntity
  8
1
 62
     2
100
AcDbTrace
 10
827.7502245418549
 20
189.9019197844604
 30
0.0
 11
826.828657058743
 21
189.9019197844604
 31
0.0
 12
827.289440800299
 22
193.4019197844604
 32
0.0
 13
827.289440800299
 23
193.4019197844604
 33
0.0
  0
MTEXT
  5
1D2
330
1CC
100
AcDbEntity
  8
1
 62
     2
100
AcDbMText
 10
825.289440800299
 20
175.5772487922949
 30
0.0
 40
3.5
 41
0.0
 71
     7
 72
     1
  1
28.5
  7
CONVERTER_11
 11
0.0
 21
1.0
 31
0.0
 73
     1
 44
0.60024009603842
  0
ENDBLK
  5
1D4
330
1CC
100
AcDbEntity
  8
0
100
AcDbBlockEnd
  0
BLOCK
  5
1DE
330
1D7
100
AcDbEntity
  8
0
100
AcDbBlockBegin
  2
*D3
 70
     1
 71
     0
 10
0.0
 20
0.0
 30
0.0
  3
*D3
  1

  0
LINE
  5
1D8
330
1D7
100
AcDbEntity
  8
1
  6
Continuous
 62
     2
100
AcDbLine
 10
794.1176193698242
 20
140.0835078202721
 30
0.0
 11
749.1176260565243
 21
140.0835078202721
 31
0.0
  0
LINE
  5
1D9
330
1D7
100
AcDbEntity
  8
1
  6
Continuous
 62
     2
100
AcDbLine
 10
794.1176193698242
 20
165.9019164423936
 30
0.0
 11
794.1176193698242
 21
138.0835078202721
 31
0.0
  0
LINE
  5
1DA
330
1D7
100
AcDbEntity
  8
1
  6
Continuous
 62
     2
100
AcDbLine
 10
749.1176260565243
 20
164.9016155827936
 30
0.0
 11
749.1176260565243
 21
138.0835078202721
 31
0.0
  0
SOLID
  5
1DB
330
1D7
100
AcDbEntity
  8
1
 62
     2
100
AcDbTrace
 10
790.6176193698242
 20
139.6227240787162
 30
0.0
 11
790.6176193698242
 21
140.544291561828
 31
0.0
 12
794.1176193698242
 22
140.0835078202721
 32
0.0
 13
794.1176193698242
 23
140.0835078202721
 33
0.0
  0
SOLID
  5
1DC
330
1D7
100
AcDbEntity
  8
1
 62
     2
100
AcDbTrace
 10
752.6176260565243
 20
140.544291561828
 30
0.0
 11
752.6176260565243
 21
139.6227240787162
 31
0.0
 12
749.1176260565243
 22
140.0835078202721
 32
0.0
 13
749.1176260565243
 23
140.0835078202721
 33
0.0
  0
MTEXT
  5
1DD
330
1D7
100
AcDbEntity
  8
1
 62
     2
100
AcDbMText
 10
767.836340078625
 20
142.0835078202721
 30
0.0
 40
3.5
 41
0.0
 71
     7
 72
     1
  1
45
  7
CONVERTER_11
 11
0.9999999999970621
 21
2.424068405545307E-6
 31
0.0
 73
     1
 44
0.60024009603842
  0
ENDBLK
  5
1DF
330
1D7
100
AcDbEntity
  8
0
100
AcDbBlockEnd
  0
BLOCK
  5
1EB
330
1E2
100
AcDbEntity
  8
0
100
AcDbBlockBegin
  2
*D4
 70
     1
 71
     0
 10
0.0
 20
0.0
 30
0.0
  3
*D4
  1

  0
LINE
  5
1E3
330
1E2
100
AcDbEntity
  8
1
  6
Continuous
 62
     2
100
AcDbLine
 10
706.969263403339
 20
157.561698505854
 30
0.0
 11
706.969263403339
 21
164.9017292408936
 31
0.0
  0
LINE
  5
1E4
330
1E2
100
AcDbEntity
  8
1
  6
Continuous
 62
     2
100
AcDbLine
 10
706.969263403339
 20
164.9017292408936
 30
0.0
 11
706.969263403339
 21
171.5019390233938
 31
0.0
  0
LINE
  5
1E5
330
1E2
100
AcDbEntity
  8
1
  6
Continuous
 62
     2
100
AcDbLine
 10
706.969263403339
 20
171.5019390233938
 30
0.0
 11
706.969263403339
 21
178.5019390233938
 31
0.0
  0
LINE
  5
1E6
330
1E2
100
AcDbEntity
  8
1
  6
Continuous
 62
     2
100
AcDbLine
 10
750.1176260565243
 20
164.9017292408936
 30
0.0
 11
704.969263403339
 21
164.9017292408936
 31
0.0
  0
LINE
  5
1E7
330
1E2
100
AcDbEntity
  8
1
  6
Continuous
 62
     2
100
AcDbLine
 10
753.1175825987242
 20
171.5019390233938
 30
0.0
 11
704.969263403339
 21
171.5019390233938
 31
0.0
  0
SOLID
  5
1E8
330
1E2
100
AcDbEntity
  8
1
 62
     2
100
AcDbTrace
 10
707.430047144895
 20
161.4017292408936
 30
0.0
 11
706.5084796617831
 21
161.4017292408936
 31
0.0
 12
706.969263403339
 22
164.9017292408936
 32
0.0
 13
706.969263403339
 23
164.9017292408936
 33
0.0
  0
SOLID
  5
1E9
330
1E2
100
AcDbEntity
  8
1
 62
     2
100
AcDbTrace
 10
706.5084796617831
 20
175.0019390233938
 30
0.0
 11
707.430047144895
 21
175.0019390233938
 31
0.0
 12
706.969263403339
 22
171.5019390233938
 32
0.0
 13
706.969263403339
 23
171.5019390233938
 33
0.0
  0
MTEXT
  5
1EA
330
1E2
100
AcDbEntity
  8
1
 62
     2
100
AcDbMText
 10
704.969263403339
 20
157.561698505854
 30
0.0
 40
3.5
 41
0.0
 71
     7
 72
     1
  1
6.6
  7
CONVERTER_11
 11
0.0
 21
1.0
 31
0.0
 73
     1
 44
0.60024009603842
  0
ENDBLK
  5
1EC
330
1E2
100
AcDbEntity
  8
0
100
AcDbBlockEnd
  0
BLOCK
  5
1F7
330
1EF
100
AcDbEntity
  8
0
100
AcDbBlockBegin
  2
*D5
 70
     1
 71
     0
 10
0.0
 20
0.0
 30
0.0
  3
*D5
  1

  0
LINE
  5
1F0
330
1EF
100
AcDbEntity
  8
1
  6
Continuous
 62
     2
100
AcDbLine
 10
692.791247954106
 20
157.0016200796937
 30
0.0
 11
692.791247954106
 21
133.7391418590762
 31
0.0
  0
LINE
  5
1F1
330
1EF
100
AcDbEntity
  8
1
  6
Continuous
 62
     2
100
AcDbLine
 10
692.791247954106
 20
171.5016155825938
 30
0.0
 11
692.791247954106
 21
157.0016200796937
 31
0.0
  0
LINE
  5
1F2
330
1EF
100
AcDbEntity
  8
1
  6
Continuous
 62
     2
100
AcDbLine
 10
749.117588616024
 20
157.0016200796937
 30
0.0
 11
690.791247954106
 21
157.0016200796937
 31
0.0
  0
LINE
  5
1F3
330
1EF
100
AcDbEntity
  8
1
  6
Continuous
 62
     2
100
AcDbLine
 10
749.1175825990243
 20
171.5016155825938
 30
0.0
 11
690.791247954106
 21
171.5016155825938
 31
0.0
  0
SOLID
  5
1F4
330
1EF
100
AcDbEntity
  8
1
 62
     2
100
AcDbTrace
 10
693.2520316956619
 20
168.0016155825938
 30
0.0
 11
692.33046421255
 21
168.0016155825938
 31
0.0
 12
692.791247954106
 22
171.5016155825938
 32
0.0
 13
692.791247954106
 23
171.5016155825938
 33
0.0
  0
SOLID
  5
1F5
330
1EF
100
AcDbEntity
  8
1
 62
     2
100
AcDbTrace
 10
692.33046421255
 20
160.5016200796937
 30
0.0
 11
693.2520316956619
 21
160.5016200796937
 31
0.0
 12
692.791247954106
 22
157.0016200796937
 32
0.0
 13
692.791247954106
 23
157.0016200796937
 33
0.0
  0
MTEXT
  5
1F6
330
1EF
100
AcDbEntity
  8
1
 62
     2
100
AcDbMText
 10
690.791247954106
 20
134.0716418590762
 30
0.0
 40
3.5
 41
0.0
 71
     7
 72
     1
  1
\C2;max.\C2;14.5
  7
CONVERTER_11
 11
0.0
 21
1.0
 31
0.0
 73
     1
 44
0.60024009603842
  0
ENDBLK
  5
1F8
330
1EF
100
AcDbEntity
  8
0
100
AcDbBlockEnd
  0
BLOCK
  5
206
330
1FB
100
AcDbEntity
  8
0
100
AcDbBlockBegin
  2
*D6
 70
     1
 71
     0
 10
0.0
 20
0.0
 30
0.0
  3
*D6
  1

  0
LINE
  5
1FC
330
1FB
100
AcDbEntity
  8
1
  6
Continuous
 62
     2
100
AcDbLine
 10
684.288227939791
 20
183.5017285364621
 30
0.0
 11
684.288227939791
 21
176.5017285364621
 31
0.0
  0
LINE
  5
1FD
330
1FB
100
AcDbEntity
  8
1
  6
Continuous
 62
     2
100
AcDbLine
 10
684.288227939791
 20
176.5017285364621
 30
0.0
 11
684.288227939791
 21
173.0016200796937
 31
0.0
  0
LINE
  5
1FE
330
1FB
100
AcDbEntity
  8
1
  6
Continuous
 62
     2
100
AcDbLine
 10
684.288227939791
 20
173.0016200796937
 30
0.0
 11
684.288227939791
 21
165.3078700796937
 31
0.0
  0
LINE
  5
1FF
330
1FB
100
AcDbEntity
  8
1
  6
Continuous
 62
     2
100
AcDbLine
 10
705.095955095923
 20
176.5017285364621
 30
0.0
 11
682.288227939791
 21
176.5017285364621
 31
0.0
  0
LINE
  5
200
330
1FB
100
AcDbEntity
  8
1
  6
Continuous
 62
     2
100
AcDbLine
 10
724.1176220453019
 20
176.5017285364621
 30
0.0
 11
709.0620602534229
 21
176.5017285364621
 31
0.0
  0
LINE
  5
201
330
1FB
100
AcDbEntity
  8
1
  6
Continuous
 62
     2
100
AcDbLine
 10
705.257836939086
 20
173.0016200796937
 30
0.0
 11
682.288227939791
 21
173.0016200796937
 31
0.0
  0
LINE
  5
202
330
1FB
100
AcDbEntity
  8
1
  6
Continuous
 62
     2
100
AcDbLine
 10
717.1175448798243
 20
173.0016200796937
 30
0.0
 11
709.143001175005
 21
173.0016200796937
 31
0.0
  0
SOLID
  5
203
330
1FB
100
AcDbEntity
  8
1
 62
     2
100
AcDbTrace
 10
683.8274441982351
 20
180.0017285364621
 30
0.0
 11
684.7490116813469
 21
180.0017285364621
 31
0.0
 12
684.288227939791
 22
176.5017285364621
 32
0.0
 13
684.288227939791
 23
176.5017285364621
 33
0.0
  0
SOLID
  5
204
330
1FB
100
AcDbEntity
  8
1
 62
     2
100
AcDbTrace
 10
684.7490116813469
 20
169.5016200796937
 30
0.0
 11
683.8274441982351
 21
169.5016200796937
 31
0.0
 12
684.288227939791
 22
173.0016200796937
 32
0.0
 13
684.288227939791
 23
173.0016200796937
 33
0.0
  0
MTEXT
  5
205
330
1FB
100
AcDbEntity
  8
1
 62
     2
100
AcDbMText
 10
682.288227939791
 20
165.3078700796937
 30
0.0
 40
3.5
 41
0.0
 71
     7
 72
     1
  1
3.5
  7
CONVERTER_11
 11
0.0
 21
1.0
 31
0.0
 73
     1
 44
0.60024009603842
  0
ENDBLK
  5
207
330
1FB
100
AcDbEntity
  8
0
100
AcDbBlockEnd
  0
BLOCK
  5
211
330
20A
100
AcDbEntity
  8
0
100
AcDbBlockBegin
  2
*D7
 70
     1
 71
     0
 10
0.0
 20
0.0
 30
0.0
  3
*D7
  1

  0
LINE
  5
20B
330
20A
100
AcDbEntity
  8
1
  6
Continuous
 62
     2
100
AcDbLine
 10
684.288227939791
 20
176.5017285364621
 30
0.0
 11
684.288227939791
 21
202.5017285355671
 31
0.0
  0
LINE
  5
20C
330
20A
100
AcDbEntity
  8
1
  6
Continuous
 62
     2
100
AcDbLine
 10
724.1176220453019
 20
176.5017285364621
 30
0.0
 11
682.288227939791
 21
176.5017285364621
 31
0.0
  0
LINE
  5
20D
330
20A
100
AcDbEntity
  8
1
  6
Continuous
 62
     2
100
AcDbLine
 10
724.1174488838969
 20
202.5017285355671
 30
0.0
 11
682.288227939791
 21
202.5017285355671
 31
0.0
  0
SOLID
  5
20E
330
20A
100
AcDbEntity
  8
1
 62
     2
100
AcDbTrace
 10
683.8274441982351
 20
180.0017285364621
 30
0.0
 11
684.7490116813469
 21
180.0017285364621
 31
0.0
 12
684.288227939791
 22
176.5017285364621
 32
0.0
 13
684.288227939791
 23
176.5017285364621
 33
0.0
  0
SOLID
  5
20F
330
20A
100
AcDbEntity
  8
1
 62
     2
100
AcDbTrace
 10
684.7490116813469
 20
199.0017285355671
 30
0.0
 11
683.8274441982351
 21
199.0017285355671
 31
0.0
 12
684.288227939791
 22
202.5017285355671
 32
0.0
 13
684.288227939791
 23
202.5017285355671
 33
0.0
  0
MTEXT
  5
210
330
20A
100
AcDbEntity
  8
1
 62
     2
100
AcDbMText
 10
682.288227939791
 20
187.9876640190103
 30
0.0
 40
3.5
 41
0.0
 71
     7
 72
     1
  1
26
  7
CONVERTER_11
 11
0.0
 21
1.0
 31
0.0
 73
     1
 44
0.60024009603842
  0
ENDBLK
  5
212
330
20A
100
AcDbEntity
  8
0
100
AcDbBlockEnd
  0
BLOCK
  5
21C
330
215
100
AcDbEntity
  8
0
100
AcDbBlockBegin
  2
*D8
 70
     1
 71
     0
 10
0.0
 20
0.0
 30
0.0
  3
*D8
  1

  0
LINE
  5
216
330
215
100
AcDbEntity
  8
1
  6
Continuous
 62
     2
100
AcDbLine
 10
749.1176260565243
 20
149.546917255929
 30
0.0
 11
762.117588616024
 21
149.546917255929
 31
0.0
  0
LINE
  5
217
330
215
100
AcDbEntity
  8
1
  6
Continuous
 62
     2
100
AcDbLine
 10
749.1176260565243
 20
164.9016155827936
 30
0.0
 11
749.1176260565243
 21
147.546917255929
 31
0.0
  0
LINE
  5
218
330
215
100
AcDbEntity
  8
1
  6
Continuous
 62
     2
100
AcDbLine
 10
762.117588616024
 20
193.4019592167173
 30
0.0
 11
762.117588616024
 21
147.546917255929
 31
0.0
  0
SOLID
  5
219
330
215
100
AcDbEntity
  8
1
 62
     2
100
AcDbTrace
 10
752.6176260565243
 20
150.0077009974849
 30
0.0
 11
752.6176260565243
 21
149.0861335143731
 31
0.0
 12
749.1176260565243
 22
149.546917255929
 32
0.0
 13
749.1176260565243
 23
149.546917255929
 33
0.0
  0
SOLID
  5
21A
330
215
100
AcDbEntity
  8
1
 62
     2
100
AcDbTrace
 10
758.617588616024
 20
149.0861335143731
 30
0.0
 11
758.617588616024
 21
150.0077009974849
 31
0.0
 12
762.117588616024
 22
149.546917255929
 32
0.0
 13
762.117588616024
 23
149.546917255929
 33
0.0
  0
MTEXT
  5
21B
330
215
100
AcDbEntity
  8
1
 62
     2
100
AcDbMText
 10
754.034802057908
 20
151.546917255929
 30
0.0
 40
3.5
 41
0.0
 71
     7
 72
     1
  1
13
  7
CONVERTER_11
 11
0.9999999999970621
 21
2.424068405545307E-6
 31
0.0
 73
     1
 44
0.60024009603842
  0
ENDBLK
  5
21D
330
215
100
AcDbEntity
  8
0
100
AcDbBlockEnd
  0
ENDSEC
  0
SECTION
  2
ENTITIES
  0
POINT
  5
3B
330
1F
100
AcDbEntity
  8
A_BEMASSUNGEN
 62
     7
100
AcDbPoint
 10
758.6176886160243
 20
196.5016200796937
 30
0.0
  0
POINT
  5
3C
330
1F
100
AcDbEntity
  8
A_BEMASSUNGEN
 62
     7
100
AcDbPoint
 10
752.6174886160244
 20
196.5016200796937
 30
0.0
  0
POINT
  5
3D
330
1F
100
AcDbEntity
  8
A_BEMASSUNGEN
 62
     7
100
AcDbPoint
 10
728.6174886160244
 20
184.5016200796937
 30
0.0
  0
POINT
  5
3E
330
1F
100
AcDbEntity
  8
A_BEMASSUNGEN
 62
     7
100
AcDbPoint
 10
731.6175886160244
 20
187.5017200796937
 30
0.0
  0
POINT
  5
3F
330
1F
100
AcDbEntity
  8
A_BEMASSUNGEN
 62
     7
100
AcDbPoint
 10
755.6175886160244
 20
199.5017200796937
 30
0.0
  0
POINT
  5
40
330
1F
100
AcDbEntity
  8
A_BEMASSUNGEN
 62
     7
100
AcDbPoint
 10
755.6175886160244
 20
199.5017200796937
 30
0.0
  0
POINT
  5
41
330
1F
100
AcDbEntity
  8
A_BEMASSUNGEN
 62
     7
100
AcDbPoint
 10
745.1175886160244
 20
186.5266200796937
 30
0.0
  0
POINT
  5
42
330
1F
100
AcDbEntity
  8
A_BEMASSUNGEN
 62
     7
100
AcDbPoint
 10
781.6175886160244
 20
177.5766200796937
 30
0.0
  0
POINT
  5
43
330
1F
100
AcDbEntity
  8
A_BEMASSUNGEN
 62
     7
100
AcDbPoint
 10
740.0925886160245
 20
181.5016200796937
 30
0.0
  0
POINT
  5
44
330
1F
100
AcDbEntity
  8
A_BEMASSUNGEN
 62
     7
100
AcDbPoint
 10
759.6175886160244
 20
196.5016200796937
 30
0.0
  0
POINT
  5
45
330
1F
100
AcDbEntity
  8
A_BEMASSUNGEN
 62
     7
100
AcDbPoint
 10
786.6925886160243
 20
172.5016200796937
 30
0.0
  0
POINT
  5
46
330
1F
100
AcDbEntity
  8
A_BEMASSUNGEN
 62
     7
100
AcDbPoint
 10
793.1176260556243
 20
164.9019097566937
 30
0.0
  0
POINT
  5
47
330
1F
100
AcDbEntity
  8
A_BEMASSUNGEN
 62
     7
100
AcDbPoint
 10
793.1176260556243
 20
164.9019097566937
 30
0.0
  0
POINT
  5
48
330
1F
100
AcDbEntity
  8
A_BEMASSUNGEN
 62
     7
100
AcDbPoint
 10
722.6174640039566
 20
205.5517306407659
 30
0.0
  0
POINT
  5
49
330
1F
100
AcDbEntity
  8
A_BEMASSUNGEN
 62
     7
100
AcDbPoint
 10
722.6174640039566
 20
174.5517306407659
 30
0.0
  0
LINE
  5
4A
330
1F
100
AcDbEntity
  8
0
  6
Continuous
 62
     7
100
AcDbLine
 10
746.1174640039566
 20
174.5517306407659
 30
0.0
 11
746.177606074124
 21
174.5517306407659
 31
0.0
  0
LINE
  5
4B
330
1F
100
AcDbEntity
  8
A_ACHSEN
  6
Continuous
 62
     7
100
AcDbLine
 10
727.6175886160244
 20
193.5016200796937
 30
0.0
 11
727.6175886160244
 21
184.5016200796937
 31
0.0
  0
LINE
  5
4C
330
1F
100
AcDbEntity
  8
A_RUNDUNGEN
  6
DASHED
 62
     2
100
AcDbLine
 10
736.8175886160244
 20
199.5016200796937
 30
0.0
 11
733.9511348678244
 21
193.3544901792937
 31
0.0
  0
LINE
  5
4D
330
1F
100
AcDbEntity
  8
A_ACHSEN
  6
CENTER
 62
     2
100
AcDbLine
 10
731.6175886160244
 20
184.5016200796937
 30
0.0
 11
731.6175886160244
 21
181.5015200796937
 31
0.0
  0
LINE
  5
4E
330
1F
100
AcDbEntity
  8
A_ACHSEN
  6
CENTER
 62
     2
100
AcDbLine
 10
731.6175886160244
 20
184.5016200796937
 30
0.0
 11
731.6175886160244
 21
187.5017200796937
 31
0.0
  0
LINE
  5
4F
330
1F
100
AcDbEntity
  8
A_ACHSEN
  6
CENTER
 62
     2
100
AcDbLine
 10
731.6175886160244
 20
184.5016200796937
 30
0.0
 11
728.6174886160244
 21
184.5016200796937
 31
0.0
  0
LINE
  5
50
330
1F
100
AcDbEntity
  8
A_ACHSEN
  6
CENTER
 62
     2
100
AcDbLine
 10
731.6175886160244
 20
184.5016200796937
 30
0.0
 11
734.6176886160243
 21
184.5016200796937
 31
0.0
  0
LINE
  5
51
330
1F
100
AcDbEntity
  8
A_ACHSEN
  6
CENTER
 62
     2
100
AcDbLine
 10
755.6175886160244
 20
196.5016200796937
 30
0.0
 11
755.6175886160244
 21
193.5015200796937
 31
0.0
  0
LINE
  5
52
330
1F
100
AcDbEntity
  8
A_ACHSEN
  6
CENTER
 62
     2
100
AcDbLine
 10
755.6175886160244
 20
196.5016200796937
 30
0.0
 11
755.6175886160244
 21
199.5017200796937
 31
0.0
  0
LINE
  5
53
330
1F
100
AcDbEntity
  8
DEFAULT_2
  6
HIDDEN
 62
     2
100
AcDbLine
 10
759.6175886160244
 20
196.0016200796937
 30
0.0
 11
759.6175886160244
 21
196.5016200796937
 31
0.0
  0
LINE
  5
54
330
1F
100
AcDbEntity
  8
A_ACHSEN
  6
Continuous
 62
     7
100
AcDbLine
 10
759.6175886160244
 20
196.0016200796937
 30
0.0
 11
759.6175886160244
 21
196.5016200796937
 31
0.0
  0
LINE
  5
55
330
1F
100
AcDbEntity
  8
A_ACHSEN
  6
Continuous
 62
     7
100
AcDbLine
 10
758.2296629580245
 20
187.9573722734937
 30
0.0
 11
765.7400141626243
 21
179.0068842436937
 31
0.0
  0
LINE
  5
56
330
1F
100
AcDbEntity
  8
A_ACHSEN
  6
Continuous
 62
     7
100
AcDbLine
 10
765.0846675700244
 20
175.9237209316937
 30
0.0
 11
761.6721658339244
 21
174.2593326264937
 31
0.0
  0
LINE
  5
57
330
1F
100
AcDbEntity
  8
DEFAULT_2
  6
HIDDEN
 62
     2
100
AcDbLine
 10
742.9087740956244
 20
195.1016200796937
 30
0.0
 11
737.5043802517245
 21
195.1016200796937
 31
0.0
  0
LINE
  5
58
330
1F
100
AcDbEntity
  8
A_ACHSEN
  6
Continuous
 62
     7
100
AcDbLine
 10
737.5043802517245
 20
195.1016200796937
 30
0.0
 11
742.9087740956244
 21
195.1016200796937
 31
0.0
  0
LINE
  5
59
330
1F
100
AcDbEntity
  8
A_ACHSEN
  6
CENTER
 62
     2
100
AcDbLine
 10
755.6175886160244
 20
196.5016200796937
 30
0.0
 11
752.6174886160244
 21
196.5016200796937
 31
0.0
  0
LINE
  5
5A
330
1F
100
AcDbEntity
  8
A_ACHSEN
  6
CENTER
 62
     2
100
AcDbLine
 10
755.6175886160244
 20
196.5016200796937
 30
0.0
 11
758.6176886160243
 21
196.5016200796937
 31
0.0
  0
LINE
  5
5B
330
1F
100
AcDbEntity
  8
A_ACHSEN
  6
Continuous
 62
     7
100
AcDbLine
 10
771.1590114437244
 20
181.8831177269937
 30
0.0
 11
759.8515441729245
 21
195.3588324700937
 31
0.0
  0
LINE
  5
5C
330
1F
100
AcDbEntity
  8
A_ACHSEN
  6
Continuous
 62
     7
100
AcDbLine
 10
752.3009638257244
 20
199.5016200796937
 30
0.0
 11
733.6175886160244
 21
199.5016200796937
 31
0.0
  0
LINE
  5
5D
330
1F
100
AcDbEntity
  8
A_RUNDUNGEN
  6
HIDDEN
 62
     2
100
AcDbLine
 10
736.8175886160244
 20
199.5016200796937
 30
0.0
 11
752.3009638257244
 21
199.5016200796937
 31
0.0
  0
LINE
  5
5E
330
1F
100
AcDbEntity
  8
A_ACHSEN
  6
Continuous
 62
     7
100
AcDbLine
 10
759.5464216619245
 20
166.5469262759937
 30
0.0
 11
768.8652983693245
 21
171.0920461350937
 31
0.0
  0
LINE
  5
5F
330
1F
100
AcDbEntity
  8
1
  6
Continuous
 62
     3
100
AcDbLine
 10
758.6175876895143
 20
202.5016241685937
 30
0.0
 11
758.6175876895143
 21
200.0016200796937
 31
0.0
  0
LINE
  5
60
330
1F
100
AcDbEntity
  8
1
  6
Continuous
 62
     7
100
AcDbLine
 10
757.1175876895143
 20
202.5016241685937
 30
0.0
 11
758.6175876895143
 21
202.5016241685937
 31
0.0
  0
LINE
  5
61
330
1F
100
AcDbEntity
  8
1
  6
DASHED
 62
     2
100
AcDbLine
 10
758.6175876895143
 20
176.5016327510429
 30
0.0
 11
758.6175876895143
 21
174.5016200796937
 31
0.0
  0
LINE
  5
62
330
1F
100
AcDbEntity
  8
1
  6
DASHED
 62
     2
100
AcDbLine
 10
757.1175876895143
 20
202.5016241685937
 30
0.0
 11
757.1175876895143
 21
174.5016200796937
 31
0.0
  0
LINE
  5
63
330
1F
100
AcDbEntity
  8
1
  6
Continuous
 62
     7
100
AcDbLine
 10
753.2890457602172
 20
173.0016200796937
 30
0.0
 11
751.6175876895143
 21
173.0016200796937
 31
0.0
  0
LINE
  5
64
330
1F
100
AcDbEntity
  8
1
  6
DASHED
 62
     2
100
AcDbLine
 10
754.4588154877357
 20
174.5016200796937
 30
0.0
 11
757.1175876895143
 21
174.5016200796937
 31
0.0
  0
LINE
  5
65
330
1F
100
AcDbEntity
  8
1
  6
Continuous
 62
     7
100
AcDbLine
 10
751.6175876895143
 20
174.5016200796937
 30
0.0
 11
754.4588154877357
 21
174.5016200796937
 31
0.0
  0
LINE
  5
66
330
1F
100
AcDbEntity
  8
1
  6
Continuous
 62
     7
100
AcDbLine
 10
751.6175876895143
 20
173.0016200796937
 30
0.0
 11
741.6175876895143
 21
173.0016200796937
 31
0.0
  0
LINE
  5
67
330
1F
100
AcDbEntity
  8
1
  6
Continuous
 62
     7
100
AcDbLine
 10
751.6175876895143
 20
174.5016200796937
 30
0.0
 11
751.6175876895143
 21
173.0016200796937
 31
0.0
  0
LINE
  5
68
330
1F
100
AcDbEntity
  8
1
  6
Continuous
 62
     7
100
AcDbLine
 10
717.6175448798242
 20
174.5016200796937
 30
0.0
 11
734.1175876895143
 21
174.5016200796937
 31
0.0
  0
LINE
  5
69
330
1F
100
AcDbEntity
  8
1
  6
Continuous
 62
     7
100
AcDbLine
 10
757.1175876895143
 20
215.5016200796937
 30
0.0
 11
757.1175876895143
 21
202.5016241685937
 31
0.0
  0
LINE
  5
6A
330
1F
100
AcDbEntity
  8
1
  6
Continuous
 62
     7
100
AcDbLine
 10
734.1175876895143
 20
174.5016200796937
 30
0.0
 11
751.6175876895143
 21
174.5016200796937
 31
0.0
  0
LINE
  5
6B
330
1F
100
AcDbEntity
  8
1
  6
Continuous
 62
     2
100
AcDbLine
 10
767.6579588730044
 20
197.0016200796937
 30
0.0
 11
761.6175876895143
 21
197.0016200796937
 31
0.0
  0
LINE
  5
6C
330
1F
100
AcDbEntity
  8
1
  6
Continuous
 62
     7
100
AcDbLine
 10
768.9079588730044
 20
198.858356675924
 30
0.0
 11
768.9079588730044
 21
198.2516200796937
 31
0.0
  0
LINE
  5
6D
330
1F
100
AcDbEntity
  8
1
  6
Continuous
 62
     7
100
AcDbLine
 10
766.8512069270155
 20
202.0374386651639
 30
0.0
 11
768.4400477592424
 21
200.1439318952971
 31
0.0
  0
LINE
  5
6E
330
1F
100
AcDbEntity
  8
1
  6
Continuous
 62
     7
100
AcDbLine
 10
758.6175876895143
 20
215.0016200796937
 30
0.0
 11
758.6175876895143
 21
212.5016200796937
 31
0.0
  0
LINE
  5
6F
330
1F
100
AcDbEntity
  8
1
  6
Continuous
 62
     7
100
AcDbLine
 10
759.1175876895143
 20
215.5016200796937
 30
0.0
 11
761.6175876895143
 21
215.5016200796937
 31
0.0
  0
LINE
  5
70
330
1F
100
AcDbEntity
  8
1
  6
Continuous
 62
     7
100
AcDbLine
 10
766.5513848522603
 20
203.3898486473475
 30
0.0
 11
768.7848255868115
 21
211.7251629443861
 31
0.0
  0
LINE
  5
71
330
1F
100
AcDbEntity
  8
1
  6
Continuous
 62
     7
100
AcDbLine
 10
717.1175448798243
 20
183.0016200796937
 30
0.0
 11
715.6175448798243
 21
183.0016200796937
 31
0.0
  0
LINE
  5
72
330
1F
100
AcDbEntity
  8
1
  6
Continuous
 62
     7
100
AcDbLine
 10
715.6175448798243
 20
183.0016200796937
 30
0.0
 11
715.6175448798243
 21
174.5016200796937
 31
0.0
  0
LINE
  5
73
330
1F
100
AcDbEntity
  8
1
  6
Continuous
 62
     7
100
AcDbLine
 10
717.1175448798243
 20
183.0016200796937
 30
0.0
 11
717.1175448798243
 21
175.0016200796937
 31
0.0
  0
LINE
  5
74
330
1F
100
AcDbEntity
  8
1
  6
Continuous
 62
     7
100
AcDbLine
 10
758.6175876895143
 20
217.0016200796937
 30
0.0
 11
769.1451115400473
 21
217.0016200796937
 31
0.0
  0
LINE
  5
75
330
1F
100
AcDbEntity
  8
1
  6
Continuous
 62
     7
100
AcDbLine
 10
771.0769631926255
 20
214.4839819894887
 30
0.0
 11
768.16892336497
 21
203.631029602245
 31
0.0
  0
LINE
  5
76
330
1F
100
AcDbEntity
  8
1
  6
Continuous
 62
     7
100
AcDbLine
 10
768.6518862781145
 20
203.0016200796937
 30
0.0
 11
770.6627496302522
 21
203.0016200796937
 31
0.0
  0
LINE
  5
77
330
1F
100
AcDbEntity
  8
1
  6
Continuous
 62
     7
100
AcDbLine
 10
771.1627496302522
 20
203.5016200796937
 30
0.0
 11
771.1627496302522
 21
232.0963924756582
 31
0.0
  0
LINE
  5
78
330
1F
100
AcDbEntity
  8
1
  6
Continuous
 62
     7
100
AcDbLine
 10
768.000273591694
 20
201.5016200796937
 30
0.0
 11
771.1627496302522
 21
201.5016200796937
 31
0.0
  0
LINE
  5
79
330
1F
100
AcDbEntity
  8
1
  6
Continuous
 62
     7
100
AcDbLine
 10
772.6627496302522
 20
232.0963924756582
 30
0.0
 11
772.6627496302522
 21
203.0016200796937
 31
0.0
  0
LINE
  5
7A
330
1F
100
AcDbEntity
  8
1
  6
DASHED
 62
     2
100
AcDbLine
 10
757.1175876895143
 20
173.0016200796937
 30
0.0
 11
753.2890457602172
 21
173.0016200796937
 31
0.0
  0
LINE
  5
7B
330
1F
100
AcDbEntity
  8
1
  6
Continuous
 62
     7
100
AcDbLine
 10
741.6175876895143
 20
173.0016200796937
 30
0.0
 11
717.1175448798243
 21
173.0016200796937
 31
0.0
  0
LINE
  5
7C
330
1F
100
AcDbEntity
  8
1
  6
Continuous
 62
     7
100
AcDbLine
 10
744.6175876895143
 20
173.0016200796937
 30
0.0
 11
748.6175876895143
 21
173.0016200796937
 31
0.0
  0
LINE
  5
7D
330
1F
100
AcDbEntity
  8
1
  6
Continuous
 62
     7
100
AcDbLine
 10
765.8870481079443
 20
215.5016200796937
 30
0.0
 11
769.1451115400473
 21
215.5016200796937
 31
0.0
  0
LINE
  5
7E
330
1F
100
AcDbEntity
  8
1
  6
Continuous
 62
     7
100
AcDbLine
 10
768.7848255868115
 20
211.7251629443861
 30
0.0
 11
769.6280744531919
 21
214.8722105571425
 31
0.0
  0
LINE
  5
7F
330
1F
100
AcDbEntity
  8
1
  6
Continuous
 62
     7
100
AcDbLine
 10
758.6175876895143
 20
212.5016200796937
 30
0.0
 11
758.6175876895143
 21
202.5016241685937
 31
0.0
  0
LINE
  5
80
330
1F
100
AcDbEntity
  8
1
  6
Continuous
 62
     7
100
AcDbLine
 10
761.6175876895143
 20
215.5016200796937
 30
0.0
 11
765.8870481079443
 21
215.5016200796937
 31
0.0
  0
LINE
  5
81
330
1F
100
AcDbEntity
  8
1
  6
Continuous
 62
     7
100
AcDbLine
 10
761.6175876895143
 20
214.5016200796937
 30
0.0
 11
765.8870481079443
 21
214.5016200796937
 31
0.0
  0
LINE
  5
82
330
1F
100
AcDbEntity
  8
1
  6
Continuous
 62
     7
100
AcDbLine
 10
765.5854590259712
 20
203.6486676924501
 30
0.0
 11
767.8188997605224
 21
211.9839819894887
 31
0.0
  0
LINE
  5
83
330
1F
100
AcDbEntity
  8
1
  6
Continuous
 62
     7
100
AcDbLine
 10
766.0851624838965
 20
201.3946510554774
 30
0.0
 11
767.6740033161234
 21
199.5011442856106
 31
0.0
  0
LINE
  5
84
330
1F
100
AcDbEntity
  8
1
  6
Continuous
 62
     7
100
AcDbLine
 10
767.9079588730044
 20
198.858356675924
 30
0.0
 11
767.9079588730044
 21
198.2516200796937
 31
0.0
  0
LINE
  5
85
330
1F
100
AcDbEntity
  8
1
  6
Continuous
 62
     7
100
AcDbLine
 10
767.6579588730044
 20
198.0016200796937
 30
0.0
 11
761.6175876895143
 21
198.0016200796937
 31
0.0
  0
LINE
  5
86
330
1F
100
AcDbEntity
  8
1
  6
Continuous
 62
     7
100
AcDbLine
 10
759.6175876895143
 20
212.5016200796937
 30
0.0
 11
759.6175876895143
 21
200.0016200796937
 31
0.0
  0
LINE
  5
87
330
1F
100
AcDbEntity
  8
0
  6
Continuous
 62
     7
100
AcDbLine
 10
740.7526572735243
 20
180.9723863683937
 30
0.0
 11
740.7565163411243
 21
180.9449276757937
 31
0.0
  0
LINE
  5
88
330
1F
100
AcDbEntity
  8
A_RUNDUNGEN
  6
Continuous
 62
     7
100
AcDbLine
 10
740.7526572735243
 20
180.9723863683937
 30
0.0
 11
740.0961141549243
 21
185.6439333959937
 31
0.0
  0
LINE
  5
89
330
1F
100
AcDbEntity
  8
A_ACHSEN
  6
CENTER
 62
     2
100
AcDbLine
 10
745.1175886160244
 20
181.5016200796937
 30
0.0
 11
745.1175886160244
 21
176.853969777832
 31
0.0
  0
LINE
  5
8A
330
1F
100
AcDbEntity
  8
A_ACHSEN
  6
CENTER
 62
     2
100
AcDbLine
 10
745.1175886160244
 20
181.5016200796937
 30
0.0
 11
745.1175886160244
 21
186.5266200796937
 31
0.0
  0
LINE
  5
8B
330
1F
100
AcDbEntity
  8
0
  6
DASHED
 62
     2
100
AcDbLine
 10
753.1549427147243
 20
199.6536630940937
 30
0.0
 11
746.8314029433676
 21
194.7131723620311
 31
0.0
  0
LINE
  5
8C
330
1F
100
AcDbEntity
  8
A_RUNDUNGEN
  6
Continuous
 62
     7
100
AcDbLine
 10
748.6150688752243
 20
182.4014242969937
 30
0.0
 11
747.5365737814243
 21
187.0728997763937
 31
0.0
  0
LINE
  5
8D
330
1F
100
AcDbEntity
  8
A_RUNDUNGEN
  6
Continuous
 62
     7
100
AcDbLine
 10
741.5018704603243
 20
182.8267540775937
 30
0.0
 11
746.2079757583243
 21
186.5035665036937
 31
0.0
  0
LINE
  5
8E
330
1F
100
AcDbEntity
  8
A_ACHSEN
  6
CENTER
 62
     2
100
AcDbLine
 10
781.6175886160244
 20
172.5016200796937
 30
0.0
 11
776.5425886160243
 21
172.5016200796937
 31
0.0
  0
LINE
  5
8F
330
1F
100
AcDbEntity
  8
A_ACHSEN
  6
CENTER
 62
     2
100
AcDbLine
 10
781.6175886160244
 20
172.5016200796937
 30
0.0
 11
786.6925886160243
 21
172.5016200796937
 31
0.0
  0
LINE
  5
90
330
1F
100
AcDbEntity
  8
0
  6
DASHED
 62
     2
100
AcDbLine
 10
759.6175886160244
 20
194.9016200796937
 30
0.0
 11
759.6175886160244
 21
196.5016200796937
 31
0.0
  0
LINE
  5
91
330
1F
100
AcDbEntity
  8
A_ACHSEN
  6
CENTER
 62
     2
100
AcDbLine
 10
745.1175886160244
 20
181.5016200796937
 30
0.0
 11
740.0925886160245
 21
181.5016200796937
 31
0.0
  0
LINE
  5
92
330
1F
100
AcDbEntity
  8
A_ACHSEN
  6
CENTER
 62
     2
100
AcDbLine
 10
745.1175886160244
 20
181.5016200796937
 30
0.0
 11
750.1425886160245
 21
181.5016200796937
 31
0.0
  0
LINE
  5
93
330
1F
100
AcDbEntity
  8
0
  6
Continuous
 62
     7
100
AcDbLine
 10
753.7125616751243
 20
189.4377171463937
 30
0.0
 11
757.6707210515243
 21
187.8385169522937
 31
0.0
  0
LINE
  5
94
330
1F
100
AcDbEntity
  8
0
  6
DASHED
 62
     2
100
AcDbLine
 10
759.9183606120243
 20
187.4016200796937
 30
0.0
 11
766.5284381549169
 21
187.4016200796937
 31
0.0
  0
LINE
  5
95
330
1F
100
AcDbEntity
  8
0
  6
Continuous
 62
     7
100
AcDbLine
 10
749.0354118022243
 20
189.4715420145937
 30
0.0
 11
750.1152157885243
 21
189.7208344076937
 31
0.0
  0
LINE
  5
96
330
1F
100
AcDbEntity
  8
0
  6
Continuous
 62
     7
100
AcDbLine
 10
771.6175886160244
 20
192.9016200796937
 30
0.0
 11
762.1174388569754
 21
192.9016200796937
 31
0.0
  0
LINE
  5
97
330
1F
100
AcDbEntity
  8
0
  6
Continuous
 62
     7
100
AcDbLine
 10
777.1651803178244
 20
192.1219569112937
 30
0.0
 11
771.6175886160244
 21
192.9016200796937
 31
0.0
  0
LINE
  5
98
330
1F
100
AcDbEntity
  8
0
  6
Continuous
 62
     7
100
AcDbLine
 10
779.3175886160243
 20
178.7117421960937
 30
0.0
 11
779.4384691806243
 21
177.3300710202937
 31
0.0
  0
LINE
  5
99
330
1F
100
AcDbEntity
  8
A_RUNDUNGEN
  6
Continuous
 62
     7
100
AcDbLine
 10
779.3175886160243
 20
178.7117421960937
 30
0.0
 11
779.1163674823243
 21
181.0117102788937
 31
0.0
  0
LINE
  5
9A
330
1F
100
AcDbEntity
  8
A_ACHSEN
  6
CENTER
 62
     2
100
AcDbLine
 10
781.6175886160244
 20
172.5016200796937
 30
0.0
 11
781.6175886160244
 21
167.4266200796937
 31
0.0
  0
LINE
  5
9B
330
1F
100
AcDbEntity
  8
A_ACHSEN
  6
CENTER
 62
     2
100
AcDbLine
 10
781.6175886160244
 20
172.5016200796937
 30
0.0
 11
781.6175886160244
 21
177.5766200796937
 31
0.0
  0
LINE
  5
9C
330
1F
100
AcDbEntity
  8
A_RUNDUNGEN
  6
Continuous
 62
     7
100
AcDbLine
 10
779.3175886160243
 20
178.7117421960937
 30
0.0
 11
783.1758024225243
 21
186.9857084048937
 31
0.0
  0
LINE
  5
9D
330
1F
100
AcDbEntity
  8
A_ACHSEN
  6
Continuous
 62
     7
100
AcDbLine
 10
785.8514160829243
 20
172.8720319862937
 30
0.0
 11
784.8783746920243
 21
183.9939459773937
 31
0.0
  0
LINE
  5
9E
330
1F
100
AcDbEntity
  8
0
  6
Continuous
 62
     7
100
AcDbLine
 10
746.8314029433676
 20
194.7131723620311
 30
0.0
 11
742.3437537154243
 21
191.2070365233937
 31
0.0
  0
LINE
  5
9F
330
1F
100
AcDbEntity
  8
0
  6
Continuous
 62
     7
100
AcDbLine
 10
766.5284381549169
 20
187.4016200796937
 30
0.0
 11
772.1430045957243
 21
187.4016200796937
 31
0.0
  0
LINE
  5
A0
330
1F
100
AcDbEntity
  8
0
  6
DASHED
 62
     2
100
AcDbLine
 10
762.1174388569754
 20
192.9016200796937
 30
0.0
 11
761.6175886160244
 21
192.9016200796937
 31
0.0
  0
LINE
  5
A1
330
1F
100
AcDbEntity
  8
1
  6
Continuous
 62
     7
100
AcDbLine
 10
762.117588616024
 20
197.0016200796937
 30
0.0
 11
818.9814775049132
 21
197.0016200796937
 31
0.0
  0
LINE
  5
A2
330
1F
100
AcDbEntity
  8
1
  6
Continuous
 62
     7
100
AcDbLine
 10
762.117588616024
 20
197.0016200796937
 30
0.0
 11
762.117588616024
 21
193.4019592167173
 31
0.0
  0
LINE
  5
A3
330
1F
100
AcDbEntity
  8
1
  6
Continuous
 62
     7
100
AcDbLine
 10
749.117588616024
 20
164.9016155825433
 30
0.0
 11
749.117588616024
 21
157.0016200796937
 31
0.0
  0
LINE
  5
A4
330
1F
100
AcDbEntity
  8
1
  6
Continuous
 62
     7
100
AcDbLine
 10
749.117588616024
 20
157.0016200796937
 30
0.0
 11
818.9814775049132
 21
157.0016200796937
 31
0.0
  0
LINE
  5
A5
330
1F
100
AcDbEntity
  8
1
  6
PHANTOM
 62
     2
100
AcDbLine
 10
818.9814775049132
 20
197.0016200796937
 30
0.0
 11
818.9814775049132
 21
200.7904521673467
 31
0.0
  0
LINE
  5
A6
330
1F
100
AcDbEntity
  8
1
  6
PHANTOM
 62
     2
100
AcDbLine
 10
818.9814775049132
 20
157.0016200796937
 30
0.0
 11
818.9814775049132
 21
154.1346391607257
 31
0.0
  0
LINE
  5
A7
330
1F
100
AcDbEntity
  8
1
  6
PHANTOM
 62
     2
100
AcDbLine
 10
818.9814775049132
 20
197.0016200796937
 30
0.0
 11
818.9814775049132
 21
157.0016200796937
 31
0.0
  0
LINE
  5
A8
330
1F
100
AcDbEntity
  8
0
  6
Continuous
 62
     7
100
AcDbLine
 10
786.6176140213244
 20
166.7021230178938
 30
0.0
 11
788.6176063012243
 21
167.8568369277938
 31
0.0
  0
LINE
  5
A9
330
1F
100
AcDbEntity
  8
0
  6
Continuous
 62
     7
100
AcDbLine
 10
794.1174421969243
 20
192.4019164415937
 30
0.0
 11
794.1176193698242
 21
165.9019164423936
 31
0.0
  0
LINE
  5
AA
330
1F
100
AcDbEntity
  8
0
  6
Continuous
 62
     7
100
AcDbLine
 10
792.1174455398242
 20
191.9019030699936
 30
0.0
 11
792.1176146898243
 21
166.6019030708936
 31
0.0
  0
LINE
  5
AB
330
1F
100
AcDbEntity
  8
A_RUNDUNGEN
  6
Continuous
 62
     7
100
AcDbLine
 10
784.8507623317242
 20
169.3961072554937
 30
0.0
 11
785.0226720760942
 21
169.9584121389255
 31
0.0
  0
LINE
  5
AC
330
1F
100
AcDbEntity
  8
0
  6
Continuous
 62
     7
100
AcDbLine
 10
788.6176063012243
 20
167.8568369277938
 30
0.0
 11
788.6174468770242
 21
191.7021363886937
 31
0.0
  0
LINE
  5
AD
330
1F
100
AcDbEntity
  8
A_RUNDUNGEN
  6
Continuous
 62
     7
100
AcDbLine
 10
785.6175322624243
 20
178.9309088766937
 30
0.0
 11
785.6174736202241
 21
187.7021163314937
 31
0.0
  0
LINE
  5
AE
330
1F
100
AcDbEntity
  8
0
  6
Continuous
 62
     7
100
AcDbLine
 10
784.1174455400243
 20
191.9018495838938
 30
0.0
 11
784.1174355093407
 21
193.4021462815937
 31
0.0
  0
LINE
  5
AF
330
1F
100
AcDbEntity
  8
0
  6
Continuous
 62
     7
100
AcDbLine
 10
782.6174468772243
 20
191.7020962739937
 30
0.0
 11
782.617435511057
 21
193.4021362529399
 31
0.0
  0
LINE
  5
B0
330
1F
100
AcDbEntity
  8
A_RUNDUNGEN
  6
Continuous
 62
     7
100
AcDbLine
 10
761.3852608465244
 20
184.6697212733938
 30
0.0
 11
761.1694331020338
 21
184.4538906429405
 31
0.0
  0
LINE
  5
B1
330
1F
100
AcDbEntity
  8
A_RUNDUNGEN
  6
DASHED
 62
     2
100
AcDbLine
 10
781.0819310703242
 20
188.9949792266938
 30
0.0
 11
779.9677100586242
 21
190.1091853396937
 31
0.0
  0
LINE
  5
B2
330
1F
100
AcDbEntity
  8
0
  6
Continuous
 62
     7
100
AcDbLine
 10
766.1176140219244
 20
166.7019859595937
 30
0.0
 11
766.1176260562241
 21
164.9017292408936
 31
0.0
  0
LINE
  5
B3
330
1F
100
AcDbEntity
  8
A_RUNDUNGEN
  6
DASHED
 62
     2
100
AcDbLine
 10
765.1174622548243
 20
189.4019792730936
 30
0.0
 11
765.1174944481244
 21
184.5867894251936
 31
0.0
  0
LINE
  5
B4
330
1F
100
AcDbEntity
  8
0
  6
Continuous
 62
     7
100
AcDbLine
 10
762.6176253877242
 20
165.0019625594937
 30
0.0
 11
762.6176140219244
 21
166.7019625593937
 31
0.0
  0
LINE
  5
B5
330
1F
100
AcDbEntity
  8
A_RUNDUNGEN
  6
Continuous
 62
     7
100
AcDbLine
 10
762.1174355118243
 20
193.4019592156936
 30
0.0
 11
762.1174388569754
 21
192.9016200796937
 31
0.0
  0
LINE
  5
B6
330
1F
100
AcDbEntity
  8
A_RUNDUNGEN
  6
Continuous
 62
     7
100
AcDbLine
 10
760.2145606535242
 20
181.1630128327937
 30
0.0
 11
759.0304811436243
 21
177.2899706545937
 31
0.0
  0
LINE
  5
B7
330
1F
100
AcDbEntity
  8
DEFAULT_1
  6
CENTER_3
 62
     2
100
AcDbLine
 10
757.6175886160244
 20
170.5016200796937
 30
0.0
 11
757.6175886160244
 21
176.0416200795936
 31
0.0
  0
LINE
  5
B8
330
1F
100
AcDbEntity
  8
A_ACHSEN
  6
CENTER_3
 62
     2
100
AcDbLine
 10
757.6175886160244
 20
170.5019235154937
 30
0.0
 11
757.6175886160244
 21
167.5018235154937
 31
0.0
  0
LINE
  5
B9
330
1F
100
AcDbEntity
  8
DEFAULT_1
  6
CENTER_3
 62
     2
100
AcDbLine
 10
757.6175886160244
 20
170.5016200796937
 30
0.0
 11
757.6175886160244
 21
164.9616200796937
 31
0.0
  0
LINE
  5
BA
330
1F
100
AcDbEntity
  8
0
  6
Continuous
 62
     7
100
AcDbLine
 10
753.1175785875242
 20
172.0018990444936
 30
0.0
 11
753.1176253879242
 21
165.0018990446937
 31
0.0
  0
LINE
  5
BB
330
1F
100
AcDbEntity
  8
0
  6
Continuous
 62
     7
100
AcDbLine
 10
750.1175825990243
 20
171.5016626964937
 30
0.0
 11
750.1176260572395
 21
164.9016222685938
 31
0.0
  0
LINE
  5
BC
330
1F
100
AcDbEntity
  8
A_RUNDUNGEN
  6
Continuous
 62
     7
100
AcDbLine
 10
784.1174355093407
 20
193.4021462815937
 30
0.0
 11
782.617435511057
 21
193.4021362529399
 31
0.0
  0
LINE
  5
BD
330
1F
100
AcDbEntity
  8
0
  6
Continuous
 62
     7
100
AcDbLine
 10
782.6174355113243
 20
193.4020962739937
 30
0.0
 11
762.117588616024
 21
193.4019592167173
 31
0.0
  0
LINE
  5
BE
330
1F
100
AcDbEntity
  8
0
  6
Continuous
 62
     7
100
AcDbLine
 10
794.6174355128143
 20
193.4019197844604
 30
0.0
 11
784.1174355113243
 21
193.4018495837937
 31
0.0
  0
LINE
  5
BF
330
1F
100
AcDbEntity
  8
0
  6
Continuous
 62
     7
100
AcDbLine
 10
792.1174455398242
 20
191.9019030699936
 30
0.0
 11
784.1174455400243
 21
191.9018495838938
 31
0.0
  0
LINE
  5
C0
330
1F
100
AcDbEntity
  8
0
  6
Continuous
 62
     7
100
AcDbLine
 10
788.6174468770242
 20
191.7021363886937
 30
0.0
 11
782.6174468772243
 21
191.7020962739937
 31
0.0
  0
LINE
  5
C1
330
1F
100
AcDbEntity
  8
A_RUNDUNGEN
  6
DASHED
 62
     2
100
AcDbLine
 10
779.2606013192243
 20
190.4020738308938
 30
0.0
 11
766.1174555690244
 21
190.4019859588938
 31
0.0
  0
LINE
  5
C2
330
1F
100
AcDbEntity
  8
A_RUNDUNGEN
  6
Continuous
 62
     7
100
AcDbLine
 10
784.6174669344242
 20
188.7021096456937
 30
0.0
 11
783.0422676690615
 21
188.7020991142811
 31
0.0
  0
LINE
  5
C3
330
1F
100
AcDbEntity
  8
0
  6
Continuous
 62
     7
100
AcDbLine
 10
749.1176260565243
 20
164.9016155827936
 30
0.0
 11
749.1175825990243
 21
171.5016155825938
 31
0.0
  0
LINE
  5
C4
330
1F
100
AcDbEntity
  8
A_RUNDUNGEN
  6
DASHED
 62
     2
100
AcDbLine
 10
765.8251291370242
 20
183.6304894002936
 30
0.0
 11
771.0273238417343
 21
182.0400568997653
 31
0.0
  0
LINE
  5
C5
330
1F
100
AcDbEntity
  8
A_RUNDUNGEN
  6
DASHED
 62
     2
100
AcDbLine
 10
785.3709004420242
 20
174.5178214553937
 30
0.0
 11
779.2883970532147
 21
176.3773848941583
 31
0.0
  0
LINE
  5
C6
330
1F
100
AcDbEntity
  8
0
  6
Continuous
 62
     7
100
AcDbLine
 10
749.3675825990243
 20
171.5016172539938
 30
0.0
 11
750.1176013127243
 21
168.6025841627937
 31
0.0
  0
LINE
  5
C7
330
1F
100
AcDbEntity
  8
0
  6
Continuous
 62
     7
100
AcDbLine
 10
757.1175585301243
 20
175.0019257873936
 30
0.0
 11
756.1175585301243
 21
175.0019191016937
 31
0.0
  0
LINE
  5
C8
330
1F
100
AcDbEntity
  8
A_RUNDUNGEN
  6
Continuous
 62
     7
100
AcDbLine
 10
759.6944225431455
 20
176.0412986329274
 30
0.0
 11
763.1559579048106
 21
174.9830263741059
 31
0.0
  0
LINE
  5
C9
330
1F
100
AcDbEntity
  8
0
  6
Continuous
 62
     7
100
AcDbLine
 10
749.1175825990243
 20
171.5016155825938
 30
0.0
 11
753.1175825987242
 21
171.5019390233938
 31
0.0
  0
LINE
  5
CA
330
1F
100
AcDbEntity
  8
DEFAULT_1
  6
CENTER_3
 62
     2
100
AcDbLine
 10
757.6175886160244
 20
170.5019583285937
 30
0.0
 11
752.0775886161242
 21
170.5019583285937
 31
0.0
  0
LINE
  5
CB
330
1F
100
AcDbEntity
  8
A_ACHSEN
  6
CENTER_3
 62
     2
100
AcDbLine
 10
757.6175886160244
 20
170.5019235154937
 30
0.0
 11
762.6176886160243
 21
170.5019235154937
 31
0.0
  0
LINE
  5
CC
330
1F
100
AcDbEntity
  8
0
  6
Continuous
 62
     7
100
AcDbLine
 10
762.6176140219244
 20
166.7019625593937
 30
0.0
 11
786.6176140213244
 21
166.7021230178938
 31
0.0
  0
LINE
  5
CD
330
1F
100
AcDbEntity
  8
0
  6
Continuous
 62
     7
100
AcDbLine
 10
792.1176146898243
 20
166.6019030708936
 30
0.0
 11
766.1176146904244
 21
166.6017292407936
 31
0.0
  0
LINE
  5
CE
330
1F
100
AcDbEntity
  8
0
  6
Continuous
 62
     7
100
AcDbLine
 10
753.1176253879242
 20
165.0018990446937
 30
0.0
 11
762.6176253877242
 21
165.0019625594937
 31
0.0
  0
LINE
  5
CF
330
1F
100
AcDbEntity
  8
0
  6
Continuous
 62
     7
100
AcDbLine
 10
749.117588616024
 20
164.9016155825433
 30
0.0
 11
750.1176260572395
 21
164.9016222685938
 31
0.0
  0
LINE
  5
D0
330
1F
100
AcDbEntity
  8
0
  6
Continuous
 62
     7
100
AcDbLine
 10
794.6176260571835
 20
164.9019197853493
 30
0.0
 11
766.1176260562241
 21
164.9017292408936
 31
0.0
  0
LINE
  5
D1
330
1F
100
AcDbEntity
  8
0
  6
Continuous
 62
     7
100
AcDbLine
 10
766.1176219140242
 20
165.5215779105937
 30
0.0
 11
762.6176219125242
 21
165.5217450492936
 31
0.0
  0
LINE
  5
D2
330
1F
100
AcDbEntity
  8
0
  6
Continuous
 62
     7
100
AcDbLine
 10
753.1176219093244
 20
165.5221987113937
 30
0.0
 11
750.1176219085243
 21
165.5223419730936
 31
0.0
  0
LINE
  5
D3
330
1F
100
AcDbEntity
  8
0
  6
Continuous
 62
     7
100
AcDbLine
 10
762.117588616024
 20
193.4019592167173
 30
0.0
 11
762.1174355118243
 21
193.4019592156936
 31
0.0
  0
LINE
  5
D4
330
1F
100
AcDbEntity
  8
1
  6
Continuous
 62
     7
100
AcDbLine
 10
794.6174355128143
 20
193.4019197844604
 30
0.0
 11
794.6176260571835
 21
164.9019197853493
 31
0.0
  0
LINE
  5
D5
330
1F
100
AcDbEntity
  8
1
  6
Continuous
 62
     7
100
AcDbLine
 10
766.1176260562241
 20
164.9017292408936
 30
0.0
 11
750.1176260565243
 21
164.9017292408936
 31
0.0
  0
LINE
  5
D6
330
1F
100
AcDbEntity
  8
0
  6
Continuous
 62
     7
100
AcDbLine
 10
750.1176260565243
 20
164.9017292408936
 30
0.0
 11
750.1176260565243
 21
164.9016222685938
 31
0.0
  0
LINE
  5
D7
330
1F
100
AcDbEntity
  8
A_RUNDUNGEN
  6
DASHED
 62
     2
100
AcDbLine
 10
783.0422676690615
 20
188.7020991142811
 30
0.0
 11
781.7890398097242
 21
188.7020907354937
 31
0.0
  0
LINE
  5
D8
330
1F
100
AcDbEntity
  8
A_RUNDUNGEN
  6
Continuous
 62
     7
100
AcDbLine
 10
771.0273238417343
 20
182.0400568997653
 30
0.0
 11
779.2462326702336
 21
179.5273443886611
 31
0.0
  0
LINE
  5
D9
330
1F
100
AcDbEntity
  8
A_RUNDUNGEN
  6
DASHED
 62
     2
100
AcDbLine
 10
779.2462326702336
 20
179.5273443886611
 30
0.0
 11
784.3251669514242
 21
177.9745954802937
 31
0.0
  0
LINE
  5
DA
330
1F
100
AcDbEntity
  8
A_RUNDUNGEN
  6
DASHED
 62
     2
100
AcDbLine
 10
779.2883970532147
 20
176.3773848941583
 30
0.0
 11
764.0328963927899
 21
181.0413479788921
 31
0.0
  0
LINE
  5
DB
330
1F
100
AcDbEntity
  8
A_RUNDUNGEN
  6
Continuous
 62
     7
100
AcDbLine
 10
785.8626718422332
 20
172.7059932740892
 30
0.0
 11
786.0348418416241
 21
173.2691494336938
 31
0.0
  0
LINE
  5
DC
330
1F
100
AcDbEntity
  8
A_RUNDUNGEN
  6
DASHED
 62
     2
100
AcDbLine
 10
785.0226720760942
 20
169.9584121389255
 30
0.0
 11
785.8626718422332
 21
172.7059932740892
 31
0.0
  0
LINE
  5
DD
330
1F
100
AcDbEntity
  8
A_RUNDUNGEN
  6
DASHED
 62
     2
100
AcDbLine
 10
777.8780426149785
 20
170.4821410116938
 30
0.0
 11
783.6020903100242
 21
168.7321658558936
 31
0.0
  0
LINE
  5
DE
330
1F
100
AcDbEntity
  8
A_RUNDUNGEN
  6
Continuous
 62
     7
100
AcDbLine
 10
770.9168512598729
 20
172.6103398973792
 30
0.0
 11
777.8780426149785
 21
170.4821410116938
 31
0.0
  0
LINE
  5
DF
330
1F
100
AcDbEntity
  8
A_RUNDUNGEN
  6
Continuous
 62
     7
100
AcDbLine
 10
764.0328963927899
 20
181.0413479788921
 30
0.0
 11
761.4632326752093
 21
181.8269542323838
 31
0.0
  0
LINE
  5
E0
330
1F
100
AcDbEntity
  8
A_RUNDUNGEN
  6
DASHED
 62
     2
100
AcDbLine
 10
763.1559579048106
 20
174.9830263741059
 30
0.0
 11
770.9168512598729
 21
172.6103398973792
 31
0.0
  0
LINE
  5
E1
330
1F
100
AcDbEntity
  8
A_RUNDUNGEN
  6
DASHED
 62
     2
100
AcDbLine
 10
761.1694331020338
 20
184.4538906429405
 30
0.0
 11
758.6175876895143
 21
181.9020111081594
 31
0.0
  0
LINE
  5
E2
330
1F
100
AcDbEntity
  8
A_RUNDUNGEN
  6
DASHED
 62
     2
100
AcDbLine
 10
758.6175876895143
 20
181.9020111081594
 30
0.0
 11
757.1175224269242
 21
180.4019257872936
 31
0.0
  0
LINE
  5
E3
330
1F
100
AcDbEntity
  8
1
  6
DASHED
 62
     2
100
AcDbLine
 10
757.1175224269242
 20
180.4019257872936
 30
0.0
 11
757.1175224269242
 21
177.6016395382994
 31
0.0
  0
LINE
  5
E4
330
1F
100
AcDbEntity
  8
1
  6
Continuous
 62
     7
100
AcDbLine
 10
757.1175585301243
 20
175.0019257873936
 30
0.0
 11
757.1175585301243
 21
176.5016211040258
 31
0.0
  0
LINE
  5
E5
330
1F
100
AcDbEntity
  8
A_RUNDUNGEN
  6
DASHED
 62
     2
100
AcDbLine
 10
762.1174756286957
 20
187.4016200796937
 30
0.0
 11
762.1174820746243
 21
186.4374931218937
 31
0.0
  0
LINE
  5
E6
330
1F
100
AcDbEntity
  8
A_RUNDUNGEN
  6
DASHED
 62
     2
100
AcDbLine
 10
762.1174388569754
 20
192.9016200796937
 30
0.0
 11
762.1174756286957
 21
187.4016200796937
 31
0.0
  0
LINE
  5
E7
330
1F
100
AcDbEntity
  8
0
  6
Continuous
 62
     7
100
AcDbLine
 10
748.6174640039566
 20
208.2663324773659
 30
0.0
 11
746.6174640039566
 21
208.2663324773659
 31
0.0
  0
LINE
  5
E8
330
1F
100
AcDbEntity
  8
0
  6
Continuous
 62
     7
100
AcDbLine
 10
722.6174640039566
 20
205.5517306407659
 30
0.0
 11
756.6174640039566
 21
205.5517306407659
 31
0.0
  0
LINE
  5
E9
330
1F
100
AcDbEntity
  8
0
  6
Continuous
 62
     7
100
AcDbLine
 10
722.6174640039566
 20
203.0517306407659
 30
0.0
 11
756.6174640039566
 21
203.0517306407659
 31
0.0
  0
LINE
  5
EA
330
1F
100
AcDbEntity
  8
A_ACHSEN
  6
Continuous
 62
     7
100
AcDbLine
 10
733.4174640039565
 20
174.5517306407659
 30
0.0
 11
722.6174640039566
 21
174.5517306407659
 31
0.0
  0
LINE
  5
EB
330
1F
100
AcDbEntity
  8
0
  6
Continuous
 62
     7
100
AcDbLine
 10
719.6174640039566
 20
174.5517306407659
 30
0.0
 11
722.6174640039566
 21
174.5517306407659
 31
0.0
  0
LINE
  5
EC
330
1F
100
AcDbEntity
  8
0
  6
Continuous
 62
     7
100
AcDbLine
 10
733.6174640039566
 20
174.5517306407659
 30
0.0
 11
746.1174640039566
 21
174.5517306407659
 31
0.0
  0
LINE
  5
ED
330
1F
100
AcDbEntity
  8
0
  6
Continuous
 62
     7
100
AcDbLine
 10
719.6174640039566
 20
202.5517306407659
 30
0.0
 11
719.6174640039566
 21
174.5517306407659
 31
0.0
  0
LINE
  5
EE
330
1F
100
AcDbEntity
  8
0
  6
Continuous
 62
     7
100
AcDbLine
 10
722.1174640039566
 20
202.5517306407659
 30
0.0
 11
722.1174640039566
 21
174.5517306407659
 31
0.0
  0
LINE
  5
EF
330
1F
100
AcDbEntity
  8
A_ACHSEN
  6
Continuous
 62
     7
100
AcDbLine
 10
733.4174640039565
 20
174.5517306407659
 30
0.0
 11
733.4174640039565
 21
176.5517943968213
 31
0.0
  0
LINE
  5
F0
330
1F
100
AcDbEntity
  8
0
  6
Continuous
 62
     7
100
AcDbLine
 10
733.6174640039566
 20
176.5017943968213
 30
0.0
 11
733.6174640039566
 21
174.5517306407659
 31
0.0
  0
LINE
  5
F1
330
1F
100
AcDbEntity
  8
0
  6
Continuous
 62
     7
100
AcDbLine
 10
744.6174640039566
 20
176.5017943968213
 30
0.0
 11
744.6174640039566
 21
174.5517306407659
 31
0.0
  0
LINE
  5
F2
330
1F
100
AcDbEntity
  8
0
  6
Continuous
 62
     7
100
AcDbLine
 10
746.6174640039566
 20
208.2663324773659
 30
0.0
 11
746.6174640039566
 21
205.5517306407659
 31
0.0
  0
LINE
  5
F3
330
1F
100
AcDbEntity
  8
0
  6
Continuous
 62
     7
100
AcDbLine
 10
746.6174640039566
 20
203.0517306407659
 30
0.0
 11
746.6174640039566
 21
202.5017306407659
 31
0.0
  0
LINE
  5
F4
330
1F
100
AcDbEntity
  8
0
  6
Continuous
 62
     7
100
AcDbLine
 10
748.6174640039566
 20
208.2663324773659
 30
0.0
 11
748.6174640039566
 21
205.5517306407659
 31
0.0
  0
LINE
  5
F5
330
1F
100
AcDbEntity
  8
0
  6
Continuous
 62
     7
100
AcDbLine
 10
748.6174640039566
 20
203.0517306407659
 30
0.0
 11
748.6174640039566
 21
202.5017306407659
 31
0.0
  0
LINE
  5
F6
330
1F
100
AcDbEntity
  8
0
  6
Continuous
 62
     7
100
AcDbLine
 10
756.6174640039566
 20
203.0517306407659
 30
0.0
 11
756.6174640039566
 21
205.5517306407659
 31
0.0
  0
LINE
  5
F7
330
1F
100
AcDbEntity
  8
A_RUNDUNGEN
  6
Continuous
 62
     7
100
AcDbLine
 10
741.3175469625293
 20
199.5016200796937
 30
0.0
 11
741.3175460369245
 21
199.9016029756937
 31
0.0
  0
LINE
  5
F8
330
1F
100
AcDbEntity
  8
A_RUNDUNGEN
  6
DASHED
 62
     2
100
AcDbLine
 10
731.2195800286481
 20
199.0015796081693
 30
0.0
 11
741.3175481196243
 21
199.0016029756937
 31
0.0
  0
LINE
  5
F9
330
1F
100
AcDbEntity
  8
A_RUNDUNGEN
  6
Continuous
 62
     7
100
AcDbLine
 10
729.8175501021237
 20
198.1448632666129
 30
0.0
 11
729.8175492766244
 21
198.5015763637937
 31
0.0
  0
LINE
  5
FA
330
1F
100
AcDbEntity
  8
A_RUNDUNGEN
  6
DASHED
 62
     2
100
AcDbLine
 10
729.0435562806099
 20
197.3846895092279
 30
0.0
 11
729.3871382999245
 21
197.4329776237937
 31
0.0
  0
LINE
  5
FB
330
1F
100
AcDbEntity
  8
1
  6
Continuous
 62
     7
100
AcDbLine
 10
756.8175886160244
 20
188.1832048303461
 30
0.0
 11
756.8175886160244
 21
176.5016241693937
 31
0.0
  0
LINE
  5
FC
330
1F
100
AcDbEntity
  8
0
  6
Continuous
 62
     2
100
AcDbLine
 10
740.2288870813303
 20
184.6992049354771
 30
0.0
 11
740.3166838846245
 21
185.3239221407937
 31
0.0
  0
LINE
  5
FD
330
1F
100
AcDbEntity
  8
0
  6
DASHED
 62
     2
100
AcDbLine
 10
734.6302828292804
 20
187.1329075169408
 30
0.0
 11
729.0677681998244
 21
187.9146548395937
 31
0.0
  0
LINE
  5
FE
330
1F
100
AcDbEntity
  8
0
  6
Continuous
 62
     7
100
AcDbLine
 10
733.7882075631873
 20
181.1417966637657
 30
0.0
 11
738.6236029062919
 21
180.4622375765632
 31
0.0
  0
LINE
  5
FF
330
1F
100
AcDbEntity
  8
0
  6
DASHED
 62
     2
100
AcDbLine
 10
728.6049751016042
 20
181.8702402491231
 30
0.0
 11
733.7882075631873
 21
181.1417966637657
 31
0.0
  0
LINE
  5
100
330
1F
100
AcDbEntity
  8
0
  6
Continuous
 62
     7
100
AcDbLine
 10
727.6175886160244
 20
184.7813325235395
 30
0.0
 11
727.3746872216244
 21
183.0529702755937
 31
0.0
  0
LINE
  5
101
330
1F
100
AcDbEntity
  8
0
  6
DASHED
 62
     2
100
AcDbLine
 10
733.0176810485501
 20
190.6436284946832
 30
0.0
 11
729.0677631694244
 21
190.0884944179937
 31
0.0
  0
LINE
  5
102
330
1F
100
AcDbEntity
  8
0
  6
Continuous
 62
     7
100
AcDbLine
 10
739.9762233353363
 20
195.1016200796937
 30
0.0
 11
740.3166668637244
 21
192.6792791785937
 31
0.0
  0
LINE
  5
103
330
1F
100
AcDbEntity
  8
0
  6
Continuous
 62
     7
100
AcDbLine
 10
727.607572493156
 20
193.2929382685143
 30
0.0
 11
727.3746596905245
 21
194.9501711460937
 31
0.0
  0
LINE
  5
104
330
1F
100
AcDbEntity
  8
A_RUNDUNGEN
  6
Continuous
 62
     7
100
AcDbLine
 10
756.8175886160244
 20
200.4016388440556
 30
0.0
 11
758.6175448798243
 21
200.4016430092937
 31
0.0
  0
LINE
  5
105
330
1F
100
AcDbEntity
  8
1
  6
DASHED
 62
     2
100
AcDbLine
 10
756.8175886160244
 20
200.4016388440556
 30
0.0
 11
756.8175886160244
 21
188.1832048303461
 31
0.0
  0
LINE
  5
106
330
1F
100
AcDbEntity
  8
1
  6
Continuous
 62
     3
100
AcDbLine
 10
758.6175886160244
 20
202.5016241685937
 30
0.0
 11
758.6175886160244
 21
202.3906232618033
 31
0.0
  0
LINE
  5
107
330
1F
100
AcDbEntity
  8
1
  6
Continuous
 62
     3
100
AcDbLine
 10
758.6175886160244
 20
202.3906232618033
 30
0.0
 11
758.6175886160244
 21
202.5016241685937
 31
0.0
  0
LINE
  5
108
330
1F
100
AcDbEntity
  8
1
  6
Continuous
 62
     7
100
AcDbLine
 10
758.6175886160244
 20
202.3906232618033
 30
0.0
 11
758.6175886160244
 21
200.4016430093949
 31
0.0
  0
LINE
  5
109
330
1F
100
AcDbEntity
  8
1
  6
Continuous
 62
     7
100
AcDbLine
 10
758.6175886160244
 20
202.3906232618033
 30
0.0
 11
758.6175886160244
 21
201.5016200796937
 31
0.0
  0
LINE
  5
10A
330
1F
100
AcDbEntity
  8
A_RUNDUNGEN
  6
Continuous
 62
     7
100
AcDbLine
 10
751.6175886160245
 20
176.5015783993865
 30
0.0
 11
740.8176220449244
 21
176.5015309133937
 31
0.0
  0
LINE
  5
10B
330
1F
100
AcDbEntity
  8
1
  6
Continuous
 62
     7
100
AcDbLine
 10
753.117448885317
 20
202.5016094041937
 30
0.0
 11
753.1174549004244
 21
201.5019224229937
 31
0.0
  0
LINE
  5
10C
330
1F
100
AcDbEntity
  8
A_ACHSEN
  6
CENTER_1
 62
     2
100
AcDbLine
 10
748.1175886160244
 20
181.5016200796937
 30
0.0
 11
750.1425886160245
 21
181.5016200796937
 31
0.0
  0
LINE
  5
10D
330
1F
100
AcDbEntity
  8
A_ACHSEN
  6
CENTER_1
 62
     2
100
AcDbLine
 10
748.1175539048244
 20
196.5015789774937
 30
0.0
 11
751.3675539048244
 21
196.5015789774937
 31
0.0
  0
LINE
  5
10E
330
1F
100
AcDbEntity
  8
1
  6
Continuous
 62
     7
100
AcDbLine
 10
753.1174488832243
 20
202.5019224229937
 30
0.0
 11
753.117448885317
 21
202.5016094041937
 31
0.0
  0
LINE
  5
10F
330
1F
100
AcDbEntity
  8
1
  6
Continuous
 62
     7
100
AcDbLine
 10
751.1942253869244
 20
200.8019095646937
 30
0.0
 11
753.1174549004244
 21
201.5019224229937
 31
0.0
  0
LINE
  5
110
330
1F
100
AcDbEntity
  8
1
  6
Continuous
 62
     3
100
AcDbLine
 10
758.6175886160244
 20
202.5016241685937
 30
0.0
 11
758.6175886160244
 21
202.3906232618033
 31
0.0
  0
LINE
  5
111
330
1F
100
AcDbEntity
  8
1
  6
Continuous
 62
     3
100
AcDbLine
 10
758.6175886160244
 20
202.5016241685937
 30
0.0
 11
758.6175886160244
 21
202.3906232618033
 31
0.0
  0
LINE
  5
112
330
1F
100
AcDbEntity
  8
1
  6
Continuous
 62
     7
100
AcDbLine
 10
757.1174488831243
 20
202.5016241685937
 30
0.0
 11
758.6175886160244
 21
202.5016241685937
 31
0.0
  0
LINE
  5
113
330
1F
100
AcDbEntity
  8
A_ACHSEN
  6
CENTER_1
 62
     2
100
AcDbLine
 10
747.1175886164467
 20
196.5015789774937
 30
0.0
 11
748.1175539048244
 21
196.5015789774937
 31
0.0
  0
LINE
  5
114
330
1F
100
AcDbEntity
  8
A_ACHSEN
  6
CENTER_1
 62
     2
100
AcDbLine
 10
747.1175886160244
 20
181.5016200796937
 30
0.0
 11
748.1175886160244
 21
181.5016200796937
 31
0.0
  0
LINE
  5
115
330
1F
100
AcDbEntity
  8
0
  6
DASHED
 62
     2
100
AcDbLine
 10
727.9383289996243
 20
187.0635572582937
 30
0.0
 11
727.6175886160244
 21
184.7813325235395
 31
0.0
  0
LINE
  5
116
330
1F
100
AcDbEntity
  8
0
  6
Continuous
 62
     7
100
AcDbLine
 10
723.1174555696927
 20
201.401721849821
 30
0.0
 11
723.117615359556
 21
177.5017218506714
 31
0.0
  0
LINE
  5
117
330
1F
100
AcDbEntity
  8
0
  6
Continuous
 62
     7
100
AcDbLine
 10
724.4176126852245
 20
177.9017305420937
 30
0.0
 11
724.4174595811243
 21
200.8017305413937
 31
0.0
  0
LINE
  5
118
330
1F
100
AcDbEntity
  8
0
  6
Continuous
 62
     7
100
AcDbLine
 10
724.6176100109243
 20
178.3017318792937
 30
0.0
 11
724.6174602497243
 21
200.7017318785937
 31
0.0
  0
LINE
  5
119
330
1F
100
AcDbEntity
  8
0
  6
Continuous
 62
     7
100
AcDbLine
 10
725.8174769641245
 20
198.2017399015937
 30
0.0
 11
725.8175986451243
 21
180.0017399021937
 31
0.0
  0
LINE
  5
11A
330
1F
100
AcDbEntity
  8
A_RUNDUNGEN
  6
Continuous
 62
     7
100
AcDbLine
 10
726.3175887673243
 20
181.4362116335937
 30
0.0
 11
726.3175537536243
 21
196.5669248955937
 31
0.0
  0
LINE
  5
11B
330
1F
100
AcDbEntity
  8
0
  6
Continuous
 62
     7
100
AcDbLine
 10
728.9174602496245
 20
200.7017606273937
 30
0.0
 11
728.9174736211245
 21
198.7017606273937
 31
0.0
  0
LINE
  5
11C
330
1F
100
AcDbEntity
  8
0
  6
Continuous
 62
     7
100
AcDbLine
 10
728.9176019879243
 20
179.5017606280937
 30
0.0
 11
728.9176100108244
 21
178.3017606280937
 31
0.0
  0
LINE
  5
11D
330
1F
100
AcDbEntity
  8
A_RUNDUNGEN
  6
Continuous
 62
     7
100
AcDbLine
 10
729.8175932442244
 20
179.5015763639937
 30
0.0
 11
729.8175919171243
 21
180.0750400736937
 31
0.0
  0
LINE
  5
11E
330
1F
100
AcDbEntity
  8
A_RUNDUNGEN
  6
DASHED
 62
     2
100
AcDbLine
 10
729.8175506037243
 20
197.9281126541937
 30
0.0
 11
729.8175501021237
 21
198.1448632666129
 31
0.0
  0
LINE
  5
11F
330
1F
100
AcDbEntity
  8
0
  6
Continuous
 62
     7
100
AcDbLine
 10
731.1176106793245
 20
178.2013986810937
 30
0.0
 11
731.1176100102244
 21
178.3014795373937
 31
0.0
  0
LINE
  5
120
330
1F
100
AcDbEntity
  8
0
  6
Continuous
 62
     7
100
AcDbLine
 10
739.7530421065245
 20
181.3133351580937
 30
0.0
 11
740.2288870813303
 21
184.6992049354771
 31
0.0
  0
LINE
  5
121
330
1F
100
AcDbEntity
  8
0
  6
Continuous
 62
     7
100
AcDbLine
 10
738.6176106792244
 20
178.2014151342937
 30
0.0
 11
738.6176100098243
 21
178.3015296806937
 31
0.0
  0
LINE
  5
122
330
1F
100
AcDbEntity
  8
0
  6
DASHED
 62
     2
100
AcDbLine
 10
727.9383200302244
 20
190.9395867720937
 30
0.0
 11
727.607572493156
 21
193.2929382685143
 31
0.0
  0
LINE
  5
123
330
1F
100
AcDbEntity
  8
0
  6
Continuous
 62
     7
100
AcDbLine
 10
740.8176220449244
 20
176.5018401887937
 30
0.0
 11
740.8176126849245
 21
177.9018401887937
 31
0.0
  0
LINE
  5
124
330
1F
100
AcDbEntity
  8
A_RUNDUNGEN
  6
Continuous
 62
     7
100
AcDbLine
 10
741.3175964839244
 20
178.1016029759937
 30
0.0
 11
741.3175944012243
 21
179.0016029759937
 31
0.0
  0
LINE
  5
125
330
1F
100
AcDbEntity
  8
A_RUNDUNGEN
  6
DASHED
 62
     2
100
AcDbLine
 10
741.3175481196243
 20
199.0016029756937
 30
0.0
 11
741.3175469625293
 21
199.5016200796937
 31
0.0
  0
LINE
  5
126
330
1F
100
AcDbEntity
  8
A_ACHSEN
  6
CENTER_1
 62
     2
100
AcDbLine
 10
745.1175539048244
 20
196.5015789774937
 30
0.0
 11
745.1175539048244
 21
190.2515789774937
 31
0.0
  0
LINE
  5
127
330
1F
100
AcDbEntity
  8
A_ACHSEN
  6
CENTER_1
 62
     2
100
AcDbLine
 10
745.1175539048244
 20
196.5015789774937
 30
0.0
 11
745.1175539048244
 21
202.7515789774937
 31
0.0
  0
LINE
  5
128
330
1F
100
AcDbEntity
  8
A_ACHSEN
  6
CENTER_1
 62
     2
100
AcDbLine
 10
745.1175886160244
 20
181.5016200796937
 30
0.0
 11
745.1175886160244
 21
176.853969777832
 31
0.0
  0
LINE
  5
129
330
1F
100
AcDbEntity
  8
A_ACHSEN
  6
CENTER_1
 62
     2
100
AcDbLine
 10
745.1175886160244
 20
181.5016200796937
 30
0.0
 11
745.1175886160244
 21
186.5266200796937
 31
0.0
  0
LINE
  5
12A
330
1F
100
AcDbEntity
  8
0
  6
DASHED
 62
     2
100
AcDbLine
 10
739.7530065240245
 20
196.6898635525937
 30
0.0
 11
739.9762233353363
 21
195.1016200796937
 31
0.0
  0
LINE
  5
12B
330
1F
100
AcDbEntity
  8
A_RUNDUNGEN
  6
Continuous
 62
     7
100
AcDbLine
 10
754.6174622547243
 20
200.4016337527937
 30
0.0
 11
754.6174602490242
 21
200.7016366522937
 31
0.0
  0
LINE
  5
12C
330
1F
100
AcDbEntity
  8
0
  6
Continuous
 62
     7
100
AcDbLine
 10
757.1174488831243
 20
202.5016241685937
 30
0.0
 11
757.1174602489244
 21
200.7016241685937
 31
0.0
  0
LINE
  5
12D
330
1F
100
AcDbEntity
  8
A_RUNDUNGEN
  6
Continuous
 62
     7
100
AcDbLine
 10
757.1174622538243
 20
200.4016395379937
 30
0.0
 11
757.1174488831243
 21
202.5016241685937
 31
0.0
  0
LINE
  5
12E
330
1F
100
AcDbEntity
  8
A_RUNDUNGEN
  6
Continuous
 62
     7
100
AcDbLine
 10
758.6175886160244
 20
176.5016327510429
 30
0.0
 11
758.6175876895143
 21
176.5016327510429
 31
0.0
  0
LINE
  5
12F
330
1F
100
AcDbEntity
  8
0
  6
Continuous
 62
     7
100
AcDbLine
 10
724.1176220453019
 20
176.5017285364621
 30
0.0
 11
740.8176220449244
 21
176.5018401887937
 31
0.0
  0
LINE
  5
130
330
1F
100
AcDbEntity
  8
A_RUNDUNGEN
  6
Continuous
 62
     7
100
AcDbLine
 10
758.6175976409244
 20
177.6016430095937
 30
0.0
 11
757.1176146901245
 21
177.6016395384937
 31
0.0
  0
LINE
  5
131
330
1F
100
AcDbEntity
  8
A_RUNDUNGEN
  6
Continuous
 62
     7
100
AcDbLine
 10
744.2667194697243
 20
177.6016098004937
 30
0.0
 11
741.8175976409244
 21
177.6016041329937
 31
0.0
  0
LINE
  5
132
330
1F
100
AcDbEntity
  8
A_RUNDUNGEN
  6
Continuous
 62
     7
100
AcDbLine
 10
740.8176126849245
 20
177.9015309133937
 30
0.0
 11
741.3614676822243
 21
177.9015293753937
 31
0.0
  0
LINE
  5
133
330
1F
100
AcDbEntity
  8
0
  6
Continuous
 62
     7
100
AcDbLine
 10
740.8176126849245
 20
177.9018401887937
 30
0.0
 11
724.4176126852245
 21
177.9017305420937
 31
0.0
  0
LINE
  5
134
330
1F
100
AcDbEntity
  8
A_RUNDUNGEN
  6
Continuous
 62
     7
100
AcDbLine
 10
741.3175958156245
 20
178.2015275180937
 30
0.0
 11
724.4176106795245
 21
178.2014145286937
 31
0.0
  0
LINE
  5
135
330
1F
100
AcDbEntity
  8
A_RUNDUNGEN
  6
Continuous
 62
     7
100
AcDbLine
 10
728.9176100108244
 20
178.3014715667937
 30
0.0
 11
741.3175960211244
 21
178.3015477321937
 31
0.0
  0
LINE
  5
136
330
1F
100
AcDbEntity
  8
0
  6
Continuous
 62
     7
100
AcDbLine
 10
724.6176100109243
 20
178.3017318792937
 30
0.0
 11
728.9176100108244
 21
178.3017606280937
 31
0.0
  0
LINE
  5
137
330
1F
100
AcDbEntity
  8
A_RUNDUNGEN
  6
Continuous
 62
     7
100
AcDbLine
 10
741.3175944012243
 20
179.0016029759937
 30
0.0
 11
730.3175944012243
 21
179.0015775210937
 31
0.0
  0
LINE
  5
138
330
1F
100
AcDbEntity
  8
A_ACHSEN
  6
CENTER_1
 62
     2
100
AcDbLine
 10
745.1175886160244
 20
181.5016200796937
 30
0.0
 11
740.0925886160245
 21
181.5016200796937
 31
0.0
  0
LINE
  5
139
330
1F
100
AcDbEntity
  8
A_ACHSEN
  6
CENTER_1
 62
     2
100
AcDbLine
 10
745.1175886160244
 20
181.5016200796937
 30
0.0
 11
747.1175886160244
 21
181.5016200796937
 31
0.0
  0
LINE
  5
13A
330
1F
100
AcDbEntity
  8
A_RUNDUNGEN
  6
Continuous
 62
     7
100
AcDbLine
 10
729.3871773218244
 20
180.5701731119937
 30
0.0
 11
726.7480033626244
 21
180.9410785952937
 31
0.0
  0
LINE
  5
13B
330
1F
100
AcDbEntity
  8
0
  6
Continuous
 62
     7
100
AcDbLine
 10
728.2257848030243
 20
181.9235310753937
 30
0.0
 11
728.6049751016042
 21
181.8702402491231
 31
0.0
  0
LINE
  5
13C
330
1F
100
AcDbEntity
  8
A_RUNDUNGEN
  6
Continuous
 62
     7
100
AcDbLine
 10
728.9176019879243
 20
179.5014715666937
 30
0.0
 11
729.8474388713245
 21
179.3514980849937
 31
0.0
  0
LINE
  5
13D
330
1F
100
AcDbEntity
  8
0
  6
Continuous
 62
     7
100
AcDbLine
 10
725.8175986451243
 20
180.0017399021937
 30
0.0
 11
728.9176019879243
 21
179.5017606280937
 31
0.0
  0
LINE
  5
13E
330
1F
100
AcDbEntity
  8
0
  6
Continuous
 62
     7
100
AcDbLine
 10
739.465586303216
 20
186.4533613410176
 30
0.0
 11
734.6302828292804
 21
187.1329075169408
 31
0.0
  0
LINE
  5
13F
330
1F
100
AcDbEntity
  8
0
  6
Continuous
 62
     7
100
AcDbLine
 10
739.4655745095243
 20
191.5498360393937
 30
0.0
 11
733.0176810485501
 21
190.6436284946832
 31
0.0
  0
LINE
  5
140
330
1F
100
AcDbEntity
  8
A_RUNDUNGEN
  6
Continuous
 62
     7
100
AcDbLine
 10
729.9938558752243
 20
198.8750825467937
 30
0.0
 11
728.9174736211245
 21
198.7014715660937
 31
0.0
  0
LINE
  5
141
330
1F
100
AcDbEntity
  8
0
  6
Continuous
 62
     7
100
AcDbLine
 10
728.9174736211245
 20
198.7017606273937
 30
0.0
 11
725.8174769641245
 21
198.2017399015937
 31
0.0
  0
LINE
  5
142
330
1F
100
AcDbEntity
  8
0
  6
DASHED
 62
     2
100
AcDbLine
 10
728.2257520446243
 20
196.0796142852937
 30
0.0
 11
738.6235633848243
 21
197.5409559067937
 31
0.0
  0
LINE
  5
143
330
1F
100
AcDbEntity
  8
A_RUNDUNGEN
  6
Continuous
 62
     7
100
AcDbLine
 10
726.7479660573243
 20
197.0620599259937
 30
0.0
 11
729.0435562806099
 21
197.3846895092279
 31
0.0
  0
LINE
  5
144
330
1F
100
AcDbEntity
  8
A_ACHSEN
  6
CENTER_1
 62
     2
100
AcDbLine
 10
745.1175539048244
 20
196.5015789774937
 30
0.0
 11
738.8675539048244
 21
196.5015789774937
 31
0.0
  0
LINE
  5
145
330
1F
100
AcDbEntity
  8
A_ACHSEN
  6
CENTER_1
 62
     2
100
AcDbLine
 10
745.1175539048244
 20
196.5015789774937
 30
0.0
 11
747.1175886164467
 21
196.5015789774937
 31
0.0
  0
LINE
  5
146
330
1F
100
AcDbEntity
  8
A_RUNDUNGEN
  6
Continuous
 62
     7
100
AcDbLine
 10
730.3175481196243
 20
199.0015775207937
 30
0.0
 11
731.2195800286481
 21
199.0015796081693
 31
0.0
  0
LINE
  5
147
330
1F
100
AcDbEntity
  8
A_RUNDUNGEN
  6
Continuous
 62
     7
100
AcDbLine
 10
741.8175448798244
 20
200.4016041327937
 30
0.0
 11
756.8175886160244
 21
200.4016388440556
 31
0.0
  0
LINE
  5
148
330
1F
100
AcDbEntity
  8
A_RUNDUNGEN
  6
Continuous
 62
     7
100
AcDbLine
 10
724.4174602497243
 20
200.7014145279937
 30
0.0
 11
724.6174602518244
 21
200.7014158650937
 31
0.0
  0
LINE
  5
149
330
1F
100
AcDbEntity
  8
A_RUNDUNGEN
  6
Continuous
 62
     7
100
AcDbLine
 10
757.1174602489244
 20
200.7016241685937
 30
0.0
 11
728.9174602496245
 21
200.7014715659937
 31
0.0
  0
LINE
  5
14A
330
1F
100
AcDbEntity
  8
0
  6
Continuous
 62
     7
100
AcDbLine
 10
724.6174602497243
 20
200.7017318785937
 30
0.0
 11
728.9174602496245
 21
200.7017606273937
 31
0.0
  0
LINE
  5
14B
330
1F
100
AcDbEntity
  8
0
  6
Continuous
 62
     7
100
AcDbLine
 10
724.4174595811243
 20
200.8017305413937
 30
0.0
 11
751.1942253869244
 21
200.8019095646937
 31
0.0
  0
LINE
  5
14C
330
1F
100
AcDbEntity
  8
A_RUNDUNGEN
  6
Continuous
 62
     7
100
AcDbLine
 10
753.117448885317
 20
202.5016094041937
 30
0.0
 11
757.1174488831243
 21
202.5016241685937
 31
0.0
  0
LINE
  5
14D
330
1F
100
AcDbEntity
  8
0
  6
Continuous
 62
     7
100
AcDbLine
 10
724.1174488838969
 20
202.501728535567
 30
0.0
 11
753.1174488832243
 21
202.5019224229937
 31
0.0
  0
LINE
  5
14E
330
1F
100
AcDbEntity
  8
1
  6
Continuous
 62
     7
100
AcDbLine
 10
751.6175886160244
 20
176.5016200796937
 30
0.0
 11
751.6175886160245
 21
176.5015783993865
 31
0.0
  0
LINE
  5
14F
330
1F
100
AcDbEntity
  8
1
  6
Continuous
 62
     7
100
AcDbLine
 10
758.6175448798243
 20
200.4016430092937
 30
0.0
 11
758.6175448798243
 21
199.1473713907581
 31
0.0
  0
LINE
  5
150
330
1F
100
AcDbEntity
  8
1
  6
DASHED
 62
     2
100
AcDbLine
 10
758.6175448798243
 20
199.1473713907581
 30
0.0
 11
758.6175448798243
 21
187.5443176106025
 31
0.0
  0
LINE
  5
151
330
1F
100
AcDbEntity
  8
1
  6
Continuous
 62
     7
100
AcDbLine
 10
758.6175876895143
 20
181.9020111081594
 30
0.0
 11
758.6175876895143
 21
176.5016327510429
 31
0.0
  0
LINE
  5
152
330
1F
100
AcDbEntity
  8
A_RUNDUNGEN
  6
Continuous
 62
     7
100
AcDbLine
 10
758.6175876895143
 20
176.5016327510429
 30
0.0
 11
757.1175585301243
 21
176.5016211040258
 31
0.0
  0
LINE
  5
153
330
1F
100
AcDbEntity
  8
1
  6
Continuous
 62
     7
100
AcDbLine
 10
758.6175448798243
 20
187.5443176106025
 30
0.0
 11
758.6175448798243
 21
181.9020111081594
 31
0.0
  0
LINE
  5
154
330
1F
100
AcDbEntity
  8
A_RUNDUNGEN
  6
Continuous
 62
     7
100
AcDbLine
 10
757.1176146901245
 20
177.6016395384937
 30
0.0
 11
745.9636282776243
 21
177.6016137272937
 31
0.0
  0
LINE
  5
155
330
1F
100
AcDbEntity
  8
A_RUNDUNGEN
  6
Continuous
 62
     7
100
AcDbLine
 10
757.1175585301243
 20
176.5016211040258
 30
0.0
 11
751.6175886160245
 21
176.5015783993865
 31
0.0
  0
LINE
  5
156
330
1F
100
AcDbEntity
  8
A_RUNDUNGEN
  6
Continuous
 62
     7
100
AcDbLine
 10
757.1176146901245
 20
177.6016395384937
 30
0.0
 11
757.1176220446245
 21
176.5016241693937
 31
0.0
  0
ARC
  5
157
330
1F
100
AcDbEntity
  8
0
  6
Continuous
 62
     7
100
AcDbCircle
 10
746.1475350390224
 20
177.0267625187936
 30
0.0
 40
2.475214549166035
100
AcDbArc
 50
-90.69609552883855
 51
-89.30390447033255
  0
ARC
  5
158
330
1F
100
AcDbEntity
  8
DEFAULT_2
  6
Continuous
 62
     7
100
AcDbCircle
 10
742.9087740956244
 20
175.1016200796937
 30
0.0
 40
20.00000000006023
100
AcDbArc
 50
40.000000000114
 51
90.0
  0
ARC
  5
159
330
1F
100
AcDbEntity
  8
A_ACHSEN
  6
Continuous
 62
     7
100
AcDbCircle
 10
731.6175886160244
 20
184.5016200796937
 30
0.0
 40
4.0
100
AcDbArc
 50
180.0
 51
46.08093198710475
  0
ARC
  5
15A
330
1F
100
AcDbEntity
  8
A_ACHSEN
  6
Continuous
 62
     7
100
AcDbCircle
 10
733.6175886160244
 20
193.5016200796937
 30
0.0
 40
6.0
100
AcDbArc
 50
90.0
 51
180.0
  0
ARC
  5
15B
330
1F
100
AcDbEntity
  8
A_ACHSEN
  6
Continuous
 62
     7
100
AcDbCircle
 10
757.6175886160244
 20
170.5016200796937
 30
0.0
 40
4.399999999999871
100
AcDbArc
 50
60.2288663277943
 51
-63.99999999957726
  0
ARC
  5
15C
330
1F
100
AcDbEntity
  8
A_ACHSEN
  6
Continuous
 62
     7
100
AcDbCircle
 10
760.7954235403244
 20
176.0569207190937
 30
0.0
 40
2.000000000017221
100
AcDbArc
 50
-119.7711336716865
 51
-63.99999999945755
  0
ARC
  5
15D
330
1F
100
AcDbEntity
  8
A_ACHSEN
  6
Continuous
 62
     7
100
AcDbCircle
 10
765.7967003418245
 20
177.3836044591937
 30
0.0
 40
6.999999999994905
100
AcDbArc
 50
-64.00000000019402
 51
39.9999999996112
  0
ARC
  5
15E
330
1F
100
AcDbEntity
  8
A_ACHSEN
  6
Continuous
 62
     7
100
AcDbCircle
 10
764.2079252764244
 20
177.7213090242937
 30
0.0
 40
2.000000000011089
100
AcDbArc
 50
-63.9999999994572
 51
40.00000000129
  0
ARC
  5
15F
330
1F
100
AcDbEntity
  8
A_ACHSEN
  6
Continuous
 62
     7
100
AcDbCircle
 10
755.6175886160244
 20
196.5016200796937
 30
0.0
 40
4.0
100
AcDbArc
 50
0.0
 51
123.5573097619008
  0
ARC
  5
160
330
1F
100
AcDbEntity
  8
A_ACHSEN
  6
Continuous
 62
     7
100
AcDbCircle
 10
752.3009638257244
 20
201.5016200796937
 30
0.0
 40
2.0
100
AcDbArc
 50
-90.0
 51
-56.44269023936177
  0
ARC
  5
161
330
1F
100
AcDbEntity
  8
A_ACHSEN
  6
Continuous
 62
     7
100
AcDbCircle
 10
760.6175886160244
 20
196.0016200796937
 30
0.0
 40
1.0
100
AcDbArc
 50
180.0
 51
-140.0000000030938
  0
ARC
  5
162
330
1F
100
AcDbEntity
  8
A_ACHSEN
  6
Continuous
 62
     7
100
AcDbCircle
 10
737.5043802517245
 20
190.6148284440937
 30
0.0
 40
4.486791635600014
100
AcDbArc
 50
90.0
 51
-133.9190680123934
  0
ARC
  5
163
330
1F
100
AcDbEntity
  8
1
  6
Continuous
 62
     7
100
AcDbCircle
 10
761.6175876895143
 20
212.5016200796937
 30
0.0
 40
3.0
100
AcDbArc
 50
90.0
 51
180.0
  0
ARC
  5
164
330
1F
100
AcDbEntity
  8
1
  6
Continuous
 62
     7
100
AcDbCircle
 10
765.8870481079443
 20
212.5016200796937
 30
0.0
 40
2.999999999999975
100
AcDbArc
 50
-15.00000000000078
 51
90.0
  0
ARC
  5
165
330
1F
100
AcDbEntity
  8
1
  6
Continuous
 62
     7
100
AcDbCircle
 10
761.6175876895143
 20
212.5016200796937
 30
0.0
 40
2.0
100
AcDbArc
 50
90.0
 51
180.0
  0
ARC
  5
166
330
1F
100
AcDbEntity
  8
1
  6
Continuous
 62
     7
100
AcDbCircle
 10
765.8870481079443
 20
212.5016200796937
 30
0.0
 40
1.999999999999929
100
AcDbArc
 50
-14.99999999999923
 51
90.0
  0
ARC
  5
167
330
1F
100
AcDbEntity
  8
0
  6
Continuous
 62
     7
100
AcDbCircle
 10
751.4649221146243
 20
183.8746140189937
 30
0.0
 40
6.000000000001048
100
AcDbArc
 50
67.99999999995707
 51
103.0000000003668
  0
ARC
  5
168
330
1F
100
AcDbEntity
  8
A_ACHSEN
  6
Continuous
 62
     7
100
AcDbCircle
 10
744.7175886160243
 20
181.5016200796937
 30
0.0
 40
3.999999999942626
100
AcDbArc
 50
-171.9999999990204
 51
12.99999999875618
  0
ARC
  5
169
330
1F
100
AcDbEntity
  8
A_RUNDUNGEN
  6
HIDDEN
 62
     2
100
AcDbCircle
 10
742.7331934110243
 20
181.2507325703937
 30
0.0
 40
2.000000000019399
100
AcDbArc
 50
128.0000000013364
 51
-171.9999999978018
  0
ARC
  5
16A
330
1F
100
AcDbEntity
  8
0
  6
Continuous
 62
     7
100
AcDbCircle
 10
742.7331934110243
 20
181.2507325703937
 30
0.0
 40
2.000000000019399
100
AcDbArc
 50
128.0000000013364
 51
-171.9999999978018
  0
ARC
  5
16B
330
1F
100
AcDbEntity
  8
0
  6
Continuous
 62
     7
100
AcDbCircle
 10
746.0377225673243
 20
186.4789720017937
 30
0.0
 40
5.999999999934986
100
AcDbArc
 50
127.9999999998309
 51
-171.99999999956
  0
ARC
  5
16C
330
1F
100
AcDbEntity
  8
A_RUNDUNGEN
  6
Continuous
 62
     7
100
AcDbCircle
 10
749.4853139109243
 20
187.5228018849937
 30
0.0
 40
2.000000000031537
100
AcDbArc
 50
103.0000000001531
 51
-167.0000000019954
  0
ARC
  5
16D
330
1F
100
AcDbEntity
  8
A_RUNDUNGEN
  6
Continuous
 62
     7
100
AcDbCircle
 10
746.8236372336244
 20
185.7155557500937
 30
0.0
 40
0.9999999999999433
100
AcDbArc
 50
13.00000000000808
 51
127.999999999081
  0
ARC
  5
16E
330
1F
100
AcDbEntity
  8
0
  6
DASHED
 62
     2
100
AcDbCircle
 10
759.9183606120243
 20
193.4016200796937
 30
0.0
 40
5.999999999999993
100
AcDbArc
 50
-102.5208768707039
 51
-90.0
  0
ARC
  5
16F
330
1F
100
AcDbEntity
  8
0
  6
DASHED
 62
     2
100
AcDbCircle
 10
761.6175886160244
 20
194.9016200796937
 30
0.0
 40
2.0
100
AcDbArc
 50
180.0
 51
-90.0
  0
ARC
  5
170
330
1F
100
AcDbEntity
  8
A_RUNDUNGEN
  6
Continuous
 62
     7
100
AcDbCircle
 10
775.9126224092244
 20
183.2095442925937
 30
0.0
 40
8.999999999980524
100
AcDbArc
 50
5.00000000046508
 51
82.00000000027873
  0
ARC
  5
171
330
1F
100
AcDbEntity
  8
A_RUNDUNGEN
  6
Continuous
 62
     7
100
AcDbCircle
 10
772.1430045957243
 20
180.4016200796937
 30
0.0
 40
6.999999999955069
100
AcDbArc
 50
4.99999999975594
 51
90.0
  0
ARC
  5
172
330
1F
100
AcDbEntity
  8
A_ACHSEN
  6
Continuous
 62
     7
100
AcDbCircle
 10
781.6175886160244
 20
172.5016200796937
 30
0.0
 40
4.250000000000636
100
AcDbArc
 50
131.8698976458011
 51
4.99999999894675
  0
ARC
  5
173
330
1F
100
AcDbEntity
  8
A_ACHSEN
  6
Continuous
 62
     7
100
AcDbCircle
 10
777.4460797844243
 20
177.1557595347937
 30
0.0
 40
1.999999999970199
100
AcDbArc
 50
-48.13010235263563
 51
5.00000000009242
  0
ARC
  5
174
330
1F
100
AcDbEntity
  8
A_RUNDUNGEN
  6
Continuous
 62
     7
100
AcDbCircle
 10
783.6289563160243
 20
186.7743992739937
 30
0.0
 40
0.5000000000000718
100
AcDbArc
 50
24.79637850394004
 51
154.9999999960356
  0
ARC
  5
175
330
1F
100
AcDbEntity
  8
DEFAULT_2
  6
HIDDEN
 62
     2
100
AcDbCircle
 10
755.6175886160244
 20
196.5016200796937
 30
0.0
 40
3.999999999977309
100
AcDbArc
 50
118.2998642382769
 51
128.0000000002087
  0
ARC
  5
176
330
1F
100
AcDbEntity
  8
0
  6
Continuous
 62
     7
100
AcDbCircle
 10
759.9183606120243
 20
193.4016200796937
 30
0.0
 40
6.000000000001048
100
AcDbArc
 50
-112.0000000000429
 51
-102.5208768707039
  0
ARC
  5
177
330
1F
100
AcDbEntity
  8
A_RUNDUNGEN
  6
DASHED
 62
     2
100
AcDbCircle
 10
781.7890331240243
 20
189.7020907353937
 30
0.0
 40
1.000000000041349
100
AcDbArc
 50
-134.9996169379213
 51
-89.99961693761416
  0
ARC
  5
178
330
1F
100
AcDbEntity
  8
A_RUNDUNGEN
  6
Continuous
 62
     7
100
AcDbCircle
 10
783.8944556210243
 20
169.6884725665938
 30
0.0
 40
1.000000000003199
100
AcDbArc
 50
-106.9996169286024
 51
-16.99961693408418
  0
ARC
  5
179
330
1F
100
AcDbEntity
  8
A_RUNDUNGEN
  6
DASHED
 62
     2
100
AcDbCircle
 10
785.0785351309243
 20
173.5615147446937
 30
0.0
 40
1.0000000000322
100
AcDbArc
 50
49.77748912617127
 51
73.00038306592504
  0
ARC
  5
17A
330
1F
100
AcDbEntity
  8
A_RUNDUNGEN
  6
Continuous
 62
     7
100
AcDbCircle
 10
784.6175322625244
 20
178.9309021908937
 30
0.0
 40
0.9999999999223138
100
AcDbArc
 50
-40.48281293515576
 51
0.00038306812285
  0
ARC
  5
17B
330
1F
100
AcDbEntity
  8
A_RUNDUNGEN
  6
Continuous
 62
     7
100
AcDbCircle
 10
784.6174736202241
 20
187.7021096456937
 30
0.0
 40
1.00000000002235
100
AcDbArc
 50
0.00038306812281
 51
90.00038306811793
  0
ARC
  5
17C
330
1F
100
AcDbEntity
  8
A_RUNDUNGEN
  6
DASHED
 62
     2
100
AcDbCircle
 10
779.2606080050242
 20
189.4020738309937
 30
0.0
 40
0.9999999999706879
100
AcDbArc
 50
45.00038306613659
 51
90.00038306811797
  0
ARC
  5
17D
330
1F
100
AcDbEntity
  8
0
  6
Continuous
 62
     7
100
AcDbCircle
 10
793.1176193698242
 20
165.9019097566937
 30
0.0
 40
1.00000000002235
100
AcDbArc
 50
-89.99961693186906
 51
0.00038306238743
  0
ARC
  5
17E
330
1F
100
AcDbEntity
  8
0
  6
Continuous
 62
     7
100
AcDbCircle
 10
793.1174421969243
 20
192.4019097557937
 30
0.0
 40
1.00000000002235
100
AcDbArc
 50
0.00038306812281
 51
90.00038306813096
  0
ARC
  5
17F
330
1F
100
AcDbEntity
  8
0
  6
Continuous
 62
     7
100
AcDbCircle
 10
756.1175785874242
 20
172.0019191017938
 30
0.0
 40
2.999999999966973
100
AcDbArc
 50
160.5348365777981
 51
-179.9996169337836
  0
ARC
  5
180
330
1F
100
AcDbEntity
  8
A_RUNDUNGEN
  6
DASHED
 62
     2
100
AcDbCircle
 10
759.6174820747243
 20
186.4374764073938
 30
0.0
 40
2.499999999962061
100
AcDbArc
 50
-44.99961693305254
 51
0.00038306812054
  0
ARC
  5
181
330
1F
100
AcDbEntity
  8
A_RUNDUNGEN
  6
Continuous
 62
     7
100
AcDbCircle
 10
759.9867878542242
 20
176.9976053435937
 30
0.0
 40
0.9999999999072124
100
AcDbArc
 50
163.0003830697247
 51
-106.9996169334743
  0
ARC
  5
182
330
1F
100
AcDbEntity
  8
A_RUNDUNGEN
  6
Continuous
 62
     7
100
AcDbCircle
 10
761.1708673641243
 20
180.8706475216937
 30
0.0
 40
1.000000000018346
100
AcDbArc
 50
73.0003830665816
 51
163.00038306425
  0
ARC
  5
183
330
1F
100
AcDbEntity
  8
A_RUNDUNGEN
  6
DASHED
 62
     2
100
AcDbCircle
 10
766.1174944480243
 20
184.5867961109938
 30
0.0
 40
0.9999999999223055
100
AcDbArc
 50
-179.9996169318658
 51
-106.9996169286024
  0
ARC
  5
184
330
1F
100
AcDbEntity
  8
A_RUNDUNGEN
  6
DASHED
 62
     2
100
AcDbCircle
 10
766.1174622548243
 20
189.4019859588938
 30
0.0
 40
1.00000000002235
100
AcDbArc
 50
90.00038306811793
 51
-179.9996169318658
  0
ARC
  5
185
330
1F
100
AcDbEntity
  8
A_RUNDUNGEN
  6
DASHED
 62
     2
100
AcDbCircle
 10
784.6175322625244
 20
178.9309021908937
 30
0.0
 40
0.9999999999366666
100
AcDbArc
 50
-106.9996169357619
 51
-40.48281293515576
  0
ARC
  5
186
330
1F
100
AcDbEntity
  8
A_RUNDUNGEN
  6
Continuous
 62
     7
100
AcDbCircle
 10
785.0785351309243
 20
173.5615147446937
 30
0.0
 40
1.000000000002861
100
AcDbArc
 50
-16.99961692859473
 51
49.77748912617127
  0
ARC
  5
187
330
1F
100
AcDbEntity
  8
0
  6
Continuous
 62
     7
100
AcDbCircle
 10
756.1175785874242
 20
172.0019191017938
 30
0.0
 40
2.999999999966948
100
AcDbArc
 50
90.00038306621157
 51
160.5348365777981
  0
ARC
  5
188
330
1F
100
AcDbEntity
  8
0
  6
Continuous
 62
     7
100
AcDbCircle
 10
722.6174640039566
 20
202.5517306407659
 30
0.0
 40
3.0
100
AcDbArc
 50
90.0
 51
180.0
  0
ARC
  5
189
330
1F
100
AcDbEntity
  8
0
  6
Continuous
 62
     7
100
AcDbCircle
 10
722.6174640039566
 20
202.5517306407659
 30
0.0
 40
0.5
100
AcDbArc
 50
90.0
 51
180.0
  0
ARC
  5
18A
330
1F
100
AcDbEntity
  8
0
  6
Continuous
 62
     7
100
AcDbCircle
 10
746.1475350390224
 20
177.0267625187936
 30
0.0
 40
2.47521454916647
100
AcDbArc
 50
-89.30390447033255
 51
-12.25029073577792
  0
ARC
  5
18B
330
1F
100
AcDbEntity
  8
1
  6
DASHED
 62
     2
100
AcDbCircle
 10
745.1175539048244
 20
196.5015789774937
 30
0.0
 40
3.0
100
AcDbArc
 50
0.0
 51
-152.1827482791769
  0
ARC
  5
18C
330
1F
100
AcDbEntity
  8
1
  6
DASHED
 62
     2
100
AcDbCircle
 10
745.1175539048244
 20
196.5015789774937
 30
0.0
 40
2.999999999999935
100
AcDbArc
 50
-86.76696210794589
 51
-17.23303789140028
  0
ARC
  5
18D
330
1F
100
AcDbEntity
  8
1
  6
DASHED
 62
     2
100
AcDbCircle
 10
745.1175539048244
 20
196.5015789774937
 30
0.0
 40
3.000000000000012
100
AcDbArc
 50
-17.23303789140028
 51
0.0
  0
ARC
  5
18E
330
1F
100
AcDbEntity
  8
1
  6
Continuous
 62
     7
100
AcDbCircle
 10
745.1175539048244
 20
196.5015789774937
 30
0.0
 40
2.999999999999949
100
AcDbArc
 50
-152.1827482791769
 51
-86.76696210794589
  0
ARC
  5
18F
330
1F
100
AcDbEntity
  8
0
  6
Continuous
 62
     2
100
AcDbCircle
 10
739.3264154938244
 20
185.4630929501937
 30
0.0
 40
1.000000000003444
100
AcDbArc
 50
-7.99986741294469
 51
43.95001951786264
  0
ARC
  5
190
330
1F
100
AcDbEntity
  8
0
  6
Continuous
 62
     7
100
AcDbCircle
 10
728.3649556124243
 20
182.9137994661937
 30
0.0
 40
1.000000000003223
100
AcDbArc
 50
172.0001325870519
 51
-97.99986741294398
  0
ARC
  5
191
330
1F
100
AcDbEntity
  8
0
  6
Continuous
 62
     7
100
AcDbCircle
 10
738.7627737157244
 20
181.4525059674937
 30
0.0
 40
1.000000000137067
100
AcDbArc
 50
-97.99986741374833
 51
-7.99986741294469
  0
ARC
  5
192
330
1F
100
AcDbEntity
  8
0
  6
Continuous
 62
     7
100
AcDbCircle
 10
739.3264154938244
 20
185.4630929501937
 30
0.0
 40
1.000000000025883
100
AcDbArc
 50
43.95001951786264
 51
82.0001325877175
  0
ARC
  5
193
330
1F
100
AcDbEntity
  8
0
  6
DASHED
 62
     2
100
AcDbCircle
 10
728.9285973904244
 20
186.9243864488937
 30
0.0
 40
0.999999999904313
100
AcDbArc
 50
82.00013258625873
 51
172.0001325870537
  0
ARC
  5
194
330
1F
100
AcDbEntity
  8
0
  6
DASHED
 62
     2
100
AcDbCircle
 10
728.9285877769245
 20
191.0787621645937
 30
0.0
 40
1.00000000001597
100
AcDbArc
 50
-171.9998674142223
 51
-81.99986741342771
  0
ARC
  5
195
330
1F
100
AcDbEntity
  8
0
  6
Continuous
 62
     7
100
AcDbCircle
 10
739.3263991170244
 20
192.5401037860937
 30
0.0
 40
1.000000000015906
100
AcDbArc
 50
-81.99986741422502
 51
8.00013258577614
  0
ARC
  5
196
330
1F
100
AcDbEntity
  8
0
  6
DASHED
 62
     2
100
AcDbCircle
 10
738.7627387773244
 20
196.5506881600937
 30
0.0
 40
1.000000000015967
100
AcDbArc
 50
8.00013258577614
 51
98.00013258578788
  0
ARC
  5
197
330
1F
100
AcDbEntity
  8
0
  6
Continuous
 62
     7
100
AcDbCircle
 10
728.3649274371243
 20
195.0893465386937
 30
0.0
 40
0.9999999999168918
100
AcDbArc
 50
98.00013258657229
 51
-171.9998674077512
  0
ARC
  5
198
330
1F
100
AcDbEntity
  8
A_RUNDUNGEN
  6
Continuous
 62
     7
100
AcDbCircle
 10
726.8175537536243
 20
196.5669260526937
 30
0.0
 40
0.4999999999654078
100
AcDbArc
 50
98.00013259224863
 51
-179.9998674061069
  0
ARC
  5
199
330
1F
100
AcDbEntity
  8
A_RUNDUNGEN
  6
Continuous
 62
     7
100
AcDbCircle
 10
730.3175492766244
 20
198.5015775207937
 30
0.0
 40
0.5000000000013386
100
AcDbArc
 50
90.00013258243865
 51
-179.9998674175679
  0
ARC
  5
19A
330
1F
100
AcDbEntity
  8
A_RUNDUNGEN
  6
Continuous
 62
     7
100
AcDbCircle
 10
741.8175460369245
 20
199.9016041327937
 30
0.0
 40
0.5000000000013388
100
AcDbArc
 50
90.0001325939029
 51
-179.9998674061069
  0
ARC
  5
19B
330
1F
100
AcDbEntity
  8
A_RUNDUNGEN
  6
Continuous
 62
     7
100
AcDbCircle
 10
741.8175964839244
 20
178.1016041329937
 30
0.0
 40
0.5000000000013386
100
AcDbArc
 50
-179.9998674175646
 51
-89.99986741756135
  0
ARC
  5
19C
330
1F
100
AcDbEntity
  8
A_RUNDUNGEN
  6
Continuous
 62
     7
100
AcDbCircle
 10
730.3175932442244
 20
179.5015775210937
 30
0.0
 40
0.5000000000013388
100
AcDbArc
 50
-179.9998674061069
 51
-89.9998674175874
  0
ARC
  5
19D
330
1F
100
AcDbEntity
  8
A_RUNDUNGEN
  6
Continuous
 62
     7
100
AcDbCircle
 10
726.8175887673243
 20
181.4362127906937
 30
0.0
 40
0.5000000000013388
100
AcDbArc
 50
-179.9998674061069
 51
-97.99986741293108
  0
ARC
  5
19E
330
1F
100
AcDbEntity
  8
A_RUNDUNGEN
  6
Continuous
 62
     7
100
AcDbCircle
 10
729.3175919171243
 20
180.0750389165937
 30
0.0
 40
0.5000000000013388
100
AcDbArc
 50
0.00013259389313
 51
82.00013258704313
  0
ARC
  5
19F
330
1F
100
AcDbEntity
  8
A_RUNDUNGEN
  6
DASHED
 62
     2
100
AcDbCircle
 10
729.3175506037243
 20
197.9281114970937
 30
0.0
 40
0.4999999999515157
100
AcDbArc
 50
-81.99986741907824
 51
0.00013259389313
  0
CIRCLE
  5
1A0
330
1F
100
AcDbEntity
  8
A_ACHSEN
  6
Continuous
 62
     7
100
AcDbCircle
 10
731.6175886160244
 20
184.5016200796937
 30
0.0
 40
1.950000000000045
  0
CIRCLE
  5
1A1
330
1F
100
AcDbEntity
  8
0
  6
Continuous
 62
     7
100
AcDbCircle
 10
755.6175886160244
 20
196.5016200796937
 30
0.0
 40
2.025000000000091
  0
CIRCLE
  5
1A2
330
1F
100
AcDbEntity
  8
A_ACHSEN
  6
Continuous
 62
     7
100
AcDbCircle
 10
745.1175886160244
 20
181.5016200796937
 30
0.0
 40
1.661324865399934
  0
CIRCLE
  5
1A3
330
1F
100
AcDbEntity
  8
A_ACHSEN
  6
Continuous
 62
     7
100
AcDbCircle
 10
781.6175886160244
 20
172.5016200796937
 30
0.0
 40
1.661324865399934
  0
CIRCLE
  5
1A4
330
1F
100
AcDbEntity
  8
A_ACHSEN
  6
DASHED
 62
     2
100
AcDbCircle
 10
757.6175886160244
 20
170.5019235154937
 30
0.0
 40
4.0
  0
CIRCLE
  5
1A5
330
1F
100
AcDbEntity
  8
0
  6
Continuous
 62
     7
100
AcDbCircle
 10
757.6175886160244
 20
170.5019257614937
 30
0.0
 40
2.039999999999964
  0
CIRCLE
  5
1A6
330
1F
100
AcDbEntity
  8
1
  6
DASHED
 62
     2
100
AcDbCircle
 10
745.1175886160244
 20
181.5016200796937
 30
0.0
 40
3.0
  0
SPLINE
  5
1A7
330
1F
100
AcDbEntity
  8
1
  6
Continuous
 62
     2
100
AcDbSpline
210
0.0
220
0.0
230
1.0
 70
     8
 71
     3
 72
    21
 73
    17
 74
    15
 42
0.0000000001
 43
0.0000000001
 44
0.00000001
 40
0.0
 40
0.0
 40
0.0
 40
0.0
 40
0.2055941652647789
 40
0.3664905725465402
 40
0.5282493060458707
 40
0.6720983026135228
 40
0.779780734107439
 40
0.8857064111209966
 40
0.9882327233806083
 40
1.109598171382071
 40
1.203206969204874
 40
1.29300254424436
 40
1.41689413457901
 40
1.532052433088608
 40
1.636514903006407
 40
1.759431153385541
 40
1.759431153385541
 40
1.759431153385541
 40
1.759431153385541
 10
771.1627496302522
 20
232.0963924756582
 30
0.0
 10
771.215178690781
 20
232.0528122771032
 30
0.0
 10
771.3086383295138
 20
231.9751265514427
 30
0.0
 10
771.5084597501628
 20
231.9426544313319
 30
0.0
 10
771.6063652642424
 20
232.0726599599104
 30
0.0
 10
771.7358484931742
 20
232.1675348864147
 30
0.0
 10
771.8433650200127
 20
232.0968221778888
 30
0.0
 10
771.942910857148
 20
232.0384364185991
 30
0.0
 10
772.0455223177753
 20
232.1124585151054
 30
0.0
 10
772.1046112559028
 20
232.1883371895662
 30
0.0
 10
772.1928504172156
 20
232.2719523438118
 30
0.0
 10
772.2905130174425
 20
232.1985344705884
 30
0.0
 10
772.350458159794
 20
232.1163673021737
 30
0.0
 10
772.4376274714147
 20
232.0266720232962
 30
0.0
 10
772.5613747057023
 20
232.0392531425304
 30
0.0
 10
772.6271778217731
 20
232.0763426514667
 30
0.0
 10
772.6627496302522
 20
232.0963924756582
 30
0.0
 11
771.1627496302522
 21
232.0963924756582
 31
0.0
 11
771.3342527718528
 21
231.9830097908601
 31
0.0
 11
771.4946222521471
 21
231.9699988851918
 31
0.0
 11
771.618979411994
 21
232.0734454156224
 31
0.0
 11
771.7461497029842
 21
232.1406782268308
 31
0.0
 11
771.8446589818789
 21
232.0971876758559
 31
0.0
 11
771.9437784143552
 21
232.0598301176333
 31
0.0
 11
772.0337920134591
 21
232.1089136859827
 31
0.0
 11
772.1168631116328
 21
232.1973939923611
 31
0.0
 11
772.1953058651923
 21
232.2484757057607
 31
0.0
 11
772.2745630531992
 21
232.2062673719166
 31
0.0
 11
772.3566391049026
 21
232.1134630191499
 31
0.0
 11
772.4468333160283
 21
232.041863871145
 31
0.0
 11
772.5512588641138
 21
232.0446410150686
 31
0.0
 11
772.6627496302522
 21
232.0963924756582
 31
0.0
  0
LWPOLYLINE
  5
1A8
330
1F
100
AcDbEntity
  8
0
  6
Continuous
 62
     2
 60
     1
100
AcDbPolyline
 90
       62
 70
     0
 43
0.0
 10
749.0856174829565
 20
178.2637495689659
 10
749.3397740244195
 20
178.3063572405942
 10
749.5595914252975
 20
178.3922168178216
 10
749.7421200537235
 20
178.5158832162622
 10
749.8844102778305
 20
178.67191135153
 10
749.9835124657525
 20
178.8548561392389
 10
750.0364769856235
 20
179.0592724950029
 10
750.0403542055756
 20
179.2797153344361
 10
749.9921944937415
 20
179.5107395731525
 10
749.8890482182566
 20
179.7469001267659
 10
746.9886555914566
 20
184.9674460085659
 10
746.8201054954645
 20
185.2252722510076
 10
746.6211516822466
 20
185.4490693936831
 10
746.3947370025096
 20
185.6370730607895
 10
746.1438043069645
 20
185.7875188765239
 10
745.8712964463185
 20
185.8986424650834
 10
745.5801562712795
 20
185.968679450665
 10
745.2733266325565
 20
185.9958654574659
 10
745.2456018562566
 20
185.9963226025659
 10
744.3721023993315
 20
185.9307119892536
 10
743.5783510732896
 20
185.712204287905
 10
742.8766795912895
 20
185.3532633590649
 10
742.2794196664936
 20
184.8663530632784
 10
741.7989030120625
 20
184.2639372610903
 10
741.4474613411545
 20
183.5584798130456
 10
741.2374263669326
 20
182.7624445796891
 10
741.1811298025566
 20
181.8882954215659
 10
741.2847794803165
 20
181.0184892373134
 10
741.5377021573336
 20
180.2350245587082
 10
741.9269079341275
 20
179.5496776958911
 10
742.4394069112195
 20
178.9742249590034
 10
743.0622091891275
 20
178.520442658186
 10
743.7823248683735
 20
178.20010710358
 10
744.5867640494765
 20
178.0249946053262
 10
745.4625368329565
 20
178.0068814735659
 10
749.0856174829565
 20
178.2637495689659
 10
745.2309666055015
 20
179.5727672998296
 10
745.6327837642656
 20
179.622129125944
 10
746.0014848988316
 20
179.7446494184319
 10
746.3304868032816
 20
179.9355354741159
 10
746.6132062716965
 20
180.1899945898186
 10
746.8430600981595
 20
180.5032340623628
 10
747.0134650767525
 20
180.870461188571
 10
747.1178380015565
 20
181.2868832652659
 10
747.1464273449925
 20
181.7152332423395
 10
747.0970655188765
 20
182.1170504011175
 10
746.9745452263855
 20
182.4857515356852
 10
746.7836591706946
 20
182.8147534401284
 10
746.5292000549796
 20
183.0974729085325
 10
746.2159605824176
 20
183.3273267349831
 10
745.8487334561845
 20
183.4977317135657
 10
745.4323113794566
 20
183.6021046383659
 10
744.3344779677516
 20
183.6601012772731
 10
743.4464640877045
 20
183.4882803273555
 10
742.7758260763276
 20
183.1346507645543
 10
742.3301202706325
 20
182.6472215648107
 10
742.1169030076315
 20
182.0740017040659
 10
742.1437306243365
 20
181.4630001582611
 10
742.4181594577595
 20
180.8622259033375
 10
742.9477458449126
 20
180.3196879152363
 10
743.7400461228076
 20
179.8833951698987
 10
744.8026166284566
 20
179.6013566432659
  0
ARC
  5
1A9
330
1F
100
AcDbEntity
  8
1
  6
Continuous
 62
     7
100
AcDbCircle
 10
766.9079588730044
 20
198.858356675924
 30
0.0
 40
2.0
100
AcDbArc
 50
0.0
 51
40.00000000000072
  0
ARC
  5
1AA
330
1F
100
AcDbEntity
  8
1
  6
Continuous
 62
     7
100
AcDbCircle
 10
767.6579588730044
 20
198.2516200796937
 30
0.0
 40
1.25
100
AcDbArc
 50
-90.0
 51
0.0
  0
ARC
  5
1AB
330
1F
100
AcDbEntity
  8
1
  6
Continuous
 62
     7
100
AcDbCircle
 10
761.6175876895143
 20
200.0016200796937
 30
0.0
 40
3.0
100
AcDbArc
 50
180.0
 51
-90.0
  0
ARC
  5
1AC
330
1F
100
AcDbEntity
  8
1
  6
Continuous
 62
     7
100
AcDbCircle
 10
768.000273591694
 20
203.0016200796937
 30
0.0
 40
1.500000000000148
100
AcDbArc
 50
165.0000000000014
 51
-140.0000000000027
  0
ARC
  5
1AD
330
1F
100
AcDbEntity
  8
1
  6
Continuous
 62
     7
100
AcDbCircle
 10
768.000273591694
 20
203.0016200796937
 30
0.0
 40
1.500000000000077
100
AcDbArc
 50
-140.0000000000027
 51
-90.0
  0
ARC
  5
1AE
330
1F
100
AcDbEntity
  8
1
  6
Continuous
 62
     7
100
AcDbCircle
 10
759.1175876895143
 20
215.0016200796937
 30
0.0
 40
0.5
100
AcDbArc
 50
90.0
 51
180.0
  0
ARC
  5
1AF
330
1F
100
AcDbEntity
  8
1
  6
Continuous
 62
     7
100
AcDbCircle
 10
717.6175448798243
 20
175.0016200796937
 30
0.0
 40
0.5
100
AcDbArc
 50
180.0
 51
-90.00000000001303
  0
ARC
  5
1B0
330
1F
100
AcDbEntity
  8
1
  6
Continuous
 62
     7
100
AcDbCircle
 10
769.1451115400473
 20
215.0016200796937
 30
0.0
 40
2.000000000000039
100
AcDbArc
 50
-14.99999999999838
 51
90.0
  0
ARC
  5
1B1
330
1F
100
AcDbEntity
  8
1
  6
Continuous
 62
     7
100
AcDbCircle
 10
768.6518862781145
 20
203.5016200796937
 30
0.0
 40
0.4999999999999128
100
AcDbArc
 50
164.9999999999928
 51
-90.0
  0
ARC
  5
1B2
330
1F
100
AcDbEntity
  8
1
  6
Continuous
 62
     7
100
AcDbCircle
 10
770.6627496302522
 20
203.5016200796937
 30
0.0
 40
0.5
100
AcDbArc
 50
-90.0
 51
0.0
  0
ARC
  5
1B3
330
1F
100
AcDbEntity
  8
1
  6
Continuous
 62
     7
100
AcDbCircle
 10
769.1451115400473
 20
215.0016200796937
 30
0.0
 40
0.5000000000000006
100
AcDbArc
 50
-14.99999999999445
 51
90.0
  0
ARC
  5
1B4
330
1F
100
AcDbEntity
  8
1
  6
Continuous
 62
     7
100
AcDbCircle
 10
771.1627496302522
 20
203.0016200796937
 30
0.0
 40
1.5
100
AcDbArc
 50
-90.0
 51
0.0
  0
ARC
  5
1B5
330
1F
100
AcDbEntity
  8
1
  6
Continuous
 62
     7
100
AcDbCircle
 10
717.1175448798243
 20
174.5016200796937
 30
0.0
 40
1.5
100
AcDbArc
 50
180.0
 51
-90.0
  0
ARC
  5
1B6
330
1F
100
AcDbEntity
  8
1
  6
DASHED
 62
     2
100
AcDbCircle
 10
757.1175876895143
 20
174.5016200796937
 30
0.0
 40
1.5
100
AcDbArc
 50
-90.0
 51
0.0
  0
ARC
  5
1B7
330
1F
100
AcDbEntity
  8
1
  6
Continuous
 62
     7
100
AcDbCircle
 10
758.6175876895143
 20
215.5016200796937
 30
0.0
 40
1.5
100
AcDbArc
 50
90.0
 51
180.0
  0
ARC
  5
1B8
330
1F
100
AcDbEntity
  8
1
  6
Continuous
 62
     7
100
AcDbCircle
 10
768.000273591694
 20
203.0016200796937
 30
0.0
 40
2.500000000000194
100
AcDbArc
 50
164.9999999999993
 51
-140.0000000000021
  0
ARC
  5
1B9
330
1F
100
AcDbEntity
  8
1
  6
Continuous
 62
     7
100
AcDbCircle
 10
766.9079588730044
 20
198.858356675924
 30
0.0
 40
1.0
100
AcDbArc
 50
0.0
 51
40.00000000000259
  0
ARC
  5
1BA
330
1F
100
AcDbEntity
  8
1
  6
Continuous
 62
     7
100
AcDbCircle
 10
767.6579588730044
 20
198.2516200796937
 30
0.0
 40
0.25
100
AcDbArc
 50
-90.0
 51
0.0
  0
ARC
  5
1BB
330
1F
100
AcDbEntity
  8
1
  6
Continuous
 62
     7
100
AcDbCircle
 10
761.6175876895143
 20
200.0016200796937
 30
0.0
 40
2.0
100
AcDbArc
 50
180.0
 51
-90.0
  0
ARC
  5
1BC
330
1F
100
AcDbEntity
  8
1
  6
Continuous
 62
     7
100
AcDbCircle
 10
724.1176153595336
 20
177.5017285364397
 30
0.0
 40
0.9999999999999534
100
AcDbArc
 50
-179.9996169336929
 51
-89.9996169336929
  0
ARC
  5
1BD
330
1F
100
AcDbEntity
  8
1
  6
Continuous
 62
     7
100
AcDbCircle
 10
724.1674555696706
 20
201.4517285355894
 30
0.0
 40
1.051190120090078
100
AcDbArc
 50
92.72667499380103
 51
-177.273325006483
  0
DIMENSION
  5
1CB
330
1F
100
AcDbEntity
  8
1
100
AcDbDimension
  2
*D1
 10
762.117588616024
 20
224.169618247177
 30
0.0
 11
754.063304796522
 21
227.919618247177
 31
0.0
 70
    32
  1
<>
 71
     5
 42
-1.0
 53
0.00013888888889
  3
ME10_DIM_10
100
AcDbAlignedDimension
 13
758.6175876895143
 23
202.5016241685937
 33
0.0
 14
762.117588616024
 24
197.0016200796937
 34
0.0
100
AcDbRotatedDimension
  0
DIMENSION
  5
1D6
330
1F
100
AcDbEntity
  8
1
100
AcDbDimension
  2
*D2
 10
827.289440800299
 20
164.9019197853493
 30
0.0
 11
823.539440800299
 21
180.3459987922949
 31
0.0
 70
    32
  1
<>
 71
     5
 42
-1.0
 53
90.0
  3
ME10_DIM_11
100
AcDbAlignedDimension
 13
794.6174355128143
 23
193.4019197844604
 33
0.0
 14
794.6176260571835
 24
164.9019197853493
 34
0.0
 50
90.0
100
AcDbRotatedDimension
  0
DIMENSION
  5
1E1
330
1F
100
AcDbEntity
  8
1
100
AcDbDimension
  2
*D3
 10
794.1176193698242
 20
140.0835078202721
 30
0.0
 11
770.461340078625
 21
143.8335078202721
 31
0.0
 70
    32
  1
<>
 71
     5
 42
-1.0
 53
0.00013888888889
  3
ME10_DIM_12
100
AcDbAlignedDimension
 13
749.1176260565243
 23
164.9016155827936
 33
0.0
 14
794.1176193698242
 24
165.9019164423936
 34
0.0
100
AcDbRotatedDimension
  0
DIMENSION
  5
1EE
330
1F
100
AcDbEntity
  8
1
100
AcDbDimension
  2
*D4
 10
706.969263403339
 20
164.9017292408936
 30
0.0
 11
703.219263403339
 21
160.755448505854
 31
0.0
 70
    32
  1
<>
 71
     5
 42
-1.0
 53
90.0
  3
ME10_DIM_13
100
AcDbAlignedDimension
 13
753.1175825987242
 23
171.5019390233938
 33
0.0
 14
750.1176260565243
 24
164.9017292408936
 34
0.0
 50
90.0
100
AcDbRotatedDimension
  0
DIMENSION
  5
1FA
330
1F
100
AcDbEntity
  8
1
100
AcDbDimension
  2
*D5
 10
692.791247954106
 20
171.5016155825938
 30
0.0
 11
689.041247954106
 21
143.8891418590762
 31
0.0
 70
    32
  1
<>
 71
     5
 42
-1.0
 53
90.0
  3
ME10_DIM_14
100
AcDbAlignedDimension
 13
749.117588616024
 23
157.0016200796937
 33
0.0
 14
749.1175825990243
 24
171.5016155825938
 34
0.0
 50
90.0
100
AcDbRotatedDimension
  0
DIMENSION
  5
209
330
1F
100
AcDbEntity
  8
1
100
AcDbDimension
  2
*D6
 10
684.288227939791
 20
176.5017285364621
 30
0.0
 11
680.538227939791
 21
168.5016200796937
 31
0.0
 70
    32
  1
<>
 71
     5
 42
-1.0
 53
90.0
  3
ME10_DIM_15
100
AcDbAlignedDimension
 13
717.1175448798243
 23
173.0016200796937
 33
0.0
 14
724.1176220453019
 24
176.5017285364621
 34
0.0
 50
90.0
100
AcDbRotatedDimension
  0
DIMENSION
  5
214
330
1F
100
AcDbEntity
  8
1
100
AcDbDimension
  2
*D7
 10
684.288227939791
 20
176.5017285364621
 30
0.0
 11
680.538227939791
 21
190.6126640190103
 31
0.0
 70
    32
  1
<>
 71
     5
 42
-1.0
 53
90.0
  3
ME10_DIM_16
100
AcDbAlignedDimension
 13
724.1174488838969
 23
202.501728535567
 33
0.0
 14
724.1176220453019
 24
176.5017285364621
 34
0.0
 50
90.0
100
AcDbRotatedDimension
  0
DIMENSION
  5
21F
330
1F
100
AcDbEntity
  8
1
100
AcDbDimension
  2
*D8
 10
749.1176260565243
 20
149.546917255929
 30
0.0
 11
756.134802057908
 21
153.296917255929
 31
0.0
 70
    32
  1
<>
 71
     5
 42
-1.0
 53
0.00013888888889
  3
ME10_DIM_17
100
AcDbAlignedDimension
 13
762.117588616024
 23
193.4019592167173
 33
0.0
 14
749.1176260565243
 24
164.9016155827936
 34
0.0
100
AcDbRotatedDimension
  0
ENDSEC
  0
SECTION
  2
OBJECTS
  0
DICTIONARY
  5
C
330
0
100
AcDbDictionary
281
     1
  3
ACAD_GROUP
350
D
  3
ACAD_LAYOUT
350
1A
  3
ACAD_MLINESTYLE
350
17
  3
ACAD_PLOTSETTINGS
350
19
  3
ACAD_PLOTSTYLENAME
350
E
  0
DICTIONARY
  5
D
102
{ACAD_REACTORS
330
C
102
}
330
C
100
AcDbDictionary
281
     1
  0
DICTIONARY
  5
1A
102
{ACAD_REACTORS
330
C
102
}
330
C
100
AcDbDictionary
281
     1
  3
Layout1
350
1E
  3
Layout2
350
26
  3
Model
350
22
  0
DICTIONARY
  5
17
102
{ACAD_REACTORS
330
C
102
}
330
C
100
AcDbDictionary
281
     1
  3
Standard
350
18
  0
DICTIONARY
  5
19
102
{ACAD_REACTORS
330
C
102
}
330
C
100
AcDbDictionary
281
     1
  0
ACDBDICTIONARYWDFLT
  5
E
102
{ACAD_REACTORS
330
C
102
}
330
C
100
AcDbDictionary
281
     1
  3
Normal
350
F
100
AcDbDictionaryWithDefault
340
F
  0
LAYOUT
  5
1E
102
{ACAD_REACTORS
330
1A
102
}
330
1A
100
AcDbPlotSettings
  1

  2

  4

  6

 40
0.0
 41
0.0
 42
0.0
 43
0.0
 44
0.0
 45
0.0
 46
0.0
 47
0.0
 48
0.0
 49
0.0
140
0.0
141
0.0
142
1.0
143
1.0
 70
   688
 72
     0
 73
     0
 74
     5
  7

 75
    16
 76
     0
 77
     2
 78
   300
147
1.0
148
0.0
149
0.0
100
AcDbLayout
  1
Layout1
 70
     1
 71
     1
 10
0.0
 20
0.0
 11
0.0
 21
0.0
 12
0.0
 22
0.0
 32
0.0
 14
0.0
 24
0.0
 34
0.0
 15
0.0
 25
0.0
 35
0.0
146
0.0
 13
0.0
 23
0.0
 33
0.0
 16
1.0
 26
0.0
 36
0.0
 17
0.0
 27
1.0
 37
0.0
 76
     0
330
1B
  0
LAYOUT
  5
26
102
{ACAD_REACTORS
330
1A
102
}
330
1A
100
AcDbPlotSettings
  1

  2

  4

  6

 40
0.0
 41
0.0
 42
0.0
 43
0.0
 44
0.0
 45
0.0
 46
0.0
 47
0.0
 48
0.0
 49
0.0
140
0.0
141
0.0
142
1.0
143
1.0
 70
   688
 72
     0
 73
     0
 74
     5
  7

 75
    16
 76
     0
 77
     2
 78
   300
147
1.0
148
0.0
149
0.0
100
AcDbLayout
  1
Layout2
 70
     1
 71
     2
 10
0.0
 20
0.0
 11
0.0
 21
0.0
 12
0.0
 22
0.0
 32
0.0
 14
0.0
 24
0.0
 34
0.0
 15
0.0
 25
0.0
 35
0.0
146
0.0
 13
0.0
 23
0.0
 33
0.0
 16
1.0
 26
0.0
 36
0.0
 17
0.0
 27
1.0
 37
0.0
 76
     0
330
23
  0
LAYOUT
  5
22
102
{ACAD_REACTORS
330
1A
102
}
330
1A
100
AcDbPlotSettings
  1

  2

  4

  6

 40
0.0
 41
0.0
 42
0.0
 43
0.0
 44
0.0
 45
0.0
 46
0.0
 47
0.0
 48
0.0
 49
0.0
140
0.0
141
0.0
142
1.0
143
1.0
 70
  1712
 72
     0
 73
     0
 74
     0
  7

 75
     0
 76
     0
 77
     2
 78
   300
147
1.0
148
0.0
149
0.0
100
AcDbLayout
  1
Model
 70
     1
 71
     0
 10
0.0
 20
0.0
 11
0.0
 21
0.0
 12
0.0
 22
0.0
 32
0.0
 14
678.788227939791
 24
133.7391418590762
 34
0.0
 15
829.289440800299
 25
232.2561578523417
 35
0.0
146
0.0
 13
0.0
 23
0.0
 33
0.0
 16
1.0
 26
0.0
 36
0.0
 17
0.0
 27
1.0
 37
0.0
 76
     0
330
1F
  0
MLINESTYLE
  5
18
102
{ACAD_REACTORS
330
17
102
}
330
17
100
AcDbMlineStyle
  2
Standard
 70
     0
  3

 62
   256
 51
90.0
 52
90.0
 71
     2
 49
0.5
 62
   256
  6
BYLAYER
 49
-0.5
 62
   256
  6
BYLAYER
  0
ACDBPLACEHOLDER
  5
F
102
{ACAD_REACTORS
330
E
102
}
330
E
  0
ENDSEC
  0
EOF
