  0
SECTION
  2
HEADER
  9
$ACADVER
  1
AC1015
  9
$ACADMAINTVER
 70
     6
  9
$DWGCODEPAGE
  3
ANSI_1252
  9
$INSBASE
 10
0.0
 20
0.0
 30
0.0
  9
$EXTMIN
 10
-284.1782319674094
 20
-398.2176513114891
 30
0.0
  9
$EXTMAX
 10
125.8217680325906
 20
-112.2176513114891
 30
0.0
  9
$LIMMIN
 10
0.0
 20
0.0
  9
$LIMMAX
 10
12.0
 20
9.0
  9
$ORTHOMODE
 70
     0
  9
$REGENMODE
 70
     1
  9
$FILLMODE
 70
     1
  9
$QTEXTMODE
 70
     0
  9
$MIRRTEXT
 70
     1
  9
$LTSCALE
 40
1.0
  9
$ATTMODE
 70
     1
  9
$TEXTSIZE
 40
0.2
  9
$TRACEWID
 40
0.05
  9
$TEXTSTYLE
  7
Standard
  9
$CLAYER
  8
0
  9
$CELTYPE
  6
ByLayer
  9
$CECOLOR
 62
   256
  9
$CELTSCALE
 40
1.0
  9
$DISPSILH
 70
     0
  9
$DIMSCALE
 40
1.0
  9
$DIMASZ
 40
0.18
  9
$DIMEXO
 40
0.0625
  9
$DIMDLI
 40
0.38
  9
$DIMRND
 40
0.0
  9
$DIMDLE
 40
0.0
  9
$DIMEXE
 40
0.18
  9
$DIMTP
 40
0.0
  9
$DIMTM
 40
0.0
  9
$DIMTXT
 40
0.18
  9
$DIMCEN
 40
0.09
  9
$DIMTSZ
 40
0.0
  9
$DIMTOL
 70
     0
  9
$DIMLIM
 70
     0
  9
$DIMTIH
 70
     1
  9
$DIMTOH
 70
     1
  9
$DIMSE1
 70
     0
  9
$DIMSE2
 70
     0
  9
$DIMTAD
 70
     0
  9
$DIMZIN
 70
     0
  9
$DIMBLK
  1

  9
$DIMASO
 70
     1
  9
$DIMSHO
 70
     1
  9
$DIMPOST
  1

  9
$DIMAPOST
  1

  9
$DIMALT
 70
     0
  9
$DIMALTD
 70
     2
  9
$DIMALTF
 40
25.4
  9
$DIMLFAC
 40
1.0
  9
$DIMTOFL
 70
     0
  9
$DIMTVP
 40
0.0
  9
$DIMTIX
 70
     0
  9
$DIMSOXD
 70
     0
  9
$DIMSAH
 70
     0
  9
$DIMBLK1
  1

  9
$DIMBLK2
  1

  9
$DIMSTYLE
  2
Standard
  9
$DIMCLRD
 70
     0
  9
$DIMCLRE
 70
     0
  9
$DIMCLRT
 70
     0
  9
$DIMTFAC
 40
1.0
  9
$DIMGAP
 40
0.09
  9
$DIMJUST
 70
     0
  9
$DIMSD1
 70
     0
  9
$DIMSD2
 70
     0
  9
$DIMTOLJ
 70
     1
  9
$DIMTZIN
 70
     0
  9
$DIMALTZ
 70
     0
  9
$DIMALTTZ
 70
     0
  9
$DIMUPT
 70
     0
  9
$DIMDEC
 70
     4
  9
$DIMTDEC
 70
     4
  9
$DIMALTU
 70
     2
  9
$DIMALTTD
 70
     2
  9
$DIMTXSTY
  7
Standard
  9
$DIMAUNIT
 70
     0
  9
$DIMADEC
 70
     0
  9
$DIMALTRND
 40
0.0
  9
$DIMAZIN
 70
     0
  9
$DIMDSEP
 70
    46
  9
$DIMATFIT
 70
     3
  9
$DIMFRAC
 70
     0
  9
$DIMLDRBLK
  1

  9
$DIMLUNIT
 70
     2
  9
$DIMLWD
 70
    -2
  9
$DIMLWE
 70
    -2
  9
$DIMTMOVE
 70
     0
  9
$LUNITS
 70
     2
  9
$LUPREC
 70
     4
  9
$SKETCHINC
 40
0.1
  9
$FILLETRAD
 40
0.5
  9
$AUNITS
 70
     0
  9
$AUPREC
 70
     0
  9
$MENU
  1
.
  9
$ELEVATION
 40
0.0
  9
$PELEVATION
 40
0.0
  9
$THICKNESS
 40
0.0
  9
$LIMCHECK
 70
     0
  9
$CHAMFERA
 40
0.5
  9
$CHAMFERB
 40
0.5
  9
$CHAMFERC
 40
1.0
  9
$CHAMFERD
 40
0.0
  9
$SKPOLY
 70
     0
  9
$TDCREATE
 40
2457186.339802523
  9
$TDUCREATE
 40
2457186.25646919
  9
$TDUPDATE
 40
2457186.339803067
  9
$TDUUPDATE
 40
2457186.256469734
  9
$TDINDWG
 40
0.0000000116
  9
$TDUSRTIMER
 40
0.0000000116
  9
$USRTIMER
 70
     1
  9
$ANGBASE
 50
0.0
  9
$ANGDIR
 70
     0
  9
$PDMODE
 70
     0
  9
$PDSIZE
 40
0.0
  9
$PLINEWID
 40
0.0
  9
$SPLFRAME
 70
     0
  9
$SPLINETYPE
 70
     6
  9
$SPLINESEGS
 70
     8
  9
$HANDSEED
  5
443
  9
$SURFTAB1
 70
     6
  9
$SURFTAB2
 70
     6
  9
$SURFTYPE
 70
     6
  9
$SURFU
 70
     6
  9
$SURFV
 70
     6
  9
$UCSBASE
  2

  9
$UCSNAME
  2

  9
$UCSORG
 10
0.0
 20
0.0
 30
0.0
  9
$UCSXDIR
 10
1.0
 20
0.0
 30
0.0
  9
$UCSYDIR
 10
0.0
 20
1.0
 30
0.0
  9
$UCSORTHOREF
  2

  9
$UCSORTHOVIEW
 70
     0
  9
$UCSORGTOP
 10
0.0
 20
0.0
 30
0.0
  9
$UCSORGBOTTOM
 10
0.0
 20
0.0
 30
0.0
  9
$UCSORGLEFT
 10
0.0
 20
0.0
 30
0.0
  9
$UCSORGRIGHT
 10
0.0
 20
0.0
 30
0.0
  9
$UCSORGFRONT
 10
0.0
 20
0.0
 30
0.0
  9
$UCSORGBACK
 10
0.0
 20
0.0
 30
0.0
  9
$PUCSBASE
  2

  9
$PUCSNAME
  2

  9
$PUCSORG
 10
0.0
 20
0.0
 30
0.0
  9
$PUCSXDIR
 10
1.0
 20
0.0
 30
0.0
  9
$PUCSYDIR
 10
0.0
 20
1.0
 30
0.0
  9
$PUCSORTHOREF
  2

  9
$PUCSORTHOVIEW
 70
     0
  9
$PUCSORGTOP
 10
0.0
 20
0.0
 30
0.0
  9
$PUCSORGBOTTOM
 10
0.0
 20
0.0
 30
0.0
  9
$PUCSORGLEFT
 10
0.0
 20
0.0
 30
0.0
  9
$PUCSORGRIGHT
 10
0.0
 20
0.0
 30
0.0
  9
$PUCSORGFRONT
 10
0.0
 20
0.0
 30
0.0
  9
$PUCSORGBACK
 10
0.0
 20
0.0
 30
0.0
  9
$USERI1
 70
     0
  9
$USERI2
 70
     0
  9
$USERI3
 70
     0
  9
$USERI4
 70
     0
  9
$USERI5
 70
     0
  9
$USERR1
 40
18.1
  9
$USERR2
 40
0.0
  9
$USERR3
 40
0.0
  9
$USERR4
 40
0.0
  9
$USERR5
 40
0.0
  9
$WORLDVIEW
 70
     1
  9
$SHADEDGE
 70
     3
  9
$SHADEDIF
 70
    70
  9
$TILEMODE
 70
     1
  9
$MAXACTVP
 70
    64
  9
$PINSBASE
 10
0.0
 20
0.0
 30
0.0
  9
$PLIMCHECK
 70
     0
  9
$PEXTMIN
 10
1.00000000000000E+20
 20
1.00000000000000E+20
 30
1.00000000000000E+20
  9
$PEXTMAX
 10
-1.00000000000000E+20
 20
-1.00000000000000E+20
 30
-1.00000000000000E+20
  9
$PLIMMIN
 10
0.0
 20
0.0
  9
$PLIMMAX
 10
12.0
 20
9.0
  9
$UNITMODE
 70
     0
  9
$VISRETAIN
 70
     1
  9
$PLINEGEN
 70
     0
  9
$PSLTSCALE
 70
     1
  9
$TREEDEPTH
 70
  3020
  9
$CMLSTYLE
  2
Standard
  9
$CMLJUST
 70
     0
  9
$CMLSCALE
 40
1.0
  9
$PROXYGRAPHICS
 70
     1
  9
$MEASUREMENT
 70
     1
  9
$CELWEIGHT
370
    -1
  9
$ENDCAPS
280
     0
  9
$JOINSTYLE
280
     0
  9
$LWDISPLAY
290
     0
  9
$INSUNITS
 70
     4
  9
$HYPERLINKBASE
  1

  9
$STYLESHEET
  1

  9
$XEDIT
290
     1
  9
$CEPSNTYPE
380
     0
  9
$PSTYLEMODE
290
     1
  9
$FINGERPRINTGUID
  2
{7ECF2527-E476-437D-8E2F-14BD70BF47B8}
  9
$VERSIONGUID
  2
{FAEB1C32-E019-11D5-929B-00C0DF256EC4}
  9
$EXTNAMES
290
     1
  9
$PSVPSCALE
 40
0.0
  9
$OLESTARTUP
290
     0
  0
ENDSEC
  0
SECTION
  2
CLASSES
  0
CLASS
  1
ACDBDICTIONARYWDFLT
  2
AcDbDictionaryWithDefault
  3
ObjectDBX Classes
 90
        0
280
     0
281
     0
  0
CLASS
  1
VISUALSTYLE
  2
AcDbVisualStyle
  3
ObjectDBX Classes
 90
     4095
280
     0
281
     0
  0
CLASS
  1
MATERIAL
  2
AcDbMaterial
  3
ObjectDBX Classes
 90
     1153
280
     0
281
     0
  0
CLASS
  1
DICTIONARYVAR
  2
AcDbDictionaryVar
  3
ObjectDBX Classes
 90
        0
280
     0
281
     0
  0
CLASS
  1
ACDBPLACEHOLDER
  2
AcDbPlaceHolder
  3
ObjectDBX Classes
 90
        0
280
     0
281
     0
  0
CLASS
  1
LAYOUT
  2
AcDbLayout
  3
ObjectDBX Classes
 90
        0
280
     0
281
     0
  0
ENDSEC
  0
SECTION
  2
TABLES
  0
TABLE
  2
VPORT
  5
8
330
0
100
AcDbSymbolTable
 70
     1
  0
VPORT
  5
29
330
8
100
AcDbSymbolTableRecord
100
AcDbViewportTableRecord
  2
*Active
 70
     0
 10
0.0
 20
0.0
 11
1.0
 21
1.0
 12
-79.17823196740939
 22
-255.2176513114891
 13
0.0
 23
0.0
 14
0.5
 24
0.5
 15
0.5
 25
0.5
 16
0.0
 26
0.0
 36
1.0
 17
0.0
 27
0.0
 37
0.0
 40
314.6
 41
1.60267857142857
 42
50.0
 43
0.0
 44
0.0
 50
0.0
 51
0.0
 71
     0
 72
   100
 73
     1
 74
     3
 75
     0
 76
     0
 77
     0
 78
     0
281
     0
 65
     1
110
0.0
120
0.0
130
0.0
111
1.0
121
0.0
131
0.0
112
0.0
122
1.0
132
0.0
 79
     0
146
0.0
  0
ENDTAB
  0
TABLE
  2
LTYPE
  5
5
330
0
100
AcDbSymbolTable
 70
     9
  0
LTYPE
  5
14
330
5
100
AcDbSymbolTableRecord
100
AcDbLinetypeTableRecord
  2
ByBlock
 70
     0
  3

 72
    65
 73
     0
 40
0.0
  0
LTYPE
  5
15
330
5
100
AcDbSymbolTableRecord
100
AcDbLinetypeTableRecord
  2
ByLayer
 70
     0
  3

 72
    65
 73
     0
 40
0.0
  0
LTYPE
  5
16
330
5
100
AcDbSymbolTableRecord
100
AcDbLinetypeTableRecord
  2
Continuous
 70
     0
  3
Solid line
 72
    65
 73
     0
 40
0.0
  0
LTYPE
  5
3F
330
5
100
AcDbSymbolTableRecord
100
AcDbLinetypeTableRecord
  2
DASHED
 70
     0
  3
Dashed
 72
    65
 73
     2
 40
15.0
 49
7.0
 74
     0
 49
-8.0
 74
     0
  0
LTYPE
  5
40
330
5
100
AcDbSymbolTableRecord
100
AcDbLinetypeTableRecord
  2
DOTTED
 70
     0
  3
Dotted
 72
    65
 73
     2
 40
1.0
 49
0.0
 74
     0
 49
-1.0
 74
     0
  0
LTYPE
  5
41
330
5
100
AcDbSymbolTableRecord
100
AcDbLinetypeTableRecord
  2
DOT_CENTER
 70
     0
  3
Dot_Center
 72
    65
 73
     4
 40
14.0
 49
12.0
 74
     0
 49
-1.0
 74
     0
 49
0.0
 74
     0
 49
-1.0
 74
     0
  0
LTYPE
  5
42
330
5
100
AcDbSymbolTableRecord
100
AcDbLinetypeTableRecord
  2
LONG_DASHED
 70
     0
  3
Long_Dashed
 72
    65
 73
     2
 40
15.0
 49
10.0
 74
     0
 49
-5.0
 74
     0
  0
LTYPE
  5
43
330
5
100
AcDbSymbolTableRecord
100
AcDbLinetypeTableRecord
  2
DASH_CENTER
 70
     0
  3
Dash_Center
 72
    65
 73
     4
 40
14.0
 49
11.0
 74
     0
 49
-1.0
 74
     0
 49
1.0
 74
     0
 49
-1.0
 74
     0
  0
LTYPE
  5
44
330
5
100
AcDbSymbolTableRecord
100
AcDbLinetypeTableRecord
  2
PHANTOM
 70
     0
  3
Phantom
 72
    65
 73
     6
 40
13.0
 49
10.0
 74
     0
 49
-1.0
 74
     0
 49
0.0
 74
     0
 49
-1.0
 74
     0
 49
0.0
 74
     0
 49
-1.0
 74
     0
  0
LTYPE
  5
45
330
5
100
AcDbSymbolTableRecord
100
AcDbLinetypeTableRecord
  2
CENTER_DASH_DASH
 70
     0
  3
Center_Dash_Dash
 72
    65
 73
     6
 40
14.0
 49
9.0
 74
     0
 49
-1.0
 74
     0
 49
1.0
 74
     0
 49
-1.0
 74
     0
 49
1.0
 74
     0
 49
-1.0
 74
     0
  0
LTYPE
  5
46
330
5
100
AcDbSymbolTableRecord
100
AcDbLinetypeTableRecord
  2
CENTER
 70
     0
  3
CENTER
 72
    65
 73
     4
 40
14.0
 49
8.0
 74
     0
 49
-2.0
 74
     0
 49
2.0
 74
     0
 49
-2.0
 74
     0
  0
ENDTAB
  0
TABLE
  2
LAYER
  5
2
330
0
100
AcDbSymbolTable
 70
     3
  0
LAYER
  5
10
330
2
100
AcDbSymbolTableRecord
100
AcDbLayerTableRecord
  2
0
 70
     0
 62
     7
  6
Continuous
370
    -3
390
F
  0
LAYER
  5
47
330
2
100
AcDbSymbolTableRecord
100
AcDbLayerTableRecord
  2
1
 70
     0
 62
     7
  6
Continuous
370
    -3
390
F
  0
LAYER
  5
48
330
2
100
AcDbSymbolTableRecord
100
AcDbLayerTableRecord
  2
DEFAULT_1
 70
     0
 62
     7
  6
Continuous
370
    -3
390
F
  0
ENDTAB
  0
TABLE
  2
STYLE
  5
3
330
0
100
AcDbSymbolTable
 70
     5
  0
STYLE
  5
11
330
3
100
AcDbSymbolTableRecord
100
AcDbTextStyleTableRecord
  2
Standard
 70
     0
 40
0.0
 41
1.0
 50
0.0
 71
     0
 42
0.2
  3
txt
  4

  0
STYLE
  5
20C
330
3
100
AcDbSymbolTableRecord
100
AcDbTextStyleTableRecord
  2
CONVERTER_11
 70
     0
 40
0.0
 41
0.72
 50
0.0
 71
     0
 42
0.2
  3
txt.shx
  4

  0
STYLE
  5
217
330
3
100
AcDbSymbolTableRecord
100
AcDbTextStyleTableRecord
  2
CONVERTER_12
 70
     0
 40
0.0
 41
0.9
 50
0.0
 71
     0
 42
0.2
  3
txt.shx
  4

  0
STYLE
  5
21D
330
3
100
AcDbSymbolTableRecord
100
AcDbTextStyleTableRecord
  2
CONVERTER_13
 70
     0
 40
0.0
 41
0.81
 50
0.0
 71
     0
 42
0.2
  3
txt.shx
  4

  0
STYLE
  5
229
330
3
100
AcDbSymbolTableRecord
100
AcDbTextStyleTableRecord
  2
CONVERTER_14
 70
     0
 40
0.0
 41
0.855
 50
0.0
 71
     0
 42
0.2
  3
txt.shx
  4

  0
ENDTAB
  0
TABLE
  2
VIEW
  5
6
330
0
100
AcDbSymbolTable
 70
     0
  0
ENDTAB
  0
TABLE
  2
UCS
  5
7
330
0
100
AcDbSymbolTable
 70
     0
  0
ENDTAB
  0
TABLE
  2
APPID
  5
9
330
0
100
AcDbSymbolTable
 70
     1
  0
APPID
  5
12
330
9
100
AcDbSymbolTableRecord
100
AcDbRegAppTableRecord
  2
ACAD
 70
     0
  0
ENDTAB
  0
TABLE
  2
DIMSTYLE
  5
A
330
0
100
AcDbSymbolTable
 70
    28
100
AcDbDimStyleTable
  0
DIMSTYLE
105
27
330
A
100
AcDbSymbolTableRecord
100
AcDbDimStyleTableRecord
  2
Standard
 70
     0
178
     0
340
11
  0
DIMSTYLE
105
2AF
102
{ACAD_REACTORS
330
2B0
102
}
330
A
100
AcDbSymbolTableRecord
100
AcDbDimStyleTableRecord
  2
ME10_DIM_10
 70
     0
  3
(<>)
 41
3.5
 42
0.0
 44
2.0
 73
     0
 74
     0
 77
     1
 78
     8
140
3.5
147
2.0
172
     1
173
     1
174
     1
175
     1
176
     2
177
     2
271
     3
178
     2
271
     3
340
217
  0
DIMSTYLE
105
2BA
102
{ACAD_REACTORS
330
2BB
102
}
330
A
100
AcDbSymbolTableRecord
100
AcDbDimStyleTableRecord
  2
ME10_DIM_11
 70
     0
 41
3.5
 42
0.0
 44
2.0
 73
     0
 74
     0
 77
     1
 78
     8
140
3.5
147
2.0
172
     1
173
     1
174
     1
175
     1
176
     2
177
     2
271
     3
178
     2
271
     3
340
217
  0
DIMSTYLE
105
2C5
102
{ACAD_REACTORS
330
2C6
102
}
330
A
100
AcDbSymbolTableRecord
100
AcDbDimStyleTableRecord
  2
ME10_DIM_12
 70
     0
 41
3.5
 42
0.0
 44
2.0
 73
     0
 74
     0
 77
     1
 78
     8
140
3.5
147
2.0
172
     1
173
     1
174
     1
175
     1
176
     2
177
     2
271
     3
178
     2
271
     3
340
217
  0
DIMSTYLE
105
2D2
102
{ACAD_REACTORS
330
2D3
102
}
330
A
100
AcDbSymbolTableRecord
100
AcDbDimStyleTableRecord
  2
ME10_DIM_13
 70
     0
 41
3.5
 42
0.0
 44
2.0
 73
     0
 74
     0
 77
     1
 78
     8
140
3.5
147
2.0
172
     1
173
     1
174
     1
175
     1
176
     2
177
     2
271
     3
178
     2
271
     3
340
217
  0
DIMSTYLE
105
2DD
102
{ACAD_REACTORS
330
2DE
102
}
330
A
100
AcDbSymbolTableRecord
100
AcDbDimStyleTableRecord
  2
ME10_DIM_14
 70
     0
 41
3.5
 42
0.0
 44
2.0
 73
     0
 74
     0
 77
     1
 78
     8
140
3.5
147
2.0
172
     1
173
     1
174
     1
175
     1
176
     2
177
     2
271
     3
178
     2
271
     3
340
217
  0
DIMSTYLE
105
2E8
102
{ACAD_REACTORS
330
2E9
102
}
330
A
100
AcDbSymbolTableRecord
100
AcDbDimStyleTableRecord
  2
ME10_DIM_15
 70
     0
 41
3.5
 42
0.0
 44
2.0
 73
     0
 74
     0
 77
     1
 78
     8
140
3.5
147
2.0
172
     1
173
     1
174
     1
175
     1
176
     2
177
     2
271
     3
178
     2
271
     3
340
217
  0
DIMSTYLE
105
2F3
102
{ACAD_REACTORS
330
2F4
102
}
330
A
100
AcDbSymbolTableRecord
100
AcDbDimStyleTableRecord
  2
ME10_DIM_16
 70
     0
 41
3.5
 42
0.0
 44
2.0
 73
     0
 74
     0
 77
     1
 78
     8
140
3.5
147
2.0
172
     1
173
     1
174
     1
175
     1
176
     2
177
     2
271
     3
178
     2
271
     3
340
217
  0
DIMSTYLE
105
2FE
102
{ACAD_REACTORS
330
2FF
102
}
330
A
100
AcDbSymbolTableRecord
100
AcDbDimStyleTableRecord
  2
ME10_DIM_17
 70
     0
 41
3.5
 42
0.0
 44
2.0
 73
     0
 74
     0
 77
     1
 78
     8
140
3.5
147
2.0
172
     1
173
     1
174
     1
175
     1
176
     2
177
     2
271
     3
178
     2
271
     3
340
217
  0
DIMSTYLE
105
309
102
{ACAD_REACTORS
330
30A
102
}
330
A
100
AcDbSymbolTableRecord
100
AcDbDimStyleTableRecord
  2
ME10_DIM_18
 70
     0
 41
3.5
 42
0.0
 44
2.0
 73
     0
 74
     0
 77
     1
 78
     8
140
3.5
147
2.0
172
     1
173
     1
174
     1
175
     1
176
     2
177
     2
271
     3
178
     2
271
     3
340
217
  0
DIMSTYLE
105
314
102
{ACAD_REACTORS
330
315
102
}
330
A
100
AcDbSymbolTableRecord
100
AcDbDimStyleTableRecord
  2
ME10_DIM_19
 70
     0
 41
3.5
 42
0.0
 44
2.0
 73
     0
 74
     0
 77
     1
 78
     8
140
3.5
147
2.0
172
     1
173
     1
174
     1
175
     1
176
     2
177
     2
271
     3
178
     2
271
     3
340
217
  0
DIMSTYLE
105
31F
102
{ACAD_REACTORS
330
320
102
}
330
A
100
AcDbSymbolTableRecord
100
AcDbDimStyleTableRecord
  2
ME10_DIM_20
 70
     0
 41
3.5
 42
0.0
 44
2.0
 73
     0
 74
     0
 77
     1
 78
     8
140
3.5
147
2.0
172
     1
173
     1
174
     1
175
     1
176
     2
177
     2
271
     3
178
     2
271
     3
340
217
  0
DIMSTYLE
105
32D
102
{ACAD_REACTORS
330
32E
102
}
330
A
100
AcDbSymbolTableRecord
100
AcDbDimStyleTableRecord
  2
ME10_DIM_21
 70
     0
 41
3.5
 42
0.0
 44
2.0
 73
     0
 74
     0
 77
     1
 78
     8
140
3.5
147
2.0
172
     1
173
     1
174
     1
175
     1
176
     2
177
     2
271
     3
178
     2
271
     3
340
217
  0
DIMSTYLE
105
338
102
{ACAD_REACTORS
330
339
102
}
330
A
100
AcDbSymbolTableRecord
100
AcDbDimStyleTableRecord
  2
ME10_DIM_22
 70
     0
 41
3.5
 42
0.0
 44
2.0
 73
     0
 74
     0
 77
     1
 78
     8
140
3.5
147
2.0
172
     1
173
     1
174
     1
175
     1
176
     2
177
     2
271
     1
178
     2
271
     1
340
217
  0
DIMSTYLE
105
343
102
{ACAD_REACTORS
330
344
102
}
330
A
100
AcDbSymbolTableRecord
100
AcDbDimStyleTableRecord
  2
ME10_DIM_23
 70
     0
 41
3.5
 42
0.0
 44
2.0
 73
     0
 74
     0
 77
     1
 78
     8
140
3.5
147
2.0
172
     1
173
     1
174
     1
175
     1
176
     2
177
     2
271
     3
178
     2
271
     3
340
217
  0
DIMSTYLE
105
350
102
{ACAD_REACTORS
330
351
102
}
330
A
100
AcDbSymbolTableRecord
100
AcDbDimStyleTableRecord
  2
ME10_DIM_24
 70
     0
 41
3.5
 42
0.0
 44
2.0
 73
     0
 74
     0
 77
     1
 78
     8
140
3.5
147
2.0
172
     1
173
     1
174
     1
175
     1
176
     2
177
     2
271
     3
178
     2
271
     3
340
217
  0
DIMSTYLE
105
35B
102
{ACAD_REACTORS
330
35C
102
}
330
A
100
AcDbSymbolTableRecord
100
AcDbDimStyleTableRecord
  2
ME10_DIM_25
 70
     0
 41
3.5
 42
0.0
 44
2.0
 73
     0
 74
     0
 77
     1
 78
     8
140
3.5
147
2.0
172
     1
173
     1
174
     1
175
     1
176
     2
177
     2
271
     3
178
     2
271
     3
340
217
  0
DIMSTYLE
105
366
102
{ACAD_REACTORS
330
367
102
}
330
A
100
AcDbSymbolTableRecord
100
AcDbDimStyleTableRecord
  2
ME10_DIM_26
 70
     0
 41
3.5
 42
0.0
 44
2.0
 73
     0
 74
     0
 77
     1
 78
     8
140
3.5
147
2.0
172
     1
173
     1
174
     1
175
     1
176
     2
177
     2
271
     3
178
     2
271
     3
340
217
  0
DIMSTYLE
105
371
102
{ACAD_REACTORS
330
372
102
}
330
A
100
AcDbSymbolTableRecord
100
AcDbDimStyleTableRecord
  2
ME10_DIM_27
 70
     0
 41
3.5
 42
0.0
 44
2.0
 73
     0
 74
     0
 77
     1
 78
     8
140
3.5
147
2.0
172
     1
173
     1
174
     1
175
     1
176
     2
177
     2
271
     3
178
     2
271
     3
340
217
  0
DIMSTYLE
105
37C
102
{ACAD_REACTORS
330
37D
102
}
330
A
100
AcDbSymbolTableRecord
100
AcDbDimStyleTableRecord
  2
ME10_DIM_28
 70
     0
 41
3.5
 42
0.0
 44
2.0
 73
     0
 74
     0
 77
     1
 78
     8
140
3.5
147
2.0
172
     1
173
     1
174
     1
175
     1
176
     2
177
     2
271
     3
178
     2
271
     3
340
217
  0
DIMSTYLE
105
387
102
{ACAD_REACTORS
330
388
102
}
330
A
100
AcDbSymbolTableRecord
100
AcDbDimStyleTableRecord
  2
ME10_DIM_29
 70
     0
 41
3.5
 42
0.0
 44
2.0
 73
     0
 74
     0
 77
     1
 78
     8
140
3.5
147
2.0
172
     1
173
     1
174
     1
175
     1
176
     2
177
     2
271
     3
178
     2
271
     3
340
217
  0
DIMSTYLE
105
394
102
{ACAD_REACTORS
330
395
102
}
330
A
100
AcDbSymbolTableRecord
100
AcDbDimStyleTableRecord
  2
ME10_DIM_30
 70
     0
 41
3.5
 42
0.0
 44
2.0
 73
     0
 74
     0
 77
     1
 78
     8
140
3.5
147
2.0
172
     1
173
     1
174
     1
175
     1
176
     2
177
     2
271
     3
178
     2
271
     3
340
217
  0
DIMSTYLE
105
3A1
102
{ACAD_REACTORS
330
3A2
102
}
330
A
100
AcDbSymbolTableRecord
100
AcDbDimStyleTableRecord
  2
ME10_DIM_31
 70
     0
 41
3.5
 42
0.0
 44
2.0
 73
     0
 74
     0
 77
     1
 78
     8
140
3.5
147
2.0
172
     1
173
     1
174
     1
175
     1
176
     2
177
     2
271
     3
178
     2
271
     3
340
217
  0
DIMSTYLE
105
3AC
102
{ACAD_REACTORS
330
3AD
102
}
330
A
100
AcDbSymbolTableRecord
100
AcDbDimStyleTableRecord
  2
ME10_DIM_32
 70
     0
 41
3.5
 42
0.0
 44
2.0
 73
     0
 74
     0
 77
     1
 78
     8
140
3.5
147
2.0
172
     1
173
     1
174
     1
175
     1
176
     2
177
     2
271
     3
178
     2
271
     3
340
217
  0
DIMSTYLE
105
3B9
102
{ACAD_REACTORS
330
3BA
102
}
330
A
100
AcDbSymbolTableRecord
100
AcDbDimStyleTableRecord
  2
ME10_DIM_33
 70
     0
  3
max.<>
 41
3.5
 42
0.0
 44
2.0
 73
     0
 74
     0
 77
     1
 78
     8
140
3.5
147
2.0
172
     1
173
     1
174
     1
175
     1
176
     2
177
     2
271
     3
178
     2
271
     3
340
217
  0
DIMSTYLE
105
3C6
102
{ACAD_REACTORS
330
3C7
102
}
330
A
100
AcDbSymbolTableRecord
100
AcDbDimStyleTableRecord
  2
ME10_DIM_34
 70
     0
 41
3.5
 42
0.0
 44
2.0
 73
     0
 74
     0
 77
     1
 78
     8
140
3.5
147
2.0
172
     1
173
     1
174
     1
175
     1
176
     2
177
     2
271
     3
178
     2
271
     3
340
217
  0
DIMSTYLE
105
3D2
102
{ACAD_REACTORS
330
3D3
102
}
330
A
100
AcDbSymbolTableRecord
100
AcDbDimStyleTableRecord
  2
ME10_DIM_35
 70
     0
 41
3.5
 42
0.0
 44
2.0
 73
     0
 74
     0
 77
     1
 78
     8
140
3.5
147
2.0
172
     1
173
     1
174
     1
175
     1
176
     2
177
     2
271
     3
178
     2
271
     3
340
217
  0
DIMSTYLE
105
3DF
102
{ACAD_REACTORS
330
3E0
102
}
330
A
100
AcDbSymbolTableRecord
100
AcDbDimStyleTableRecord
  2
ME10_DIM_36
 70
     0
 41
3.5
 42
0.0
 44
2.0
 73
     0
 74
     0
 77
     1
 78
     8
140
3.5
147
2.0
172
     1
173
     1
174
     1
175
     1
176
     2
177
     2
271
     3
178
     2
271
     3
340
217
  0
ENDTAB
  0
TABLE
  2
BLOCK_RECORD
  5
1
330
0
100
AcDbSymbolTable
 70
    38
  0
BLOCK_RECORD
  5
1F
330
1
100
AcDbSymbolTableRecord
100
AcDbBlockTableRecord
  2
*Model_Space
340
22
  0
BLOCK_RECORD
  5
1B
330
1
100
AcDbSymbolTableRecord
100
AcDbBlockTableRecord
  2
*Paper_Space
340
1E
  0
BLOCK_RECORD
  5
23
330
1
100
AcDbSymbolTableRecord
100
AcDbBlockTableRecord
  2
*Paper_Space0
340
26
  0
BLOCK_RECORD
  5
49
330
1
100
AcDbSymbolTableRecord
100
AcDbBlockTableRecord
  2
FL
340
0
102
{BLKREFS
331
52
102
}
  0
BLOCK_RECORD
  5
4C
330
1
100
AcDbSymbolTableRecord
100
AcDbBlockTableRecord
  2
RA
340
0
102
{BLKREFS
331
53
102
}
  0
BLOCK_RECORD
  5
4F
330
1
100
AcDbSymbolTableRecord
100
AcDbBlockTableRecord
  2
_art_a3_me10_pdm
340
0
102
{BLKREFS
331
54
102
}
  0
BLOCK_RECORD
  5
2A4
330
1
100
AcDbSymbolTableRecord
100
AcDbBlockTableRecord
  2
*D4
340
0
  0
BLOCK_RECORD
  5
2B1
330
1
100
AcDbSymbolTableRecord
100
AcDbBlockTableRecord
  2
*D5
340
0
  0
BLOCK_RECORD
  5
2BC
330
1
100
AcDbSymbolTableRecord
100
AcDbBlockTableRecord
  2
*D6
340
0
  0
BLOCK_RECORD
  5
2C7
330
1
100
AcDbSymbolTableRecord
100
AcDbBlockTableRecord
  2
*D7
340
0
  0
BLOCK_RECORD
  5
2D4
330
1
100
AcDbSymbolTableRecord
100
AcDbBlockTableRecord
  2
*D8
340
0
  0
BLOCK_RECORD
  5
2DF
330
1
100
AcDbSymbolTableRecord
100
AcDbBlockTableRecord
  2
*D9
340
0
  0
BLOCK_RECORD
  5
2EA
330
1
100
AcDbSymbolTableRecord
100
AcDbBlockTableRecord
  2
*D10
340
0
  0
BLOCK_RECORD
  5
2F5
330
1
100
AcDbSymbolTableRecord
100
AcDbBlockTableRecord
  2
*D11
340
0
  0
BLOCK_RECORD
  5
300
330
1
100
AcDbSymbolTableRecord
100
AcDbBlockTableRecord
  2
*D12
340
0
  0
BLOCK_RECORD
  5
30B
330
1
100
AcDbSymbolTableRecord
100
AcDbBlockTableRecord
  2
*D13
340
0
  0
BLOCK_RECORD
  5
316
330
1
100
AcDbSymbolTableRecord
100
AcDbBlockTableRecord
  2
*D14
340
0
  0
BLOCK_RECORD
  5
321
330
1
100
AcDbSymbolTableRecord
100
AcDbBlockTableRecord
  2
*D15
340
0
  0
BLOCK_RECORD
  5
32F
330
1
100
AcDbSymbolTableRecord
100
AcDbBlockTableRecord
  2
*D16
340
0
  0
BLOCK_RECORD
  5
33A
330
1
100
AcDbSymbolTableRecord
100
AcDbBlockTableRecord
  2
*D17
340
0
  0
BLOCK_RECORD
  5
345
330
1
100
AcDbSymbolTableRecord
100
AcDbBlockTableRecord
  2
*D18
340
0
  0
BLOCK_RECORD
  5
352
330
1
100
AcDbSymbolTableRecord
100
AcDbBlockTableRecord
  2
*D19
340
0
  0
BLOCK_RECORD
  5
35D
330
1
100
AcDbSymbolTableRecord
100
AcDbBlockTableRecord
  2
*D20
340
0
  0
BLOCK_RECORD
  5
368
330
1
100
AcDbSymbolTableRecord
100
AcDbBlockTableRecord
  2
*D21
340
0
  0
BLOCK_RECORD
  5
373
330
1
100
AcDbSymbolTableRecord
100
AcDbBlockTableRecord
  2
*D22
340
0
  0
BLOCK_RECORD
  5
37E
330
1
100
AcDbSymbolTableRecord
100
AcDbBlockTableRecord
  2
*D23
340
0
  0
BLOCK_RECORD
  5
389
330
1
100
AcDbSymbolTableRecord
100
AcDbBlockTableRecord
  2
*D24
340
0
  0
BLOCK_RECORD
  5
396
330
1
100
AcDbSymbolTableRecord
100
AcDbBlockTableRecord
  2
*D25
340
0
  0
BLOCK_RECORD
  5
3A3
330
1
100
AcDbSymbolTableRecord
100
AcDbBlockTableRecord
  2
*D26
340
0
  0
BLOCK_RECORD
  5
3AE
330
1
100
AcDbSymbolTableRecord
100
AcDbBlockTableRecord
  2
*D27
340
0
  0
BLOCK_RECORD
  5
3BB
330
1
100
AcDbSymbolTableRecord
100
AcDbBlockTableRecord
  2
*D28
340
0
  0
BLOCK_RECORD
  5
3C8
330
1
100
AcDbSymbolTableRecord
100
AcDbBlockTableRecord
  2
*D29
340
0
  0
BLOCK_RECORD
  5
3D4
330
1
100
AcDbSymbolTableRecord
100
AcDbBlockTableRecord
  2
*D30
340
0
  0
BLOCK_RECORD
  5
3E1
330
1
100
AcDbSymbolTableRecord
100
AcDbBlockTableRecord
  2
*D31
340
0
102
{BLKREFS
331
3E7
102
}
  0
BLOCK_RECORD
  5
3E8
330
1
100
AcDbSymbolTableRecord
100
AcDbBlockTableRecord
  2
*D32
340
0
102
{BLKREFS
331
3EE
102
}
  0
BLOCK_RECORD
  5
3EF
330
1
100
AcDbSymbolTableRecord
100
AcDbBlockTableRecord
  2
*D33
340
0
102
{BLKREFS
331
3F5
102
}
  0
BLOCK_RECORD
  5
3F6
330
1
100
AcDbSymbolTableRecord
100
AcDbBlockTableRecord
  2
*D34
340
0
102
{BLKREFS
331
3FD
102
}
  0
BLOCK_RECORD
  5
3FE
330
1
100
AcDbSymbolTableRecord
100
AcDbBlockTableRecord
  2
*D35
340
0
102
{BLKREFS
331
405
102
}
  0
BLOCK_RECORD
  5
406
330
1
100
AcDbSymbolTableRecord
100
AcDbBlockTableRecord
  2
*D36
340
0
102
{BLKREFS
331
40E
102
}
  0
BLOCK_RECORD
  5
40F
330
1
100
AcDbSymbolTableRecord
100
AcDbBlockTableRecord
  2
*D37
340
0
102
{BLKREFS
331
417
102
}
  0
ENDTAB
  0
ENDSEC
  0
SECTION
  2
BLOCKS
  0
BLOCK
  5
20
330
1F
100
AcDbEntity
  8
0
100
AcDbBlockBegin
  2
*Model_Space
 70
     0
 10
0.0
 20
0.0
 30
0.0
  3
*Model_Space
  1

  0
ENDBLK
  5
21
330
1F
100
AcDbEntity
  8
0
100
AcDbBlockEnd
  0
BLOCK
  5
1C
330
1B
100
AcDbEntity
 67
     1
  8
0
100
AcDbBlockBegin
  2
*Paper_Space
 70
     0
 10
0.0
 20
0.0
 30
0.0
  3
*Paper_Space
  1

  0
ENDBLK
  5
1D
330
1B
100
AcDbEntity
 67
     1
  8
0
100
AcDbBlockEnd
  0
BLOCK
  5
24
330
23
100
AcDbEntity
  8
0
100
AcDbBlockBegin
  2
*Paper_Space0
 70
     0
 10
0.0
 20
0.0
 30
0.0
  3
*Paper_Space0
  1

  0
ENDBLK
  5
25
330
23
100
AcDbEntity
  8
0
100
AcDbBlockEnd
  0
BLOCK
  5
4A
330
49
100
AcDbEntity
  8
0
100
AcDbBlockBegin
  2
FL
 70
     0
 10
-75.3642881847503
 20
-224.86341317288
 30
0.0
  3
FL
  1

  0
POINT
  5
55
330
49
100
AcDbEntity
  8
1
 62
     3
 60
     1
100
AcDbPoint
 10
105.4161158394921
 20
-191.2456826637425
 30
0.0
  0
POINT
  5
56
330
49
100
AcDbEntity
  8
1
 62
     3
 60
     1
100
AcDbPoint
 10
96.9161158394921
 20
-157.566956622224
 30
0.0
  0
POINT
  5
57
330
49
100
AcDbEntity
  8
1
 62
     3
 60
     1
100
AcDbPoint
 10
76.9161158394921
 20
-157.566956622224
 30
0.0
  0
POINT
  5
58
330
49
100
AcDbEntity
  8
1
 62
     3
 60
     1
100
AcDbPoint
 10
96.9161158394921
 20
-177.5669566222241
 30
0.0
  0
POINT
  5
59
330
49
100
AcDbEntity
  8
1
 62
     3
 60
     1
100
AcDbPoint
 10
105.4161158394921
 20
-263.8882305807056
 30
0.0
  0
POINT
  5
5A
330
49
100
AcDbEntity
  8
1
 62
     3
 60
     1
100
AcDbPoint
 10
76.9161158394921
 20
-297.566956622224
 30
0.0
  0
POINT
  5
5B
330
49
100
AcDbEntity
  8
1
 62
     3
 60
     1
100
AcDbPoint
 10
96.9161158394921
 20
-297.566956622224
 30
0.0
  0
POINT
  5
5C
330
49
100
AcDbEntity
  8
1
 62
     3
 60
     1
100
AcDbPoint
 10
96.9161158394921
 20
-277.5669566222239
 30
0.0
  0
LINE
  5
5D
330
49
100
AcDbEntity
  8
1
  6
DOT_CENTER
 62
     2
100
AcDbLine
 10
71.31463768055248
 20
-227.566956622224
 30
0.0
 11
78.1448029271018
 21
-227.566956622224
 31
0.0
  0
LINE
  5
5E
330
49
100
AcDbEntity
  8
1
  6
DOT_CENTER
 62
     2
100
AcDbLine
 10
-12.92592790937917
 20
-227.566956622224
 30
0.0
 11
48.1110288331818
 21
-227.566956622224
 31
0.0
  0
LINE
  5
5F
330
49
100
AcDbEntity
  8
1
  6
DOT_CENTER
 62
     2
100
AcDbLine
 10
71.20640832257679
 20
-332.566956622224
 30
0.0
 11
115.9534131540941
 21
-332.566956622224
 31
0.0
  0
LINE
  5
60
330
49
100
AcDbEntity
  8
1
  6
DOT_CENTER
 62
     2
100
AcDbLine
 10
69.523134962018
 20
-122.566956622224
 30
0.0
 11
117.9007907340361
 21
-122.566956622224
 31
0.0
  0
LINE
  5
61
330
49
100
AcDbEntity
  8
1
  6
Continuous
 62
     7
100
AcDbLine
 10
113.3161158394921
 20
-122.566956622224
 30
0.0
 11
113.3161158394921
 21
-332.566956622224
 31
0.0
  0
LINE
  5
62
330
49
100
AcDbEntity
  8
1
  6
Continuous
 62
     7
100
AcDbLine
 10
98.8161158394921
 20
-332.566956622224
 30
0.0
 11
98.8161158394921
 21
-273.5852408120283
 31
0.0
  0
LINE
  5
63
330
49
100
AcDbEntity
  8
1
  6
Continuous
 62
     7
100
AcDbLine
 10
73.31611583949207
 20
-122.566956622224
 30
0.0
 11
73.31611583949207
 21
-332.566956622224
 31
0.0
  0
LINE
  5
64
330
49
100
AcDbEntity
  8
1
  6
DOT_CENTER
 62
     2
100
AcDbLine
 10
-13.40877772486121
 20
-332.566956622224
 30
0.0
 11
51.09531075338669
 21
-332.566956622224
 31
0.0
  0
LINE
  5
65
330
49
100
AcDbEntity
  8
1
  6
DOT_CENTER
 62
     2
100
AcDbLine
 10
-13.78851528580466
 20
-122.566956622224
 30
0.0
 11
50.5985112149423
 21
-122.566956622224
 31
0.0
  0
LINE
  5
66
330
49
100
AcDbEntity
  8
1
  6
DOT_CENTER
 62
     2
100
AcDbLine
 10
46.15555695959291
 20
-120.023108952881
 30
0.0
 11
46.15555695959291
 21
-338.572571712275
 31
0.0
  0
LINE
  5
67
330
49
100
AcDbEntity
  8
1
  6
DASHED
 62
     2
100
AcDbLine
 10
2.8241277206779
 20
-122.566956622224
 30
0.0
 11
2.8241277206779
 21
-147.566956622224
 31
0.0
  0
LINE
  5
68
330
49
100
AcDbEntity
  8
1
  6
Continuous
 62
     7
100
AcDbLine
 10
-10.1758722793221
 20
-122.566956622224
 30
0.0
 11
-10.1758722793221
 21
-181.066956622224
 31
0.0
  0
LINE
  5
69
330
49
100
AcDbEntity
  8
1
  6
Continuous
 62
     7
100
AcDbLine
 10
-36.16785902345418
 20
-279.9871061063313
 30
0.0
 11
-58.16785902345418
 21
-279.9871061063313
 31
0.0
  0
LINE
  5
6A
102
{ACAD_REACTORS
330
B5
102
}
330
49
100
AcDbEntity
  8
1
  6
Continuous
 62
     7
100
AcDbLine
 10
-58.16785902345418
 20
-258.9871061063313
 30
0.0
 11
-68.16785902345418
 21
-258.9871061063313
 31
0.0
  0
LINE
  5
6B
330
49
100
AcDbEntity
  8
1
  6
Continuous
 62
     7
100
AcDbLine
 10
-58.16785902345418
 20
-258.9871061063313
 30
0.0
 11
-58.16785902345418
 21
-279.9871061063313
 31
0.0
  0
LINE
  5
6C
102
{ACAD_REACTORS
330
B5
102
}
330
49
100
AcDbEntity
  8
1
  6
Continuous
 62
     7
100
AcDbLine
 10
-36.16785902345418
 20
-287.5871061063313
 30
0.0
 11
-36.16785902345418
 21
-279.9871061063313
 31
0.0
  0
LINE
  5
6D
102
{ACAD_REACTORS
330
B5
102
}
330
49
100
AcDbEntity
  8
1
  6
Continuous
 62
     7
100
AcDbLine
 10
-81.16785902345418
 20
-287.5871061063313
 30
0.0
 11
-36.16785902345418
 21
-287.5871061063313
 31
0.0
  0
LINE
  5
6E
102
{ACAD_REACTORS
330
B5
102
}
330
49
100
AcDbEntity
  8
1
  6
Continuous
 62
     7
100
AcDbLine
 10
-36.16785902345418
 20
-258.9871061063313
 30
0.0
 11
-58.16785902345418
 21
-258.9871061063313
 31
0.0
  0
LINE
  5
6F
102
{ACAD_REACTORS
330
B5
102
}
330
49
100
AcDbEntity
  8
1
  6
PHANTOM
 62
     2
100
AcDbLine
 10
-24.8364297845392
 20
-255.4871061063313
 30
0.0
 11
-24.8364297845392
 21
-295.4871061063313
 31
0.0
  0
LINE
  5
70
330
49
100
AcDbEntity
  8
1
  6
PHANTOM
 62
     2
100
AcDbLine
 10
-24.8364297845392
 20
-295.4871061063313
 30
0.0
 11
-24.8364297845392
 21
-298.4540870252993
 31
0.0
  0
LINE
  5
71
330
49
100
AcDbEntity
  8
1
  6
PHANTOM
 62
     2
100
AcDbLine
 10
-24.8364297845392
 20
-255.4871061063313
 30
0.0
 11
-24.8364297845392
 21
-251.6982740186783
 31
0.0
  0
LINE
  5
72
102
{ACAD_REACTORS
330
B5
102
}
330
49
100
AcDbEntity
  8
1
  6
Continuous
 62
     7
100
AcDbLine
 10
-81.16785902345418
 20
-295.4871061063313
 30
0.0
 11
-24.8364297845392
 21
-295.4871061063313
 31
0.0
  0
LINE
  5
73
102
{ACAD_REACTORS
330
B5
102
}
330
49
100
AcDbEntity
  8
1
  6
Continuous
 62
     7
100
AcDbLine
 10
-81.16785902345418
 20
-287.5871061063313
 30
0.0
 11
-81.16785902345418
 21
-295.4871061063313
 31
0.0
  0
LINE
  5
74
330
49
100
AcDbEntity
  8
1
  6
Continuous
 62
     7
100
AcDbLine
 10
-81.16785902345418
 20
-280.9871061063313
 30
0.0
 11
-81.16785902345418
 21
-287.5871061063313
 31
0.0
  0
LINE
  5
75
330
49
100
AcDbEntity
  8
1
  6
Continuous
 62
     7
100
AcDbLine
 10
-68.16785902345418
 20
-258.9871061063313
 30
0.0
 11
-68.16785902345418
 21
-280.9871061063313
 31
0.0
  0
LINE
  5
76
102
{ACAD_REACTORS
330
B5
102
}
330
49
100
AcDbEntity
  8
1
  6
Continuous
 62
     7
100
AcDbLine
 10
-68.16785902345418
 20
-255.4871061063313
 30
0.0
 11
-68.16785902345418
 21
-258.9871061063313
 31
0.0
  0
LINE
  5
77
102
{ACAD_REACTORS
330
B5
102
}
330
49
100
AcDbEntity
  8
1
  6
Continuous
 62
     7
100
AcDbLine
 10
-68.16785902345418
 20
-255.4871061063313
 30
0.0
 11
-24.8364297845392
 21
-255.4871061063313
 31
0.0
  0
LINE
  5
78
330
49
100
AcDbEntity
  8
1
  6
Continuous
 62
     7
100
AcDbLine
 10
-68.16785902345418
 20
-280.9871061063313
 30
0.0
 11
-81.16785902345418
 21
-280.9871061063313
 31
0.0
  0
LINE
  5
79
102
{ACAD_REACTORS
330
B5
102
}
330
49
100
AcDbEntity
  8
1
  6
Continuous
 62
     7
100
AcDbLine
 10
-36.16785902345418
 20
-279.9871061063313
 30
0.0
 11
-36.16785902345418
 21
-258.9871061063313
 31
0.0
  0
LINE
  5
7A
330
49
100
AcDbEntity
  8
1
  6
Continuous
 62
     7
100
AcDbLine
 10
-58.16785902345418
 20
-279.9871061063313
 30
0.0
 11
-68.16785902345418
 21
-279.9871061063313
 31
0.0
  0
LINE
  5
7B
330
49
100
AcDbEntity
  8
1
  6
Continuous
 62
     7
100
AcDbLine
 10
76.9161158394921
 20
-157.566956622224
 30
0.0
 11
76.91611583949201
 21
-177.5669566222241
 31
0.0
  0
LINE
  5
7C
330
49
100
AcDbEntity
  8
1
  6
Continuous
 62
     7
100
AcDbLine
 10
96.9161158394921
 20
-157.566956622224
 30
0.0
 11
96.9161158394921
 21
-177.5669566222241
 31
0.0
  0
LINE
  5
7D
330
49
100
AcDbEntity
  8
1
  6
Continuous
 62
     7
100
AcDbLine
 10
98.8161158394921
 20
-181.5486724324198
 30
0.0
 11
98.8161158394921
 21
-122.566956622224
 31
0.0
  0
LINE
  5
7E
330
49
100
AcDbEntity
  8
1
  6
DOT_CENTER
 62
     2
100
AcDbLine
 10
86.9161158394921
 20
-143.988034473728
 30
0.0
 11
86.9161158394921
 21
-170.998662826957
 31
0.0
  0
LINE
  5
7F
330
49
100
AcDbEntity
  8
1
  6
DASHED
 62
     2
100
AcDbLine
 10
2.8241277206779
 20
-147.566956622224
 30
0.0
 11
12.8241277206779
 21
-147.566956622224
 31
0.0
  0
LINE
  5
80
330
49
100
AcDbEntity
  8
1
  6
DASHED
 62
     2
100
AcDbLine
 10
2.8241277206779
 20
-147.566956622224
 30
0.0
 11
2.8241277206779
 21
-307.566956622224
 31
0.0
  0
LINE
  5
81
330
49
100
AcDbEntity
  8
1
  6
DASHED
 62
     2
100
AcDbLine
 10
12.8241277206779
 20
-147.566956622224
 30
0.0
 11
12.8241277206779
 21
-167.566956622224
 31
0.0
  0
LINE
  5
82
330
49
100
AcDbEntity
  8
1
  6
DASHED
 62
     2
100
AcDbLine
 10
12.8241277206779
 20
-167.566956622224
 30
0.0
 11
34.8241277206779
 21
-167.566956622224
 31
0.0
  0
LINE
  5
83
330
49
100
AcDbEntity
  8
1
  6
DASHED
 62
     2
100
AcDbLine
 10
34.8241277206779
 20
-167.566956622224
 30
0.0
 11
34.8241277206779
 21
-181.066956622224
 31
0.0
  0
LINE
  5
84
330
49
100
AcDbEntity
  8
1
  6
DASHED
 62
     2
100
AcDbLine
 10
34.8241277206779
 20
-287.566956622224
 30
0.0
 11
12.8241277206779
 21
-287.566956622224
 31
0.0
  0
LINE
  5
85
330
49
100
AcDbEntity
  8
1
  6
DASHED
 62
     2
100
AcDbLine
 10
12.8241277206779
 20
-287.566956622224
 30
0.0
 11
12.8241277206779
 21
-307.566956622224
 31
0.0
  0
LINE
  5
86
330
49
100
AcDbEntity
  8
1
  6
DASHED
 62
     2
100
AcDbLine
 10
12.8241277206779
 20
-307.566956622224
 30
0.0
 11
2.8241277206779
 21
-307.566956622224
 31
0.0
  0
LINE
  5
87
330
49
100
AcDbEntity
  8
1
  6
DASHED
 62
     2
100
AcDbLine
 10
2.8241277206779
 20
-307.566956622224
 30
0.0
 11
2.8241277206779
 21
-332.566956622224
 31
0.0
  0
LINE
  5
88
330
49
100
AcDbEntity
  8
1
  6
DASHED
 62
     2
100
AcDbLine
 10
12.8241277206779
 20
-167.566956622224
 30
0.0
 11
12.8241277206779
 21
-178.066956622224
 31
0.0
  0
LINE
  5
89
330
49
100
AcDbEntity
  8
1
  6
DASHED
 62
     2
100
AcDbLine
 10
12.8241277206779
 20
-277.0669566222241
 30
0.0
 11
12.8241277206779
 21
-287.566956622224
 31
0.0
  0
LINE
  5
8A
330
49
100
AcDbEntity
  8
1
  6
DASHED
 62
     2
100
AcDbLine
 10
34.8241277206779
 20
-181.066956622224
 30
0.0
 11
-10.1758722793221
 21
-181.066956622224
 31
0.0
  0
LINE
  5
8B
330
49
100
AcDbEntity
  8
1
  6
DASHED
 62
     2
100
AcDbLine
 10
34.8241277206779
 20
-181.066956622224
 30
0.0
 11
34.8241277206779
 21
-287.566956622224
 31
0.0
  0
LINE
  5
8C
330
49
100
AcDbEntity
  8
1
  6
Continuous
 62
     7
100
AcDbLine
 10
-10.1758722793221
 20
-181.066956622224
 30
0.0
 11
-10.1758722793221
 21
-332.566956622224
 31
0.0
  0
LINE
  5
8D
330
49
100
AcDbEntity
  8
1
  6
DASHED
 62
     2
100
AcDbLine
 10
-10.1758722793221
 20
-274.066956622224
 30
0.0
 11
34.8241277206779
 21
-274.066956622224
 31
0.0
  0
LINE
  5
8E
330
49
100
AcDbEntity
  8
1
  6
DOT_CENTER
 62
     2
100
AcDbLine
 10
79.9161158394921
 20
-156.567048851624
 30
0.0
 11
84.4161158394921
 21
-156.567048851624
 31
0.0
  0
LINE
  5
8F
330
49
100
AcDbEntity
  8
1
  6
DOT_CENTER
 62
     2
100
AcDbLine
 10
82.1661158394921
 20
-158.817048851624
 30
0.0
 11
82.1661158394921
 21
-154.317048851624
 31
0.0
  0
LINE
  5
90
330
49
100
AcDbEntity
  8
1
  6
DOT_CENTER
 62
     2
100
AcDbLine
 10
89.4161158394921
 20
-162.566956622224
 30
0.0
 11
93.9161158394921
 21
-162.566956622224
 31
0.0
  0
LINE
  5
91
330
49
100
AcDbEntity
  8
1
  6
DOT_CENTER
 62
     2
100
AcDbLine
 10
91.6661158394921
 20
-164.816956622224
 30
0.0
 11
91.6661158394921
 21
-160.316956622224
 31
0.0
  0
LINE
  5
92
330
49
100
AcDbEntity
  8
1
  6
DOT_CENTER
 62
     2
100
AcDbLine
 10
86.9161158394921
 20
-179.730819657618
 30
0.0
 11
86.9161158394921
 21
-311.90272283545
 31
0.0
  0
LINE
  5
93
330
49
100
AcDbEntity
  8
1
  6
Continuous
 62
     7
100
AcDbLine
 10
105.4161158394921
 20
-191.2456826637425
 30
0.0
 11
105.4161158394921
 21
-227.566956622224
 31
0.0
  0
LINE
  5
94
330
49
100
AcDbEntity
  8
1
  6
Continuous
 62
     7
100
AcDbLine
 10
76.91611583949201
 20
-177.5669566222241
 30
0.0
 11
76.91611583949205
 21
-227.566956622224
 31
0.0
  0
LINE
  5
95
330
49
100
AcDbEntity
  8
1
  6
Continuous
 62
     7
100
AcDbLine
 10
96.9161158394921
 20
-177.5669566222241
 30
0.0
 11
96.9161158394921
 21
-181.066956622224
 31
0.0
  0
LINE
  5
96
330
49
100
AcDbEntity
  8
1
  6
Continuous
 62
     7
100
AcDbLine
 10
105.4161158394921
 20
-227.566956622224
 30
0.0
 11
105.4161158394921
 21
-263.8882305807056
 31
0.0
  0
LINE
  5
97
330
49
100
AcDbEntity
  8
1
  6
Continuous
 62
     7
100
AcDbLine
 10
76.91611583949205
 20
-227.566956622224
 30
0.0
 11
76.91611583949201
 21
-277.5669566222239
 31
0.0
  0
LINE
  5
98
330
49
100
AcDbEntity
  8
1
  6
Continuous
 62
     7
100
AcDbLine
 10
96.9161158394921
 20
-274.066956622224
 30
0.0
 11
96.9161158394921
 21
-277.5669566222239
 31
0.0
  0
LINE
  5
99
330
49
100
AcDbEntity
  8
1
  6
DOT_CENTER
 62
     2
100
AcDbLine
 10
91.6661158394921
 20
-294.816956622224
 30
0.0
 11
91.6661158394921
 21
-290.316956622224
 31
0.0
  0
LINE
  5
9A
330
49
100
AcDbEntity
  8
1
  6
DOT_CENTER
 62
     2
100
AcDbLine
 10
93.9161158394921
 20
-292.566956622224
 30
0.0
 11
89.4161158394921
 21
-292.566956622224
 31
0.0
  0
LINE
  5
9B
330
49
100
AcDbEntity
  8
1
  6
DOT_CENTER
 62
     2
100
AcDbLine
 10
82.1661158394921
 20
-300.816864392824
 30
0.0
 11
82.1661158394921
 21
-296.316864392824
 31
0.0
  0
LINE
  5
9C
330
49
100
AcDbEntity
  8
1
  6
DOT_CENTER
 62
     2
100
AcDbLine
 10
84.4161158394921
 20
-298.566864392824
 30
0.0
 11
79.9161158394921
 21
-298.566864392824
 31
0.0
  0
LINE
  5
9D
330
49
100
AcDbEntity
  8
1
  6
DOT_CENTER
 62
     2
100
AcDbLine
 10
86.9161158394921
 20
-283.135250417491
 30
0.0
 11
86.9161158394921
 21
-311.1458787707201
 31
0.0
  0
LINE
  5
9E
330
49
100
AcDbEntity
  8
1
  6
Continuous
 62
     7
100
AcDbLine
 10
96.9161158394921
 20
-277.5669566222239
 30
0.0
 11
96.9161158394921
 21
-297.566956622224
 31
0.0
  0
LINE
  5
9F
330
49
100
AcDbEntity
  8
1
  6
Continuous
 62
     7
100
AcDbLine
 10
76.91611583949201
 20
-277.5669566222239
 30
0.0
 11
76.9161158394921
 21
-297.566956622224
 31
0.0
  0
LINE
  5
A0
330
49
100
AcDbEntity
  8
1
  6
DOT_CENTER
 62
     2
100
AcDbLine
 10
98.3852633083666
 20
-227.566956622224
 30
0.0
 11
114.9432791560371
 21
-227.566956622224
 31
0.0
  0
LINE
  5
A1
330
49
100
AcDbEntity
  8
1
  6
DOT_CENTER
 62
     2
100
AcDbLine
 10
90.0302574593346
 20
-227.566956622224
 30
0.0
 11
98.3852633083666
 21
-227.566956622224
 31
0.0
  0
ARC
  5
A2
330
49
100
AcDbEntity
  8
1
  6
Continuous
 62
     7
100
AcDbCircle
 10
95.42035729552917
 20
-190.9544591571496
 30
0.0
 40
10.00000000000004
100
AcDbArc
 50
70.14896505751778
 51
81.3976524917123
  0
ARC
  5
A3
330
49
100
AcDbEntity
  8
1
  6
Continuous
 62
     7
100
AcDbCircle
 10
95.42035729552917
 20
-190.9544591571496
 30
0.0
 40
10.0
100
AcDbArc
 50
358.3311762696342
 51
70.14896505751778
  0
ARC
  5
A4
330
49
100
AcDbEntity
  8
1
  6
Continuous
 62
     7
100
AcDbCircle
 10
86.9161158394921
 20
-157.566956622224
 30
0.0
 40
10.0
100
AcDbArc
 50
90.0
 51
180.0
  0
ARC
  5
A5
330
49
100
AcDbEntity
  8
1
  6
Continuous
 62
     7
100
AcDbCircle
 10
86.9161158394921
 20
-177.5669566222241
 30
0.0
 40
9.999999999999602
100
AcDbArc
 50
90.0
 51
180.0
  0
ARC
  5
A6
330
49
100
AcDbEntity
  8
1
  6
Continuous
 62
     7
100
AcDbCircle
 10
86.9161158394921
 20
-277.5669566222239
 30
0.0
 40
9.999999999999659
100
AcDbArc
 50
269.9999999999998
 51
0.0
  0
ARC
  5
A7
330
49
100
AcDbEntity
  8
1
  6
Continuous
 62
     7
100
AcDbCircle
 10
86.91611583949206
 20
-297.5669566222239
 30
0.0
 40
10.0
100
AcDbArc
 50
270.0000000000002
 51
359.9999999999997
  0
ARC
  5
A8
330
49
100
AcDbEntity
  8
1
  6
Continuous
 62
     7
100
AcDbCircle
 10
95.42035729552917
 20
-264.1794540872985
 30
0.0
 40
10.00000000000004
100
AcDbArc
 50
289.8510349424822
 51
1.66882373036562
  0
ARC
  5
A9
330
49
100
AcDbEntity
  8
1
  6
Continuous
 62
     7
100
AcDbCircle
 10
95.42035729552917
 20
-264.1794540872985
 30
0.0
 40
9.999999999999801
100
AcDbArc
 50
278.6023475082878
 51
289.8510349424822
  0
ARC
  5
AA
330
49
100
AcDbEntity
  8
1
  6
Continuous
 62
     7
100
AcDbCircle
 10
86.9161158394921
 20
-157.566956622224
 30
0.0
 40
10.0
100
AcDbArc
 50
0.0
 51
90.0
  0
ARC
  5
AB
330
49
100
AcDbEntity
  8
1
  6
Continuous
 62
     7
100
AcDbCircle
 10
86.9161158394921
 20
-177.5669566222241
 30
0.0
 40
10.0
100
AcDbArc
 50
0.0
 51
90.0
  0
ARC
  5
AC
330
49
100
AcDbEntity
  8
1
  6
Continuous
 62
     7
100
AcDbCircle
 10
86.9161158394921
 20
-277.5669566222239
 30
0.0
 40
10.00000000000009
100
AcDbArc
 50
180.0
 51
269.9999999999998
  0
ARC
  5
AD
330
49
100
AcDbEntity
  8
1
  6
Continuous
 62
     7
100
AcDbCircle
 10
86.91611583949206
 20
-297.5669566222239
 30
0.0
 40
9.999999999999972
100
AcDbArc
 50
180.0000000000003
 51
270.0000000000002
  0
CIRCLE
  5
AE
330
49
100
AcDbEntity
  8
1
  6
Continuous
 62
     7
100
AcDbCircle
 10
82.1661158394921
 20
-156.567048851624
 30
0.0
 40
1.5
  0
CIRCLE
  5
AF
330
49
100
AcDbEntity
  8
1
  6
Continuous
 62
     7
100
AcDbCircle
 10
91.6661158394921
 20
-162.566956622224
 30
0.0
 40
1.5
  0
CIRCLE
  5
B0
330
49
100
AcDbEntity
  8
1
  6
PHANTOM
 62
     2
100
AcDbCircle
 10
86.91611583949206
 20
-297.5669566222239
 30
0.0
 40
10.00000000000034
  0
CIRCLE
  5
B1
330
49
100
AcDbEntity
  8
1
  6
Continuous
 62
     7
100
AcDbCircle
 10
91.6661158394921
 20
-292.566956622224
 30
0.0
 40
1.5
  0
CIRCLE
  5
B2
330
49
100
AcDbEntity
  8
1
  6
Continuous
 62
     7
100
AcDbCircle
 10
82.1661158394921
 20
-298.566864392824
 30
0.0
 40
1.5
  0
XLINE
  5
B3
330
49
100
AcDbEntity
  8
1
  6
DOT_CENTER
 62
     3
 60
     1
100
AcDbXline
 10
71.31463768055248
 20
-227.566956622224
 30
0.0
 11
1.0
 21
0.0
 31
0.0
  0
XLINE
  5
B4
330
49
100
AcDbEntity
  8
1
  6
DOT_CENTER
 62
     3
 60
     1
100
AcDbXline
 10
71.31463768055248
 20
-227.566956622224
 30
0.0
 11
1.0
 21
0.0
 31
0.0
  0
HATCH
  5
B5
330
49
100
AcDbEntity
  8
1
  6
Continuous
 62
     2
100
AcDbHatch
 10
0.0
 20
0.0
 30
0.0
210
0.0
220
0.0
230
1.0
  2
_USER
 70
     0
 71
     1
 91
        1
 92
        1
 93
       10
 72
     1
 10
-24.8364297845392
 20
-295.4871061063313
 11
-81.16785902345418
 21
-295.4871061063313
 72
     1
 10
-81.16785902345418
 20
-295.4871061063313
 11
-81.16785902345418
 21
-287.5871061063313
 72
     1
 10
-81.16785902345418
 20
-287.5871061063313
 11
-36.16785902345418
 21
-287.5871061063313
 72
     1
 10
-36.16785902345418
 20
-287.5871061063313
 11
-36.16785902345418
 21
-279.9871061063313
 72
     1
 10
-36.16785902345418
 20
-279.9871061063313
 11
-36.16785902345418
 21
-258.9871061063313
 72
     1
 10
-36.16785902345418
 20
-258.9871061063313
 11
-58.16785902345418
 21
-258.9871061063313
 72
     1
 10
-58.16785902345418
 20
-258.9871061063313
 11
-68.16785902345418
 21
-258.9871061063313
 72
     1
 10
-68.16785902345418
 20
-258.9871061063313
 11
-68.16785902345418
 21
-255.4871061063313
 72
     1
 10
-68.16785902345418
 20
-255.4871061063313
 11
-24.8364297845392
 21
-255.4871061063313
 72
     1
 10
-24.8364297845392
 20
-255.4871061063313
 11
-24.8364297845392
 21
-295.4871061063313
 97
       10
330
77
330
76
330
6A
330
6E
330
79
330
6C
330
6D
330
73
330
72
330
6F
 75
     1
 76
     0
 52
135.0
 41
5.0
 77
     0
 78
     1
 53
135.0
 43
0.0
 44
0.0
 45
-3.535533905932738
 46
-3.535533905932737
 79
     0
 98
        1
 10
0.0
 20
0.0
  0
ENDBLK
  5
4B
330
49
100
AcDbEntity
  8
0
100
AcDbBlockEnd
  0
BLOCK
  5
4D
330
4C
100
AcDbEntity
  8
0
100
AcDbBlockBegin
  2
RA
 70
     0
 10
38.46164568665984
 20
-343.787584804024
 30
0.0
  3
RA
  1

  0
LINE
  5
B6
330
4C
100
AcDbEntity
  8
1
  6
DOT_CENTER
 62
     2
100
AcDbLine
 10
-128.7305981112077
 20
-332.566956622224
 30
0.0
 11
-124.778481033335
 21
-332.566956622224
 31
0.0
  0
LINE
  5
B7
330
4C
100
AcDbEntity
  8
1
  6
DOT_CENTER
 62
     2
100
AcDbLine
 10
-128.7305981112077
 20
-122.566956622224
 30
0.0
 11
-124.778481033335
 21
-122.566956622224
 31
0.0
  0
LINE
  5
B8
330
4C
100
AcDbEntity
  8
1
  6
DOT_CENTER
 62
     2
100
AcDbLine
 10
-257.0246363086953
 20
-332.566956622224
 30
0.0
 11
-261.644611620494
 21
-332.566956622224
 31
0.0
  0
LINE
  5
B9
330
4C
100
AcDbEntity
  8
1
  6
DOT_CENTER
 62
     2
100
AcDbLine
 10
-257.0246363086953
 20
-122.566956622224
 30
0.0
 11
-261.644611620494
 21
-122.566956622224
 31
0.0
  0
LINE
  5
BA
330
4C
100
AcDbEntity
  8
1
  6
DOT_CENTER
 62
     2
100
AcDbLine
 10
-240.5246363086951
 20
-127.060471609952
 30
0.0
 11
-240.5246363086951
 21
-156.973920476435
 31
0.0
  0
LINE
  5
BB
330
4C
100
AcDbEntity
  8
1
  6
DOT_CENTER
 62
     2
100
AcDbLine
 10
-186.911137244724
 20
-227.566956622224
 30
0.0
 11
-122.901644108184
 21
-227.566956622224
 31
0.0
  0
LINE
  5
BC
330
4C
100
AcDbEntity
  8
1
  6
DOT_CENTER
 62
     2
100
AcDbLine
 10
-260.48614000714
 20
-227.566956622224
 30
0.0
 11
-207.086832021681
 21
-227.566956622224
 31
0.0
  0
LINE
  5
BD
330
4C
100
AcDbEntity
  8
1
  6
Continuous
 62
     7
100
AcDbLine
 10
-257.0246363086953
 20
-271.066956622224
 30
0.0
 11
-257.0246363086953
 21
-332.566956622224
 31
0.0
  0
LINE
  5
BE
330
4C
100
AcDbEntity
  8
1
  6
Continuous
 62
     7
100
AcDbLine
 10
-253.5246363086952
 20
-271.066956622224
 30
0.0
 11
-253.5246363086952
 21
-184.066956622224
 31
0.0
  0
LINE
  5
BF
330
4C
100
AcDbEntity
  8
1
  6
Continuous
 62
     7
100
AcDbLine
 10
-253.5246363086952
 20
-271.066956622224
 30
0.0
 11
-257.0246363086953
 21
-271.066956622224
 31
0.0
  0
LINE
  5
C0
330
4C
100
AcDbEntity
  8
1
  6
Continuous
 62
     7
100
AcDbLine
 10
-253.5246363086952
 20
-184.066956622224
 30
0.0
 11
-253.5246363086952
 21
-145.5573376789907
 31
0.0
  0
LINE
  5
C1
330
4C
100
AcDbEntity
  8
1
  6
Continuous
 62
     7
100
AcDbLine
 10
-257.0246363086953
 20
-184.066956622224
 30
0.0
 11
-257.0246363086953
 21
-271.066956622224
 31
0.0
  0
LINE
  5
C2
330
4C
100
AcDbEntity
  8
1
  6
Continuous
 62
     7
100
AcDbLine
 10
-253.5246363086952
 20
-184.066956622224
 30
0.0
 11
-257.0246363086953
 21
-184.066956622224
 31
0.0
  0
LINE
  5
C3
330
4C
100
AcDbEntity
  8
1
  6
Continuous
 62
     7
100
AcDbLine
 10
-141.7305981112079
 20
-271.566956622224
 30
0.0
 11
-141.7305981112079
 21
-322.566956622224
 31
0.0
  0
LINE
  5
C4
330
4C
100
AcDbEntity
  8
1
  6
Continuous
 62
     7
100
AcDbLine
 10
-149.2305981112079
 20
-271.566956622224
 30
0.0
 11
-141.7305981112079
 21
-271.566956622224
 31
0.0
  0
LINE
  5
C5
330
4C
100
AcDbEntity
  8
1
  6
Continuous
 62
     7
100
AcDbLine
 10
-149.2305981112079
 20
-183.566956622224
 30
0.0
 11
-149.2305981112079
 21
-271.566956622224
 31
0.0
  0
LINE
  5
C6
330
4C
100
AcDbEntity
  8
1
  6
Continuous
 62
     7
100
AcDbLine
 10
-141.7305981112079
 20
-183.566956622224
 30
0.0
 11
-141.7305981112079
 21
-271.566956622224
 31
0.0
  0
LINE
  5
C7
330
4C
100
AcDbEntity
  8
1
  6
Continuous
 62
     7
100
AcDbLine
 10
-141.7305981112079
 20
-183.566956622224
 30
0.0
 11
-149.2305981112079
 21
-183.566956622224
 31
0.0
  0
LINE
  5
C8
330
4C
100
AcDbEntity
  8
1
  6
Continuous
 62
     7
100
AcDbLine
 10
-227.5246363086952
 20
-145.5573376789907
 30
0.0
 11
-227.5246363086952
 21
-309.5765755654575
 31
0.0
  0
LINE
  5
C9
330
4C
100
AcDbEntity
  8
1
  6
Continuous
 62
     7
100
AcDbLine
 10
-253.5246363086952
 20
-309.5765755654575
 30
0.0
 11
-253.5246363086952
 21
-296.566956622224
 31
0.0
  0
LINE
  5
CA
330
4C
100
AcDbEntity
  8
1
  6
DOT_CENTER
 62
     2
100
AcDbLine
 10
-257.0246363086953
 20
-332.566956622224
 30
0.0
 11
-207.763107958464
 21
-332.566956622224
 31
0.0
  0
LINE
  5
CB
330
4C
100
AcDbEntity
  8
1
  6
DOT_CENTER
 62
     2
100
AcDbLine
 10
-257.0246363086953
 20
-122.566956622224
 30
0.0
 11
-205.959871326957
 21
-122.566956622224
 31
0.0
  0
LINE
  5
CC
330
4C
100
AcDbEntity
  8
1
  6
DOT_CENTER
 62
     2
100
AcDbLine
 10
-211.0246363086953
 20
-120.023108952881
 30
0.0
 11
-211.0246363086953
 21
-338.572571712275
 31
0.0
  0
LINE
  5
CD
330
4C
100
AcDbEntity
  8
1
  6
Continuous
 62
     7
100
AcDbLine
 10
-227.0246363086953
 20
-332.566956622224
 30
0.0
 11
-227.0246363086953
 21
-122.566956622224
 31
0.0
  0
LINE
  5
CE
330
4C
100
AcDbEntity
  8
1
  6
Continuous
 62
     7
100
AcDbLine
 10
-257.0246363086953
 20
-122.566956622224
 30
0.0
 11
-257.0246363086953
 21
-184.066956622224
 31
0.0
  0
LINE
  5
CF
330
4C
100
AcDbEntity
  8
1
  6
Continuous
 62
     7
100
AcDbLine
 10
-141.7305981112079
 20
-322.566956622224
 30
0.0
 11
-141.7305981112079
 21
-332.566956622224
 31
0.0
  0
LINE
  5
D0
330
4C
100
AcDbEntity
  8
1
  6
DASHED
 62
     2
100
AcDbLine
 10
-151.7305981112079
 20
-322.566956622224
 30
0.0
 11
-141.7305981112079
 21
-322.566956622224
 31
0.0
  0
LINE
  5
D1
330
4C
100
AcDbEntity
  8
1
  6
DASHED
 62
     2
100
AcDbLine
 10
-151.7305981112079
 20
-306.566956622224
 30
0.0
 11
-151.7305981112079
 21
-322.566956622224
 31
0.0
  0
LINE
  5
D2
330
4C
100
AcDbEntity
  8
1
  6
DASHED
 62
     2
100
AcDbLine
 10
-177.730598111208
 20
-306.566956622224
 30
0.0
 11
-151.7305981112079
 21
-306.566956622224
 31
0.0
  0
LINE
  5
D3
330
4C
100
AcDbEntity
  8
1
  6
DASHED
 62
     2
100
AcDbLine
 10
-177.730598111208
 20
-148.5669566222239
 30
0.0
 11
-177.730598111208
 21
-306.566956622224
 31
0.0
  0
LINE
  5
D4
330
4C
100
AcDbEntity
  8
1
  6
DASHED
 62
     2
100
AcDbLine
 10
-151.7305981112079
 20
-148.5669566222239
 30
0.0
 11
-177.730598111208
 21
-148.5669566222239
 31
0.0
  0
LINE
  5
D5
330
4C
100
AcDbEntity
  8
1
  6
DASHED
 62
     2
100
AcDbLine
 10
-151.7305981112079
 20
-132.566956622224
 30
0.0
 11
-151.7305981112079
 21
-148.5669566222239
 31
0.0
  0
LINE
  5
D6
330
4C
100
AcDbEntity
  8
1
  6
Continuous
 62
     7
100
AcDbLine
 10
-141.7305981112079
 20
-132.566956622224
 30
0.0
 11
-141.7305981112079
 21
-183.566956622224
 31
0.0
  0
LINE
  5
D7
330
4C
100
AcDbEntity
  8
1
  6
DASHED
 62
     2
100
AcDbLine
 10
-141.7305981112079
 20
-132.566956622224
 30
0.0
 11
-151.7305981112079
 21
-132.566956622224
 31
0.0
  0
LINE
  5
D8
330
4C
100
AcDbEntity
  8
1
  6
DOT_CENTER
 62
     2
100
AcDbLine
 10
-128.7305981112077
 20
-332.566956622224
 30
0.0
 11
-188.240782922235
 21
-332.566956622224
 31
0.0
  0
LINE
  5
D9
330
4C
100
AcDbEntity
  8
1
  6
DOT_CENTER
 62
     2
100
AcDbLine
 10
-128.7305981112077
 20
-122.566956622224
 30
0.0
 11
-189.451448891479
 21
-122.566956622224
 31
0.0
  0
LINE
  5
DA
330
4C
100
AcDbEntity
  8
1
  6
DOT_CENTER
 62
     2
100
AcDbLine
 10
-183.2305981112079
 20
-120.023108952881
 30
0.0
 11
-183.2305981112079
 21
-338.5725717122751
 31
0.0
  0
LINE
  5
DB
330
4C
100
AcDbEntity
  8
1
  6
Continuous
 62
     7
100
AcDbLine
 10
-128.7305981112077
 20
-332.566956622224
 30
0.0
 11
-128.7305981112077
 21
-122.566956622224
 31
0.0
  0
LINE
  5
DC
330
4C
100
AcDbEntity
  8
1
  6
Continuous
 62
     7
100
AcDbLine
 10
-141.7305981112079
 20
-122.566956622224
 30
0.0
 11
-141.7305981112079
 21
-132.566956622224
 31
0.0
  0
LINE
  5
DD
102
{ACAD_REACTORS
330
118
102
}
330
4C
100
AcDbEntity
  8
1
  6
Continuous
 62
     7
100
AcDbLine
 10
-81.66785902345384
 20
-275.9871061063313
 30
0.0
 11
-107.667859023454
 21
-275.9871061063313
 31
0.0
  0
LINE
  5
DE
102
{ACAD_REACTORS
330
118
102
}
330
4C
100
AcDbEntity
  8
1
  6
Continuous
 62
     7
100
AcDbLine
 10
-81.66785902345384
 20
-249.9871061063313
 30
0.0
 11
-107.6678590234538
 21
-249.9871061063313
 31
0.0
  0
LINE
  5
DF
330
4C
100
AcDbEntity
  8
1
  6
Continuous
 62
     7
100
AcDbLine
 10
-81.66785902345384
 20
-249.9871061063313
 30
0.0
 11
-81.66785902345384
 21
-275.9871061063313
 31
0.0
  0
LINE
  5
E0
330
4C
100
AcDbEntity
  8
1
  6
Continuous
 62
     7
100
AcDbLine
 10
-71.66785902345384
 20
-275.9871061063313
 30
0.0
 11
-71.66785902345384
 21
-279.4871061063313
 31
0.0
  0
LINE
  5
E1
330
4C
100
AcDbEntity
  8
1
  6
Continuous
 62
     7
100
AcDbLine
 10
-78.66785902345384
 20
-275.9871061063313
 30
0.0
 11
-71.66785902345384
 21
-275.9871061063313
 31
0.0
  0
LINE
  5
E2
102
{ACAD_REACTORS
330
118
102
}
330
4C
100
AcDbEntity
  8
1
  6
Continuous
 62
     7
100
AcDbLine
 10
-107.6678590234538
 20
-249.9871061063313
 30
0.0
 11
-107.667859023454
 21
-275.9871061063313
 31
0.0
  0
LINE
  5
E3
102
{ACAD_REACTORS
330
118
102
}
330
4C
100
AcDbEntity
  8
1
  6
Continuous
 62
     7
100
AcDbLine
 10
-78.66785902345384
 20
-275.9871061063313
 30
0.0
 11
-81.66785902345384
 21
-275.9871061063313
 31
0.0
  0
LINE
  5
E4
102
{ACAD_REACTORS
330
118
102
}
330
4C
100
AcDbEntity
  8
1
  6
Continuous
 62
     7
100
AcDbLine
 10
-71.66785902345384
 20
-249.9871061063313
 30
0.0
 11
-81.66785902345384
 21
-249.9871061063313
 31
0.0
  0
LINE
  5
E5
330
4C
100
AcDbEntity
  8
1
  6
Continuous
 62
     7
100
AcDbLine
 10
-71.66785902345384
 20
-279.4871061063313
 30
0.0
 11
-78.66785902345384
 21
-279.4871061063313
 31
0.0
  0
LINE
  5
E6
102
{ACAD_REACTORS
330
118
102
}
330
4C
100
AcDbEntity
  8
1
  6
Continuous
 62
     7
100
AcDbLine
 10
-78.66785902345384
 20
-279.4871061063313
 30
0.0
 11
-113.1678590234538
 21
-279.4871061063313
 31
0.0
  0
LINE
  5
E7
102
{ACAD_REACTORS
330
118
102
}
330
4C
100
AcDbEntity
  8
1
  6
Continuous
 62
     7
100
AcDbLine
 10
-78.66785902345384
 20
-275.9871061063313
 30
0.0
 11
-78.66785902345384
 21
-279.4871061063313
 31
0.0
  0
LINE
  5
E8
102
{ACAD_REACTORS
330
118
102
}
330
4C
100
AcDbEntity
  8
1
  6
Continuous
 62
     7
100
AcDbLine
 10
-71.66785902345384
 20
-249.4871061063313
 30
0.0
 11
-71.66785902345384
 21
-249.9871061063313
 31
0.0
  0
LINE
  5
E9
330
4C
100
AcDbEntity
  8
1
  6
PHANTOM
 62
     2
100
AcDbLine
 10
-113.1678590234538
 20
-223.4871061063313
 30
0.0
 11
-116.8705933507957
 21
-223.4871061063313
 31
0.0
  0
LINE
  5
EA
330
4C
100
AcDbEntity
  8
1
  6
PHANTOM
 62
     2
100
AcDbLine
 10
-58.66785902345362
 20
-223.4871061063313
 30
0.0
 11
-53.66294254321576
 21
-223.4871061063313
 31
0.0
  0
LINE
  5
EB
102
{ACAD_REACTORS
330
118
102
}
330
4C
100
AcDbEntity
  8
1
  6
PHANTOM
 62
     2
100
AcDbLine
 10
-113.1678590234538
 20
-223.4871061063313
 30
0.0
 11
-58.66785902345362
 21
-223.4871061063313
 31
0.0
  0
LINE
  5
EC
102
{ACAD_REACTORS
330
118
102
}
330
4C
100
AcDbEntity
  8
1
  6
PHANTOM
 62
     2
100
AcDbLine
 10
-113.1678590234538
 20
-279.4871061063313
 30
0.0
 11
-113.1678590234538
 21
-223.4871061063313
 31
0.0
  0
LINE
  5
ED
330
4C
100
AcDbEntity
  8
1
  6
Continuous
 62
     7
100
AcDbLine
 10
-71.66785902345384
 20
-249.4871061063313
 30
0.0
 11
-71.66785902345384
 21
-249.9871061063313
 31
0.0
  0
LINE
  5
EE
102
{ACAD_REACTORS
330
118
102
}
330
4C
100
AcDbEntity
  8
1
  6
Continuous
 62
     7
100
AcDbLine
 10
-71.66785902345384
 20
-249.4871061063313
 30
0.0
 11
-58.66785902345362
 21
-249.4871061063313
 31
0.0
  0
LINE
  5
EF
102
{ACAD_REACTORS
330
118
102
}
330
4C
100
AcDbEntity
  8
1
  6
Continuous
 62
     7
100
AcDbLine
 10
-58.66785902345362
 20
-249.4871061063313
 30
0.0
 11
-58.66785902345362
 21
-223.4871061063313
 31
0.0
  0
LINE
  5
F0
330
4C
100
AcDbEntity
  8
1
  6
Continuous
 62
     7
100
AcDbLine
 10
-71.66785902345384
 20
-249.9871061063313
 30
0.0
 11
-71.66785902345384
 21
-275.9871061063313
 31
0.0
  0
LINE
  5
F1
330
4C
100
AcDbEntity
  8
1
  6
PHANTOM
 62
     2
100
AcDbLine
 10
-113.1678590234538
 20
-223.4871061063313
 30
0.0
 11
-113.1678590234538
 21
-221.0047063957823
 31
0.0
  0
LINE
  5
F2
330
4C
100
AcDbEntity
  8
1
  6
PHANTOM
 62
     2
100
AcDbLine
 10
-113.1678590234538
 20
-279.4871061063313
 30
0.0
 11
-113.1678590234538
 21
-283.0453931752463
 31
0.0
  0
LINE
  5
F3
330
4C
100
AcDbEntity
  8
1
  6
Continuous
 62
     2
100
AcDbLine
 10
-70.66785902345384
 20
-252.2191569139002
 30
0.0
 11
-70.66785902345384
 21
-250.4871061063313
 31
0.0
  0
LINE
  5
F4
330
4C
100
AcDbEntity
  8
1
  6
Continuous
 62
     2
100
AcDbLine
 10
-69.35845794669524
 20
-254.4871061063313
 30
0.0
 11
-70.66785902345384
 21
-252.2191569139002
 31
0.0
  0
LINE
  5
F5
330
4C
100
AcDbEntity
  8
1
  6
Continuous
 62
     2
100
AcDbLine
 10
-60.97726010021222
 20
-254.4871061063313
 30
0.0
 11
-69.35845794669524
 21
-254.4871061063313
 31
0.0
  0
LINE
  5
F6
330
4C
100
AcDbEntity
  8
1
  6
Continuous
 62
     2
100
AcDbLine
 10
-59.66785902345362
 20
-252.2191569139002
 30
0.0
 11
-60.97726010021222
 21
-254.4871061063313
 31
0.0
  0
LINE
  5
F7
330
4C
100
AcDbEntity
  8
1
  6
Continuous
 62
     2
100
AcDbLine
 10
-59.66785902345362
 20
-250.4871061063313
 30
0.0
 11
-59.66785902345362
 21
-252.2191569139002
 31
0.0
  0
LINE
  5
F8
330
4C
100
AcDbEntity
  8
1
  6
Continuous
 62
     2
100
AcDbLine
 10
-70.66785902345384
 20
-250.4871061063313
 30
0.0
 11
-59.66785902345362
 21
-250.4871061063313
 31
0.0
  0
LINE
  5
F9
330
4C
100
AcDbEntity
  8
1
  6
Continuous
 62
     2
100
AcDbLine
 10
-58.66785902345362
 20
-252.4871061063313
 30
0.0
 11
-58.66785902345362
 21
-249.4871061063313
 31
0.0
  0
LINE
  5
FA
330
4C
100
AcDbEntity
  8
1
  6
Continuous
 62
     2
100
AcDbLine
 10
-60.39990983102268
 20
-255.4871061063313
 30
0.0
 11
-58.66785902345362
 21
-252.4871061063313
 31
0.0
  0
LINE
  5
FB
330
4C
100
AcDbEntity
  8
1
  6
Continuous
 62
     2
100
AcDbLine
 10
-69.93580821588489
 20
-255.4871061063313
 30
0.0
 11
-68.16785902345384
 21
-255.4871061063313
 31
0.0
  0
LINE
  5
FC
330
4C
100
AcDbEntity
  8
1
  6
Continuous
 62
     2
100
AcDbLine
 10
-71.66785902345384
 20
-252.4871061063313
 30
0.0
 11
-69.93580821588489
 21
-255.4871061063313
 31
0.0
  0
LINE
  5
FD
330
4C
100
AcDbEntity
  8
1
  6
DOT_CENTER
 62
     2
100
AcDbLine
 10
-249.2746363086951
 20
-143.566956622224
 30
0.0
 11
-244.7746363086951
 21
-143.566956622224
 31
0.0
  0
LINE
  5
FE
330
4C
100
AcDbEntity
  8
1
  6
DOT_CENTER
 62
     2
100
AcDbLine
 10
-247.0246363086951
 20
-145.816956622224
 30
0.0
 11
-247.0246363086951
 21
-141.316956622224
 31
0.0
  0
LINE
  5
FF
330
4C
100
AcDbEntity
  8
1
  6
DOT_CENTER
 62
     2
100
AcDbLine
 10
-236.2746363086951
 20
-143.566956622224
 30
0.0
 11
-231.7746363086951
 21
-143.566956622224
 31
0.0
  0
LINE
  5
100
330
4C
100
AcDbEntity
  8
1
  6
DOT_CENTER
 62
     2
100
AcDbLine
 10
-234.0246363086951
 20
-145.816956622224
 30
0.0
 11
-234.0246363086951
 21
-141.316956622224
 31
0.0
  0
LINE
  5
101
330
4C
100
AcDbEntity
  8
1
  6
DOT_CENTER
 62
     2
100
AcDbLine
 10
-249.2746363086951
 20
-311.566956622224
 30
0.0
 11
-244.7746363086951
 21
-311.566956622224
 31
0.0
  0
LINE
  5
102
330
4C
100
AcDbEntity
  8
1
  6
DOT_CENTER
 62
     2
100
AcDbLine
 10
-247.0246363086951
 20
-313.816956622224
 30
0.0
 11
-247.0246363086951
 21
-309.316956622224
 31
0.0
  0
LINE
  5
103
330
4C
100
AcDbEntity
  8
1
  6
DOT_CENTER
 62
     2
100
AcDbLine
 10
-236.2746363086951
 20
-311.566956622224
 30
0.0
 11
-231.7746363086951
 21
-311.566956622224
 31
0.0
  0
LINE
  5
104
330
4C
100
AcDbEntity
  8
1
  6
DOT_CENTER
 62
     2
100
AcDbLine
 10
-234.0246363086951
 20
-313.816956622224
 30
0.0
 11
-234.0246363086951
 21
-309.316956622224
 31
0.0
  0
LINE
  5
105
330
4C
100
AcDbEntity
  8
1
  6
DASHED
 62
     2
100
AcDbLine
 10
-151.7305981112079
 20
-148.5669566222239
 30
0.0
 11
-151.7305981112079
 21
-162.066956622224
 31
0.0
  0
LINE
  5
106
330
4C
100
AcDbEntity
  8
1
  6
DASHED
 62
     2
100
AcDbLine
 10
-151.7305981112079
 20
-293.066956622224
 30
0.0
 11
-151.7305981112079
 21
-306.566956622224
 31
0.0
  0
LINE
  5
107
330
4C
100
AcDbEntity
  8
1
  6
Continuous
 62
     7
100
AcDbLine
 10
-253.5246363086952
 20
-296.566956622224
 30
0.0
 11
-253.5246363086952
 21
-271.066956622224
 31
0.0
  0
LINE
  5
108
330
4C
100
AcDbEntity
  8
1
  6
Continuous
 62
     7
100
AcDbLine
 10
-243.5246363086952
 20
-306.566956622224
 30
0.0
 11
-237.5246363086951
 21
-306.566956622224
 31
0.0
  0
LINE
  5
109
330
4C
100
AcDbEntity
  8
1
  6
Continuous
 62
     7
100
AcDbLine
 10
-237.5246363086951
 20
-148.566956622224
 30
0.0
 11
-243.5246363086952
 21
-148.566956622224
 31
0.0
  0
LINE
  5
10A
330
4C
100
AcDbEntity
  8
1
  6
DOT_CENTER
 62
     2
100
AcDbLine
 10
-240.5246363086951
 20
-165.873883866543
 30
0.0
 11
-240.5246363086951
 21
-330.058268193277
 31
0.0
  0
ARC
  5
10B
330
4C
100
AcDbEntity
  8
1
  6
Continuous
 62
     7
100
AcDbCircle
 10
-240.5246363086951
 20
-145.5573376789907
 30
0.0
 40
13.00000000000011
100
AcDbArc
 50
90.0
 51
180.0
  0
ARC
  5
10C
330
4C
100
AcDbEntity
  8
1
  6
Continuous
 62
     7
100
AcDbCircle
 10
-243.5246363086952
 20
-296.5669566222239
 30
0.0
 40
10.0
100
AcDbArc
 50
180.0000000000003
 51
270.0
  0
ARC
  5
10D
330
4C
100
AcDbEntity
  8
1
  6
Continuous
 62
     7
100
AcDbCircle
 10
-237.5246363086951
 20
-296.5669566222239
 30
0.0
 40
10.00000000000006
100
AcDbArc
 50
270.0
 51
359.9999999999997
  0
ARC
  5
10E
330
4C
100
AcDbEntity
  8
1
  6
Continuous
 62
     7
100
AcDbCircle
 10
-243.5246363086952
 20
-158.566956622224
 30
0.0
 40
10.0
100
AcDbArc
 50
90.0
 51
180.0
  0
ARC
  5
10F
330
4C
100
AcDbEntity
  8
1
  6
Continuous
 62
     7
100
AcDbCircle
 10
-237.5246363086951
 20
-158.566956622224
 30
0.0
 40
10.0
100
AcDbArc
 50
0.0
 51
90.0
  0
ARC
  5
110
330
4C
100
AcDbEntity
  8
1
  6
Continuous
 62
     7
100
AcDbCircle
 10
-240.5246363086952
 20
-309.566953060971
 30
0.0
 40
13.00000356125281
100
AcDbArc
 50
270.0000000000003
 51
359.9575900927127
  0
ARC
  5
111
330
4C
100
AcDbEntity
  8
1
  6
Continuous
 62
     7
100
AcDbCircle
 10
-240.5246363086952
 20
-309.566953060971
 30
0.0
 40
13.00000356125307
100
AcDbArc
 50
180.0424099072873
 51
270.0000000000003
  0
ARC
  5
112
330
4C
100
AcDbEntity
  8
1
  6
Continuous
 62
     7
100
AcDbCircle
 10
-240.5246363086951
 20
-145.5573376789907
 30
0.0
 40
12.99999999999991
100
AcDbArc
 50
0.0
 51
90.0
  0
CIRCLE
  5
113
330
4C
100
AcDbEntity
  8
1
  6
Continuous
 62
     7
100
AcDbCircle
 10
-247.0246363086951
 20
-143.566956622224
 30
0.0
 40
1.5
  0
CIRCLE
  5
114
330
4C
100
AcDbEntity
  8
1
  6
Continuous
 62
     7
100
AcDbCircle
 10
-234.0246363086951
 20
-143.566956622224
 30
0.0
 40
1.5
  0
CIRCLE
  5
115
330
4C
100
AcDbEntity
  8
1
  6
Continuous
 62
     7
100
AcDbCircle
 10
-247.0246363086951
 20
-311.566956622224
 30
0.0
 40
1.5
  0
CIRCLE
  5
116
330
4C
100
AcDbEntity
  8
1
  6
Continuous
 62
     7
100
AcDbCircle
 10
-234.0246363086951
 20
-311.566956622224
 30
0.0
 40
1.5
  0
CIRCLE
  5
117
330
4C
100
AcDbEntity
  8
1
  6
PHANTOM
 62
     2
100
AcDbCircle
 10
-240.5246363086951
 20
-312.5669566222238
 30
0.0
 40
10.0
  0
HATCH
  5
118
330
4C
100
AcDbEntity
  8
1
  6
Continuous
 62
     2
100
AcDbHatch
 10
0.0
 20
0.0
 30
0.0
210
0.0
220
0.0
230
1.0
  2
_USER
 70
     0
 71
     1
 91
        1
 92
        1
 93
       12
 72
     1
 10
-58.66785902345362
 20
-249.4871061063313
 11
-71.66785902345384
 21
-249.4871061063313
 72
     1
 10
-71.66785902345384
 20
-249.4871061063313
 11
-71.66785902345384
 21
-249.9871061063313
 72
     1
 10
-71.66785902345384
 20
-249.9871061063313
 11
-81.66785902345384
 21
-249.9871061063313
 72
     1
 10
-81.66785902345384
 20
-249.9871061063313
 11
-107.6678590234538
 21
-249.9871061063313
 72
     1
 10
-107.6678590234538
 20
-249.9871061063313
 11
-107.667859023454
 21
-275.9871061063313
 72
     1
 10
-107.667859023454
 20
-275.9871061063313
 11
-81.66785902345384
 21
-275.9871061063313
 72
     1
 10
-81.66785902345384
 20
-275.9871061063313
 11
-78.66785902345384
 21
-275.9871061063313
 72
     1
 10
-78.66785902345384
 20
-275.9871061063313
 11
-78.66785902345384
 21
-279.4871061063313
 72
     1
 10
-78.66785902345384
 20
-279.4871061063313
 11
-113.1678590234538
 21
-279.4871061063313
 72
     1
 10
-113.1678590234538
 20
-279.4871061063313
 11
-113.1678590234538
 21
-223.4871061063313
 72
     1
 10
-113.1678590234538
 20
-223.4871061063313
 11
-58.66785902345362
 21
-223.4871061063313
 72
     1
 10
-58.66785902345362
 20
-223.4871061063313
 11
-58.66785902345362
 21
-249.4871061063313
 97
       12
330
EB
330
EC
330
E6
330
E7
330
E3
330
DD
330
E2
330
DE
330
E4
330
E8
330
EE
330
EF
 75
     1
 76
     0
 52
45.0
 41
5.0
 77
     0
 78
     1
 53
45.0
 43
0.0
 44
0.0
 45
-3.535533905932737
 46
3.535533905932738
 79
     0
 98
        1
 10
0.0
 20
0.0
  0
ENDBLK
  5
4E
330
4C
100
AcDbEntity
  8
0
100
AcDbBlockEnd
  0
BLOCK
  5
50
330
4F
100
AcDbEntity
  8
0
100
AcDbBlockBegin
  2
_art_a3_me10_pdm
 70
     0
 10
-71.67823196740937
 20
-227.7176513114891
 30
0.0
  3
_art_a3_me10_pdm
  1

  0
POINT
  5
119
330
4F
100
AcDbEntity
  8
1
 62
     3
 60
     1
100
AcDbPoint
 10
2.75168316679628
 20
-398.2176513114891
 30
0.0
  0
POINT
  5
11A
330
4F
100
AcDbEntity
  8
1
 62
     3
 60
     1
100
AcDbPoint
 10
112.8217680325906
 20
-377.218951311489
 30
0.0
  0
POINT
  5
11B
330
4F
100
AcDbEntity
  8
1
 62
     3
 60
     1
100
AcDbPoint
 10
99.82176803259063
 20
-377.218951311489
 30
0.0
  0
POINT
  5
11C
330
4F
100
AcDbEntity
  8
1
 62
     3
 60
     1
100
AcDbPoint
 10
99.82176803259063
 20
-385.8849513114892
 30
0.0
  0
POINT
  5
11D
330
4F
100
AcDbEntity
  8
1
 62
     3
 60
     1
100
AcDbPoint
 10
2.75168316679628
 20
-343.2176513114891
 30
0.0
  0
POINT
  5
11E
330
4F
100
AcDbEntity
  8
1
 62
     3
 60
     1
100
AcDbPoint
 10
2.75168316679628
 20
-394.5509846180885
 30
0.0
  0
POINT
  5
11F
330
4F
100
AcDbEntity
  8
1
 62
     3
 60
     1
100
AcDbPoint
 10
112.8217680325906
 20
-385.8849513114892
 30
0.0
  0
LINE
  5
120
330
4F
100
AcDbEntity
  8
0
  6
Continuous
 62
     2
100
AcDbLine
 10
-276.178227325312
 20
-132.8176513114895
 30
0.0
 11
-269.1782319674094
 21
-132.8176513114895
 31
0.0
  0
LINE
  5
121
330
4F
100
AcDbEntity
  8
0
  6
Continuous
 62
     2
100
AcDbLine
 10
-276.178227325312
 20
-112.2176513114891
 30
0.0
 11
-276.178227325312
 21
-132.8176513114895
 31
0.0
  0
LINE
  5
122
330
4F
100
AcDbEntity
  8
1
  6
Continuous
 62
     7
100
AcDbLine
 10
2.75168316679628
 20
-398.2176513114891
 30
0.0
 11
125.8217680325906
 21
-398.2176513114891
 31
0.0
  0
LINE
  5
123
330
4F
100
AcDbEntity
  8
1
  6
Continuous
 62
     7
100
AcDbLine
 10
2.75168316679628
 20
-398.2176513114891
 30
0.0
 11
-57.17823196740937
 21
-398.2176513114891
 31
0.0
  0
LINE
  5
124
330
4F
100
AcDbEntity
  8
1
  6
Continuous
 62
     2
100
AcDbLine
 10
2.75168316679628
 20
-394.5509846180885
 30
0.0
 11
2.75168316679628
 21
-398.2176513114891
 31
0.0
  0
LINE
  5
125
102
{ACAD_REACTORS
330
283
102
}
330
4F
100
AcDbEntity
  8
0
  6
Continuous
 62
   250
100
AcDbLine
 10
32.12131110337214
 20
-395.2792597445159
 30
0.0
 11
31.34656881995034
 21
-394.3609529440737
 31
0.0
  0
LINE
  5
126
102
{ACAD_REACTORS
330
283
102
}
330
4F
100
AcDbEntity
  8
0
  6
Continuous
 62
   250
100
AcDbLine
 10
31.92086661988287
 20
-395.2792597445159
 30
0.0
 11
32.12131110337214
 21
-395.2792597445159
 31
0.0
  0
LINE
  5
127
102
{ACAD_REACTORS
330
283
102
}
330
4F
100
AcDbEntity
  8
0
  6
Continuous
 62
   250
100
AcDbLine
 10
31.15426747931633
 20
-394.3609529440737
 30
0.0
 11
31.92086661988287
 21
-395.2792597445159
 31
0.0
  0
LINE
  5
128
102
{ACAD_REACTORS
330
283
102
}
330
4F
100
AcDbEntity
  8
0
  6
Continuous
 62
   250
100
AcDbLine
 10
31.8720484405203
 20
-393.475217769128
 30
0.0
 11
31.15426747931633
 21
-394.3609529440737
 31
0.0
  0
LINE
  5
129
102
{ACAD_REACTORS
330
283
102
}
330
4F
100
AcDbEntity
  8
0
  6
Continuous
 62
   250
100
AcDbLine
 10
32.06980629229656
 20
-393.475217769128
 30
0.0
 11
31.8720484405203
 21
-393.475217769128
 31
0.0
  0
LINE
  5
12A
102
{ACAD_REACTORS
330
283
102
}
330
4F
100
AcDbEntity
  8
0
  6
Continuous
 62
   250
100
AcDbLine
 10
31.34656881995034
 20
-394.3609529440737
 30
0.0
 11
32.06980629229656
 21
-393.475217769128
 31
0.0
  0
LINE
  5
12B
102
{ACAD_REACTORS
330
294
102
}
330
4F
100
AcDbEntity
  8
0
  6
Continuous
 62
   250
100
AcDbLine
 10
19.40214101207675
 20
-392.2289441866715
 30
0.0
 11
20.16929072292987
 21
-392.2289441866715
 31
0.0
  0
LINE
  5
12C
102
{ACAD_REACTORS
330
294
102
}
330
4F
100
AcDbEntity
  8
0
  6
Continuous
 62
   250
100
AcDbLine
 10
19.40214101207675
 20
-388.8227502029358
 30
0.0
 11
19.40214101207675
 21
-392.2289441866715
 31
0.0
  0
LINE
  5
12D
102
{ACAD_REACTORS
330
288
102
}
330
4F
100
AcDbEntity
  8
0
  6
Continuous
 62
   250
100
AcDbLine
 10
38.58663639175938
 20
-392.2289441866715
 30
0.0
 11
40.72963763525331
 21
-392.2289441866715
 31
0.0
  0
LINE
  5
12E
102
{ACAD_REACTORS
330
288
102
}
330
4F
100
AcDbEntity
  8
0
  6
Continuous
 62
   250
100
AcDbLine
 10
40.72963763525331
 20
-392.2289441866715
 30
0.0
 11
40.72963763525331
 21
-391.5487637714577
 31
0.0
  0
LINE
  5
12F
102
{ACAD_REACTORS
330
288
102
}
330
4F
100
AcDbEntity
  8
0
  6
Continuous
 62
   250
100
AcDbLine
 10
40.72963763525331
 20
-389.5029306181477
 30
0.0
 11
40.72963763525331
 21
-388.8227502029358
 31
0.0
  0
LINE
  5
130
102
{ACAD_REACTORS
330
288
102
}
330
4F
100
AcDbEntity
  8
0
  6
Continuous
 62
   250
100
AcDbLine
 10
40.72963763525331
 20
-388.8227502029358
 30
0.0
 11
38.58663639175938
 21
-388.8227502029358
 31
0.0
  0
LINE
  5
131
102
{ACAD_REACTORS
330
288
102
}
330
4F
100
AcDbEntity
  8
0
  6
Continuous
 62
   250
100
AcDbLine
 10
39.35380596856703
 20
-389.5029306181477
 30
0.0
 11
40.72963763525331
 21
-389.5029306181477
 31
0.0
  0
LINE
  5
132
102
{ACAD_REACTORS
330
288
102
}
330
4F
100
AcDbEntity
  8
0
  6
Continuous
 62
   250
100
AcDbLine
 10
39.35380596856703
 20
-390.1269840805489
 30
0.0
 11
39.35380596856703
 21
-389.5029306181477
 31
0.0
  0
LINE
  5
133
102
{ACAD_REACTORS
330
288
102
}
330
4F
100
AcDbEntity
  8
0
  6
Continuous
 62
   250
100
AcDbLine
 10
40.62226980455307
 20
-390.8071635497645
 30
0.0
 11
40.62226980455307
 21
-390.1269840805489
 31
0.0
  0
LINE
  5
134
102
{ACAD_REACTORS
330
288
102
}
330
4F
100
AcDbEntity
  8
0
  6
Continuous
 62
   250
100
AcDbLine
 10
40.62226980455307
 20
-390.1269840805489
 30
0.0
 11
39.35380596856703
 21
-390.1269840805489
 31
0.0
  0
LINE
  5
135
102
{ACAD_REACTORS
330
293
102
}
330
4F
100
AcDbEntity
  8
0
  6
Continuous
 62
   250
100
AcDbLine
 10
24.16378893938963
 20
-392.2289441866715
 30
0.0
 11
24.02057065730332
 21
-388.8227502029358
 31
0.0
  0
LINE
  5
136
102
{ACAD_REACTORS
330
293
102
}
330
4F
100
AcDbEntity
  8
0
  6
Continuous
 62
   250
100
AcDbLine
 10
24.02057065730332
 20
-388.8227502029358
 30
0.0
 11
23.25329891283764
 21
-388.8227502029358
 31
0.0
  0
LINE
  5
137
102
{ACAD_REACTORS
330
284
102
}
330
4F
100
AcDbEntity
  8
0
  6
Continuous
 62
   250
100
AcDbLine
 10
13.4859112153863
 20
-390.0201450622144
 30
0.0
 11
13.4859112153863
 21
-390.5963367482991
 31
0.0
  0
LINE
  5
138
102
{ACAD_REACTORS
330
284
102
}
330
4F
100
AcDbEntity
  8
0
  6
Continuous
 62
   250
100
AcDbLine
 10
15.40668544659275
 20
-390.0201450622144
 30
0.0
 11
13.4859112153863
 21
-390.0201450622144
 31
0.0
  0
LINE
  5
139
102
{ACAD_REACTORS
330
284
102
}
330
4F
100
AcDbEntity
  8
0
  6
Continuous
 62
   250
100
AcDbLine
 10
15.40668544659275
 20
-388.7716521706061
 30
0.0
 11
15.40668544659275
 21
-390.0201450622144
 31
0.0
  0
LINE
  5
13A
102
{ACAD_REACTORS
330
284
102
}
330
4F
100
AcDbEntity
  8
0
  6
Continuous
 62
   250
100
AcDbLine
 10
11.9493120747793
 20
-388.7716521706061
 30
0.0
 11
15.40668544659275
 21
-388.7716521706061
 31
0.0
  0
LINE
  5
13B
102
{ACAD_REACTORS
330
284
102
}
330
4F
100
AcDbEntity
  8
0
  6
Continuous
 62
   250
100
AcDbLine
 10
11.9493120747793
 20
-390.5963367482991
 30
0.0
 11
11.9493120747793
 21
-388.7716521706061
 31
0.0
  0
LINE
  5
13C
102
{ACAD_REACTORS
330
284
102
}
330
4F
100
AcDbEntity
  8
0
  6
Continuous
 62
   250
100
AcDbLine
 10
13.4859112153863
 20
-390.5963367482991
 30
0.0
 11
11.9493120747793
 21
-390.5963367482991
 31
0.0
  0
LINE
  5
13D
102
{ACAD_REACTORS
330
285
102
}
330
4F
100
AcDbEntity
  8
0
  6
Continuous
 62
   250
100
AcDbLine
 10
15.40668544659275
 20
-392.2289441866715
 30
0.0
 11
11.9493120747793
 21
-392.2289441866715
 31
0.0
  0
LINE
  5
13E
102
{ACAD_REACTORS
330
285
102
}
330
4F
100
AcDbEntity
  8
0
  6
Continuous
 62
   250
100
AcDbLine
 10
15.40668544659275
 20
-390.4042596089785
 30
0.0
 11
15.40668544659275
 21
-392.2289441866715
 31
0.0
  0
LINE
  5
13F
102
{ACAD_REACTORS
330
285
102
}
330
4F
100
AcDbEntity
  8
0
  6
Continuous
 62
   250
100
AcDbLine
 10
13.87008630595665
 20
-390.4042596089785
 30
0.0
 11
15.40668544659275
 21
-390.4042596089785
 31
0.0
  0
LINE
  5
140
102
{ACAD_REACTORS
330
285
102
}
330
4F
100
AcDbEntity
  8
0
  6
Continuous
 62
   250
100
AcDbLine
 10
13.87008630595665
 20
-390.9804711610004
 30
0.0
 11
13.87008630595665
 21
-390.4042596089785
 31
0.0
  0
LINE
  5
141
102
{ACAD_REACTORS
330
285
102
}
330
4F
100
AcDbEntity
  8
0
  6
Continuous
 62
   250
100
AcDbLine
 10
11.9493120747793
 20
-390.9804711610004
 30
0.0
 11
13.87008630595665
 21
-390.9804711610004
 31
0.0
  0
LINE
  5
142
102
{ACAD_REACTORS
330
285
102
}
330
4F
100
AcDbEntity
  8
0
  6
Continuous
 62
   250
100
AcDbLine
 10
11.9493120747793
 20
-392.2289441866715
 30
0.0
 11
11.9493120747793
 21
-390.9804711610004
 31
0.0
  0
LINE
  5
143
102
{ACAD_REACTORS
330
293
102
}
330
4F
100
AcDbEntity
  8
0
  6
Continuous
 62
   250
100
AcDbLine
 10
22.77771590831253
 20
-391.7890895999017
 30
0.0
 11
23.37100838361948
 21
-390.3366302776567
 31
0.0
  0
LINE
  5
144
102
{ACAD_REACTORS
330
293
102
}
330
4F
100
AcDbEntity
  8
0
  6
Continuous
 62
   250
100
AcDbLine
 10
23.25329891283764
 20
-388.8227502029358
 30
0.0
 11
22.43503035768663
 21
-390.9912403917697
 31
0.0
  0
LINE
  5
145
102
{ACAD_REACTORS
330
293
102
}
330
4F
100
AcDbEntity
  8
0
  6
Continuous
 62
   250
100
AcDbLine
 10
22.43503035768663
 20
-390.9912403917697
 30
0.0
 11
21.61668044683756
 21
-388.8227502029358
 31
0.0
  0
LINE
  5
146
102
{ACAD_REACTORS
330
293
102
}
330
4F
100
AcDbEntity
  8
0
  6
Continuous
 62
   250
100
AcDbLine
 10
21.61668044683756
 20
-388.8227502029358
 30
0.0
 11
20.84945032621909
 21
-388.8227502029358
 31
0.0
  0
LINE
  5
147
102
{ACAD_REACTORS
330
293
102
}
330
4F
100
AcDbEntity
  8
0
  6
Continuous
 62
   250
100
AcDbLine
 10
20.84945032621909
 20
-388.8227502029358
 30
0.0
 11
20.70623204414733
 21
-392.2289441866715
 31
0.0
  0
LINE
  5
148
102
{ACAD_REACTORS
330
293
102
}
330
4F
100
AcDbEntity
  8
0
  6
Continuous
 62
   250
100
AcDbLine
 10
20.70623204414733
 20
-392.2289441866715
 30
0.0
 11
21.44787294371054
 21
-392.2289441866715
 31
0.0
  0
LINE
  5
149
102
{ACAD_REACTORS
330
293
102
}
330
4F
100
AcDbEntity
  8
0
  6
Continuous
 62
   250
100
AcDbLine
 10
21.44787294371054
 20
-392.2289441866715
 30
0.0
 11
21.49907314370648
 21
-390.3366302776567
 31
0.0
  0
LINE
  5
14A
102
{ACAD_REACTORS
330
293
102
}
330
4F
100
AcDbEntity
  8
0
  6
Continuous
 62
   250
100
AcDbLine
 10
21.49907314370648
 20
-390.3366302776567
 30
0.0
 11
22.09234480709711
 21
-391.7890895999017
 31
0.0
  0
LINE
  5
14B
102
{ACAD_REACTORS
330
293
102
}
330
4F
100
AcDbEntity
  8
0
  6
Continuous
 62
   250
100
AcDbLine
 10
22.09234480709711
 20
-391.7890895999017
 30
0.0
 11
22.77771590831253
 21
-391.7890895999017
 31
0.0
  0
LINE
  5
14C
102
{ACAD_REACTORS
330
293
102
}
330
4F
100
AcDbEntity
  8
0
  6
Continuous
 62
   250
100
AcDbLine
 10
23.37100838361948
 20
-390.3366302776567
 30
0.0
 11
23.42212722788099
 21
-392.2289441866715
 31
0.0
  0
LINE
  5
14D
102
{ACAD_REACTORS
330
286
102
}
330
4F
100
AcDbEntity
  8
0
  6
Continuous
 62
   250
100
AcDbLine
 10
29.56980656238738
 20
-392.2289441866715
 30
0.0
 11
30.51600419476745
 21
-392.2289441866715
 31
0.0
  0
LINE
  5
14E
102
{ACAD_REACTORS
330
286
102
}
330
4F
100
AcDbEntity
  8
0
  6
Continuous
 62
   250
100
AcDbLine
 10
30.51600419476745
 20
-392.2289441866715
 30
0.0
 11
30.51600419476745
 21
-388.8227502029358
 31
0.0
  0
LINE
  5
14F
102
{ACAD_REACTORS
330
286
102
}
330
4F
100
AcDbEntity
  8
0
  6
Continuous
 62
   250
100
AcDbLine
 10
30.51600419476745
 20
-388.8227502029358
 30
0.0
 11
29.78466425742954
 21
-388.8227502029358
 31
0.0
  0
LINE
  5
150
102
{ACAD_REACTORS
330
286
102
}
330
4F
100
AcDbEntity
  8
0
  6
Continuous
 62
   250
100
AcDbLine
 10
29.78466425742954
 20
-388.8227502029358
 30
0.0
 11
29.78466425742954
 21
-391.1702684473557
 31
0.0
  0
LINE
  5
151
102
{ACAD_REACTORS
330
286
102
}
330
4F
100
AcDbEntity
  8
0
  6
Continuous
 62
   250
100
AcDbLine
 10
29.78466425742954
 20
-391.1702684473557
 30
0.0
 11
28.66448735587619
 21
-388.8227502029358
 31
0.0
  0
LINE
  5
152
102
{ACAD_REACTORS
330
286
102
}
330
4F
100
AcDbEntity
  8
0
  6
Continuous
 62
   250
100
AcDbLine
 10
28.66448735587619
 20
-388.8227502029358
 30
0.0
 11
27.72344067759696
 21
-388.8227502029358
 31
0.0
  0
LINE
  5
153
102
{ACAD_REACTORS
330
286
102
}
330
4F
100
AcDbEntity
  8
0
  6
Continuous
 62
   250
100
AcDbLine
 10
27.72344067759696
 20
-388.8227502029358
 30
0.0
 11
27.72344067759696
 21
-392.2289441866715
 31
0.0
  0
LINE
  5
154
102
{ACAD_REACTORS
330
286
102
}
330
4F
100
AcDbEntity
  8
0
  6
Continuous
 62
   250
100
AcDbLine
 10
27.72344067759696
 20
-392.2289441866715
 30
0.0
 11
28.45480048088939
 21
-392.2289441866715
 31
0.0
  0
LINE
  5
155
102
{ACAD_REACTORS
330
286
102
}
330
4F
100
AcDbEntity
  8
0
  6
Continuous
 62
   250
100
AcDbLine
 10
28.45480048088939
 20
-392.2289441866715
 30
0.0
 11
28.45480048088939
 21
-389.98881458489
 31
0.0
  0
LINE
  5
156
102
{ACAD_REACTORS
330
286
102
}
330
4F
100
AcDbEntity
  8
0
  6
Continuous
 62
   250
100
AcDbLine
 10
28.45480048088939
 20
-389.98881458489
 30
0.0
 11
29.56980656238738
 21
-392.2289441866715
 31
0.0
  0
LINE
  5
157
102
{ACAD_REACTORS
330
287
102
}
330
4F
100
AcDbEntity
  8
0
  6
Continuous
 62
   250
100
AcDbLine
 10
35.84539510821924
 20
-389.641059435934
 30
0.0
 11
36.41822755867906
 21
-392.2289441866715
 31
0.0
  0
LINE
  5
158
102
{ACAD_REACTORS
330
287
102
}
330
4F
100
AcDbEntity
  8
0
  6
Continuous
 62
   250
100
AcDbLine
 10
36.41822755867906
 20
-392.2289441866715
 30
0.0
 11
37.39504333256627
 21
-392.2289441866715
 31
0.0
  0
LINE
  5
159
102
{ACAD_REACTORS
330
287
102
}
330
4F
100
AcDbEntity
  8
0
  6
Continuous
 62
   250
100
AcDbLine
 10
37.39504333256627
 20
-392.2289441866715
 30
0.0
 11
38.22874299209798
 21
-388.8227502029358
 31
0.0
  0
LINE
  5
15A
102
{ACAD_REACTORS
330
287
102
}
330
4F
100
AcDbEntity
  8
0
  6
Continuous
 62
   250
100
AcDbLine
 10
38.22874299209798
 20
-388.8227502029358
 30
0.0
 11
37.47183369965205
 21
-388.8227502029358
 31
0.0
  0
LINE
  5
15B
102
{ACAD_REACTORS
330
287
102
}
330
4F
100
AcDbEntity
  8
0
  6
Continuous
 62
   250
100
AcDbLine
 10
37.47183369965205
 20
-388.8227502029358
 30
0.0
 11
36.89896057130682
 21
-391.2571970651261
 31
0.0
  0
LINE
  5
15C
102
{ACAD_REACTORS
330
287
102
}
330
4F
100
AcDbEntity
  8
0
  6
Continuous
 62
   250
100
AcDbLine
 10
36.89896057130682
 20
-391.2571970651261
 30
0.0
 11
36.31590851439978
 21
-388.8227502029358
 31
0.0
  0
LINE
  5
15D
102
{ACAD_REACTORS
330
287
102
}
330
4F
100
AcDbEntity
  8
0
  6
Continuous
 62
   250
100
AcDbLine
 10
36.31590851439978
 20
-388.8227502029358
 30
0.0
 11
35.37993048846693
 21
-388.8227502029358
 31
0.0
  0
LINE
  5
15E
102
{ACAD_REACTORS
330
287
102
}
330
4F
100
AcDbEntity
  8
0
  6
Continuous
 62
   250
100
AcDbLine
 10
35.37993048846693
 20
-388.8227502029358
 30
0.0
 11
34.78665787909995
 21
-391.2571970651261
 31
0.0
  0
LINE
  5
15F
102
{ACAD_REACTORS
330
287
102
}
330
4F
100
AcDbEntity
  8
0
  6
Continuous
 62
   250
100
AcDbLine
 10
34.78665787909995
 20
-391.2571970651261
 30
0.0
 11
34.20869528647745
 21
-388.8227502029358
 31
0.0
  0
LINE
  5
160
102
{ACAD_REACTORS
330
287
102
}
330
4F
100
AcDbEntity
  8
0
  6
Continuous
 62
   250
100
AcDbLine
 10
34.20869528647745
 20
-388.8227502029358
 30
0.0
 11
33.45174531615339
 21
-388.8227502029358
 31
0.0
  0
LINE
  5
161
102
{ACAD_REACTORS
330
287
102
}
330
4F
100
AcDbEntity
  8
0
  6
Continuous
 62
   250
100
AcDbLine
 10
33.45174531615339
 20
-388.8227502029358
 30
0.0
 11
34.29057511783321
 21
-392.2289441866715
 31
0.0
  0
LINE
  5
162
102
{ACAD_REACTORS
330
287
102
}
330
4F
100
AcDbEntity
  8
0
  6
Continuous
 62
   250
100
AcDbLine
 10
34.29057511783321
 20
-392.2289441866715
 30
0.0
 11
35.26739183774043
 21
-392.2289441866715
 31
0.0
  0
LINE
  5
163
102
{ACAD_REACTORS
330
287
102
}
330
4F
100
AcDbEntity
  8
0
  6
Continuous
 62
   250
100
AcDbLine
 10
35.26739183774043
 20
-392.2289441866715
 30
0.0
 11
35.84539510821924
 21
-389.641059435934
 31
0.0
  0
LINE
  5
164
102
{ACAD_REACTORS
330
288
102
}
330
4F
100
AcDbEntity
  8
0
  6
Continuous
 62
   250
100
AcDbLine
 10
40.72963763525331
 20
-391.5487637714577
 30
0.0
 11
39.35380596856703
 21
-391.5487637714577
 31
0.0
  0
LINE
  5
165
102
{ACAD_REACTORS
330
288
102
}
330
4F
100
AcDbEntity
  8
0
  6
Continuous
 62
   250
100
AcDbLine
 10
39.35380596856703
 20
-391.5487637714577
 30
0.0
 11
39.35380596856703
 21
-390.8071635497645
 31
0.0
  0
LINE
  5
166
102
{ACAD_REACTORS
330
288
102
}
330
4F
100
AcDbEntity
  8
0
  6
Continuous
 62
   250
100
AcDbLine
 10
39.35380596856703
 20
-390.8071635497645
 30
0.0
 11
40.62226980455307
 21
-390.8071635497645
 31
0.0
  0
LINE
  5
167
102
{ACAD_REACTORS
330
288
102
}
330
4F
100
AcDbEntity
  8
0
  6
Continuous
 62
   250
100
AcDbLine
 10
38.58663639175938
 20
-388.8227502029358
 30
0.0
 11
38.58663639175938
 21
-392.2289441866715
 31
0.0
  0
LINE
  5
168
102
{ACAD_REACTORS
330
289
102
}
330
4F
100
AcDbEntity
  8
0
  6
Continuous
 62
   250
100
AcDbLine
 10
44.29965277150041
 20
-388.8227502029358
 30
0.0
 11
44.29965277150041
 21
-392.2289441866715
 31
0.0
  0
LINE
  5
169
102
{ACAD_REACTORS
330
289
102
}
330
4F
100
AcDbEntity
  8
0
  6
Continuous
 62
   250
100
AcDbLine
 10
44.29965277150041
 20
-392.2289441866715
 30
0.0
 11
45.06678167040809
 21
-392.2289441866715
 31
0.0
  0
LINE
  5
16A
102
{ACAD_REACTORS
330
289
102
}
330
4F
100
AcDbEntity
  8
0
  6
Continuous
 62
   250
100
AcDbLine
 10
45.06678167040809
 20
-392.2289441866715
 30
0.0
 11
45.06678167040809
 21
-388.8227502029358
 31
0.0
  0
LINE
  5
16B
102
{ACAD_REACTORS
330
289
102
}
330
4F
100
AcDbEntity
  8
0
  6
Continuous
 62
   250
100
AcDbLine
 10
45.06678167040809
 20
-388.8227502029358
 30
0.0
 11
44.29965277150041
 21
-388.8227502029358
 31
0.0
  0
LINE
  5
16C
102
{ACAD_REACTORS
330
28A
102
}
330
4F
100
AcDbEntity
  8
0
  6
Continuous
 62
   250
100
AcDbLine
 10
46.15621745079989
 20
-392.2289441866715
 30
0.0
 11
47.02057592971687
 21
-392.2289441866715
 31
0.0
  0
LINE
  5
16D
102
{ACAD_REACTORS
330
28A
102
}
330
4F
100
AcDbEntity
  8
0
  6
Continuous
 62
   250
100
AcDbLine
 10
45.16397057253198
 20
-390.4900880321429
 30
0.0
 11
46.15621745079989
 21
-392.2289441866715
 31
0.0
  0
LINE
  5
16E
102
{ACAD_REACTORS
330
28A
102
}
330
4F
100
AcDbEntity
  8
0
  6
Continuous
 62
   250
100
AcDbLine
 10
47.02057592971687
 20
-392.2289441866715
 30
0.0
 11
45.99249846598832
 21
-390.4900880321429
 31
0.0
  0
LINE
  5
16F
102
{ACAD_REACTORS
330
28A
102
}
330
4F
100
AcDbEntity
  8
0
  6
Continuous
 62
   250
100
AcDbLine
 10
45.99249846598832
 20
-390.4900880321429
 30
0.0
 11
46.94895732870646
 21
-388.8227502029358
 31
0.0
  0
LINE
  5
170
102
{ACAD_REACTORS
330
28A
102
}
330
4F
100
AcDbEntity
  8
0
  6
Continuous
 62
   250
100
AcDbLine
 10
46.94895732870646
 20
-388.8227502029358
 30
0.0
 11
46.08463858166942
 21
-388.8227502029358
 31
0.0
  0
LINE
  5
171
102
{ACAD_REACTORS
330
28A
102
}
330
4F
100
AcDbEntity
  8
0
  6
Continuous
 62
   250
100
AcDbLine
 10
46.08463858166942
 20
-388.8227502029358
 30
0.0
 11
45.16397057253198
 21
-390.4900880321429
 31
0.0
  0
LINE
  5
172
102
{ACAD_REACTORS
330
28B
102
}
330
4F
100
AcDbEntity
  8
0
  6
Continuous
 62
   250
100
AcDbLine
 10
18.26362122714636
 20
-394.8052045252762
 30
0.0
 11
19.10332702210872
 21
-394.8052045252762
 31
0.0
  0
LINE
  5
173
102
{ACAD_REACTORS
330
28B
102
}
330
4F
100
AcDbEntity
  8
0
  6
Continuous
 62
   250
100
AcDbLine
 10
19.05455566034652
 20
-394.6670548955563
 30
0.0
 11
18.31241339931148
 21
-394.6670548955563
 31
0.0
  0
LINE
  5
174
102
{ACAD_REACTORS
330
28B
102
}
330
4F
100
AcDbEntity
  8
0
  6
Continuous
 62
   250
100
AcDbLine
 10
18.68346419165027
 20
-393.5673172069428
 30
0.0
 11
19.05455566034652
 21
-394.6670548955563
 31
0.0
  0
LINE
  5
175
102
{ACAD_REACTORS
330
28B
102
}
330
4F
100
AcDbEntity
  8
0
  6
Continuous
 62
   250
100
AcDbLine
 10
18.31241339931148
 20
-394.6670548955563
 30
0.0
 11
18.68346419165027
 21
-393.5673172069428
 31
0.0
  0
LINE
  5
176
102
{ACAD_REACTORS
330
28B
102
}
330
4F
100
AcDbEntity
  8
0
  6
Continuous
 62
   250
100
AcDbLine
 10
18.56697600308689
 20
-393.475217769128
 30
0.0
 11
17.93858609008021
 21
-395.2792597445159
 31
0.0
  0
LINE
  5
177
102
{ACAD_REACTORS
330
28B
102
}
330
4F
100
AcDbEntity
  8
0
  6
Continuous
 62
   250
100
AcDbLine
 10
18.80265982385026
 20
-393.475217769128
 30
0.0
 11
18.56697600308689
 21
-393.475217769128
 31
0.0
  0
LINE
  5
178
102
{ACAD_REACTORS
330
28B
102
}
330
4F
100
AcDbEntity
  8
0
  6
Continuous
 62
   250
100
AcDbLine
 10
19.43109041475691
 20
-395.2792597445159
 30
0.0
 11
18.80265982385026
 21
-393.475217769128
 31
0.0
  0
LINE
  5
179
102
{ACAD_REACTORS
330
28B
102
}
330
4F
100
AcDbEntity
  8
0
  6
Continuous
 62
   250
100
AcDbLine
 10
19.27398773352616
 20
-395.2792597445159
 30
0.0
 11
19.43109041475691
 21
-395.2792597445159
 31
0.0
  0
LINE
  5
17A
102
{ACAD_REACTORS
330
28B
102
}
330
4F
100
AcDbEntity
  8
0
  6
Continuous
 62
   250
100
AcDbLine
 10
19.10332702210872
 20
-394.8052045252762
 30
0.0
 11
19.27398773352616
 21
-395.2792597445159
 31
0.0
  0
LINE
  5
17B
102
{ACAD_REACTORS
330
28B
102
}
330
4F
100
AcDbEntity
  8
0
  6
Continuous
 62
   250
100
AcDbLine
 10
18.0956480934401
 20
-395.2792597445159
 30
0.0
 11
18.26362122714636
 21
-394.8052045252762
 31
0.0
  0
LINE
  5
17C
102
{ACAD_REACTORS
330
28B
102
}
330
4F
100
AcDbEntity
  8
0
  6
Continuous
 62
   250
100
AcDbLine
 10
17.93858609008021
 20
-395.2792597445159
 30
0.0
 11
18.0956480934401
 21
-395.2792597445159
 31
0.0
  0
LINE
  5
17D
102
{ACAD_REACTORS
330
28C
102
}
330
4F
100
AcDbEntity
  8
0
  6
Continuous
 62
   250
100
AcDbLine
 10
20.80439816122816
 20
-395.124784097171
 30
0.0
 11
19.94838621458621
 21
-393.475217769128
 31
0.0
  0
LINE
  5
17E
102
{ACAD_REACTORS
330
28C
102
}
330
4F
100
AcDbEntity
  8
0
  6
Continuous
 62
   250
100
AcDbLine
 10
20.80439816122816
 20
-393.475217769128
 30
0.0
 11
20.80439816122816
 21
-395.124784097171
 31
0.0
  0
LINE
  5
17F
102
{ACAD_REACTORS
330
28C
102
}
330
4F
100
AcDbEntity
  8
0
  6
Continuous
 62
   250
100
AcDbLine
 10
19.94838621458621
 20
-393.475217769128
 30
0.0
 11
19.71545051532303
 21
-393.475217769128
 31
0.0
  0
LINE
  5
180
102
{ACAD_REACTORS
330
28C
102
}
330
4F
100
AcDbEntity
  8
0
  6
Continuous
 62
   250
100
AcDbLine
 10
19.71545051532303
 20
-393.475217769128
 30
0.0
 11
19.71545051532303
 21
-395.2792597445159
 31
0.0
  0
LINE
  5
181
102
{ACAD_REACTORS
330
28C
102
}
330
4F
100
AcDbEntity
  8
0
  6
Continuous
 62
   250
100
AcDbLine
 10
19.71545051532303
 20
-395.2792597445159
 30
0.0
 11
19.86713736326783
 21
-395.2792597445159
 31
0.0
  0
LINE
  5
182
102
{ACAD_REACTORS
330
28C
102
}
330
4F
100
AcDbEntity
  8
0
  6
Continuous
 62
   250
100
AcDbLine
 10
19.86713736326783
 20
-395.2792597445159
 30
0.0
 11
19.86713736326783
 21
-393.6323412623024
 31
0.0
  0
LINE
  5
183
102
{ACAD_REACTORS
330
28C
102
}
330
4F
100
AcDbEntity
  8
0
  6
Continuous
 62
   250
100
AcDbLine
 10
19.86713736326783
 20
-393.6323412623024
 30
0.0
 11
20.7231073555522
 21
-395.2792190666414
 31
0.0
  0
LINE
  5
184
102
{ACAD_REACTORS
330
28C
102
}
330
4F
100
AcDbEntity
  8
0
  6
Continuous
 62
   250
100
AcDbLine
 10
20.7231073555522
 20
-395.2792190666414
 30
0.0
 11
20.95608500918024
 21
-395.2792190666414
 31
0.0
  0
LINE
  5
185
102
{ACAD_REACTORS
330
28C
102
}
330
4F
100
AcDbEntity
  8
0
  6
Continuous
 62
   250
100
AcDbLine
 10
20.95608500918024
 20
-395.2792190666414
 30
0.0
 11
20.95608500918024
 21
-393.475217769128
 31
0.0
  0
LINE
  5
186
102
{ACAD_REACTORS
330
28C
102
}
330
4F
100
AcDbEntity
  8
0
  6
Continuous
 62
   250
100
AcDbLine
 10
20.95608500918024
 20
-393.475217769128
 30
0.0
 11
20.80439816122816
 21
-393.475217769128
 31
0.0
  0
LINE
  5
187
102
{ACAD_REACTORS
330
28D
102
}
330
4F
100
AcDbEntity
  8
0
  6
Continuous
 62
   250
100
AcDbLine
 10
23.47243156866171
 20
-395.2792597445159
 30
0.0
 11
23.47243156866171
 21
-393.6187416082657
 31
0.0
  0
LINE
  5
188
102
{ACAD_REACTORS
330
28D
102
}
330
4F
100
AcDbEntity
  8
0
  6
Continuous
 62
   250
100
AcDbLine
 10
24.02771577325621
 20
-393.6187416082657
 30
0.0
 11
24.02771577325621
 21
-393.475217769128
 31
0.0
  0
LINE
  5
189
102
{ACAD_REACTORS
330
28D
102
}
330
4F
100
AcDbEntity
  8
0
  6
Continuous
 62
   250
100
AcDbLine
 10
23.47243156866171
 20
-393.6187416082657
 30
0.0
 11
24.02771577325621
 21
-393.6187416082657
 31
0.0
  0
LINE
  5
18A
102
{ACAD_REACTORS
330
28D
102
}
330
4F
100
AcDbEntity
  8
0
  6
Continuous
 62
   250
100
AcDbLine
 10
24.02771577325621
 20
-393.475217769128
 30
0.0
 11
22.75729750729806
 21
-393.475217769128
 31
0.0
  0
LINE
  5
18B
102
{ACAD_REACTORS
330
28D
102
}
330
4F
100
AcDbEntity
  8
0
  6
Continuous
 62
   250
100
AcDbLine
 10
22.75729750729806
 20
-393.475217769128
 30
0.0
 11
22.75729750729806
 21
-393.6187822861402
 31
0.0
  0
LINE
  5
18C
102
{ACAD_REACTORS
330
28D
102
}
330
4F
100
AcDbEntity
  8
0
  6
Continuous
 62
   250
100
AcDbLine
 10
22.75729750729806
 20
-393.6187822861402
 30
0.0
 11
23.31262144377979
 21
-393.6187822861402
 31
0.0
  0
LINE
  5
18D
102
{ACAD_REACTORS
330
28D
102
}
330
4F
100
AcDbEntity
  8
0
  6
Continuous
 62
   250
100
AcDbLine
 10
23.31262144377979
 20
-393.6187822861402
 30
0.0
 11
23.31262144377979
 21
-395.2792597445159
 31
0.0
  0
LINE
  5
18E
102
{ACAD_REACTORS
330
28D
102
}
330
4F
100
AcDbEntity
  8
0
  6
Continuous
 62
   250
100
AcDbLine
 10
23.31262144377979
 20
-395.2792597445159
 30
0.0
 11
23.47243156866171
 21
-395.2792597445159
 31
0.0
  0
LINE
  5
18F
102
{ACAD_REACTORS
330
28E
102
}
330
4F
100
AcDbEntity
  8
0
  6
Continuous
 62
   250
100
AcDbLine
 10
24.28502035731799
 20
-395.2792597445159
 30
0.0
 11
25.30354987250757
 21
-395.2792597445159
 31
0.0
  0
LINE
  5
190
102
{ACAD_REACTORS
330
28E
102
}
330
4F
100
AcDbEntity
  8
0
  6
Continuous
 62
   250
100
AcDbLine
 10
25.30354987250757
 20
-395.2792597445159
 30
0.0
 11
25.30354987250757
 21
-395.1356545496292
 31
0.0
  0
LINE
  5
191
102
{ACAD_REACTORS
330
28E
102
}
330
4F
100
AcDbEntity
  8
0
  6
Continuous
 62
   250
100
AcDbLine
 10
25.30354987250757
 20
-395.1356545496292
 30
0.0
 11
24.4448503481326
 21
-395.1356545496292
 31
0.0
  0
LINE
  5
192
102
{ACAD_REACTORS
330
28E
102
}
330
4F
100
AcDbEntity
  8
0
  6
Continuous
 62
   250
100
AcDbLine
 10
24.4448503481326
 20
-395.1356545496292
 30
0.0
 11
24.4448503481326
 21
-394.4313909407283
 31
0.0
  0
LINE
  5
193
102
{ACAD_REACTORS
330
28E
102
}
330
4F
100
AcDbEntity
  8
0
  6
Continuous
 62
   250
100
AcDbLine
 10
24.4448503481326
 20
-394.4313909407283
 30
0.0
 11
25.24119352889829
 21
-394.4313909407283
 31
0.0
  0
LINE
  5
194
102
{ACAD_REACTORS
330
28E
102
}
330
4F
100
AcDbEntity
  8
0
  6
Continuous
 62
   250
100
AcDbLine
 10
25.24119352889829
 20
-394.4313909407283
 30
0.0
 11
25.24119352889829
 21
-394.2878273697124
 31
0.0
  0
LINE
  5
195
102
{ACAD_REACTORS
330
28E
102
}
330
4F
100
AcDbEntity
  8
0
  6
Continuous
 62
   250
100
AcDbLine
 10
25.24119352889829
 20
-394.2878273697124
 30
0.0
 11
24.4448503481326
 21
-394.2878273697124
 31
0.0
  0
LINE
  5
196
102
{ACAD_REACTORS
330
28E
102
}
330
4F
100
AcDbEntity
  8
0
  6
Continuous
 62
   250
100
AcDbLine
 10
24.4448503481326
 20
-394.2878273697124
 30
0.0
 11
24.4448503481326
 21
-393.6187416082657
 31
0.0
  0
LINE
  5
197
102
{ACAD_REACTORS
330
28E
102
}
330
4F
100
AcDbEntity
  8
0
  6
Continuous
 62
   250
100
AcDbLine
 10
25.30082161693281
 20
-393.6187416082657
 30
0.0
 11
25.30082161693281
 21
-393.475217769128
 31
0.0
  0
LINE
  5
198
102
{ACAD_REACTORS
330
28E
102
}
330
4F
100
AcDbEntity
  8
0
  6
Continuous
 62
   250
100
AcDbLine
 10
24.4448503481326
 20
-393.6187416082657
 30
0.0
 11
25.30082161693281
 21
-393.6187416082657
 31
0.0
  0
LINE
  5
199
102
{ACAD_REACTORS
330
28E
102
}
330
4F
100
AcDbEntity
  8
0
  6
Continuous
 62
   250
100
AcDbLine
 10
25.30082161693281
 20
-393.475217769128
 30
0.0
 11
24.28502035731799
 21
-393.475217769128
 31
0.0
  0
LINE
  5
19A
102
{ACAD_REACTORS
330
28E
102
}
330
4F
100
AcDbEntity
  8
0
  6
Continuous
 62
   250
100
AcDbLine
 10
24.28502035731799
 20
-393.475217769128
 30
0.0
 11
24.28502035731799
 21
-395.2792597445159
 31
0.0
  0
LINE
  5
19B
102
{ACAD_REACTORS
330
28F
102
}
330
4F
100
AcDbEntity
  8
0
  6
Continuous
 62
   250
100
AcDbLine
 10
28.0446889883533
 20
-394.4232884757294
 30
0.0
 11
28.0446889883533
 21
-395.2792190666414
 31
0.0
  0
LINE
  5
19C
102
{ACAD_REACTORS
330
28F
102
}
330
4F
100
AcDbEntity
  8
0
  6
Continuous
 62
   250
100
AcDbLine
 10
28.0446889883533
 20
-395.2792190666414
 30
0.0
 11
28.20451992517337
 21
-395.2792190666414
 31
0.0
  0
LINE
  5
19D
102
{ACAD_REACTORS
330
28F
102
}
330
4F
100
AcDbEntity
  8
0
  6
Continuous
 62
   250
100
AcDbLine
 10
28.20451992517337
 20
-395.2792190666414
 30
0.0
 11
28.20451992517337
 21
-393.475217769128
 31
0.0
  0
LINE
  5
19E
102
{ACAD_REACTORS
330
28F
102
}
330
4F
100
AcDbEntity
  8
0
  6
Continuous
 62
   250
100
AcDbLine
 10
28.20451992517337
 20
-393.475217769128
 30
0.0
 11
28.0446889883533
 21
-393.475217769128
 31
0.0
  0
LINE
  5
19F
102
{ACAD_REACTORS
330
28F
102
}
330
4F
100
AcDbEntity
  8
0
  6
Continuous
 62
   250
100
AcDbLine
 10
28.0446889883533
 20
-393.475217769128
 30
0.0
 11
28.0446889883533
 21
-394.2796832808417
 31
0.0
  0
LINE
  5
1A0
102
{ACAD_REACTORS
330
28F
102
}
330
4F
100
AcDbEntity
  8
0
  6
Continuous
 62
   250
100
AcDbLine
 10
28.0446889883533
 20
-394.2796832808417
 30
0.0
 11
27.17251278957701
 21
-394.2796832808417
 31
0.0
  0
LINE
  5
1A1
102
{ACAD_REACTORS
330
28F
102
}
330
4F
100
AcDbEntity
  8
0
  6
Continuous
 62
   250
100
AcDbLine
 10
27.17251278957701
 20
-394.2796832808417
 30
0.0
 11
27.17251278957701
 21
-393.475217769128
 31
0.0
  0
LINE
  5
1A2
102
{ACAD_REACTORS
330
28F
102
}
330
4F
100
AcDbEntity
  8
0
  6
Continuous
 62
   250
100
AcDbLine
 10
27.17251278957701
 20
-393.475217769128
 30
0.0
 11
27.01268279874057
 21
-393.475217769128
 31
0.0
  0
LINE
  5
1A3
102
{ACAD_REACTORS
330
28F
102
}
330
4F
100
AcDbEntity
  8
0
  6
Continuous
 62
   250
100
AcDbLine
 10
27.01268279874057
 20
-393.475217769128
 30
0.0
 11
27.01268279874057
 21
-395.2792597445159
 31
0.0
  0
LINE
  5
1A4
102
{ACAD_REACTORS
330
28F
102
}
330
4F
100
AcDbEntity
  8
0
  6
Continuous
 62
   250
100
AcDbLine
 10
27.01268279874057
 20
-395.2792597445159
 30
0.0
 11
27.17251278957701
 21
-395.2792597445159
 31
0.0
  0
LINE
  5
1A5
102
{ACAD_REACTORS
330
28F
102
}
330
4F
100
AcDbEntity
  8
0
  6
Continuous
 62
   250
100
AcDbLine
 10
27.17251278957701
 20
-395.2792597445159
 30
0.0
 11
27.17251278957701
 21
-394.4232884757294
 31
0.0
  0
LINE
  5
1A6
102
{ACAD_REACTORS
330
28F
102
}
330
4F
100
AcDbEntity
  8
0
  6
Continuous
 62
   250
100
AcDbLine
 10
27.17251278957701
 20
-394.4232884757294
 30
0.0
 11
28.0446889883533
 21
-394.4232884757294
 31
0.0
  0
LINE
  5
1A7
102
{ACAD_REACTORS
330
290
102
}
330
4F
100
AcDbEntity
  8
0
  6
Continuous
 62
   250
100
AcDbLine
 10
29.72684775383095
 20
-393.475217769128
 30
0.0
 11
29.72684775383095
 21
-395.124784097171
 31
0.0
  0
LINE
  5
1A8
102
{ACAD_REACTORS
330
290
102
}
330
4F
100
AcDbEntity
  8
0
  6
Continuous
 62
   250
100
AcDbLine
 10
29.64564085845632
 20
-395.2792597445159
 30
0.0
 11
29.8785147358285
 21
-395.2792597445159
 31
0.0
  0
LINE
  5
1A9
102
{ACAD_REACTORS
330
290
102
}
330
4F
100
AcDbEntity
  8
0
  6
Continuous
 62
   250
100
AcDbLine
 10
28.63790010791854
 20
-395.2792190666414
 30
0.0
 11
28.7896077678015
 21
-395.2792190666414
 31
0.0
  0
LINE
  5
1AA
102
{ACAD_REACTORS
330
290
102
}
330
4F
100
AcDbEntity
  8
0
  6
Continuous
 62
   250
100
AcDbLine
 10
28.7896077678015
 20
-395.2792190666414
 30
0.0
 11
28.7896077678015
 21
-393.6323813013305
 31
0.0
  0
LINE
  5
1AB
102
{ACAD_REACTORS
330
290
102
}
330
4F
100
AcDbEntity
  8
0
  6
Continuous
 62
   250
100
AcDbLine
 10
28.63790010791854
 20
-393.475217769128
 30
0.0
 11
28.63790010791854
 21
-395.2792190666414
 31
0.0
  0
LINE
  5
1AC
102
{ACAD_REACTORS
330
290
102
}
330
4F
100
AcDbEntity
  8
0
  6
Continuous
 62
   250
100
AcDbLine
 10
28.87085661909077
 20
-393.475217769128
 30
0.0
 11
28.63790010791854
 21
-393.475217769128
 31
0.0
  0
LINE
  5
1AD
102
{ACAD_REACTORS
330
290
102
}
330
4F
100
AcDbEntity
  8
0
  6
Continuous
 62
   250
100
AcDbLine
 10
29.8785147358285
 20
-395.2792597445159
 30
0.0
 11
29.8785147358285
 21
-393.475217769128
 31
0.0
  0
LINE
  5
1AE
102
{ACAD_REACTORS
330
290
102
}
330
4F
100
AcDbEntity
  8
0
  6
Continuous
 62
   250
100
AcDbLine
 10
29.8785147358285
 20
-393.475217769128
 30
0.0
 11
29.72684775383095
 21
-393.475217769128
 31
0.0
  0
LINE
  5
1AF
102
{ACAD_REACTORS
330
290
102
}
330
4F
100
AcDbEntity
  8
0
  6
Continuous
 62
   250
100
AcDbLine
 10
29.72684775383095
 20
-395.124784097171
 30
0.0
 11
28.87085661909077
 21
-393.475217769128
 31
0.0
  0
LINE
  5
1B0
102
{ACAD_REACTORS
330
290
102
}
330
4F
100
AcDbEntity
  8
0
  6
Continuous
 62
   250
100
AcDbLine
 10
28.7896077678015
 20
-393.6323813013305
 30
0.0
 11
29.64564085845632
 21
-395.2792597445159
 31
0.0
  0
LINE
  5
1B1
102
{ACAD_REACTORS
330
291
102
}
330
4F
100
AcDbEntity
  8
0
  6
Continuous
 62
   250
100
AcDbLine
 10
30.32541321687313
 20
-395.2792597445159
 30
0.0
 11
30.48526401963318
 21
-395.2792597445159
 31
0.0
  0
LINE
  5
1B2
102
{ACAD_REACTORS
330
291
102
}
330
4F
100
AcDbEntity
  8
0
  6
Continuous
 62
   250
100
AcDbLine
 10
30.48526401963318
 20
-393.475217769128
 30
0.0
 11
30.32541321687313
 21
-393.475217769128
 31
0.0
  0
LINE
  5
1B3
102
{ACAD_REACTORS
330
291
102
}
330
4F
100
AcDbEntity
  8
0
  6
Continuous
 62
   250
100
AcDbLine
 10
30.48526401963318
 20
-395.2792597445159
 30
0.0
 11
30.48526401963318
 21
-393.475217769128
 31
0.0
  0
LINE
  5
1B4
102
{ACAD_REACTORS
330
291
102
}
330
4F
100
AcDbEntity
  8
0
  6
Continuous
 62
   250
100
AcDbLine
 10
30.32541321687313
 20
-393.475217769128
 30
0.0
 11
30.32541321687313
 21
-395.2792597445159
 31
0.0
  0
LINE
  5
1B5
102
{ACAD_REACTORS
330
292
102
}
330
4F
100
AcDbEntity
  8
0
  6
Continuous
 62
   250
100
AcDbLine
 10
31.09197167956154
 20
-393.475217769128
 30
0.0
 11
30.93212087678694
 21
-393.475217769128
 31
0.0
  0
LINE
  5
1B6
102
{ACAD_REACTORS
330
292
102
}
330
4F
100
AcDbEntity
  8
0
  6
Continuous
 62
   250
100
AcDbLine
 10
30.93212087678694
 20
-395.2792597445159
 30
0.0
 11
31.09197167956154
 21
-395.2792597445159
 31
0.0
  0
LINE
  5
1B7
102
{ACAD_REACTORS
330
292
102
}
330
4F
100
AcDbEntity
  8
0
  6
Continuous
 62
   250
100
AcDbLine
 10
31.09197167956154
 20
-395.2792597445159
 30
0.0
 11
31.09197167956154
 21
-393.475217769128
 31
0.0
  0
LINE
  5
1B8
102
{ACAD_REACTORS
330
292
102
}
330
4F
100
AcDbEntity
  8
0
  6
Continuous
 62
   250
100
AcDbLine
 10
30.93212087678694
 20
-393.475217769128
 30
0.0
 11
30.93212087678694
 21
-395.2792597445159
 31
0.0
  0
LINE
  5
1B9
330
4F
100
AcDbEntity
  8
0
  6
PHANTOM
 62
   250
100
AcDbLine
 10
20.16929072292987
 20
-392.2289441866715
 30
0.0
 11
20.16929072292987
 21
-388.8227502029358
 31
0.0
  0
LINE
  5
1BA
330
4F
100
AcDbEntity
  8
0
  6
PHANTOM
 62
   250
100
AcDbLine
 10
20.16929072292987
 20
-388.8227502029358
 30
0.0
 11
19.40214101207675
 21
-388.8227502029358
 31
0.0
  0
LINE
  5
1BB
330
4F
100
AcDbEntity
  8
0
  6
Continuous
 62
   250
100
AcDbLine
 10
23.42212722788099
 20
-392.2289441866715
 30
0.0
 11
24.16378893938963
 21
-392.2289441866715
 31
0.0
  0
LINE
  5
1BC
330
4F
100
AcDbEntity
  8
0
  6
Continuous
 62
   250
100
AcDbLine
 10
20.16929072292987
 20
-392.2289441866715
 30
0.0
 11
20.16929072292987
 21
-388.8227502029358
 31
0.0
  0
LINE
  5
1BD
330
4F
100
AcDbEntity
  8
0
  6
Continuous
 62
   250
100
AcDbLine
 10
20.16929072292987
 20
-388.8227502029358
 30
0.0
 11
19.40214101207675
 21
-388.8227502029358
 31
0.0
  0
LINE
  5
1BE
330
4F
100
AcDbEntity
  8
0
  6
Continuous
 62
   250
100
AcDbLine
 10
20.16929072292987
 20
-392.2289441866715
 30
0.0
 11
20.16929072292987
 21
-388.8227502029358
 31
0.0
  0
LINE
  5
1BF
102
{ACAD_REACTORS
330
293
102
}
330
4F
100
AcDbEntity
  8
0
  6
Continuous
 62
   250
100
AcDbLine
 10
23.42212722788099
 20
-392.2289441866715
 30
0.0
 11
24.16378893938963
 21
-392.2289441866715
 31
0.0
  0
LINE
  5
1C0
330
4F
100
AcDbEntity
  8
0
  6
Continuous
 62
   250
100
AcDbLine
 10
20.16929072292987
 20
-392.2289441866715
 30
0.0
 11
20.16929072292987
 21
-388.8227502029358
 31
0.0
  0
LINE
  5
1C1
102
{ACAD_REACTORS
330
294
102
}
330
4F
100
AcDbEntity
  8
0
  6
Continuous
 62
   250
100
AcDbLine
 10
20.16929072292987
 20
-388.8227502029358
 30
0.0
 11
19.40214101207675
 21
-388.8227502029358
 31
0.0
  0
LINE
  5
1C2
102
{ACAD_REACTORS
330
294
102
}
330
4F
100
AcDbEntity
  8
0
  6
Continuous
 62
   250
100
AcDbLine
 10
20.16929072292987
 20
-392.2289441866715
 30
0.0
 11
20.16929072292987
 21
-388.8227502029358
 31
0.0
  0
LINE
  5
1C3
330
4F
100
AcDbEntity
  8
0
  6
Continuous
 62
     2
100
AcDbLine
 10
-269.1782319674094
 20
-112.2176513114891
 30
0.0
 11
-276.178227325312
 21
-112.2176513114891
 31
0.0
  0
LINE
  5
1C4
330
4F
100
AcDbEntity
  8
0
  6
Continuous
 62
     2
100
AcDbLine
 10
-276.178227325312
 20
-112.2176513114891
 30
0.0
 11
-276.178227325312
 21
-126.8176387114891
 31
0.0
  0
LINE
  5
1C5
330
4F
100
AcDbEntity
  8
1
  6
Continuous
 62
     7
100
AcDbLine
 10
125.8217680325906
 20
-112.2176513114891
 30
0.0
 11
125.8217680325906
 21
-398.2176513114891
 31
0.0
  0
LINE
  5
1C6
330
4F
100
AcDbEntity
  8
1
  6
Continuous
 62
     7
100
AcDbLine
 10
-284.1782319674094
 20
-255.2176513114891
 30
0.0
 11
-269.1782319674094
 21
-255.2176513114891
 31
0.0
  0
LINE
  5
1C7
330
4F
100
AcDbEntity
  8
1
  6
Continuous
 62
     7
100
AcDbLine
 10
-269.1782319674094
 20
-112.2176513114891
 30
0.0
 11
-269.1782319674094
 21
-398.2176513114891
 31
0.0
  0
LINE
  5
1C8
330
4F
100
AcDbEntity
  8
1
  6
Continuous
 62
     7
100
AcDbLine
 10
-269.1782319674094
 20
-112.2176513114891
 30
0.0
 11
125.8217680325906
 21
-112.2176513114891
 31
0.0
  0
LINE
  5
1C9
330
4F
100
AcDbEntity
  8
1
  6
Continuous
 62
     7
100
AcDbLine
 10
-269.1782319674094
 20
-398.2176513114891
 30
0.0
 11
2.75168316679628
 21
-398.2176513114891
 31
0.0
  0
LINE
  5
1CA
330
4F
100
AcDbEntity
  8
1
  6
Continuous
 62
     7
100
AcDbLine
 10
112.8217680325906
 20
-385.884317958089
 30
0.0
 11
125.8217680325906
 21
-385.884317958089
 31
0.0
  0
LINE
  5
1CB
330
4F
100
AcDbEntity
  8
1
  6
Continuous
 62
     2
100
AcDbLine
 10
112.8217680325906
 20
-385.884317958089
 30
0.0
 11
112.8217680325906
 21
-385.8849513114892
 31
0.0
  0
LINE
  5
1CC
330
4F
100
AcDbEntity
  8
1
  6
Continuous
 62
     7
100
AcDbLine
 10
10.82176803259063
 20
-385.884317958089
 30
0.0
 11
112.8217680325906
 21
-385.884317958089
 31
0.0
  0
LINE
  5
1CD
330
4F
100
AcDbEntity
  8
1
  6
Continuous
 62
     7
100
AcDbLine
 10
10.82176803259063
 20
-377.2176513114891
 30
0.0
 11
47.82176803259063
 21
-377.2176513114891
 31
0.0
  0
LINE
  5
1CE
330
4F
100
AcDbEntity
  8
1
  6
Continuous
 62
     7
100
AcDbLine
 10
-57.17823196740937
 20
-343.2176513114891
 30
0.0
 11
-49.17823196740937
 21
-343.2176513114891
 31
0.0
  0
LINE
  5
1CF
330
4F
100
AcDbEntity
  8
1
  6
Continuous
 62
     7
100
AcDbLine
 10
10.82176803259063
 20
-351.2176513114891
 30
0.0
 11
125.8217680325906
 21
-351.2176513114891
 31
0.0
  0
LINE
  5
1D0
330
4F
100
AcDbEntity
  8
1
  6
Continuous
 62
     7
100
AcDbLine
 10
125.8217680325906
 20
-398.2176513114891
 30
0.0
 11
112.8217680325906
 21
-398.2176513114891
 31
0.0
  0
LINE
  5
1D1
330
4F
100
AcDbEntity
  8
1
  6
Continuous
 62
     7
100
AcDbLine
 10
105.8217680325906
 20
-343.2176513114891
 30
0.0
 11
105.8217680325906
 21
-351.2176513114891
 31
0.0
  0
LINE
  5
1D2
330
4F
100
AcDbEntity
  8
1
  6
Continuous
 62
     7
100
AcDbLine
 10
10.82176803259063
 20
-343.2176513114891
 30
0.0
 11
125.8217680325906
 21
-343.2176513114891
 31
0.0
  0
LINE
  5
1D3
330
4F
100
AcDbEntity
  8
1
  6
Continuous
 62
     7
100
AcDbLine
 10
47.82176803259063
 20
-377.218951311489
 30
0.0
 11
125.8217680325906
 21
-377.218951311489
 31
0.0
  0
LINE
  5
1D4
330
4F
100
AcDbEntity
  8
1
  6
Continuous
 62
     7
100
AcDbLine
 10
10.82176803259063
 20
-368.5506513114888
 30
0.0
 11
47.82176803259063
 21
-368.5506513114888
 31
0.0
  0
LINE
  5
1D5
330
4F
100
AcDbEntity
  8
1
  6
Continuous
 62
     7
100
AcDbLine
 10
47.82176803259063
 20
-343.2176513114891
 30
0.0
 11
47.82176803259063
 21
-398.2176513114891
 31
0.0
  0
LINE
  5
1D6
330
4F
100
AcDbEntity
  8
1
  6
Continuous
 62
     2
100
AcDbLine
 10
10.82176803259063
 20
-355.5509846447885
 30
0.0
 11
47.82176803259063
 21
-355.5509846447885
 31
0.0
  0
LINE
  5
1D7
330
4F
100
AcDbEntity
  8
1
  6
Continuous
 62
     2
100
AcDbLine
 10
10.82176803259063
 20
-359.8843179780888
 30
0.0
 11
47.82176803259063
 21
-359.8843179780888
 31
0.0
  0
LINE
  5
1D8
330
4F
100
AcDbEntity
  8
1
  6
Continuous
 62
     2
100
AcDbLine
 10
19.82176803259063
 20
-351.2176513114891
 30
0.0
 11
19.82176803259063
 21
-364.2176513114891
 31
0.0
  0
LINE
  5
1D9
330
4F
100
AcDbEntity
  8
1
  6
Continuous
 62
     2
100
AcDbLine
 10
34.82176803259063
 20
-351.2176513114891
 30
0.0
 11
34.82176803259063
 21
-364.2176513114891
 31
0.0
  0
LINE
  5
1DA
330
4F
100
AcDbEntity
  8
1
  6
Continuous
 62
     2
100
AcDbLine
 10
-57.17823196740937
 20
-346.8843179847891
 30
0.0
 11
10.82176803259063
 21
-346.8843179847891
 31
0.0
  0
LINE
  5
1DB
330
4F
100
AcDbEntity
  8
1
  6
Continuous
 62
     2
100
AcDbLine
 10
-57.17823196740937
 20
-351.2176513147888
 30
0.0
 11
10.82176803259063
 21
-351.2176513114891
 31
0.0
  0
LINE
  5
1DC
330
4F
100
AcDbEntity
  8
1
  6
Continuous
 62
     2
100
AcDbLine
 10
-57.17823196740937
 20
-355.5509846447885
 30
0.0
 11
10.82176803259063
 21
-355.5509846447885
 31
0.0
  0
LINE
  5
1DD
330
4F
100
AcDbEntity
  8
1
  6
Continuous
 62
     2
100
AcDbLine
 10
-57.17823196740937
 20
-359.8843179780888
 30
0.0
 11
10.82176803259063
 21
-359.8843179780888
 31
0.0
  0
LINE
  5
1DE
330
4F
100
AcDbEntity
  8
1
  6
Continuous
 62
     2
100
AcDbLine
 10
-57.17823196740937
 20
-364.2176513080885
 30
0.0
 11
10.82176803259063
 21
-364.2176513114891
 31
0.0
  0
LINE
  5
1DF
330
4F
100
AcDbEntity
  8
1
  6
Continuous
 62
     2
100
AcDbLine
 10
-57.17823196740937
 20
-368.5509846380892
 30
0.0
 11
10.82176803259063
 21
-368.5509846380892
 31
0.0
  0
LINE
  5
1E0
330
4F
100
AcDbEntity
  8
1
  6
Continuous
 62
     2
100
AcDbLine
 10
-57.17823196740937
 20
-372.8843179680889
 30
0.0
 11
10.82176803259063
 21
-372.8843179680889
 31
0.0
  0
LINE
  5
1E1
330
4F
100
AcDbEntity
  8
1
  6
Continuous
 62
     2
100
AcDbLine
 10
-57.17823196740937
 20
-377.2176512980877
 30
0.0
 11
10.82176803259063
 21
-377.2176512980877
 31
0.0
  0
LINE
  5
1E2
330
4F
100
AcDbEntity
  8
1
  6
Continuous
 62
     2
100
AcDbLine
 10
-57.17823196740937
 20
-381.5509846280893
 30
0.0
 11
10.82176803259063
 21
-381.5509846280893
 31
0.0
  0
LINE
  5
1E3
330
4F
100
AcDbEntity
  8
1
  6
Continuous
 62
     2
100
AcDbLine
 10
-57.17823196740937
 20
-385.884317958089
 30
0.0
 11
10.82176803259063
 21
-385.884317958089
 31
0.0
  0
LINE
  5
1E4
330
4F
100
AcDbEntity
  8
1
  6
Continuous
 62
     2
100
AcDbLine
 10
-57.17823196740937
 20
-390.2176512880888
 30
0.0
 11
10.82176803259063
 21
-390.2176512880888
 31
0.0
  0
LINE
  5
1E5
330
4F
100
AcDbEntity
  8
1
  6
Continuous
 62
     2
100
AcDbLine
 10
-57.17823196740937
 20
-394.5509846180885
 30
0.0
 11
2.75168316679628
 21
-394.5509846180885
 31
0.0
  0
LINE
  5
1E6
330
4F
100
AcDbEntity
  8
1
  6
Continuous
 62
     7
100
AcDbLine
 10
10.82176803259063
 20
-398.2176513114891
 30
0.0
 11
10.82176803259063
 21
-343.2176513114891
 31
0.0
  0
LINE
  5
1E7
330
4F
100
AcDbEntity
  8
1
  6
Continuous
 62
     2
100
AcDbLine
 10
-49.17823196740937
 20
-343.2176513114891
 30
0.0
 11
-49.17823196740937
 21
-398.2176513114891
 31
0.0
  0
LINE
  5
1E8
330
4F
100
AcDbEntity
  8
1
  6
Continuous
 62
     2
100
AcDbLine
 10
-9.17823196740937
 20
-343.2176513114891
 30
0.0
 11
-9.17823196740937
 21
-398.2176513114891
 31
0.0
  0
LINE
  5
1E9
330
4F
100
AcDbEntity
  8
1
  6
Continuous
 62
     7
100
AcDbLine
 10
-57.17823196740937
 20
-343.2176513114891
 30
0.0
 11
-57.17823196740937
 21
-398.2176513114891
 31
0.0
  0
LINE
  5
1EA
330
4F
100
AcDbEntity
  8
1
  6
Continuous
 62
     7
100
AcDbLine
 10
-49.17823196740937
 20
-343.2176513114891
 30
0.0
 11
2.75168316679628
 21
-343.2176513114891
 31
0.0
  0
LINE
  5
1EB
330
4F
100
AcDbEntity
  8
1
  6
Continuous
 62
     7
100
AcDbLine
 10
112.8217680325906
 20
-398.2176513114891
 30
0.0
 11
2.75168316679628
 21
-398.2176513114891
 31
0.0
  0
LINE
  5
1EC
330
4F
100
AcDbEntity
  8
1
  6
Continuous
 62
     2
100
AcDbLine
 10
99.82176803259063
 20
-377.218951311489
 30
0.0
 11
99.82176803259063
 21
-385.8849513114892
 31
0.0
  0
LINE
  5
1ED
330
4F
100
AcDbEntity
  8
1
  6
Continuous
 62
     2
100
AcDbLine
 10
112.8217680325906
 20
-377.218951311489
 30
0.0
 11
112.8217680325906
 21
-385.8849513114892
 31
0.0
  0
LINE
  5
1EE
330
4F
100
AcDbEntity
  8
1
  6
Continuous
 62
     2
100
AcDbLine
 10
112.8217680325906
 20
-385.8849513114892
 30
0.0
 11
112.8217680325906
 21
-398.2176513114891
 31
0.0
  0
LINE
  5
1EF
330
4F
100
AcDbEntity
  8
0
  6
Continuous
 62
     2
100
AcDbLine
 10
104.3673246042017
 20
-381.7177303953877
 30
0.0
 11
102.2312503286885
 21
-382.5001539816894
 31
0.0
  0
LINE
  5
1F0
330
4F
100
AcDbEntity
  8
DEFAULT_1
  6
CENTER
 62
     2
100
AcDbLine
 10
107.9243951804019
 20
-381.4813807254877
 30
0.0
 11
107.9243951804019
 21
-385.0508173254893
 31
0.0
  0
LINE
  5
1F1
330
4F
100
AcDbEntity
  8
0
  6
Continuous
 62
     2
100
AcDbLine
 10
104.3673246042017
 20
-384.8350032709877
 30
0.0
 11
104.3673246042017
 21
-381.7177303953877
 31
0.0
  0
LINE
  5
1F2
330
4F
100
AcDbEntity
  8
0
  6
Continuous
 62
     2
100
AcDbLine
 10
102.2312503286885
 20
-382.5001539816894
 30
0.0
 11
102.2312503286885
 21
-384.0525804346889
 31
0.0
  0
LINE
  5
1F3
330
4F
100
AcDbEntity
  8
0
  6
Continuous
 62
     2
100
AcDbLine
 10
102.2312503286885
 20
-384.0525804346889
 30
0.0
 11
104.3673246042017
 21
-384.8350032709877
 31
0.0
  0
LINE
  5
1F4
330
4F
100
AcDbEntity
  8
DEFAULT_1
  6
CENTER
 62
     2
100
AcDbLine
 10
106.0414601475932
 20
-383.2758515844889
 30
0.0
 11
109.835896747587
 21
-383.2758515844889
 31
0.0
  0
LINE
  5
1F5
330
4F
100
AcDbEntity
  8
DEFAULT_1
  6
CENTER
 62
     2
100
AcDbLine
 10
104.9141714773868
 20
-383.2758515844889
 30
0.0
 11
101.6011170465863
 21
-383.2758515844889
 31
0.0
  0
LINE
  5
1F6
330
4F
100
AcDbEntity
  8
0
  6
Continuous
 62
     2
100
AcDbLine
 10
102.2312503286885
 20
-382.5001539816894
 30
0.0
 11
102.2312503286885
 21
-384.0525804346889
 31
0.0
  0
LINE
  5
1F7
330
4F
100
AcDbEntity
  8
0
  6
Continuous
 62
     2
100
AcDbLine
 10
102.2312503286885
 20
-384.0525804346889
 30
0.0
 11
104.3673246042017
 21
-384.8350032709877
 31
0.0
  0
LINE
  5
1F8
330
4F
100
AcDbEntity
  8
1
  6
Continuous
 62
     2
100
AcDbLine
 10
10.82176803259063
 20
-364.2176513114891
 30
0.0
 11
47.82176803259063
 21
-364.2176513114891
 31
0.0
  0
LINE
  5
1F9
330
4F
100
AcDbEntity
  8
1
  6
Continuous
 62
     2
100
AcDbLine
 10
34.82176803259063
 20
-355.5509846448886
 30
0.0
 11
34.82176803259063
 21
-368.5509846448886
 31
0.0
  0
LINE
  5
1FA
330
4F
100
AcDbEntity
  8
1
  6
Continuous
 62
     2
100
AcDbLine
 10
19.82176803259063
 20
-355.5509846448886
 30
0.0
 11
19.82176803259063
 21
-368.5509846448886
 31
0.0
  0
LINE
  5
1FB
330
4F
100
AcDbEntity
  8
1
  6
Continuous
 62
     2
100
AcDbLine
 10
2.75168316679628
 20
-394.5509846180885
 30
0.0
 11
2.75168316679628
 21
-343.2176513114891
 31
0.0
  0
LINE
  5
1FC
330
4F
100
AcDbEntity
  8
1
  6
Continuous
 62
     2
100
AcDbLine
 10
2.75168316679628
 20
-394.5509846180885
 30
0.0
 11
10.82176803259063
 21
-394.5509846180885
 31
0.0
  0
LINE
  5
1FD
330
4F
100
AcDbEntity
  8
1
  6
Continuous
 62
     7
100
AcDbLine
 10
2.75168316679628
 20
-343.2176513114891
 30
0.0
 11
10.82176803259063
 21
-343.2176513114891
 31
0.0
  0
CIRCLE
  5
1FE
330
4F
100
AcDbEntity
  8
0
  6
Continuous
 62
     2
100
AcDbCircle
 10
107.9243951804019
 20
-383.2758515844889
 30
0.0
 40
0.7762481014869991
  0
CIRCLE
  5
1FF
330
4F
100
AcDbEntity
  8
0
  6
Continuous
 62
     2
100
AcDbCircle
 10
107.9243951804019
 20
-383.2758515844889
 30
0.0
 40
1.558121189089505
  0
SPLINE
  5
200
102
{ACAD_REACTORS
330
295
102
}
330
4F
100
AcDbEntity
  8
0
  6
Continuous
 62
   250
100
AcDbSpline
210
0.0
220
0.0
230
1.0
 70
    11
 71
     3
 72
    99
 73
    95
 74
    93
 42
0.000000001
 43
0.0000000001
 44
0.00000001
 40
0.0
 40
0.0
 40
0.0
 40
0.0
 40
0.2058865683107884
 40
0.380255885010338
 40
0.5295924200020122
 40
0.663949741017712
 40
0.7981974076200684
 40
0.9497667969679259
 40
1.134316495760117
 40
1.364156594014454
 40
1.649145976705461
 40
1.854658560623854
 40
2.005118300006512
 40
2.112155832456131
 40
2.191303156467368
 40
2.265236690025874
 40
2.356357147307033
 40
2.478213498062896
 40
2.607364312097989
 40
2.704600033795631
 40
2.79819479007368
 40
2.922158707325091
 40
3.097569667628389
 40
3.32027818465177
 40
3.540760703147037
 40
3.777817247072871
 40
4.049964063575561
 40
4.077851699196122
 40
4.151373647793285
 40
4.255318471868178
 40
4.374474733743049
 40
4.493630995682078
 40
4.59757581995355
 40
4.67109776883755
 40
4.698985404622497
 40
5.074893791170825
 40
5.424148788991766
 40
5.739910983942277
 40
6.026947032187147
 40
6.2680796054358
 40
6.470402560631912
 40
6.643379927069383
 40
6.799454175324323
 40
6.953060970213494
 40
7.117582237481292
 40
7.302801577568509
 40
7.514778780818757
 40
7.739946994444515
 40
7.928433856327354
 40
8.087733089558078
 40
8.228542328926792
 40
8.36542345727418
 40
8.514542515625996
 40
8.68986086127041
 40
8.901809310620221
 40
9.15823759249074
 40
9.347768131710156
 40
9.493039083085106
 40
9.601795642526511
 40
9.683502754693013
 40
9.751054030718763
 40
9.819893144739138
 40
9.902273932277676
 40
10.0053477497018
 40
10.13191874389544
 40
10.23076105419491
 40
10.31667662344493
 40
10.41307291459906
 40
10.54070013640159
 40
10.71247657448582
 40
11.05520963892054
 40
11.38523980135608
 40
11.71146707648291
 40
11.73754497807178
 40
11.80629580952767
 40
11.90349526088187
 40
12.0149190221698
 40
12.1263427834365
 40
12.22354223473752
 40
12.29229306613675
 40
12.31837096770021
 40
12.57432621489775
 40
12.85505769195824
 40
13.14962996227189
 40
13.44700396477239
 40
13.76080179714574
 40
14.02197664776142
 40
14.23931231647799
 40
14.42395213988339
 40
14.58972152008025
 40
14.75169154440182
 40
14.92296194985218
 40
15.11242227888364
 40
15.32497315233208
 40
15.32497315233208
 40
15.32497315233208
 40
15.32497315233208
 10
18.94182689237641
 20
-391.2725673723608
 30
0.0
 10
18.94161067869569
 20
-391.203933749078
 30
0.0
 10
18.94121135197917
 20
-391.0771729828058
 30
0.0
 10
18.93023502982224
 20
-390.9007910483494
 30
0.0
 10
18.90219345318616
 20
-390.7500265151107
 30
0.0
 10
18.84745074934015
 20
-390.6202193579824
 30
0.0
 10
18.75720163743437
 20
-390.5105751536554
 30
0.0
 10
18.62787874362658
 20
-390.4195364925816
 30
0.0
 10
18.4557375240537
 20
-390.3408794004046
 30
0.0
 10
18.23393084658549
 20
-390.2682102425243
 30
0.0
 10
18.00110313186032
 20
-390.209154175407
 30
0.0
 10
17.79306176530271
 20
-390.1606077356065
 30
0.0
 10
17.64399916095469
 20
-390.1202249050196
 30
0.0
 10
17.53874742274564
 20
-390.0805141782922
 30
0.0
 10
17.46714780029498
 20
-390.0271730525761
 30
0.0
 10
17.43223115370413
 20
-389.950693479982
 30
0.0
 10
17.42312498251718
 20
-389.8549518274191
 30
0.0
 10
17.42204541026734
 20
-389.7409849176364
 30
0.0
 10
17.42523353152875
 20
-389.6248872206527
 30
0.0
 10
17.46287271129819
 20
-389.5201505867194
 30
0.0
 10
17.55350263450501
 20
-389.4573012238652
 30
0.0
 10
17.68399198358003
 20
-389.4341034166227
 30
0.0
 10
17.85829667794774
 20
-389.4301021884385
 30
0.0
 10
18.06247077743175
 20
-389.4327887371247
 30
0.0
 10
18.29694944913158
 20
-389.4626331190951
 30
0.0
 10
18.50292944212026
 20
-389.4474642742698
 30
0.0
 10
18.78446290695701
 20
-389.6169815323136
 30
0.0
 10
18.79249098991739
 20
-389.4844144507604
 30
0.0
 10
18.80212733298639
 20
-389.4185001998636
 30
0.0
 10
18.81307890612739
 20
-389.3193678225009
 30
0.0
 10
18.82686805172375
 20
-389.2063599879737
 30
0.0
 10
18.8400574755998
 20
-389.0931518282315
 30
0.0
 10
18.85243562163725
 20
-388.9944959688994
 30
0.0
 10
18.85907285792143
 20
-388.9275799256893
 30
0.0
 10
18.88591022121545
 20
-388.7637281087906
 30
0.0
 10
18.44946023246442
 20
-388.8546537898359
 30
0.0
 10
18.17173929678927
 20
-388.7704870878604
 30
0.0
 10
17.83862463977141
 20
-388.7705093830169
 30
0.0
 10
17.56078155095006
 20
-388.7762513866227
 30
0.0
 10
17.3177994150685
 20
-388.8060223461641
 30
0.0
 10
17.1182758400906
 20
-388.8579327464648
 30
0.0
 10
16.95722551728751
 20
-388.9352758137712
 30
0.0
 10
16.83305452608185
 20
-389.0407636434479
 30
0.0
 10
16.7450219105914
 20
-389.174394584483
 30
0.0
 10
16.68946328734022
 20
-389.3340354956088
 30
0.0
 10
16.66016007279475
 20
-389.5196681024856
 30
0.0
 10
16.65376559026365
 20
-389.7272835942076
 30
0.0
 10
16.65796572380127
 20
-389.9358338912709
 30
0.0
 10
16.67477018460418
 20
-390.1263628536692
 30
0.0
 10
16.71081520392099
 20
-390.285979235098
 30
0.0
 10
16.7728892126892
 20
-390.4194556790926
 30
0.0
 10
16.86731476874368
 20
-390.5283450482077
 30
0.0
 10
16.99587547195602
 20
-390.6150955972192
 30
0.0
 10
17.16057840958161
 20
-390.6861808676118
 30
0.0
 10
17.36613824071425
 20
-390.7486303349808
 30
0.0
 10
17.58003708996523
 20
-390.7972931151885
 30
0.0
 10
17.7724091843014
 20
-390.8400281836019
 30
0.0
 10
17.91541723789816
 20
-390.8779776952115
 30
0.0
 10
18.02092355884702
 20
-390.915809978166
 30
0.0
 10
18.09632833968337
 20
-390.9591796654456
 30
0.0
 10
18.14462998304566
 20
-391.0159142444617
 30
0.0
 10
18.16735447169026
 20
-391.0865740920459
 30
0.0
 10
18.17441160486177
 20
-391.1712290380327
 30
0.0
 10
18.17531257743676
 20
-391.2752528988678
 30
0.0
 10
18.17223389963694
 20
-391.3847467230538
 30
0.0
 10
18.14827945564103
 20
-391.487538248531
 30
0.0
 10
18.08898211389724
 20
-391.5646830963776
 30
0.0
 10
17.99216898654394
 20
-391.6082215146392
 30
0.0
 10
17.86108244819888
 20
-391.627675762567
 30
0.0
 10
17.64830906105938
 20
-391.6359623134958
 30
0.0
 10
17.35531077953188
 20
-391.5995273287597
 30
0.0
 10
17.07200599342094
 20
-391.6177972313594
 30
0.0
 10
16.73872703716018
 20
-391.3615424979339
 30
0.0
 10
16.71428793883894
 20
-391.5073633450643
 30
0.0
 10
16.69981040742194
 20
-391.5682856531972
 30
0.0
 10
16.68080149426832
 20
-391.6594281771526
 30
0.0
 10
16.65808290785872
 20
-391.7634967920515
 30
0.0
 10
16.63593293127082
 20
-391.8676996618176
 30
0.0
 10
16.61557145257454
 20
-391.958522830479
 30
0.0
 10
16.60393744241064
 20
-392.0201165244712
 30
0.0
 10
16.57122323628808
 20
-392.1386837608987
 30
0.0
 10
16.88415141630708
 20
-392.135745693784
 30
0.0
 10
17.09642024491669
 20
-392.2317127027291
 30
0.0
 10
17.40088694690584
 20
-392.2677616561828
 30
0.0
 10
17.69830548460703
 20
-392.2850125430354
 30
0.0
 10
17.99048868493547
 20
-392.2735491389923
 30
0.0
 10
18.25264671603341
 20
-392.2393651687239
 30
0.0
 10
18.46650258415327
 20
-392.1792041402972
 30
0.0
 10
18.63639141640087
 20
-392.0921208156077
 30
0.0
 10
18.76495138666422
 20
-391.9764267141792
 30
0.0
 10
18.85419539043955
 20
-391.8337389279649
 30
0.0
 10
18.90917484797914
 20
-391.667178033452
 30
0.0
 10
18.93795318671838
 20
-391.4775330222069
 30
0.0
 10
18.94048714047778
 20
-391.343456269641
 30
0.0
 10
18.94182689237641
 20
-391.2725673723608
 30
0.0
 11
18.94182689237641
 21
-391.2725673723608
 31
0.0
 11
18.93898487544176
 21
-391.0667004105957
 31
0.0
 11
18.92591293747989
 21
-390.8928217666948
 31
0.0
 11
18.89579224775392
 21
-390.7465543934972
 31
0.0
 11
18.84180397552699
 21
-390.6235212438424
 31
0.0
 11
18.75712929006222
 21
-390.5193452705698
 31
0.0
 11
18.63494936062273
 21
-390.4296494265188
 31
0.0
 11
18.46844535647165
 21
-390.3500566645286
 31
0.0
 11
18.25079844687212
 21
-390.2761899374387
 31
0.0
 11
17.97518980108725
 21
-390.2036721980885
 31
0.0
 11
17.7755054266585
 21
-390.1550761823942
 31
0.0
 11
17.63083671270405
 21
-390.1137349634715
 31
0.0
 11
17.53232847686944
 21
-390.0718641999318
 31
0.0
 11
17.47112553680025
 21
-390.0216795503874
 31
0.0
 11
17.43837271014204
 21
-389.95539667345
 31
0.0
 11
17.42521481454037
 21
-389.8652312277312
 31
0.0
 11
17.4227966676408
 21
-389.7433988718431
 31
0.0
 11
17.4335179879705
 21
-389.6146938360457
 31
0.0
 11
17.47173722390621
 21
-389.5252842410264
 31
0.0
 11
17.54653728786787
 21
-389.4690265402701
 31
0.0
 11
17.66700109227538
 21
-389.4397771872609
 31
0.0
 11
17.84221154954867
 21
-389.4313926354835
 31
0.0
 11
18.06484375366597
 21
-389.4372223308179
 31
0.0
 11
18.28460548574094
 21
-389.4550358719675
 31
0.0
 11
18.51971967200836
 21
-389.4853199416517
 31
0.0
 11
18.78840923870303
 21
-389.5285612225898
 31
0.0
 11
18.79170532130798
 21
-389.5008690563769
 31
0.0
 11
18.80039499363011
 21
-389.4278624363611
 31
0.0
 11
18.81268039243037
 21
-389.3246461804767
 31
0.0
 11
18.82676365446969
 21
-389.2063251066579
 31
0.0
 11
18.84084691650901
 21
-389.0880040328392
 31
0.0
 11
18.85313231530927
 21
-388.9847877769547
 31
0.0
 11
18.8618219876314
 21
-388.9117811569389
 31
0.0
 11
18.86511807023635
 21
-388.884088990726
 31
0.0
 11
18.49496042140742
 21
-388.8185876017852
 31
0.0
 11
18.14756298723444
 21
-388.7826143161755
 31
0.0
 11
17.83199184847763
 21
-388.7716315687767
 31
0.0
 11
17.54513809118536
 21
-388.7818597308711
 31
0.0
 11
17.306064236535
 21
-388.8133019022313
 31
0.0
 11
17.11102341284601
 21
-388.8670946104729
 31
0.0
 11
16.95626874843784
 21
-388.9443743832113
 31
0.0
 11
16.83805337162995
 21
-389.0462777480622
 31
0.0
 11
16.75263041074181
 21
-389.173941232641
 31
0.0
 11
16.69625299409285
 21
-389.3285013645632
 31
0.0
 11
16.66517425000254
 21
-389.5110946714445
 31
0.0
 11
16.65564730679034
 21
-389.7228576809002
 31
0.0
 11
16.66098397129618
 21
-389.947962644348
 31
0.0
 11
16.68016623342961
 21
-390.1354708788451
 31
0.0
 11
16.71795249611454
 21
-390.2902237272964
 31
0.0
 11
16.77910116227484
 21
-390.4170625326067
 31
0.0
 11
16.86837063483442
 21
-390.5208286376812
 31
0.0
 11
16.99051931671716
 21
-390.6063633854245
 31
0.0
 11
17.15030561084696
 21
-390.6785081187415
 31
0.0
 11
17.35248792014769
 21
-390.7421041805371
 31
0.0
 11
17.60182464754325
 21
-390.8019929137163
 31
0.0
 11
17.78649206373947
 21
-390.8446516863357
 31
0.0
 11
17.92651230657361
 21
-390.8833554462892
 31
0.0
 11
18.02805741922455
 21
-390.9222987304729
 31
0.0
 11
18.09729944487117
 21
-390.9656760757829
 31
0.0
 11
18.14041042669234
 21
-391.0176820191154
 31
0.0
 11
18.16356240786695
 21
-391.0825110973665
 31
0.0
 11
18.17292743157387
 21
-391.1643578474325
 31
0.0
 11
18.17467754099198
 21
-391.2674168062094
 31
0.0
 11
18.16717176483413
 21
-391.3937650549606
 31
0.0
 11
18.14020094225243
 21
-391.4888564694654
 31
0.0
 11
18.08708483208466
 21
-391.5563854556375
 31
0.0
 11
18.00114319316857
 21
-391.6000464193908
 31
0.0
 11
17.87569578434193
 21
-391.6235337666393
 31
0.0
 11
17.70406236444251
 21
-391.6305419032969
 31
0.0
 11
17.36196328053322
 21
-391.6097051448007
 31
0.0
 11
17.0369286974035
 21
-391.5525000052871
 31
0.0
 11
16.72213643728173
 21
-391.4668841887187
 31
0.0
 11
16.71664034242314
 21
-391.4923763423577
 31
0.0
 11
16.70215063779596
 21
-391.5595829292241
 31
0.0
 11
16.68166519332305
 21
-391.654599138242
 31
0.0
 11
16.65818187892728
 21
-391.7635201583357
 31
0.0
 11
16.6346985645315
 21
-391.8724411784295
 31
0.0
 11
16.6142131200586
 21
-391.9674573874474
 31
0.0
 11
16.59972341543142
 21
-392.0346639743137
 31
0.0
 11
16.59422732057283
 21
-392.0601561279527
 31
0.0
 11
16.83366852645213
 21
-392.1506049947396
 31
0.0
 11
17.10569838932133
 21
-392.219958552103
 31
0.0
 11
17.39690164298281
 21
-392.2643825037802
 31
0.0
 11
17.69386302123894
 21
-392.2800425535088
 31
0.0
 11
18.00741878086204
 21
-392.2677191961375
 31
0.0
 11
18.26595557885134
 21
-392.23069182011
 31
0.0
 11
18.47431442298478
 21
-392.1688744695547
 31
0.0
 11
18.63733632104028
 21
-392.0821811886008
 31
0.0
 11
18.75986228079578
 21
-391.9705260213771
 31
0.0
 11
18.84673331002921
 21
-391.8338230120123
 31
0.0
 11
18.9027904165185
 21
-391.6719862046355
 31
0.0
 11
18.93287460804159
 21
-391.4849296433753
 31
0.0
 11
18.94182689237641
 21
-391.2725673723608
 31
0.0
  0
SPLINE
  5
201
330
4F
100
AcDbEntity
  8
0
  6
Continuous
 62
   250
100
AcDbSpline
210
0.0
220
0.0
230
1.0
 70
    11
 71
     3
 72
    21
 73
    17
 74
    15
 42
0.000000001
 43
0.0000000001
 44
0.00000001
 40
0.0
 40
0.0
 40
0.0
 40
0.0
 40
0.3412552391011182
 40
0.7767617628316502
 40
1.212268285412057
 40
1.553523529307042
 40
1.887662646807611
 40
2.508206723618584
 40
2.842345842220665
 40
3.183601086820562
 40
3.619107607366878
 40
4.054614127603342
 40
4.395869372554848
 40
4.730008491472637
 40
5.350552569471239
 40
5.684691678406472
 40
5.684691678406472
 40
5.684691678406472
 40
5.684691678406472
 10
26.47038713406073
 20
-391.1702685770524
 30
0.0
 10
26.44083028079205
 20
-391.2904200661673
 30
0.0
 10
26.37355327745075
 20
-391.5639076870887
 30
0.0
 10
25.91543303698679
 20
-391.61954020628
 30
0.0
 10
25.47168349346106
 20
-391.5657367268151
 30
0.0
 10
25.34165885699376
 20
-391.1673108466177
 30
0.0
 10
25.37648938833352
 20
-390.7439334169085
 30
0.0
 10
25.37641237344659
 20
-390.3077695904735
 30
0.0
 10
25.3417843736232
 20
-389.8844302175502
 30
0.0
 10
25.47114658914388
 20
-389.485862215513
 30
0.0
 10
25.91806013697274
 20
-389.4327433716217
 30
0.0
 10
26.36471884437026
 20
-389.4858943245016
 30
0.0
 10
26.49468057143045
 20
-389.8843343161522
 30
0.0
 10
26.45744445181655
 20
-390.308251322173
 30
0.0
 10
26.4723566713847
 20
-390.7410875953748
 30
0.0
 10
26.47089775514495
 20
-391.0589994352553
 30
0.0
 10
26.47038713406073
 20
-391.1702685770524
 30
0.0
 11
26.47038713406073
 21
-391.1702685770524
 31
0.0
 11
26.33804506675006
 21
-391.4848170148072
 31
0.0
 11
25.91801435846719
 21
-391.5998828016127
 31
0.0
 11
25.49798365018069
 21
-391.4848170148072
 31
0.0
 11
25.36564158286637
 21
-391.1702685770524
 31
0.0
 11
25.36564158286637
 21
-390.8361294581347
 31
0.0
 11
25.36564158286637
 21
-390.2155853801448
 31
0.0
 11
25.36564158286637
 21
-389.8814462612272
 31
0.0
 11
25.49798365018069
 21
-389.56689782339
 31
0.0
 11
25.91801435846719
 21
-389.4518320365723
 31
0.0
 11
26.33804506675006
 21
-389.56689782339
 31
0.0
 11
26.47038713406073
 21
-389.8814462612272
 31
0.0
 11
26.47038713406073
 21
-390.2155853801449
 31
0.0
 11
26.47038713406073
 21
-390.8361294581348
 31
0.0
 11
26.47038713406073
 21
-391.1702685770524
 31
0.0
  0
SPLINE
  5
202
102
{ACAD_REACTORS
330
296
102
}
330
4F
100
AcDbEntity
  8
0
  6
Continuous
 62
   250
100
AcDbSpline
210
0.0
220
0.0
230
1.0
 70
    11
 71
     3
 72
    21
 73
    17
 74
    15
 42
0.000000001
 43
0.0000000001
 44
0.00000001
 40
0.0
 40
0.0
 40
0.0
 40
0.0
 40
0.7754044310608652
 40
1.847167960408142
 40
2.918946025489414
 40
3.694344571962982
 40
4.062970089969678
 40
4.747560338049777
 40
5.116185856378319
 40
5.891546840134201
 40
6.963331132305251
 40
8.035100887632488
 40
8.810467763669616
 40
9.179093282462057
 40
9.863683531656742
 40
10.23230904046583
 40
10.23230904046583
 40
10.23230904046583
 40
10.23230904046583
 10
27.23757721061702
 20
-389.8149367757078
 30
0.0
 10
27.16902030070442
 20
-389.547003931615
 30
0.0
 10
27.00570407909393
 20
-388.9087344732139
 30
0.0
 10
25.90888518408321
 20
-388.6932616835099
 30
0.0
 10
24.86176562013079
 20
-388.9047768899229
 30
0.0
 10
24.57353367153262
 20
-389.6829341455094
 30
0.0
 10
24.60647404879762
 20
-390.2873646060163
 30
0.0
 10
24.60640058752955
 20
-390.7643571154285
 30
0.0
 10
24.57370797519956
 20
-391.3687468391707
 30
0.0
 10
24.860010841351
 20
-392.1471394983428
 30
0.0
 10
25.9181178848573
 20
-392.3571732097475
 30
0.0
 10
26.97563450390464
 20
-392.1470857989889
 30
0.0
 10
27.26302721055306
 20
-391.3688471998406
 30
0.0
 10
27.22807987440898
 20
-390.7641412925285
 30
0.0
 10
27.23902245618015
 20
-390.2886844657529
 30
0.0
 10
27.23795190420234
 20
-389.937760249303
 30
0.0
 10
27.23757721061702
 20
-389.8149367757078
 30
0.0
 11
27.23757721061702
 21
-389.8149367757078
 31
0.0
 11
26.93837613401411
 21
-389.0995831845294
 31
0.0
 11
25.91801435846719
 21
-388.7716519267287
 31
0.0
 11
24.89763731452786
 21
-389.0995831845294
 31
0.0
 11
24.59845150631736
 21
-389.8149367757078
 31
0.0
 11
24.59845150631736
 21
-390.1835622944992
 31
0.0
 11
24.59845150631736
 21
-390.8681525436832
 31
0.0
 11
24.59845150631736
 21
-391.2367780624745
 31
0.0
 11
24.89763731452786
 21
-391.9520909377511
 31
0.0
 11
25.91801435846719
 21
-392.2800425535061
 31
0.0
 11
26.93837613401411
 21
-391.9520909377511
 31
0.0
 11
27.23757721061702
 21
-391.2367780624745
 31
0.0
 11
27.23757721061702
 21
-390.8681525436831
 31
0.0
 11
27.23757721061702
 21
-390.1835622944992
 31
0.0
 11
27.23757721061702
 21
-389.8149367757078
 31
0.0
  0
SPLINE
  5
203
102
{ACAD_REACTORS
330
297
102
}
330
4F
100
AcDbEntity
  8
0
  6
Continuous
 62
   250
100
AcDbSpline
210
0.0
220
0.0
230
1.0
 70
    11
 71
     3
 72
   100
 73
    96
 74
    94
 42
0.000000001
 43
0.0000000001
 44
0.00000001
 40
0.0
 40
0.0
 40
0.0
 40
0.0
 40
0.1867995077370406
 40
0.3476296758924979
 40
0.4869324267541878
 40
0.6112224271906032
 40
0.7301389373928857
 40
0.8559981794202943
 40
1.001296090966143
 40
1.176591632261415
 40
1.390310169720742
 40
1.649435663783247
 40
1.854960960281841
 40
2.005426180734427
 40
2.112464173742608
 40
2.191609548970715
 40
2.265540878057755
 40
2.356658148860795
 40
2.478508048382333
 40
2.607650882755412
 40
2.704883274231209
 40
2.798472505138053
 40
2.922426582400107
 40
3.097825594432556
 40
3.320545622604758
 40
3.541031974220179
 40
3.778083311301738
 40
4.05021371906061
 40
4.078098955655181
 40
4.151614579547735
 40
4.255550461799276
 40
4.374696473291626
 40
4.493842484848455
 40
4.597778367297178
 40
4.671293991477346
 40
4.699179228236682
 40
5.075100979096795
 40
5.424355976924453
 40
5.740104608173151
 40
6.02714130437454
 40
6.268275244768646
 40
6.470599370942505
 40
6.643576741138998
 40
6.799649136488879
 40
6.953252379294299
 40
7.117769485257612
 40
7.302985450297587
 40
7.514961290043505
 40
7.740135590451072
 40
7.928627361581725
 40
8.087930681243567
 40
8.228743588743958
 40
8.365628410259855
 40
8.514751600322866
 40
8.69007485648535
 40
8.902029283857765
 40
9.158464882293845
 40
9.347997239807855
 40
9.49326592234362
 40
9.602017180547426
 40
9.683717438102816
 40
9.751262617222709
 40
9.82009836947005
 40
9.902478111375796
 40
10.00555182027151
 40
10.13213842681005
 40
10.23098799232381
 40
10.31690408426754
 40
10.4132966687586
 40
10.54091778858187
 40
10.71268560328222
 40
11.05541932865063
 40
11.38546622621656
 40
11.71168671061588
 40
11.73776271772014
 40
11.8065085546258
 40
11.90370094471948
 40
12.01511661139165
 40
12.12653227804248
 40
12.22372466808293
 40
12.29247050493203
 40
12.31854651201088
 40
12.57450146675145
 40
12.85523078890845
 40
13.14979708562983
 40
13.44715933522541
 40
13.76095786629566
 40
14.02213459674663
 40
14.23947301328956
 40
14.42411615729116
 40
14.58988918242619
 40
14.75186307400927
 40
14.92313771729626
 40
15.11260300302065
 40
15.32515996040868
 40
15.32515996040868
 40
15.32515996040868
 40
15.32515996040868
 10
33.22165975475218
 20
-391.2725470144087
 30
0.0
 10
33.22147160273008
 20
-391.2102774940278
 30
0.0
 10
33.2211214583833
 20
-391.09439531933
 30
0.0
 10
33.2126485156681
 20
-390.932183981227
 30
0.0
 10
33.19163160564958
 20
-390.7919070916499
 30
0.0
 10
33.15174560093668
 20
-390.6698668249322
 30
0.0
 10
33.08622782211472
 20
-390.564141730169
 30
0.0
 10
32.99065578605206
 20
-390.474116578995
 30
0.0
 10
32.86257876301122
 20
-390.3968366802188
 30
0.0
 10
32.69802602483749
 20
-390.3277181289726
 30
0.0
 10
32.49184750779808
 20
-390.2625550599982
 30
0.0
 10
32.27253718484373
 20
-390.2072002534487
 30
0.0
 10
32.07288398748383
 20
-390.1606067574792
 30
0.0
 10
31.92381562691867
 20
-390.1202226114336
 30
0.0
 10
31.8185633460543
 20
-390.080508866558
 30
0.0
 10
31.74696737561918
 20
-390.0271643566607
 30
0.0
 10
31.7120578062576
 20
-389.9506843089899
 30
0.0
 10
31.7029568603478
 20
-389.8549464860139
 30
0.0
 10
31.70187864226987
 20
-389.7409853712778
 30
0.0
 10
31.70506608996457
 20
-389.6248938336167
 30
0.0
 10
31.74269714376311
 20
-389.5201614762636
 30
0.0
 10
31.83331533638263
 20
-389.4573068644
 30
0.0
 10
31.9637954572217
 20
-389.4341042024991
 30
0.0
 10
32.13809657287744
 20
-389.4301013059584
 30
0.0
 10
32.34227178973092
 20
-389.4327911604896
 30
0.0
 10
32.57675355611236
 20
-389.4626362872071
 30
0.0
 10
32.78273106474735
 20
-389.4474629618041
 30
0.0
 10
33.0642488167919
 20
-389.6169339273656
 30
0.0
 10
33.07228601482731
 20
-389.4843780958264
 30
0.0
 10
33.08192638578346
 20
-389.4184698209614
 30
0.0
 10
33.09288428770117
 20
-389.3193469632213
 30
0.0
 10
33.10668054049315
 20
-389.2063498000968
 30
0.0
 10
33.11987716221196
 20
-389.0931523631738
 30
0.0
 10
33.13226142140251
 20
-388.9945059011571
 30
0.0
 10
33.13890313888461
 20
-388.927596091106
 30
0.0
 10
33.16575202132506
 20
-388.7637447148547
 30
0.0
 10
32.72927962717716
 20
-388.8546755736492
 30
0.0
 10
32.45156326349547
 20
-388.7705083034976
 30
0.0
 10
32.11845262875913
 20
-388.7705298317574
 30
0.0
 10
31.8406135970685
 20
-388.7762711026811
 30
0.0
 10
31.5976300033705
 20
-388.8060382652606
 30
0.0
 10
31.39810425769223
 20
-388.8579430701154
 30
0.0
 10
31.23705098022228
 20
-388.9352790826653
 30
0.0
 10
31.11287611797985
 20
-389.0407595388619
 30
0.0
 10
31.02483951650397
 20
-389.1743842145462
 30
0.0
 10
30.96927790066558
 20
-389.3340203433513
 30
0.0
 10
30.93997284745694
 20
-389.5196497574362
 30
0.0
 10
30.93357797611545
 20
-389.7272657282819
 30
0.0
 10
30.93777825704044
 20
-389.9358192252864
 30
0.0
 10
30.95458281514476
 20
-390.1263532244432
 30
0.0
 10
30.99062833428039
 20
-390.2859738330291
 30
0.0
 10
31.05270339785739
 20
-390.4194540080231
 30
0.0
 10
31.14713074426667
 20
-390.5283469272106
 30
0.0
 10
31.27569412129346
 20
-390.6151010387459
 30
0.0
 10
31.44040062749039
 20
-390.6861908629434
 30
0.0
 10
31.64596575520029
 20
-390.7486431853998
 30
0.0
 10
31.85986666895059
 20
-390.7973197668298
 30
0.0
 10
32.05224559083075
 20
-390.8400347280175
 30
0.0
 10
32.19525423901167
 20
-390.8779748715516
 30
0.0
 10
32.30075823839462
 20
-390.9157992848581
 30
0.0
 10
32.37615928237771
 20
-390.959164095461
 30
0.0
 10
32.42445501721971
 20
-391.0158971035012
 30
0.0
 10
32.44717241274672
 20
-391.0865555278876
 30
0.0
 10
32.45422498174192
 20
-391.171209098908
 30
0.0
 10
32.45512468250307
 20
-391.2752377962491
 30
0.0
 10
32.45204658431398
 20
-391.3847391300991
 30
0.0
 10
32.42809382105604
 20
-391.4875388921338
 30
0.0
 10
32.36879880763317
 20
-391.5646876445144
 30
0.0
 10
32.27198817487033
 20
-391.6082251167393
 30
0.0
 10
32.14090750506988
 20
-391.6276764551443
 30
0.0
 10
31.92813883419224
 20
-391.6359617921776
 30
0.0
 10
31.6351368746017
 20
-391.5995264448968
 30
0.0
 10
31.35183227552694
 20
-391.6178076267714
 30
0.0
 10
31.01853746410876
 20
-391.361585537942
 30
0.0
 10
30.99410175218896
 20
-391.5074011464789
 30
0.0
 10
30.97962643203418
 20
-391.5683194815648
 30
0.0
 10
30.96062058591191
 20
-391.6594556538946
 30
0.0
 10
30.93790559873143
 20
-391.7635171567489
 30
0.0
 10
30.91575915166377
 20
-391.8677128757171
 30
0.0
 10
30.89540090581693
 20
-391.9585297849364
 30
0.0
 10
30.88376875831308
 20
-392.0201193120826
 30
0.0
 10
30.85105799878712
 20
-392.1386843338357
 30
0.0
 10
31.16398265413499
 20
-392.1357452614249
 30
0.0
 10
31.37624974525177
 20
-392.2317122538553
 30
0.0
 10
31.6807090750702
 20
-392.26776146257
 30
0.0
 10
31.97812216199288
 20
-392.2850126709682
 30
0.0
 10
32.2703022824622
 20
-392.2735490270591
 30
0.0
 10
32.53246207494514
 20
-392.2393649162972
 30
0.0
 10
32.74632054121021
 20
-392.1792033283928
 30
0.0
 10
32.91621248514029
 20
-392.0921190049214
 30
0.0
 10
33.04477583829472
 20
-391.9764232731032
 30
0.0
 10
33.13402318257027
 20
-391.83373292302
 30
0.0
 10
33.18900542826055
 20
-391.6671683161011
 30
0.0
 10
33.21778569775091
 20
-391.477518384984
 30
0.0
 10
33.22031988032202
 20
-391.3434379440345
 30
0.0
 10
33.22165975475218
 20
-391.2725470144087
 30
0.0
 11
33.22165975475218
 21
-391.2725470144087
 31
0.0
 11
33.21944977499508
 21
-391.085760570244
 31
0.0
 11
33.20950588409906
 21
-390.9252381050394
 31
0.0
 11
33.18685715462699
 21
-390.7877888735625
 31
0.0
 11
33.14653265914181
 21
-390.6702221305812
 31
0.0
 11
33.0835614702064
 21
-390.5693471308629
 31
0.0
 11
32.99297266038368
 21
-390.4819731291753
 31
0.0
 11
32.86979530223653
 21
-390.4049093802862
 31
0.0
 11
32.70905846832787
 21
-390.3349651389631
 31
0.0
 11
32.50579123122058
 21
-390.2689496599738
 31
0.0
 11
32.25502266347758
 21
-390.2036721980858
 31
0.0
 11
32.05532546543331
 21
-390.1550751140408
 31
0.0
 11
31.910651763368
 21
-390.113731402297
 31
0.0
 11
31.81214423807685
 21
-390.0718577898188
 31
0.0
 11
31.75094557035507
 21
-390.0216710035702
 31
0.0
 11
31.71819844099785
 21
-389.9553877705154
 31
0.0
 11
31.70504553080036
 21
-389.8652248176184
 31
0.0
 11
31.70262952055782
 21
-389.7433988718431
 31
0.0
 11
31.71334856171743
 21
-389.6147016534979
 31
0.0
 11
31.75156161068473
 21
-389.5252930356601
 31
0.0
 11
31.82635255569243
 21
-389.4690324033592
 31
0.0
 11
31.94680528497323
 21
-389.4397791416239
 31
0.0
 11
32.12200368675985
 21
-389.4313926354835
 31
0.0
 11
32.34464734765731
 21
-389.4372245574821
 31
0.0
 11
32.56441289963823
 21
-389.4550384167471
 31
0.0
 11
32.79952326983505
 21
-389.4853113531814
 31
0.0
 11
33.06820138538024
 21
-389.5285205066884
 31
0.0
 11
33.07149921748942
 21
-389.5008309647468
 31
0.0
 11
33.08019350214091
 21
-389.4278312632645
 31
0.0
 11
33.09248542182059
 21
-389.324624788755
 31
0.0
 11
33.10657615901437
 21
-389.2063149277319
 31
0.0
 11
33.12066689620815
 21
-389.0880050667088
 31
0.0
 11
33.13295881588783
 21
-388.9847985921993
 31
0.0
 11
33.14165310053932
 21
-388.9117988907169
 31
0.0
 11
33.1449509326485
 21
-388.8841093487754
 31
0.0
 11
32.77477971190119
 21
-388.8186079597665
 31
0.0
 11
32.4273822777247
 21
-388.7826346741313
 31
0.0
 11
32.1118247108825
 21
-388.7716519267287
 31
0.0
 11
31.82497025543896
 21
-388.7818786925301
 31
0.0
 11
31.58589452975967
 21
-388.8133171218252
 31
0.0
 11
31.39085099727231
 21
-388.8671044124502
 31
0.0
 11
31.23609312140452
 21
-388.944377762241
 31
0.0
 11
31.11787436558399
 21
-389.0462743690338
 31
0.0
 11
31.03244819323839
 21
-389.1739314306649
 31
0.0
 11
30.97606806779537
 21
-389.3284861449702
 31
0.0
 11
30.9449874526826
 21
-389.5110757097859
 31
0.0
 11
30.93545981132775
 21
-389.7228373229482
 31
0.0
 11
30.94079650344789
 21
-389.9479483742334
 31
0.0
 11
30.95997896028276
 21
-390.1354615236818
 31
0.0
 11
30.99776575254402
 21
-390.2902184493087
 31
0.0
 11
31.05891545094333
 21
-390.4170608291292
 31
0.0
 11
31.14818662619236
 21
-390.5208303411586
 31
0.0
 11
31.27033784900279
 21
-390.6063686634122
 31
0.0
 11
31.43012769008626
 21
-390.6785174739052
 31
0.0
 11
31.63231472015445
 21
-390.7421184506528
 31
0.0
 11
31.88165750991902
 21
-390.8020132716702
 31
0.0
 11
32.06632989629867
 21
-390.8446586048598
 31
0.0
 11
32.20635057651134
 21
-390.8833522653604
 31
0.0
 11
32.3078927865792
 21
-390.9222883129282
 31
0.0
 11
32.37712976252442
 21
-390.9656608073201
 31
0.0
 11
32.42023474036915
 21
-391.0176638082924
 31
0.0
 11
32.44338095613557
 21
-391.0824913756016
 31
0.0
 11
32.45274164584583
 21
-391.1643375690045
 31
0.0
 11
32.45449004552211
 21
-391.2673964482574
 31
0.0
 11
32.44698436361418
 21
-391.3937603424721
 31
0.0
 11
32.42001420077954
 21
-391.4888594854592
 31
0.0
 11
32.36689988135186
 21
-391.5563905451268
 31
0.0
 11
32.28096172966481
 21
-391.6000501893836
 31
0.0
 11
32.15552007005209
 21
-391.6235350861381
 31
0.0
 11
31.98389522684738
 21
-391.6305419032988
 31
0.0
 11
31.6417953889333
 21
-391.6097066527985
 31
0.0
 11
31.31674195593115
 21
-391.5525120692589
 31
0.0
 11
31.00194894181914
 21
-391.4669249046219
 31
0.0
 11
30.99645372130593
 21
-391.4924153087494
 31
0.0
 11
30.9819663217711
 21
-391.5596172832674
 31
0.0
 11
30.96148413622186
 21
-391.654626971379
 31
0.0
 11
30.93800455766541
 21
-391.7635405162873
 31
0.0
 11
30.91452497910896
 21
-391.8724540611957
 31
0.0
 11
30.89404279355972
 21
-391.9674637493073
 31
0.0
 11
30.87955539402489
 21
-392.0346657238252
 31
0.0
 11
30.87406017351168
 21
-392.0601561279527
 31
0.0
 11
31.11350106676366
 21
-392.1506049947392
 31
0.0
 11
31.38552870579861
 21
-392.2199585521016
 31
0.0
 11
31.67672591675625
 21
-392.264382503778
 31
0.0
 11
31.97367552577634
 21
-392.2800425535061
 31
0.0
 11
32.28723198353822
 21
-392.2677191682092
 31
0.0
 11
32.54577065254767
 21
-392.2306915967008
 31
0.0
 11
32.75413220547381
 21
-392.1688737155546
 31
0.0
 11
32.91715731498577
 21
-392.0821794013442
 31
0.0
 11
33.03968665375267
 21
-391.9705225306434
 31
0.0
 11
33.12656089444364
 21
-391.8338169800258
 31
0.0
 11
33.1826207097278
 21
-391.671976626065
 31
0.0
 11
33.21270677227427
 21
-391.4849153453348
 31
0.0
 11
33.22165975475218
 21
-391.2725470144087
 31
0.0
  0
SPLINE
  5
204
330
4F
100
AcDbEntity
  8
0
  6
Continuous
 62
   250
100
AcDbSpline
210
0.0
220
0.0
230
1.0
 70
    11
 71
     3
 72
    23
 73
    19
 74
    17
 42
0.000000001
 43
0.0000000001
 44
0.00000001
 40
0.0
 40
0.0
 40
0.0
 40
0.0
 40
0.2941946975402892
 40
0.6338731440370395
 40
0.7916639933123335
 40
1.084704141911331
 40
1.242494991179292
 40
1.399124115900356
 40
1.743708190738182
 40
2.088292265967148
 40
2.244921391124485
 40
2.402712240365176
 40
2.695752388697272
 40
2.853543237367475
 40
3.185715256050123
 40
3.474271379348857
 40
3.609774022464301
 40
3.745276655644482
 40
3.745276655644482
 40
3.745276655644482
 40
3.745276655644482
 10
43.00052883900935
 20
-390.1320121464187
 30
0.0
 10
42.98998336921788
 20
-390.2414136601708
 30
0.0
 10
42.96726206530801
 20
-390.4771306269585
 30
0.0
 10
42.647635963827
 20
-390.5069601173518
 30
0.0
 10
42.38687010223343
 20
-390.5079234939736
 30
0.0
 10
42.20878298957116
 20
-390.4821972331273
 30
0.0
 10
41.93948946803206
 20
-390.548612568987
 30
0.0
 10
42.0113340273186
 20
-390.2596273071376
 30
0.0
 10
41.96303259923242
 20
-390.0041403055186
 30
0.0
 10
42.01133825825179
 20
-389.7486701840683
 30
0.0
 10
41.9394826084655
 20
-389.4596598128698
 30
0.0
 10
42.20881915033058
 20
-389.5261692640137
 30
0.0
 10
42.38665640309614
 20
-389.49989751393
 30
0.0
 10
42.64573137462136
 20
-389.5025658644931
 30
0.0
 10
42.95388606523917
 20
-389.5199102988195
 30
0.0
 10
43.00554685941676
 20
-389.8140774343929
 30
0.0
 10
42.99967580130281
 20
-389.9958145056103
 30
0.0
 10
43.00024449354158
 20
-390.0866129339212
 30
0.0
 10
43.00052883900935
 20
-390.1320121464187
 30
0.0
 11
43.00052883900935
 21
-390.1320121464187
 31
0.0
 11
42.91865926817809
 21
-390.414585848816
 31
0.0
 11
42.59133365815796
 21
-390.5053569441016
 31
0.0
 11
42.433542808894
 21
-390.5053569441016
 31
0.0
 11
42.14050266026095
 21
-390.5053569441016
 31
0.0
 11
41.98271181099699
 21
-390.5053569441016
 31
0.0
 11
41.98271181099699
 21
-390.3487278183588
 31
0.0
 11
41.98271181099699
 21
-390.0041437417249
 31
0.0
 11
41.98271181099699
 21
-389.6595596650909
 31
0.0
 11
41.98271181099699
 21
-389.5029305393482
 31
0.0
 11
42.14050266026095
 21
-389.5029305393482
 31
0.0
 11
42.433542808894
 21
-389.5029305393482
 31
0.0
 11
42.59133365815796
 21
-389.5029305393482
 31
0.0
 11
42.91293358892108
 21
-389.5860673961864
 31
0.0
 11
43.00052883900935
 21
-389.8610068601411
 31
0.0
 11
43.00052883900935
 21
-389.9965095032799
 31
0.0
 11
43.00052883900935
 21
-390.1320121464187
 31
0.0
  0
SPLINE
  5
205
102
{ACAD_REACTORS
330
298
102
}
330
4F
100
AcDbEntity
  8
0
  6
Continuous
 62
   250
100
AcDbSpline
210
0.0
220
0.0
230
1.0
 70
    11
 71
     3
 72
    36
 73
    32
 74
    30
 42
0.000000001
 43
0.0000000001
 44
0.00000001
 40
0.0
 40
0.0
 40
0.0
 40
0.0
 40
0.2360423476082758
 40
0.6744067261225339
 40
0.910449083659806
 40
1.280549568213424
 40
1.967879071641906
 40
2.337979573398028
 40
2.833164429268554
 40
3.378972212899725
 40
3.588679653717861
 40
3.798387094562713
 40
4.565745048787789
 40
5.477334223165768
 40
5.844619130858944
 40
6.5267196739902
 40
6.894004581950802
 40
7.426222334111393
 40
8.597101386860679
 40
9.767980438362137
 40
10.30019819007082
 40
10.68378304351011
 40
11.06736789645055
 40
11.34183931514775
 40
11.85157194770323
 40
12.12604336179089
 40
12.35105999644617
 40
12.57607662953141
 40
12.91272946798705
 40
13.53794188146389
 40
13.87459471182028
 40
13.87459471182028
 40
13.87459471182028
 40
13.87459471182028
 10
43.18464632105315
 20
-392.2289440507311
 30
0.0
 10
43.26505475316618
 20
-392.22983057741
 30
0.0
 10
43.49479313686702
 20
-392.2323635086237
 30
0.0
 10
43.7478217431059
 20
-392.2064733085134
 30
0.0
 10
44.2397335176441
 20
-392.2802334886327
 30
0.0
 10
43.70199075183061
 20
-391.7830516914771
 30
0.0
 10
43.63436368353615
 20
-391.4729227339056
 30
0.0
 10
43.09424104635224
 20
-391.0007903567266
 30
0.0
 10
43.79622670088173
 20
-390.786286499061
 30
0.0
 10
43.76580124028979
 20
-390.316554171156
 30
0.0
 10
43.7668797556146
 20
-389.9991757399695
 30
0.0
 10
43.77701255186935
 20
-389.6075736001505
 30
0.0
 10
43.60039225233569
 20
-388.8905447824302
 30
0.0
 10
42.80683100629139
 20
-388.8196578953143
 30
0.0
 10
42.1563997866575
 20
-388.8179629548146
 30
0.0
 10
41.73177163830771
 20
-388.8664997576556
 30
0.0
 10
41.06299552635299
 20
-388.7261453821744
 30
0.0
 10
41.33069422716409
 20
-389.6740193874253
 30
0.0
 10
41.13942311400349
 20
-390.5291902117506
 30
0.0
 10
41.32182708076158
 20
-391.3679500831053
 30
0.0
 10
41.07367619796937
 20
-392.3460341123233
 30
0.0
 10
41.58939943947208
 20
-392.1705038551435
 30
0.0
 10
42.05565489210574
 20
-392.3471854294933
 30
0.0
 10
41.94232097500714
 20
-391.8310493210899
 30
0.0
 10
42.03308098852426
 20
-391.5774108827729
 30
0.0
 10
41.90474209764726
 20
-391.1031901330764
 30
0.0
 10
42.21735948309653
 20
-391.1966043260775
 30
0.0
 10
42.4894650638231
 20
-391.1138898042704
 30
0.0
 10
42.66160317773006
 20
-391.5768481810713
 30
0.0
 10
42.93732627349356
 20
-391.8678823460895
 30
0.0
 10
43.12052630707239
 20
-392.1353354632531
 30
0.0
 10
43.18464632105315
 20
-392.2289440507311
 30
0.0
 11
43.18464632105315
 21
-392.2289440507311
 31
0.0
 11
43.42068867856654
 21
-392.2289440507312
 31
0.0
 11
43.85905305680569
 21
-392.2289440507311
 31
0.0
 11
44.09509541431908
 21
-392.2289440507311
 31
0.0
 11
43.88159008133248
 21
-391.9266365016949
 31
0.0
 11
43.48508017721448
 21
-391.3652081963418
 31
0.0
 11
43.27157484422787
 21
-391.0629006473055
 31
0.0
 11
43.64813111198964
 21
-390.741321075933
 31
0.0
 11
43.76765784199233
 21
-390.2087616904801
 31
0.0
 11
43.76765784199233
 21
-389.9990542494252
 31
0.0
 11
43.76765784199233
 21
-389.7893468083703
 31
0.0
 11
43.51066392575012
 21
-389.0663029943303
 31
0.0
 11
42.63221246242756
 21
-388.822750429501
 31
0.0
 11
42.26492755410059
 21
-388.822750429501
 31
0.0
 11
41.58282701006478
 21
-388.822750429501
 31
0.0
 11
41.21554210173781
 21
-388.822750429501
 31
0.0
 11
41.21554210173781
 21
-389.3549681828182
 31
0.0
 11
41.21554210173781
 21
-390.525847240116
 31
0.0
 11
41.21554210173781
 21
-391.6967262974139
 31
0.0
 11
41.21554210173781
 21
-392.2289440507311
 31
0.0
 11
41.5991269563674
 21
-392.2289440507311
 31
0.0
 11
41.98271181099699
 21
-392.2289440507311
 31
0.0
 11
41.98271181099699
 21
-391.9544726316292
 31
0.0
 11
41.98271181099699
 21
-391.4447399961543
 31
0.0
 11
41.98271181099699
 21
-391.1702685770524
 31
0.0
 11
42.20772844569001
 21
-391.1702685770524
 31
0.0
 11
42.43274508038303
 21
-391.1702685770524
 31
0.0
 11
42.62768243907529
 21
-391.4447399961543
 31
0.0
 11
42.98970896236089
 21
-391.9544726316292
 31
0.0
 11
43.18464632105315
 21
-392.2289440507311
 31
0.0
  0
SPLINE
  5
206
102
{ACAD_REACTORS
330
299
102
}
330
4F
100
AcDbEntity
  8
0
  6
Continuous
 62
   250
100
AcDbSpline
210
0.0
220
0.0
230
1.0
 70
    11
 71
     3
 72
    32
 73
    28
 74
    26
 42
0.000000001
 43
0.0000000001
 44
0.00000001
 40
0.0
 40
0.0
 40
0.0
 40
0.0
 40
0.3082471536514241
 40
0.6106913911587366
 40
0.7285233172051289
 40
0.846355243160458
 40
1.095069083788197
 40
1.304598785108429
 40
1.498512531226522
 40
1.684645772597268
 40
1.792990884780981
 40
1.901335996980326
 40
2.187078663628677
 40
2.485446095191977
 40
2.591259820895476
 40
2.824050017485013
 40
3.056840214113747
 40
3.16265393986147
 40
3.350274287234256
 40
3.797676654030808
 40
4.331673027092349
 40
4.779075390675316
 40
4.966695731070174
 40
5.077163161115432
 40
5.320191507213138
 40
5.563219853289556
 40
5.67368727337655
 40
5.67368727337655
 40
5.67368727337655
 40
5.67368727337655
 10
17.33452450697223
 20
-395.2792600120447
 30
0.0
 10
17.44446883608309
 20
-395.2659105834327
 30
0.0
 10
17.66228773586304
 20
-395.2394630468112
 30
0.0
 10
17.75707742193509
 20
-394.970456443921
 30
0.0
 10
17.74766521083492
 20
-394.792857208112
 30
0.0
 10
17.74993695868962
 20
-394.6340795597557
 30
0.0
 10
17.74729954836435
 20
-394.4174938837978
 30
0.0
 10
17.37378160395158
 20
-394.3482113450066
 30
0.0
 10
17.69381017003036
 20
-394.2462403590245
 30
0.0
 10
17.69226597554797
 20
-394.0712903182023
 30
0.0
 10
17.69123835245335
 20
-393.9383682870137
 30
0.0
 10
17.69787280679744
 20
-393.7728970566769
 30
0.0
 10
17.62708287458192
 20
-393.5154705128217
 30
0.0
 10
17.36630752721834
 20
-393.4715991964555
 30
0.0
 10
17.15797793408192
 20
-393.4769710364656
 30
0.0
 10
16.96107158095535
 20
-393.4700053745204
 30
0.0
 10
16.78903124275159
 20
-393.4886300479246
 30
0.0
 10
16.57320412656617
 20
-393.4480756641803
 30
0.0
 10
16.67274043293963
 20
-393.7955620323907
 30
0.0
 10
16.61250669947569
 20
-394.1145719294413
 30
0.0
 10
16.6128941572888
 20
-394.6396689009277
 30
0.0
 10
16.6720140688452
 20
-394.959633987266
 30
0.0
 10
16.57344547244457
 20
-395.3077127053441
 30
0.0
 10
16.79648308631571
 20
-395.2649225492508
 30
0.0
 10
16.97594067881361
 20
-395.2843629307715
 30
0.0
 10
17.18037602675085
 20
-395.2787526176941
 30
0.0
 10
17.29782248961056
 20
-395.279139204321
 30
0.0
 10
17.33452450697223
 20
-395.2792600120447
 30
0.0
 11
17.33452450697223
 21
-395.2792600120447
 31
0.0
 11
17.62910686751366
 21
-395.1884990957249
 31
0.0
 11
17.74897204333684
 21
-394.9108214849048
 31
0.0
 11
17.74897204333684
 21
-394.7929895590005
 31
0.0
 11
17.74897204333684
 21
-394.6751576330962
 31
0.0
 11
17.67042336333816
 21
-394.4391731433464
 31
0.0
 11
17.48623209117795
 21
-394.3392918568097
 31
0.0
 11
17.64401399122926
 21
-394.2265646917265
 31
0.0
 11
17.69209187821252
 21
-394.046747839001
 31
0.0
 11
17.69209187821252
 21
-393.9384027267643
 31
0.0
 11
17.69209187821252
 21
-393.8300576145275
 31
0.0
 11
17.58982871160879
 21
-393.5632409803608
 31
0.0
 11
17.30474080108979
 21
-393.4752182109078
 31
0.0
 11
17.19892707508779
 21
-393.4752182109078
 31
0.0
 11
16.9661368778834
 21
-393.4752182109078
 31
0.0
 11
16.73334668067901
 21
-393.4752182109078
 31
0.0
 11
16.62753295467701
 21
-393.4752182109078
 31
0.0
 11
16.62753295467701
 21
-393.662838558226
 31
0.0
 11
16.62753295467701
 21
-394.1102409249081
 31
0.0
 11
16.62753295467701
 21
-394.6442372980445
 31
0.0
 11
16.62753295467702
 21
-395.0916396647265
 31
0.0
 11
16.62753295467701
 21
-395.2792600120447
 31
0.0
 11
16.73800038472314
 21
-395.2792600120447
 31
0.0
 11
16.98102873082462
 21
-395.2792600120447
 31
0.0
 11
17.2240570769261
 21
-395.2792600120447
 31
0.0
 11
17.33452450697223
 21
-395.2792600120447
 31
0.0
  0
SPLINE
  5
207
330
4F
100
AcDbEntity
  8
0
  6
Continuous
 62
   250
100
AcDbSpline
210
0.0
220
0.0
230
1.0
 70
    11
 71
     3
 72
    23
 73
    19
 74
    17
 42
0.000000001
 43
0.0000000001
 44
0.00000001
 40
0.0
 40
0.0
 40
0.0
 40
0.0
 40
0.1887351654135692
 40
0.4133655715725012
 40
0.534152418889959
 40
0.7584708495392781
 40
0.8792576968397398
 40
0.9837895059797815
 40
1.213759486488608
 40
1.443729467375216
 40
1.548261276929874
 40
1.683098137691529
 40
1.933509450157717
 40
2.068346309820323
 40
2.245657668031684
 40
2.398588147212553
 40
2.513712463144446
 40
2.628836769268974
 40
2.628836769268974
 40
2.628836769268974
 40
2.628836769268974
 10
17.5322614616889
 20
-394.0386453672891
 30
0.0
 10
17.51968264074437
 20
-394.1060692009754
 30
0.0
 10
17.49213266198173
 20
-394.2537401015536
 30
0.0
 10
17.28542014885483
 20
-394.2883061244029
 30
0.0
 10
17.09630333021319
 20
-394.2864577290845
 30
0.0
 10
16.96170928147698
 20
-394.2662702421841
 30
0.0
 10
16.758944816477
 20
-394.3186849108712
 30
0.0
 10
16.80514067084337
 20
-394.1222767926573
 30
0.0
 10
16.77550762629832
 20
-393.9509507676439
 30
0.0
 10
16.80417549746615
 20
-393.7778888139429
 30
0.0
 10
16.75925340205521
 20
-393.5781751380052
 30
0.0
 10
16.98307214595737
 20
-393.6382615532726
 30
0.0
 10
17.13217357940467
 20
-393.614040642669
 30
0.0
 10
17.31876757723752
 20
-393.6135460472435
 30
0.0
 10
17.49530195564595
 20
-393.6331950447556
 30
0.0
 10
17.53897466546056
 20
-393.7983638085269
 30
0.0
 10
17.53078516152326
 20
-393.9229560843845
 30
0.0
 10
17.53176936238331
 20
-394.0000822740891
 30
0.0
 10
17.5322614616889
 20
-394.0386453672891
 30
0.0
 11
17.5322614616889
 21
-394.0386453672891
 31
0.0
 11
17.4669200160215
 21
-394.2157088046104
 31
0.0
 11
17.2532758543166
 21
-394.2850989427179
 31
0.0
 11
17.1324890070224
 21
-394.2850989427179
 31
0.0
 11
16.90817057633318
 21
-394.2850989427179
 31
0.0
 11
16.78738372903899
 21
-394.2850989427179
 31
0.0
 11
16.78738372903899
 21
-394.1805671325986
 31
0.0
 11
16.78738372903899
 21
-393.9505971503363
 31
0.0
 11
16.78738372903899
 21
-393.720627168074
 31
0.0
 11
16.78738372903899
 21
-393.6160953579547
 31
0.0
 11
16.92222058980109
 21
-393.6160953579547
 31
0.0
 11
17.17263190264499
 21
-393.6160953579547
 31
0.0
 11
17.30746876340709
 21
-393.6160953579547
 31
0.0
 11
17.47775554345935
 21
-393.6655092387654
 31
0.0
 11
17.5322614616889
 21
-393.8083967352895
 31
0.0
 11
17.5322614616889
 21
-393.9235210512893
 31
0.0
 11
17.5322614616889
 21
-394.0386453672891
 31
0.0
  0
SPLINE
  5
208
330
4F
100
AcDbEntity
  8
0
  6
Continuous
 62
   250
100
AcDbSpline
210
0.0
220
0.0
230
1.0
 70
    11
 71
     3
 72
    23
 73
    19
 74
    17
 42
0.000000001
 43
0.0000000001
 44
0.00000001
 40
0.0
 40
0.0
 40
0.0
 40
0.0
 40
0.1787220140983613
 40
0.3779063630614415
 40
0.5204649278607113
 40
0.7852165479386598
 40
0.9277751126411004
 40
1.03908867028629
 40
1.283978497554827
 40
1.528868325232807
 40
1.640181883334392
 40
1.770801629577004
 40
2.01338115799927
 40
2.144000903501531
 40
2.381868858528163
 40
2.579207079805736
 40
2.694311037745218
 40
2.809414985858405
 40
2.809414985858405
 40
2.809414985858405
 40
2.809414985858405
 10
17.58918234252633
 20
-394.9108214849048
 30
0.0
 10
17.57751025797217
 20
-394.9751459743287
 30
0.0
 10
17.55282973280401
 20
-395.1111596286502
 30
0.0
 10
17.35283620068262
 20
-395.1424402338274
 30
0.0
 10
17.15204558365335
 20
-395.1399157471487
 30
0.0
 10
16.99418282765046
 20
-395.1151288042861
 30
0.0
 10
16.75741094904897
 20
-395.1784312564441
 30
0.0
 10
16.80532679129469
 20
-394.9660272806958
 30
0.0
 10
16.77476517464327
 20
-394.781875704957
 30
0.0
 10
16.80614923567019
 20
-394.5992153888043
 30
0.0
 10
16.75713984802983
 20
-394.3895899724723
 30
0.0
 10
16.97609231126796
 20
-394.4465373841871
 30
0.0
 10
17.1211829621511
 20
-394.4241803286945
 30
0.0
 10
17.32489833545578
 20
-394.4232776240489
 30
0.0
 10
17.53868645943053
 20
-394.4534822382477
 30
0.0
 10
17.5959461902586
 20
-394.6553832691994
 30
0.0
 10
17.58787927597303
 20
-394.7952973395261
 30
0.0
 10
17.58874798773313
 20
-394.8723134375469
 30
0.0
 10
17.58918234252633
 20
-394.9108214849048
 30
0.0
 11
17.58918234252633
 21
-394.9108214849048
 31
0.0
 11
17.52720759642852
 21
-395.0784540930115
 31
0.0
 11
17.33725247876282
 21
-395.1383828649041
 31
0.0
 11
17.19469391401961
 21
-395.1383828649041
 31
0.0
 11
16.9299422937822
 21
-395.1383828649041
 31
0.0
 11
16.78738372903899
 21
-395.1383828649041
 31
0.0
 11
16.78738372903899
 21
-395.0270693062881
 31
0.0
 11
16.78738372903899
 21
-394.7821794773331
 31
0.0
 11
16.78738372903899
 21
-394.5372896483781
 31
0.0
 11
16.78738372903899
 21
-394.4259760897621
 31
0.0
 11
16.91800347531184
 21
-394.4259760897621
 31
0.0
 11
17.16058300410427
 21
-394.4259760897621
 31
0.0
 11
17.29120275037712
 21
-394.4259760897621
 31
0.0
 11
17.51840531826656
 21
-394.4964044843341
 31
0.0
 11
17.58918234252633
 21
-394.6806135689049
 31
0.0
 11
17.58918234252633
 21
-394.7957175269048
 31
0.0
 11
17.58918234252633
 21
-394.9108214849048
 31
0.0
  0
SPLINE
  5
209
102
{ACAD_REACTORS
330
29A
102
}
330
4F
100
AcDbEntity
  8
0
  6
Continuous
 62
   250
100
AcDbSpline
210
0.0
220
0.0
230
1.0
 70
    11
 71
     3
 72
    24
 73
    20
 74
    18
 42
0.000000001
 43
0.0000000001
 44
0.00000001
 40
0.0
 40
0.0
 40
0.0
 40
0.0
 40
0.1137723886458738
 40
0.325063984426965
 40
0.4388363821283933
 40
0.7669367293884364
 40
1.067197287122659
 40
1.262419653862472
 40
1.624975480858714
 40
1.820197849649495
 40
2.120443794678465
 40
2.448548538521158
 40
2.562320935356868
 40
2.773612529561098
 40
2.887384926528273
 40
3.124402583189567
 40
3.645841427846324
 40
4.167280272461187
 40
4.404297920280146
 40
4.404297920280146
 40
4.404297920280146
 40
4.404297920280146
 10
21.54923487542692
 20
-393.6187826099549
 30
0.0
 10
21.58711583679439
 20
-393.6187459926834
 30
0.0
 10
21.69534716061063
 20
-393.6186413798915
 30
0.0
 10
21.84288664184105
 20
-393.6197107493487
 30
0.0
 10
22.05594838868303
 20
-393.6157581750395
 30
0.0
 10
22.34962448898879
 20
-393.6550305825354
 30
0.0
 10
22.39493992093308
 20
-393.9714774528015
 30
0.0
 10
22.38670028511915
 20
-394.2488309238452
 30
0.0
 10
22.3866680953137
 20
-394.5056692696888
 30
0.0
 10
22.39500352898594
 20
-394.7829379617722
 30
0.0
 10
22.34922555664608
 20
-395.0998193924912
 30
0.0
 10
22.05709288286126
 20
-395.1375789320699
 30
0.0
 10
21.84112811265769
 20
-395.1365256626477
 30
0.0
 10
21.70624482478043
 20
-395.1249374072294
 30
0.0
 10
21.47919745792822
 20
-395.1646633364397
 30
0.0
 10
21.60561879769087
 20
-394.7474772534623
 30
0.0
 10
21.52916699187577
 20
-394.3973104452756
 30
0.0
 10
21.55123027110679
 20
-393.9486115933533
 30
0.0
 10
21.54970996740432
 20
-393.6973133187447
 30
0.0
 10
21.54923487542692
 20
-393.6187826099549
 30
0.0
 11
21.54923487542692
 21
-393.6187826099549
 31
0.0
 11
21.66300727314363
 21
-393.6187826099549
 31
0.0
 11
21.87429886890324
 21
-393.6187826099549
 31
0.0
 11
21.98807126661995
 21
-393.6187826099549
 31
0.0
 11
22.30227361611105
 21
-393.7132639451452
 31
0.0
 11
22.38896039446263
 21
-394.0007388286203
 31
0.0
 11
22.38896039446263
 21
-394.1959611975095
 31
0.0
 11
22.38896039446263
 21
-394.5585170254466
 31
0.0
 11
22.38896039446263
 21
-394.7537393943358
 31
0.0
 11
22.30227361611105
 21
-395.0411990093441
 31
0.0
 11
21.98807126661995
 21
-395.1356956129976
 31
0.0
 11
21.87429886890324
 21
-395.1356956129976
 31
0.0
 11
21.66300727314363
 21
-395.1356956129977
 31
0.0
 11
21.54923487542692
 21
-395.1356956129976
 31
0.0
 11
21.54923487542692
 21
-394.8986779562722
 31
0.0
 11
21.54923487542692
 21
-394.3772391114762
 31
0.0
 11
21.54923487542692
 21
-393.8558002666803
 31
0.0
 11
21.54923487542692
 21
-393.6187826099549
 31
0.0
  0
SPLINE
  5
20A
102
{ACAD_REACTORS
330
29A
102
}
330
4F
100
AcDbEntity
  8
0
  6
Continuous
 62
   250
100
AcDbSpline
210
0.0
220
0.0
230
1.0
 70
    11
 71
     3
 72
    22
 73
    18
 74
    16
 42
0.000000001
 43
0.0000000001
 44
0.00000001
 40
0.0
 40
0.0
 40
0.0
 40
0.0
 40
0.2818751606490082
 40
0.9020005335020755
 40
1.522125906386066
 40
1.804001075877636
 40
2.101970492062485
 40
2.399939908028628
 40
2.871392531335308
 40
3.270572215785726
 40
3.461582746789893
 40
3.816316589213407
 40
4.007327118691783
 40
4.406492202798074
 40
4.877949750497971
 40
5.175919168195255
 40
5.473888577503681
 40
5.473888577503681
 40
5.473888577503681
 40
5.473888577503681
 10
21.3894044589324
 20
-393.4752182109078
 30
0.0
 10
21.38982296270217
 20
-393.5687573545408
 30
0.0
 10
21.39116218415013
 20
-393.8680826206473
 30
0.0
 10
21.37172686151846
 20
-394.3949275799555
 30
0.0
 10
21.43907249223653
 20
-394.8348382587848
 30
0.0
 10
21.31024580305576
 20
-395.3638825657387
 30
0.0
 10
21.71204244088215
 20
-395.2539806351018
 30
0.0
 10
22.02387690871468
 20
-395.3011643991924
 30
0.0
 10
22.48831309674962
 20
-395.2082434005126
 30
0.0
 10
22.55500645662023
 20
-394.810689835151
 30
0.0
 10
22.54677309064006
 20
-394.5018505599823
 30
0.0
 10
22.54664394150084
 20
-394.2524945264056
 30
0.0
 10
22.55531037831854
 20
-393.9440387022019
 30
0.0
 10
22.48552356656821
 20
-393.543431896015
 30
0.0
 10
22.03412020674232
 20
-393.4635275903889
 30
0.0
 10
21.68919514733212
 20
-393.4775702713762
 30
0.0
 10
21.48933468746022
 20
-393.4760022286224
 30
0.0
 10
21.3894044589324
 20
-393.4752182109078
 30
0.0
 11
21.3894044589324
 21
-393.4752182109078
 31
0.0
 11
21.3894044589324
 21
-393.7570933804608
 31
0.0
 11
21.3894044589324
 21
-394.3772187534773
 31
0.0
 11
21.3894044589324
 21
-394.9973441264939
 31
0.0
 11
21.3894044589324
 21
-395.2792192960469
 31
0.0
 11
21.68737387688452
 21
-395.2792192960469
 31
0.0
 11
21.98534329483664
 21
-395.2792192960469
 31
0.0
 11
22.43161288292958
 21
-395.1271961608438
 31
0.0
 11
22.5487704531115
 21
-394.7455962067133
 31
0.0
 11
22.5487704531115
 21
-394.5545856754305
 31
0.0
 11
22.5487704531115
 21
-394.1998518316196
 31
0.0
 11
22.5487704531115
 21
-394.0088413003368
 31
0.0
 11
22.43161288292958
 21
-393.6272566146223
 31
0.0
 11
21.98534329483664
 21
-393.4752182109078
 31
0.0
 11
21.68737387688452
 21
-393.4752182109078
 31
0.0
 11
21.3894044589324
 21
-393.4752182109078
 31
0.0
  0
SPLINE
  5
20B
102
{ACAD_REACTORS
330
29B
102
}
330
4F
100
AcDbEntity
  8
0
  6
Continuous
 62
   250
100
AcDbSpline
210
0.0
220
0.0
230
1.0
 70
    11
 71
     3
 72
    35
 73
    31
 74
    29
 42
0.000000001
 43
0.0000000001
 44
0.00000001
 40
0.0
 40
0.0
 40
0.0
 40
0.0
 40
0.3140822580189568
 40
0.673449452488172
 40
0.8721103089857983
 40
1.076234391918628
 40
1.145933086224308
 40
1.215631780456423
 40
1.43644456069605
 40
1.651341050856158
 40
2.133622709302928
 40
2.544074375947142
 40
2.67104448493823
 40
2.950378724988733
 40
3.229712965227728
 40
3.356683074460458
 40
3.767120331488822
 40
4.249406286782042
 40
4.464303016048627
 40
4.685120710376381
 40
4.75481940493141
 40
4.824518099422188
 40
5.028639616058663
 40
5.227299499944708
 40
5.586666689198737
 40
5.900748948802255
 40
6.026866568161745
 40
6.304325330752215
 40
6.581784093340412
 40
6.707901702716777
 40
6.707901702716777
 40
6.707901702716777
 40
6.707901702716777
 10
25.80191285567707
 20
-393.9736220135756
 30
0.0
 10
25.81849880721007
 20
-393.8571314511555
 30
0.0
 10
25.85406208846608
 20
-393.6073545068863
 30
0.0
 10
26.21868842090206
 20
-393.598556723744
 30
0.0
 10
26.43323546777941
 20
-393.5735137750395
 30
0.0
 10
26.66752154414095
 20
-393.6904001348425
 30
0.0
 10
26.65955769236515
 20
-393.556920644406
 30
0.0
 10
26.70387364002034
 20
-393.4263645936803
 30
0.0
 10
26.42835566405827
 20
-393.4741447646902
 30
0.0
 10
26.17628230951544
 20
-393.426577400091
 30
0.0
 10
25.7223927551719
 20
-393.4987827892945
 30
0.0
 10
25.63684990909068
 20
-393.8788601355934
 30
0.0
 10
25.64392640781936
 20
-394.1478883347082
 30
0.0
 10
25.64081462381904
 20
-394.3772391540361
 30
0.0
 10
25.64392668006701
 20
-394.6065897197944
 30
0.0
 10
25.6368492087547
 20
-394.8756137495553
 30
0.0
 10
25.72240232866265
 20
-395.2556791685803
 30
0.0
 10
26.17627876597225
 20
-395.3278982889449
 30
0.0
 10
26.42835981474646
 20
-395.2803402171424
 30
0.0
 10
26.70387122350408
 20
-395.3280695574999
 30
0.0
 10
26.65956008868949
 20
-395.197518807114
 30
0.0
 10
26.66750544284881
 20
-395.0640277980896
 30
0.0
 10
26.433433160368
 20
-395.1810440771616
 30
0.0
 10
26.21775141453298
 20
-395.15516375738
 30
0.0
 10
25.86042308484261
 20
-395.1515693957367
 30
0.0
 10
25.79678836188876
 20
-394.8397846765618
 30
0.0
 10
25.80399004846515
 20
-394.6056875740978
 30
0.0
 10
25.80117355194027
 20
-394.3766725303871
 30
0.0
 10
25.80198636720582
 20
-394.1502389607513
 30
0.0
 10
25.80193035813905
 20
-394.0156736659223
 30
0.0
 10
25.80191285567707
 20
-393.9736220135756
 30
0.0
 11
25.80191285567707
 21
-393.9736220135756
 31
0.0
 11
25.90517865738366
 21
-393.6770013124199
 31
0.0
 11
26.25426693970803
 21
-393.5916657949092
 31
0.0
 11
26.45270115104177
 21
-393.6011526085749
 31
0.0
 11
26.65519678324927
 21
-393.6268850816705
 31
0.0
 11
26.66465305993916
 21
-393.5578308500526
 31
0.0
 11
26.67410933662904
 21
-393.4887766184347
 31
0.0
 11
26.45540621551118
 21
-393.4583261859552
 31
0.0
 11
26.24074924687739
 21
-393.4481828277649
 31
0.0
 11
25.77786755153284
 21
-393.5835938601099
 31
0.0
 11
25.64208243914618
 21
-393.9709347616654
 31
0.0
 11
25.64208243914618
 21
-394.0979048709812
 31
0.0
 11
25.64208243914618
 21
-394.3772391114762
 31
0.0
 11
25.64208243914618
 21
-394.6565733519712
 31
0.0
 11
25.64208243914618
 21
-394.7835434612871
 31
0.0
 11
25.77786755153284
 21
-395.1708690943336
 31
0.0
 11
26.24074924687739
 21
-395.3062953950957
 31
0.0
 11
26.45540621551118
 21
-395.296146947452
 31
0.0
 11
26.67410933662904
 21
-395.2656608885227
 31
0.0
 11
26.66465305993916
 21
-395.1966066569034
 31
0.0
 11
26.65519678324927
 21
-395.1275524252842
 31
0.0
 11
26.45270115104177
 21
-395.1532645404292
 31
0.0
 11
26.25426693970803
 21
-395.162730996145
 31
0.0
 11
25.90517865738366
 21
-395.0773954786325
 31
0.0
 11
25.80191285567707
 21
-394.7807747774778
 31
0.0
 11
25.80191285567707
 21
-394.654657158118
 31
0.0
 11
25.80191285567707
 21
-394.3771983955267
 31
0.0
 11
25.80191285567707
 21
-394.0997396329353
 31
0.0
 11
25.80191285567707
 21
-393.9736220135756
 31
0.0
  0
TEXT
  5
20D
330
4F
100
AcDbEntity
  8
1
 62
     2
100
AcDbText
 10
-54.42823196740937
 20
-345.5044843907936
 30
0.0
 40
1.8
  1
x
 41
0.72
  7
CONVERTER_11
100
AcDbText
  0
TEXT
  5
20E
330
4F
100
AcDbEntity
  8
1
 62
     2
100
AcDbText
 10
-54.42823196740937
 20
-349.8378177207933
 30
0.0
 40
1.8
  1
x
 41
0.72
  7
CONVERTER_11
100
AcDbText
  0
TEXT
  5
20F
330
4F
100
AcDbEntity
  8
1
 62
     2
100
AcDbText
 10
-54.42823196740937
 20
-354.171151050793
 30
0.0
 40
1.8
  1
x
 41
0.72
  7
CONVERTER_11
100
AcDbText
  0
TEXT
  5
210
330
4F
100
AcDbEntity
  8
1
 62
     2
100
AcDbText
 10
-54.42823196740937
 20
-358.5044843807928
 30
0.0
 40
1.8
  1
x
 41
0.72
  7
CONVERTER_11
100
AcDbText
  0
TEXT
  5
211
330
4F
100
AcDbEntity
  8
1
 62
     2
100
AcDbText
 10
-54.42823196740937
 20
-362.8378177107925
 30
0.0
 40
1.8
  1
x
 41
0.72
  7
CONVERTER_11
100
AcDbText
  0
TEXT
  5
212
330
4F
100
AcDbEntity
  8
1
 62
     2
100
AcDbText
 10
-54.42823196740937
 20
-367.1711510407922
 30
0.0
 40
1.8
  1
x
 41
0.72
  7
CONVERTER_11
100
AcDbText
  0
TEXT
  5
213
330
4F
100
AcDbEntity
  8
1
 62
     2
100
AcDbText
 10
-54.42823196740937
 20
-371.5044843707919
 30
0.0
 40
1.8
  1
x
 41
0.72
  7
CONVERTER_11
100
AcDbText
  0
TEXT
  5
214
330
4F
100
AcDbEntity
  8
1
 62
     2
100
AcDbText
 10
-54.42823196740937
 20
-375.8378177007917
 30
0.0
 40
1.8
  1
x
 41
0.72
  7
CONVERTER_11
100
AcDbText
  0
TEXT
  5
215
330
4F
100
AcDbEntity
  8
1
 62
     2
100
AcDbText
 10
-54.42823196740937
 20
-380.1711510307914
 30
0.0
 40
1.8
  1
x
 41
0.72
  7
CONVERTER_11
100
AcDbText
  0
TEXT
  5
216
330
4F
100
AcDbEntity
  8
1
 62
     2
100
AcDbText
 10
-54.42823196740937
 20
-384.5044843607911
 30
0.0
 40
1.8
  1
x
 41
0.72
  7
CONVERTER_11
100
AcDbText
  0
MTEXT
  5
218
330
4F
100
AcDbEntity
  8
1
 62
     2
100
AcDbMText
 10
-271.7268430785189
 20
-131.1182156066507
 30
0.0
 40
2.5
 41
0.0
 71
     7
 72
     1
  1
W10/ME10
  7
CONVERTER_12
 11
6.123031769111886E-17
 21
1.0
 31
0.0
 73
     1
 44
0.90036014405762
  0
TEXT
  5
219
330
4F
100
AcDbEntity
  8
1
 62
     2
100
AcDbText
 10
48.77319728882139
 20
-388.536215223201
 30
0.0
 40
1.8
  1
Zeichnungs-Nr.:
 41
0.9
  7
CONVERTER_12
100
AcDbText
  0
MTEXT
  5
21A
330
4F
100
AcDbEntity
  8
1
 62
     2
100
AcDbMText
 10
-271.3537088066369
 20
-397.8075695676189
 30
0.0
 40
3.5
 41
0.0
 71
     7
 72
     1
  1
Schutzvermerk ISO 16016 beachten
  7
CONVERTER_12
 11
6.123031769111886E-17
 21
1.0
 31
0.0
 73
     1
 44
0.90036014405762
  0
TEXT
  5
21B
330
4F
100
AcDbEntity
  8
1
 62
     2
100
AcDbText
 10
48.77319728882139
 20
-375.80907785404
 30
0.0
 40
1.8
  1
Dokumenttype:
 41
0.9
  7
CONVERTER_12
100
AcDbText
  0
TEXT
  5
21C
330
4F
100
AcDbEntity
  8
1
 62
     2
100
AcDbText
 10
35.91918355639064
 20
-363.1976304213895
 30
0.0
 40
2.5
  1
Lier.
 41
0.72
  7
CONVERTER_11
100
AcDbText
  0
TEXT
  5
21E
330
4F
100
AcDbEntity
  8
1
 62
     2
100
AcDbText
 10
20.9361353211134
 20
-363.1976304213895
 30
0.0
 40
2.5
  1
10.11.14
 41
0.81
  7
CONVERTER_13
100
AcDbText
  0
TEXT
  5
21F
330
4F
100
AcDbEntity
  8
1
 62
     2
100
AcDbText
 10
-8.38722207127284
 20
-393.5766692512843
 30
0.0
 40
1.8
  1
04.01.12
 41
0.81
  7
CONVERTER_13
100
AcDbText
  0
TEXT
  5
220
330
4F
100
AcDbEntity
  8
1
 62
     2
100
AcDbText
 10
-56.67823196740937
 20
-393.1711510207897
 30
0.0
 40
2.0
  1
-
 41
0.72
  7
CONVERTER_11
100
AcDbText
  0
TEXT
  5
221
330
4F
100
AcDbEntity
  8
1
 62
     2
100
AcDbText
 10
12.21000221363647
 20
-383.6789359568065
 30
0.0
 40
2.5
  1
-
 41
0.9
  7
CONVERTER_12
100
AcDbText
  0
MTEXT
  5
222
330
4F
100
AcDbEntity
  8
1
 62
     2
100
AcDbMText
 10
121.5565817455863
 20
-339.2443453786482
 30
0.0
 40
2.5
 41
0.0
 71
     1
 72
     1
  1
 
  7
CONVERTER_12
 73
     1
 44
0.90036014405762
  0
TEXT
  5
223
330
4F
100
AcDbEntity
  8
1
 62
     2
100
AcDbText
 10
12.22831889545341
 20
-358.4807378994392
 30
0.0
 40
1.8
  1
Gez.
 41
0.9
  7
CONVERTER_12
100
AcDbText
  0
TEXT
  5
224
330
4F
100
AcDbEntity
  8
1
 62
     2
100
AcDbText
 10
12.25670975224057
 20
-362.7906304213893
 30
0.0
 40
1.8
  1
Gepr.
 41
0.9
  7
CONVERTER_12
100
AcDbText
  0
TEXT
  5
225
330
4F
100
AcDbEntity
  8
1
 62
     2
100
AcDbText
 10
23.66983418457676
 20
-354.1653276663183
 30
0.0
 40
1.8
  1
Datum
 41
0.9
  7
CONVERTER_12
100
AcDbText
  0
TEXT
  5
226
330
4F
100
AcDbEntity
  8
1
 62
     2
100
AcDbText
 10
37.53382146885997
 20
-354.2505002367079
 30
0.0
 40
1.8
  1
Name
 41
0.9
  7
CONVERTER_12
100
AcDbText
  0
TEXT
  5
227
330
4F
100
AcDbEntity
  8
1
 62
     2
100
AcDbText
 10
12.21000221363647
 20
-366.9366340544502
 30
0.0
 40
1.8
  1
Freig:
 41
0.9
  7
CONVERTER_12
100
AcDbText
  0
MTEXT
  5
228
330
4F
100
AcDbEntity
  8
1
 62
     2
100
AcDbMText
 10
12.21000221363647
 20
-379.6242967853004
 30
0.0
 40
1.8
 41
0.0
 71
     7
 72
     1
  1
Ersatz f\U+00fcr/durch:
  7
CONVERTER_12
 73
     1
 44
1.32052821128451
  0
TEXT
  5
22A
330
4F
100
AcDbEntity
  8
1
 62
     2
100
AcDbText
 10
12.21000221363647
 20
-345.5686983394407
 30
0.0
 40
1.8
  1
Zul. Abweichung nach DIN:
 41
0.855
  7
CONVERTER_14
100
AcDbText
  0
TEXT
  5
22B
330
4F
100
AcDbEntity
  8
1
 62
     2
100
AcDbText
 10
49.27319728882139
 20
-345.647765349232
 30
0.0
 40
1.8
  1
Werkstoff:
 41
0.9
  7
CONVERTER_12
100
AcDbText
  0
TEXT
  5
22C
330
4F
100
AcDbEntity
  8
1
 62
     2
100
AcDbText
 10
49.27319728882139
 20
-353.8707343672968
 30
0.0
 40
1.8
  1
Benennung, Type:
 41
0.9
  7
CONVERTER_12
100
AcDbText
  0
TEXT
  5
22D
330
4F
100
AcDbEntity
  8
1
 62
     2
100
AcDbText
 10
48.77319728882139
 20
-379.6666579418252
 30
0.0
 40
1.8
  1
Verkaufs-Nr.:
 41
0.9
  7
CONVERTER_12
100
AcDbText
  0
MTEXT
  5
22E
330
4F
100
AcDbEntity
  8
1
 62
     2
100
AcDbMText
 10
106.3192816565716
 20
-345.647765349232
 30
0.0
 40
1.8
 41
0.0
 71
     7
 72
     1
  1
Ma\U+00dfstab:
  7
CONVERTER_12
 73
     1
 44
1.32052821128451
  0
TEXT
  5
22F
330
4F
100
AcDbEntity
  8
1
 62
     2
100
AcDbText
 10
-56.18540347815724
 20
-397.2479949384951
 30
0.0
 40
1.8
  1
Zust.
 41
0.9
  7
CONVERTER_12
100
AcDbText
  0
MTEXT
  5
230
330
4F
100
AcDbEntity
  8
1
 62
     2
100
AcDbMText
 10
-36.05262267281796
 20
-397.3295041725241
 30
0.0
 40
1.8
 41
0.0
 71
     7
 72
     1
  1
\U+00c4nderung
  7
CONVERTER_12
 73
     1
 44
1.32052821128451
  0
TEXT
  5
231
330
4F
100
AcDbEntity
  8
1
 62
     2
100
AcDbText
 10
-6.30175225198764
 20
-397.3295041725241
 30
0.0
 40
1.8
  1
Datum
 41
0.9
  7
CONVERTER_12
100
AcDbText
  0
TEXT
  5
232
330
4F
100
AcDbEntity
  8
1
 62
     2
100
AcDbText
 10
3.72388353364658
 20
-397.3295041725241
 30
0.0
 40
1.8
  1
Name
 41
0.9
  7
CONVERTER_12
100
AcDbText
  0
MTEXT
  5
233
330
4F
100
AcDbEntity
  8
1
 62
     3
100
AcDbMText
 10
73.8734226039378
 20
-382.6632655988169
 30
0.0
 40
3.5
 41
0.0
 71
     5
 72
     1
  1
-
  7
CONVERTER_12
 73
     1
 44
1.32052821128451
  0
MTEXT
  5
234
330
4F
100
AcDbEntity
  8
1
 62
     7
100
AcDbMText
 10
80.46521597180981
 20
-393.4129108211437
 30
0.0
 40
5.0
 41
0.0
 71
     5
 72
     1
  1
5 400640 0 00000
  7
CONVERTER_13
 73
     1
 44
1.32052821128451
  0
MTEXT
  5
235
330
4F
100
AcDbEntity
  8
1
 62
     7
100
AcDbMText
 10
49.5116950233205
 20
-361.3916438585547
 30
0.0
 40
5.0
 41
0.0
 71
     7
 72
     1
  1
Fr\U+00e4sbild Blockzarge
  7
CONVERTER_13
 73
     1
 44
1.32052821128451
  0
TEXT
  5
236
330
4F
100
AcDbEntity
  8
1
 62
     2
100
AcDbText
 10
49.29553783332085
 20
-349.7807003580483
 30
0.0
 40
2.5
  1
-
 41
0.9
  7
CONVERTER_12
100
AcDbText
  0
TEXT
  5
237
330
4F
100
AcDbEntity
  8
1
 62
     2
100
AcDbText
 10
3.59205849088175
 20
-393.5766692512843
 30
0.0
 40
1.8
  1
Kerst.
 41
0.72
  7
CONVERTER_11
100
AcDbText
  0
TEXT
  5
238
330
4F
100
AcDbEntity
  8
1
 62
     2
100
AcDbText
 10
35.91918355639064
 20
-359.0644843541904
 30
0.0
 40
2.5
  1
Kerst.
 41
0.72
  7
CONVERTER_11
100
AcDbText
  0
TEXT
  5
239
330
4F
100
AcDbEntity
  8
1
 62
     2
100
AcDbText
 10
20.9361353211134
 20
-359.0644843541904
 30
0.0
 40
2.5
  1
04.01.12
 41
0.81
  7
CONVERTER_13
100
AcDbText
  0
TEXT
  5
23A
330
4F
100
AcDbEntity
  8
1
 62
     2
100
AcDbText
 10
-54.42823196740937
 20
-393.1711510207897
 30
0.0
 40
1.8
  1
x
 41
0.72
  7
CONVERTER_11
100
AcDbText
  0
TEXT
  5
23B
330
4F
100
AcDbEntity
  8
1
 62
     2
100
AcDbText
 10
-51.92823196740937
 20
-393.1711510207897
 30
0.0
 40
2.0
  1
 
 41
0.72
  7
CONVERTER_11
100
AcDbText
  0
MTEXT
  5
23C
330
4F
100
AcDbEntity
  8
1
 62
     2
100
AcDbMText
 10
113.5660673869788
 20
-387.4843179580894
 30
0.0
 40
2.0
 41
0.0
 71
     4
 72
     1
  1
Blatt:
  7
CONVERTER_12
 73
     1
 44
1.32052821128451
  0
MTEXT
  5
23D
330
4F
100
AcDbEntity
  8
1
 62
     2
100
AcDbMText
 10
113.5660673869788
 20
-378.7689513114892
 30
0.0
 40
2.0
 41
0.0
 71
     4
 72
     1
  1
Format:
  7
CONVERTER_12
 73
     1
 44
1.32052821128451
  0
MTEXT
  5
23E
330
4F
100
AcDbEntity
  8
1
 62
     2
100
AcDbMText
 10
101.0660673869788
 20
-378.8189513114894
 30
0.0
 40
2.0
 41
0.0
 71
     4
 72
     1
  1
Proj.-M.
  7
CONVERTER_12
 73
     1
 44
1.32052821128451
  0
MTEXT
  5
23F
330
4F
100
AcDbEntity
  8
1
 62
     2
100
AcDbMText
 10
118.8169298734865
 20
-382.6650999253325
 30
0.0
 40
2.5
 41
0.0
 71
     5
 72
     1
  1
A3
  7
CONVERTER_12
 73
     1
 44
1.32052821128451
  0
MTEXT
  5
240
330
4F
100
AcDbEntity
  8
1
 62
     2
100
AcDbMText
 10
69.45317073140177
 20
-375.8059032003357
 30
0.0
 40
2.0
 41
0.0
 71
     7
 72
     1
  1
Bohr-/Fr\U+00e4sbild
  7
CONVERTER_12
 73
     1
 44
1.32052821128451
  0
TEXT
  5
241
330
4F
100
AcDbEntity
  8
1
 62
     2
100
AcDbText
 10
20.9361353211134
 20
-367.5309637547889
 30
0.0
 40
2.5
  1
-
 41
0.81
  7
CONVERTER_13
100
AcDbText
  0
TEXT
  5
242
330
4F
100
AcDbEntity
  8
1
 62
     2
100
AcDbText
 10
35.91918355639064
 20
-367.5329304213892
 30
0.0
 40
2.5
  1
-
 41
0.72
  7
CONVERTER_11
100
AcDbText
  0
TEXT
  5
243
330
4F
100
AcDbEntity
  8
1
 62
     2
100
AcDbText
 10
12.21000221363647
 20
-371.2696340544499
 30
0.0
 40
1.8
  1
Lebenszyklusphase:
 41
0.9
  7
CONVERTER_12
100
AcDbText
  0
TEXT
  5
244
330
4F
100
AcDbEntity
  8
1
 62
     2
100
AcDbText
 10
12.21000221363647
 20
-375.0122693102057
 30
0.0
 40
2.5
  1
Serie
 41
0.9
  7
CONVERTER_12
100
AcDbText
  0
TEXT
  5
245
330
4F
100
AcDbEntity
  8
1
 62
     2
100
AcDbText
 10
-56.67823196740937
 20
-388.8378176907909
 30
0.0
 40
2.0
  1
a
 41
0.72
  7
CONVERTER_11
100
AcDbText
  0
TEXT
  5
246
330
4F
100
AcDbEntity
  8
1
 62
     2
100
AcDbText
 10
-56.67823196740937
 20
-384.5044843607911
 30
0.0
 40
2.0
  1
b
 41
0.72
  7
CONVERTER_11
100
AcDbText
  0
TEXT
  5
247
330
4F
100
AcDbEntity
  8
1
 62
     2
100
AcDbText
 10
-56.67823196740937
 20
-380.1711510307914
 30
0.0
 40
2.0
  1
-
 41
0.72
  7
CONVERTER_11
100
AcDbText
  0
TEXT
  5
248
330
4F
100
AcDbEntity
  8
1
 62
     2
100
AcDbText
 10
-56.67823196740937
 20
-375.8378177007908
 30
0.0
 40
2.0
  1
-
 41
0.72
  7
CONVERTER_11
100
AcDbText
  0
TEXT
  5
249
330
4F
100
AcDbEntity
  8
1
 62
     2
100
AcDbText
 10
-56.67823196740937
 20
-371.504484370791
 30
0.0
 40
2.0
  1
-
 41
0.72
  7
CONVERTER_11
100
AcDbText
  0
TEXT
  5
24A
330
4F
100
AcDbEntity
  8
1
 62
     2
100
AcDbText
 10
-56.67823196740937
 20
-367.1711510407913
 30
0.0
 40
2.0
  1
-
 41
0.72
  7
CONVERTER_11
100
AcDbText
  0
TEXT
  5
24B
330
4F
100
AcDbEntity
  8
1
 62
     2
100
AcDbText
 10
-56.67823196740937
 20
-362.8378177107907
 30
0.0
 40
2.0
  1
-
 41
0.72
  7
CONVERTER_11
100
AcDbText
  0
TEXT
  5
24C
330
4F
100
AcDbEntity
  8
1
 62
     2
100
AcDbText
 10
-56.67823196740937
 20
-358.5044843807909
 30
0.0
 40
2.0
  1
-
 41
0.72
  7
CONVERTER_11
100
AcDbText
  0
TEXT
  5
24D
330
4F
100
AcDbEntity
  8
1
 62
     2
100
AcDbText
 10
-56.67823196740937
 20
-354.1711510507912
 30
0.0
 40
2.0
  1
-
 41
0.72
  7
CONVERTER_11
100
AcDbText
  0
TEXT
  5
24E
330
4F
100
AcDbEntity
  8
1
 62
     2
100
AcDbText
 10
-56.67823196740937
 20
-349.8378177207915
 30
0.0
 40
2.0
  1
-
 41
0.72
  7
CONVERTER_11
100
AcDbText
  0
TEXT
  5
24F
330
4F
100
AcDbEntity
  8
1
 62
     2
100
AcDbText
 10
-56.67823196740937
 20
-345.5044843907908
 30
0.0
 40
2.0
  1
-
 41
0.72
  7
CONVERTER_11
100
AcDbText
  0
TEXT
  5
250
330
4F
100
AcDbEntity
  8
1
 62
     2
100
AcDbText
 10
-54.42823196740937
 20
-388.8378176907909
 30
0.0
 40
1.8
  1
x
 41
0.72
  7
CONVERTER_11
100
AcDbText
  0
TEXT
  5
251
330
4F
100
AcDbEntity
  8
1
 62
     2
100
AcDbText
 10
-51.92823196740937
 20
-388.8378176907909
 30
0.0
 40
2.0
  1
0
 41
0.72
  7
CONVERTER_11
100
AcDbText
  0
TEXT
  5
252
330
4F
100
AcDbEntity
  8
1
 62
     2
100
AcDbText
 10
-51.92823196740937
 20
-384.5044843607911
 30
0.0
 40
2.0
  1
2
 41
0.72
  7
CONVERTER_11
100
AcDbText
  0
TEXT
  5
253
330
4F
100
AcDbEntity
  8
1
 62
     2
100
AcDbText
 10
-51.92823196740937
 20
-380.1711510307914
 30
0.0
 40
2.0
  1
-
 41
0.72
  7
CONVERTER_11
100
AcDbText
  0
TEXT
  5
254
330
4F
100
AcDbEntity
  8
1
 62
     2
100
AcDbText
 10
-51.92823196740937
 20
-375.8378177007908
 30
0.0
 40
2.0
  1
-
 41
0.72
  7
CONVERTER_11
100
AcDbText
  0
TEXT
  5
255
330
4F
100
AcDbEntity
  8
1
 62
     2
100
AcDbText
 10
-51.92823196740937
 20
-371.504484370791
 30
0.0
 40
2.0
  1
-
 41
0.72
  7
CONVERTER_11
100
AcDbText
  0
TEXT
  5
256
330
4F
100
AcDbEntity
  8
1
 62
     2
100
AcDbText
 10
-51.92823196740937
 20
-367.1711510407913
 30
0.0
 40
2.0
  1
-
 41
0.72
  7
CONVERTER_11
100
AcDbText
  0
TEXT
  5
257
330
4F
100
AcDbEntity
  8
1
 62
     2
100
AcDbText
 10
-51.92823196740937
 20
-362.8378177107907
 30
0.0
 40
2.0
  1
-
 41
0.72
  7
CONVERTER_11
100
AcDbText
  0
TEXT
  5
258
330
4F
100
AcDbEntity
  8
1
 62
     2
100
AcDbText
 10
-51.92823196740937
 20
-358.5044843807909
 30
0.0
 40
2.0
  1
-
 41
0.72
  7
CONVERTER_11
100
AcDbText
  0
TEXT
  5
259
330
4F
100
AcDbEntity
  8
1
 62
     2
100
AcDbText
 10
-51.92823196740937
 20
-354.1711510507912
 30
0.0
 40
2.0
  1
-
 41
0.72
  7
CONVERTER_11
100
AcDbText
  0
TEXT
  5
25A
330
4F
100
AcDbEntity
  8
1
 62
     2
100
AcDbText
 10
-51.92823196740937
 20
-349.8378177207915
 30
0.0
 40
2.0
  1
-
 41
0.72
  7
CONVERTER_11
100
AcDbText
  0
TEXT
  5
25B
330
4F
100
AcDbEntity
  8
1
 62
     2
100
AcDbText
 10
-51.92823196740937
 20
-345.5044843907908
 30
0.0
 40
2.0
  1
-
 41
0.72
  7
CONVERTER_11
100
AcDbText
  0
MTEXT
  5
25C
330
4F
100
AcDbEntity
  8
1
 62
     2
100
AcDbMText
 10
-48.17823196740937
 20
-388.8378176907909
 30
0.0
 40
2.0
 41
0.0
 71
     7
 72
     1
  1
Zeichnung \U+00fcberarbeitet
  7
CONVERTER_11
 73
     1
 44
1.32052821128451
  0
MTEXT
  5
25D
330
4F
100
AcDbEntity
  8
1
 62
     2
100
AcDbMText
 10
-48.17823196740937
 20
-384.5044843607911
 30
0.0
 40
2.0
 41
0.0
 71
     7
 72
     1
  1
Ma\U+00df 88/7.5 war 92/7
  7
CONVERTER_11
 73
     1
 44
1.32052821128451
  0
TEXT
  5
25E
330
4F
100
AcDbEntity
  8
1
 62
     2
100
AcDbText
 10
-48.17823196740937
 20
-380.1711510307914
 30
0.0
 40
2.0
  1
-
 41
0.72
  7
CONVERTER_11
100
AcDbText
  0
TEXT
  5
25F
330
4F
100
AcDbEntity
  8
1
 62
     2
100
AcDbText
 10
-48.17823196740937
 20
-375.8378177007908
 30
0.0
 40
2.0
  1
-
 41
0.72
  7
CONVERTER_11
100
AcDbText
  0
TEXT
  5
260
330
4F
100
AcDbEntity
  8
1
 62
     2
100
AcDbText
 10
-48.17823196740937
 20
-371.504484370791
 30
0.0
 40
2.0
  1
-
 41
0.72
  7
CONVERTER_11
100
AcDbText
  0
TEXT
  5
261
330
4F
100
AcDbEntity
  8
1
 62
     2
100
AcDbText
 10
-48.17823196740937
 20
-367.1711510407913
 30
0.0
 40
2.0
  1
-
 41
0.72
  7
CONVERTER_11
100
AcDbText
  0
TEXT
  5
262
330
4F
100
AcDbEntity
  8
1
 62
     2
100
AcDbText
 10
-48.17823196740937
 20
-362.8378177107907
 30
0.0
 40
2.0
  1
-
 41
0.72
  7
CONVERTER_11
100
AcDbText
  0
TEXT
  5
263
330
4F
100
AcDbEntity
  8
1
 62
     2
100
AcDbText
 10
-48.17823196740937
 20
-358.5044843807909
 30
0.0
 40
2.0
  1
-
 41
0.72
  7
CONVERTER_11
100
AcDbText
  0
TEXT
  5
264
330
4F
100
AcDbEntity
  8
1
 62
     2
100
AcDbText
 10
-48.17823196740937
 20
-354.1711510507912
 30
0.0
 40
2.0
  1
-
 41
0.72
  7
CONVERTER_11
100
AcDbText
  0
TEXT
  5
265
330
4F
100
AcDbEntity
  8
1
 62
     2
100
AcDbText
 10
-48.17823196740937
 20
-349.8378177207915
 30
0.0
 40
2.0
  1
-
 41
0.72
  7
CONVERTER_11
100
AcDbText
  0
TEXT
  5
266
330
4F
100
AcDbEntity
  8
1
 62
     2
100
AcDbText
 10
-48.17823196740937
 20
-345.5044843907908
 30
0.0
 40
2.0
  1
-
 41
0.72
  7
CONVERTER_11
100
AcDbText
  0
TEXT
  5
267
330
4F
100
AcDbEntity
  8
1
 62
     2
100
AcDbText
 10
-8.38722207127284
 20
-389.2433359212837
 30
0.0
 40
1.8
  1
17.12.13
 41
0.81
  7
CONVERTER_13
100
AcDbText
  0
TEXT
  5
268
330
4F
100
AcDbEntity
  8
1
 62
     2
100
AcDbText
 10
-8.38722207127284
 20
-384.910002591284
 30
0.0
 40
1.8
  1
01.10.14
 41
0.81
  7
CONVERTER_13
100
AcDbText
  0
TEXT
  5
269
330
4F
100
AcDbEntity
  8
1
 62
     2
100
AcDbText
 10
-8.38722207127284
 20
-380.5766692612842
 30
0.0
 40
1.8
  1
-
 41
0.81
  7
CONVERTER_13
100
AcDbText
  0
TEXT
  5
26A
330
4F
100
AcDbEntity
  8
1
 62
     2
100
AcDbText
 10
-8.38722207127284
 20
-376.2433359312827
 30
0.0
 40
1.8
  1
-
 41
0.81
  7
CONVERTER_13
100
AcDbText
  0
TEXT
  5
26B
330
4F
100
AcDbEntity
  8
1
 62
     2
100
AcDbText
 10
-8.38722207127284
 20
-371.9100026012839
 30
0.0
 40
1.8
  1
-
 41
0.81
  7
CONVERTER_13
100
AcDbText
  0
TEXT
  5
26C
330
4F
100
AcDbEntity
  8
1
 62
     2
100
AcDbText
 10
-8.38722207127284
 20
-367.5766692712841
 30
0.0
 40
1.8
  1
-
 41
0.81
  7
CONVERTER_13
100
AcDbText
  0
TEXT
  5
26D
330
4F
100
AcDbEntity
  8
1
 62
     2
100
AcDbText
 10
-8.38722207127284
 20
-363.2433359412844
 30
0.0
 40
1.8
  1
-
 41
0.81
  7
CONVERTER_13
100
AcDbText
  0
MTEXT
  5
26E
330
4F
100
AcDbEntity
  8
1
 62
     2
100
AcDbMText
 10
-8.38722207127284
 20
-358.9100026112837
 30
0.0
 40
1.88
 41
0.0
 71
     7
 72
     1
  1
-
  7
CONVERTER_13
 73
     1
 44
1.32052821128451
  0
TEXT
  5
26F
330
4F
100
AcDbEntity
  8
1
 62
     2
100
AcDbText
 10
-8.38722207127284
 20
-354.576669281284
 30
0.0
 40
1.8
  1
-
 41
0.81
  7
CONVERTER_13
100
AcDbText
  0
TEXT
  5
270
330
4F
100
AcDbEntity
  8
1
 62
     2
100
AcDbText
 10
-8.38722207127284
 20
-350.2433359512843
 30
0.0
 40
1.8
  1
-
 41
0.81
  7
CONVERTER_13
100
AcDbText
  0
TEXT
  5
271
330
4F
100
AcDbEntity
  8
1
 62
     2
100
AcDbText
 10
-8.38722207127284
 20
-345.9100026212846
 30
0.0
 40
1.8
  1
-
 41
0.81
  7
CONVERTER_13
100
AcDbText
  0
TEXT
  5
272
330
4F
100
AcDbEntity
  8
1
 62
     2
100
AcDbText
 10
3.59205849088175
 20
-389.2433359212837
 30
0.0
 40
1.8
  1
Kirsch.
 41
0.72
  7
CONVERTER_11
100
AcDbText
  0
TEXT
  5
273
330
4F
100
AcDbEntity
  8
1
 62
     2
100
AcDbText
 10
3.59205849088175
 20
-384.910002591284
 30
0.0
 40
1.8
  1
Kirsch.
 41
0.72
  7
CONVERTER_11
100
AcDbText
  0
TEXT
  5
274
330
4F
100
AcDbEntity
  8
1
 62
     2
100
AcDbText
 10
3.59205849088175
 20
-380.5766692612842
 30
0.0
 40
1.8
  1
-
 41
0.72
  7
CONVERTER_11
100
AcDbText
  0
TEXT
  5
275
330
4F
100
AcDbEntity
  8
1
 62
     2
100
AcDbText
 10
3.59205849088175
 20
-376.2433359312827
 30
0.0
 40
1.8
  1
-
 41
0.72
  7
CONVERTER_11
100
AcDbText
  0
TEXT
  5
276
330
4F
100
AcDbEntity
  8
1
 62
     2
100
AcDbText
 10
3.59205849088175
 20
-371.9100026012839
 30
0.0
 40
1.8
  1
-
 41
0.72
  7
CONVERTER_11
100
AcDbText
  0
TEXT
  5
277
330
4F
100
AcDbEntity
  8
1
 62
     2
100
AcDbText
 10
3.59205849088175
 20
-367.5766692712841
 30
0.0
 40
1.8
  1
-
 41
0.72
  7
CONVERTER_11
100
AcDbText
  0
TEXT
  5
278
330
4F
100
AcDbEntity
  8
1
 62
     2
100
AcDbText
 10
3.59205849088175
 20
-363.2433359412844
 30
0.0
 40
1.8
  1
-
 41
0.72
  7
CONVERTER_11
100
AcDbText
  0
TEXT
  5
279
330
4F
100
AcDbEntity
  8
1
 62
     2
100
AcDbText
 10
3.59205849088175
 20
-358.9100026112837
 30
0.0
 40
1.8
  1
-
 41
0.72
  7
CONVERTER_11
100
AcDbText
  0
TEXT
  5
27A
330
4F
100
AcDbEntity
  8
1
 62
     2
100
AcDbText
 10
3.59205849088175
 20
-354.576669281284
 30
0.0
 40
1.8
  1
-
 41
0.72
  7
CONVERTER_11
100
AcDbText
  0
TEXT
  5
27B
330
4F
100
AcDbEntity
  8
1
 62
     2
100
AcDbText
 10
3.59205849088175
 20
-350.2433359512843
 30
0.0
 40
1.8
  1
-
 41
0.72
  7
CONVERTER_11
100
AcDbText
  0
TEXT
  5
27C
330
4F
100
AcDbEntity
  8
1
 62
     2
100
AcDbText
 10
3.59205849088175
 20
-345.9100026212846
 30
0.0
 40
1.8
  1
-
 41
0.72
  7
CONVERTER_11
100
AcDbText
  0
TEXT
  5
27D
330
4F
100
AcDbEntity
  8
1
 62
     2
100
AcDbText
 10
-56.4434182544137
 20
-341.2443453786482
 30
0.0
 40
2.5
  1
Standard
 41
0.9
  7
CONVERTER_12
100
AcDbText
  0
TEXT
  5
27E
330
4F
100
AcDbEntity
  8
1
 62
     3
100
AcDbText
 10
49.5116950233205
 20
-370.1226438585572
 30
0.0
 40
3.5
  1
TECTUS TE380-3D
 41
0.81
  7
CONVERTER_13
100
AcDbText
  0
TEXT
  5
27F
330
4F
100
AcDbEntity
  8
1
 62
     2
100
AcDbText
 10
-48.17823196740937
 20
-393.1711510207897
 30
0.0
 40
2.0
  1
 
 41
0.72
  7
CONVERTER_11
100
AcDbText
  0
MTEXT
  5
280
330
4F
100
AcDbEntity
  8
1
 62
     2
100
AcDbMText
 10
28.62795039772027
 20
-349.7807003580483
 30
0.0
 40
2.5
 41
0.0
 71
     8
 72
     1
  1
-
  7
CONVERTER_12
 73
     1
 44
1.32052821128451
  0
TEXT
  5
281
330
4F
100
AcDbEntity
  8
1
 62
     2
100
AcDbText
 10
107.2955378333209
 20
-349.7807003580483
 30
0.0
 40
2.5
  1
1:1
 41
0.9
  7
CONVERTER_12
100
AcDbText
  0
MTEXT
  5
282
330
4F
100
AcDbEntity
  8
1
 62
     2
100
AcDbMText
 10
119.3217680325906
 20
-393.4129108211437
 30
0.0
 40
2.5
 41
0.0
 71
     5
 72
     1
  1
1
  7
CONVERTER_13
 73
     1
 44
1.32052821128451
  0
HATCH
  5
283
330
4F
100
AcDbEntity
  8
1
  6
Continuous
 62
     2
100
AcDbHatch
 10
0.0
 20
0.0
 30
0.0
210
0.0
220
0.0
230
1.0
  2
SOLID
 70
     1
 71
     1
 91
        1
 92
        1
 93
        6
 72
     1
 10
31.15426747931633
 20
-394.3609529440737
 11
31.92086661988287
 21
-395.2792597445159
 72
     1
 10
31.92086661988287
 20
-395.2792597445159
 11
32.12131110337214
 21
-395.2792597445159
 72
     1
 10
32.12131110337214
 20
-395.2792597445159
 11
31.34656881995034
 21
-394.3609529440737
 72
     1
 10
31.34656881995034
 20
-394.3609529440737
 11
32.06980629229656
 21
-393.475217769128
 72
     1
 10
32.06980629229656
 20
-393.475217769128
 11
31.8720484405203
 21
-393.475217769128
 72
     1
 10
31.8720484405203
 20
-393.475217769128
 11
31.15426747931633
 21
-394.3609529440737
 97
        6
330
129
330
12A
330
125
330
126
330
127
330
128
 75
     0
 76
     1
 98
        1
 10
0.0
 20
0.0
  0
HATCH
  5
284
330
4F
100
AcDbEntity
  8
1
  6
Continuous
 62
     2
100
AcDbHatch
 10
0.0
 20
0.0
 30
0.0
210
0.0
220
0.0
230
1.0
  2
SOLID
 70
     1
 71
     1
 91
        1
 92
        1
 93
        6
 72
     1
 10
15.40668544659275
 20
-388.7716521706061
 11
15.40668544659275
 21
-390.0201450622144
 72
     1
 10
15.40668544659275
 20
-390.0201450622144
 11
13.4859112153863
 21
-390.0201450622144
 72
     1
 10
13.4859112153863
 20
-390.0201450622144
 11
13.4859112153863
 21
-390.5963367482991
 72
     1
 10
13.4859112153863
 20
-390.5963367482991
 11
11.9493120747793
 21
-390.5963367482991
 72
     1
 10
11.9493120747793
 20
-390.5963367482991
 11
11.9493120747793
 21
-388.7716521706061
 72
     1
 10
11.9493120747793
 20
-388.7716521706061
 11
15.40668544659275
 21
-388.7716521706061
 97
        6
330
139
330
138
330
137
330
13C
330
13B
330
13A
 75
     0
 76
     1
 98
        1
 10
0.0
 20
0.0
  0
HATCH
  5
285
330
4F
100
AcDbEntity
  8
1
  6
Continuous
 62
     2
100
AcDbHatch
 10
0.0
 20
0.0
 30
0.0
210
0.0
220
0.0
230
1.0
  2
SOLID
 70
     1
 71
     1
 91
        1
 92
        1
 93
        6
 72
     1
 10
15.40668544659275
 20
-390.4042596089785
 11
15.40668544659275
 21
-392.2289441866715
 72
     1
 10
15.40668544659275
 20
-392.2289441866715
 11
11.9493120747793
 21
-392.2289441866715
 72
     1
 10
11.9493120747793
 20
-392.2289441866715
 11
11.9493120747793
 21
-390.9804711610004
 72
     1
 10
11.9493120747793
 20
-390.9804711610004
 11
13.87008630595665
 21
-390.9804711610004
 72
     1
 10
13.87008630595665
 20
-390.9804711610004
 11
13.87008630595665
 21
-390.4042596089785
 72
     1
 10
13.87008630595665
 20
-390.4042596089785
 11
15.40668544659275
 21
-390.4042596089785
 97
        6
330
13E
330
13D
330
142
330
141
330
140
330
13F
 75
     0
 76
     1
 98
        1
 10
0.0
 20
0.0
  0
HATCH
  5
286
330
4F
100
AcDbEntity
  8
1
  6
Continuous
 62
     2
100
AcDbHatch
 10
0.0
 20
0.0
 30
0.0
210
0.0
220
0.0
230
1.0
  2
SOLID
 70
     1
 71
     1
 91
        1
 92
        1
 93
       10
 72
     1
 10
27.72344067759696
 20
-388.8227502029358
 11
27.72344067759696
 21
-392.2289441866715
 72
     1
 10
27.72344067759696
 20
-392.2289441866715
 11
28.45480048088939
 21
-392.2289441866715
 72
     1
 10
28.45480048088939
 20
-392.2289441866715
 11
28.45480048088939
 21
-389.98881458489
 72
     1
 10
28.45480048088939
 20
-389.98881458489
 11
29.56980656238738
 21
-392.2289441866715
 72
     1
 10
29.56980656238738
 20
-392.2289441866715
 11
30.51600419476745
 21
-392.2289441866715
 72
     1
 10
30.51600419476745
 20
-392.2289441866715
 11
30.51600419476745
 21
-388.8227502029358
 72
     1
 10
30.51600419476745
 20
-388.8227502029358
 11
29.78466425742954
 21
-388.8227502029358
 72
     1
 10
29.78466425742954
 20
-388.8227502029358
 11
29.78466425742954
 21
-391.1702684473557
 72
     1
 10
29.78466425742954
 20
-391.1702684473557
 11
28.66448735587619
 21
-388.8227502029358
 72
     1
 10
28.66448735587619
 20
-388.8227502029358
 11
27.72344067759696
 21
-388.8227502029358
 97
       10
330
151
330
150
330
14F
330
14E
330
14D
330
156
330
155
330
154
330
153
330
152
 75
     0
 76
     1
 98
        1
 10
0.0
 20
0.0
  0
HATCH
  5
287
330
4F
100
AcDbEntity
  8
1
  6
Continuous
 62
     2
100
AcDbHatch
 10
0.0
 20
0.0
 30
0.0
210
0.0
220
0.0
230
1.0
  2
SOLID
 70
     1
 71
     1
 91
        1
 92
        1
 93
       13
 72
     1
 10
34.78665787909995
 20
-391.2571970651261
 11
34.20869528647745
 21
-388.8227502029358
 72
     1
 10
34.20869528647745
 20
-388.8227502029358
 11
33.45174531615339
 21
-388.8227502029358
 72
     1
 10
33.45174531615339
 20
-388.8227502029358
 11
34.29057511783321
 21
-392.2289441866715
 72
     1
 10
34.29057511783321
 20
-392.2289441866715
 11
35.26739183774043
 21
-392.2289441866715
 72
     1
 10
35.26739183774043
 20
-392.2289441866715
 11
35.84539510821924
 21
-389.641059435934
 72
     1
 10
35.84539510821924
 20
-389.641059435934
 11
36.41822755867906
 21
-392.2289441866715
 72
     1
 10
36.41822755867906
 20
-392.2289441866715
 11
37.39504333256627
 21
-392.2289441866715
 72
     1
 10
37.39504333256627
 20
-392.2289441866715
 11
38.22874299209798
 21
-388.8227502029358
 72
     1
 10
38.22874299209798
 20
-388.8227502029358
 11
37.47183369965205
 21
-388.8227502029358
 72
     1
 10
37.47183369965205
 20
-388.8227502029358
 11
36.89896057130682
 21
-391.2571970651261
 72
     1
 10
36.89896057130682
 20
-391.2571970651261
 11
36.31590851439978
 21
-388.8227502029358
 72
     1
 10
36.31590851439978
 20
-388.8227502029358
 11
35.37993048846693
 21
-388.8227502029358
 72
     1
 10
35.37993048846693
 20
-388.8227502029358
 11
34.78665787909995
 21
-391.2571970651261
 97
       13
330
15D
330
15C
330
15B
330
15A
330
159
330
158
330
157
330
163
330
162
330
161
330
160
330
15F
330
15E
 75
     0
 76
     1
 98
        1
 10
0.0
 20
0.0
  0
HATCH
  5
288
330
4F
100
AcDbEntity
  8
1
  6
Continuous
 62
     2
100
AcDbHatch
 10
0.0
 20
0.0
 30
0.0
210
0.0
220
0.0
230
1.0
  2
SOLID
 70
     1
 71
     1
 91
        1
 92
        1
 93
       12
 72
     1
 10
38.58663639175938
 20
-388.8227502029358
 11
38.58663639175938
 21
-392.2289441866715
 72
     1
 10
38.58663639175938
 20
-392.2289441866715
 11
40.72963763525331
 21
-392.2289441866715
 72
     1
 10
40.72963763525331
 20
-392.2289441866715
 11
40.72963763525331
 21
-391.5487637714577
 72
     1
 10
40.72963763525331
 20
-391.5487637714577
 11
39.35380596856703
 21
-391.5487637714577
 72
     1
 10
39.35380596856703
 20
-391.5487637714577
 11
39.35380596856703
 21
-390.8071635497645
 72
     1
 10
39.35380596856703
 20
-390.8071635497645
 11
40.62226980455307
 21
-390.8071635497645
 72
     1
 10
40.62226980455307
 20
-390.8071635497645
 11
40.62226980455307
 21
-390.1269840805489
 72
     1
 10
40.62226980455307
 20
-390.1269840805489
 11
39.35380596856703
 21
-390.1269840805489
 72
     1
 10
39.35380596856703
 20
-390.1269840805489
 11
39.35380596856703
 21
-389.5029306181477
 72
     1
 10
39.35380596856703
 20
-389.5029306181477
 11
40.72963763525331
 21
-389.5029306181477
 72
     1
 10
40.72963763525331
 20
-389.5029306181477
 11
40.72963763525331
 21
-388.8227502029358
 72
     1
 10
40.72963763525331
 20
-388.8227502029358
 11
38.58663639175938
 21
-388.8227502029358
 97
       12
330
12F
330
131
330
132
330
134
330
133
330
166
330
165
330
164
330
12E
330
12D
330
167
330
130
 75
     0
 76
     1
 98
        1
 10
0.0
 20
0.0
  0
HATCH
  5
289
330
4F
100
AcDbEntity
  8
1
  6
Continuous
 62
     2
100
AcDbHatch
 10
0.0
 20
0.0
 30
0.0
210
0.0
220
0.0
230
1.0
  2
SOLID
 70
     1
 71
     1
 91
        1
 92
        1
 93
        4
 72
     1
 10
44.29965277150041
 20
-388.8227502029358
 11
44.29965277150041
 21
-392.2289441866715
 72
     1
 10
44.29965277150041
 20
-392.2289441866715
 11
45.06678167040809
 21
-392.2289441866715
 72
     1
 10
45.06678167040809
 20
-392.2289441866715
 11
45.06678167040809
 21
-388.8227502029358
 72
     1
 10
45.06678167040809
 20
-388.8227502029358
 11
44.29965277150041
 21
-388.8227502029358
 97
        4
330
16A
330
169
330
168
330
16B
 75
     0
 76
     1
 98
        1
 10
0.0
 20
0.0
  0
HATCH
  5
28A
330
4F
100
AcDbEntity
  8
1
  6
Continuous
 62
     2
100
AcDbHatch
 10
0.0
 20
0.0
 30
0.0
210
0.0
220
0.0
230
1.0
  2
SOLID
 70
     1
 71
     1
 91
        1
 92
        1
 93
        6
 72
     1
 10
45.16397057253198
 20
-390.4900880321429
 11
46.15621745079989
 21
-392.2289441866715
 72
     1
 10
46.15621745079989
 20
-392.2289441866715
 11
47.02057592971687
 21
-392.2289441866715
 72
     1
 10
47.02057592971687
 20
-392.2289441866715
 11
45.99249846598832
 21
-390.4900880321429
 72
     1
 10
45.99249846598832
 20
-390.4900880321429
 11
46.94895732870646
 21
-388.8227502029358
 72
     1
 10
46.94895732870646
 20
-388.8227502029358
 11
46.08463858166942
 21
-388.8227502029358
 72
     1
 10
46.08463858166942
 20
-388.8227502029358
 11
45.16397057253198
 21
-390.4900880321429
 97
        6
330
170
330
16F
330
16E
330
16C
330
16D
330
171
 75
     0
 76
     1
 98
        1
 10
0.0
 20
0.0
  0
HATCH
  5
28B
330
4F
100
AcDbEntity
  8
1
  6
Continuous
 62
     2
100
AcDbHatch
 10
0.0
 20
0.0
 30
0.0
210
0.0
220
0.0
230
1.0
  2
SOLID
 70
     1
 71
     1
 91
        2
 92
        1
 93
        8
 72
     1
 10
18.80265982385026
 20
-393.475217769128
 11
18.56697600308689
 21
-393.475217769128
 72
     1
 10
18.56697600308689
 20
-393.475217769128
 11
17.93858609008021
 21
-395.2792597445159
 72
     1
 10
17.93858609008021
 20
-395.2792597445159
 11
18.0956480934401
 21
-395.2792597445159
 72
     1
 10
18.0956480934401
 20
-395.2792597445159
 11
18.26362122714636
 21
-394.8052045252762
 72
     1
 10
18.26362122714636
 20
-394.8052045252762
 11
19.10332702210872
 21
-394.8052045252762
 72
     1
 10
19.10332702210872
 20
-394.8052045252762
 11
19.27398773352616
 21
-395.2792597445159
 72
     1
 10
19.27398773352616
 20
-395.2792597445159
 11
19.43109041475691
 21
-395.2792597445159
 72
     1
 10
19.43109041475691
 20
-395.2792597445159
 11
18.80265982385026
 21
-393.475217769128
 97
        8
330
179
330
17A
330
172
330
17B
330
17C
330
176
330
177
330
178
 92
       16
 93
        3
 72
     1
 10
18.68346419165027
 20
-393.5673172069428
 11
19.05455566034652
 21
-394.6670548955563
 72
     1
 10
19.05455566034652
 20
-394.6670548955563
 11
18.31241339931148
 21
-394.6670548955563
 72
     1
 10
18.31241339931148
 20
-394.6670548955563
 11
18.68346419165027
 21
-393.5673172069428
 97
        3
330
173
330
174
330
175
 75
     0
 76
     1
 98
        1
 10
0.0
 20
0.0
  0
HATCH
  5
28C
330
4F
100
AcDbEntity
  8
1
  6
Continuous
 62
     2
100
AcDbHatch
 10
0.0
 20
0.0
 30
0.0
210
0.0
220
0.0
230
1.0
  2
SOLID
 70
     1
 71
     1
 91
        1
 92
        1
 93
       10
 72
     1
 10
19.71545051532303
 20
-393.475217769128
 11
19.71545051532303
 21
-395.2792597445159
 72
     1
 10
19.71545051532303
 20
-395.2792597445159
 11
19.86713736326783
 21
-395.2792597445159
 72
     1
 10
19.86713736326783
 20
-395.2792597445159
 11
19.86713736326783
 21
-393.6323412623024
 72
     1
 10
19.86713736326783
 20
-393.6323412623024
 11
20.7231073555522
 21
-395.2792190666414
 72
     1
 10
20.7231073555522
 20
-395.2792190666414
 11
20.95608500918024
 21
-395.2792190666414
 72
     1
 10
20.95608500918024
 20
-395.2792190666414
 11
20.95608500918024
 21
-393.475217769128
 72
     1
 10
20.95608500918024
 20
-393.475217769128
 11
20.80439816122816
 21
-393.475217769128
 72
     1
 10
20.80439816122816
 20
-393.475217769128
 11
20.80439816122816
 21
-395.124784097171
 72
     1
 10
20.80439816122816
 20
-395.124784097171
 11
19.94838621458621
 21
-393.475217769128
 72
     1
 10
19.94838621458621
 20
-393.475217769128
 11
19.71545051532303
 21
-393.475217769128
 97
       10
330
17D
330
17E
330
186
330
185
330
184
330
183
330
182
330
181
330
180
330
17F
 75
     0
 76
     1
 98
        1
 10
0.0
 20
0.0
  0
HATCH
  5
28D
330
4F
100
AcDbEntity
  8
1
  6
Continuous
 62
     2
100
AcDbHatch
 10
0.0
 20
0.0
 30
0.0
210
0.0
220
0.0
230
1.0
  2
SOLID
 70
     1
 71
     1
 91
        1
 92
        1
 93
        8
 72
     1
 10
22.75729750729806
 20
-393.475217769128
 11
22.75729750729806
 21
-393.6187822861402
 72
     1
 10
22.75729750729806
 20
-393.6187822861402
 11
23.31262144377979
 21
-393.6187822861402
 72
     1
 10
23.31262144377979
 20
-393.6187822861402
 11
23.31262144377979
 21
-395.2792597445159
 72
     1
 10
23.31262144377979
 20
-395.2792597445159
 11
23.47243156866171
 21
-395.2792597445159
 72
     1
 10
23.47243156866171
 20
-395.2792597445159
 11
23.47243156866171
 21
-393.6187416082657
 72
     1
 10
23.47243156866171
 20
-393.6187416082657
 11
24.02771577325621
 21
-393.6187416082657
 72
     1
 10
24.02771577325621
 20
-393.6187416082657
 11
24.02771577325621
 21
-393.475217769128
 72
     1
 10
24.02771577325621
 20
-393.475217769128
 11
22.75729750729806
 21
-393.475217769128
 97
        8
330
188
330
189
330
187
330
18E
330
18D
330
18C
330
18B
330
18A
 75
     0
 76
     1
 98
        1
 10
0.0
 20
0.0
  0
HATCH
  5
28E
330
4F
100
AcDbEntity
  8
1
  6
Continuous
 62
     2
100
AcDbHatch
 10
0.0
 20
0.0
 30
0.0
210
0.0
220
0.0
230
1.0
  2
SOLID
 70
     1
 71
     1
 91
        1
 92
        1
 93
       12
 72
     1
 10
24.28502035731799
 20
-393.475217769128
 11
24.28502035731799
 21
-395.2792597445159
 72
     1
 10
24.28502035731799
 20
-395.2792597445159
 11
25.30354987250757
 21
-395.2792597445159
 72
     1
 10
25.30354987250757
 20
-395.2792597445159
 11
25.30354987250757
 21
-395.1356545496292
 72
     1
 10
25.30354987250757
 20
-395.1356545496292
 11
24.4448503481326
 21
-395.1356545496292
 72
     1
 10
24.4448503481326
 20
-395.1356545496292
 11
24.4448503481326
 21
-394.4313909407283
 72
     1
 10
24.4448503481326
 20
-394.4313909407283
 11
25.24119352889829
 21
-394.4313909407283
 72
     1
 10
25.24119352889829
 20
-394.4313909407283
 11
25.24119352889829
 21
-394.2878273697124
 72
     1
 10
25.24119352889829
 20
-394.2878273697124
 11
24.4448503481326
 21
-394.2878273697124
 72
     1
 10
24.4448503481326
 20
-394.2878273697124
 11
24.4448503481326
 21
-393.6187416082657
 72
     1
 10
24.4448503481326
 20
-393.6187416082657
 11
25.30082161693281
 21
-393.6187416082657
 72
     1
 10
25.30082161693281
 20
-393.6187416082657
 11
25.30082161693281
 21
-393.475217769128
 72
     1
 10
25.30082161693281
 20
-393.475217769128
 11
24.28502035731799
 21
-393.475217769128
 97
       12
330
197
330
198
330
196
330
195
330
194
330
193
330
192
330
191
330
190
330
18F
330
19A
330
199
 75
     0
 76
     1
 98
        1
 10
0.0
 20
0.0
  0
HATCH
  5
28F
330
4F
100
AcDbEntity
  8
1
  6
Continuous
 62
     2
100
AcDbHatch
 10
0.0
 20
0.0
 30
0.0
210
0.0
220
0.0
230
1.0
  2
SOLID
 70
     1
 71
     1
 91
        1
 92
        1
 93
       12
 72
     1
 10
27.17251278957701
 20
-394.2796832808417
 11
27.17251278957701
 21
-393.475217769128
 72
     1
 10
27.17251278957701
 20
-393.475217769128
 11
27.01268279874057
 21
-393.475217769128
 72
     1
 10
27.01268279874057
 20
-393.475217769128
 11
27.01268279874057
 21
-395.2792597445159
 72
     1
 10
27.01268279874057
 20
-395.2792597445159
 11
27.17251278957701
 21
-395.2792597445159
 72
     1
 10
27.17251278957701
 20
-395.2792597445159
 11
27.17251278957701
 21
-394.4232884757294
 72
     1
 10
27.17251278957701
 20
-394.4232884757294
 11
28.0446889883533
 21
-394.4232884757294
 72
     1
 10
28.0446889883533
 20
-394.4232884757294
 11
28.0446889883533
 21
-395.2792190666414
 72
     1
 10
28.0446889883533
 20
-395.2792190666414
 11
28.20451992517337
 21
-395.2792190666414
 72
     1
 10
28.20451992517337
 20
-395.2792190666414
 11
28.20451992517337
 21
-393.475217769128
 72
     1
 10
28.20451992517337
 20
-393.475217769128
 11
28.0446889883533
 21
-393.475217769128
 72
     1
 10
28.0446889883533
 20
-393.475217769128
 11
28.0446889883533
 21
-394.2796832808417
 72
     1
 10
28.0446889883533
 20
-394.2796832808417
 11
27.17251278957701
 21
-394.2796832808417
 97
       12
330
19F
330
19E
330
19D
330
19C
330
19B
330
1A6
330
1A5
330
1A4
330
1A3
330
1A2
330
1A1
330
1A0
 75
     0
 76
     1
 98
        1
 10
0.0
 20
0.0
  0
HATCH
  5
290
330
4F
100
AcDbEntity
  8
1
  6
Continuous
 62
     2
100
AcDbHatch
 10
0.0
 20
0.0
 30
0.0
210
0.0
220
0.0
230
1.0
  2
SOLID
 70
     1
 71
     1
 91
        1
 92
        1
 93
       10
 72
     1
 10
28.87085661909077
 20
-393.475217769128
 11
28.63790010791854
 21
-393.475217769128
 72
     1
 10
28.63790010791854
 20
-393.475217769128
 11
28.63790010791854
 21
-395.2792190666414
 72
     1
 10
28.63790010791854
 20
-395.2792190666414
 11
28.7896077678015
 21
-395.2792190666414
 72
     1
 10
28.7896077678015
 20
-395.2792190666414
 11
28.7896077678015
 21
-393.6323813013305
 72
     1
 10
28.7896077678015
 20
-393.6323813013305
 11
29.64564085845632
 21
-395.2792597445159
 72
     1
 10
29.64564085845632
 20
-395.2792597445159
 11
29.8785147358285
 21
-395.2792597445159
 72
     1
 10
29.8785147358285
 20
-395.2792597445159
 11
29.8785147358285
 21
-393.475217769128
 72
     1
 10
29.8785147358285
 20
-393.475217769128
 11
29.72684775383095
 21
-393.475217769128
 72
     1
 10
29.72684775383095
 20
-393.475217769128
 11
29.72684775383095
 21
-395.124784097171
 72
     1
 10
29.72684775383095
 20
-395.124784097171
 11
28.87085661909077
 21
-393.475217769128
 97
       10
330
1A7
330
1AE
330
1AD
330
1A8
330
1B0
330
1AA
330
1A9
330
1AB
330
1AC
330
1AF
 75
     0
 76
     1
 98
        1
 10
0.0
 20
0.0
  0
HATCH
  5
291
330
4F
100
AcDbEntity
  8
1
  6
Continuous
 62
     2
100
AcDbHatch
 10
0.0
 20
0.0
 30
0.0
210
0.0
220
0.0
230
1.0
  2
SOLID
 70
     1
 71
     1
 91
        1
 92
        1
 93
        4
 72
     1
 10
30.32541321687313
 20
-393.475217769128
 11
30.32541321687313
 21
-395.2792597445159
 72
     1
 10
30.32541321687313
 20
-395.2792597445159
 11
30.48526401963318
 21
-395.2792597445159
 72
     1
 10
30.48526401963318
 20
-395.2792597445159
 11
30.48526401963318
 21
-393.475217769128
 72
     1
 10
30.48526401963318
 20
-393.475217769128
 11
30.32541321687313
 21
-393.475217769128
 97
        4
330
1B3
330
1B1
330
1B4
330
1B2
 75
     0
 76
     1
 98
        1
 10
0.0
 20
0.0
  0
HATCH
  5
292
330
4F
100
AcDbEntity
  8
1
  6
Continuous
 62
     2
100
AcDbHatch
 10
0.0
 20
0.0
 30
0.0
210
0.0
220
0.0
230
1.0
  2
SOLID
 70
     1
 71
     1
 91
        1
 92
        1
 93
        4
 72
     1
 10
30.93212087678694
 20
-393.475217769128
 11
30.93212087678694
 21
-395.2792597445159
 72
     1
 10
30.93212087678694
 20
-395.2792597445159
 11
31.09197167956154
 21
-395.2792597445159
 72
     1
 10
31.09197167956154
 20
-395.2792597445159
 11
31.09197167956154
 21
-393.475217769128
 72
     1
 10
31.09197167956154
 20
-393.475217769128
 11
30.93212087678694
 21
-393.475217769128
 97
        4
330
1B7
330
1B6
330
1B8
330
1B5
 75
     0
 76
     1
 98
        1
 10
0.0
 20
0.0
  0
HATCH
  5
293
330
4F
100
AcDbEntity
  8
1
  6
Continuous
 62
     2
100
AcDbHatch
 10
0.0
 20
0.0
 30
0.0
210
0.0
220
0.0
230
1.0
  2
SOLID
 70
     1
 71
     1
 91
        1
 92
        1
 93
       13
 72
     1
 10
23.25329891283764
 20
-388.8227502029358
 11
22.43503035768663
 21
-390.9912403917697
 72
     1
 10
22.43503035768663
 20
-390.9912403917697
 11
21.61668044683756
 21
-388.8227502029358
 72
     1
 10
21.61668044683756
 20
-388.8227502029358
 11
20.84945032621909
 21
-388.8227502029358
 72
     1
 10
20.84945032621909
 20
-388.8227502029358
 11
20.70623204414733
 21
-392.2289441866715
 72
     1
 10
20.70623204414733
 20
-392.2289441866715
 11
21.44787294371054
 21
-392.2289441866715
 72
     1
 10
21.44787294371054
 20
-392.2289441866715
 11
21.49907314370648
 21
-390.3366302776567
 72
     1
 10
21.49907314370648
 20
-390.3366302776567
 11
22.09234480709711
 21
-391.7890895999017
 72
     1
 10
22.09234480709711
 20
-391.7890895999017
 11
22.77771590831253
 21
-391.7890895999017
 72
     1
 10
22.77771590831253
 20
-391.7890895999017
 11
23.37100838361948
 21
-390.3366302776567
 72
     1
 10
23.37100838361948
 20
-390.3366302776567
 11
23.42212722788099
 21
-392.2289441866715
 72
     1
 10
23.42212722788099
 20
-392.2289441866715
 11
24.16378893938963
 21
-392.2289441866715
 72
     1
 10
24.16378893938963
 20
-392.2289441866715
 11
24.02057065730332
 21
-388.8227502029358
 72
     1
 10
24.02057065730332
 20
-388.8227502029358
 11
23.25329891283764
 21
-388.8227502029358
 97
       13
330
135
330
1BF
330
14C
330
143
330
14B
330
14A
330
149
330
148
330
147
330
146
330
145
330
144
330
136
 75
     0
 76
     1
 98
        1
 10
0.0
 20
0.0
  0
HATCH
  5
294
330
4F
100
AcDbEntity
  8
1
  6
Continuous
 62
     2
100
AcDbHatch
 10
0.0
 20
0.0
 30
0.0
210
0.0
220
0.0
230
1.0
  2
SOLID
 70
     1
 71
     1
 91
        1
 92
        1
 93
        4
 72
     1
 10
19.40214101207675
 20
-388.8227502029358
 11
19.40214101207675
 21
-392.2289441866715
 72
     1
 10
19.40214101207675
 20
-392.2289441866715
 11
20.16929072292987
 21
-392.2289441866715
 72
     1
 10
20.16929072292987
 20
-392.2289441866715
 11
20.16929072292987
 21
-388.8227502029358
 72
     1
 10
20.16929072292987
 20
-388.8227502029358
 11
19.40214101207675
 21
-388.8227502029358
 97
        4
330
1C2
330
12B
330
12C
330
1C1
 75
     0
 76
     1
 98
        1
 10
0.0
 20
0.0
  0
HATCH
  5
295
330
4F
100
AcDbEntity
  8
1
  6
Continuous
 62
     2
100
AcDbHatch
 10
0.0
 20
0.0
 30
0.0
210
0.0
220
0.0
230
1.0
  2
SOLID
 70
     1
 71
     1
 91
        1
 92
        1
 93
        1
 72
     4
 94
        3
 73
     0
 74
     0
 95
       99
 96
       95
 40
0.0
 40
0.0
 40
0.0
 40
0.0
 40
0.2058865683107884
 40
0.380255885010338
 40
0.5295924200020122
 40
0.663949741017712
 40
0.7981974076200684
 40
0.9497667969679259
 40
1.134316495760117
 40
1.364156594014454
 40
1.649145976705461
 40
1.854658560623854
 40
2.005118300006512
 40
2.112155832456131
 40
2.191303156467368
 40
2.265236690025874
 40
2.356357147307033
 40
2.478213498062896
 40
2.607364312097989
 40
2.704600033795631
 40
2.79819479007368
 40
2.922158707325091
 40
3.097569667628389
 40
3.32027818465177
 40
3.540760703147037
 40
3.777817247072871
 40
4.049964063575561
 40
4.077851699196122
 40
4.151373647793285
 40
4.255318471868178
 40
4.374474733743049
 40
4.493630995682078
 40
4.59757581995355
 40
4.67109776883755
 40
4.698985404622497
 40
5.074893791170825
 40
5.424148788991766
 40
5.739910983942277
 40
6.026947032187147
 40
6.2680796054358
 40
6.470402560631912
 40
6.643379927069383
 40
6.799454175324323
 40
6.953060970213494
 40
7.117582237481292
 40
7.302801577568509
 40
7.514778780818757
 40
7.739946994444515
 40
7.928433856327354
 40
8.087733089558078
 40
8.228542328926792
 40
8.36542345727418
 40
8.514542515625996
 40
8.68986086127041
 40
8.901809310620221
 40
9.15823759249074
 40
9.347768131710156
 40
9.493039083085106
 40
9.601795642526511
 40
9.683502754693013
 40
9.751054030718763
 40
9.819893144739138
 40
9.902273932277676
 40
10.0053477497018
 40
10.13191874389544
 40
10.23076105419491
 40
10.31667662344493
 40
10.41307291459906
 40
10.54070013640159
 40
10.71247657448582
 40
11.05520963892054
 40
11.38523980135608
 40
11.71146707648291
 40
11.73754497807178
 40
11.80629580952767
 40
11.90349526088187
 40
12.0149190221698
 40
12.1263427834365
 40
12.22354223473752
 40
12.29229306613675
 40
12.31837096770021
 40
12.57432621489775
 40
12.85505769195824
 40
13.14962996227189
 40
13.44700396477239
 40
13.76080179714574
 40
14.02197664776142
 40
14.23931231647799
 40
14.42395213988339
 40
14.58972152008025
 40
14.75169154440182
 40
14.92296194985218
 40
15.11242227888364
 40
15.32497315233208
 40
15.32497315233208
 40
15.32497315233208
 40
15.32497315233208
 10
18.94182689237641
 20
-391.2725673723608
 10
18.94161067869569
 20
-391.203933749078
 10
18.94121135197917
 20
-391.0771729828058
 10
18.93023502982224
 20
-390.9007910483494
 10
18.90219345318616
 20
-390.7500265151107
 10
18.84745074934015
 20
-390.6202193579824
 10
18.75720163743437
 20
-390.5105751536554
 10
18.62787874362658
 20
-390.4195364925816
 10
18.4557375240537
 20
-390.3408794004046
 10
18.23393084658549
 20
-390.2682102425243
 10
18.00110313186032
 20
-390.209154175407
 10
17.79306176530271
 20
-390.1606077356065
 10
17.64399916095469
 20
-390.1202249050196
 10
17.53874742274564
 20
-390.0805141782922
 10
17.46714780029498
 20
-390.0271730525761
 10
17.43223115370413
 20
-389.950693479982
 10
17.42312498251718
 20
-389.8549518274191
 10
17.42204541026734
 20
-389.7409849176364
 10
17.42523353152875
 20
-389.6248872206527
 10
17.46287271129819
 20
-389.5201505867194
 10
17.55350263450501
 20
-389.4573012238652
 10
17.68399198358003
 20
-389.4341034166227
 10
17.85829667794774
 20
-389.4301021884385
 10
18.06247077743175
 20
-389.4327887371247
 10
18.29694944913158
 20
-389.4626331190951
 10
18.50292944212026
 20
-389.4474642742698
 10
18.78446290695701
 20
-389.6169815323136
 10
18.79249098991739
 20
-389.4844144507604
 10
18.80212733298639
 20
-389.4185001998636
 10
18.81307890612739
 20
-389.3193678225009
 10
18.82686805172375
 20
-389.2063599879737
 10
18.8400574755998
 20
-389.0931518282315
 10
18.85243562163725
 20
-388.9944959688994
 10
18.85907285792143
 20
-388.9275799256893
 10
18.88591022121545
 20
-388.7637281087906
 10
18.44946023246442
 20
-388.8546537898359
 10
18.17173929678927
 20
-388.7704870878604
 10
17.83862463977141
 20
-388.7705093830169
 10
17.56078155095006
 20
-388.7762513866227
 10
17.3177994150685
 20
-388.8060223461641
 10
17.1182758400906
 20
-388.8579327464648
 10
16.95722551728751
 20
-388.9352758137712
 10
16.83305452608185
 20
-389.0407636434479
 10
16.7450219105914
 20
-389.174394584483
 10
16.68946328734022
 20
-389.3340354956088
 10
16.66016007279475
 20
-389.5196681024856
 10
16.65376559026365
 20
-389.7272835942076
 10
16.65796572380127
 20
-389.9358338912709
 10
16.67477018460418
 20
-390.1263628536692
 10
16.71081520392099
 20
-390.285979235098
 10
16.7728892126892
 20
-390.4194556790926
 10
16.86731476874368
 20
-390.5283450482077
 10
16.99587547195602
 20
-390.6150955972192
 10
17.16057840958161
 20
-390.6861808676118
 10
17.36613824071425
 20
-390.7486303349808
 10
17.58003708996523
 20
-390.7972931151885
 10
17.7724091843014
 20
-390.8400281836019
 10
17.91541723789816
 20
-390.8779776952115
 10
18.02092355884702
 20
-390.915809978166
 10
18.09632833968337
 20
-390.9591796654456
 10
18.14462998304566
 20
-391.0159142444617
 10
18.16735447169026
 20
-391.0865740920459
 10
18.17441160486177
 20
-391.1712290380327
 10
18.17531257743676
 20
-391.2752528988678
 10
18.17223389963694
 20
-391.3847467230538
 10
18.14827945564103
 20
-391.487538248531
 10
18.08898211389724
 20
-391.5646830963776
 10
17.99216898654394
 20
-391.6082215146392
 10
17.86108244819888
 20
-391.627675762567
 10
17.64830906105938
 20
-391.6359623134958
 10
17.35531077953188
 20
-391.5995273287597
 10
17.07200599342094
 20
-391.6177972313594
 10
16.73872703716018
 20
-391.3615424979339
 10
16.71428793883894
 20
-391.5073633450643
 10
16.69981040742194
 20
-391.5682856531972
 10
16.68080149426832
 20
-391.6594281771526
 10
16.65808290785872
 20
-391.7634967920515
 10
16.63593293127082
 20
-391.8676996618176
 10
16.61557145257454
 20
-391.958522830479
 10
16.60393744241064
 20
-392.0201165244712
 10
16.57122323628808
 20
-392.1386837608987
 10
16.88415141630708
 20
-392.135745693784
 10
17.09642024491669
 20
-392.2317127027291
 10
17.40088694690584
 20
-392.2677616561828
 10
17.69830548460703
 20
-392.2850125430354
 10
17.99048868493547
 20
-392.2735491389923
 10
18.25264671603341
 20
-392.2393651687239
 10
18.46650258415327
 20
-392.1792041402972
 10
18.63639141640087
 20
-392.0921208156077
 10
18.76495138666422
 20
-391.9764267141792
 10
18.85419539043955
 20
-391.8337389279649
 10
18.90917484797914
 20
-391.667178033452
 10
18.93795318671838
 20
-391.4775330222069
 10
18.94048714047778
 20
-391.343456269641
 10
18.94182689237641
 20
-391.2725673723608
 97
        1
330
200
 75
     0
 76
     1
 98
        1
 10
0.0
 20
0.0
  0
HATCH
  5
296
330
4F
100
AcDbEntity
  8
1
  6
Continuous
 62
     2
100
AcDbHatch
 10
0.0
 20
0.0
 30
0.0
210
0.0
220
0.0
230
1.0
  2
SOLID
 70
     1
 71
     1
 91
        1
 92
        1
 93
        1
 72
     4
 94
        3
 73
     0
 74
     0
 95
       21
 96
       17
 40
0.0
 40
0.0
 40
0.0
 40
0.0
 40
0.7754044310608652
 40
1.847167960408142
 40
2.918946025489414
 40
3.694344571962982
 40
4.062970089969678
 40
4.747560338049777
 40
5.116185856378319
 40
5.891546840134201
 40
6.963331132305251
 40
8.035100887632488
 40
8.810467763669616
 40
9.179093282462057
 40
9.863683531656742
 40
10.23230904046583
 40
10.23230904046583
 40
10.23230904046583
 40
10.23230904046583
 10
27.23757721061702
 20
-389.8149367757078
 10
27.16902030070442
 20
-389.547003931615
 10
27.00570407909393
 20
-388.9087344732139
 10
25.90888518408321
 20
-388.6932616835099
 10
24.86176562013079
 20
-388.9047768899229
 10
24.57353367153262
 20
-389.6829341455094
 10
24.60647404879762
 20
-390.2873646060163
 10
24.60640058752955
 20
-390.7643571154285
 10
24.57370797519956
 20
-391.3687468391707
 10
24.860010841351
 20
-392.1471394983428
 10
25.9181178848573
 20
-392.3571732097475
 10
26.97563450390464
 20
-392.1470857989889
 10
27.26302721055306
 20
-391.3688471998406
 10
27.22807987440898
 20
-390.7641412925285
 10
27.23902245618015
 20
-390.2886844657529
 10
27.23795190420234
 20
-389.937760249303
 10
27.23757721061702
 20
-389.8149367757078
 97
        1
330
202
 75
     0
 76
     1
 98
        1
 10
0.0
 20
0.0
  0
HATCH
  5
297
330
4F
100
AcDbEntity
  8
1
  6
Continuous
 62
     2
100
AcDbHatch
 10
0.0
 20
0.0
 30
0.0
210
0.0
220
0.0
230
1.0
  2
SOLID
 70
     1
 71
     1
 91
        1
 92
        1
 93
        1
 72
     4
 94
        3
 73
     0
 74
     0
 95
      100
 96
       96
 40
0.0
 40
0.0
 40
0.0
 40
0.0
 40
0.1867995077370406
 40
0.3476296758924979
 40
0.4869324267541878
 40
0.6112224271906032
 40
0.7301389373928857
 40
0.8559981794202943
 40
1.001296090966143
 40
1.176591632261415
 40
1.390310169720742
 40
1.649435663783247
 40
1.854960960281841
 40
2.005426180734427
 40
2.112464173742608
 40
2.191609548970715
 40
2.265540878057755
 40
2.356658148860795
 40
2.478508048382333
 40
2.607650882755412
 40
2.704883274231209
 40
2.798472505138053
 40
2.922426582400107
 40
3.097825594432556
 40
3.320545622604758
 40
3.541031974220179
 40
3.778083311301738
 40
4.05021371906061
 40
4.078098955655181
 40
4.151614579547735
 40
4.255550461799276
 40
4.374696473291626
 40
4.493842484848455
 40
4.597778367297178
 40
4.671293991477346
 40
4.699179228236682
 40
5.075100979096795
 40
5.424355976924453
 40
5.740104608173151
 40
6.02714130437454
 40
6.268275244768646
 40
6.470599370942505
 40
6.643576741138998
 40
6.799649136488879
 40
6.953252379294299
 40
7.117769485257612
 40
7.302985450297587
 40
7.514961290043505
 40
7.740135590451072
 40
7.928627361581725
 40
8.087930681243567
 40
8.228743588743958
 40
8.365628410259855
 40
8.514751600322866
 40
8.69007485648535
 40
8.902029283857765
 40
9.158464882293845
 40
9.347997239807855
 40
9.49326592234362
 40
9.602017180547426
 40
9.683717438102816
 40
9.751262617222709
 40
9.82009836947005
 40
9.902478111375796
 40
10.00555182027151
 40
10.13213842681005
 40
10.23098799232381
 40
10.31690408426754
 40
10.4132966687586
 40
10.54091778858187
 40
10.71268560328222
 40
11.05541932865063
 40
11.38546622621656
 40
11.71168671061588
 40
11.73776271772014
 40
11.8065085546258
 40
11.90370094471948
 40
12.01511661139165
 40
12.12653227804248
 40
12.22372466808293
 40
12.29247050493203
 40
12.31854651201088
 40
12.57450146675145
 40
12.85523078890845
 40
13.14979708562983
 40
13.44715933522541
 40
13.76095786629566
 40
14.02213459674663
 40
14.23947301328956
 40
14.42411615729116
 40
14.58988918242619
 40
14.75186307400927
 40
14.92313771729626
 40
15.11260300302065
 40
15.32515996040868
 40
15.32515996040868
 40
15.32515996040868
 40
15.32515996040868
 10
33.22165975475218
 20
-391.2725470144087
 10
33.22147160273008
 20
-391.2102774940278
 10
33.2211214583833
 20
-391.09439531933
 10
33.2126485156681
 20
-390.932183981227
 10
33.19163160564958
 20
-390.7919070916499
 10
33.15174560093668
 20
-390.6698668249322
 10
33.08622782211472
 20
-390.564141730169
 10
32.99065578605206
 20
-390.474116578995
 10
32.86257876301122
 20
-390.3968366802188
 10
32.69802602483749
 20
-390.3277181289726
 10
32.49184750779808
 20
-390.2625550599982
 10
32.27253718484373
 20
-390.2072002534487
 10
32.07288398748383
 20
-390.1606067574792
 10
31.92381562691867
 20
-390.1202226114336
 10
31.8185633460543
 20
-390.080508866558
 10
31.74696737561918
 20
-390.0271643566607
 10
31.7120578062576
 20
-389.9506843089899
 10
31.7029568603478
 20
-389.8549464860139
 10
31.70187864226987
 20
-389.7409853712778
 10
31.70506608996457
 20
-389.6248938336167
 10
31.74269714376311
 20
-389.5201614762636
 10
31.83331533638263
 20
-389.4573068644
 10
31.9637954572217
 20
-389.4341042024991
 10
32.13809657287744
 20
-389.4301013059584
 10
32.34227178973092
 20
-389.4327911604896
 10
32.57675355611236
 20
-389.4626362872071
 10
32.78273106474735
 20
-389.4474629618041
 10
33.0642488167919
 20
-389.6169339273656
 10
33.07228601482731
 20
-389.4843780958264
 10
33.08192638578346
 20
-389.4184698209614
 10
33.09288428770117
 20
-389.3193469632213
 10
33.10668054049315
 20
-389.2063498000968
 10
33.11987716221196
 20
-389.0931523631738
 10
33.13226142140251
 20
-388.9945059011571
 10
33.13890313888461
 20
-388.927596091106
 10
33.16575202132506
 20
-388.7637447148547
 10
32.72927962717716
 20
-388.8546755736492
 10
32.45156326349547
 20
-388.7705083034976
 10
32.11845262875913
 20
-388.7705298317574
 10
31.8406135970685
 20
-388.7762711026811
 10
31.5976300033705
 20
-388.8060382652606
 10
31.39810425769223
 20
-388.8579430701154
 10
31.23705098022228
 20
-388.9352790826653
 10
31.11287611797985
 20
-389.0407595388619
 10
31.02483951650397
 20
-389.1743842145462
 10
30.96927790066558
 20
-389.3340203433513
 10
30.93997284745694
 20
-389.5196497574362
 10
30.93357797611545
 20
-389.7272657282819
 10
30.93777825704044
 20
-389.9358192252864
 10
30.95458281514476
 20
-390.1263532244432
 10
30.99062833428039
 20
-390.2859738330291
 10
31.05270339785739
 20
-390.4194540080231
 10
31.14713074426667
 20
-390.5283469272106
 10
31.27569412129346
 20
-390.6151010387459
 10
31.44040062749039
 20
-390.6861908629434
 10
31.64596575520029
 20
-390.7486431853998
 10
31.85986666895059
 20
-390.7973197668298
 10
32.05224559083075
 20
-390.8400347280175
 10
32.19525423901167
 20
-390.8779748715516
 10
32.30075823839462
 20
-390.9157992848581
 10
32.37615928237771
 20
-390.959164095461
 10
32.42445501721971
 20
-391.0158971035012
 10
32.44717241274672
 20
-391.0865555278876
 10
32.45422498174192
 20
-391.171209098908
 10
32.45512468250307
 20
-391.2752377962491
 10
32.45204658431398
 20
-391.3847391300991
 10
32.42809382105604
 20
-391.4875388921338
 10
32.36879880763317
 20
-391.5646876445144
 10
32.27198817487033
 20
-391.6082251167393
 10
32.14090750506988
 20
-391.6276764551443
 10
31.92813883419224
 20
-391.6359617921776
 10
31.6351368746017
 20
-391.5995264448968
 10
31.35183227552694
 20
-391.6178076267714
 10
31.01853746410876
 20
-391.361585537942
 10
30.99410175218896
 20
-391.5074011464789
 10
30.97962643203418
 20
-391.5683194815648
 10
30.96062058591191
 20
-391.6594556538946
 10
30.93790559873143
 20
-391.7635171567489
 10
30.91575915166377
 20
-391.8677128757171
 10
30.89540090581693
 20
-391.9585297849364
 10
30.88376875831308
 20
-392.0201193120826
 10
30.85105799878712
 20
-392.1386843338357
 10
31.16398265413499
 20
-392.1357452614249
 10
31.37624974525177
 20
-392.2317122538553
 10
31.6807090750702
 20
-392.26776146257
 10
31.97812216199288
 20
-392.2850126709682
 10
32.2703022824622
 20
-392.2735490270591
 10
32.53246207494514
 20
-392.2393649162972
 10
32.74632054121021
 20
-392.1792033283928
 10
32.91621248514029
 20
-392.0921190049214
 10
33.04477583829472
 20
-391.9764232731032
 10
33.13402318257027
 20
-391.83373292302
 10
33.18900542826055
 20
-391.6671683161011
 10
33.21778569775091
 20
-391.477518384984
 10
33.22031988032202
 20
-391.3434379440345
 10
33.22165975475218
 20
-391.2725470144087
 97
        1
330
203
 75
     0
 76
     1
 98
        1
 10
0.0
 20
0.0
  0
HATCH
  5
298
330
4F
100
AcDbEntity
  8
1
  6
Continuous
 62
     2
100
AcDbHatch
 10
0.0
 20
0.0
 30
0.0
210
0.0
220
0.0
230
1.0
  2
SOLID
 70
     1
 71
     1
 91
        1
 92
        1
 93
        1
 72
     4
 94
        3
 73
     0
 74
     0
 95
       36
 96
       32
 40
0.0
 40
0.0
 40
0.0
 40
0.0
 40
0.2360423476082758
 40
0.6744067261225339
 40
0.910449083659806
 40
1.280549568213424
 40
1.967879071641906
 40
2.337979573398028
 40
2.833164429268554
 40
3.378972212899725
 40
3.588679653717861
 40
3.798387094562713
 40
4.565745048787789
 40
5.477334223165768
 40
5.844619130858944
 40
6.5267196739902
 40
6.894004581950802
 40
7.426222334111393
 40
8.597101386860679
 40
9.767980438362137
 40
10.30019819007082
 40
10.68378304351011
 40
11.06736789645055
 40
11.34183931514775
 40
11.85157194770323
 40
12.12604336179089
 40
12.35105999644617
 40
12.57607662953141
 40
12.91272946798705
 40
13.53794188146389
 40
13.87459471182028
 40
13.87459471182028
 40
13.87459471182028
 40
13.87459471182028
 10
43.18464632105315
 20
-392.2289440507311
 10
43.26505475316618
 20
-392.22983057741
 10
43.49479313686702
 20
-392.2323635086237
 10
43.7478217431059
 20
-392.2064733085134
 10
44.2397335176441
 20
-392.2802334886327
 10
43.70199075183061
 20
-391.7830516914771
 10
43.63436368353615
 20
-391.4729227339056
 10
43.09424104635224
 20
-391.0007903567266
 10
43.79622670088173
 20
-390.786286499061
 10
43.76580124028979
 20
-390.316554171156
 10
43.7668797556146
 20
-389.9991757399695
 10
43.77701255186935
 20
-389.6075736001505
 10
43.60039225233569
 20
-388.8905447824302
 10
42.80683100629139
 20
-388.8196578953143
 10
42.1563997866575
 20
-388.8179629548146
 10
41.73177163830771
 20
-388.8664997576556
 10
41.06299552635299
 20
-388.7261453821744
 10
41.33069422716409
 20
-389.6740193874253
 10
41.13942311400349
 20
-390.5291902117506
 10
41.32182708076158
 20
-391.3679500831053
 10
41.07367619796937
 20
-392.3460341123233
 10
41.58939943947208
 20
-392.1705038551435
 10
42.05565489210574
 20
-392.3471854294933
 10
41.94232097500714
 20
-391.8310493210899
 10
42.03308098852426
 20
-391.5774108827729
 10
41.90474209764726
 20
-391.1031901330764
 10
42.21735948309653
 20
-391.1966043260775
 10
42.4894650638231
 20
-391.1138898042704
 10
42.66160317773006
 20
-391.5768481810713
 10
42.93732627349356
 20
-391.8678823460895
 10
43.12052630707239
 20
-392.1353354632531
 10
43.18464632105315
 20
-392.2289440507311
 97
        1
330
205
 75
     0
 76
     1
 98
        1
 10
0.0
 20
0.0
  0
HATCH
  5
299
330
4F
100
AcDbEntity
  8
1
  6
Continuous
 62
     2
100
AcDbHatch
 10
0.0
 20
0.0
 30
0.0
210
0.0
220
0.0
230
1.0
  2
SOLID
 70
     1
 71
     1
 91
        1
 92
        1
 93
        1
 72
     4
 94
        3
 73
     0
 74
     0
 95
       32
 96
       28
 40
0.0
 40
0.0
 40
0.0
 40
0.0
 40
0.3082471536514241
 40
0.6106913911587366
 40
0.7285233172051289
 40
0.846355243160458
 40
1.095069083788197
 40
1.304598785108429
 40
1.498512531226522
 40
1.684645772597268
 40
1.792990884780981
 40
1.901335996980326
 40
2.187078663628677
 40
2.485446095191977
 40
2.591259820895476
 40
2.824050017485013
 40
3.056840214113747
 40
3.16265393986147
 40
3.350274287234256
 40
3.797676654030808
 40
4.331673027092349
 40
4.779075390675316
 40
4.966695731070174
 40
5.077163161115432
 40
5.320191507213138
 40
5.563219853289556
 40
5.67368727337655
 40
5.67368727337655
 40
5.67368727337655
 40
5.67368727337655
 10
17.33452450697223
 20
-395.2792600120447
 10
17.44446883608309
 20
-395.2659105834327
 10
17.66228773586304
 20
-395.2394630468112
 10
17.75707742193509
 20
-394.970456443921
 10
17.74766521083492
 20
-394.792857208112
 10
17.74993695868962
 20
-394.6340795597557
 10
17.74729954836435
 20
-394.4174938837978
 10
17.37378160395158
 20
-394.3482113450066
 10
17.69381017003036
 20
-394.2462403590245
 10
17.69226597554797
 20
-394.0712903182023
 10
17.69123835245335
 20
-393.9383682870137
 10
17.69787280679744
 20
-393.7728970566769
 10
17.62708287458192
 20
-393.5154705128217
 10
17.36630752721834
 20
-393.4715991964555
 10
17.15797793408192
 20
-393.4769710364656
 10
16.96107158095535
 20
-393.4700053745204
 10
16.78903124275159
 20
-393.4886300479246
 10
16.57320412656617
 20
-393.4480756641803
 10
16.67274043293963
 20
-393.7955620323907
 10
16.61250669947569
 20
-394.1145719294413
 10
16.6128941572888
 20
-394.6396689009277
 10
16.6720140688452
 20
-394.959633987266
 10
16.57344547244457
 20
-395.3077127053441
 10
16.79648308631571
 20
-395.2649225492508
 10
16.97594067881361
 20
-395.2843629307715
 10
17.18037602675085
 20
-395.2787526176941
 10
17.29782248961056
 20
-395.279139204321
 10
17.33452450697223
 20
-395.2792600120447
 97
        1
330
206
 75
     0
 76
     1
 98
        1
 10
0.0
 20
0.0
  0
HATCH
  5
29A
330
4F
100
AcDbEntity
  8
1
  6
Continuous
 62
     2
100
AcDbHatch
 10
0.0
 20
0.0
 30
0.0
210
0.0
220
0.0
230
1.0
  2
SOLID
 70
     1
 71
     1
 91
        2
 92
        1
 93
        1
 72
     4
 94
        3
 73
     0
 74
     0
 95
       22
 96
       18
 40
0.0
 40
0.0
 40
0.0
 40
0.0
 40
0.2818751606490082
 40
0.9020005335020755
 40
1.522125906386066
 40
1.804001075877636
 40
2.101970492062485
 40
2.399939908028628
 40
2.871392531335308
 40
3.270572215785726
 40
3.461582746789893
 40
3.816316589213407
 40
4.007327118691783
 40
4.406492202798074
 40
4.877949750497971
 40
5.175919168195255
 40
5.473888577503681
 40
5.473888577503681
 40
5.473888577503681
 40
5.473888577503681
 10
21.3894044589324
 20
-393.4752182109078
 10
21.38982296270217
 20
-393.5687573545408
 10
21.39116218415013
 20
-393.8680826206473
 10
21.37172686151846
 20
-394.3949275799555
 10
21.43907249223653
 20
-394.8348382587848
 10
21.31024580305576
 20
-395.3638825657387
 10
21.71204244088215
 20
-395.2539806351018
 10
22.02387690871468
 20
-395.3011643991924
 10
22.48831309674962
 20
-395.2082434005126
 10
22.55500645662023
 20
-394.810689835151
 10
22.54677309064006
 20
-394.5018505599823
 10
22.54664394150084
 20
-394.2524945264056
 10
22.55531037831854
 20
-393.9440387022019
 10
22.48552356656821
 20
-393.543431896015
 10
22.03412020674232
 20
-393.4635275903889
 10
21.68919514733212
 20
-393.4775702713762
 10
21.48933468746022
 20
-393.4760022286224
 10
21.3894044589324
 20
-393.4752182109078
 97
        1
330
20A
 92
       16
 93
        1
 72
     4
 94
        3
 73
     0
 74
     0
 95
       24
 96
       20
 40
0.0
 40
0.0
 40
0.0
 40
0.0
 40
0.1137723886458738
 40
0.325063984426965
 40
0.4388363821283933
 40
0.7669367293884364
 40
1.067197287122659
 40
1.262419653862472
 40
1.624975480858714
 40
1.820197849649495
 40
2.120443794678465
 40
2.448548538521158
 40
2.562320935356868
 40
2.773612529561098
 40
2.887384926528273
 40
3.124402583189567
 40
3.645841427846324
 40
4.167280272461187
 40
4.404297920280146
 40
4.404297920280146
 40
4.404297920280146
 40
4.404297920280146
 10
21.54923487542692
 20
-393.6187826099549
 10
21.58711583679439
 20
-393.6187459926834
 10
21.69534716061063
 20
-393.6186413798915
 10
21.84288664184105
 20
-393.6197107493487
 10
22.05594838868303
 20
-393.6157581750395
 10
22.34962448898879
 20
-393.6550305825354
 10
22.39493992093308
 20
-393.9714774528015
 10
22.38670028511915
 20
-394.2488309238452
 10
22.3866680953137
 20
-394.5056692696888
 10
22.39500352898594
 20
-394.7829379617722
 10
22.34922555664608
 20
-395.0998193924912
 10
22.05709288286126
 20
-395.1375789320699
 10
21.84112811265769
 20
-395.1365256626477
 10
21.70624482478043
 20
-395.1249374072294
 10
21.47919745792822
 20
-395.1646633364397
 10
21.60561879769087
 20
-394.7474772534623
 10
21.52916699187577
 20
-394.3973104452756
 10
21.55123027110679
 20
-393.9486115933533
 10
21.54970996740432
 20
-393.6973133187447
 10
21.54923487542692
 20
-393.6187826099549
 97
        1
330
209
 75
     0
 76
     1
 98
        1
 10
0.0
 20
0.0
  0
HATCH
  5
29B
330
4F
100
AcDbEntity
  8
1
  6
Continuous
 62
     2
100
AcDbHatch
 10
0.0
 20
0.0
 30
0.0
210
0.0
220
0.0
230
1.0
  2
SOLID
 70
     1
 71
     1
 91
        1
 92
        1
 93
        1
 72
     4
 94
        3
 73
     0
 74
     0
 95
       35
 96
       31
 40
0.0
 40
0.0
 40
0.0
 40
0.0
 40
0.3140822580189568
 40
0.673449452488172
 40
0.8721103089857983
 40
1.076234391918628
 40
1.145933086224308
 40
1.215631780456423
 40
1.43644456069605
 40
1.651341050856158
 40
2.133622709302928
 40
2.544074375947142
 40
2.67104448493823
 40
2.950378724988733
 40
3.229712965227728
 40
3.356683074460458
 40
3.767120331488822
 40
4.249406286782042
 40
4.464303016048627
 40
4.685120710376381
 40
4.75481940493141
 40
4.824518099422188
 40
5.028639616058663
 40
5.227299499944708
 40
5.586666689198737
 40
5.900748948802255
 40
6.026866568161745
 40
6.304325330752215
 40
6.581784093340412
 40
6.707901702716777
 40
6.707901702716777
 40
6.707901702716777
 40
6.707901702716777
 10
25.80191285567707
 20
-393.9736220135756
 10
25.81849880721007
 20
-393.8571314511555
 10
25.85406208846608
 20
-393.6073545068863
 10
26.21868842090206
 20
-393.598556723744
 10
26.43323546777941
 20
-393.5735137750395
 10
26.66752154414095
 20
-393.6904001348425
 10
26.65955769236515
 20
-393.556920644406
 10
26.70387364002034
 20
-393.4263645936803
 10
26.42835566405827
 20
-393.4741447646902
 10
26.17628230951544
 20
-393.426577400091
 10
25.7223927551719
 20
-393.4987827892945
 10
25.63684990909068
 20
-393.8788601355934
 10
25.64392640781936
 20
-394.1478883347082
 10
25.64081462381904
 20
-394.3772391540361
 10
25.64392668006701
 20
-394.6065897197944
 10
25.6368492087547
 20
-394.8756137495553
 10
25.72240232866265
 20
-395.2556791685803
 10
26.17627876597225
 20
-395.3278982889449
 10
26.42835981474646
 20
-395.2803402171424
 10
26.70387122350408
 20
-395.3280695574999
 10
26.65956008868949
 20
-395.197518807114
 10
26.66750544284881
 20
-395.0640277980896
 10
26.433433160368
 20
-395.1810440771616
 10
26.21775141453298
 20
-395.15516375738
 10
25.86042308484261
 20
-395.1515693957367
 10
25.79678836188876
 20
-394.8397846765618
 10
25.80399004846515
 20
-394.6056875740978
 10
25.80117355194027
 20
-394.3766725303871
 10
25.80198636720582
 20
-394.1502389607513
 10
25.80193035813905
 20
-394.0156736659223
 10
25.80191285567707
 20
-393.9736220135756
 97
        1
330
20B
 75
     0
 76
     1
 98
        1
 10
0.0
 20
0.0
  0
ENDBLK
  5
51
330
4F
100
AcDbEntity
  8
0
100
AcDbBlockEnd
  0
BLOCK
  5
2AD
330
2A4
100
AcDbEntity
  8
0
100
AcDbBlockBegin
  2
*D4
 70
     1
 10
0.0
 20
0.0
 30
0.0
  3
*D4
  1

  0
LINE
  5
2A5
330
2A4
100
AcDbEntity
  8
1
  6
Continuous
 62
     2
100
AcDbLine
 10
105.4161158394921
 20
-237.616882137202
 30
0.0
 11
92.1424087897633
 21
-237.616882137202
 31
0.0
  0
LINE
  5
2A6
330
2A4
100
AcDbEntity
  8
1
  6
Continuous
 62
     2
100
AcDbLine
 10
113.3161158394921
 20
-237.616882137202
 30
0.0
 11
105.4161158394921
 21
-237.616882137202
 31
0.0
  0
LINE
  5
2A7
330
2A4
100
AcDbEntity
  8
1
  6
Continuous
 62
     2
100
AcDbLine
 10
120.3161158394921
 20
-237.616882137202
 30
0.0
 11
113.3161158394921
 21
-237.616882137202
 31
0.0
  0
LINE
  5
2A8
330
2A4
100
AcDbEntity
  8
1
  6
Continuous
 62
     2
100
AcDbLine
 10
105.4161158394921
 20
-227.566956622224
 30
0.0
 11
105.4161158394921
 21
-239.616882137202
 31
0.0
  0
LINE
  5
2A9
330
2A4
100
AcDbEntity
  8
1
  6
Continuous
 62
     2
100
AcDbLine
 10
113.3161158394921
 20
-332.566956622224
 30
0.0
 11
113.3161158394921
 21
-235.616882137202
 31
0.0
  0
SOLID
  5
2AA
330
2A4
100
AcDbEntity
  8
1
 62
     2
100
AcDbTrace
 10
116.8161158394921
 20
-237.1560983956461
 30
0.0
 11
116.8161158394921
 21
-238.0776658787579
 31
0.0
 12
113.3161158394921
 22
-237.616882137202
 32
0.0
 13
113.3161158394921
 23
-237.616882137202
 33
0.0
  0
SOLID
  5
2AB
330
2A4
100
AcDbEntity
  8
1
 62
     2
100
AcDbTrace
 10
101.9161158394921
 20
-238.0776658787579
 30
0.0
 11
101.9161158394921
 21
-237.1560983956461
 31
0.0
 12
105.4161158394921
 22
-237.616882137202
 32
0.0
 13
105.4161158394921
 23
-237.616882137202
 33
0.0
  0
MTEXT
  5
2AC
330
2A4
100
AcDbEntity
  8
1
 62
     2
100
AcDbMText
 10
91.54740878977174
 20
-235.6168890942783
 30
0.0
 40
3.5
 41
0.0
 71
     7
 72
     1
  1
\C2;(\C2;7.9\C2;)
  7
CONVERTER_12
 11
0.9999999999970619
 21
2.424068405545306E-6
 31
0.0
 73
     1
 44
0.60024009603842
  0
ENDBLK
  5
2AE
330
2A4
100
AcDbEntity
  8
0
100
AcDbBlockEnd
  0
BLOCK
  5
2B8
330
2B1
100
AcDbEntity
  8
0
100
AcDbBlockBegin
  2
*D5
 70
     1
 10
0.0
 20
0.0
 30
0.0
  3
*D5
  1

  0
LINE
  5
2B2
330
2B1
100
AcDbEntity
  8
1
  6
Continuous
 62
     2
100
AcDbLine
 10
-199.663054859744
 20
-143.566956622224
 30
0.0
 11
-199.663054859744
 21
-311.566956622224
 31
0.0
  0
LINE
  5
2B3
330
2B1
100
AcDbEntity
  8
1
  6
Continuous
 62
     2
100
AcDbLine
 10
-231.7746363086952
 20
-143.566956622224
 30
0.0
 11
-197.663054859744
 21
-143.566956622224
 31
0.0
  0
LINE
  5
2B4
330
2B1
100
AcDbEntity
  8
1
  6
Continuous
 62
     2
100
AcDbLine
 10
-231.7746363086952
 20
-311.566956622224
 30
0.0
 11
-197.663054859744
 21
-311.566956622224
 31
0.0
  0
SOLID
  5
2B5
330
2B1
100
AcDbEntity
  8
1
 62
     2
100
AcDbTrace
 10
-199.2022711181881
 20
-147.066956622224
 30
0.0
 11
-200.1238386012999
 21
-147.066956622224
 31
0.0
 12
-199.663054859744
 22
-143.566956622224
 32
0.0
 13
-199.663054859744
 23
-143.566956622224
 33
0.0
  0
SOLID
  5
2B6
330
2B1
100
AcDbEntity
  8
1
 62
     2
100
AcDbTrace
 10
-200.1238386012999
 20
-308.066956622224
 30
0.0
 11
-199.2022711181881
 21
-308.066956622224
 31
0.0
 12
-199.663054859744
 22
-311.566956622224
 32
0.0
 13
-199.663054859744
 23
-311.566956622224
 33
0.0
  0
MTEXT
  5
2B7
330
2B1
100
AcDbEntity
  8
1
 62
     2
100
AcDbMText
 10
-201.663054859744
 20
-231.095510658166
 30
0.0
 40
3.5
 41
0.0
 71
     7
 72
     1
  1
168
  7
CONVERTER_12
 11
0.0
 21
1.0
 31
0.0
 73
     1
 44
0.60024009603842
  0
ENDBLK
  5
2B9
330
2B1
100
AcDbEntity
  8
0
100
AcDbBlockEnd
  0
BLOCK
  5
2C3
330
2BC
100
AcDbEntity
  8
0
100
AcDbBlockBegin
  2
*D6
 70
     1
 10
0.0
 20
0.0
 30
0.0
  3
*D6
  1

  0
LINE
  5
2BD
330
2BC
100
AcDbEntity
  8
1
  6
Continuous
 62
     2
100
AcDbLine
 10
-155.182252743357
 20
-271.566956622224
 30
0.0
 11
-155.182252743357
 21
-183.566956622224
 31
0.0
  0
LINE
  5
2BE
330
2BC
100
AcDbEntity
  8
1
  6
Continuous
 62
     2
100
AcDbLine
 10
-149.2305981112079
 20
-271.566956622224
 30
0.0
 11
-157.182252743357
 21
-271.566956622224
 31
0.0
  0
LINE
  5
2BF
330
2BC
100
AcDbEntity
  8
1
  6
Continuous
 62
     2
100
AcDbLine
 10
-149.2305981112079
 20
-183.566956622224
 30
0.0
 11
-157.182252743357
 21
-183.566956622224
 31
0.0
  0
SOLID
  5
2C0
330
2BC
100
AcDbEntity
  8
1
 62
     2
100
AcDbTrace
 10
-155.6430364849129
 20
-268.066956622224
 30
0.0
 11
-154.7214690018011
 21
-268.066956622224
 31
0.0
 12
-155.182252743357
 22
-271.566956622224
 32
0.0
 13
-155.182252743357
 23
-271.566956622224
 33
0.0
  0
SOLID
  5
2C1
330
2BC
100
AcDbEntity
  8
1
 62
     2
100
AcDbTrace
 10
-154.7214690018011
 20
-187.066956622224
 30
0.0
 11
-155.6430364849129
 21
-187.066956622224
 31
0.0
 12
-155.182252743357
 22
-183.566956622224
 32
0.0
 13
-155.182252743357
 23
-183.566956622224
 33
0.0
  0
MTEXT
  5
2C2
330
2BC
100
AcDbEntity
  8
1
 62
     2
100
AcDbMText
 10
-157.182252743357
 20
-222.6012091409717
 30
0.0
 40
3.5
 41
0.0
 71
     7
 72
     1
  1
88
  7
CONVERTER_12
 11
0.0
 21
1.0
 31
0.0
 73
     1
 44
0.60024009603842
  0
ENDBLK
  5
2C4
330
2BC
100
AcDbEntity
  8
0
100
AcDbBlockEnd
  0
BLOCK
  5
2D0
330
2C7
100
AcDbEntity
  8
0
100
AcDbBlockBegin
  2
*D7
 70
     1
 10
0.0
 20
0.0
 30
0.0
  3
*D7
  1

  0
LINE
  5
2C8
330
2C7
100
AcDbEntity
  8
1
  6
Continuous
 62
     2
100
AcDbLine
 10
-158.1099304999171
 20
-283.082951546492
 30
0.0
 11
-149.2305981112079
 21
-283.082951546492
 31
0.0
  0
LINE
  5
2C9
330
2C7
100
AcDbEntity
  8
1
  6
Continuous
 62
     2
100
AcDbLine
 10
-149.2305981112079
 20
-283.082951546492
 30
0.0
 11
-141.7305981112079
 21
-283.082951546492
 31
0.0
  0
LINE
  5
2CA
330
2C7
100
AcDbEntity
  8
1
  6
Continuous
 62
     2
100
AcDbLine
 10
-141.7305981112079
 20
-283.082951546492
 30
0.0
 11
-134.7305981112079
 21
-283.082951546492
 31
0.0
  0
LINE
  5
2CB
330
2C7
100
AcDbEntity
  8
1
  6
Continuous
 62
     2
100
AcDbLine
 10
-149.2305981112079
 20
-271.5669566222239
 30
0.0
 11
-149.2305981112079
 21
-285.082951546492
 31
0.0
  0
LINE
  5
2CC
330
2C7
100
AcDbEntity
  8
1
  6
Continuous
 62
     2
100
AcDbLine
 10
-141.7305981112079
 20
-271.5669566222239
 30
0.0
 11
-141.7305981112079
 21
-285.082951546492
 31
0.0
  0
SOLID
  5
2CD
330
2C7
100
AcDbEntity
  8
1
 62
     2
100
AcDbTrace
 10
-152.7305981112079
 20
-283.5437352880479
 30
0.0
 11
-152.7305981112079
 21
-282.6221678049361
 31
0.0
 12
-149.2305981112079
 22
-283.082951546492
 32
0.0
 13
-149.2305981112079
 23
-283.082951546492
 33
0.0
  0
SOLID
  5
2CE
330
2C7
100
AcDbEntity
  8
1
 62
     2
100
AcDbTrace
 10
-138.2305981112079
 20
-282.6221678049361
 30
0.0
 11
-138.2305981112079
 21
-283.5437352880479
 31
0.0
 12
-141.7305981112079
 22
-283.082951546492
 32
0.0
 13
-141.7305981112079
 23
-283.082951546492
 33
0.0
  0
MTEXT
  5
2CF
330
2C7
100
AcDbEntity
  8
1
 62
     2
100
AcDbMText
 10
-158.1099304999171
 20
-281.082951546492
 30
0.0
 40
3.5
 41
0.0
 71
     7
 72
     1
  1
7.5
  7
CONVERTER_12
 11
0.9999999999970619
 21
2.424068405545306E-6
 31
0.0
 73
     1
 44
0.60024009603842
  0
ENDBLK
  5
2D1
330
2C7
100
AcDbEntity
  8
0
100
AcDbBlockEnd
  0
BLOCK
  5
2DB
330
2D4
100
AcDbEntity
  8
0
100
AcDbBlockBegin
  2
*D8
 70
     1
 10
0.0
 20
0.0
 30
0.0
  3
*D8
  1

  0
LINE
  5
2D5
330
2D4
100
AcDbEntity
  8
1
  6
Continuous
 62
     2
100
AcDbLine
 10
-141.7305981112079
 20
-341.349014049638
 30
0.0
 11
-151.7305981112079
 21
-341.349014049638
 31
0.0
  0
LINE
  5
2D6
330
2D4
100
AcDbEntity
  8
1
  6
Continuous
 62
     2
100
AcDbLine
 10
-141.7305981112079
 20
-332.566956622224
 30
0.0
 11
-141.7305981112079
 21
-343.349014049638
 31
0.0
  0
LINE
  5
2D7
330
2D4
100
AcDbEntity
  8
1
  6
Continuous
 62
     2
100
AcDbLine
 10
-151.7305981112079
 20
-322.566956622224
 30
0.0
 11
-151.7305981112079
 21
-343.349014049638
 31
0.0
  0
SOLID
  5
2D8
330
2D4
100
AcDbEntity
  8
1
 62
     2
100
AcDbTrace
 10
-145.2305981112079
 20
-341.8097977911939
 30
0.0
 11
-145.2305981112079
 21
-340.8882303080821
 31
0.0
 12
-141.7305981112079
 22
-341.349014049638
 32
0.0
 13
-141.7305981112079
 23
-341.349014049638
 33
0.0
  0
SOLID
  5
2D9
330
2D4
100
AcDbEntity
  8
1
 62
     2
100
AcDbTrace
 10
-148.2305981112079
 20
-340.8882303080821
 30
0.0
 11
-148.2305981112079
 21
-341.8097977911939
 31
0.0
 12
-151.7305981112079
 22
-341.349014049638
 32
0.0
 13
-151.7305981112079
 23
-341.349014049638
 33
0.0
  0
MTEXT
  5
2DA
330
2D4
100
AcDbEntity
  8
1
 62
     2
100
AcDbMText
 10
-149.417857954456
 20
-339.349014049638
 30
0.0
 40
3.5
 41
0.0
 71
     7
 72
     1
  1
10
  7
CONVERTER_12
 11
0.9999999999970619
 21
2.424068405545306E-6
 31
0.0
 73
     1
 44
0.60024009603842
  0
ENDBLK
  5
2DC
330
2D4
100
AcDbEntity
  8
0
100
AcDbBlockEnd
  0
BLOCK
  5
2E6
330
2DF
100
AcDbEntity
  8
0
100
AcDbBlockBegin
  2
*D9
 70
     1
 10
0.0
 20
0.0
 30
0.0
  3
*D9
  1

  0
LINE
  5
2E0
330
2DF
100
AcDbEntity
  8
1
  6
Continuous
 62
     2
100
AcDbLine
 10
-141.7305981112079
 20
-350.363137704431
 30
0.0
 11
-177.730598111208
 21
-350.363137704431
 31
0.0
  0
LINE
  5
2E1
330
2DF
100
AcDbEntity
  8
1
  6
Continuous
 62
     2
100
AcDbLine
 10
-141.7305981112079
 20
-332.566956622224
 30
0.0
 11
-141.7305981112079
 21
-352.363137704431
 31
0.0
  0
LINE
  5
2E2
330
2DF
100
AcDbEntity
  8
1
  6
Continuous
 62
     2
100
AcDbLine
 10
-177.730598111208
 20
-306.566956622224
 30
0.0
 11
-177.730598111208
 21
-352.363137704431
 31
0.0
  0
SOLID
  5
2E3
330
2DF
100
AcDbEntity
  8
1
 62
     2
100
AcDbTrace
 10
-145.2305981112079
 20
-350.8239214459869
 30
0.0
 11
-145.2305981112079
 21
-349.9023539628751
 31
0.0
 12
-141.7305981112079
 22
-350.363137704431
 32
0.0
 13
-141.7305981112079
 23
-350.363137704431
 33
0.0
  0
SOLID
  5
2E4
330
2DF
100
AcDbEntity
  8
1
 62
     2
100
AcDbTrace
 10
-174.230598111208
 20
-349.9023539628751
 30
0.0
 11
-174.230598111208
 21
-350.8239214459869
 31
0.0
 12
-177.730598111208
 22
-350.363137704431
 32
0.0
 13
-177.730598111208
 23
-350.363137704431
 33
0.0
  0
MTEXT
  5
2E5
330
2DF
100
AcDbEntity
  8
1
 62
     2
100
AcDbMText
 10
-163.5097067825009
 20
-348.363137704431
 30
0.0
 40
3.5
 41
0.0
 71
     7
 72
     1
  1
36
  7
CONVERTER_12
 11
0.9999999999970619
 21
2.424068405545306E-6
 31
0.0
 73
     1
 44
0.60024009603842
  0
ENDBLK
  5
2E7
330
2DF
100
AcDbEntity
  8
0
100
AcDbBlockEnd
  0
BLOCK
  5
2F1
330
2EA
100
AcDbEntity
  8
0
100
AcDbBlockBegin
  2
*D10
 70
     1
 10
0.0
 20
0.0
 30
0.0
  3
*D10
  1

  0
LINE
  5
2EB
330
2EA
100
AcDbEntity
  8
1
  6
Continuous
 62
     2
100
AcDbLine
 10
-247.0246363086952
 20
-164.272066147577
 30
0.0
 11
-234.0246363086952
 21
-164.272066147577
 31
0.0
  0
LINE
  5
2EC
330
2EA
100
AcDbEntity
  8
1
  6
Continuous
 62
     2
100
AcDbLine
 10
-247.0246363086952
 20
-145.816956622224
 30
0.0
 11
-247.0246363086952
 21
-166.272066147577
 31
0.0
  0
LINE
  5
2ED
330
2EA
100
AcDbEntity
  8
1
  6
Continuous
 62
     2
100
AcDbLine
 10
-234.0246363086952
 20
-145.816956622224
 30
0.0
 11
-234.0246363086952
 21
-166.272066147577
 31
0.0
  0
SOLID
  5
2EE
330
2EA
100
AcDbEntity
  8
1
 62
     2
100
AcDbTrace
 10
-243.5246363086952
 20
-163.8112824060211
 30
0.0
 11
-243.5246363086952
 21
-164.7328498891329
 31
0.0
 12
-247.0246363086952
 22
-164.272066147577
 32
0.0
 13
-247.0246363086952
 23
-164.272066147577
 33
0.0
  0
SOLID
  5
2EF
330
2EA
100
AcDbEntity
  8
1
 62
     2
100
AcDbTrace
 10
-237.5246363086952
 20
-164.7328498891329
 30
0.0
 11
-237.5246363086952
 21
-163.8112824060211
 31
0.0
 12
-234.0246363086952
 22
-164.272066147577
 32
0.0
 13
-234.0246363086952
 23
-164.272066147577
 33
0.0
  0
MTEXT
  5
2F0
330
2EA
100
AcDbEntity
  8
1
 62
     2
100
AcDbMText
 10
-242.836301051682
 20
-162.272066147577
 30
0.0
 40
3.5
 41
0.0
 71
     7
 72
     1
  1
13
  7
CONVERTER_12
 11
0.9999999999970619
 21
2.424068405545306E-6
 31
0.0
 73
     1
 44
0.60024009603842
  0
ENDBLK
  5
2F2
330
2EA
100
AcDbEntity
  8
0
100
AcDbBlockEnd
  0
BLOCK
  5
2FC
330
2F5
100
AcDbEntity
  8
0
100
AcDbBlockBegin
  2
*D11
 70
     1
 10
0.0
 20
0.0
 30
0.0
  3
*D11
  1

  0
LINE
  5
2F6
330
2F5
100
AcDbEntity
  8
1
  6
Continuous
 62
     2
100
AcDbLine
 10
-217.9018810101
 20
-148.566956622224
 30
0.0
 11
-217.9018810101
 21
-306.566956622224
 31
0.0
  0
LINE
  5
2F7
330
2F5
100
AcDbEntity
  8
1
  6
Continuous
 62
     2
100
AcDbLine
 10
-237.5246363086951
 20
-148.566956622224
 30
0.0
 11
-215.9018810101
 21
-148.566956622224
 31
0.0
  0
LINE
  5
2F8
330
2F5
100
AcDbEntity
  8
1
  6
Continuous
 62
     2
100
AcDbLine
 10
-237.5246363086951
 20
-306.566956622224
 30
0.0
 11
-215.9018810101
 21
-306.566956622224
 31
0.0
  0
SOLID
  5
2F9
330
2F5
100
AcDbEntity
  8
1
 62
     2
100
AcDbTrace
 10
-217.4410972685441
 20
-152.066956622224
 30
0.0
 11
-218.3626647516559
 21
-152.066956622224
 31
0.0
 12
-217.9018810101
 22
-148.566956622224
 32
0.0
 13
-217.9018810101
 23
-148.566956622224
 33
0.0
  0
SOLID
  5
2FA
330
2F5
100
AcDbEntity
  8
1
 62
     2
100
AcDbTrace
 10
-218.3626647516559
 20
-303.066956622224
 30
0.0
 11
-217.4410972685441
 21
-303.066956622224
 31
0.0
 12
-217.9018810101
 22
-306.566956622224
 32
0.0
 13
-217.9018810101
 23
-306.566956622224
 33
0.0
  0
MTEXT
  5
2FB
330
2F5
100
AcDbEntity
  8
1
 62
     2
100
AcDbMText
 10
-219.9018810101
 20
-225.4226504433287
 30
0.0
 40
3.5
 41
0.0
 71
     7
 72
     1
  1
158
  7
CONVERTER_12
 11
0.0
 21
1.0
 31
0.0
 73
     1
 44
0.60024009603842
  0
ENDBLK
  5
2FD
330
2F5
100
AcDbEntity
  8
0
100
AcDbBlockEnd
  0
BLOCK
  5
307
330
300
100
AcDbEntity
  8
0
100
AcDbBlockBegin
  2
*D12
 70
     1
 10
0.0
 20
0.0
 30
0.0
  3
*D12
  1

  0
LINE
  5
301
330
300
100
AcDbEntity
  8
1
  6
Continuous
 62
     2
100
AcDbLine
 10
-81.16785902345418
 20
-304.900783589978
 30
0.0
 11
-68.16785902345418
 21
-304.900783589978
 31
0.0
  0
LINE
  5
302
330
300
100
AcDbEntity
  8
1
  6
Continuous
 62
     2
100
AcDbLine
 10
-81.16785902345418
 20
-295.4871061063313
 30
0.0
 11
-81.16785902345418
 21
-306.900783589978
 31
0.0
  0
LINE
  5
303
330
300
100
AcDbEntity
  8
1
  6
Continuous
 62
     2
100
AcDbLine
 10
-68.16785902345418
 20
-280.9871061063313
 30
0.0
 11
-68.16785902345418
 21
-306.900783589978
 31
0.0
  0
SOLID
  5
304
330
300
100
AcDbEntity
  8
1
 62
     2
100
AcDbTrace
 10
-77.66785902345418
 20
-304.4399998484221
 30
0.0
 11
-77.66785902345418
 21
-305.3615673315339
 31
0.0
 12
-81.16785902345418
 22
-304.900783589978
 32
0.0
 13
-81.16785902345418
 23
-304.900783589978
 33
0.0
  0
SOLID
  5
305
330
300
100
AcDbEntity
  8
1
 62
     2
100
AcDbTrace
 10
-71.66785902345418
 20
-305.3615673315339
 30
0.0
 11
-71.66785902345418
 21
-304.4399998484221
 31
0.0
 12
-68.16785902345418
 22
-304.900783589978
 32
0.0
 13
-68.16785902345418
 23
-304.900783589978
 33
0.0
  0
MTEXT
  5
306
330
300
100
AcDbEntity
  8
1
 62
     2
100
AcDbMText
 10
-77.09452355752599
 20
-302.900783589978
 30
0.0
 40
3.5
 41
0.0
 71
     7
 72
     1
  1
13
  7
CONVERTER_12
 11
0.9999999999970619
 21
2.424068405545306E-6
 31
0.0
 73
     1
 44
0.60024009603842
  0
ENDBLK
  5
308
330
300
100
AcDbEntity
  8
0
100
AcDbBlockEnd
  0
BLOCK
  5
312
330
30B
100
AcDbEntity
  8
0
100
AcDbBlockBegin
  2
*D13
 70
     1
 10
0.0
 20
0.0
 30
0.0
  3
*D13
  1

  0
LINE
  5
30C
330
30B
100
AcDbEntity
  8
1
  6
Continuous
 62
     2
100
AcDbLine
 10
2.8241277206779
 20
-324.653822080506
 30
0.0
 11
12.8241277206779
 21
-324.653822080506
 31
0.0
  0
LINE
  5
30D
330
30B
100
AcDbEntity
  8
1
  6
Continuous
 62
     2
100
AcDbLine
 10
2.8241277206779
 20
-332.566956622224
 30
0.0
 11
2.8241277206779
 21
-322.653822080506
 31
0.0
  0
LINE
  5
30E
330
30B
100
AcDbEntity
  8
1
  6
Continuous
 62
     2
100
AcDbLine
 10
12.8241277206779
 20
-307.566956622224
 30
0.0
 11
12.8241277206779
 21
-326.653822080506
 31
0.0
  0
SOLID
  5
30F
330
30B
100
AcDbEntity
  8
1
 62
     2
100
AcDbTrace
 10
6.3241277206779
 20
-324.1930383389501
 30
0.0
 11
6.3241277206779
 21
-325.1146058220619
 31
0.0
 12
2.8241277206779
 22
-324.653822080506
 32
0.0
 13
2.8241277206779
 23
-324.653822080506
 33
0.0
  0
SOLID
  5
310
330
30B
100
AcDbEntity
  8
1
 62
     2
100
AcDbTrace
 10
9.3241277206779
 20
-325.1146058220619
 30
0.0
 11
9.3241277206779
 21
-324.1930383389501
 31
0.0
 12
12.8241277206779
 22
-324.653822080506
 32
0.0
 13
12.8241277206779
 23
-324.653822080506
 33
0.0
  0
MTEXT
  5
311
330
30B
100
AcDbEntity
  8
1
 62
     2
100
AcDbMText
 10
5.7622572981964
 20
-322.653822080506
 30
0.0
 40
3.5
 41
0.0
 71
     7
 72
     1
  1
10
  7
CONVERTER_12
 11
0.9999999999970619
 21
2.424068405545306E-6
 31
0.0
 73
     1
 44
0.60024009603842
  0
ENDBLK
  5
313
330
30B
100
AcDbEntity
  8
0
100
AcDbBlockEnd
  0
BLOCK
  5
31D
330
316
100
AcDbEntity
  8
0
100
AcDbBlockBegin
  2
*D14
 70
     1
 10
0.0
 20
0.0
 30
0.0
  3
*D14
  1

  0
LINE
  5
317
330
316
100
AcDbEntity
  8
1
  6
Continuous
 62
     2
100
AcDbLine
 10
2.8241277206779
 20
-339.930469382798
 30
0.0
 11
34.8241277206779
 21
-339.930469382798
 31
0.0
  0
LINE
  5
318
330
316
100
AcDbEntity
  8
1
  6
Continuous
 62
     2
100
AcDbLine
 10
34.8241277206779
 20
-287.566956622224
 30
0.0
 11
34.8241277206779
 21
-341.930469382798
 31
0.0
  0
LINE
  5
319
330
316
100
AcDbEntity
  8
1
  6
Continuous
 62
     2
100
AcDbLine
 10
2.8241277206779
 20
-332.566956622224
 30
0.0
 11
2.8241277206779
 21
-341.930469382798
 31
0.0
  0
SOLID
  5
31A
330
316
100
AcDbEntity
  8
1
 62
     2
100
AcDbTrace
 10
6.3241277206779
 20
-339.4696856412421
 30
0.0
 11
6.3241277206779
 21
-340.3912531243539
 31
0.0
 12
2.8241277206779
 22
-339.930469382798
 32
0.0
 13
2.8241277206779
 23
-339.930469382798
 33
0.0
  0
SOLID
  5
31B
330
316
100
AcDbEntity
  8
1
 62
     2
100
AcDbTrace
 10
31.3241277206779
 20
-340.3912531243539
 30
0.0
 11
31.3241277206779
 21
-339.4696856412421
 31
0.0
 12
34.8241277206779
 22
-339.930469382798
 32
0.0
 13
34.8241277206779
 23
-339.930469382798
 33
0.0
  0
MTEXT
  5
31C
330
316
100
AcDbEntity
  8
1
 62
     2
100
AcDbMText
 10
15.38446819450727
 20
-337.930469382798
 30
0.0
 40
3.5
 41
0.0
 71
     7
 72
     1
  1
32
  7
CONVERTER_12
 11
0.9999999999970619
 21
2.424068405545306E-6
 31
0.0
 73
     1
 44
0.60024009603842
  0
ENDBLK
  5
31E
330
316
100
AcDbEntity
  8
0
100
AcDbBlockEnd
  0
BLOCK
  5
32B
330
321
100
AcDbEntity
  8
0
100
AcDbBlockBegin
  2
*D15
 70
     1
 10
0.0
 20
0.0
 30
0.0
  3
*D15
  1

  0
LINE
  5
322
330
321
100
AcDbEntity
  8
1
  6
Continuous
 62
     2
100
AcDbLine
 10
75.1661158394921
 20
-136.418455515211
 30
0.0
 11
82.1661158394921
 21
-136.418455515211
 31
0.0
  0
LINE
  5
323
330
321
100
AcDbEntity
  8
1
  6
Continuous
 62
     2
100
AcDbLine
 10
82.1661158394921
 20
-136.418455515211
 30
0.0
 11
91.6661158394921
 21
-136.418455515211
 31
0.0
  0
LINE
  5
324
330
321
100
AcDbEntity
  8
1
  6
Continuous
 62
     2
100
AcDbLine
 10
91.6661158394921
 20
-136.418455515211
 30
0.0
 11
98.6661158394921
 21
-136.418455515211
 31
0.0
  0
LINE
  5
325
330
321
100
AcDbEntity
  8
1
  6
Continuous
 62
     2
100
AcDbLine
 10
82.1661158394921
 20
-158.817048851624
 30
0.0
 11
82.1661158394921
 21
-134.418455515211
 31
0.0
  0
LINE
  5
326
330
321
100
AcDbEntity
  8
1
  6
Continuous
 62
     2
100
AcDbLine
 10
91.6661158394921
 20
-141.16304156701
 30
0.0
 11
91.6661158394921
 21
-134.418455515211
 31
0.0
  0
LINE
  5
327
330
321
100
AcDbEntity
  8
1
  6
Continuous
 62
     2
100
AcDbLine
 10
91.6661158394921
 20
-164.816956622224
 30
0.0
 11
91.6661158394921
 21
-151.81911093477
 31
0.0
  0
SOLID
  5
328
330
321
100
AcDbEntity
  8
1
 62
     2
100
AcDbTrace
 10
78.6661158394921
 20
-136.8792392567669
 30
0.0
 11
78.6661158394921
 21
-135.9576717736551
 31
0.0
 12
82.1661158394921
 22
-136.418455515211
 32
0.0
 13
82.1661158394921
 23
-136.418455515211
 33
0.0
  0
SOLID
  5
329
330
321
100
AcDbEntity
  8
1
 62
     2
100
AcDbTrace
 10
95.1661158394921
 20
-135.9576717736551
 30
0.0
 11
95.1661158394921
 21
-136.8792392567669
 31
0.0
 12
91.6661158394921
 22
-136.418455515211
 32
0.0
 13
91.6661158394921
 23
-136.418455515211
 33
0.0
  0
MTEXT
  5
32A
330
321
100
AcDbEntity
  8
1
 62
     2
100
AcDbMText
 10
82.72442481643468
 20
-134.418455515211
 30
0.0
 40
3.5
 41
0.0
 71
     7
 72
     1
  1
9.5
  7
CONVERTER_12
 11
0.9999999999970619
 21
2.424068405545306E-6
 31
0.0
 73
     1
 44
0.60024009603842
  0
ENDBLK
  5
32C
330
321
100
AcDbEntity
  8
0
100
AcDbBlockEnd
  0
BLOCK
  5
336
330
32F
100
AcDbEntity
  8
0
100
AcDbBlockBegin
  2
*D16
 70
     1
 10
0.0
 20
0.0
 30
0.0
  3
*D16
  1

  0
LINE
  5
330
330
32F
100
AcDbEntity
  8
1
  6
Continuous
 62
     2
100
AcDbLine
 10
-190.82520397459
 20
-322.5669566222238
 30
0.0
 11
-190.82520397459
 21
-132.5573376789906
 31
0.0
  0
LINE
  5
331
330
32F
100
AcDbEntity
  8
1
  6
Continuous
 62
     2
100
AcDbLine
 10
-240.5246363086951
 20
-322.5669566222238
 30
0.0
 11
-188.82520397459
 21
-322.5669566222238
 31
0.0
  0
LINE
  5
332
330
32F
100
AcDbEntity
  8
1
  6
Continuous
 62
     2
100
AcDbLine
 10
-240.5246363086951
 20
-132.5573376789906
 30
0.0
 11
-188.82520397459
 21
-132.5573376789906
 31
0.0
  0
SOLID
  5
333
330
32F
100
AcDbEntity
  8
1
 62
     2
100
AcDbTrace
 10
-191.2859877161459
 20
-319.0669566222238
 30
0.0
 11
-190.3644202330341
 21
-319.0669566222238
 31
0.0
 12
-190.82520397459
 22
-322.5669566222238
 32
0.0
 13
-190.82520397459
 23
-322.5669566222238
 33
0.0
  0
SOLID
  5
334
330
32F
100
AcDbEntity
  8
1
 62
     2
100
AcDbTrace
 10
-190.3644202330341
 20
-136.0573376789906
 30
0.0
 11
-191.2859877161459
 21
-136.0573376789906
 31
0.0
 12
-190.82520397459
 22
-132.5573376789906
 32
0.0
 13
-190.82520397459
 23
-132.5573376789906
 33
0.0
  0
MTEXT
  5
335
330
32F
100
AcDbEntity
  8
1
 62
     2
100
AcDbMText
 10
-192.82520397459
 20
-231.476931483913
 30
0.0
 40
3.5
 41
0.0
 71
     7
 72
     1
  1
190
  7
CONVERTER_12
 11
0.0
 21
1.0
 31
0.0
 73
     1
 44
0.60024009603842
  0
ENDBLK
  5
337
330
32F
100
AcDbEntity
  8
0
100
AcDbBlockEnd
  0
BLOCK
  5
341
330
33A
100
AcDbEntity
  8
0
100
AcDbBlockBegin
  2
*D17
 70
     1
 10
0.0
 20
0.0
 30
0.0
  3
*D17
  1

  0
LINE
  5
33B
330
33A
100
AcDbEntity
  8
1
  6
Continuous
 62
     2
100
AcDbLine
 10
-81.16785902345418
 20
-313.3265755654574
 30
0.0
 11
-36.16785902345418
 21
-313.3265755654574
 31
0.0
  0
LINE
  5
33C
330
33A
100
AcDbEntity
  8
1
  6
Continuous
 62
     2
100
AcDbLine
 10
-81.16785902345418
 20
-295.4871061063313
 30
0.0
 11
-81.16785902345418
 21
-315.3265755654574
 31
0.0
  0
LINE
  5
33D
330
33A
100
AcDbEntity
  8
1
  6
Continuous
 62
     2
100
AcDbLine
 10
-36.16785902345418
 20
-279.9871061063313
 30
0.0
 11
-36.16785902345418
 21
-315.3265755654574
 31
0.0
  0
SOLID
  5
33E
330
33A
100
AcDbEntity
  8
1
 62
     2
100
AcDbTrace
 10
-77.66785902345418
 20
-312.8657918239015
 30
0.0
 11
-77.66785902345418
 21
-313.7873593070133
 31
0.0
 12
-81.16785902345418
 22
-313.3265755654574
 32
0.0
 13
-81.16785902345418
 23
-313.3265755654574
 33
0.0
  0
SOLID
  5
33F
330
33A
100
AcDbEntity
  8
1
 62
     2
100
AcDbTrace
 10
-39.66785902345418
 20
-313.7873593070133
 30
0.0
 11
-39.66785902345418
 21
-312.8657918239015
 31
0.0
 12
-36.16785902345418
 22
-313.3265755654574
 32
0.0
 13
-36.16785902345418
 23
-313.3265755654574
 33
0.0
  0
MTEXT
  5
340
330
33A
100
AcDbEntity
  8
1
 62
     2
100
AcDbMText
 10
-61.1571506362859
 20
-311.3265755654574
 30
0.0
 40
3.5
 41
0.0
 71
     7
 72
     1
  1
45
  7
CONVERTER_12
 11
0.9999999999970619
 21
2.424068405545306E-6
 31
0.0
 73
     1
 44
0.60024009603842
  0
ENDBLK
  5
342
330
33A
100
AcDbEntity
  8
0
100
AcDbBlockEnd
  0
BLOCK
  5
34E
330
345
100
AcDbEntity
  8
0
100
AcDbBlockBegin
  2
*D18
 70
     1
 10
0.0
 20
0.0
 30
0.0
  3
*D18
  1

  0
LINE
  5
346
330
345
100
AcDbEntity
  8
1
  6
Continuous
 62
     2
100
AcDbLine
 10
-88.1438699526662
 20
-273.9871061063312
 30
0.0
 11
-88.1438699526662
 21
-280.9871061063312
 31
0.0
  0
LINE
  5
347
330
345
100
AcDbEntity
  8
1
  6
Continuous
 62
     2
100
AcDbLine
 10
-88.1438699526662
 20
-280.9871061063312
 30
0.0
 11
-88.1438699526662
 21
-287.5871061063312
 31
0.0
  0
LINE
  5
348
330
345
100
AcDbEntity
  8
1
  6
Continuous
 62
     2
100
AcDbLine
 10
-88.1438699526662
 20
-287.5871061063312
 30
0.0
 11
-88.1438699526662
 21
-299.627813172956
 31
0.0
  0
LINE
  5
349
330
345
100
AcDbEntity
  8
1
  6
Continuous
 62
     2
100
AcDbLine
 10
-68.16785902345418
 20
-280.9871061063312
 30
0.0
 11
-90.1438699526662
 21
-280.9871061063312
 31
0.0
  0
LINE
  5
34A
330
345
100
AcDbEntity
  8
1
  6
Continuous
 62
     2
100
AcDbLine
 10
-81.16785902345418
 20
-287.5871061063312
 30
0.0
 11
-90.1438699526662
 21
-287.5871061063312
 31
0.0
  0
SOLID
  5
34B
330
345
100
AcDbEntity
  8
1
 62
     2
100
AcDbTrace
 10
-88.60465369422208
 20
-277.4871061063312
 30
0.0
 11
-87.68308621111031
 21
-277.4871061063312
 31
0.0
 12
-88.1438699526662
 22
-280.9871061063312
 32
0.0
 13
-88.1438699526662
 23
-280.9871061063312
 33
0.0
  0
SOLID
  5
34C
330
345
100
AcDbEntity
  8
1
 62
     2
100
AcDbTrace
 10
-87.68308621111031
 20
-291.0871061063312
 30
0.0
 11
-88.60465369422208
 21
-291.0871061063312
 31
0.0
 12
-88.1438699526662
 22
-287.5871061063312
 32
0.0
 13
-88.1438699526662
 23
-287.5871061063312
 33
0.0
  0
MTEXT
  5
34D
330
345
100
AcDbEntity
  8
1
 62
     2
100
AcDbMText
 10
-90.1438699526662
 20
-299.627813172956
 30
0.0
 40
3.5
 41
0.0
 71
     7
 72
     1
  1
6.6
  7
CONVERTER_12
 11
0.0
 21
1.0
 31
0.0
 73
     1
 44
0.60024009603842
  0
ENDBLK
  5
34F
330
345
100
AcDbEntity
  8
0
100
AcDbBlockEnd
  0
BLOCK
  5
359
330
352
100
AcDbEntity
  8
0
100
AcDbBlockBegin
  2
*D19
 70
     1
 10
0.0
 20
0.0
 30
0.0
  3
*D19
  1

  0
LINE
  5
353
330
352
100
AcDbEntity
  8
1
  6
Continuous
 62
     2
100
AcDbLine
 10
84.3789584182948
 20
-181.066956622224
 30
0.0
 11
84.3789584182948
 21
-274.066956622224
 31
0.0
  0
LINE
  5
354
330
352
100
AcDbEntity
  8
1
  6
Continuous
 62
     2
100
AcDbLine
 10
96.9161158394921
 20
-181.066956622224
 30
0.0
 11
82.3789584182948
 21
-181.066956622224
 31
0.0
  0
LINE
  5
355
330
352
100
AcDbEntity
  8
1
  6
Continuous
 62
     2
100
AcDbLine
 10
96.9161158394921
 20
-274.066956622224
 30
0.0
 11
82.3789584182948
 21
-274.066956622224
 31
0.0
  0
SOLID
  5
356
330
352
100
AcDbEntity
  8
1
 62
     2
100
AcDbTrace
 10
84.83974215985069
 20
-184.566956622224
 30
0.0
 11
83.91817467673891
 21
-184.566956622224
 31
0.0
 12
84.3789584182948
 22
-181.066956622224
 32
0.0
 13
84.3789584182948
 23
-181.066956622224
 33
0.0
  0
SOLID
  5
357
330
352
100
AcDbEntity
  8
1
 62
     2
100
AcDbTrace
 10
83.91817467673891
 20
-270.566956622224
 30
0.0
 11
84.83974215985069
 21
-270.566956622224
 31
0.0
 12
84.3789584182948
 22
-274.066956622224
 32
0.0
 13
84.3789584182948
 23
-274.066956622224
 33
0.0
  0
MTEXT
  5
358
330
352
100
AcDbEntity
  8
1
 62
     2
100
AcDbMText
 10
82.3789584182948
 20
-230.191956622224
 30
0.0
 40
3.5
 41
0.0
 71
     7
 72
     1
  1
93
  7
CONVERTER_12
 11
0.0
 21
1.0
 31
0.0
 73
     1
 44
0.60024009603842
  0
ENDBLK
  5
35A
330
352
100
AcDbEntity
  8
0
100
AcDbBlockEnd
  0
BLOCK
  5
364
330
35D
100
AcDbEntity
  8
0
100
AcDbBlockBegin
  2
*D20
 70
     1
 10
0.0
 20
0.0
 30
0.0
  3
*D20
  1

  0
LINE
  5
35E
330
35D
100
AcDbEntity
  8
1
  6
Continuous
 62
     2
100
AcDbLine
 10
68.8772469639425
 20
-167.5669566222245
 30
0.0
 11
68.8772469639425
 21
-287.5669566222236
 31
0.0
  0
LINE
  5
35F
330
35D
100
AcDbEntity
  8
1
  6
Continuous
 62
     2
100
AcDbLine
 10
86.9161158394921
 20
-167.5669566222245
 30
0.0
 11
66.8772469639425
 21
-167.5669566222245
 31
0.0
  0
LINE
  5
360
330
35D
100
AcDbEntity
  8
1
  6
Continuous
 62
     2
100
AcDbLine
 10
86.91611583949206
 20
-287.5669566222236
 30
0.0
 11
66.8772469639425
 21
-287.5669566222236
 31
0.0
  0
SOLID
  5
361
330
35D
100
AcDbEntity
  8
1
 62
     2
100
AcDbTrace
 10
69.33803070549838
 20
-171.0669566222245
 30
0.0
 11
68.41646322238661
 21
-171.0669566222245
 31
0.0
 12
68.8772469639425
 22
-167.5669566222245
 32
0.0
 13
68.8772469639425
 23
-167.5669566222245
 33
0.0
  0
SOLID
  5
362
330
35D
100
AcDbEntity
  8
1
 62
     2
100
AcDbTrace
 10
68.41646322238661
 20
-284.0669566222236
 30
0.0
 11
69.33803070549838
 21
-284.0669566222236
 31
0.0
 12
68.8772469639425
 22
-287.5669566222236
 32
0.0
 13
68.8772469639425
 23
-287.5669566222236
 33
0.0
  0
MTEXT
  5
363
330
35D
100
AcDbEntity
  8
1
 62
     2
100
AcDbMText
 10
66.8772469639425
 20
-232.152734115841
 30
0.0
 40
3.5
 41
0.0
 71
     7
 72
     1
  1
120
  7
CONVERTER_12
 11
0.0
 21
1.0
 31
0.0
 73
     1
 44
0.60024009603842
  0
ENDBLK
  5
365
330
35D
100
AcDbEntity
  8
0
100
AcDbBlockEnd
  0
BLOCK
  5
36F
330
368
100
AcDbEntity
  8
0
100
AcDbBlockBegin
  2
*D21
 70
     1
 10
0.0
 20
0.0
 30
0.0
  3
*D21
  1

  0
LINE
  5
369
330
368
100
AcDbEntity
  8
1
  6
Continuous
 62
     2
100
AcDbLine
 10
121.9778882319082
 20
-162.566956622224
 30
0.0
 11
121.9778882319082
 21
-292.566956622224
 31
0.0
  0
LINE
  5
36A
330
368
100
AcDbEntity
  8
1
  6
Continuous
 62
     2
100
AcDbLine
 10
93.9161158394921
 20
-162.566956622224
 30
0.0
 11
123.9778882319082
 21
-162.566956622224
 31
0.0
  0
LINE
  5
36B
330
368
100
AcDbEntity
  8
1
  6
Continuous
 62
     2
100
AcDbLine
 10
93.9161158394921
 20
-292.566956622224
 30
0.0
 11
123.9778882319082
 21
-292.566956622224
 31
0.0
  0
SOLID
  5
36C
330
368
100
AcDbEntity
  8
1
 62
     2
100
AcDbTrace
 10
122.4386719734641
 20
-166.066956622224
 30
0.0
 11
121.5171044903523
 21
-166.066956622224
 31
0.0
 12
121.9778882319082
 22
-162.566956622224
 32
0.0
 13
121.9778882319082
 23
-162.566956622224
 33
0.0
  0
SOLID
  5
36D
330
368
100
AcDbEntity
  8
1
 62
     2
100
AcDbTrace
 10
121.5171044903523
 20
-289.066956622224
 30
0.0
 11
122.4386719734641
 21
-289.066956622224
 31
0.0
 12
121.9778882319082
 22
-292.566956622224
 32
0.0
 13
121.9778882319082
 23
-292.566956622224
 33
0.0
  0
MTEXT
  5
36E
330
368
100
AcDbEntity
  8
1
 62
     2
100
AcDbMText
 10
119.9778882319082
 20
-231.645962507645
 30
0.0
 40
3.5
 41
0.0
 71
     7
 72
     1
  1
130
  7
CONVERTER_12
 11
0.0
 21
1.0
 31
0.0
 73
     1
 44
0.60024009603842
  0
ENDBLK
  5
370
330
368
100
AcDbEntity
  8
0
100
AcDbBlockEnd
  0
BLOCK
  5
37A
330
373
100
AcDbEntity
  8
0
100
AcDbBlockBegin
  2
*D22
 70
     1
 10
0.0
 20
0.0
 30
0.0
  3
*D22
  1

  0
LINE
  5
374
330
373
100
AcDbEntity
  8
1
  6
Continuous
 62
     2
100
AcDbLine
 10
55.1220458300856
 20
-147.566956622224
 30
0.0
 11
55.1220458300856
 21
-307.5669566222239
 31
0.0
  0
LINE
  5
375
330
373
100
AcDbEntity
  8
1
  6
Continuous
 62
     2
100
AcDbLine
 10
86.9161158394921
 20
-147.566956622224
 30
0.0
 11
53.1220458300856
 21
-147.566956622224
 31
0.0
  0
LINE
  5
376
330
373
100
AcDbEntity
  8
1
  6
Continuous
 62
     2
100
AcDbLine
 10
86.9161158394921
 20
-307.5669566222239
 30
0.0
 11
53.1220458300856
 21
-307.5669566222239
 31
0.0
  0
SOLID
  5
377
330
373
100
AcDbEntity
  8
1
 62
     2
100
AcDbTrace
 10
55.58282957164148
 20
-151.066956622224
 30
0.0
 11
54.66126208852971
 21
-151.066956622224
 31
0.0
 12
55.1220458300856
 22
-147.566956622224
 32
0.0
 13
55.1220458300856
 23
-147.566956622224
 33
0.0
  0
SOLID
  5
378
330
373
100
AcDbEntity
  8
1
 62
     2
100
AcDbTrace
 10
54.66126208852971
 20
-304.0669566222239
 30
0.0
 11
55.58282957164148
 21
-304.0669566222239
 31
0.0
 12
55.1220458300856
 22
-307.5669566222239
 32
0.0
 13
55.1220458300856
 23
-307.5669566222239
 33
0.0
  0
MTEXT
  5
379
330
373
100
AcDbEntity
  8
1
 62
     2
100
AcDbMText
 10
53.1220458300856
 20
-232.816300978257
 30
0.0
 40
3.5
 41
0.0
 71
     7
 72
     1
  1
160
  7
CONVERTER_12
 11
0.0
 21
1.0
 31
0.0
 73
     1
 44
0.60024009603842
  0
ENDBLK
  5
37B
330
373
100
AcDbEntity
  8
0
100
AcDbBlockEnd
  0
BLOCK
  5
385
330
37E
100
AcDbEntity
  8
0
100
AcDbBlockBegin
  2
*D23
 70
     1
 10
0.0
 20
0.0
 30
0.0
  3
*D23
  1

  0
LINE
  5
37F
330
37E
100
AcDbEntity
  8
1
  6
Continuous
 62
     2
100
AcDbLine
 10
76.9161158394921
 20
-340.542588806292
 30
0.0
 11
96.9161158394921
 21
-340.542588806292
 31
0.0
  0
LINE
  5
380
330
37E
100
AcDbEntity
  8
1
  6
Continuous
 62
     2
100
AcDbLine
 10
76.9161158394921
 20
-297.566956622224
 30
0.0
 11
76.9161158394921
 21
-342.542588806292
 31
0.0
  0
LINE
  5
381
330
37E
100
AcDbEntity
  8
1
  6
Continuous
 62
     2
100
AcDbLine
 10
96.9161158394921
 20
-297.566956622224
 30
0.0
 11
96.9161158394921
 21
-342.542588806292
 31
0.0
  0
SOLID
  5
382
330
37E
100
AcDbEntity
  8
1
 62
     2
100
AcDbTrace
 10
80.4161158394921
 20
-340.0818050647361
 30
0.0
 11
80.4161158394921
 21
-341.0033725478478
 31
0.0
 12
76.9161158394921
 22
-340.542588806292
 32
0.0
 13
76.9161158394921
 23
-340.542588806292
 33
0.0
  0
SOLID
  5
383
330
37E
100
AcDbEntity
  8
1
 62
     2
100
AcDbTrace
 10
93.4161158394921
 20
-341.0033725478478
 30
0.0
 11
93.4161158394921
 21
-340.0818050647361
 31
0.0
 12
96.9161158394921
 22
-340.542588806292
 32
0.0
 13
96.9161158394921
 23
-340.542588806292
 33
0.0
  0
MTEXT
  5
384
330
37E
100
AcDbEntity
  8
1
 62
     2
100
AcDbMText
 10
83.3765455150667
 20
-338.542588806292
 30
0.0
 40
3.5
 41
0.0
 71
     7
 72
     1
  1
20
  7
CONVERTER_12
 11
0.9999999999970619
 21
2.424068405545306E-6
 31
0.0
 73
     1
 44
0.60024009603842
  0
ENDBLK
  5
386
330
37E
100
AcDbEntity
  8
0
100
AcDbBlockEnd
  0
BLOCK
  5
392
330
389
100
AcDbEntity
  8
0
100
AcDbBlockBegin
  2
*D24
 70
     1
 10
0.0
 20
0.0
 30
0.0
  3
*D24
  1

  0
LINE
  5
38A
330
389
100
AcDbEntity
  8
1
  6
Continuous
 62
     2
100
AcDbLine
 10
112.4161158394921
 20
-254.802386477044
 30
0.0
 11
105.4161158394921
 21
-254.802386477044
 31
0.0
  0
LINE
  5
38B
330
389
100
AcDbEntity
  8
1
  6
Continuous
 62
     2
100
AcDbLine
 10
105.4161158394921
 20
-254.802386477044
 30
0.0
 11
96.9161158394921
 21
-254.802386477044
 31
0.0
  0
LINE
  5
38C
330
389
100
AcDbEntity
  8
1
  6
Continuous
 62
     2
100
AcDbLine
 10
96.9161158394921
 20
-254.802386477044
 30
0.0
 11
89.9161158394921
 21
-254.802386477044
 31
0.0
  0
LINE
  5
38D
330
389
100
AcDbEntity
  8
1
  6
Continuous
 62
     2
100
AcDbLine
 10
105.4161158394921
 20
-263.8882305807056
 30
0.0
 11
105.4161158394921
 21
-252.802386477044
 31
0.0
  0
LINE
  5
38E
330
389
100
AcDbEntity
  8
1
  6
Continuous
 62
     2
100
AcDbLine
 10
96.9161158394921
 20
-277.5669566222239
 30
0.0
 11
96.9161158394921
 21
-252.802386477044
 31
0.0
  0
SOLID
  5
38F
330
389
100
AcDbEntity
  8
1
 62
     2
100
AcDbTrace
 10
108.9161158394921
 20
-254.3416027354881
 30
0.0
 11
108.9161158394921
 21
-255.2631702185999
 31
0.0
 12
105.4161158394921
 22
-254.802386477044
 32
0.0
 13
105.4161158394921
 23
-254.802386477044
 33
0.0
  0
SOLID
  5
390
330
389
100
AcDbEntity
  8
1
 62
     2
100
AcDbTrace
 10
93.4161158394921
 20
-255.2631702185999
 30
0.0
 11
93.4161158394921
 21
-254.3416027354881
 31
0.0
 12
96.9161158394921
 22
-254.802386477044
 32
0.0
 13
96.9161158394921
 23
-254.802386477044
 33
0.0
  0
MTEXT
  5
391
330
389
100
AcDbEntity
  8
1
 62
     2
100
AcDbMText
 10
98.237445383044
 20
-252.802386477044
 30
0.0
 40
3.5
 41
0.0
 71
     7
 72
     1
  1
8.5
  7
CONVERTER_12
 11
0.9999999999970619
 21
2.424068405545306E-6
 31
0.0
 73
     1
 44
0.60024009603842
  0
ENDBLK
  5
393
330
389
100
AcDbEntity
  8
0
100
AcDbBlockEnd
  0
BLOCK
  5
39F
330
396
100
AcDbEntity
  8
0
100
AcDbBlockBegin
  2
*D25
 70
     1
 10
0.0
 20
0.0
 30
0.0
  3
*D25
  1

  0
LINE
  5
397
330
396
100
AcDbEntity
  8
1
  6
Continuous
 62
     2
100
AcDbLine
 10
-119.092169912785
 20
-267.436804580699
 30
0.0
 11
-119.092169912785
 21
-275.9871061063313
 31
0.0
  0
LINE
  5
398
330
396
100
AcDbEntity
  8
1
  6
Continuous
 62
     2
100
AcDbLine
 10
-119.092169912785
 20
-275.9871061063313
 30
0.0
 11
-119.092169912785
 21
-279.4871061063313
 31
0.0
  0
LINE
  5
399
330
396
100
AcDbEntity
  8
1
  6
Continuous
 62
     2
100
AcDbLine
 10
-119.092169912785
 20
-279.4871061063313
 30
0.0
 11
-119.092169912785
 21
-286.4871061063313
 31
0.0
  0
LINE
  5
39A
330
396
100
AcDbEntity
  8
1
  6
Continuous
 62
     2
100
AcDbLine
 10
-107.667859023454
 20
-275.9871061063313
 30
0.0
 11
-121.092169912785
 21
-275.9871061063313
 31
0.0
  0
LINE
  5
39B
330
396
100
AcDbEntity
  8
1
  6
Continuous
 62
     2
100
AcDbLine
 10
-113.1678590234538
 20
-279.4871061063313
 30
0.0
 11
-121.092169912785
 21
-279.4871061063313
 31
0.0
  0
SOLID
  5
39C
330
396
100
AcDbEntity
  8
1
 62
     2
100
AcDbTrace
 10
-119.5529536543409
 20
-272.4871061063313
 30
0.0
 11
-118.6313861712291
 21
-272.4871061063313
 31
0.0
 12
-119.092169912785
 22
-275.9871061063313
 32
0.0
 13
-119.092169912785
 23
-275.9871061063313
 33
0.0
  0
SOLID
  5
39D
330
396
100
AcDbEntity
  8
1
 62
     2
100
AcDbTrace
 10
-118.6313861712291
 20
-282.9871061063313
 30
0.0
 11
-119.5529536543409
 21
-282.9871061063313
 31
0.0
 12
-119.092169912785
 22
-279.4871061063313
 32
0.0
 13
-119.092169912785
 23
-279.4871061063313
 33
0.0
  0
MTEXT
  5
39E
330
396
100
AcDbEntity
  8
1
 62
     2
100
AcDbMText
 10
-121.092169912785
 20
-273.824304580699
 30
0.0
 40
3.5
 41
0.0
 71
     7
 72
     1
  1
3.5
  7
CONVERTER_12
 11
0.0
 21
1.0
 31
0.0
 73
     1
 44
0.60024009603842
  0
ENDBLK
  5
3A0
330
396
100
AcDbEntity
  8
0
100
AcDbBlockEnd
  0
BLOCK
  5
3AA
330
3A3
100
AcDbEntity
  8
0
100
AcDbBlockBegin
  2
*D26
 70
     1
 10
0.0
 20
0.0
 30
0.0
  3
*D26
  1

  0
LINE
  5
3A4
330
3A3
100
AcDbEntity
  8
1
  6
Continuous
 62
     2
100
AcDbLine
 10
-15.8152790625052
 20
-255.4871061063313
 30
0.0
 11
-15.8152790625052
 21
-295.4871061063313
 31
0.0
  0
LINE
  5
3A5
330
3A3
100
AcDbEntity
  8
1
  6
Continuous
 62
     2
100
AcDbLine
 10
-24.8364297845392
 20
-255.4871061063313
 30
0.0
 11
-13.8152790625052
 21
-255.4871061063313
 31
0.0
  0
LINE
  5
3A6
330
3A3
100
AcDbEntity
  8
1
  6
Continuous
 62
     2
100
AcDbLine
 10
-24.8364297845392
 20
-295.4871061063313
 30
0.0
 11
-13.8152790625052
 21
-295.4871061063313
 31
0.0
  0
SOLID
  5
3A7
330
3A3
100
AcDbEntity
  8
1
 62
     2
100
AcDbTrace
 10
-15.35449532094932
 20
-258.9871061063313
 30
0.0
 11
-16.27606280406109
 21
-258.9871061063313
 31
0.0
 12
-15.8152790625052
 22
-255.4871061063313
 32
0.0
 13
-15.8152790625052
 23
-255.4871061063313
 33
0.0
  0
SOLID
  5
3A8
330
3A3
100
AcDbEntity
  8
1
 62
     2
100
AcDbTrace
 10
-16.27606280406109
 20
-291.9871061063313
 30
0.0
 11
-15.35449532094932
 21
-291.9871061063313
 31
0.0
 12
-15.8152790625052
 22
-295.4871061063313
 32
0.0
 13
-15.8152790625052
 23
-295.4871061063313
 33
0.0
  0
MTEXT
  5
3A9
330
3A3
100
AcDbEntity
  8
1
 62
     2
100
AcDbMText
 10
-17.8152790625052
 20
-279.05162242662
 30
0.0
 40
3.5
 41
0.0
 71
     7
 72
     1
  1
40
  7
CONVERTER_12
 11
0.0
 21
1.0
 31
0.0
 73
     1
 44
0.60024009603842
  0
ENDBLK
  5
3AB
330
3A3
100
AcDbEntity
  8
0
100
AcDbBlockEnd
  0
BLOCK
  5
3B7
330
3AE
100
AcDbEntity
  8
0
100
AcDbBlockBegin
  2
*D27
 70
     1
 10
0.0
 20
0.0
 30
0.0
  3
*D27
  1

  0
LINE
  5
3AF
330
3AE
100
AcDbEntity
  8
1
  6
Continuous
 62
     2
100
AcDbLine
 10
-97.531194485918
 20
-280.9871061063313
 30
0.0
 11
-97.531194485918
 21
-295.4871061063313
 31
0.0
  0
LINE
  5
3B0
330
3AE
100
AcDbEntity
  8
1
  6
Continuous
 62
     2
100
AcDbLine
 10
-97.531194485918
 20
-295.4871061063313
 30
0.0
 11
-97.531194485918
 21
-319.695941663856
 31
0.0
  0
LINE
  5
3B1
330
3AE
100
AcDbEntity
  8
1
  6
Continuous
 62
     2
100
AcDbLine
 10
-81.16785902345418
 20
-280.9871061063313
 30
0.0
 11
-99.531194485918
 21
-280.9871061063313
 31
0.0
  0
LINE
  5
3B2
330
3AE
100
AcDbEntity
  8
1
  6
Continuous
 62
     2
100
AcDbLine
 10
-94.8977871906412
 20
-295.4871061063313
 30
0.0
 11
-99.531194485918
 21
-295.4871061063313
 31
0.0
  0
LINE
  5
3B3
330
3AE
100
AcDbEntity
  8
1
  6
Continuous
 62
     2
100
AcDbLine
 10
-81.16785902345418
 20
-295.4871061063313
 30
0.0
 11
-85.7407160795326
 21
-295.4871061063313
 31
0.0
  0
SOLID
  5
3B4
330
3AE
100
AcDbEntity
  8
1
 62
     2
100
AcDbTrace
 10
-97.0704107443621
 20
-284.4871061063313
 30
0.0
 11
-97.99197822747388
 21
-284.4871061063313
 31
0.0
 12
-97.531194485918
 22
-280.9871061063313
 32
0.0
 13
-97.531194485918
 23
-280.9871061063313
 33
0.0
  0
SOLID
  5
3B5
330
3AE
100
AcDbEntity
  8
1
 62
     2
100
AcDbTrace
 10
-97.99197822747388
 20
-291.9871061063313
 30
0.0
 11
-97.0704107443621
 21
-291.9871061063313
 31
0.0
 12
-97.531194485918
 22
-295.4871061063313
 32
0.0
 13
-97.531194485918
 23
-295.4871061063313
 33
0.0
  0
MTEXT
  5
3B6
330
3AE
100
AcDbEntity
  8
1
 62
     2
100
AcDbMText
 10
-99.531194485918
 20
-319.363441663856
 30
0.0
 40
3.5
 41
0.0
 71
     7
 72
     1
  1
\C2;max.\C2;14.5
  7
CONVERTER_12
 11
0.0
 21
1.0
 31
0.0
 73
     1
 44
0.60024009603842
  0
ENDBLK
  5
3B8
330
3AE
100
AcDbEntity
  8
0
100
AcDbBlockEnd
  0
BLOCK
  5
3C4
330
3BB
100
AcDbEntity
  8
0
100
AcDbBlockBegin
  2
*D28
 70
     1
 10
0.0
 20
0.0
 30
0.0
  3
*D28
  1

  0
LINE
  5
3BC
330
3BB
100
AcDbEntity
  8
1
  6
Continuous
 62
     2
100
AcDbLine
 10
-253.5246363086952
 20
-342.910862655322
 30
0.0
 11
-246.5246363086952
 21
-342.910862655322
 31
0.0
  0
LINE
  5
3BD
330
3BB
100
AcDbEntity
  8
1
  6
Continuous
 62
     2
100
AcDbLine
 10
-257.0246363086953
 20
-342.910862655322
 30
0.0
 11
-253.5246363086952
 21
-342.910862655322
 31
0.0
  0
LINE
  5
3BE
330
3BB
100
AcDbEntity
  8
1
  6
Continuous
 62
     2
100
AcDbLine
 10
-264.780630981089
 20
-342.910862655322
 30
0.0
 11
-257.0246363086953
 21
-342.910862655322
 31
0.0
  0
LINE
  5
3BF
330
3BB
100
AcDbEntity
  8
1
  6
Continuous
 62
     2
100
AcDbLine
 10
-253.5246363086952
 20
-309.5765755654575
 30
0.0
 11
-253.5246363086952
 21
-344.910862655322
 31
0.0
  0
LINE
  5
3C0
330
3BB
100
AcDbEntity
  8
1
  6
Continuous
 62
     2
100
AcDbLine
 10
-257.0246363086953
 20
-332.566956622224
 30
0.0
 11
-257.0246363086953
 21
-344.910862655322
 31
0.0
  0
SOLID
  5
3C1
330
3BB
100
AcDbEntity
  8
1
 62
     2
100
AcDbTrace
 10
-260.5246363086953
 20
-343.3716463968778
 30
0.0
 11
-260.5246363086953
 21
-342.4500789137661
 31
0.0
 12
-257.0246363086953
 22
-342.910862655322
 32
0.0
 13
-257.0246363086953
 23
-342.910862655322
 33
0.0
  0
SOLID
  5
3C2
330
3BB
100
AcDbEntity
  8
1
 62
     2
100
AcDbTrace
 10
-250.0246363086952
 20
-342.4500789137661
 30
0.0
 11
-250.0246363086952
 21
-343.3716463968778
 31
0.0
 12
-253.5246363086952
 22
-342.910862655322
 32
0.0
 13
-253.5246363086952
 23
-342.910862655322
 33
0.0
  0
MTEXT
  5
3C3
330
3BB
100
AcDbEntity
  8
1
 62
     2
100
AcDbMText
 10
-264.780630981089
 20
-340.910862655322
 30
0.0
 40
3.5
 41
0.0
 71
     7
 72
     1
  1
3.5
  7
CONVERTER_12
 11
0.9999999999970619
 21
2.424068405545306E-6
 31
0.0
 73
     1
 44
0.60024009603842
  0
ENDBLK
  5
3C5
330
3BB
100
AcDbEntity
  8
0
100
AcDbBlockEnd
  0
BLOCK
  5
3D0
330
3C8
100
AcDbEntity
  8
0
100
AcDbBlockBegin
  2
*D29
 70
     1
 10
0.0
 20
0.0
 30
0.0
  3
*D29
  1

  0
LINE
  5
3C9
330
3C8
100
AcDbEntity
  8
1
  6
Continuous
 62
     2
100
AcDbLine
 10
-253.5246363086951
 20
-342.910862655322
 30
0.0
 11
-227.5246363086951
 21
-342.910862655322
 31
0.0
  0
LINE
  5
3CA
330
3C8
100
AcDbEntity
  8
1
  6
Continuous
 62
     2
100
AcDbLine
 10
-227.5246363086951
 20
-309.5765755654575
 30
0.0
 11
-227.5246363086951
 21
-329.559333350484
 31
0.0
  0
LINE
  5
3CB
330
3C8
100
AcDbEntity
  8
1
  6
Continuous
 62
     2
100
AcDbLine
 10
-227.5246363086951
 20
-333.212562336312
 30
0.0
 11
-227.5246363086951
 21
-344.910862655322
 31
0.0
  0
LINE
  5
3CC
330
3C8
100
AcDbEntity
  8
1
  6
Continuous
 62
     2
100
AcDbLine
 10
-253.5246363086951
 20
-309.5765755654575
 30
0.0
 11
-253.5246363086951
 21
-344.910862655322
 31
0.0
  0
SOLID
  5
3CD
330
3C8
100
AcDbEntity
  8
1
 62
     2
100
AcDbTrace
 10
-250.0246363086951
 20
-342.4500789137661
 30
0.0
 11
-250.0246363086951
 21
-343.3716463968778
 31
0.0
 12
-253.5246363086951
 22
-342.910862655322
 32
0.0
 13
-253.5246363086951
 23
-342.910862655322
 33
0.0
  0
SOLID
  5
3CE
330
3C8
100
AcDbEntity
  8
1
 62
     2
100
AcDbTrace
 10
-231.0246363086951
 20
-343.3716463968778
 30
0.0
 11
-231.0246363086951
 21
-342.4500789137661
 31
0.0
 12
-227.5246363086951
 22
-342.910862655322
 32
0.0
 13
-227.5246363086951
 23
-342.910862655322
 33
0.0
  0
MTEXT
  5
3CF
330
3C8
100
AcDbEntity
  8
1
 62
     2
100
AcDbMText
 10
-243.1496363086952
 20
-340.910862655322
 30
0.0
 40
3.5
 41
0.0
 71
     7
 72
     1
  1
26
  7
CONVERTER_12
 11
0.9999999999970619
 21
2.424068405545306E-6
 31
0.0
 73
     1
 44
0.60024009603842
  0
ENDBLK
  5
3D1
330
3C8
100
AcDbEntity
  8
0
100
AcDbBlockEnd
  0
BLOCK
  5
3DD
330
3D4
100
AcDbEntity
  8
0
100
AcDbBlockBegin
  2
*D30
 70
     1
 10
0.0
 20
0.0
 30
0.0
  3
*D30
  1

  0
LINE
  5
3D5
330
3D4
100
AcDbEntity
  8
1
  6
Continuous
 62
     2
100
AcDbLine
 10
61.9075821582737
 20
-149.567048851624
 30
0.0
 11
61.9075821582737
 21
-156.567048851624
 31
0.0
  0
LINE
  5
3D6
330
3D4
100
AcDbEntity
  8
1
  6
Continuous
 62
     2
100
AcDbLine
 10
61.9075821582737
 20
-156.567048851624
 30
0.0
 11
61.9075821582737
 21
-162.566956622224
 31
0.0
  0
LINE
  5
3D7
330
3D4
100
AcDbEntity
  8
1
  6
Continuous
 62
     2
100
AcDbLine
 10
61.9075821582737
 20
-162.566956622224
 30
0.0
 11
61.9075821582737
 21
-169.566956622224
 31
0.0
  0
LINE
  5
3D8
330
3D4
100
AcDbEntity
  8
1
  6
Continuous
 62
     2
100
AcDbLine
 10
79.9161158394921
 20
-156.567048851624
 30
0.0
 11
59.9075821582737
 21
-156.567048851624
 31
0.0
  0
LINE
  5
3D9
330
3D4
100
AcDbEntity
  8
1
  6
Continuous
 62
     2
100
AcDbLine
 10
89.4161158394921
 20
-162.566956622224
 30
0.0
 11
59.9075821582737
 21
-162.566956622224
 31
0.0
  0
SOLID
  5
3DA
330
3D4
100
AcDbEntity
  8
1
 62
     2
100
AcDbTrace
 10
61.44679841671781
 20
-153.067048851624
 30
0.0
 11
62.36836589982958
 21
-153.067048851624
 31
0.0
 12
61.9075821582737
 22
-156.567048851624
 32
0.0
 13
61.9075821582737
 23
-156.567048851624
 33
0.0
  0
SOLID
  5
3DB
330
3D4
100
AcDbEntity
  8
1
 62
     2
100
AcDbTrace
 10
62.36836589982958
 20
-166.066956622224
 30
0.0
 11
61.44679841671781
 21
-166.066956622224
 31
0.0
 12
61.9075821582737
 22
-162.566956622224
 32
0.0
 13
61.9075821582737
 23
-162.566956622224
 33
0.0
  0
MTEXT
  5
3DC
330
3D4
100
AcDbEntity
  8
1
 62
     2
100
AcDbMText
 10
59.9845381158019
 20
-159.535016272571
 30
0.0
 40
3.5
 41
0.0
 71
     7
 72
     1
  1
6
  7
CONVERTER_12
 11
0.0
 21
1.0
 31
0.0
 73
     1
 44
0.60024009603842
  0
ENDBLK
  5
3DE
330
3D4
100
AcDbEntity
  8
0
100
AcDbBlockEnd
  0
BLOCK
  5
3E5
330
3E1
100
AcDbEntity
  8
0
100
AcDbBlockBegin
  2
*D31
 70
     1
 10
0.0
 20
0.0
 30
0.0
  3
*D31
  1

  0
LINE
  5
3E2
330
3E1
100
AcDbEntity
  8
1
  6
Continuous
 62
     2
100
AcDbLine
 10
-241.8511801432175
 20
-295.1532914607125
 30
0.0
 11
-251.1637553365206
 21
-303.0201620643834
 31
0.0
  0
SOLID
  5
3E3
330
3E1
100
AcDbEntity
  8
1
 62
     2
100
AcDbTrace
 10
-248.7874168916484
 20
-300.4095419748444
 30
0.0
 11
-248.192710461915
 21
-301.1135383444108
 31
0.0
 12
-251.1637553365206
 22
-303.0201620643834
 32
0.0
 13
-251.1637553365206
 23
-303.0201620643834
 33
0.0
  0
MTEXT
  5
3E4
330
3E1
100
AcDbEntity
  8
1
 62
     2
100
AcDbMText
 10
-248.542678384322
 20
-298.1878839027542
 30
0.0
 40
3.5
 41
0.0
 71
     7
 72
     1
  1
\C2;R\C2;10
  7
CONVERTER_12
 11
0.7639119027825346
 21
0.6453205442159478
 31
0.0
 73
     1
 44
0.60024009603842
  0
ENDBLK
  5
3E6
330
3E1
100
AcDbEntity
  8
0
100
AcDbBlockEnd
  0
BLOCK
  5
3EC
330
3E8
100
AcDbEntity
  8
0
100
AcDbBlockBegin
  2
*D32
 70
     1
 10
0.0
 20
0.0
 30
0.0
  3
*D32
  1

  0
LINE
  5
3E9
330
3E8
100
AcDbEntity
  8
1
  6
Continuous
 62
     2
100
AcDbLine
 10
102.2290469285024
 20
-183.6304066258085
 30
0.0
 11
111.0033877954208
 21
-174.1919189135787
 31
0.0
  0
SOLID
  5
3EA
330
3E8
100
AcDbEntity
  8
1
 62
     2
100
AcDbTrace
 10
104.2746078671686
 20
-180.7532548914217
 30
0.0
 11
104.9495687329173
 21
-181.3807215882565
 31
0.0
 12
102.2290469285024
 22
-183.6304066258085
 32
0.0
 13
102.2290469285024
 23
-183.6304066258085
 33
0.0
  0
MTEXT
  5
3EB
330
3E8
100
AcDbEntity
  8
1
 62
     2
100
AcDbMText
 10
104.7248337186406
 20
-178.0082861266422
 30
0.0
 40
3.5
 41
0.0
 71
     7
 72
     1
  1
\C2;R\C2;10
  7
CONVERTER_12
 11
0.6808689632973185
 21
0.7324052531341064
 31
0.0
 73
     1
 44
0.60024009603842
  0
ENDBLK
  5
3ED
330
3E8
100
AcDbEntity
  8
0
100
AcDbBlockEnd
  0
BLOCK
  5
3F3
330
3EF
100
AcDbEntity
  8
0
100
AcDbBlockBegin
  2
*D33
 70
     1
 10
0.0
 20
0.0
 30
0.0
  3
*D33
  1

  0
LINE
  5
3F0
330
3EF
100
AcDbEntity
  8
1
  6
Continuous
 62
     2
100
AcDbLine
 10
91.87401806810696
 20
-178.7184182041168
 30
0.0
 11
77.17536892119188
 21
-175.3046901760187
 31
0.0
  0
SOLID
  5
3F1
330
3EF
100
AcDbEntity
  8
1
 62
     2
100
AcDbTrace
 10
80.6888719023448
 20
-175.6476456511343
 30
0.0
 11
80.48038878284903
 21
-176.545321213247
 31
0.0
 12
77.17536892119188
 22
-175.3046901760187
 32
0.0
 13
77.17536892119188
 23
-175.3046901760187
 33
0.0
  0
MTEXT
  5
3F2
330
3EF
100
AcDbEntity
  8
1
 62
     2
100
AcDbMText
 10
85.43976328610984
 20
-175.1708464429896
 30
0.0
 40
3.5
 41
0.0
 71
     7
 72
     1
  1
\C2;R\C2;10
  7
CONVERTER_12
 11
0.9740746918300129
 21
-0.2262266446205338
 31
0.0
 73
     1
 44
0.60024009603842
  0
ENDBLK
  5
3F4
330
3EF
100
AcDbEntity
  8
0
100
AcDbBlockEnd
  0
BLOCK
  5
3FB
330
3F6
100
AcDbEntity
  8
0
100
AcDbBlockBegin
  2
*D34
 70
     1
 10
0.0
 20
0.0
 30
0.0
  3
*D34
  1

  0
LINE
  5
3F7
330
3F6
100
AcDbEntity
  8
1
  6
Continuous
 62
     2
100
AcDbLine
 10
-249.5733808957574
 20
-300.291667566641
 30
0.0
 11
-199.1453744858061
 21
-368.7009755345105
 31
0.0
  0
SOLID
  5
3F8
330
3F6
100
AcDbEntity
  8
1
 62
     2
100
AcDbTrace
 10
-232.1433703713146
 20
-323.1601951706276
 30
0.0
 11
-232.8851741247194
 21
-323.7070167296059
 31
0.0
 12
-234.5910333007854
 22
-320.6163264947371
 32
0.0
 13
-234.5910333007854
 23
-320.6163264947371
 33
0.0
  0
SOLID
  5
3F9
330
3F6
100
AcDbEntity
  8
1
 62
     2
100
AcDbTrace
 10
-248.9059022460756
 20
-301.9737180738201
 30
0.0
 11
-248.1640984926708
 21
-301.4268965148417
 31
0.0
 12
-246.4582393166048
 22
-304.5175867497105
 32
0.0
 13
-246.4582393166048
 23
-304.5175867497105
 33
0.0
  0
MTEXT
  5
3FA
330
3F6
100
AcDbEntity
  8
1
 62
     2
100
AcDbMText
 10
-214.2741945966166
 20
-344.8069825225685
 30
0.0
 40
3.5
 41
0.0
 71
     7
 72
     1
  1
\C2;Fr\U+00e4ser \U+00f8\C2;20
  7
CONVERTER_12
 11
0.5933603007909687
 21
-0.8049369872513321
 31
0.0
 73
     1
 44
0.60024009603842
  0
ENDBLK
  5
3FC
330
3F6
100
AcDbEntity
  8
0
100
AcDbBlockEnd
  0
BLOCK
  5
403
330
3FE
100
AcDbEntity
  8
0
100
AcDbBlockBegin
  2
*D35
 70
     1
 10
0.0
 20
0.0
 30
0.0
  3
*D35
  1

  0
LINE
  5
3FF
330
3FE
100
AcDbEntity
  8
1
  6
Continuous
 62
     2
100
AcDbLine
 10
96.02520167708991
 20
-285.3363779276864
 30
0.0
 11
56.00872828235472
 21
-339.0656583031188
 31
0.0
  0
SOLID
  5
400
330
3FE
100
AcDbEntity
  8
1
 62
     2
100
AcDbTrace
 10
79.22188587258661
 20
-308.6692602963655
 30
0.0
 11
78.48278399556855
 21
-308.118792276116
 31
0.0
 12
80.9429447984443
 22
-305.5870082251993
 32
0.0
 13
80.9429447984443
 23
-305.5870082251993
 33
0.0
  0
SOLID
  5
401
330
3FE
100
AcDbEntity
  8
1
 62
     2
100
AcDbTrace
 10
94.6103458063975
 20
-286.4646529480824
 30
0.0
 11
95.34944768341556
 21
-287.0151209683319
 31
0.0
 12
92.88928688053981
 22
-289.5469050192485
 32
0.0
 13
92.88928688053981
 23
-289.5469050192485
 33
0.0
  0
MTEXT
  5
402
330
3FE
100
AcDbEntity
  8
1
 62
     2
100
AcDbMText
 10
55.11552531564434
 20
-336.9166379541551
 30
0.0
 40
3.5
 41
0.0
 71
     7
 72
     1
  1
\C2;Fr\U+00e4ser \U+00f8\C2;20
  7
CONVERTER_12
 11
0.5973171041047767
 21
0.8020051602975401
 31
0.0
 73
     1
 44
0.60024009603842
  0
ENDBLK
  5
404
330
3FE
100
AcDbEntity
  8
0
100
AcDbBlockEnd
  0
BLOCK
  5
40C
330
406
100
AcDbEntity
  8
0
100
AcDbBlockBegin
  2
*D36
 70
     1
 10
0.0
 20
0.0
 30
0.0
  3
*D36
  1

  0
LINE
  5
407
330
406
100
AcDbEntity
  8
1
  6
Continuous
 62
     2
100
AcDbLine
 10
99.18015563288692
 20
-143.179569672035
 30
0.0
 11
83.34494326436023
 21
-155.6394897417131
 31
0.0
  0
LINE
  5
408
330
406
100
AcDbEntity
  8
1
  6
Continuous
 62
     2
100
AcDbLine
 10
80.98728841462396
 20
-157.4946079615349
 30
0.0
 11
76.86139242758551
 21
-160.7410648462233
 31
0.0
  0
SOLID
  5
409
330
406
100
AcDbEntity
  8
1
 62
     2
100
AcDbTrace
 10
85.81060448426655
 20
-153.113062144268
 30
0.0
 11
86.38047669383856
 21
-153.8373081595739
 31
0.0
 12
83.34494326436023
 22
-155.6394897417131
 32
0.0
 13
83.34494326436023
 23
-155.6394897417131
 33
0.0
  0
SOLID
  5
40A
330
406
100
AcDbEntity
  8
1
 62
     2
100
AcDbTrace
 10
78.52162719471764
 20
-160.0210355589801
 30
0.0
 11
77.95175498514563
 21
-159.2967895436742
 31
0.0
 12
80.98728841462396
 22
-157.4946079615349
 32
0.0
 13
80.98728841462396
 23
-157.4946079615349
 33
0.0
  0
MTEXT
  5
40B
330
406
100
AcDbEntity
  8
1
 62
     2
100
AcDbMText
 10
94.03756195194259
 20
-144.6811122897157
 30
0.0
 40
3.5
 41
0.0
 71
     7
 72
     1
  1
\C2;\U+00f8\C2;3
  7
CONVERTER_12
 11
0.7858849499120857
 21
0.6183727399406275
 31
0.0
 73
     1
 44
0.60024009603842
  0
ENDBLK
  5
40D
330
406
100
AcDbEntity
  8
0
100
AcDbBlockEnd
  0
BLOCK
  5
415
330
40F
100
AcDbEntity
  8
0
100
AcDbBlockBegin
  2
*D37
 70
     1
 10
0.0
 20
0.0
 30
0.0
  3
*D37
  1

  0
LINE
  5
410
330
40F
100
AcDbEntity
  8
1
  6
Continuous
 62
     2
100
AcDbLine
 10
-256.3801305576261
 20
-134.6069393682769
 30
0.0
 11
-248.1079462366733
 21
-142.5294405500864
 31
0.0
  0
LINE
  5
411
330
40F
100
AcDbEntity
  8
1
  6
Continuous
 62
     2
100
AcDbLine
 10
-245.9413263807169
 20
-144.6044726943616
 30
0.0
 11
-242.1497416327932
 21
-148.2357789468433
 31
0.0
  0
SOLID
  5
412
330
40F
100
AcDbEntity
  8
1
 62
     2
100
AcDbTrace
 10
-250.9543830937184
 20
-140.4413507830176
 30
0.0
 11
-250.3169557101932
 21
-139.7757886471797
 31
0.0
 12
-248.1079462366733
 22
-142.5294405500864
 32
0.0
 13
-248.1079462366733
 23
-142.5294405500864
 33
0.0
  0
SOLID
  5
413
330
40F
100
AcDbEntity
  8
1
 62
     2
100
AcDbTrace
 10
-243.0948895236718
 20
-146.6925624614304
 30
0.0
 11
-243.7323169071971
 21
-147.3581245972683
 31
0.0
 12
-245.9413263807169
 22
-144.6044726943616
 32
0.0
 13
-245.9413263807169
 23
-144.6044726943616
 33
0.0
  0
MTEXT
  5
414
330
40F
100
AcDbEntity
  8
1
 62
     2
100
AcDbMText
 10
-254.2890133084969
 20
-133.8403699647692
 30
0.0
 40
3.5
 41
0.0
 71
     7
 72
     1
  1
\C2;\U+00f8\C2;3
  7
CONVERTER_12
 11
0.7222066186521341
 21
-0.6916773814250767
 31
0.0
 73
     1
 44
0.60024009603842
  0
ENDBLK
  5
416
330
40F
100
AcDbEntity
  8
0
100
AcDbBlockEnd
  0
ENDSEC
  0
SECTION
  2
ENTITIES
  0
INSERT
  5
52
330
1F
100
AcDbEntity
  8
1
100
AcDbBlockReference
  2
FL
 10
-75.3642881847503
 20
-224.86341317288
 30
0.0
  0
INSERT
  5
53
330
1F
100
AcDbEntity
  8
0
100
AcDbBlockReference
  2
RA
 10
38.46164568665984
 20
-343.787584804024
 30
0.0
  0
INSERT
  5
54
330
1F
100
AcDbEntity
  8
0
100
AcDbBlockReference
  2
_art_a3_me10_pdm
 10
-71.67823196740937
 20
-227.7176513114891
 30
0.0
  0
MTEXT
  5
29C
330
1F
100
AcDbEntity
  8
1
 62
     7
100
AcDbMText
 10
-116.559816510361
 20
-359.9196426716763
 30
0.0
 40
5.0
 41
0.0
 71
     5
 72
     1
  1
Rahmen
  7
CONVERTER_12
 73
     1
 44
1.20048019207683
  0
MTEXT
  5
29D
330
1F
100
AcDbEntity
  8
1
 62
     2
100
AcDbMText
 10
-116.7156461989106
 20
-346.5501515706475
 30
0.0
 40
3.5
 41
0.0
 71
     5
 72
     1
  1
Fr\U+00e4sbild\PBlockzarge
  7
CONVERTER_12
 73
     1
 44
1.32052821128451
  0
MTEXT
  5
29E
330
1F
100
AcDbEntity
  8
1
 62
     2
100
AcDbMText
 10
-31.09608764162948
 20
-323.1287292440625
 30
0.0
 40
3.5
 41
0.0
 71
     5
 72
     1
  1
Fr\U+00e4sbild
  7
CONVERTER_12
 73
     1
 44
1.32052821128451
  0
MTEXT
  5
29F
330
1F
100
AcDbEntity
  8
1
 62
     7
100
AcDbMText
 10
-31.28885732356016
 20
-331.5182644129843
 30
0.0
 40
5.0
 41
0.0
 71
     5
 72
     1
  1
Fl\U+00fcgel
  7
CONVERTER_12
 73
     1
 44
1.20048019207683
  0
LWPOLYLINE
  5
2A0
330
1F
100
AcDbEntity
  8
1
 62
     2
100
AcDbPolyline
 90
        8
 70
     1
 43
0.0
 10
-163.069995766027
 20
-213.183025565537
 10
-163.069995766027
 20
-213.183025565537
 42
0.4142135623731
 10
-160.569995766027
 20
-210.683025565537
 10
-160.569995766027
 20
-210.683025565537
 42
0.4142135623731
 10
-163.069995766027
 20
-208.183025565537
 10
-163.069995766027
 20
-208.183025565537
 42
0.4142135623731
 10
-165.569995766027
 20
-210.683025565537
 10
-165.569995766027
 20
-210.683025565537
 42
0.4142135623731
  0
MTEXT
  5
2A1
330
1F
100
AcDbEntity
  8
1
 62
     2
100
AcDbMText
 10
-163.069995766027
 20
-210.683025565537
 30
0.0
 40
2.5
 41
0.0
 71
     5
 72
     1
  1
b
  7
CONVERTER_12
 73
     1
 44
1.32052821128451
  0
LWPOLYLINE
  5
2A2
330
1F
100
AcDbEntity
  8
1
 62
     2
100
AcDbPolyline
 90
        8
 70
     1
 43
0.0
 10
-156.403504479544
 20
-290.542469833012
 10
-156.403504479544
 20
-290.542469833012
 42
0.4142135623731
 10
-153.903504479544
 20
-288.042469833012
 10
-153.903504479544
 20
-288.042469833012
 42
0.4142135623731
 10
-156.403504479544
 20
-285.542469833012
 10
-156.403504479544
 20
-285.542469833012
 42
0.4142135623731
 10
-158.903504479544
 20
-288.042469833012
 10
-158.903504479544
 20
-288.042469833012
 42
0.4142135623731
  0
MTEXT
  5
2A3
330
1F
100
AcDbEntity
  8
1
 62
     2
100
AcDbMText
 10
-156.403504479544
 20
-288.042469833012
 30
0.0
 40
2.5
 41
0.0
 71
     5
 72
     1
  1
b
  7
CONVERTER_12
 73
     1
 44
1.32052821128451
  0
DIMENSION
  5
2B0
330
1F
100
AcDbEntity
  8
1
100
AcDbDimension
  2
*D4
 10
113.3161158394921
 20
-237.616882137202
 30
0.0
 11
97.6111587897633
 21
-233.866882137202
 31
0.0
 70
    32
  1
<>)
 71
     5
 42
-1.0
 53
0.00013888888889
  3
ME10_DIM_10
100
AcDbAlignedDimension
 13
105.4161158394921
 23
-227.566956622224
 33
0.0
 14
113.3161158394921
 24
-332.566956622224
 34
0.0
100
AcDbRotatedDimension
  0
DIMENSION
  5
2BB
330
1F
100
AcDbEntity
  8
1
100
AcDbDimension
  2
*D5
 10
-199.663054859744
 20
-143.566956622224
 30
0.0
 11
-203.413054859744
 21
-227.420510658166
 31
0.0
 70
    32
  1
<>
 71
     5
 42
-1.0
 53
90.0
  3
ME10_DIM_11
100
AcDbAlignedDimension
 13
-231.7746363086951
 23
-311.566956622224
 33
0.0
 14
-231.7746363086951
 24
-143.566956622224
 34
0.0
 50
90.0
100
AcDbRotatedDimension
  0
DIMENSION
  5
2C6
330
1F
100
AcDbEntity
  8
1
100
AcDbDimension
  2
*D6
 10
-155.182252743357
 20
-271.566956622224
 30
0.0
 11
-158.932252743357
 21
-219.9762091409717
 31
0.0
 70
    32
  1
<>
 71
     5
 42
-1.0
 53
90.0
  3
ME10_DIM_12
100
AcDbAlignedDimension
 13
-149.2305981112079
 23
-183.566956622224
 33
0.0
 14
-149.2305981112079
 24
-271.566956622224
 34
0.0
 50
90.0
100
AcDbRotatedDimension
  0
DIMENSION
  5
2D3
330
1F
100
AcDbEntity
  8
1
100
AcDbDimension
  2
*D7
 10
-149.2305981112079
 20
-283.082951546492
 30
0.0
 11
-154.9161804999171
 21
-279.332951546492
 31
0.0
 70
    32
  1
<>
 71
     5
 42
-1.0
 53
0.00013888888889
  3
ME10_DIM_13
100
AcDbAlignedDimension
 13
-141.7305981112079
 23
-271.566956622224
 33
0.0
 14
-149.2305981112079
 24
-271.566956622224
 34
0.0
100
AcDbRotatedDimension
  0
DIMENSION
  5
2DE
330
1F
100
AcDbEntity
  8
1
100
AcDbDimension
  2
*D8
 10
-141.7305981112079
 20
-341.349014049638
 30
0.0
 11
-147.317857954456
 21
-337.599014049638
 31
0.0
 70
    32
  1
<>
 71
     5
 42
-1.0
 53
0.00013888888889
  3
ME10_DIM_14
100
AcDbAlignedDimension
 13
-151.7305981112079
 23
-322.566956622224
 33
0.0
 14
-141.7305981112079
 24
-332.566956622224
 34
0.0
100
AcDbRotatedDimension
  0
DIMENSION
  5
2E9
330
1F
100
AcDbEntity
  8
1
100
AcDbDimension
  2
*D9
 10
-141.7305981112079
 20
-350.363137704431
 30
0.0
 11
-160.8847067825009
 21
-346.613137704431
 31
0.0
 70
    32
  1
<>
 71
     5
 42
-1.0
 53
0.00013888888889
  3
ME10_DIM_15
100
AcDbAlignedDimension
 13
-177.730598111208
 23
-306.566956622224
 33
0.0
 14
-141.7305981112079
 24
-332.566956622224
 34
0.0
100
AcDbRotatedDimension
  0
DIMENSION
  5
2F4
330
1F
100
AcDbEntity
  8
1
100
AcDbDimension
  2
*D10
 10
-247.0246363086952
 20
-164.272066147577
 30
0.0
 11
-240.736301051682
 21
-160.522066147577
 31
0.0
 70
    32
  1
<>
 71
     5
 42
-1.0
 53
0.00013888888889
  3
ME10_DIM_16
100
AcDbAlignedDimension
 13
-234.0246363086951
 23
-145.816956622224
 33
0.0
 14
-247.0246363086951
 24
-145.816956622224
 34
0.0
100
AcDbRotatedDimension
  0
DIMENSION
  5
2FF
330
1F
100
AcDbEntity
  8
1
100
AcDbDimension
  2
*D11
 10
-217.9018810101
 20
-148.566956622224
 30
0.0
 11
-221.6518810101
 21
-221.7476504433287
 31
0.0
 70
    32
  1
<>
 71
     5
 42
-1.0
 53
90.0
  3
ME10_DIM_17
100
AcDbAlignedDimension
 13
-237.5246363086951
 23
-306.566956622224
 33
0.0
 14
-237.5246363086951
 24
-148.566956622224
 34
0.0
 50
90.0
100
AcDbRotatedDimension
  0
DIMENSION
  5
30A
330
1F
100
AcDbEntity
  8
1
100
AcDbDimension
  2
*D12
 10
-81.16785902345418
 20
-304.900783589978
 30
0.0
 11
-74.994523557526
 21
-301.150783589978
 31
0.0
 70
    32
  1
<>
 71
     5
 42
-1.0
 53
0.00013888888889
  3
ME10_DIM_18
100
AcDbAlignedDimension
 13
-68.16785902345418
 23
-280.9871061063313
 33
0.0
 14
-81.16785902345418
 24
-295.4871061063313
 34
0.0
100
AcDbRotatedDimension
  0
DIMENSION
  5
315
330
1F
100
AcDbEntity
  8
1
100
AcDbDimension
  2
*D13
 10
2.8241277206779
 20
-324.653822080506
 30
0.0
 11
7.8622572981964
 21
-320.903822080506
 31
0.0
 70
    32
  1
<>
 71
     5
 42
-1.0
 53
0.00013888888889
  3
ME10_DIM_19
100
AcDbAlignedDimension
 13
12.8241277206779
 23
-307.566956622224
 33
0.0
 14
2.8241277206779
 24
-332.566956622224
 34
0.0
100
AcDbRotatedDimension
  0
DIMENSION
  5
320
330
1F
100
AcDbEntity
  8
1
100
AcDbDimension
  2
*D14
 10
2.8241277206779
 20
-339.930469382798
 30
0.0
 11
18.00946819450727
 21
-336.180469382798
 31
0.0
 70
    32
  1
<>
 71
     5
 42
-1.0
 53
0.00013888888889
  3
ME10_DIM_20
100
AcDbAlignedDimension
 13
34.8241277206779
 23
-287.566956622224
 33
0.0
 14
2.8241277206779
 24
-332.566956622224
 34
0.0
100
AcDbRotatedDimension
  0
DIMENSION
  5
32E
330
1F
100
AcDbEntity
  8
1
100
AcDbDimension
  2
*D15
 10
82.1661158394921
 20
-136.418455515211
 30
0.0
 11
85.91817481643467
 21
-132.668455515211
 31
0.0
 70
    32
  1
<>
 71
     5
 42
-1.0
 53
0.00013888888889
  3
ME10_DIM_21
100
AcDbAlignedDimension
 13
91.6661158394921
 23
-164.816956622224
 33
0.0
 14
82.1661158394921
 24
-158.817048851624
 34
0.0
100
AcDbRotatedDimension
  0
DIMENSION
  5
339
330
1F
100
AcDbEntity
  8
1
100
AcDbDimension
  2
*D16
 10
-190.82520397459
 20
-322.5669566222238
 30
0.0
 11
-194.57520397459
 21
-227.801931483913
 31
0.0
 70
    32
  1
<>
 71
     5
 42
-1.0
 53
90.0
  3
ME10_DIM_22
100
AcDbAlignedDimension
 13
-240.5246363086951
 23
-132.5573376789906
 33
0.0
 14
-240.5246363086951
 24
-322.5669566222238
 34
0.0
 50
90.0
100
AcDbRotatedDimension
  0
DIMENSION
  5
344
330
1F
100
AcDbEntity
  8
1
100
AcDbDimension
  2
*D17
 10
-81.16785902345418
 20
-313.3265755654574
 30
0.0
 11
-58.5321506362859
 21
-309.5765755654574
 31
0.0
 70
    32
  1
<>
 71
     5
 42
-1.0
 53
0.00013888888889
  3
ME10_DIM_23
100
AcDbAlignedDimension
 13
-36.16785902345418
 23
-279.9871061063313
 33
0.0
 14
-81.16785902345418
 24
-295.4871061063313
 34
0.0
100
AcDbRotatedDimension
  0
DIMENSION
  5
351
330
1F
100
AcDbEntity
  8
1
100
AcDbDimension
  2
*D18
 10
-88.1438699526662
 20
-280.9871061063312
 30
0.0
 11
-91.8938699526662
 21
-296.434063172956
 31
0.0
 70
    32
  1
<>
 71
     5
 42
-1.0
 53
90.0
  3
ME10_DIM_24
100
AcDbAlignedDimension
 13
-81.16785902345418
 23
-287.5871061063313
 33
0.0
 14
-68.16785902345418
 24
-280.9871061063313
 34
0.0
 50
90.0
100
AcDbRotatedDimension
  0
DIMENSION
  5
35C
330
1F
100
AcDbEntity
  8
1
100
AcDbDimension
  2
*D19
 10
84.3789584182948
 20
-181.066956622224
 30
0.0
 11
80.6289584182948
 21
-227.566956622224
 31
0.0
 70
    32
  1
<>
 71
     5
 42
-1.0
 53
90.0
  3
ME10_DIM_25
100
AcDbAlignedDimension
 13
96.9161158394921
 23
-274.066956622224
 33
0.0
 14
96.9161158394921
 24
-181.066956622224
 34
0.0
 50
90.0
100
AcDbRotatedDimension
  0
DIMENSION
  5
367
330
1F
100
AcDbEntity
  8
1
100
AcDbDimension
  2
*D20
 10
68.8772469639425
 20
-167.5669566222245
 30
0.0
 11
65.1272469639425
 21
-228.477734115841
 31
0.0
 70
    32
  1
<>
 71
     5
 42
-1.0
 53
90.0
  3
ME10_DIM_26
100
AcDbAlignedDimension
 13
86.91611583949206
 23
-287.5669566222236
 33
0.0
 14
86.9161158394921
 24
-167.5669566222245
 34
0.0
 50
90.0
100
AcDbRotatedDimension
  0
DIMENSION
  5
372
330
1F
100
AcDbEntity
  8
1
100
AcDbDimension
  2
*D21
 10
121.9778882319082
 20
-162.566956622224
 30
0.0
 11
118.2278882319082
 21
-227.970962507645
 31
0.0
 70
    32
  1
<>
 71
     5
 42
-1.0
 53
90.0
  3
ME10_DIM_27
100
AcDbAlignedDimension
 13
93.9161158394921
 23
-292.566956622224
 33
0.0
 14
93.9161158394921
 24
-162.566956622224
 34
0.0
 50
90.0
100
AcDbRotatedDimension
  0
DIMENSION
  5
37D
330
1F
100
AcDbEntity
  8
1
100
AcDbDimension
  2
*D22
 10
55.1220458300856
 20
-147.566956622224
 30
0.0
 11
51.3720458300856
 21
-229.141300978257
 31
0.0
 70
    32
  1
<>
 71
     5
 42
-1.0
 53
90.0
  3
ME10_DIM_28
100
AcDbAlignedDimension
 13
86.9161158394921
 23
-307.5669566222239
 33
0.0
 14
86.9161158394921
 24
-147.566956622224
 34
0.0
 50
90.0
100
AcDbRotatedDimension
  0
DIMENSION
  5
388
330
1F
100
AcDbEntity
  8
1
100
AcDbDimension
  2
*D23
 10
76.9161158394921
 20
-340.542588806292
 30
0.0
 11
86.0015455150667
 21
-336.792588806292
 31
0.0
 70
    32
  1
<>
 71
     5
 42
-1.0
 53
0.00013888888889
  3
ME10_DIM_29
100
AcDbAlignedDimension
 13
96.9161158394921
 23
-297.566956622224
 33
0.0
 14
76.9161158394921
 24
-297.566956622224
 34
0.0
100
AcDbRotatedDimension
  0
DIMENSION
  5
395
330
1F
100
AcDbEntity
  8
1
100
AcDbDimension
  2
*D24
 10
105.4161158394921
 20
-254.802386477044
 30
0.0
 11
101.431195383044
 21
-251.052386477044
 31
0.0
 70
    32
  1
<>
 71
     5
 42
-1.0
 53
0.00013888888889
  3
ME10_DIM_30
100
AcDbAlignedDimension
 13
96.9161158394921
 23
-277.5669566222239
 33
0.0
 14
105.4161158394921
 24
-263.8882305807056
 34
0.0
100
AcDbRotatedDimension
  0
DIMENSION
  5
3A2
330
1F
100
AcDbEntity
  8
1
100
AcDbDimension
  2
*D25
 10
-119.092169912785
 20
-275.9871061063313
 30
0.0
 11
-122.842169912785
 21
-270.630554580699
 31
0.0
 70
    32
  1
<>
 71
     5
 42
-1.0
 53
90.0
  3
ME10_DIM_31
100
AcDbAlignedDimension
 13
-113.1678590234538
 23
-279.4871061063313
 33
0.0
 14
-107.667859023454
 24
-275.9871061063313
 34
0.0
 50
90.0
100
AcDbRotatedDimension
  0
DIMENSION
  5
3AD
330
1F
100
AcDbEntity
  8
1
100
AcDbDimension
  2
*D26
 10
-15.8152790625052
 20
-255.4871061063313
 30
0.0
 11
-19.5652790625052
 21
-276.42662242662
 31
0.0
 70
    32
  1
<>
 71
     5
 42
-1.0
 53
90.0
  3
ME10_DIM_32
100
AcDbAlignedDimension
 13
-24.8364297845392
 23
-295.4871061063313
 33
0.0
 14
-24.8364297845392
 24
-255.4871061063313
 34
0.0
 50
90.0
100
AcDbRotatedDimension
  0
DIMENSION
  5
3BA
330
1F
100
AcDbEntity
  8
1
100
AcDbDimension
  2
*D27
 10
-97.531194485918
 20
-280.9871061063313
 30
0.0
 11
-101.281194485918
 21
-309.545941663856
 31
0.0
 70
    32
  1
<>
 71
     5
 42
-1.0
 53
90.0
  3
ME10_DIM_33
100
AcDbAlignedDimension
 13
-81.16785902345418
 23
-295.4871061063313
 33
0.0
 14
-81.16785902345418
 24
-280.9871061063313
 34
0.0
 50
90.0
100
AcDbRotatedDimension
  0
DIMENSION
  5
3C7
330
1F
100
AcDbEntity
  8
1
100
AcDbDimension
  2
*D28
 10
-257.0246363086953
 20
-342.910862655322
 30
0.0
 11
-261.586880981089
 21
-339.160862655322
 31
0.0
 70
    32
  1
<>
 71
     5
 42
-1.0
 53
0.00013888888889
  3
ME10_DIM_34
100
AcDbAlignedDimension
 13
-253.5246363086952
 23
-309.5765755654575
 33
0.0
 14
-257.0246363086953
 24
-332.566956622224
 34
0.0
100
AcDbRotatedDimension
  0
DIMENSION
  5
3D3
330
1F
100
AcDbEntity
  8
1
100
AcDbDimension
  2
*D29
 10
-253.5246363086951
 20
-342.910862655322
 30
0.0
 11
-240.5246363086952
 21
-339.160862655322
 31
0.0
 70
    32
  1
<>
 71
     5
 42
-1.0
 53
0.00013888888889
  3
ME10_DIM_35
100
AcDbAlignedDimension
 13
-227.5246363086952
 23
-309.5765755654575
 33
0.0
 14
-253.5246363086952
 24
-309.5765755654575
 34
0.0
100
AcDbRotatedDimension
  0
DIMENSION
  5
3E0
330
1F
100
AcDbEntity
  8
1
100
AcDbDimension
  2
*D30
 10
61.9075821582737
 20
-156.567048851624
 30
0.0
 11
58.2345381158019
 21
-158.485016272571
 31
0.0
 70
    32
  1
<>
 71
     5
 42
-1.0
 53
90.0
  3
ME10_DIM_36
100
AcDbAlignedDimension
 13
89.4161158394921
 23
-162.566956622224
 33
0.0
 14
79.9161158394921
 24
-156.567048851624
 34
0.0
 50
90.0
100
AcDbRotatedDimension
  0
INSERT
  5
3E7
330
1F
100
AcDbEntity
  8
1
100
AcDbBlockReference
  2
*D31
 10
0.0
 20
0.0
 30
0.0
  0
INSERT
  5
3EE
330
1F
100
AcDbEntity
  8
1
100
AcDbBlockReference
  2
*D32
 10
0.0
 20
0.0
 30
0.0
  0
INSERT
  5
3F5
330
1F
100
AcDbEntity
  8
1
100
AcDbBlockReference
  2
*D33
 10
0.0
 20
0.0
 30
0.0
  0
INSERT
  5
3FD
330
1F
100
AcDbEntity
  8
1
100
AcDbBlockReference
  2
*D34
 10
0.0
 20
0.0
 30
0.0
  0
INSERT
  5
405
330
1F
100
AcDbEntity
  8
1
100
AcDbBlockReference
  2
*D35
 10
0.0
 20
0.0
 30
0.0
  0
INSERT
  5
40E
330
1F
100
AcDbEntity
  8
1
100
AcDbBlockReference
  2
*D36
 10
0.0
 20
0.0
 30
0.0
  0
INSERT
  5
417
330
1F
100
AcDbEntity
  8
1
100
AcDbBlockReference
  2
*D37
 10
0.0
 20
0.0
 30
0.0
  0
ENDSEC
  0
SECTION
  2
OBJECTS
  0
DICTIONARY
  5
C
330
0
100
AcDbDictionary
281
     1
  3
ACAD_GROUP
350
D
  3
ACAD_LAYOUT
350
1A
  3
ACAD_MATERIAL
350
3B
  3
ACAD_MLEADERSTYLE
350
41A
  3
ACAD_MLINESTYLE
350
17
  3
ACAD_PLOTSETTINGS
350
19
  3
ACAD_PLOTSTYLENAME
350
E
  3
ACAD_VISUALSTYLE
350
2A
  3
AcDbVariableDictionary
350
418
  0
DICTIONARY
  5
D
102
{ACAD_REACTORS
330
C
102
}
330
C
100
AcDbDictionary
281
     1
  0
DICTIONARY
  5
1A
102
{ACAD_REACTORS
330
C
102
}
330
C
100
AcDbDictionary
281
     1
  3
Layout1
350
1E
  3
Layout2
350
26
  3
Model
350
22
  0
DICTIONARY
  5
3B
102
{ACAD_REACTORS
330
C
102
}
330
C
100
AcDbDictionary
281
     1
  3
ByBlock
350
3D
  3
ByLayer
350
3C
  3
Global
350
3E
  0
DICTIONARY
  5
41A
102
{ACAD_REACTORS
330
C
102
}
330
C
100
AcDbDictionary
281
     1
  0
DICTIONARY
  5
17
102
{ACAD_REACTORS
330
C
102
}
330
C
100
AcDbDictionary
281
     1
  3
Standard
350
18
  0
DICTIONARY
  5
19
102
{ACAD_REACTORS
330
C
102
}
330
C
100
AcDbDictionary
281
     1
  0
ACDBDICTIONARYWDFLT
  5
E
102
{ACAD_REACTORS
330
C
102
}
330
C
100
AcDbDictionary
281
     1
  3
Normal
350
F
100
AcDbDictionaryWithDefault
340
F
  0
DICTIONARY
  5
2A
102
{ACAD_REACTORS
330
C
102
}
330
C
100
AcDbDictionary
281
     1
  3
2dWireframe
350
2F
  3
3D Hidden
350
31
  3
3dWireframe
350
30
  3
Basic
350
32
  3
Brighten
350
36
  3
ColorChange
350
3A
  3
Conceptual
350
34
  3
Dim
350
35
  3
Facepattern
350
39
  3
Flat
350
2B
  3
FlatWithEdges
350
2C
  3
Gouraud
350
2D
  3
GouraudWithEdges
350
2E
  3
Linepattern
350
38
  3
Realistic
350
33
  3
Thicken
350
37
  0
DICTIONARY
  5
418
102
{ACAD_REACTORS
330
C
102
}
330
C
100
AcDbDictionary
281
     1
  3
DIMASSOC
350
41B
  3
HIDETEXT
350
41C
  0
LAYOUT
  5
1E
102
{ACAD_REACTORS
330
1A
102
}
330
1A
100
AcDbPlotSettings
  1

  2
none_device
  4

  6

 40
0.0
 41
0.0
 42
0.0
 43
0.0
 44
0.0
 45
0.0
 46
0.0
 47
0.0
 48
0.0
 49
0.0
140
0.0
141
0.0
142
1.0
143
1.0
 70
   688
 72
     0
 73
     0
 74
     5
  7

 75
    16
147
1.0
148
0.0
149
0.0
100
AcDbLayout
  1
Layout1
 70
     1
 71
     1
 10
0.0
 20
0.0
 11
12.0
 21
9.0
 12
0.0
 22
0.0
 32
0.0
 14
1.00000000000000E+20
 24
1.00000000000000E+20
 34
1.00000000000000E+20
 15
-1.00000000000000E+20
 25
-1.00000000000000E+20
 35
-1.00000000000000E+20
146
0.0
 13
0.0
 23
0.0
 33
0.0
 16
1.0
 26
0.0
 36
0.0
 17
0.0
 27
1.0
 37
0.0
 76
     0
330
1B
  0
LAYOUT
  5
26
102
{ACAD_REACTORS
330
1A
102
}
330
1A
100
AcDbPlotSettings
  1

  2
none_device
  4

  6

 40
0.0
 41
0.0
 42
0.0
 43
0.0
 44
0.0
 45
0.0
 46
0.0
 47
0.0
 48
0.0
 49
0.0
140
0.0
141
0.0
142
1.0
143
1.0
 70
   688
 72
     0
 73
     0
 74
     5
  7

 75
    16
147
1.0
148
0.0
149
0.0
100
AcDbLayout
  1
Layout2
 70
     1
 71
     2
 10
0.0
 20
0.0
 11
0.0
 21
0.0
 12
0.0
 22
0.0
 32
0.0
 14
0.0
 24
0.0
 34
0.0
 15
0.0
 25
0.0
 35
0.0
146
0.0
 13
0.0
 23
0.0
 33
0.0
 16
1.0
 26
0.0
 36
0.0
 17
0.0
 27
1.0
 37
0.0
 76
     0
330
23
  0
LAYOUT
  5
22
102
{ACAD_REACTORS
330
1A
102
}
330
1A
100
AcDbPlotSettings
  1

  2
none_device
  4

  6

 40
0.0
 41
0.0
 42
0.0
 43
0.0
 44
0.0
 45
0.0
 46
0.0
 47
0.0
 48
0.0
 49
0.0
140
0.0
141
0.0
142
1.0
143
1.0
 70
  1712
 72
     0
 73
     0
 74
     0
  7

 75
     0
147
1.0
148
0.0
149
0.0
100
AcDbLayout
  1
Model
 70
     1
 71
     0
 10
0.0
 20
0.0
 11
12.0
 21
9.0
 12
0.0
 22
0.0
 32
0.0
 14
-284.1782319674094
 24
-398.2176513114891
 34
0.0
 15
125.8217680325906
 25
-112.2176513114891
 35
0.0
146
0.0
 13
0.0
 23
0.0
 33
0.0
 16
1.0
 26
0.0
 36
0.0
 17
0.0
 27
1.0
 37
0.0
 76
     0
330
1F
331
29
  0
MATERIAL
  5
3D
102
{ACAD_REACTORS
330
3B
102
}
102
{ACAD_XDICTIONARY
360
43F
102
}
330
3B
100
AcDbMaterial
  1
ByBlock
  0
MATERIAL
  5
3C
102
{ACAD_REACTORS
330
3B
102
}
102
{ACAD_XDICTIONARY
360
43D
102
}
330
3B
100
AcDbMaterial
  1
ByLayer
  0
MATERIAL
  5
3E
102
{ACAD_REACTORS
330
3B
102
}
102
{ACAD_XDICTIONARY
360
441
102
}
330
3B
100
AcDbMaterial
  1
Global
  0
MLINESTYLE
  5
18
102
{ACAD_REACTORS
330
17
102
}
330
17
100
AcDbMlineStyle
  2
Standard
 70
     0
  3

 62
   256
 51
90.0
 52
90.0
 71
     2
 49
0.5
 62
   256
  6
BYLAYER
 49
-0.5
 62
   256
  6
BYLAYER
  0
ACDBPLACEHOLDER
  5
F
102
{ACAD_REACTORS
330
E
102
}
330
E
  0
VISUALSTYLE
  5
2F
102
{ACAD_REACTORS
330
2A
102
}
102
{ACAD_XDICTIONARY
360
425
102
}
330
2A
100
AcDbVisualStyle
  2
2dWireframe
 70
     4
 71
     0
 72
     2
 73
     0
 90
        0
 40
-0.6
 41
-30.0
 62
     5
 63
     7
 74
     1
 91
        4
 64
     7
 65
   257
 75
     1
175
     1
 42
1.0
 92
        0
 66
   257
 43
1.0
 76
     1
 77
     6
 78
     2
 67
     7
 79
     5
170
     0
171
     0
290
     0
174
     0
 93
        1
 44
0.0
173
     0
291
     0
 45
0.0
1001
ACAD
1000
AcDbSavedByObjectVersion
1070
     0
  0
VISUALSTYLE
  5
31
102
{ACAD_REACTORS
330
2A
102
}
102
{ACAD_XDICTIONARY
360
429
102
}
330
2A
100
AcDbVisualStyle
  2
3D Hidden
 70
     6
 71
     1
 72
     2
 73
     2
 90
        0
 40
-0.6
 41
-30.0
 62
     5
 63
     7
 74
     2
 91
        2
 64
     7
 65
   257
 75
     2
175
     1
 42
40.0
 92
        0
 66
   257
 43
1.0
 76
     1
 77
     6
 78
     2
 67
     7
 79
     3
170
     0
171
     0
290
     0
174
     0
 93
        1
 44
0.0
173
     0
291
     0
 45
0.0
1001
ACAD
1000
AcDbSavedByObjectVersion
1070
     0
  0
VISUALSTYLE
  5
30
102
{ACAD_REACTORS
330
2A
102
}
102
{ACAD_XDICTIONARY
360
427
102
}
330
2A
100
AcDbVisualStyle
  2
3dWireframe
 70
     5
 71
     0
 72
     2
 73
     0
 90
        0
 40
-0.6
 41
-30.0
 62
     5
 63
     7
 74
     1
 91
        4
 64
     7
 65
   257
 75
     1
175
     1
 42
1.0
 92
        0
 66
   257
 43
1.0
 76
     1
 77
     6
 78
     2
 67
     7
 79
     5
170
     0
171
     0
290
     0
174
     0
 93
        1
 44
0.0
173
     0
291
     0
 45
0.0
1001
ACAD
1000
AcDbSavedByObjectVersion
1070
     0
  0
VISUALSTYLE
  5
32
102
{ACAD_REACTORS
330
2A
102
}
102
{ACAD_XDICTIONARY
360
42B
102
}
330
2A
100
AcDbVisualStyle
  2
Basic
 70
     7
 71
     1
 72
     0
 73
     1
 90
        0
 40
-0.6
 41
-30.0
 62
     5
 63
     7
 74
     0
 91
        4
 64
     7
 65
   257
 75
     1
175
     1
 42
1.0
 92
        8
 66
     7
 43
1.0
 76
     1
 77
     6
 78
     2
 67
     7
 79
     5
170
     0
171
     0
290
     0
174
     0
 93
        1
 44
0.0
173
     0
291
     1
 45
0.0
1001
ACAD
1000
AcDbSavedByObjectVersion
1070
     0
  0
VISUALSTYLE
  5
36
102
{ACAD_REACTORS
330
2A
102
}
102
{ACAD_XDICTIONARY
360
433
102
}
330
2A
100
AcDbVisualStyle
  2
Brighten
 70
    12
 71
     2
 72
     2
 73
     0
 90
        0
 40
-0.6
 41
-30.0
 62
     5
 63
     7
 74
     1
 91
        4
 64
     7
 65
   257
 75
     1
175
     1
 42
1.0
 92
        8
 66
     7
 43
1.0
 76
     1
 77
     6
 78
     2
 67
     7
 79
     5
170
     0
171
     0
290
     0
174
     0
 93
        1
 44
50.0
173
     0
291
     1
 45
0.0
1001
ACAD
1000
AcDbSavedByObjectVersion
1070
     0
  0
VISUALSTYLE
  5
3A
102
{ACAD_REACTORS
330
2A
102
}
102
{ACAD_XDICTIONARY
360
43B
102
}
330
2A
100
AcDbVisualStyle
  2
ColorChange
 70
    16
 71
     2
 72
     2
 73
     3
 90
        0
 40
-0.6
 41
-30.0
 62
     5
 63
     8
 74
     1
 91
        4
 64
     7
 65
   257
 75
     1
175
     1
 42
1.0
 92
        8
 66
     8
 43
1.0
 76
     1
 77
     6
 78
     2
 67
     7
 79
     5
170
     0
171
     0
290
     0
174
     0
 93
        1
 44
0.0
173
     0
291
     1
 45
0.0
1001
ACAD
1000
AcDbSavedByObjectVersion
1070
     0
  0
VISUALSTYLE
  5
34
102
{ACAD_REACTORS
330
2A
102
}
102
{ACAD_XDICTIONARY
360
42F
102
}
330
2A
100
AcDbVisualStyle
  2
Conceptual
 70
     9
 71
     3
 72
     2
 73
     0
 90
        0
 40
-0.6
 41
-30.0
 62
     5
 63
     7
 74
     2
 91
        2
 64
     7
 65
   257
 75
     1
175
     1
 42
40.0
 92
        8
 66
     7
 43
1.0
 76
     1
 77
     6
 78
     2
 67
     7
 79
     3
170
     0
171
     0
290
     0
174
     0
 93
        1
 44
0.0
173
     0
291
     0
 45
0.0
1001
ACAD
1000
AcDbSavedByObjectVersion
1070
     0
  0
VISUALSTYLE
  5
35
102
{ACAD_REACTORS
330
2A
102
}
102
{ACAD_XDICTIONARY
360
431
102
}
330
2A
100
AcDbVisualStyle
  2
Dim
 70
    11
 71
     2
 72
     2
 73
     0
 90
        0
 40
-0.6
 41
-30.0
 62
     5
 63
     7
 74
     1
 91
        4
 64
     7
 65
   257
 75
     1
175
     1
 42
1.0
 92
        8
 66
     7
 43
1.0
 76
     1
 77
     6
 78
     2
 67
     7
 79
     5
170
     0
171
     0
290
     0
174
     0
 93
        1
 44
-50.0
173
     0
291
     1
 45
0.0
1001
ACAD
1000
AcDbSavedByObjectVersion
1070
     0
  0
VISUALSTYLE
  5
39
102
{ACAD_REACTORS
330
2A
102
}
102
{ACAD_XDICTIONARY
360
439
102
}
330
2A
100
AcDbVisualStyle
  2
Facepattern
 70
    15
 71
     2
 72
     2
 73
     0
 90
        0
 40
-0.6
 41
-30.0
 62
     5
 63
     7
 74
     1
 91
        4
 64
     7
 65
   257
 75
     1
175
     1
 42
1.0
 92
        8
 66
     7
 43
1.0
 76
     1
 77
     6
 78
     2
 67
     7
 79
     5
170
     0
171
     0
290
     0
174
     0
 93
        1
 44
0.0
173
     0
291
     1
 45
0.0
1001
ACAD
1000
AcDbSavedByObjectVersion
1070
     0
  0
VISUALSTYLE
  5
2B
102
{ACAD_REACTORS
330
2A
102
}
102
{ACAD_XDICTIONARY
360
41D
102
}
330
2A
100
AcDbVisualStyle
  2
Flat
 70
     0
 71
     2
 72
     1
 73
     1
 90
        2
 40
-0.6
 41
30.0
 62
     5
 63
     7
 74
     0
 91
        4
 64
     7
 65
   257
 75
     1
175
     1
 42
1.0
 92
        8
 66
     7
 43
1.0
 76
     1
 77
     6
 78
     2
 67
     7
 79
     5
170
     0
171
     0
290
     0
174
     0
 93
       13
 44
0.0
173
     0
291
     1
 45
0.0
1001
ACAD
1000
AcDbSavedByObjectVersion
1070
     0
  0
VISUALSTYLE
  5
2C
102
{ACAD_REACTORS
330
2A
102
}
102
{ACAD_XDICTIONARY
360
41F
102
}
330
2A
100
AcDbVisualStyle
  2
FlatWithEdges
 70
     1
 71
     2
 72
     1
 73
     1
 90
        2
 40
-0.6
 41
30.0
 62
     5
 63
     7
 74
     1
 91
        4
 64
     7
 65
   257
 75
     1
175
     1
 42
1.0
 92
        0
 66
   257
 43
1.0
 76
     1
 77
     6
 78
     2
 67
     7
 79
     5
170
     0
171
     0
290
     0
174
     0
 93
       13
 44
0.0
173
     0
291
     1
 45
0.0
1001
ACAD
1000
AcDbSavedByObjectVersion
1070
     0
  0
VISUALSTYLE
  5
2D
102
{ACAD_REACTORS
330
2A
102
}
102
{ACAD_XDICTIONARY
360
421
102
}
330
2A
100
AcDbVisualStyle
  2
Gouraud
 70
     2
 71
     2
 72
     2
 73
     1
 90
        2
 40
-0.6
 41
30.0
 62
     5
 63
     7
 74
     0
 91
        4
 64
     7
 65
   257
 75
     1
175
     1
 42
1.0
 92
        0
 66
     7
 43
1.0
 76
     1
 77
     6
 78
     2
 67
     7
 79
     5
170
     0
171
     0
290
     0
174
     0
 93
       13
 44
0.0
173
     0
291
     1
 45
0.0
1001
ACAD
1000
AcDbSavedByObjectVersion
1070
     0
  0
VISUALSTYLE
  5
2E
102
{ACAD_REACTORS
330
2A
102
}
102
{ACAD_XDICTIONARY
360
423
102
}
330
2A
100
AcDbVisualStyle
  2
GouraudWithEdges
 70
     3
 71
     2
 72
     2
 73
     1
 90
        2
 40
-0.6
 41
30.0
 62
     5
 63
     7
 74
     1
 91
        4
 64
     7
 65
   257
 75
     1
175
     1
 42
1.0
 92
        0
 66
   257
 43
1.0
 76
     1
 77
     6
 78
     2
 67
     7
 79
     5
170
     0
171
     0
290
     0
174
     0
 93
       13
 44
0.0
173
     0
291
     1
 45
0.0
1001
ACAD
1000
AcDbSavedByObjectVersion
1070
     0
  0
VISUALSTYLE
  5
38
102
{ACAD_REACTORS
330
2A
102
}
102
{ACAD_XDICTIONARY
360
437
102
}
330
2A
100
AcDbVisualStyle
  2
Linepattern
 70
    14
 71
     2
 72
     2
 73
     0
 90
        0
 40
-0.6
 41
-30.0
 62
     5
 63
     7
 74
     1
 91
        4
 64
     7
 65
   257
 75
     7
175
     7
 42
1.0
 92
        8
 66
     7
 43
1.0
 76
     1
 77
     6
 78
     2
 67
     7
 79
     5
170
     0
171
     0
290
     0
174
     0
 93
        1
 44
0.0
173
     0
291
     1
 45
0.0
1001
ACAD
1000
AcDbSavedByObjectVersion
1070
     0
  0
VISUALSTYLE
  5
33
102
{ACAD_REACTORS
330
2A
102
}
102
{ACAD_XDICTIONARY
360
42D
102
}
330
2A
100
AcDbVisualStyle
  2
Realistic
 70
     8
 71
     2
 72
     2
 73
     0
 90
        0
 40
-0.6
 41
-30.0
 62
     5
 63
     7
 74
     1
 91
        0
 64
     7
 65
   257
 75
     1
175
     1
 42
1.0
 92
        8
 66
     8
 43
1.0
 76
     1
 77
     6
 78
     2
 67
     7
 79
     5
170
     0
171
     0
290
     0
174
     0
 93
       13
 44
0.0
173
     0
291
     0
 45
0.0
1001
ACAD
1000
AcDbSavedByObjectVersion
1070
     0
  0
VISUALSTYLE
  5
37
102
{ACAD_REACTORS
330
2A
102
}
102
{ACAD_XDICTIONARY
360
435
102
}
330
2A
100
AcDbVisualStyle
  2
Thicken
 70
    13
 71
     2
 72
     2
 73
     0
 90
        0
 40
-0.6
 41
-30.0
 62
     5
 63
     7
 74
     1
 91
        4
 64
     7
 65
   257
 75
     1
175
     1
 42
1.0
 92
       12
 66
     7
 43
1.0
 76
     1
 77
     6
 78
     2
 67
     7
 79
     5
170
     0
171
     0
290
     0
174
     0
 93
        1
 44
0.0
173
     0
291
     1
 45
0.0
1001
ACAD
1000
AcDbSavedByObjectVersion
1070
     0
  0
DICTIONARYVAR
  5
41B
102
{ACAD_REACTORS
330
418
102
}
330
418
100
DictionaryVariables
280
     0
  1
2
  0
DICTIONARYVAR
  5
41C
102
{ACAD_REACTORS
330
418
102
}
330
418
100
DictionaryVariables
280
     0
  1
1
  0
DICTIONARY
  5
43F
330
3D
100
AcDbDictionary
280
     1
281
     1
  3
ACAD_XREC_ROUNDTRIP
360
440
  0
DICTIONARY
  5
43D
330
3C
100
AcDbDictionary
280
     1
281
     1
  3
ACAD_XREC_ROUNDTRIP
360
43E
  0
DICTIONARY
  5
441
330
3E
100
AcDbDictionary
280
     1
281
     1
  3
ACAD_XREC_ROUNDTRIP
360
442
  0
DICTIONARY
  5
425
330
2F
100
AcDbDictionary
280
     1
281
     1
  3
ACAD_XREC_ROUNDTRIP
360
426
  0
DICTIONARY
  5
429
330
31
100
AcDbDictionary
280
     1
281
     1
  3
ACAD_XREC_ROUNDTRIP
360
42A
  0
DICTIONARY
  5
427
330
30
100
AcDbDictionary
280
     1
281
     1
  3
ACAD_XREC_ROUNDTRIP
360
428
  0
DICTIONARY
  5
42B
330
32
100
AcDbDictionary
280
     1
281
     1
  3
ACAD_XREC_ROUNDTRIP
360
42C
  0
DICTIONARY
  5
433
330
36
100
AcDbDictionary
280
     1
281
     1
  3
ACAD_XREC_ROUNDTRIP
360
434
  0
DICTIONARY
  5
43B
330
3A
100
AcDbDictionary
280
     1
281
     1
  3
ACAD_XREC_ROUNDTRIP
360
43C
  0
DICTIONARY
  5
42F
330
34
100
AcDbDictionary
280
     1
281
     1
  3
ACAD_XREC_ROUNDTRIP
360
430
  0
DICTIONARY
  5
431
330
35
100
AcDbDictionary
280
     1
281
     1
  3
ACAD_XREC_ROUNDTRIP
360
432
  0
DICTIONARY
  5
439
330
39
100
AcDbDictionary
280
     1
281
     1
  3
ACAD_XREC_ROUNDTRIP
360
43A
  0
DICTIONARY
  5
41D
330
2B
100
AcDbDictionary
280
     1
281
     1
  3
ACAD_XREC_ROUNDTRIP
360
41E
  0
DICTIONARY
  5
41F
330
2C
100
AcDbDictionary
280
     1
281
     1
  3
ACAD_XREC_ROUNDTRIP
360
420
  0
DICTIONARY
  5
421
330
2D
100
AcDbDictionary
280
     1
281
     1
  3
ACAD_XREC_ROUNDTRIP
360
422
  0
DICTIONARY
  5
423
330
2E
100
AcDbDictionary
280
     1
281
     1
  3
ACAD_XREC_ROUNDTRIP
360
424
  0
DICTIONARY
  5
437
330
38
100
AcDbDictionary
280
     1
281
     1
  3
ACAD_XREC_ROUNDTRIP
360
438
  0
DICTIONARY
  5
42D
330
33
100
AcDbDictionary
280
     1
281
     1
  3
ACAD_XREC_ROUNDTRIP
360
42E
  0
DICTIONARY
  5
435
330
37
100
AcDbDictionary
280
     1
281
     1
  3
ACAD_XREC_ROUNDTRIP
360
436
  0
XRECORD
  5
440
102
{ACAD_REACTORS
330
43F
102
}
330
43F
100
AcDbXrecord
280
     1
102
MATERIAL
148
0.0
149
0.0
149
0.0
 93
        0
 94
      127
282
     0
 72
     1
 77
     1
171
     1
175
     1
179
     1
273
     0
  0
XRECORD
  5
43E
102
{ACAD_REACTORS
330
43D
102
}
330
43D
100
AcDbXrecord
280
     1
102
MATERIAL
148
0.0
149
0.0
149
0.0
 93
        0
 94
      127
282
     0
 72
     1
 77
     1
171
     1
175
     1
179
     1
273
     0
  0
XRECORD
  5
442
102
{ACAD_REACTORS
330
441
102
}
330
441
100
AcDbXrecord
280
     1
102
MATERIAL
148
0.0
149
0.0
149
0.0
 93
        0
 94
      127
282
     0
 72
     1
 77
     1
171
     1
175
     1
179
     1
273
     0
  0
XRECORD
  5
426
102
{ACAD_REACTORS
330
425
102
}
330
425
100
AcDbXrecord
280
     1
102
RTVSPropertyOp0
 70
     1
102
RTVSPropertyOp1
 70
     1
102
RTVSPropertyOp2
 70
     1
102
RTVSPropertyOp3
 70
     1
102
RTVSPropertyOp4
 70
     1
102
RTVSPropertyOp5
 70
     1
102
RTVSPropertyOp6
 70
     1
102
RTVSPropertyOp7
 70
     1
102
RTVSPropertyOp8
 70
     1
102
RTVSPropertyOp9
 70
     1
102
RTVSPropertyOp10
 70
     1
102
RTVSPropertyOp11
 70
     1
102
RTVSPropertyOp12
 70
     1
102
RTVSPropertyOp13
 70
     1
102
RTVSPropertyOp14
 70
     1
102
RTVSPropertyOp15
 70
     1
102
RTVSPropertyOp16
 70
     1
102
RTVSPropertyOp17
 70
     1
102
RTVSPropertyOp18
 70
     1
102
RTVSPropertyOp19
 70
     1
102
RTVSPropertyOp20
 70
     1
102
RTVSPropertyOp21
 70
     1
102
RTVSPropertyOp22
 70
     1
102
RTVSPropertyOp23
 70
     1
102
RTVSPropertyOp24
 70
     1
102
RTVSPropertyOp25
 70
     1
102
RTVSPropertyOp26
 70
     1
102
RTVSPropertyOp27
 70
     1
102
RTVSPropertyOp28
 70
     1
102
RTVSPropertyOp29
 70
     1
102
RTVSPropertyOp30
 70
     1
102
RTVSPropertyOp31
 70
     1
102
RTVSPropertyOp32
 70
     1
  0
XRECORD
  5
42A
102
{ACAD_REACTORS
330
429
102
}
330
429
100
AcDbXrecord
280
     1
102
RTVSPropertyOp0
 70
     1
102
RTVSPropertyOp1
 70
     1
102
RTVSPropertyOp2
 70
     1
102
RTVSPropertyOp3
 70
     1
102
RTVSPropertyOp4
 70
     1
102
RTVSPropertyOp5
 70
     1
102
RTVSPropertyOp6
 70
     1
102
RTVSPropertyOp7
 70
     1
102
RTVSPropertyOp8
 70
     1
102
RTVSPropertyOp9
 70
     1
102
RTVSPropertyOp10
 70
     1
102
RTVSPropertyOp11
 70
     1
102
RTVSPropertyOp12
 70
     1
102
RTVSPropertyOp13
 70
     1
102
RTVSPropertyOp14
 70
     1
102
RTVSPropertyOp15
 70
     1
102
RTVSPropertyOp16
 70
     1
102
RTVSPropertyOp17
 70
     1
102
RTVSPropertyOp18
 70
     1
102
RTVSPropertyOp19
 70
     1
102
RTVSPropertyOp20
 70
     1
102
RTVSPropertyOp21
 70
     1
102
RTVSPropertyOp22
 70
     1
102
RTVSPropertyOp23
 70
     1
102
RTVSPropertyOp24
 70
     1
102
RTVSPropertyOp25
 70
     1
102
RTVSPropertyOp26
 70
     1
102
RTVSPropertyOp27
 70
     1
102
RTVSPropertyOp28
 70
     1
102
RTVSPropertyOp29
 70
     1
102
RTVSPropertyOp30
 70
     1
102
RTVSPropertyOp31
 70
     1
102
RTVSPropertyOp32
 70
     1
  0
XRECORD
  5
428
102
{ACAD_REACTORS
330
427
102
}
330
427
100
AcDbXrecord
280
     1
102
RTVSPropertyOp0
 70
     1
102
RTVSPropertyOp1
 70
     1
102
RTVSPropertyOp2
 70
     1
102
RTVSPropertyOp3
 70
     1
102
RTVSPropertyOp4
 70
     1
102
RTVSPropertyOp5
 70
     1
102
RTVSPropertyOp6
 70
     1
102
RTVSPropertyOp7
 70
     1
102
RTVSPropertyOp8
 70
     1
102
RTVSPropertyOp9
 70
     1
102
RTVSPropertyOp10
 70
     1
102
RTVSPropertyOp11
 70
     1
102
RTVSPropertyOp12
 70
     1
102
RTVSPropertyOp13
 70
     1
102
RTVSPropertyOp14
 70
     1
102
RTVSPropertyOp15
 70
     1
102
RTVSPropertyOp16
 70
     1
102
RTVSPropertyOp17
 70
     1
102
RTVSPropertyOp18
 70
     1
102
RTVSPropertyOp19
 70
     1
102
RTVSPropertyOp20
 70
     1
102
RTVSPropertyOp21
 70
     1
102
RTVSPropertyOp22
 70
     1
102
RTVSPropertyOp23
 70
     1
102
RTVSPropertyOp24
 70
     1
102
RTVSPropertyOp25
 70
     1
102
RTVSPropertyOp26
 70
     1
102
RTVSPropertyOp27
 70
     1
102
RTVSPropertyOp28
 70
     1
102
RTVSPropertyOp29
 70
     1
102
RTVSPropertyOp30
 70
     1
102
RTVSPropertyOp31
 70
     1
102
RTVSPropertyOp32
 70
     1
  0
XRECORD
  5
42C
102
{ACAD_REACTORS
330
42B
102
}
330
42B
100
AcDbXrecord
280
     1
102
RTVSPropertyOp0
 70
     1
102
RTVSPropertyOp1
 70
     1
102
RTVSPropertyOp2
 70
     1
102
RTVSPropertyOp3
 70
     1
102
RTVSPropertyOp4
 70
     1
102
RTVSPropertyOp5
 70
     1
102
RTVSPropertyOp6
 70
     1
102
RTVSPropertyOp7
 70
     1
102
RTVSPropertyOp8
 70
     1
102
RTVSPropertyOp9
 70
     1
102
RTVSPropertyOp10
 70
     1
102
RTVSPropertyOp11
 70
     1
102
RTVSPropertyOp12
 70
     1
102
RTVSPropertyOp13
 70
     1
102
RTVSPropertyOp14
 70
     1
102
RTVSPropertyOp15
 70
     1
102
RTVSPropertyOp16
 70
     1
102
RTVSPropertyOp17
 70
     1
102
RTVSPropertyOp18
 70
     1
102
RTVSPropertyOp19
 70
     1
102
RTVSPropertyOp20
 70
     1
102
RTVSPropertyOp21
 70
     1
102
RTVSPropertyOp22
 70
     1
102
RTVSPropertyOp23
 70
     1
102
RTVSPropertyOp24
 70
     1
102
RTVSPropertyOp25
 70
     1
102
RTVSPropertyOp26
 70
     1
102
RTVSPropertyOp27
 70
     1
102
RTVSPropertyOp28
 70
     1
102
RTVSPropertyOp29
 70
     1
102
RTVSPropertyOp30
 70
     1
102
RTVSPropertyOp31
 70
     1
102
RTVSPropertyOp32
 70
     1
  0
XRECORD
  5
434
102
{ACAD_REACTORS
330
433
102
}
330
433
100
AcDbXrecord
280
     1
102
RTVSPropertyOp0
 70
     1
102
RTVSPropertyOp1
 70
     1
102
RTVSPropertyOp2
 70
     1
102
RTVSPropertyOp3
 70
     1
102
RTVSPropertyOp4
 70
     1
102
RTVSPropertyOp5
 70
     1
102
RTVSPropertyOp6
 70
     1
102
RTVSPropertyOp7
 70
     1
102
RTVSPropertyOp8
 70
     1
102
RTVSPropertyOp9
 70
     1
102
RTVSPropertyOp10
 70
     1
102
RTVSPropertyOp11
 70
     1
102
RTVSPropertyOp12
 70
     1
102
RTVSPropertyOp13
 70
     1
102
RTVSPropertyOp14
 70
     1
102
RTVSPropertyOp15
 70
     1
102
RTVSPropertyOp16
 70
     1
102
RTVSPropertyOp17
 70
     1
102
RTVSPropertyOp18
 70
     1
102
RTVSPropertyOp19
 70
     1
102
RTVSPropertyOp20
 70
     1
102
RTVSPropertyOp21
 70
     1
102
RTVSPropertyOp22
 70
     1
102
RTVSPropertyOp23
 70
     1
102
RTVSPropertyOp24
 70
     1
102
RTVSPropertyOp25
 70
     1
102
RTVSPropertyOp26
 70
     1
102
RTVSPropertyOp27
 70
     1
102
RTVSPropertyOp28
 70
     1
102
RTVSPropertyOp29
 70
     1
102
RTVSPropertyOp30
 70
     1
102
RTVSPropertyOp31
 70
     1
102
RTVSPropertyOp32
 70
     1
  0
XRECORD
  5
43C
102
{ACAD_REACTORS
330
43B
102
}
330
43B
100
AcDbXrecord
280
     1
102
RTVSPropertyOp0
 70
     1
102
RTVSPropertyOp1
 70
     1
102
RTVSPropertyOp2
 70
     1
102
RTVSPropertyOp3
 70
     1
102
RTVSPropertyOp4
 70
     1
102
RTVSPropertyOp5
 70
     1
102
RTVSPropertyOp6
 70
     1
102
RTVSPropertyOp7
 70
     1
102
RTVSPropertyOp8
 70
     1
102
RTVSPropertyOp9
 70
     1
102
RTVSPropertyOp10
 70
     1
102
RTVSPropertyOp11
 70
     1
102
RTVSPropertyOp12
 70
     1
102
RTVSPropertyOp13
 70
     1
102
RTVSPropertyOp14
 70
     1
102
RTVSPropertyOp15
 70
     1
102
RTVSPropertyOp16
 70
     1
102
RTVSPropertyOp17
 70
     1
102
RTVSPropertyOp18
 70
     1
102
RTVSPropertyOp19
 70
     1
102
RTVSPropertyOp20
 70
     1
102
RTVSPropertyOp21
 70
     1
102
RTVSPropertyOp22
 70
     1
102
RTVSPropertyOp23
 70
     1
102
RTVSPropertyOp24
 70
     1
102
RTVSPropertyOp25
 70
     1
102
RTVSPropertyOp26
 70
     1
102
RTVSPropertyOp27
 70
     1
102
RTVSPropertyOp28
 70
     1
102
RTVSPropertyOp29
 70
     1
102
RTVSPropertyOp30
 70
     1
102
RTVSPropertyOp31
 70
     1
102
RTVSPropertyOp32
 70
     1
  0
XRECORD
  5
430
102
{ACAD_REACTORS
330
42F
102
}
330
42F
100
AcDbXrecord
280
     1
102
RTVSPropertyOp0
 70
     1
102
RTVSPropertyOp1
 70
     1
102
RTVSPropertyOp2
 70
     1
102
RTVSPropertyOp3
 70
     1
102
RTVSPropertyOp4
 70
     1
102
RTVSPropertyOp5
 70
     1
102
RTVSPropertyOp6
 70
     1
102
RTVSPropertyOp7
 70
     1
102
RTVSPropertyOp8
 70
     1
102
RTVSPropertyOp9
 70
     1
102
RTVSPropertyOp10
 70
     1
102
RTVSPropertyOp11
 70
     1
102
RTVSPropertyOp12
 70
     1
102
RTVSPropertyOp13
 70
     1
102
RTVSPropertyOp14
 70
     1
102
RTVSPropertyOp15
 70
     1
102
RTVSPropertyOp16
 70
     1
102
RTVSPropertyOp17
 70
     1
102
RTVSPropertyOp18
 70
     1
102
RTVSPropertyOp19
 70
     1
102
RTVSPropertyOp20
 70
     1
102
RTVSPropertyOp21
 70
     1
102
RTVSPropertyOp22
 70
     1
102
RTVSPropertyOp23
 70
     1
102
RTVSPropertyOp24
 70
     1
102
RTVSPropertyOp25
 70
     1
102
RTVSPropertyOp26
 70
     1
102
RTVSPropertyOp27
 70
     1
102
RTVSPropertyOp28
 70
     1
102
RTVSPropertyOp29
 70
     1
102
RTVSPropertyOp30
 70
     1
102
RTVSPropertyOp31
 70
     1
102
RTVSPropertyOp32
 70
     1
  0
XRECORD
  5
432
102
{ACAD_REACTORS
330
431
102
}
330
431
100
AcDbXrecord
280
     1
102
RTVSPropertyOp0
 70
     1
102
RTVSPropertyOp1
 70
     1
102
RTVSPropertyOp2
 70
     1
102
RTVSPropertyOp3
 70
     1
102
RTVSPropertyOp4
 70
     1
102
RTVSPropertyOp5
 70
     1
102
RTVSPropertyOp6
 70
     1
102
RTVSPropertyOp7
 70
     1
102
RTVSPropertyOp8
 70
     1
102
RTVSPropertyOp9
 70
     1
102
RTVSPropertyOp10
 70
     1
102
RTVSPropertyOp11
 70
     1
102
RTVSPropertyOp12
 70
     1
102
RTVSPropertyOp13
 70
     1
102
RTVSPropertyOp14
 70
     1
102
RTVSPropertyOp15
 70
     1
102
RTVSPropertyOp16
 70
     1
102
RTVSPropertyOp17
 70
     1
102
RTVSPropertyOp18
 70
     1
102
RTVSPropertyOp19
 70
     1
102
RTVSPropertyOp20
 70
     1
102
RTVSPropertyOp21
 70
     1
102
RTVSPropertyOp22
 70
     1
102
RTVSPropertyOp23
 70
     1
102
RTVSPropertyOp24
 70
     1
102
RTVSPropertyOp25
 70
     1
102
RTVSPropertyOp26
 70
     1
102
RTVSPropertyOp27
 70
     1
102
RTVSPropertyOp28
 70
     1
102
RTVSPropertyOp29
 70
     1
102
RTVSPropertyOp30
 70
     1
102
RTVSPropertyOp31
 70
     1
102
RTVSPropertyOp32
 70
     1
  0
XRECORD
  5
43A
102
{ACAD_REACTORS
330
439
102
}
330
439
100
AcDbXrecord
280
     1
102
RTVSPropertyOp0
 70
     1
102
RTVSPropertyOp1
 70
     1
102
RTVSPropertyOp2
 70
     1
102
RTVSPropertyOp3
 70
     1
102
RTVSPropertyOp4
 70
     1
102
RTVSPropertyOp5
 70
     1
102
RTVSPropertyOp6
 70
     1
102
RTVSPropertyOp7
 70
     1
102
RTVSPropertyOp8
 70
     1
102
RTVSPropertyOp9
 70
     1
102
RTVSPropertyOp10
 70
     1
102
RTVSPropertyOp11
 70
     1
102
RTVSPropertyOp12
 70
     1
102
RTVSPropertyOp13
 70
     1
102
RTVSPropertyOp14
 70
     1
102
RTVSPropertyOp15
 70
     1
102
RTVSPropertyOp16
 70
     1
102
RTVSPropertyOp17
 70
     1
102
RTVSPropertyOp18
 70
     1
102
RTVSPropertyOp19
 70
     1
102
RTVSPropertyOp20
 70
     1
102
RTVSPropertyOp21
 70
     1
102
RTVSPropertyOp22
 70
     1
102
RTVSPropertyOp23
 70
     1
102
RTVSPropertyOp24
 70
     1
102
RTVSPropertyOp25
 70
     1
102
RTVSPropertyOp26
 70
     1
102
RTVSPropertyOp27
 70
     1
102
RTVSPropertyOp28
 70
     1
102
RTVSPropertyOp29
 70
     1
102
RTVSPropertyOp30
 70
     1
102
RTVSPropertyOp31
 70
     1
102
RTVSPropertyOp32
 70
     1
  0
XRECORD
  5
41E
102
{ACAD_REACTORS
330
41D
102
}
330
41D
100
AcDbXrecord
280
     1
102
RTVSPropertyOp0
 70
     1
102
RTVSPropertyOp1
 70
     1
102
RTVSPropertyOp2
 70
     1
102
RTVSPropertyOp3
 70
     1
102
RTVSPropertyOp4
 70
     1
102
RTVSPropertyOp5
 70
     1
102
RTVSPropertyOp6
 70
     1
102
RTVSPropertyOp7
 70
     1
102
RTVSPropertyOp8
 70
     1
102
RTVSPropertyOp9
 70
     1
102
RTVSPropertyOp10
 70
     1
102
RTVSPropertyOp11
 70
     1
102
RTVSPropertyOp12
 70
     1
102
RTVSPropertyOp13
 70
     1
102
RTVSPropertyOp14
 70
     1
102
RTVSPropertyOp15
 70
     1
102
RTVSPropertyOp16
 70
     1
102
RTVSPropertyOp17
 70
     1
102
RTVSPropertyOp18
 70
     1
102
RTVSPropertyOp19
 70
     1
102
RTVSPropertyOp20
 70
     1
102
RTVSPropertyOp21
 70
     1
102
RTVSPropertyOp22
 70
     1
102
RTVSPropertyOp23
 70
     1
102
RTVSPropertyOp24
 70
     1
102
RTVSPropertyOp25
 70
     1
102
RTVSPropertyOp26
 70
     1
102
RTVSPropertyOp27
 70
     1
102
RTVSPropertyOp28
 70
     1
102
RTVSPropertyOp29
 70
     1
102
RTVSPropertyOp30
 70
     1
102
RTVSPropertyOp31
 70
     1
102
RTVSPropertyOp32
 70
     1
  0
XRECORD
  5
420
102
{ACAD_REACTORS
330
41F
102
}
330
41F
100
AcDbXrecord
280
     1
102
RTVSPropertyOp0
 70
     1
102
RTVSPropertyOp1
 70
     1
102
RTVSPropertyOp2
 70
     1
102
RTVSPropertyOp3
 70
     1
102
RTVSPropertyOp4
 70
     1
102
RTVSPropertyOp5
 70
     1
102
RTVSPropertyOp6
 70
     1
102
RTVSPropertyOp7
 70
     1
102
RTVSPropertyOp8
 70
     1
102
RTVSPropertyOp9
 70
     1
102
RTVSPropertyOp10
 70
     1
102
RTVSPropertyOp11
 70
     1
102
RTVSPropertyOp12
 70
     1
102
RTVSPropertyOp13
 70
     1
102
RTVSPropertyOp14
 70
     1
102
RTVSPropertyOp15
 70
     1
102
RTVSPropertyOp16
 70
     1
102
RTVSPropertyOp17
 70
     1
102
RTVSPropertyOp18
 70
     1
102
RTVSPropertyOp19
 70
     1
102
RTVSPropertyOp20
 70
     1
102
RTVSPropertyOp21
 70
     1
102
RTVSPropertyOp22
 70
     1
102
RTVSPropertyOp23
 70
     1
102
RTVSPropertyOp24
 70
     1
102
RTVSPropertyOp25
 70
     1
102
RTVSPropertyOp26
 70
     1
102
RTVSPropertyOp27
 70
     1
102
RTVSPropertyOp28
 70
     1
102
RTVSPropertyOp29
 70
     1
102
RTVSPropertyOp30
 70
     1
102
RTVSPropertyOp31
 70
     1
102
RTVSPropertyOp32
 70
     1
  0
XRECORD
  5
422
102
{ACAD_REACTORS
330
421
102
}
330
421
100
AcDbXrecord
280
     1
102
RTVSPropertyOp0
 70
     1
102
RTVSPropertyOp1
 70
     1
102
RTVSPropertyOp2
 70
     1
102
RTVSPropertyOp3
 70
     1
102
RTVSPropertyOp4
 70
     1
102
RTVSPropertyOp5
 70
     1
102
RTVSPropertyOp6
 70
     1
102
RTVSPropertyOp7
 70
     1
102
RTVSPropertyOp8
 70
     1
102
RTVSPropertyOp9
 70
     1
102
RTVSPropertyOp10
 70
     1
102
RTVSPropertyOp11
 70
     1
102
RTVSPropertyOp12
 70
     1
102
RTVSPropertyOp13
 70
     1
102
RTVSPropertyOp14
 70
     1
102
RTVSPropertyOp15
 70
     1
102
RTVSPropertyOp16
 70
     1
102
RTVSPropertyOp17
 70
     1
102
RTVSPropertyOp18
 70
     1
102
RTVSPropertyOp19
 70
     1
102
RTVSPropertyOp20
 70
     1
102
RTVSPropertyOp21
 70
     1
102
RTVSPropertyOp22
 70
     1
102
RTVSPropertyOp23
 70
     1
102
RTVSPropertyOp24
 70
     1
102
RTVSPropertyOp25
 70
     1
102
RTVSPropertyOp26
 70
     1
102
RTVSPropertyOp27
 70
     1
102
RTVSPropertyOp28
 70
     1
102
RTVSPropertyOp29
 70
     1
102
RTVSPropertyOp30
 70
     1
102
RTVSPropertyOp31
 70
     1
102
RTVSPropertyOp32
 70
     1
  0
XRECORD
  5
424
102
{ACAD_REACTORS
330
423
102
}
330
423
100
AcDbXrecord
280
     1
102
RTVSPropertyOp0
 70
     1
102
RTVSPropertyOp1
 70
     1
102
RTVSPropertyOp2
 70
     1
102
RTVSPropertyOp3
 70
     1
102
RTVSPropertyOp4
 70
     1
102
RTVSPropertyOp5
 70
     1
102
RTVSPropertyOp6
 70
     1
102
RTVSPropertyOp7
 70
     1
102
RTVSPropertyOp8
 70
     1
102
RTVSPropertyOp9
 70
     1
102
RTVSPropertyOp10
 70
     1
102
RTVSPropertyOp11
 70
     1
102
RTVSPropertyOp12
 70
     1
102
RTVSPropertyOp13
 70
     1
102
RTVSPropertyOp14
 70
     1
102
RTVSPropertyOp15
 70
     1
102
RTVSPropertyOp16
 70
     1
102
RTVSPropertyOp17
 70
     1
102
RTVSPropertyOp18
 70
     1
102
RTVSPropertyOp19
 70
     1
102
RTVSPropertyOp20
 70
     1
102
RTVSPropertyOp21
 70
     1
102
RTVSPropertyOp22
 70
     1
102
RTVSPropertyOp23
 70
     1
102
RTVSPropertyOp24
 70
     1
102
RTVSPropertyOp25
 70
     1
102
RTVSPropertyOp26
 70
     1
102
RTVSPropertyOp27
 70
     1
102
RTVSPropertyOp28
 70
     1
102
RTVSPropertyOp29
 70
     1
102
RTVSPropertyOp30
 70
     1
102
RTVSPropertyOp31
 70
     1
102
RTVSPropertyOp32
 70
     1
  0
XRECORD
  5
438
102
{ACAD_REACTORS
330
437
102
}
330
437
100
AcDbXrecord
280
     1
102
RTVSPropertyOp0
 70
     1
102
RTVSPropertyOp1
 70
     1
102
RTVSPropertyOp2
 70
     1
102
RTVSPropertyOp3
 70
     1
102
RTVSPropertyOp4
 70
     1
102
RTVSPropertyOp5
 70
     1
102
RTVSPropertyOp6
 70
     1
102
RTVSPropertyOp7
 70
     1
102
RTVSPropertyOp8
 70
     1
102
RTVSPropertyOp9
 70
     1
102
RTVSPropertyOp10
 70
     1
102
RTVSPropertyOp11
 70
     1
102
RTVSPropertyOp12
 70
     1
102
RTVSPropertyOp13
 70
     1
102
RTVSPropertyOp14
 70
     1
102
RTVSPropertyOp15
 70
     1
102
RTVSPropertyOp16
 70
     1
102
RTVSPropertyOp17
 70
     1
102
RTVSPropertyOp18
 70
     1
102
RTVSPropertyOp19
 70
     1
102
RTVSPropertyOp20
 70
     1
102
RTVSPropertyOp21
 70
     1
102
RTVSPropertyOp22
 70
     1
102
RTVSPropertyOp23
 70
     1
102
RTVSPropertyOp24
 70
     1
102
RTVSPropertyOp25
 70
     1
102
RTVSPropertyOp26
 70
     1
102
RTVSPropertyOp27
 70
     1
102
RTVSPropertyOp28
 70
     1
102
RTVSPropertyOp29
 70
     1
102
RTVSPropertyOp30
 70
     1
102
RTVSPropertyOp31
 70
     1
102
RTVSPropertyOp32
 70
     1
  0
XRECORD
  5
42E
102
{ACAD_REACTORS
330
42D
102
}
330
42D
100
AcDbXrecord
280
     1
102
RTVSPropertyOp0
 70
     1
102
RTVSPropertyOp1
 70
     1
102
RTVSPropertyOp2
 70
     1
102
RTVSPropertyOp3
 70
     1
102
RTVSPropertyOp4
 70
     1
102
RTVSPropertyOp5
 70
     1
102
RTVSPropertyOp6
 70
     1
102
RTVSPropertyOp7
 70
     1
102
RTVSPropertyOp8
 70
     1
102
RTVSPropertyOp9
 70
     1
102
RTVSPropertyOp10
 70
     1
102
RTVSPropertyOp11
 70
     1
102
RTVSPropertyOp12
 70
     1
102
RTVSPropertyOp13
 70
     1
102
RTVSPropertyOp14
 70
     1
102
RTVSPropertyOp15
 70
     1
102
RTVSPropertyOp16
 70
     1
102
RTVSPropertyOp17
 70
     1
102
RTVSPropertyOp18
 70
     1
102
RTVSPropertyOp19
 70
     1
102
RTVSPropertyOp20
 70
     1
102
RTVSPropertyOp21
 70
     1
102
RTVSPropertyOp22
 70
     1
102
RTVSPropertyOp23
 70
     1
102
RTVSPropertyOp24
 70
     1
102
RTVSPropertyOp25
 70
     1
102
RTVSPropertyOp26
 70
     1
102
RTVSPropertyOp27
 70
     1
102
RTVSPropertyOp28
 70
     1
102
RTVSPropertyOp29
 70
     1
102
RTVSPropertyOp30
 70
     1
102
RTVSPropertyOp31
 70
     1
102
RTVSPropertyOp32
 70
     1
  0
XRECORD
  5
436
102
{ACAD_REACTORS
330
435
102
}
330
435
100
AcDbXrecord
280
     1
102
RTVSPropertyOp0
 70
     1
102
RTVSPropertyOp1
 70
     1
102
RTVSPropertyOp2
 70
     1
102
RTVSPropertyOp3
 70
     1
102
RTVSPropertyOp4
 70
     1
102
RTVSPropertyOp5
 70
     1
102
RTVSPropertyOp6
 70
     1
102
RTVSPropertyOp7
 70
     1
102
RTVSPropertyOp8
 70
     1
102
RTVSPropertyOp9
 70
     1
102
RTVSPropertyOp10
 70
     1
102
RTVSPropertyOp11
 70
     1
102
RTVSPropertyOp12
 70
     1
102
RTVSPropertyOp13
 70
     1
102
RTVSPropertyOp14
 70
     1
102
RTVSPropertyOp15
 70
     1
102
RTVSPropertyOp16
 70
     1
102
RTVSPropertyOp17
 70
     1
102
RTVSPropertyOp18
 70
     1
102
RTVSPropertyOp19
 70
     1
102
RTVSPropertyOp20
 70
     1
102
RTVSPropertyOp21
 70
     1
102
RTVSPropertyOp22
 70
     1
102
RTVSPropertyOp23
 70
     1
102
RTVSPropertyOp24
 70
     1
102
RTVSPropertyOp25
 70
     1
102
RTVSPropertyOp26
 70
     1
102
RTVSPropertyOp27
 70
     1
102
RTVSPropertyOp28
 70
     1
102
RTVSPropertyOp29
 70
     1
102
RTVSPropertyOp30
 70
     1
102
RTVSPropertyOp31
 70
     1
102
RTVSPropertyOp32
 70
     1
  0
ENDSEC
  0
EOF
