  0
SECTION
  2
HEADER
  9
$ACADVER
  1
AC1018
  9
$ACADMAINTVER
 70
     0
  9
$DWGCODEPAGE
  3
ANSI_1252
  9
$INSBASE
 10
0.0
 20
0.0
 30
0.0
  9
$EXTMIN
 10
86.2454687302768
 20
54.6970978751457
 30
0.0
  9
$EXTMAX
 10
187.672222555547
 20
226.6835116765
 30
0.0
  9
$LIMMIN
 10
0.0
 20
0.0
  9
$LIMMAX
 10
12.0
 20
9.0
  9
$ORTHOMODE
 70
     0
  9
$REGENMODE
 70
     1
  9
$FILLMODE
 70
     1
  9
$QTEXTMODE
 70
     0
  9
$MIRRTEXT
 70
     1
  9
$LTSCALE
 40
1.0
  9
$ATTMODE
 70
     1
  9
$TEXTSIZE
 40
0.2
  9
$TRACEWID
 40
0.05
  9
$TEXTSTYLE
  7
Standard
  9
$CLAYER
  8
0
  9
$CELTYPE
  6
ByLayer
  9
$CECOLOR
 62
   256
  9
$CELTSCALE
 40
1.0
  9
$DISPSILH
 70
     0
  9
$DIMSCALE
 40
1.0
  9
$DIMASZ
 40
0.18
  9
$DIMEXO
 40
0.0625
  9
$DIMDLI
 40
0.38
  9
$DIMRND
 40
0.0
  9
$DIMDLE
 40
0.0
  9
$DIMEXE
 40
0.18
  9
$DIMTP
 40
0.0
  9
$DIMTM
 40
0.0
  9
$DIMTXT
 40
0.18
  9
$DIMCEN
 40
0.09
  9
$DIMTSZ
 40
0.0
  9
$DIMTOL
 70
     0
  9
$DIMLIM
 70
     0
  9
$DIMTIH
 70
     1
  9
$DIMTOH
 70
     1
  9
$DIMSE1
 70
     0
  9
$DIMSE2
 70
     0
  9
$DIMTAD
 70
     0
  9
$DIMZIN
 70
     0
  9
$DIMBLK
  1

  9
$DIMASO
 70
     1
  9
$DIMSHO
 70
     1
  9
$DIMPOST
  1

  9
$DIMAPOST
  1

  9
$DIMALT
 70
     0
  9
$DIMALTD
 70
     2
  9
$DIMALTF
 40
25.4
  9
$DIMLFAC
 40
1.0
  9
$DIMTOFL
 70
     0
  9
$DIMTVP
 40
0.0
  9
$DIMTIX
 70
     0
  9
$DIMSOXD
 70
     0
  9
$DIMSAH
 70
     0
  9
$DIMBLK1
  1

  9
$DIMBLK2
  1

  9
$DIMSTYLE
  2
Standard
  9
$DIMCLRD
 70
     0
  9
$DIMCLRE
 70
     0
  9
$DIMCLRT
 70
     0
  9
$DIMTFAC
 40
1.0
  9
$DIMGAP
 40
0.09
  9
$DIMJUST
 70
     0
  9
$DIMSD1
 70
     0
  9
$DIMSD2
 70
     0
  9
$DIMTOLJ
 70
     1
  9
$DIMTZIN
 70
     0
  9
$DIMALTZ
 70
     0
  9
$DIMALTTZ
 70
     0
  9
$DIMUPT
 70
     0
  9
$DIMDEC
 70
     4
  9
$DIMTDEC
 70
     4
  9
$DIMALTU
 70
     2
  9
$DIMALTTD
 70
     2
  9
$DIMTXSTY
  7
Standard
  9
$DIMAUNIT
 70
     0
  9
$DIMADEC
 70
     0
  9
$DIMALTRND
 40
0.0
  9
$DIMAZIN
 70
     0
  9
$DIMDSEP
 70
    46
  9
$DIMATFIT
 70
     3
  9
$DIMFRAC
 70
     0
  9
$DIMLDRBLK
  1

  9
$DIMLUNIT
 70
     2
  9
$DIMLWD
 70
    -2
  9
$DIMLWE
 70
    -2
  9
$DIMTMOVE
 70
     0
  9
$LUNITS
 70
     2
  9
$LUPREC
 70
     4
  9
$SKETCHINC
 40
0.1
  9
$FILLETRAD
 40
0.5
  9
$AUNITS
 70
     0
  9
$AUPREC
 70
     0
  9
$MENU
  1
.
  9
$ELEVATION
 40
0.0
  9
$PELEVATION
 40
0.0
  9
$THICKNESS
 40
0.0
  9
$LIMCHECK
 70
     0
  9
$CHAMFERA
 40
0.5
  9
$CHAMFERB
 40
0.5
  9
$CHAMFERC
 40
1.0
  9
$CHAMFERD
 40
0.0
  9
$SKPOLY
 70
     0
  9
$TDCREATE
 40
2456966.487111053
  9
$TDUCREATE
 40
2456966.445444386
  9
$TDUPDATE
 40
2456966.487111065
  9
$TDUUPDATE
 40
2456966.445444398
  9
$TDINDWG
 40
0.0000000116
  9
$TDUSRTIMER
 40
0.0000000116
  9
$USRTIMER
 70
     1
  9
$ANGBASE
 50
0.0
  9
$ANGDIR
 70
     0
  9
$PDMODE
 70
     0
  9
$PDSIZE
 40
0.0
  9
$PLINEWID
 40
0.0
  9
$SPLFRAME
 70
     0
  9
$SPLINETYPE
 70
     6
  9
$SPLINESEGS
 70
     8
  9
$HANDSEED
  5
1C7
  9
$SURFTAB1
 70
     6
  9
$SURFTAB2
 70
     6
  9
$SURFTYPE
 70
     6
  9
$SURFU
 70
     6
  9
$SURFV
 70
     6
  9
$UCSBASE
  2

  9
$UCSNAME
  2

  9
$UCSORG
 10
0.0
 20
0.0
 30
0.0
  9
$UCSXDIR
 10
1.0
 20
0.0
 30
0.0
  9
$UCSYDIR
 10
0.0
 20
1.0
 30
0.0
  9
$UCSORTHOREF
  2

  9
$UCSORTHOVIEW
 70
     0
  9
$UCSORGTOP
 10
0.0
 20
0.0
 30
0.0
  9
$UCSORGBOTTOM
 10
0.0
 20
0.0
 30
0.0
  9
$UCSORGLEFT
 10
0.0
 20
0.0
 30
0.0
  9
$UCSORGRIGHT
 10
0.0
 20
0.0
 30
0.0
  9
$UCSORGFRONT
 10
0.0
 20
0.0
 30
0.0
  9
$UCSORGBACK
 10
0.0
 20
0.0
 30
0.0
  9
$PUCSBASE
  2

  9
$PUCSNAME
  2

  9
$PUCSORG
 10
0.0
 20
0.0
 30
0.0
  9
$PUCSXDIR
 10
1.0
 20
0.0
 30
0.0
  9
$PUCSYDIR
 10
0.0
 20
1.0
 30
0.0
  9
$PUCSORTHOREF
  2

  9
$PUCSORTHOVIEW
 70
     0
  9
$PUCSORGTOP
 10
0.0
 20
0.0
 30
0.0
  9
$PUCSORGBOTTOM
 10
0.0
 20
0.0
 30
0.0
  9
$PUCSORGLEFT
 10
0.0
 20
0.0
 30
0.0
  9
$PUCSORGRIGHT
 10
0.0
 20
0.0
 30
0.0
  9
$PUCSORGFRONT
 10
0.0
 20
0.0
 30
0.0
  9
$PUCSORGBACK
 10
0.0
 20
0.0
 30
0.0
  9
$USERI1
 70
     0
  9
$USERI2
 70
     0
  9
$USERI3
 70
     0
  9
$USERI4
 70
     0
  9
$USERI5
 70
     0
  9
$USERR1
 40
14.5
  9
$USERR2
 40
0.0
  9
$USERR3
 40
0.0
  9
$USERR4
 40
0.0
  9
$USERR5
 40
0.0
  9
$WORLDVIEW
 70
     1
  9
$SHADEDGE
 70
     3
  9
$SHADEDIF
 70
    70
  9
$TILEMODE
 70
     1
  9
$MAXACTVP
 70
    64
  9
$PINSBASE
 10
0.0
 20
0.0
 30
0.0
  9
$PLIMCHECK
 70
     0
  9
$PEXTMIN
 10
1.00000000000000E+20
 20
1.00000000000000E+20
 30
1.00000000000000E+20
  9
$PEXTMAX
 10
-1.00000000000000E+20
 20
-1.00000000000000E+20
 30
-1.00000000000000E+20
  9
$PLIMMIN
 10
0.0
 20
0.0
  9
$PLIMMAX
 10
12.0
 20
9.0
  9
$UNITMODE
 70
     0
  9
$VISRETAIN
 70
     1
  9
$PLINEGEN
 70
     0
  9
$PSLTSCALE
 70
     1
  9
$TREEDEPTH
 70
  3020
  9
$CMLSTYLE
  2
Standard
  9
$CMLJUST
 70
     0
  9
$CMLSCALE
 40
1.0
  9
$PROXYGRAPHICS
 70
     1
  9
$MEASUREMENT
 70
     1
  9
$CELWEIGHT
370
    -1
  9
$ENDCAPS
280
     0
  9
$JOINSTYLE
280
     0
  9
$LWDISPLAY
290
     0
  9
$INSUNITS
 70
     1
  9
$HYPERLINKBASE
  1

  9
$STYLESHEET
  1

  9
$XEDIT
290
     1
  9
$CEPSNTYPE
380
     0
  9
$PSTYLEMODE
290
     1
  9
$FINGERPRINTGUID
  2
{BB2DFE12-691B-47BA-9338-26976E32420F}
  9
$VERSIONGUID
  2
{FAEB1C32-E019-11D5-929B-00C0DF256EC4}
  9
$EXTNAMES
290
     1
  9
$PSVPSCALE
 40
0.0
  9
$OLESTARTUP
290
     0
  9
$SORTENTS
280
   127
  9
$INDEXCTL
280
     0
  9
$HIDETEXT
280
     1
  9
$XCLIPFRAME
290
     0
  9
$HALOGAP
280
     0
  9
$OBSCOLOR
 70
   257
  9
$OBSLTYPE
280
     0
  9
$INTERSECTIONDISPLAY
280
     0
  9
$INTERSECTIONCOLOR
 70
   257
  9
$DIMASSOC
280
     2
  9
$PROJECTNAME
  1

  0
ENDSEC
  0
SECTION
  2
CLASSES
  0
CLASS
  1
ACDBDICTIONARYWDFLT
  2
AcDbDictionaryWithDefault
  3
ObjectDBX Classes
 90
        0
 91
        3
280
     0
281
     0
  0
CLASS
  1

  2
exOdDbCircle
  3

 90
        0
 91
        3
280
     0
281
     1
  0
CLASS
  1

  2
exOdDbSpline
  3

 90
        0
 91
        3
280
     0
281
     1
  0
ENDSEC
  0
SECTION
  2
TABLES
  0
TABLE
  2
VPORT
  5
8
330
0
100
AcDbSymbolTable
 70
     1
  0
VPORT
  5
29
330
8
100
AcDbSymbolTableRecord
100
AcDbViewportTableRecord
  2
*Active
 70
     0
 10
0.0
 20
0.0
 11
1.0
 21
1.0
 12
136.9588456429119
 22
140.6903047758229
 13
0.0
 23
0.0
 14
0.5
 24
0.5
 15
0.5
 25
0.5
 16
0.0
 26
0.0
 36
1.0
 17
0.0
 27
0.0
 37
0.0
 40
189.1850551814897
 41
1.60267857142857
 42
50.0
 43
0.0
 44
0.0
 50
0.0
 51
0.0
 71
     0
 72
   100
 73
     1
 74
     3
 75
     0
 76
     0
 77
     0
 78
     0
281
     0
 65
     1
110
0.0
120
0.0
130
0.0
111
1.0
121
0.0
131
0.0
112
0.0
122
1.0
132
0.0
 79
     0
146
0.0
  0
ENDTAB
  0
TABLE
  2
LTYPE
  5
5
330
0
100
AcDbSymbolTable
 70
     8
  0
LTYPE
  5
14
330
5
100
AcDbSymbolTableRecord
100
AcDbLinetypeTableRecord
  2
ByBlock
 70
     0
  3

 72
    65
 73
     0
 40
0.0
  0
LTYPE
  5
15
330
5
100
AcDbSymbolTableRecord
100
AcDbLinetypeTableRecord
  2
ByLayer
 70
     0
  3

 72
    65
 73
     0
 40
0.0
  0
LTYPE
  5
16
330
5
100
AcDbSymbolTableRecord
100
AcDbLinetypeTableRecord
  2
Continuous
 70
     0
  3
Solid line
 72
    65
 73
     0
 40
0.0
  0
LTYPE
  5
2A
330
5
100
AcDbSymbolTableRecord
100
AcDbLinetypeTableRecord
  2
DASHED
 70
     0
  3
Dashed
 72
    65
 73
     2
 40
15.0
 49
7.0
 74
     0
 49
-8.0
 74
     0
  0
LTYPE
  5
2B
330
5
100
AcDbSymbolTableRecord
100
AcDbLinetypeTableRecord
  2
DOTTED
 70
     0
  3
Dotted
 72
    65
 73
     2
 40
1.0
 49
0.0
 74
     0
 49
-1.0
 74
     0
  0
LTYPE
  5
2C
330
5
100
AcDbSymbolTableRecord
100
AcDbLinetypeTableRecord
  2
DOT_CENTER
 70
     0
  3
Dot_Center
 72
    65
 73
     4
 40
14.0
 49
12.0
 74
     0
 49
-1.0
 74
     0
 49
0.0
 74
     0
 49
-1.0
 74
     0
  0
LTYPE
  5
2D
330
5
100
AcDbSymbolTableRecord
100
AcDbLinetypeTableRecord
  2
LONG_DASHED
 70
     0
  3
Long_Dashed
 72
    65
 73
     2
 40
15.0
 49
10.0
 74
     0
 49
-5.0
 74
     0
  0
LTYPE
  5
2E
330
5
100
AcDbSymbolTableRecord
100
AcDbLinetypeTableRecord
  2
DASH_CENTER
 70
     0
  3
Dash_Center
 72
    65
 73
     4
 40
14.0
 49
11.0
 74
     0
 49
-1.0
 74
     0
 49
1.0
 74
     0
 49
-1.0
 74
     0
  0
LTYPE
  5
2F
330
5
100
AcDbSymbolTableRecord
100
AcDbLinetypeTableRecord
  2
PHANTOM
 70
     0
  3
Phantom
 72
    65
 73
     6
 40
13.0
 49
10.0
 74
     0
 49
-1.0
 74
     0
 49
0.0
 74
     0
 49
-1.0
 74
     0
 49
0.0
 74
     0
 49
-1.0
 74
     0
  0
LTYPE
  5
30
330
5
100
AcDbSymbolTableRecord
100
AcDbLinetypeTableRecord
  2
CENTER_DASH_DASH
 70
     0
  3
Center_Dash_Dash
 72
    65
 73
     6
 40
14.0
 49
9.0
 74
     0
 49
-1.0
 74
     0
 49
1.0
 74
     0
 49
-1.0
 74
     0
 49
1.0
 74
     0
 49
-1.0
 74
     0
  0
ENDTAB
  0
TABLE
  2
LAYER
  5
2
330
0
100
AcDbSymbolTable
 70
     4
  0
LAYER
  5
10
330
2
100
AcDbSymbolTableRecord
100
AcDbLayerTableRecord
  2
0
 70
     0
 62
     7
  6
Continuous
370
    -3
390
F
  0
LAYER
  5
31
330
2
100
AcDbSymbolTableRecord
100
AcDbLayerTableRecord
  2
1
 70
     0
 62
     7
  6
Continuous
370
    -3
390
F
  0
LAYER
  5
32
330
2
100
AcDbSymbolTableRecord
100
AcDbLayerTableRecord
  2
DEFAULT_1
 70
     0
 62
     7
  6
Continuous
370
    -3
390
F
  0
LAYER
  5
33
330
2
100
AcDbSymbolTableRecord
100
AcDbLayerTableRecord
  2
DEFAULT_2
 70
     0
 62
     7
  6
Continuous
370
    -3
390
F
  0
ENDTAB
  0
TABLE
  2
STYLE
  5
3
330
0
100
AcDbSymbolTable
 70
     2
  0
STYLE
  5
11
330
3
100
AcDbSymbolTableRecord
100
AcDbTextStyleTableRecord
  2
Standard
 70
     0
 40
0.0
 41
1.0
 50
0.0
 71
     0
 42
0.2
  3
txt
  4

  0
STYLE
  5
199
330
3
100
AcDbSymbolTableRecord
100
AcDbTextStyleTableRecord
  2
CONVERTER_11
 70
     0
 40
0.0
 41
0.9
 50
0.0
 71
     0
 42
0.2
  3
txt.shx
  4

  0
ENDTAB
  0
TABLE
  2
VIEW
  5
6
330
0
100
AcDbSymbolTable
 70
     0
  0
ENDTAB
  0
TABLE
  2
UCS
  5
7
330
0
100
AcDbSymbolTable
 70
     0
  0
ENDTAB
  0
TABLE
  2
APPID
  5
9
330
0
100
AcDbSymbolTable
 70
     1
  0
APPID
  5
12
330
9
100
AcDbSymbolTableRecord
100
AcDbRegAppTableRecord
  2
ACAD
 70
     0
  0
ENDTAB
  0
TABLE
  2
DIMSTYLE
  5
A
330
0
100
AcDbSymbolTable
 70
     5
100
AcDbDimStyleTable
  0
DIMSTYLE
105
27
330
A
100
AcDbSymbolTableRecord
100
AcDbDimStyleTableRecord
  2
Standard
 70
     0
340
11
  0
DIMSTYLE
105
1A4
102
{ACAD_REACTORS
330
1A5
102
}
330
A
100
AcDbSymbolTableRecord
100
AcDbDimStyleTableRecord
  2
ME10_DIM_10
 70
     0
 41
3.5
 42
0.0
 44
2.0
 73
     0
 74
     0
 77
     1
 78
     8
140
3.5
147
2.0
172
     1
173
     1
176
     2
177
     2
178
     2
271
     3
340
199
  0
DIMSTYLE
105
1AF
102
{ACAD_REACTORS
330
1B0
102
}
330
A
100
AcDbSymbolTableRecord
100
AcDbDimStyleTableRecord
  2
ME10_DIM_11
 70
     0
 41
3.5
 42
0.0
 44
2.0
 73
     0
 74
     0
 77
     1
 78
     8
140
3.5
147
2.0
172
     1
173
     1
176
     2
177
     2
178
     2
271
     3
340
199
  0
DIMSTYLE
105
1BA
102
{ACAD_REACTORS
330
1BB
102
}
330
A
100
AcDbSymbolTableRecord
100
AcDbDimStyleTableRecord
  2
ME10_DIM_12
 70
     0
 41
3.5
 42
0.0
 44
2.0
 73
     0
 74
     0
 77
     1
 78
     8
140
3.5
147
2.0
172
     1
173
     1
176
     2
177
     2
178
     2
271
     3
340
199
  0
DIMSTYLE
105
1C5
102
{ACAD_REACTORS
330
1C6
102
}
330
A
100
AcDbSymbolTableRecord
100
AcDbDimStyleTableRecord
  2
ME10_DIM_13
 70
     0
 41
3.5
 42
0.0
 44
2.0
 73
     0
 74
     0
 77
     1
 78
     8
140
3.5
147
2.0
172
     1
173
     1
176
     2
177
     2
178
     2
271
     3
340
199
  0
ENDTAB
  0
TABLE
  2
BLOCK_RECORD
  5
1
330
0
100
AcDbSymbolTable
 70
     5
  0
BLOCK_RECORD
  5
1F
330
1
100
AcDbSymbolTableRecord
100
AcDbBlockTableRecord
  2
*Model_Space
340
22
  0
BLOCK_RECORD
  5
1B
330
1
100
AcDbSymbolTableRecord
100
AcDbBlockTableRecord
  2
*Paper_Space
340
1E
  0
BLOCK_RECORD
  5
23
330
1
100
AcDbSymbolTableRecord
100
AcDbBlockTableRecord
  2
*Paper_Space0
340
26
  0
BLOCK_RECORD
  5
19B
330
1
100
AcDbSymbolTableRecord
100
AcDbBlockTableRecord
  2
*D1
340
0
  0
BLOCK_RECORD
  5
1A6
330
1
100
AcDbSymbolTableRecord
100
AcDbBlockTableRecord
  2
*D2
340
0
  0
BLOCK_RECORD
  5
1B1
330
1
100
AcDbSymbolTableRecord
100
AcDbBlockTableRecord
  2
*D3
340
0
  0
BLOCK_RECORD
  5
1BC
330
1
100
AcDbSymbolTableRecord
100
AcDbBlockTableRecord
  2
*D4
340
0
  0
ENDTAB
  0
ENDSEC
  0
SECTION
  2
BLOCKS
  0
BLOCK
  5
20
330
1F
100
AcDbEntity
  8
0
100
AcDbBlockBegin
  2
*Model_Space
 70
     0
 71
     0
 10
0.0
 20
0.0
 30
0.0
  3
*Model_Space
  1

  0
ENDBLK
  5
21
330
1F
100
AcDbEntity
  8
0
100
AcDbBlockEnd
  0
BLOCK
  5
1C
330
1B
100
AcDbEntity
 67
     1
  8
0
100
AcDbBlockBegin
  2
*Paper_Space
 70
     0
 71
     0
 10
0.0
 20
0.0
 30
0.0
  3
*Paper_Space
  1

  0
ENDBLK
  5
1D
330
1B
100
AcDbEntity
 67
     1
  8
0
100
AcDbBlockEnd
  0
BLOCK
  5
24
330
23
100
AcDbEntity
  8
0
100
AcDbBlockBegin
  2
*Paper_Space0
 70
     0
 71
     0
 10
0.0
 20
0.0
 30
0.0
  3
*Paper_Space0
  1

  0
ENDBLK
  5
25
330
23
100
AcDbEntity
  8
0
100
AcDbBlockEnd
  0
BLOCK
  5
1A2
330
19B
100
AcDbEntity
  8
0
100
AcDbBlockBegin
  2
*D1
 70
     1
 71
     0
 10
0.0
 20
0.0
 30
0.0
  3
*D1
  1

  0
LINE
  5
19C
330
19B
100
AcDbEntity
  8
1
  6
Continuous
 62
     2
100
AcDbLine
 10
185.672222555547
 20
226.6835116765
 30
0.0
 11
185.672222555547
 21
66.68351167649996
 31
0.0
  0
LINE
  5
19D
330
19B
100
AcDbEntity
  8
1
  6
Continuous
 62
     2
100
AcDbLine
 10
160.181584066
 20
226.6835116765
 30
0.0
 11
187.672222555547
 21
226.6835116765
 31
0.0
  0
LINE
  5
19E
330
19B
100
AcDbEntity
  8
1
  6
Continuous
 62
     2
100
AcDbLine
 10
160.181584066
 20
66.68351167649996
 30
0.0
 11
187.672222555547
 21
66.68351167649996
 31
0.0
  0
SOLID
  5
19F
330
19B
100
AcDbEntity
  8
1
 62
     2
100
AcDbTrace
 10
186.1330062971029
 20
223.1835116765
 30
0.0
 11
185.2114388139911
 21
223.1835116765
 31
0.0
 12
185.672222555547
 22
226.6835116765
 32
0.0
 13
185.672222555547
 23
226.6835116765
 33
0.0
  0
SOLID
  5
1A0
330
19B
100
AcDbEntity
  8
1
 62
     2
100
AcDbTrace
 10
185.2114388139911
 20
70.18351167649996
 30
0.0
 11
186.1330062971029
 21
70.18351167649996
 31
0.0
 12
185.672222555547
 22
66.68351167649996
 32
0.0
 13
185.672222555547
 23
66.68351167649996
 33
0.0
  0
MTEXT
  5
1A1
330
19B
100
AcDbEntity
  8
1
 62
     2
100
AcDbMText
 10
183.672222555547
 20
142.2679745473295
 30
0.0
 40
3.5
 41
0.0
 71
     7
 72
     1
  1
160
  7
CONVERTER_11
 11
0.0
 21
1.0
 31
0.0
 73
     1
 44
0.60024009603842
  0
ENDBLK
  5
1A3
330
19B
100
AcDbEntity
  8
0
100
AcDbBlockEnd
  0
BLOCK
  5
1AD
330
1A6
100
AcDbEntity
  8
0
100
AcDbBlockBegin
  2
*D2
 70
     1
 71
     0
 10
0.0
 20
0.0
 30
0.0
  3
*D2
  1

  0
LINE
  5
1A7
330
1A6
100
AcDbEntity
  8
1
  6
Continuous
 62
     2
100
AcDbLine
 10
100.6815840832
 20
56.6970978751457
 30
0.0
 11
128.6815840832
 21
56.6970978751457
 31
0.0
  0
LINE
  5
1A8
330
1A6
100
AcDbEntity
  8
1
  6
Continuous
 62
     2
100
AcDbLine
 10
100.6815840832
 20
80.68351167649999
 30
0.0
 11
100.6815840832
 21
54.6970978751457
 31
0.0
  0
LINE
  5
1A9
330
1A6
100
AcDbEntity
  8
1
  6
Continuous
 62
     2
100
AcDbLine
 10
128.6815840832
 20
80.68351167649999
 30
0.0
 11
128.6815840832
 21
54.6970978751457
 31
0.0
  0
SOLID
  5
1AA
330
1A6
100
AcDbEntity
  8
1
 62
     2
100
AcDbTrace
 10
104.1815840832
 20
57.15788161670159
 30
0.0
 11
104.1815840832
 21
56.23631413358981
 31
0.0
 12
100.6815840832
 22
56.6970978751457
 32
0.0
 13
100.6815840832
 23
56.6970978751457
 33
0.0
  0
SOLID
  5
1AB
330
1A6
100
AcDbEntity
  8
1
 62
     2
100
AcDbTrace
 10
125.1815840832
 20
56.23631413358981
 30
0.0
 11
125.1815840832
 21
57.15788161670159
 31
0.0
 12
128.6815840832
 22
56.6970978751457
 32
0.0
 13
128.6815840832
 23
56.6970978751457
 33
0.0
  0
MTEXT
  5
1AC
330
1A6
100
AcDbEntity
  8
1
 62
     2
100
AcDbMText
 10
112.0565840832
 20
58.6970978751457
 30
0.0
 40
3.5
 41
0.0
 71
     7
 72
     1
  1
28
  7
CONVERTER_11
 11
0.9999999999970621
 21
2.424068405545307E-6
 31
0.0
 73
     1
 44
0.60024009603842
  0
ENDBLK
  5
1AE
330
1A6
100
AcDbEntity
  8
0
100
AcDbBlockEnd
  0
BLOCK
  5
1B8
330
1B1
100
AcDbEntity
  8
0
100
AcDbBlockBegin
  2
*D3
 70
     1
 71
     0
 10
0.0
 20
0.0
 30
0.0
  3
*D3
  1

  0
LINE
  5
1B2
330
1B1
100
AcDbEntity
  8
1
  6
Continuous
 62
     2
100
AcDbLine
 10
146.1815840659999
 20
56.8043208598031
 30
0.0
 11
174.181584066
 21
56.8043208598031
 31
0.0
  0
LINE
  5
1B3
330
1B1
100
AcDbEntity
  8
1
  6
Continuous
 62
     2
100
AcDbLine
 10
146.1815840659999
 20
80.68351167649999
 30
0.0
 11
146.1815840659999
 21
54.8043208598031
 31
0.0
  0
LINE
  5
1B4
330
1B1
100
AcDbEntity
  8
1
  6
Continuous
 62
     2
100
AcDbLine
 10
174.181584066
 20
80.68351167649999
 30
0.0
 11
174.181584066
 21
54.8043208598031
 31
0.0
  0
SOLID
  5
1B5
330
1B1
100
AcDbEntity
  8
1
 62
     2
100
AcDbTrace
 10
149.6815840659999
 20
57.26510460135898
 30
0.0
 11
149.6815840659999
 21
56.34353711824721
 31
0.0
 12
146.1815840659999
 22
56.8043208598031
 32
0.0
 13
146.1815840659999
 23
56.8043208598031
 33
0.0
  0
SOLID
  5
1B6
330
1B1
100
AcDbEntity
  8
1
 62
     2
100
AcDbTrace
 10
170.681584066
 20
56.34353711824721
 30
0.0
 11
170.681584066
 21
57.26510460135898
 31
0.0
 12
174.181584066
 22
56.8043208598031
 32
0.0
 13
174.181584066
 23
56.8043208598031
 33
0.0
  0
MTEXT
  5
1B7
330
1B1
100
AcDbEntity
  8
1
 62
     2
100
AcDbMText
 10
157.4490177445122
 20
58.8043208598031
 30
0.0
 40
3.5
 41
0.0
 71
     7
 72
     1
  1
28
  7
CONVERTER_11
 11
0.9999999999970621
 21
2.424068405545307E-6
 31
0.0
 73
     1
 44
0.60024009603842
  0
ENDBLK
  5
1B9
330
1B1
100
AcDbEntity
  8
0
100
AcDbBlockEnd
  0
BLOCK
  5
1C3
330
1BC
100
AcDbEntity
  8
0
100
AcDbBlockBegin
  2
*D4
 70
     1
 71
     0
 10
0.0
 20
0.0
 30
0.0
  3
*D4
  1

  0
LINE
  5
1BD
330
1BC
100
AcDbEntity
  8
1
  6
Continuous
 62
     2
100
AcDbLine
 10
128.6815840832
 20
56.8043208598031
 30
0.0
 11
146.181584066
 21
56.8043208598031
 31
0.0
  0
LINE
  5
1BE
330
1BC
100
AcDbEntity
  8
1
  6
Continuous
 62
     2
100
AcDbLine
 10
128.6815840832
 20
80.68351167649999
 30
0.0
 11
128.6815840832
 21
54.8043208598031
 31
0.0
  0
LINE
  5
1BF
330
1BC
100
AcDbEntity
  8
1
  6
Continuous
 62
     2
100
AcDbLine
 10
146.181584066
 20
80.68351167649999
 30
0.0
 11
146.181584066
 21
54.8043208598031
 31
0.0
  0
SOLID
  5
1C0
330
1BC
100
AcDbEntity
  8
1
 62
     2
100
AcDbTrace
 10
132.1815840832
 20
57.26510460135898
 30
0.0
 11
132.1815840832
 21
56.34353711824721
 31
0.0
 12
128.6815840832
 22
56.8043208598031
 32
0.0
 13
128.6815840832
 23
56.8043208598031
 33
0.0
  0
SOLID
  5
1C1
330
1BC
100
AcDbEntity
  8
1
 62
     2
100
AcDbTrace
 10
142.681584066
 20
56.34353711824721
 30
0.0
 11
142.681584066
 21
57.26510460135898
 31
0.0
 12
146.181584066
 22
56.8043208598031
 32
0.0
 13
146.181584066
 23
56.8043208598031
 33
0.0
  0
MTEXT
  5
1C2
330
1BC
100
AcDbEntity
  8
1
 62
     2
100
AcDbMText
 10
132.9947470521759
 20
58.8043208598031
 30
0.0
 40
3.5
 41
0.0
 71
     7
 72
     1
  1
17.5
  7
CONVERTER_11
 11
0.9999999999970621
 21
2.424068405545307E-6
 31
0.0
 73
     1
 44
0.60024009603842
  0
ENDBLK
  5
1C4
330
1BC
100
AcDbEntity
  8
0
100
AcDbBlockEnd
  0
ENDSEC
  0
SECTION
  2
ENTITIES
  0
POINT
  5
34
330
1F
100
AcDbEntity
  8
1
 62
     3
 60
     1
100
AcDbPoint
 10
146.181584066
 20
169.3335116765
 30
0.0
  0
POINT
  5
35
330
1F
100
AcDbEntity
  8
1
 62
     3
 60
     1
100
AcDbPoint
 10
146.24149078485
 20
169.3335116765
 30
0.0
  0
POINT
  5
36
330
1F
100
AcDbEntity
  8
1
 62
     3
 60
     1
100
AcDbPoint
 10
168.331584066
 20
194.376411673571
 30
0.0
  0
POINT
  5
37
330
1F
100
AcDbEntity
  8
1
 62
     3
 60
     1
100
AcDbPoint
 10
168.331584066
 20
210.376411673571
 30
0.0
  0
POINT
  5
38
330
1F
100
AcDbEntity
  8
1
 62
     3
 60
     1
100
AcDbPoint
 10
152.031584066
 20
194.376411673571
 30
0.0
  0
POINT
  5
39
330
1F
100
AcDbEntity
  8
1
 62
     3
 60
     1
100
AcDbPoint
 10
152.031584066
 20
210.376411673571
 30
0.0
  0
POINT
  5
3A
330
1F
100
AcDbEntity
  8
1
 62
     3
 60
     1
100
AcDbPoint
 10
137.43201168365
 20
120.911081305638
 30
0.0
  0
POINT
  5
3B
330
1F
100
AcDbEntity
  8
1
 62
     3
 60
     1
100
AcDbPoint
 10
137.43201168365
 20
170.911081305638
 30
0.0
  0
POINT
  5
3C
330
1F
100
AcDbEntity
  8
1
 62
     3
 60
     1
100
AcDbPoint
 10
100.6815840832
 20
176.5835116765
 30
0.0
  0
POINT
  5
3D
330
1F
100
AcDbEntity
  8
1
 62
     3
 60
     1
100
AcDbPoint
 10
86.2454687302768
 20
146.6835116765
 30
0.0
  0
POINT
  5
3E
330
1F
100
AcDbEntity
  8
1
 62
     3
 60
     1
100
AcDbPoint
 10
178.2454687302768
 20
146.6835116765
 30
0.0
  0
LINE
  5
3F
330
1F
100
AcDbEntity
  8
0
  6
Continuous
 62
     7
100
AcDbLine
 10
174.181584066
 20
80.68351167649999
 30
0.0
 11
174.181584066
 21
108.4835116765
 31
0.0
  0
LINE
  5
40
330
1F
100
AcDbEntity
  8
0
  6
Continuous
 62
     7
100
AcDbLine
 10
174.181584066
 20
116.7835116765
 30
0.0
 11
174.181584066
 21
108.4835116765
 31
0.0
  0
LINE
  5
41
330
1F
100
AcDbEntity
  8
0
  6
Continuous
 62
     7
100
AcDbLine
 10
146.181584066
 20
80.68351167649999
 30
0.0
 11
146.181584066
 21
116.7835116765
 31
0.0
  0
LINE
  5
42
330
1F
100
AcDbEntity
  8
0
  6
Continuous
 62
     7
100
AcDbLine
 10
170.881584066
 20
122.7835116765
 30
0.0
 11
170.881584066
 21
116.7835116765
 31
0.0
  0
LINE
  5
43
330
1F
100
AcDbEntity
  8
0
  6
Continuous
 62
     7
100
AcDbLine
 10
163.901437379
 20
124.0335116765
 30
0.0
 11
163.901437379
 21
122.7835116765
 31
0.0
  0
LINE
  5
44
330
1F
100
AcDbEntity
  8
0
  6
Continuous
 62
     9
420
 12434109
100
AcDbLine
 10
162.8583161161
 20
122.7835116765
 30
0.0
 11
162.8583161161
 21
124.0335116765
 31
0.0
  0
LINE
  5
45
330
1F
100
AcDbEntity
  8
0
  6
Continuous
 62
     9
420
 12434109
100
AcDbLine
 10
157.0200073585
 20
122.7835116765
 30
0.0
 11
157.0200073585
 21
124.0335116765
 31
0.0
  0
LINE
  5
46
330
1F
100
AcDbEntity
  8
0
  6
Continuous
 62
     7
100
AcDbLine
 10
155.571730753
 20
124.0335116765
 30
0.0
 11
155.571730753
 21
122.7835116765
 31
0.0
  0
LINE
  5
47
330
1F
100
AcDbEntity
  8
0
  6
Continuous
 62
     7
100
AcDbLine
 10
147.4316295037
 20
124.0335116765
 30
0.0
 11
147.4316295037
 21
122.7835116765
 31
0.0
  0
LINE
  5
48
330
1F
100
AcDbEntity
  8
0
  6
Continuous
 62
     7
100
AcDbLine
 10
147.381584066
 20
116.7835116765
 30
0.0
 11
147.381584066
 21
122.7835116765
 31
0.0
  0
LINE
  5
49
330
1F
100
AcDbEntity
  8
0
  6
Continuous
 62
     7
100
AcDbLine
 10
146.181584066
 20
116.7835116765
 30
0.0
 11
146.181584066
 21
116.8835116765
 31
0.0
  0
LINE
  5
4A
330
1F
100
AcDbEntity
  8
0
  6
Continuous
 62
     7
100
AcDbLine
 10
170.881584066
 20
122.7835116765
 30
0.0
 11
147.381584066
 21
122.7835116765
 31
0.0
  0
LINE
  5
4B
330
1F
100
AcDbEntity
  8
0
  6
Continuous
 62
     7
100
AcDbLine
 10
170.881584066
 20
120.0835116765
 30
0.0
 11
147.381584066
 21
120.0835116765
 31
0.0
  0
LINE
  5
4C
330
1F
100
AcDbEntity
  8
0
  6
Continuous
 62
     7
100
AcDbLine
 10
147.381584066
 20
116.7835116765
 30
0.0
 11
146.181584066
 21
116.7835116765
 31
0.0
  0
LINE
  5
4D
330
1F
100
AcDbEntity
  8
1
  6
Continuous
 62
     7
100
AcDbLine
 10
146.181584066
 20
124.0335116765
 30
0.0
 11
146.181584066
 21
116.8835116765
 31
0.0
  0
LINE
  5
4E
330
1F
100
AcDbEntity
  8
0
  6
Continuous
 62
     7
100
AcDbLine
 10
163.9013974865
 20
124.0335116765
 30
0.0
 11
146.181584066
 21
124.0335116765
 31
0.0
  0
LINE
  5
4F
330
1F
100
AcDbEntity
  8
0
  6
Continuous
 62
     7
100
AcDbLine
 10
170.881584066
 20
116.7835116765
 30
0.0
 11
147.381584066
 21
116.7835116765
 31
0.0
  0
LINE
  5
50
330
1F
100
AcDbEntity
  8
0
  6
Continuous
 62
     7
100
AcDbLine
 10
174.181584066
 20
116.7835116765
 30
0.0
 11
170.881584066
 21
116.7835116765
 31
0.0
  0
LINE
  5
51
330
1F
100
AcDbEntity
  8
DEFAULT_1
  6
DOT_CENTER
 62
     2
100
AcDbLine
 10
167.681584066
 20
83.78351167649998
 30
0.0
 11
167.681584066
 21
77.68351167649999
 31
0.0
  0
LINE
  5
52
330
1F
100
AcDbEntity
  8
DEFAULT_1
  6
DOT_CENTER
 62
     2
100
AcDbLine
 10
167.681584066
 20
69.58351167649997
 30
0.0
 11
167.681584066
 21
77.68351167649999
 31
0.0
  0
LINE
  5
53
330
1F
100
AcDbEntity
  8
0
  6
DASHED
 62
     2
100
AcDbLine
 10
156.281584066
 20
87.78351167649998
 30
0.0
 11
156.281584066
 21
93.78351167649998
 31
0.0
  0
LINE
  5
54
330
1F
100
AcDbEntity
  8
DEFAULT_2
  6
DASHED
 62
     2
100
AcDbLine
 10
154.631584066
 20
87.78351167649998
 30
0.0
 11
154.631584066
 21
93.78351167649998
 31
0.0
  0
LINE
  5
55
330
1F
100
AcDbEntity
  8
DEFAULT_1
  6
DOT_CENTER
 62
     2
100
AcDbLine
 10
152.681584066
 20
83.78351167649998
 30
0.0
 11
152.681584066
 21
77.68351167649999
 31
0.0
  0
LINE
  5
56
330
1F
100
AcDbEntity
  8
DEFAULT_1
  6
DOT_CENTER
 62
     2
100
AcDbLine
 10
152.681584066
 20
69.58351167649997
 30
0.0
 11
152.681584066
 21
77.68351167649999
 31
0.0
  0
LINE
  5
57
330
1F
100
AcDbEntity
  8
DEFAULT_2
  6
DASHED
 62
     2
100
AcDbLine
 10
149.431584066
 20
93.78351167649998
 30
0.0
 11
149.431584066
 21
87.78351167649998
 31
0.0
  0
LINE
  5
58
330
1F
100
AcDbEntity
  8
0
  6
DASHED
 62
     2
100
AcDbLine
 10
147.781584066
 20
93.78351167649998
 30
0.0
 11
147.781584066
 21
87.78351167649998
 31
0.0
  0
LINE
  5
59
330
1F
100
AcDbEntity
  8
DEFAULT_1
  6
DOT_CENTER
 62
     2
100
AcDbLine
 10
157.031684066
 20
93.78351167649998
 30
0.0
 11
152.031584066
 21
93.78351167649998
 31
0.0
  0
LINE
  5
5A
330
1F
100
AcDbEntity
  8
DEFAULT_1
  6
DOT_CENTER
 62
     2
100
AcDbLine
 10
147.031484066
 20
93.78351167649998
 30
0.0
 11
152.031584066
 21
93.78351167649998
 31
0.0
  0
LINE
  5
5B
330
1F
100
AcDbEntity
  8
DEFAULT_1
  6
DOT_CENTER
 62
     2
100
AcDbLine
 10
157.031684066
 20
87.78351167649998
 30
0.0
 11
152.031584066
 21
87.78351167649998
 31
0.0
  0
LINE
  5
5C
330
1F
100
AcDbEntity
  8
DEFAULT_1
  6
DOT_CENTER
 62
     2
100
AcDbLine
 10
147.031484066
 20
87.78351167649998
 30
0.0
 11
152.031584066
 21
87.78351167649998
 31
0.0
  0
LINE
  5
5D
330
1F
100
AcDbEntity
  8
DEFAULT_1
  6
DOT_CENTER
 62
     2
100
AcDbLine
 10
166.181584066
 20
82.78351167649998
 30
0.0
 11
160.181584066
 21
82.78351167649998
 31
0.0
  0
LINE
  5
5E
330
1F
100
AcDbEntity
  8
DEFAULT_1
  6
DOT_CENTER
 62
     2
100
AcDbLine
 10
154.181584066
 20
82.78351167649998
 30
0.0
 11
160.181584066
 21
82.78351167649998
 31
0.0
  0
LINE
  5
5F
330
1F
100
AcDbEntity
  8
DEFAULT_1
  6
DOT_CENTER
 62
     2
100
AcDbLine
 10
175.781584066
 20
77.68351167649999
 30
0.0
 11
167.681584066
 21
77.68351167649999
 31
0.0
  0
LINE
  5
60
330
1F
100
AcDbEntity
  8
DEFAULT_1
  6
DOT_CENTER
 62
     2
100
AcDbLine
 10
159.581584066
 20
77.68351167649999
 30
0.0
 11
152.681584066
 21
77.68351167649999
 31
0.0
  0
LINE
  5
61
330
1F
100
AcDbEntity
  8
DEFAULT_1
  6
DOT_CENTER
 62
     2
100
AcDbLine
 10
144.581584066
 20
77.68351167649999
 30
0.0
 11
152.681584066
 21
77.68351167649999
 31
0.0
  0
LINE
  5
62
330
1F
100
AcDbEntity
  8
DEFAULT_1
  6
DOT_CENTER
 62
     2
100
AcDbLine
 10
159.581584066
 20
77.68351167649999
 30
0.0
 11
167.681584066
 21
77.68351167649999
 31
0.0
  0
LINE
  5
63
330
1F
100
AcDbEntity
  8
DEFAULT_1
  6
DOT_CENTER
 62
     2
100
AcDbLine
 10
160.181584066
 20
88.78351167649998
 30
0.0
 11
160.181584066
 21
82.78351167649998
 31
0.0
  0
LINE
  5
64
330
1F
100
AcDbEntity
  8
DEFAULT_1
  6
DOT_CENTER
 62
     2
100
AcDbLine
 10
160.181584066
 20
76.78351167649998
 30
0.0
 11
160.181584066
 21
82.78351167649998
 31
0.0
  0
LINE
  5
65
330
1F
100
AcDbEntity
  8
1
  6
Continuous
 62
     7
100
AcDbLine
 10
160.681584066
 20
80.5335116765001
 30
0.0
 11
159.681584066
 21
80.5335116765001
 31
0.0
  0
LINE
  5
66
330
1F
100
AcDbEntity
  8
1
  6
Continuous
 62
     7
100
AcDbLine
 10
160.681584066
 20
81.7835116765001
 30
0.0
 11
160.681584066
 21
80.5335116765001
 31
0.0
  0
LINE
  5
67
330
1F
100
AcDbEntity
  8
1
  6
Continuous
 62
     7
100
AcDbLine
 10
162.431584066
 20
82.2835116765001
 30
0.0
 11
161.181584066
 21
82.2835116765001
 31
0.0
  0
LINE
  5
68
330
1F
100
AcDbEntity
  8
1
  6
Continuous
 62
     7
100
AcDbLine
 10
162.431584066
 20
83.2835116765001
 30
0.0
 11
162.431584066
 21
82.2835116765001
 31
0.0
  0
LINE
  5
69
330
1F
100
AcDbEntity
  8
1
  6
Continuous
 62
     7
100
AcDbLine
 10
161.181584066
 20
83.2835116765001
 30
0.0
 11
162.431584066
 21
83.2835116765001
 31
0.0
  0
LINE
  5
6A
330
1F
100
AcDbEntity
  8
1
  6
Continuous
 62
     7
100
AcDbLine
 10
160.681584066
 20
85.0335116765001
 30
0.0
 11
160.681584066
 21
83.7835116765001
 31
0.0
  0
LINE
  5
6B
330
1F
100
AcDbEntity
  8
1
  6
Continuous
 62
     7
100
AcDbLine
 10
159.681584066
 20
85.0335116765001
 30
0.0
 11
160.681584066
 21
85.0335116765001
 31
0.0
  0
LINE
  5
6C
330
1F
100
AcDbEntity
  8
1
  6
Continuous
 62
     7
100
AcDbLine
 10
159.681584066
 20
83.7835116765001
 30
0.0
 11
159.681584066
 21
85.0335116765001
 31
0.0
  0
LINE
  5
6D
330
1F
100
AcDbEntity
  8
1
  6
Continuous
 62
     7
100
AcDbLine
 10
157.931584066
 20
83.2835116765001
 30
0.0
 11
159.181584066
 21
83.2835116765001
 31
0.0
  0
LINE
  5
6E
330
1F
100
AcDbEntity
  8
1
  6
Continuous
 62
     7
100
AcDbLine
 10
157.931584066
 20
82.2835116765001
 30
0.0
 11
157.931584066
 21
83.2835116765001
 31
0.0
  0
LINE
  5
6F
330
1F
100
AcDbEntity
  8
1
  6
Continuous
 62
     7
100
AcDbLine
 10
159.181584066
 20
82.2835116765001
 30
0.0
 11
157.931584066
 21
82.2835116765001
 31
0.0
  0
LINE
  5
70
330
1F
100
AcDbEntity
  8
1
  6
Continuous
 62
     7
100
AcDbLine
 10
159.681584066
 20
80.5335116765001
 30
0.0
 11
159.681584066
 21
81.7835116765001
 31
0.0
  0
LINE
  5
71
330
1F
100
AcDbEntity
  8
1
  6
Continuous
 62
     7
100
AcDbLine
 10
159.431584066
 20
82.0335116765001
 30
0.0
 11
159.681584066
 21
81.7835116765001
 31
0.0
  0
LINE
  5
72
330
1F
100
AcDbEntity
  8
1
  6
Continuous
 62
     7
100
AcDbLine
 10
160.931584066
 20
82.0335116765001
 30
0.0
 11
160.681584066
 21
81.7835116765001
 31
0.0
  0
LINE
  5
73
330
1F
100
AcDbEntity
  8
1
  6
Continuous
 62
     7
100
AcDbLine
 10
160.931584066
 20
83.5335116765001
 30
0.0
 11
161.181584066
 21
83.2835116765001
 31
0.0
  0
LINE
  5
74
330
1F
100
AcDbEntity
  8
1
  6
Continuous
 62
     7
100
AcDbLine
 10
159.431584066
 20
83.5335116765001
 30
0.0
 11
159.681584066
 21
83.7835116765001
 31
0.0
  0
LINE
  5
75
330
1F
100
AcDbEntity
  8
1
  6
Continuous
 62
     2
100
AcDbLine
 10
161.7725743236697
 20
81.19252141883032
 30
0.0
 11
160.931584066
 21
82.0335116765001
 31
0.0
  0
LINE
  5
76
330
1F
100
AcDbEntity
  8
1
  6
Continuous
 62
     7
100
AcDbLine
 10
161.181584066
 20
82.2835116765001
 30
0.0
 11
160.931584066
 21
82.0335116765001
 31
0.0
  0
LINE
  5
77
330
1F
100
AcDbEntity
  8
1
  6
Continuous
 62
     2
100
AcDbLine
 10
158.5905938083303
 20
81.19252141883032
 30
0.0
 11
159.431584066
 21
82.0335116765001
 31
0.0
  0
LINE
  5
78
330
1F
100
AcDbEntity
  8
1
  6
Continuous
 62
     7
100
AcDbLine
 10
159.181584066
 20
82.2835116765001
 30
0.0
 11
159.431584066
 21
82.0335116765001
 31
0.0
  0
LINE
  5
79
330
1F
100
AcDbEntity
  8
1
  6
Continuous
 62
     2
100
AcDbLine
 10
158.5905938083303
 20
84.37450193416981
 30
0.0
 11
159.431584066
 21
83.5335116765001
 31
0.0
  0
LINE
  5
7A
330
1F
100
AcDbEntity
  8
1
  6
Continuous
 62
     7
100
AcDbLine
 10
159.181584066
 20
83.2835116765001
 30
0.0
 11
159.431584066
 21
83.5335116765001
 31
0.0
  0
LINE
  5
7B
330
1F
100
AcDbEntity
  8
1
  6
Continuous
 62
     2
100
AcDbLine
 10
161.7725743236697
 20
84.37450193416981
 30
0.0
 11
160.931584066
 21
83.5335116765001
 31
0.0
  0
LINE
  5
7C
330
1F
100
AcDbEntity
  8
1
  6
Continuous
 62
     7
100
AcDbLine
 10
160.681584066
 20
83.7835116765001
 30
0.0
 11
160.931584066
 21
83.5335116765001
 31
0.0
  0
LINE
  5
7D
330
1F
100
AcDbEntity
  8
1
  6
DOT_CENTER
 62
     2
100
AcDbLine
 10
152.031584066
 20
98.99061167942898
 30
0.0
 11
152.031584066
 21
82.99061167942898
 31
0.0
  0
LINE
  5
7E
330
1F
100
AcDbEntity
  8
0
  6
DASHED
 62
     2
100
AcDbLine
 10
172.581584066
 20
87.78351167649998
 30
0.0
 11
172.581584066
 21
93.78351167649998
 31
0.0
  0
LINE
  5
7F
330
1F
100
AcDbEntity
  8
DEFAULT_2
  6
DASHED
 62
     2
100
AcDbLine
 10
170.931584066
 20
87.78351167649998
 30
0.0
 11
170.931584066
 21
93.78351167649998
 31
0.0
  0
LINE
  5
80
330
1F
100
AcDbEntity
  8
1
  6
DOT_CENTER
 62
     2
100
AcDbLine
 10
168.331584066
 20
98.99061167942898
 30
0.0
 11
168.331584066
 21
82.99061167942898
 31
0.0
  0
LINE
  5
81
330
1F
100
AcDbEntity
  8
DEFAULT_1
  6
DOT_CENTER
 62
     2
100
AcDbLine
 10
173.331684066
 20
87.78351167649998
 30
0.0
 11
168.331584066
 21
87.78351167649998
 31
0.0
  0
LINE
  5
82
330
1F
100
AcDbEntity
  8
DEFAULT_1
  6
DOT_CENTER
 62
     2
100
AcDbLine
 10
163.331484066
 20
87.78351167649998
 30
0.0
 11
168.331584066
 21
87.78351167649998
 31
0.0
  0
LINE
  5
83
330
1F
100
AcDbEntity
  8
DEFAULT_2
  6
DASHED
 62
     2
100
AcDbLine
 10
165.731584066
 20
93.78351167649998
 30
0.0
 11
165.731584066
 21
87.78351167649998
 31
0.0
  0
LINE
  5
84
330
1F
100
AcDbEntity
  8
0
  6
DASHED
 62
     2
100
AcDbLine
 10
164.081584066
 20
93.78351167649998
 30
0.0
 11
164.081584066
 21
87.78351167649998
 31
0.0
  0
LINE
  5
85
330
1F
100
AcDbEntity
  8
DEFAULT_1
  6
DOT_CENTER
 62
     2
100
AcDbLine
 10
163.331484066
 20
93.78351167649998
 30
0.0
 11
168.331584066
 21
93.78351167649998
 31
0.0
  0
LINE
  5
86
330
1F
100
AcDbEntity
  8
DEFAULT_1
  6
DOT_CENTER
 62
     2
100
AcDbLine
 10
173.331684066
 20
93.78351167649998
 30
0.0
 11
168.331584066
 21
93.78351167649998
 31
0.0
  0
LINE
  5
87
330
1F
100
AcDbEntity
  8
0
  6
Continuous
 62
     7
100
AcDbLine
 10
174.181584066
 20
146.6835116765
 30
0.0
 11
174.181584066
 21
116.7835116765
 31
0.0
  0
LINE
  5
88
330
1F
100
AcDbEntity
  8
0
  6
Continuous
 62
     7
100
AcDbLine
 10
173.481584066
 20
146.6835116765
 30
0.0
 11
173.481584066
 21
116.7835116765
 31
0.0
  0
LINE
  5
89
330
1F
100
AcDbEntity
  8
0
  6
Continuous
 62
     7
100
AcDbLine
 10
174.181584066
 20
176.5835116765
 30
0.0
 11
174.181584066
 21
146.6835116765
 31
0.0
  0
LINE
  5
8A
330
1F
100
AcDbEntity
  8
0
  6
Continuous
 62
     7
100
AcDbLine
 10
174.181584066
 20
184.8835116765
 30
0.0
 11
174.181584066
 21
176.5835116765
 31
0.0
  0
LINE
  5
8B
330
1F
100
AcDbEntity
  8
0
  6
Continuous
 62
     7
100
AcDbLine
 10
170.881584066
 20
176.5835116765
 30
0.0
 11
174.181584066
 21
176.5835116765
 31
0.0
  0
LINE
  5
8C
330
1F
100
AcDbEntity
  8
0
  6
Continuous
 62
     7
100
AcDbLine
 10
146.181584066
 20
176.5835116765
 30
0.0
 11
146.181584066
 21
212.6835116765
 31
0.0
  0
LINE
  5
8D
330
1F
100
AcDbEntity
  8
0
  6
Continuous
 62
     7
100
AcDbLine
 10
147.381584066
 20
176.5835116765
 30
0.0
 11
170.881584066
 21
176.5835116765
 31
0.0
  0
LINE
  5
8E
330
1F
100
AcDbEntity
  8
0
  6
Continuous
 62
     7
100
AcDbLine
 10
146.181584066
 20
169.3335116765
 30
0.0
 11
163.9013974865
 21
169.3335116765
 31
0.0
  0
LINE
  5
8F
330
1F
100
AcDbEntity
  8
1
  6
Continuous
 62
     7
100
AcDbLine
 10
146.181584066
 20
176.4835116765
 30
0.0
 11
146.181584066
 21
169.3335116765
 31
0.0
  0
LINE
  5
90
330
1F
100
AcDbEntity
  8
DEFAULT_1
  6
DOT_CENTER
 62
     2
100
AcDbLine
 10
168.331584066
 20
199.5835116765
 30
0.0
 11
173.331684066
 21
199.5835116765
 31
0.0
  0
LINE
  5
91
330
1F
100
AcDbEntity
  8
DEFAULT_1
  6
DOT_CENTER
 62
     2
100
AcDbLine
 10
168.331584066
 20
199.5835116765
 30
0.0
 11
163.331484066
 21
199.5835116765
 31
0.0
  0
LINE
  5
92
330
1F
100
AcDbEntity
  8
0
  6
DASHED
 62
     2
100
AcDbLine
 10
164.081584066
 20
205.5835116765
 30
0.0
 11
164.081584066
 21
199.5835116765
 31
0.0
  0
LINE
  5
93
330
1F
100
AcDbEntity
  8
DEFAULT_2
  6
DASHED
 62
     2
100
AcDbLine
 10
165.731584066
 20
205.5835116765
 30
0.0
 11
165.731584066
 21
199.5835116765
 31
0.0
  0
LINE
  5
94
330
1F
100
AcDbEntity
  8
DEFAULT_1
  6
DOT_CENTER
 62
     2
100
AcDbLine
 10
168.331584066
 20
205.5835116765
 30
0.0
 11
163.331484066
 21
205.5835116765
 31
0.0
  0
LINE
  5
95
330
1F
100
AcDbEntity
  8
DEFAULT_1
  6
DOT_CENTER
 62
     2
100
AcDbLine
 10
168.331584066
 20
205.5835116765
 30
0.0
 11
173.331684066
 21
205.5835116765
 31
0.0
  0
LINE
  5
96
330
1F
100
AcDbEntity
  8
1
  6
DOT_CENTER
 62
     2
100
AcDbLine
 10
168.331584066
 20
210.376411673571
 30
0.0
 11
168.331584066
 21
194.376411673571
 31
0.0
  0
LINE
  5
97
330
1F
100
AcDbEntity
  8
DEFAULT_2
  6
DASHED
 62
     2
100
AcDbLine
 10
170.931584066
 20
199.5835116765
 30
0.0
 11
170.931584066
 21
205.5835116765
 31
0.0
  0
LINE
  5
98
330
1F
100
AcDbEntity
  8
0
  6
DASHED
 62
     2
100
AcDbLine
 10
172.581584066
 20
199.5835116765
 30
0.0
 11
172.581584066
 21
205.5835116765
 31
0.0
  0
LINE
  5
99
330
1F
100
AcDbEntity
  8
1
  6
DOT_CENTER
 62
     2
100
AcDbLine
 10
152.031584066
 20
210.376411673571
 30
0.0
 11
152.031584066
 21
194.376411673571
 31
0.0
  0
LINE
  5
9A
330
1F
100
AcDbEntity
  8
1
  6
Continuous
 62
     7
100
AcDbLine
 10
160.931584066
 20
209.8335116764999
 30
0.0
 11
160.681584066
 21
209.5835116764999
 31
0.0
  0
LINE
  5
9B
330
1F
100
AcDbEntity
  8
1
  6
Continuous
 62
     2
100
AcDbLine
 10
160.931584066
 20
209.8335116764999
 30
0.0
 11
161.7725743236697
 21
208.9925214188302
 31
0.0
  0
LINE
  5
9C
330
1F
100
AcDbEntity
  8
1
  6
Continuous
 62
     7
100
AcDbLine
 10
159.431584066
 20
209.8335116764999
 30
0.0
 11
159.181584066
 21
210.0835116764999
 31
0.0
  0
LINE
  5
9D
330
1F
100
AcDbEntity
  8
1
  6
Continuous
 62
     2
100
AcDbLine
 10
159.431584066
 20
209.8335116764999
 30
0.0
 11
158.5905938083303
 21
208.9925214188302
 31
0.0
  0
LINE
  5
9E
330
1F
100
AcDbEntity
  8
1
  6
Continuous
 62
     7
100
AcDbLine
 10
159.431584066
 20
211.3335116764999
 30
0.0
 11
159.181584066
 21
211.0835116764999
 31
0.0
  0
LINE
  5
9F
330
1F
100
AcDbEntity
  8
1
  6
Continuous
 62
     2
100
AcDbLine
 10
159.431584066
 20
211.3335116764999
 30
0.0
 11
158.5905938083303
 21
212.1745019341697
 31
0.0
  0
LINE
  5
A0
330
1F
100
AcDbEntity
  8
1
  6
Continuous
 62
     7
100
AcDbLine
 10
160.931584066
 20
211.3335116764999
 30
0.0
 11
161.181584066
 21
211.0835116764999
 31
0.0
  0
LINE
  5
A1
330
1F
100
AcDbEntity
  8
1
  6
Continuous
 62
     2
100
AcDbLine
 10
160.931584066
 20
211.3335116764999
 30
0.0
 11
161.7725743236697
 21
212.1745019341697
 31
0.0
  0
LINE
  5
A2
330
1F
100
AcDbEntity
  8
1
  6
Continuous
 62
     7
100
AcDbLine
 10
159.681584066
 20
209.5835116764999
 30
0.0
 11
159.431584066
 21
209.8335116764999
 31
0.0
  0
LINE
  5
A3
330
1F
100
AcDbEntity
  8
1
  6
Continuous
 62
     7
100
AcDbLine
 10
161.181584066
 20
210.0835116764999
 30
0.0
 11
160.931584066
 21
209.8335116764999
 31
0.0
  0
LINE
  5
A4
330
1F
100
AcDbEntity
  8
1
  6
Continuous
 62
     7
100
AcDbLine
 10
160.681584066
 20
211.5835116764999
 30
0.0
 11
160.931584066
 21
211.3335116764999
 31
0.0
  0
LINE
  5
A5
330
1F
100
AcDbEntity
  8
1
  6
Continuous
 62
     7
100
AcDbLine
 10
159.681584066
 20
211.5835116764999
 30
0.0
 11
159.431584066
 21
211.3335116764999
 31
0.0
  0
LINE
  5
A6
330
1F
100
AcDbEntity
  8
1
  6
Continuous
 62
     7
100
AcDbLine
 10
159.681584066
 20
211.5835116764999
 30
0.0
 11
159.681584066
 21
212.8335116764999
 31
0.0
  0
LINE
  5
A7
330
1F
100
AcDbEntity
  8
1
  6
Continuous
 62
     7
100
AcDbLine
 10
157.931584066
 20
211.0835116764999
 30
0.0
 11
159.181584066
 21
211.0835116764999
 31
0.0
  0
LINE
  5
A8
330
1F
100
AcDbEntity
  8
1
  6
Continuous
 62
     7
100
AcDbLine
 10
157.931584066
 20
210.0835116764999
 30
0.0
 11
157.931584066
 21
211.0835116764999
 31
0.0
  0
LINE
  5
A9
330
1F
100
AcDbEntity
  8
1
  6
Continuous
 62
     7
100
AcDbLine
 10
159.181584066
 20
210.0835116764999
 30
0.0
 11
157.931584066
 21
210.0835116764999
 31
0.0
  0
LINE
  5
AA
330
1F
100
AcDbEntity
  8
1
  6
Continuous
 62
     7
100
AcDbLine
 10
159.681584066
 20
208.3335116764999
 30
0.0
 11
159.681584066
 21
209.5835116764999
 31
0.0
  0
LINE
  5
AB
330
1F
100
AcDbEntity
  8
1
  6
Continuous
 62
     7
100
AcDbLine
 10
160.681584066
 20
208.3335116764999
 30
0.0
 11
159.681584066
 21
208.3335116764999
 31
0.0
  0
LINE
  5
AC
330
1F
100
AcDbEntity
  8
1
  6
Continuous
 62
     7
100
AcDbLine
 10
160.681584066
 20
209.5835116764999
 30
0.0
 11
160.681584066
 21
208.3335116764999
 31
0.0
  0
LINE
  5
AD
330
1F
100
AcDbEntity
  8
1
  6
Continuous
 62
     7
100
AcDbLine
 10
162.431584066
 20
210.0835116764999
 30
0.0
 11
161.181584066
 21
210.0835116764999
 31
0.0
  0
LINE
  5
AE
330
1F
100
AcDbEntity
  8
1
  6
Continuous
 62
     7
100
AcDbLine
 10
162.431584066
 20
211.0835116764999
 30
0.0
 11
162.431584066
 21
210.0835116764999
 31
0.0
  0
LINE
  5
AF
330
1F
100
AcDbEntity
  8
1
  6
Continuous
 62
     7
100
AcDbLine
 10
161.181584066
 20
211.0835116764999
 30
0.0
 11
162.431584066
 21
211.0835116764999
 31
0.0
  0
LINE
  5
B0
330
1F
100
AcDbEntity
  8
1
  6
Continuous
 62
     7
100
AcDbLine
 10
160.681584066
 20
212.8335116764999
 30
0.0
 11
160.681584066
 21
211.5835116764999
 31
0.0
  0
LINE
  5
B1
330
1F
100
AcDbEntity
  8
1
  6
Continuous
 62
     7
100
AcDbLine
 10
159.681584066
 20
212.8335116764999
 30
0.0
 11
160.681584066
 21
212.8335116764999
 31
0.0
  0
LINE
  5
B2
330
1F
100
AcDbEntity
  8
DEFAULT_1
  6
DOT_CENTER
 62
     2
100
AcDbLine
 10
160.181584066
 20
210.5835116765
 30
0.0
 11
160.181584066
 21
216.5835116765
 31
0.0
  0
LINE
  5
B3
330
1F
100
AcDbEntity
  8
DEFAULT_1
  6
DOT_CENTER
 62
     2
100
AcDbLine
 10
160.181584066
 20
210.5835116765
 30
0.0
 11
160.181584066
 21
204.5835116765
 31
0.0
  0
LINE
  5
B4
330
1F
100
AcDbEntity
  8
1
  6
Continuous
 62
     7
100
AcDbLine
 10
115.4315840832
 20
82.03351167649991
 30
0.0
 11
115.1815840832
 21
81.78351167649991
 31
0.0
  0
LINE
  5
B5
330
1F
100
AcDbEntity
  8
1
  6
Continuous
 62
     2
100
AcDbLine
 10
115.4315840832
 20
82.03351167649991
 30
0.0
 11
116.2725743408697
 21
81.1925214188302
 31
0.0
  0
LINE
  5
B6
330
1F
100
AcDbEntity
  8
1
  6
Continuous
 62
     7
100
AcDbLine
 10
113.9315840832
 20
82.03351167649991
 30
0.0
 11
113.6815840832
 21
82.28351167649991
 31
0.0
  0
LINE
  5
B7
330
1F
100
AcDbEntity
  8
1
  6
Continuous
 62
     2
100
AcDbLine
 10
113.9315840832
 20
82.03351167649991
 30
0.0
 11
113.0905938255303
 21
81.1925214188302
 31
0.0
  0
LINE
  5
B8
330
1F
100
AcDbEntity
  8
1
  6
Continuous
 62
     7
100
AcDbLine
 10
113.9315840832
 20
83.53351167649991
 30
0.0
 11
113.6815840832
 21
83.28351167649991
 31
0.0
  0
LINE
  5
B9
330
1F
100
AcDbEntity
  8
1
  6
Continuous
 62
     2
100
AcDbLine
 10
113.9315840832
 20
83.53351167649991
 30
0.0
 11
113.0905938255303
 21
84.37450193416969
 31
0.0
  0
LINE
  5
BA
330
1F
100
AcDbEntity
  8
1
  6
Continuous
 62
     7
100
AcDbLine
 10
115.4315840832
 20
83.53351167649991
 30
0.0
 11
115.6815840832
 21
83.28351167649991
 31
0.0
  0
LINE
  5
BB
330
1F
100
AcDbEntity
  8
1
  6
Continuous
 62
     2
100
AcDbLine
 10
115.4315840832
 20
83.53351167649991
 30
0.0
 11
116.2725743408697
 21
84.37450193416969
 31
0.0
  0
LINE
  5
BC
330
1F
100
AcDbEntity
  8
1
  6
Continuous
 62
     7
100
AcDbLine
 10
114.1815840832
 20
81.78351167649991
 30
0.0
 11
113.9315840832
 21
82.03351167649991
 31
0.0
  0
LINE
  5
BD
330
1F
100
AcDbEntity
  8
1
  6
Continuous
 62
     7
100
AcDbLine
 10
115.6815840832
 20
82.28351167649991
 30
0.0
 11
115.4315840832
 21
82.03351167649991
 31
0.0
  0
LINE
  5
BE
330
1F
100
AcDbEntity
  8
1
  6
Continuous
 62
     7
100
AcDbLine
 10
115.1815840832
 20
83.78351167649991
 30
0.0
 11
115.4315840832
 21
83.53351167649991
 31
0.0
  0
LINE
  5
BF
330
1F
100
AcDbEntity
  8
1
  6
Continuous
 62
     7
100
AcDbLine
 10
114.1815840832
 20
83.78351167649991
 30
0.0
 11
113.9315840832
 21
83.53351167649991
 31
0.0
  0
LINE
  5
C0
330
1F
100
AcDbEntity
  8
1
  6
Continuous
 62
     7
100
AcDbLine
 10
114.1815840832
 20
83.78351167649991
 30
0.0
 11
114.1815840832
 21
85.03351167649991
 31
0.0
  0
LINE
  5
C1
330
1F
100
AcDbEntity
  8
1
  6
Continuous
 62
     7
100
AcDbLine
 10
112.4315840832
 20
83.28351167649991
 30
0.0
 11
113.6815840832
 21
83.28351167649991
 31
0.0
  0
LINE
  5
C2
330
1F
100
AcDbEntity
  8
1
  6
Continuous
 62
     7
100
AcDbLine
 10
112.4315840832
 20
82.28351167649991
 30
0.0
 11
112.4315840832
 21
83.28351167649991
 31
0.0
  0
LINE
  5
C3
330
1F
100
AcDbEntity
  8
1
  6
Continuous
 62
     7
100
AcDbLine
 10
113.6815840832
 20
82.28351167649991
 30
0.0
 11
112.4315840832
 21
82.28351167649991
 31
0.0
  0
LINE
  5
C4
330
1F
100
AcDbEntity
  8
1
  6
Continuous
 62
     7
100
AcDbLine
 10
114.1815840832
 20
80.53351167649991
 30
0.0
 11
114.1815840832
 21
81.78351167649991
 31
0.0
  0
LINE
  5
C5
330
1F
100
AcDbEntity
  8
1
  6
Continuous
 62
     7
100
AcDbLine
 10
115.1815840832
 20
80.53351167649991
 30
0.0
 11
114.1815840832
 21
80.53351167649991
 31
0.0
  0
LINE
  5
C6
330
1F
100
AcDbEntity
  8
1
  6
Continuous
 62
     7
100
AcDbLine
 10
115.1815840832
 20
81.78351167649991
 30
0.0
 11
115.1815840832
 21
80.53351167649991
 31
0.0
  0
LINE
  5
C7
330
1F
100
AcDbEntity
  8
1
  6
Continuous
 62
     7
100
AcDbLine
 10
116.9315840832
 20
82.28351167649991
 30
0.0
 11
115.6815840832
 21
82.28351167649991
 31
0.0
  0
LINE
  5
C8
330
1F
100
AcDbEntity
  8
1
  6
Continuous
 62
     7
100
AcDbLine
 10
116.9315840832
 20
83.28351167649991
 30
0.0
 11
116.9315840832
 21
82.28351167649991
 31
0.0
  0
LINE
  5
C9
330
1F
100
AcDbEntity
  8
1
  6
Continuous
 62
     7
100
AcDbLine
 10
115.6815840832
 20
83.28351167649991
 30
0.0
 11
116.9315840832
 21
83.28351167649991
 31
0.0
  0
LINE
  5
CA
330
1F
100
AcDbEntity
  8
1
  6
Continuous
 62
     7
100
AcDbLine
 10
115.1815840832
 20
85.03351167649991
 30
0.0
 11
115.1815840832
 21
83.78351167649991
 31
0.0
  0
LINE
  5
CB
330
1F
100
AcDbEntity
  8
1
  6
Continuous
 62
     7
100
AcDbLine
 10
114.1815840832
 20
85.03351167649991
 30
0.0
 11
115.1815840832
 21
85.03351167649991
 31
0.0
  0
LINE
  5
CC
330
1F
100
AcDbEntity
  8
1
  6
Continuous
 62
     7
100
AcDbLine
 10
114.1815840832
 20
212.8335116764999
 30
0.0
 11
115.1815840832
 21
212.8335116764999
 31
0.0
  0
LINE
  5
CD
330
1F
100
AcDbEntity
  8
1
  6
Continuous
 62
     7
100
AcDbLine
 10
115.1815840832
 20
212.8335116764999
 30
0.0
 11
115.1815840832
 21
211.5835116764999
 31
0.0
  0
LINE
  5
CE
330
1F
100
AcDbEntity
  8
1
  6
Continuous
 62
     7
100
AcDbLine
 10
115.6815840832
 20
211.0835116764999
 30
0.0
 11
116.9315840832
 21
211.0835116764999
 31
0.0
  0
LINE
  5
CF
330
1F
100
AcDbEntity
  8
1
  6
Continuous
 62
     7
100
AcDbLine
 10
116.9315840832
 20
211.0835116764999
 30
0.0
 11
116.9315840832
 21
210.0835116764999
 31
0.0
  0
LINE
  5
D0
330
1F
100
AcDbEntity
  8
1
  6
Continuous
 62
     7
100
AcDbLine
 10
116.9315840832
 20
210.0835116764999
 30
0.0
 11
115.6815840832
 21
210.0835116764999
 31
0.0
  0
LINE
  5
D1
330
1F
100
AcDbEntity
  8
1
  6
Continuous
 62
     7
100
AcDbLine
 10
115.1815840832
 20
209.5835116764999
 30
0.0
 11
115.1815840832
 21
208.3335116764999
 31
0.0
  0
LINE
  5
D2
330
1F
100
AcDbEntity
  8
1
  6
Continuous
 62
     7
100
AcDbLine
 10
115.1815840832
 20
208.3335116764999
 30
0.0
 11
114.1815840832
 21
208.3335116764999
 31
0.0
  0
LINE
  5
D3
330
1F
100
AcDbEntity
  8
1
  6
Continuous
 62
     7
100
AcDbLine
 10
114.1815840832
 20
208.3335116764999
 30
0.0
 11
114.1815840832
 21
209.5835116764999
 31
0.0
  0
LINE
  5
D4
330
1F
100
AcDbEntity
  8
1
  6
Continuous
 62
     7
100
AcDbLine
 10
113.6815840832
 20
210.0835116764999
 30
0.0
 11
112.4315840832
 21
210.0835116764999
 31
0.0
  0
LINE
  5
D5
330
1F
100
AcDbEntity
  8
1
  6
Continuous
 62
     7
100
AcDbLine
 10
112.4315840832
 20
210.0835116764999
 30
0.0
 11
112.4315840832
 21
211.0835116764999
 31
0.0
  0
LINE
  5
D6
330
1F
100
AcDbEntity
  8
1
  6
Continuous
 62
     7
100
AcDbLine
 10
112.4315840832
 20
211.0835116764999
 30
0.0
 11
113.6815840832
 21
211.0835116764999
 31
0.0
  0
LINE
  5
D7
330
1F
100
AcDbEntity
  8
1
  6
Continuous
 62
     7
100
AcDbLine
 10
114.1815840832
 20
211.5835116764999
 30
0.0
 11
114.1815840832
 21
212.8335116764999
 31
0.0
  0
LINE
  5
D8
330
1F
100
AcDbEntity
  8
1
  6
Continuous
 62
     7
100
AcDbLine
 10
114.1815840832
 20
211.5835116764999
 30
0.0
 11
113.9315840832
 21
211.3335116764999
 31
0.0
  0
LINE
  5
D9
330
1F
100
AcDbEntity
  8
1
  6
Continuous
 62
     7
100
AcDbLine
 10
115.1815840832
 20
211.5835116764999
 30
0.0
 11
115.4315840832
 21
211.3335116764999
 31
0.0
  0
LINE
  5
DA
330
1F
100
AcDbEntity
  8
1
  6
Continuous
 62
     7
100
AcDbLine
 10
115.6815840832
 20
210.0835116764999
 30
0.0
 11
115.4315840832
 21
209.8335116764999
 31
0.0
  0
LINE
  5
DB
330
1F
100
AcDbEntity
  8
1
  6
Continuous
 62
     7
100
AcDbLine
 10
114.1815840832
 20
209.5835116764999
 30
0.0
 11
113.9315840832
 21
209.8335116764999
 31
0.0
  0
LINE
  5
DC
330
1F
100
AcDbEntity
  8
1
  6
Continuous
 62
     2
100
AcDbLine
 10
115.4315840832
 20
211.3335116764999
 30
0.0
 11
116.2725743408697
 21
212.1745019341697
 31
0.0
  0
LINE
  5
DD
330
1F
100
AcDbEntity
  8
1
  6
Continuous
 62
     7
100
AcDbLine
 10
115.4315840832
 20
211.3335116764999
 30
0.0
 11
115.6815840832
 21
211.0835116764999
 31
0.0
  0
LINE
  5
DE
330
1F
100
AcDbEntity
  8
1
  6
Continuous
 62
     2
100
AcDbLine
 10
113.9315840832
 20
211.3335116764999
 30
0.0
 11
113.0905938255303
 21
212.1745019341697
 31
0.0
  0
LINE
  5
DF
330
1F
100
AcDbEntity
  8
1
  6
Continuous
 62
     7
100
AcDbLine
 10
113.9315840832
 20
211.3335116764999
 30
0.0
 11
113.6815840832
 21
211.0835116764999
 31
0.0
  0
LINE
  5
E0
330
1F
100
AcDbEntity
  8
1
  6
Continuous
 62
     2
100
AcDbLine
 10
113.9315840832
 20
209.8335116764999
 30
0.0
 11
113.0905938255303
 21
208.9925214188302
 31
0.0
  0
LINE
  5
E1
330
1F
100
AcDbEntity
  8
1
  6
Continuous
 62
     7
100
AcDbLine
 10
113.9315840832
 20
209.8335116764999
 30
0.0
 11
113.6815840832
 21
210.0835116764999
 31
0.0
  0
LINE
  5
E2
330
1F
100
AcDbEntity
  8
1
  6
Continuous
 62
     2
100
AcDbLine
 10
115.4315840832
 20
209.8335116764999
 30
0.0
 11
116.2725743408697
 21
208.9925214188302
 31
0.0
  0
LINE
  5
E3
330
1F
100
AcDbEntity
  8
1
  6
Continuous
 62
     7
100
AcDbLine
 10
115.4315840832
 20
209.8335116764999
 30
0.0
 11
115.1815840832
 21
209.5835116764999
 31
0.0
  0
LINE
  5
E4
330
1F
100
AcDbEntity
  8
0
  6
Continuous
 62
     7
100
AcDbLine
 10
100.6815840832
 20
116.7835116765
 30
0.0
 11
100.6815840832
 21
80.68351167649999
 31
0.0
  0
LINE
  5
E5
330
1F
100
AcDbEntity
  8
0
  6
Continuous
 62
     7
100
AcDbLine
 10
128.6815840832
 20
116.7835116765
 30
0.0
 11
128.6815840832
 21
80.68351167649999
 31
0.0
  0
LINE
  5
E6
330
1F
100
AcDbEntity
  8
0
  6
Continuous
 62
     7
100
AcDbLine
 10
128.6815840832
 20
116.7835116765
 30
0.0
 11
128.6815840832
 21
122.7835116765
 31
0.0
  0
LINE
  5
E7
330
1F
100
AcDbEntity
  8
0
  6
Continuous
 62
     7
100
AcDbLine
 10
127.6815840832
 20
122.7835116765
 30
0.0
 11
127.6815840832
 21
124.0335116765
 31
0.0
  0
LINE
  5
E8
330
1F
100
AcDbEntity
  8
0
  6
Continuous
 62
     7
100
AcDbLine
 10
127.4315386427
 20
124.0335116765
 30
0.0
 11
127.4315386427
 21
122.7835116765
 31
0.0
  0
LINE
  5
E9
330
1F
100
AcDbEntity
  8
0
  6
Continuous
 62
     7
100
AcDbLine
 10
119.4315386427
 20
124.0335116765
 30
0.0
 11
119.4315386427
 21
122.7835116765
 31
0.0
  0
LINE
  5
EA
330
1F
100
AcDbEntity
  8
0
  6
Continuous
 62
     7
100
AcDbLine
 10
117.8431607906
 20
122.7835116765
 30
0.0
 11
117.8431607906
 21
124.0335116765
 31
0.0
  0
LINE
  5
EB
330
1F
100
AcDbEntity
  8
0
  6
Continuous
 62
     7
100
AcDbLine
 10
112.0048520331
 20
122.7835116765
 30
0.0
 11
112.0048520331
 21
124.0335116765
 31
0.0
  0
LINE
  5
EC
330
1F
100
AcDbEntity
  8
0
  6
Continuous
 62
     7
100
AcDbLine
 10
110.9617307702
 20
124.0335116765
 30
0.0
 11
110.9617307702
 21
122.7835116765
 31
0.0
  0
LINE
  5
ED
330
1F
100
AcDbEntity
  8
0
  6
Continuous
 62
     7
100
AcDbLine
 10
128.6815840832
 20
122.7835116765
 30
0.0
 11
101.3815840832
 21
122.7835116765
 31
0.0
  0
LINE
  5
EE
330
1F
100
AcDbEntity
  8
0
  6
Continuous
 62
     7
100
AcDbLine
 10
128.6815840832
 20
116.7835116765
 30
0.0
 11
121.4315840832
 21
116.7835116765
 31
0.0
  0
LINE
  5
EF
330
1F
100
AcDbEntity
  8
0
  6
Continuous
 62
     7
100
AcDbLine
 10
121.4315840832
 20
116.7835116765
 30
0.0
 11
101.3815840832
 21
116.7835116765
 31
0.0
  0
LINE
  5
F0
330
1F
100
AcDbEntity
  8
1
  6
Continuous
 62
     7
100
AcDbLine
 10
100.6815840832
 20
116.7835116765
 30
0.0
 11
101.3815840832
 21
116.7835116765
 31
0.0
  0
LINE
  5
F1
330
1F
100
AcDbEntity
  8
0
  6
Continuous
 62
     7
100
AcDbLine
 10
101.3815840832
 20
122.7835116765
 30
0.0
 11
101.3815840832
 21
116.7835116765
 31
0.0
  0
LINE
  5
F2
330
1F
100
AcDbEntity
  8
0
  6
Continuous
 62
     7
100
AcDbLine
 10
128.6815840832
 20
124.0335116765
 30
0.0
 11
110.9617706626
 21
124.0335116765
 31
0.0
  0
LINE
  5
F3
330
1F
100
AcDbEntity
  8
1
  6
Continuous
 62
     7
100
AcDbLine
 10
128.6815840832
 20
124.0335116765
 30
0.0
 11
128.6815840832
 21
122.7835116765
 31
0.0
  0
LINE
  5
F4
330
1F
100
AcDbEntity
  8
0
  6
Continuous
 62
     7
100
AcDbLine
 10
128.6815840832
 20
116.7835116765
 30
0.0
 11
121.4315840832
 21
116.7835116765
 31
0.0
  0
LINE
  5
F5
330
1F
100
AcDbEntity
  8
DEFAULT_1
  6
DOT_CENTER
 62
     2
100
AcDbLine
 10
122.1815840832
 20
85.78351167649998
 30
0.0
 11
122.1815840832
 21
77.68351167649999
 31
0.0
  0
LINE
  5
F6
330
1F
100
AcDbEntity
  8
DEFAULT_1
  6
DOT_CENTER
 62
     2
100
AcDbLine
 10
122.1815840832
 20
69.58351167649997
 30
0.0
 11
122.1815840832
 21
77.68351167649999
 31
0.0
  0
LINE
  5
F7
330
1F
100
AcDbEntity
  8
DEFAULT_1
  6
DOT_CENTER
 62
     2
100
AcDbLine
 10
114.6815840832
 20
88.78351167650001
 30
0.0
 11
114.6815840832
 21
82.78351167650001
 31
0.0
  0
LINE
  5
F8
330
1F
100
AcDbEntity
  8
DEFAULT_1
  6
DOT_CENTER
 62
     2
100
AcDbLine
 10
114.6815840832
 20
76.78351167650001
 30
0.0
 11
114.6815840832
 21
82.78351167650001
 31
0.0
  0
LINE
  5
F9
330
1F
100
AcDbEntity
  8
DEFAULT_1
  6
DOT_CENTER
 62
     2
100
AcDbLine
 10
107.1815840832
 20
85.78351167649998
 30
0.0
 11
107.1815840832
 21
77.68351167649999
 31
0.0
  0
LINE
  5
FA
330
1F
100
AcDbEntity
  8
DEFAULT_1
  6
DOT_CENTER
 62
     2
100
AcDbLine
 10
107.1815840832
 20
69.58351167649997
 30
0.0
 11
107.1815840832
 21
77.68351167649999
 31
0.0
  0
LINE
  5
FB
330
1F
100
AcDbEntity
  8
DEFAULT_1
  6
DOT_CENTER
 62
     2
100
AcDbLine
 10
120.6815840832
 20
82.78351167649998
 30
0.0
 11
114.6815840832
 21
82.78351167650001
 31
0.0
  0
LINE
  5
FC
330
1F
100
AcDbEntity
  8
DEFAULT_1
  6
DOT_CENTER
 62
     2
100
AcDbLine
 10
108.6815840832
 20
82.78351167649998
 30
0.0
 11
114.6815840832
 21
82.78351167650001
 31
0.0
  0
LINE
  5
FD
330
1F
100
AcDbEntity
  8
DEFAULT_1
  6
DOT_CENTER
 62
     2
100
AcDbLine
 10
130.2815840832
 20
77.68351167649999
 30
0.0
 11
122.1815840832
 21
77.68351167649999
 31
0.0
  0
LINE
  5
FE
330
1F
100
AcDbEntity
  8
DEFAULT_1
  6
DOT_CENTER
 62
     2
100
AcDbLine
 10
114.0815840832
 20
77.68351167649999
 30
0.0
 11
107.1815840832
 21
77.68351167649999
 31
0.0
  0
LINE
  5
FF
330
1F
100
AcDbEntity
  8
DEFAULT_1
  6
DOT_CENTER
 62
     2
100
AcDbLine
 10
99.08158408320003
 20
77.68351167649999
 30
0.0
 11
107.1815840832
 21
77.68351167649999
 31
0.0
  0
LINE
  5
100
330
1F
100
AcDbEntity
  8
DEFAULT_1
  6
DOT_CENTER
 62
     2
100
AcDbLine
 10
114.0815840832
 20
77.68351167649999
 30
0.0
 11
122.1815840832
 21
77.68351167649999
 31
0.0
  0
LINE
  5
101
330
1F
100
AcDbEntity
  8
1
  6
DOT_CENTER
 62
     2
100
AcDbLine
 10
137.43201168365
 20
170.911081305638
 30
0.0
 11
137.43201168365
 21
120.911081305638
 31
0.0
  0
LINE
  5
102
330
1F
100
AcDbEntity
  8
1
  6
Continuous
 62
     7
100
AcDbLine
 10
128.6815840832
 20
170.5835116765
 30
0.0
 11
128.6815840832
 21
169.3335116765
 31
0.0
  0
LINE
  5
103
330
1F
100
AcDbEntity
  8
0
  6
Continuous
 62
     7
100
AcDbLine
 10
128.6815840832
 20
169.3335116765
 30
0.0
 11
146.181584066
 21
169.3335116765
 31
0.0
  0
LINE
  5
104
330
1F
100
AcDbEntity
  8
0
  6
Continuous
 62
     7
100
AcDbLine
 10
110.9617706626
 20
169.3335116765
 30
0.0
 11
128.6815840832
 21
169.3335116765
 31
0.0
  0
LINE
  5
105
330
1F
100
AcDbEntity
  8
0
  6
Continuous
 62
     7
100
AcDbLine
 10
101.3815840832
 20
176.5835116765
 30
0.0
 11
101.3815840832
 21
170.5835116765
 31
0.0
  0
LINE
  5
106
330
1F
100
AcDbEntity
  8
1
  6
Continuous
 62
     7
100
AcDbLine
 10
101.3815840832
 20
176.5835116765
 30
0.0
 11
100.6815840832
 21
176.5835116765
 31
0.0
  0
LINE
  5
107
330
1F
100
AcDbEntity
  8
DEFAULT_1
  6
DOT_CENTER
 62
     2
100
AcDbLine
 10
167.681584066
 20
215.6835116765
 30
0.0
 11
159.581584066
 21
215.6835116765
 31
0.0
  0
LINE
  5
108
330
1F
100
AcDbEntity
  8
DEFAULT_1
  6
DOT_CENTER
 62
     2
100
AcDbLine
 10
152.681584066
 20
215.6835116765
 30
0.0
 11
144.581584066
 21
215.6835116765
 31
0.0
  0
LINE
  5
109
330
1F
100
AcDbEntity
  8
DEFAULT_1
  6
DOT_CENTER
 62
     2
100
AcDbLine
 10
122.1815840832
 20
215.6835116765
 30
0.0
 11
114.0815840832
 21
215.6835116765
 31
0.0
  0
LINE
  5
10A
330
1F
100
AcDbEntity
  8
DEFAULT_1
  6
DOT_CENTER
 62
     2
100
AcDbLine
 10
107.1815840832
 20
215.6835116765
 30
0.0
 11
99.08158408320003
 21
215.6835116765
 31
0.0
  0
LINE
  5
10B
330
1F
100
AcDbEntity
  8
DEFAULT_1
  6
DOT_CENTER
 62
     2
100
AcDbLine
 10
107.1815840832
 20
215.6835116765
 30
0.0
 11
114.0815840832
 21
215.6835116765
 31
0.0
  0
LINE
  5
10C
330
1F
100
AcDbEntity
  8
DEFAULT_1
  6
DOT_CENTER
 62
     2
100
AcDbLine
 10
122.1815840832
 20
215.6835116765
 30
0.0
 11
130.2815840832
 21
215.6835116765
 31
0.0
  0
LINE
  5
10D
330
1F
100
AcDbEntity
  8
DEFAULT_1
  6
DOT_CENTER
 62
     2
100
AcDbLine
 10
152.681584066
 20
215.6835116765
 30
0.0
 11
159.581584066
 21
215.6835116765
 31
0.0
  0
LINE
  5
10E
330
1F
100
AcDbEntity
  8
DEFAULT_1
  6
DOT_CENTER
 62
     2
100
AcDbLine
 10
167.681584066
 20
215.6835116765
 30
0.0
 11
175.781584066
 21
215.6835116765
 31
0.0
  0
LINE
  5
10F
330
1F
100
AcDbEntity
  8
DEFAULT_1
  6
DOT_CENTER
 62
     2
100
AcDbLine
 10
160.181584066
 20
210.5835116765
 30
0.0
 11
154.181584066
 21
210.5835116765
 31
0.0
  0
LINE
  5
110
330
1F
100
AcDbEntity
  8
DEFAULT_1
  6
DOT_CENTER
 62
     2
100
AcDbLine
 10
114.6815840832
 20
210.5835116765
 30
0.0
 11
108.6815840832
 21
210.5835116765
 31
0.0
  0
LINE
  5
111
330
1F
100
AcDbEntity
  8
DEFAULT_1
  6
DOT_CENTER
 62
     2
100
AcDbLine
 10
114.6815840832
 20
210.5835116765
 30
0.0
 11
120.6815840832
 21
210.5835116765
 31
0.0
  0
LINE
  5
112
330
1F
100
AcDbEntity
  8
DEFAULT_1
  6
DOT_CENTER
 62
     2
100
AcDbLine
 10
160.181584066
 20
210.5835116765
 30
0.0
 11
166.181584066
 21
210.5835116765
 31
0.0
  0
LINE
  5
113
330
1F
100
AcDbEntity
  8
DEFAULT_1
  6
DOT_CENTER
 62
     2
100
AcDbLine
 10
152.031584066
 20
205.5835116765
 30
0.0
 11
147.031484066
 21
205.5835116765
 31
0.0
  0
LINE
  5
114
330
1F
100
AcDbEntity
  8
DEFAULT_1
  6
DOT_CENTER
 62
     2
100
AcDbLine
 10
152.031584066
 20
205.5835116765
 30
0.0
 11
157.031684066
 21
205.5835116765
 31
0.0
  0
LINE
  5
115
330
1F
100
AcDbEntity
  8
0
  6
Continuous
 62
     7
100
AcDbLine
 10
139.432011683
 20
169.3835116765
 30
0.0
 11
139.132011683
 21
169.6835116765
 31
0.0
  0
LINE
  5
116
330
1F
100
AcDbEntity
  8
DEFAULT_1
  6
DOT_CENTER
 62
     2
100
AcDbLine
 10
152.031584066
 20
199.5835116765
 30
0.0
 11
147.031484066
 21
199.5835116765
 31
0.0
  0
LINE
  5
117
330
1F
100
AcDbEntity
  8
DEFAULT_1
  6
DOT_CENTER
 62
     2
100
AcDbLine
 10
152.031584066
 20
199.5835116765
 30
0.0
 11
157.031684066
 21
199.5835116765
 31
0.0
  0
LINE
  5
118
330
1F
100
AcDbEntity
  8
0
  6
Continuous
 62
     7
100
AcDbLine
 10
101.3815840832
 20
176.5835116765
 30
0.0
 11
121.4315840832
 21
176.5835116765
 31
0.0
  0
LINE
  5
119
330
1F
100
AcDbEntity
  8
0
  6
Continuous
 62
     7
100
AcDbLine
 10
121.4315840832
 20
176.5835116765
 30
0.0
 11
128.6815840832
 21
176.5835116765
 31
0.0
  0
LINE
  5
11A
330
1F
100
AcDbEntity
  8
0
  6
Continuous
 62
     7
100
AcDbLine
 10
146.181584066
 20
176.5835116765
 30
0.0
 11
147.381584066
 21
176.5835116765
 31
0.0
  0
LINE
  5
11B
330
1F
100
AcDbEntity
  8
0
  6
Continuous
 62
     7
100
AcDbLine
 10
147.381584066
 20
173.2835116765
 30
0.0
 11
170.881584066
 21
173.2835116765
 31
0.0
  0
LINE
  5
11C
330
1F
100
AcDbEntity
  8
0
  6
Continuous
 62
     7
100
AcDbLine
 10
101.3815840832
 20
170.5835116765
 30
0.0
 11
128.6815840832
 21
170.5835116765
 31
0.0
  0
LINE
  5
11D
330
1F
100
AcDbEntity
  8
0
  6
Continuous
 62
     7
100
AcDbLine
 10
147.381584066
 20
170.5835116765
 30
0.0
 11
170.881584066
 21
170.5835116765
 31
0.0
  0
LINE
  5
11E
330
1F
100
AcDbEntity
  8
0
  6
Continuous
 62
     7
100
AcDbLine
 10
139.1320114192
 20
169.6835116765
 30
0.0
 11
135.7320116841
 21
169.6835116765
 31
0.0
  0
LINE
  5
11F
330
1F
100
AcDbEntity
  8
0
  6
Continuous
 62
     7
100
AcDbLine
 10
135.732011683
 20
123.6835116765
 30
0.0
 11
135.432011683
 21
123.9835116765
 31
0.0
  0
LINE
  5
120
330
1F
100
AcDbEntity
  8
0
  6
Continuous
 62
     7
100
AcDbLine
 10
123.9032576887
 20
158.2835116765
 30
0.0
 11
152.2195763662
 21
158.2835116765
 31
0.0
  0
LINE
  5
121
330
1F
100
AcDbEntity
  8
0
  6
Continuous
 62
     7
100
AcDbLine
 10
122.6441981485
 20
157.0335116765
 30
0.0
 11
150.9387769412
 21
157.0335116765
 31
0.0
  0
LINE
  5
122
330
1F
100
AcDbEntity
  8
0
  6
Continuous
 62
     7
100
AcDbLine
 10
100.6815840832
 20
116.7835116765
 30
0.0
 11
100.6815840832
 21
176.5835116765
 31
0.0
  0
LINE
  5
123
330
1F
100
AcDbEntity
  8
0
  6
Continuous
 62
     7
100
AcDbLine
 10
100.6815840832
 20
212.6835116765
 30
0.0
 11
100.6815840832
 21
176.5835116765
 31
0.0
  0
LINE
  5
124
330
1F
100
AcDbEntity
  8
0
  6
Continuous
 62
     7
100
AcDbLine
 10
101.3815840832
 20
122.7835116765
 30
0.0
 11
101.3815840832
 21
170.5835116765
 31
0.0
  0
LINE
  5
125
330
1F
100
AcDbEntity
  8
0
  6
Continuous
 62
     7
100
AcDbLine
 10
122.6441981485
 20
136.3335116765
 30
0.0
 11
150.9387769412
 21
136.3335116765
 31
0.0
  0
LINE
  5
126
330
1F
100
AcDbEntity
  8
0
  6
Continuous
 62
     7
100
AcDbLine
 10
123.9032576887
 20
135.0835116765
 30
0.0
 11
152.2195763662
 21
135.0835116765
 31
0.0
  0
LINE
  5
127
330
1F
100
AcDbEntity
  8
DEFAULT_1
  6
DOT_CENTER
 62
     2
100
AcDbLine
 10
107.1815840832
 20
215.6835116765
 30
0.0
 11
107.1815840832
 21
223.7835116765
 31
0.0
  0
LINE
  5
128
330
1F
100
AcDbEntity
  8
DEFAULT_1
  6
DOT_CENTER
 62
     2
100
AcDbLine
 10
107.1815840832
 20
215.6835116765
 30
0.0
 11
107.1815840832
 21
207.5835116765
 31
0.0
  0
LINE
  5
129
330
1F
100
AcDbEntity
  8
0
  6
Continuous
 62
     7
100
AcDbLine
 10
110.9617307702
 20
170.5835116765
 30
0.0
 11
110.9617307702
 21
169.3335116765
 31
0.0
  0
LINE
  5
12A
330
1F
100
AcDbEntity
  8
0
  6
Continuous
 62
     7
100
AcDbLine
 10
111.8769315424
 20
124.0335116765
 30
0.0
 11
111.8769315424
 21
169.3335116765
 31
0.0
  0
LINE
  5
12B
330
1F
100
AcDbEntity
  8
0
  6
Continuous
 62
     7
100
AcDbLine
 10
112.0048520331
 20
169.3335116765
 30
0.0
 11
112.0048520331
 21
170.5835116765
 31
0.0
  0
LINE
  5
12C
330
1F
100
AcDbEntity
  8
DEFAULT_1
  6
DOT_CENTER
 62
     2
100
AcDbLine
 10
114.6815840832
 20
210.5835116765
 30
0.0
 11
114.6815840832
 21
216.5835116765
 31
0.0
  0
LINE
  5
12D
330
1F
100
AcDbEntity
  8
DEFAULT_1
  6
DOT_CENTER
 62
     2
100
AcDbLine
 10
114.6815840832
 20
210.5835116765
 30
0.0
 11
114.6815840832
 21
204.5835116765
 31
0.0
  0
LINE
  5
12E
330
1F
100
AcDbEntity
  8
0
  6
Continuous
 62
     7
100
AcDbLine
 10
135.432011683
 20
169.3835116765
 30
0.0
 11
135.732011683
 21
169.6835116765
 31
0.0
  0
LINE
  5
12F
330
1F
100
AcDbEntity
  8
DEFAULT_1
  6
DOT_CENTER
 62
     2
100
AcDbLine
 10
115.1269316316
 20
173.8336376069
 30
0.0
 11
115.1269316316
 21
122.5333857461
 31
0.0
  0
LINE
  5
130
330
1F
100
AcDbEntity
  8
0
  6
Continuous
 62
     7
100
AcDbLine
 10
117.8431607906
 20
169.3335116765
 30
0.0
 11
117.8431607906
 21
170.5835116765
 31
0.0
  0
LINE
  5
131
330
1F
100
AcDbEntity
  8
0
  6
Continuous
 62
     7
100
AcDbLine
 10
119.4315386427
 20
170.5835116765
 30
0.0
 11
119.4315386427
 21
169.3335116765
 31
0.0
  0
LINE
  5
132
330
1F
100
AcDbEntity
  8
DEFAULT_1
  6
DOT_CENTER
 62
     2
100
AcDbLine
 10
122.1815840832
 20
215.6835116765
 30
0.0
 11
122.1815840832
 21
223.7835116765
 31
0.0
  0
LINE
  5
133
330
1F
100
AcDbEntity
  8
DEFAULT_1
  6
DOT_CENTER
 62
     2
100
AcDbLine
 10
122.1815840832
 20
215.6835116765
 30
0.0
 11
122.1815840832
 21
207.5835116765
 31
0.0
  0
LINE
  5
134
330
1F
100
AcDbEntity
  8
0
  6
Continuous
 62
     7
100
AcDbLine
 10
122.6441981485
 20
136.0835116765
 30
0.0
 11
122.6441981485
 21
157.2835116765
 31
0.0
  0
LINE
  5
135
330
1F
100
AcDbEntity
  8
0
  6
Continuous
 62
     7
100
AcDbLine
 10
110.9617706626
 20
124.0335116765
 30
0.0
 11
162.9860517138
 21
124.0335116765
 31
0.0
  0
LINE
  5
136
330
1F
100
AcDbEntity
  8
0
  6
Continuous
 62
     7
100
AcDbLine
 10
139.1320114192
 20
123.6835116765
 30
0.0
 11
135.7320116841
 21
123.6835116765
 31
0.0
  0
LINE
  5
137
330
1F
100
AcDbEntity
  8
0
  6
Continuous
 62
     7
100
AcDbLine
 10
127.4315386427
 20
170.5835116765
 30
0.0
 11
127.4315386427
 21
169.3335116765
 31
0.0
  0
LINE
  5
138
330
1F
100
AcDbEntity
  8
0
  6
Continuous
 62
     7
100
AcDbLine
 10
127.6815840832
 20
169.3335116765
 30
0.0
 11
127.6815840832
 21
170.5835116765
 31
0.0
  0
LINE
  5
139
330
1F
100
AcDbEntity
  8
0
  6
Continuous
 62
     7
100
AcDbLine
 10
128.6815840832
 20
170.5835116765
 30
0.0
 11
128.6815840832
 21
176.5835116765
 31
0.0
  0
LINE
  5
13A
330
1F
100
AcDbEntity
  8
0
  6
Continuous
 62
     7
100
AcDbLine
 10
128.6815840832
 20
212.6835116765
 30
0.0
 11
128.6815840832
 21
176.5835116765
 31
0.0
  0
LINE
  5
13B
330
1F
100
AcDbEntity
  8
0
  6
Continuous
 62
     7
100
AcDbLine
 10
128.7815840832
 20
135.0835116765
 30
0.0
 11
128.7815840832
 21
136.3335116765
 31
0.0
  0
LINE
  5
13C
330
1F
100
AcDbEntity
  8
0
  6
Continuous
 62
     7
100
AcDbLine
 10
128.7815840832
 20
157.0335116765
 30
0.0
 11
128.7815840832
 21
158.2835116765
 31
0.0
  0
LINE
  5
13D
330
1F
100
AcDbEntity
  8
0
  6
Continuous
 62
     7
100
AcDbLine
 10
133.432011683
 20
135.0835116765
 30
0.0
 11
133.432011683
 21
136.3335116765
 31
0.0
  0
LINE
  5
13E
330
1F
100
AcDbEntity
  8
0
  6
Continuous
 62
     7
100
AcDbLine
 10
133.432011683
 20
158.2835116765
 30
0.0
 11
133.432011683
 21
157.0335116765
 31
0.0
  0
LINE
  5
13F
330
1F
100
AcDbEntity
  8
0
  6
Continuous
 62
     7
100
AcDbLine
 10
135.432011683
 20
123.9835116765
 30
0.0
 11
135.432011683
 21
124.0335116765
 31
0.0
  0
LINE
  5
140
330
1F
100
AcDbEntity
  8
0
  6
Continuous
 62
     7
100
AcDbLine
 10
135.432011683
 20
169.3335116765
 30
0.0
 11
135.432011683
 21
169.3835116765
 31
0.0
  0
LINE
  5
141
330
1F
100
AcDbEntity
  8
0
  6
Continuous
 62
     7
100
AcDbLine
 10
139.432011683
 20
123.9835116765
 30
0.0
 11
139.432011683
 21
124.0335116765
 31
0.0
  0
LINE
  5
142
330
1F
100
AcDbEntity
  8
0
  6
Continuous
 62
     7
100
AcDbLine
 10
139.432011683
 20
169.3335116765
 30
0.0
 11
139.432011683
 21
169.3835116765
 31
0.0
  0
LINE
  5
143
330
1F
100
AcDbEntity
  8
0
  6
Continuous
 62
     7
100
AcDbLine
 10
141.432011683
 20
135.0835116765
 30
0.0
 11
141.432011683
 21
136.3335116765
 31
0.0
  0
LINE
  5
144
330
1F
100
AcDbEntity
  8
0
  6
Continuous
 62
     7
100
AcDbLine
 10
141.432011683
 20
158.2835116765
 30
0.0
 11
141.432011683
 21
157.0335116765
 31
0.0
  0
LINE
  5
145
330
1F
100
AcDbEntity
  8
0
  6
Continuous
 62
     7
100
AcDbLine
 10
146.181584066
 20
158.2835116765
 30
0.0
 11
146.181584066
 21
157.0335116765
 31
0.0
  0
LINE
  5
146
330
1F
100
AcDbEntity
  8
0
  6
Continuous
 62
     7
100
AcDbLine
 10
146.181584066
 20
136.3335116765
 30
0.0
 11
146.181584066
 21
135.0835116765
 31
0.0
  0
LINE
  5
147
330
1F
100
AcDbEntity
  8
0
  6
Continuous
 62
     7
100
AcDbLine
 10
146.181584066
 20
176.4835116765
 30
0.0
 11
146.181584066
 21
176.5835116765
 31
0.0
  0
LINE
  5
148
330
1F
100
AcDbEntity
  8
0
  6
Continuous
 62
     7
100
AcDbLine
 10
147.381584066
 20
170.5835116765
 30
0.0
 11
147.381584066
 21
176.5835116765
 31
0.0
  0
LINE
  5
149
330
1F
100
AcDbEntity
  8
0
  6
Continuous
 62
     7
100
AcDbLine
 10
147.4316295037
 20
170.5835116765
 30
0.0
 11
147.4316295037
 21
169.3335116765
 31
0.0
  0
LINE
  5
14A
330
1F
100
AcDbEntity
  8
0
  6
DASHED
 62
     2
100
AcDbLine
 10
147.781584066
 20
205.5835116765
 30
0.0
 11
147.781584066
 21
199.5835116765
 31
0.0
  0
LINE
  5
14B
330
1F
100
AcDbEntity
  8
DEFAULT_2
  6
DASHED
 62
     2
100
AcDbLine
 10
149.431584066
 20
205.5835116765
 30
0.0
 11
149.431584066
 21
199.5835116765
 31
0.0
  0
LINE
  5
14C
330
1F
100
AcDbEntity
  8
0
  6
Continuous
 62
     7
100
AcDbLine
 10
152.2195763662
 20
124.0335116765
 30
0.0
 11
152.2195763662
 21
135.3335116765
 31
0.0
  0
LINE
  5
14D
330
1F
100
AcDbEntity
  8
0
  6
Continuous
 62
     7
100
AcDbLine
 10
152.2195763662
 20
169.3335116765
 30
0.0
 11
152.2195763662
 21
158.0335116765
 31
0.0
  0
LINE
  5
14E
330
1F
100
AcDbEntity
  8
DEFAULT_1
  6
DOT_CENTER
 62
     2
100
AcDbLine
 10
152.681584066
 20
215.6835116765
 30
0.0
 11
152.681584066
 21
223.7835116765
 31
0.0
  0
LINE
  5
14F
330
1F
100
AcDbEntity
  8
DEFAULT_1
  6
DOT_CENTER
 62
     2
100
AcDbLine
 10
152.681584066
 20
215.6835116765
 30
0.0
 11
152.681584066
 21
209.5835116765
 31
0.0
  0
LINE
  5
150
330
1F
100
AcDbEntity
  8
DEFAULT_2
  6
DASHED
 62
     2
100
AcDbLine
 10
154.631584066
 20
199.5835116765
 30
0.0
 11
154.631584066
 21
205.5835116765
 31
0.0
  0
LINE
  5
151
330
1F
100
AcDbEntity
  8
0
  6
Continuous
 62
     7
100
AcDbLine
 10
155.571730753
 20
170.5835116765
 30
0.0
 11
155.571730753
 21
169.3335116765
 31
0.0
  0
LINE
  5
152
330
1F
100
AcDbEntity
  8
0
  6
DASHED
 62
     2
100
AcDbLine
 10
156.281584066
 20
199.5835116765
 30
0.0
 11
156.281584066
 21
205.5835116765
 31
0.0
  0
LINE
  5
153
330
1F
100
AcDbEntity
  8
0
  6
Continuous
 62
     9
420
 12434109
100
AcDbLine
 10
157.0200073585
 20
169.3335116765
 30
0.0
 11
157.0200073585
 21
170.5835116765
 31
0.0
  0
LINE
  5
154
330
1F
100
AcDbEntity
  8
0
  6
Continuous
 62
     7
100
AcDbLine
 10
139.132011683
 20
123.6835116765
 30
0.0
 11
139.432011683
 21
123.9835116765
 31
0.0
  0
LINE
  5
155
330
1F
100
AcDbEntity
  8
DEFAULT_1
  6
DOT_CENTER
 62
     2
100
AcDbLine
 10
159.7360516247
 20
122.533385588
 30
0.0
 11
159.7360516247
 21
173.8336377651
 31
0.0
  0
LINE
  5
156
330
1F
100
AcDbEntity
  8
0
  6
Continuous
 62
     9
420
 12434109
100
AcDbLine
 10
162.8583161161
 20
169.3335116765
 30
0.0
 11
162.8583161161
 21
170.5835116765
 31
0.0
  0
LINE
  5
157
330
1F
100
AcDbEntity
  8
0
  6
Continuous
 62
     7
100
AcDbLine
 10
162.9860517138
 20
169.3335116765
 30
0.0
 11
162.9860517138
 21
124.0335116765
 31
0.0
  0
LINE
  5
158
330
1F
100
AcDbEntity
  8
0
  6
Continuous
 62
     7
100
AcDbLine
 10
163.901437379
 20
170.5835116765
 30
0.0
 11
163.901437379
 21
169.3335116765
 31
0.0
  0
LINE
  5
159
330
1F
100
AcDbEntity
  8
DEFAULT_1
  6
DOT_CENTER
 62
     2
100
AcDbLine
 10
167.681584066
 20
215.6835116765
 30
0.0
 11
167.681584066
 21
223.7835116765
 31
0.0
  0
LINE
  5
15A
330
1F
100
AcDbEntity
  8
DEFAULT_1
  6
DOT_CENTER
 62
     2
100
AcDbLine
 10
167.681584066
 20
215.6835116765
 30
0.0
 11
167.681584066
 21
209.5835116765
 31
0.0
  0
LINE
  5
15B
330
1F
100
AcDbEntity
  8
0
  6
Continuous
 62
     7
100
AcDbLine
 10
170.881584066
 20
176.5835116765
 30
0.0
 11
170.881584066
 21
170.5835116765
 31
0.0
  0
LINE
  5
15C
330
1F
100
AcDbEntity
  8
0
  6
Continuous
 62
     7
100
AcDbLine
 10
173.481584066
 20
176.5835116765
 30
0.0
 11
173.481584066
 21
146.6835116765
 31
0.0
  0
LINE
  5
15D
330
1F
100
AcDbEntity
  8
0
  6
Continuous
 62
     7
100
AcDbLine
 10
174.181584066
 20
184.8835116765
 30
0.0
 11
174.181584066
 21
212.6835116765
 31
0.0
  0
LINE
  5
15E
330
1F
100
AcDbEntity
  8
1
  6
DOT_CENTER
 62
     7
100
AcDbLine
 10
86.2454687302768
 20
146.6835116765
 30
0.0
 11
178.2454687302768
 21
146.6835116765
 31
0.0
  0
ARC
  5
15F
330
1F
100
AcDbEntity
  8
0
  6
Continuous
 62
     7
100
AcDbCircle
 10
114.6815840832
 20
80.68351167649999
 30
0.0
 40
14.0
100
AcDbArc
 50
180.0
 51
-90.0
  0
ARC
  5
160
330
1F
100
AcDbEntity
  8
0
  6
Continuous
 62
     7
100
AcDbCircle
 10
160.181584066
 20
80.68351167649999
 30
0.0
 40
14.0
100
AcDbArc
 50
180.0
 51
-90.0
  0
ARC
  5
161
330
1F
100
AcDbEntity
  8
0
  6
Continuous
 62
     7
100
AcDbCircle
 10
160.181584066
 20
212.6835116765
 30
0.0
 40
14.0
100
AcDbArc
 50
0.0
 51
90.0
  0
ARC
  5
162
330
1F
100
AcDbEntity
  8
0
  6
Continuous
 62
     7
100
AcDbCircle
 10
114.6815840832
 20
212.6835116765
 30
0.0
 40
14.0
100
AcDbArc
 50
0.0
 51
90.0
  0
ARC
  5
163
330
1F
100
AcDbEntity
  8
0
  6
DASHED
 62
     2
100
AcDbCircle
 10
152.031584066
 20
93.78351167649998
 30
0.0
 40
2.60000000000034
100
AcDbArc
 50
8.36913150759985
 51
171.6308685124975
  0
ARC
  5
164
330
1F
100
AcDbEntity
  8
0
  6
DASHED
 62
     2
100
AcDbCircle
 10
152.031584066
 20
87.78351167649998
 30
0.0
 40
2.6000000000003
100
AcDbArc
 50
-171.6308684924019
 51
-8.36913148750246
  0
ARC
  5
165
330
1F
100
AcDbEntity
  8
0
  6
DASHED
 62
     2
100
AcDbCircle
 10
152.031584066
 20
93.78351167649998
 30
0.0
 40
4.25
100
AcDbArc
 50
0.0
 51
180.0
  0
ARC
  5
166
330
1F
100
AcDbEntity
  8
0
  6
DASHED
 62
     2
100
AcDbCircle
 10
152.031584066
 20
87.78351167649998
 30
0.0
 40
4.25
100
AcDbArc
 50
180.0
 51
0.0
  0
ARC
  5
167
330
1F
100
AcDbEntity
  8
0
  6
Continuous
 62
     7
100
AcDbCircle
 10
160.181584066
 20
80.68351167649999
 30
0.0
 40
14.0
100
AcDbArc
 50
-90.0
 51
0.0
  0
ARC
  5
168
330
1F
100
AcDbEntity
  8
DEFAULT_2
  6
DASHED
 62
     2
100
AcDbCircle
 10
152.031584066
 20
93.78351167649998
 30
0.0
 40
2.599999999999994
100
AcDbArc
 50
0.0
 51
8.36913150759985
  0
ARC
  5
169
330
1F
100
AcDbEntity
  8
DEFAULT_2
  6
DASHED
 62
     2
100
AcDbCircle
 10
152.031584066
 20
93.78351167649998
 30
0.0
 40
2.599999999999554
100
AcDbArc
 50
171.6308685124975
 51
180.0
  0
ARC
  5
16A
330
1F
100
AcDbEntity
  8
DEFAULT_2
  6
DASHED
 62
     2
100
AcDbCircle
 10
152.031584066
 20
87.78351167649998
 30
0.0
 40
2.599999999999994
100
AcDbArc
 50
180.0
 51
-171.6308684924019
  0
ARC
  5
16B
330
1F
100
AcDbEntity
  8
DEFAULT_2
  6
DASHED
 62
     2
100
AcDbCircle
 10
152.031584066
 20
87.78351167649998
 30
0.0
 40
2.599999999999582
100
AcDbArc
 50
-8.36913148750246
 51
0.0
  0
ARC
  5
16C
330
1F
100
AcDbEntity
  8
0
  6
DASHED
 62
     2
100
AcDbCircle
 10
168.331584066
 20
87.78351167649998
 30
0.0
 40
4.25
100
AcDbArc
 50
180.0
 51
0.0
  0
ARC
  5
16D
330
1F
100
AcDbEntity
  8
0
  6
DASHED
 62
     2
100
AcDbCircle
 10
168.331584066
 20
87.78351167649998
 30
0.0
 40
2.600000000000328
100
AcDbArc
 50
-171.630868492402
 51
-8.36913148750246
  0
ARC
  5
16E
330
1F
100
AcDbEntity
  8
0
  6
DASHED
 62
     2
100
AcDbCircle
 10
168.331584066
 20
93.78351167649998
 30
0.0
 40
4.25
100
AcDbArc
 50
0.0
 51
180.0
  0
ARC
  5
16F
330
1F
100
AcDbEntity
  8
0
  6
DASHED
 62
     2
100
AcDbCircle
 10
168.331584066
 20
93.78351167649998
 30
0.0
 40
2.600000000000312
100
AcDbArc
 50
8.36913150759994
 51
171.6308685124975
  0
ARC
  5
170
330
1F
100
AcDbEntity
  8
0
  6
DASHED
 62
     2
100
AcDbCircle
 10
168.331584066
 20
199.5835116765
 30
0.0
 40
2.599999999999582
100
AcDbArc
 50
-171.6308685124975
 51
-8.36913150759994
  0
ARC
  5
171
330
1F
100
AcDbEntity
  8
0
  6
DASHED
 62
     2
100
AcDbCircle
 10
168.331584066
 20
199.5835116765
 30
0.0
 40
4.25
100
AcDbArc
 50
180.0
 51
0.0
  0
ARC
  5
172
330
1F
100
AcDbEntity
  8
0
  6
DASHED
 62
     2
100
AcDbCircle
 10
168.331584066
 20
205.5835116765
 30
0.0
 40
2.599999999999582
100
AcDbArc
 50
8.36913148750246
 51
171.630868492402
  0
ARC
  5
173
330
1F
100
AcDbEntity
  8
0
  6
DASHED
 62
     2
100
AcDbCircle
 10
168.331584066
 20
205.5835116765
 30
0.0
 40
4.25
100
AcDbArc
 50
0.0
 51
180.0
  0
ARC
  5
174
330
1F
100
AcDbEntity
  8
0
  6
Continuous
 62
     7
100
AcDbCircle
 10
114.6815840832
 20
80.68351167649999
 30
0.0
 40
14.0
100
AcDbArc
 50
-90.0
 51
0.0
  0
ARC
  5
175
330
1F
100
AcDbEntity
  8
DEFAULT_2
  6
DASHED
 62
     2
100
AcDbCircle
 10
152.031584066
 20
205.5835116765
 30
0.0
 40
2.599999999999994
100
AcDbArc
 50
0.0
 51
8.36913148750246
  0
ARC
  5
176
330
1F
100
AcDbEntity
  8
DEFAULT_2
  6
DASHED
 62
     2
100
AcDbCircle
 10
152.031584066
 20
205.5835116765
 30
0.0
 40
2.6000000000003
100
AcDbArc
 50
171.6308684924019
 51
180.0
  0
ARC
  5
177
330
1F
100
AcDbEntity
  8
DEFAULT_2
  6
DASHED
 62
     2
100
AcDbCircle
 10
152.031584066
 20
199.5835116765
 30
0.0
 40
2.599999999999994
100
AcDbArc
 50
180.0
 51
-171.6308685124975
  0
ARC
  5
178
330
1F
100
AcDbEntity
  8
DEFAULT_2
  6
DASHED
 62
     2
100
AcDbCircle
 10
152.031584066
 20
199.5835116765
 30
0.0
 40
2.60000000000034
100
AcDbArc
 50
-8.36913150759985
 51
0.0
  0
ARC
  5
179
330
1F
100
AcDbEntity
  8
0
  6
Continuous
 62
     7
100
AcDbCircle
 10
160.181584066
 20
212.6835116765
 30
0.0
 40
14.0
100
AcDbArc
 50
90.0
 51
180.0
  0
ARC
  5
17A
330
1F
100
AcDbEntity
  8
0
  6
DASHED
 62
     2
100
AcDbCircle
 10
152.031584066
 20
205.5835116765
 30
0.0
 40
4.25
100
AcDbArc
 50
0.0
 51
180.0
  0
ARC
  5
17B
330
1F
100
AcDbEntity
  8
0
  6
DASHED
 62
     2
100
AcDbCircle
 10
152.031584066
 20
199.5835116765
 30
0.0
 40
4.25
100
AcDbArc
 50
180.0
 51
0.0
  0
ARC
  5
17C
330
1F
100
AcDbEntity
  8
0
  6
DASHED
 62
     2
100
AcDbCircle
 10
152.031584066
 20
205.5835116765
 30
0.0
 40
2.599999999999582
100
AcDbArc
 50
8.36913148750246
 51
171.6308684924019
  0
ARC
  5
17D
330
1F
100
AcDbEntity
  8
0
  6
DASHED
 62
     2
100
AcDbCircle
 10
152.031584066
 20
199.5835116765
 30
0.0
 40
2.599999999999554
100
AcDbArc
 50
-171.6308685124975
 51
-8.36913150759985
  0
ARC
  5
17E
330
1F
100
AcDbEntity
  8
0
  6
Continuous
 62
     7
100
AcDbCircle
 10
114.6815840832
 20
212.6835116765
 30
0.0
 40
14.0
100
AcDbArc
 50
90.0
 51
180.0
  0
CIRCLE
  5
17F
330
1F
100
AcDbEntity
  8
0
  6
DASHED
 62
     2
100
AcDbCircle
 10
152.681584066
 20
77.68351167649999
 30
0.0
 40
5.099999999999994
  0
CIRCLE
  5
180
330
1F
100
AcDbEntity
  8
0
  6
DASHED
 62
     2
100
AcDbCircle
 10
167.681584066
 20
77.68351167649999
 30
0.0
 40
5.099999999999994
  0
CIRCLE
  5
181
330
1F
100
AcDbEntity
  8
0
  6
DASHED
 62
     2
100
AcDbCircle
 10
167.681584066
 20
77.68351167649999
 30
0.0
 40
2.75
  0
CIRCLE
  5
182
330
1F
100
AcDbEntity
  8
0
  6
DASHED
 62
     2
100
AcDbCircle
 10
152.681584066
 20
77.68351167649999
 30
0.0
 40
2.75
  0
CIRCLE
  5
183
330
1F
100
AcDbEntity
  8
1
  6
Continuous
 62
     7
100
AcDbCircle
 10
160.181584066
 20
82.78351167649998
 30
0.0
 40
3.999999999999886
  0
CIRCLE
  5
184
330
1F
100
AcDbEntity
  8
1
  6
Continuous
 62
     7
100
AcDbCircle
 10
160.181584066
 20
210.5835116765
 30
0.0
 40
3.999999999999915
  0
CIRCLE
  5
185
330
1F
100
AcDbEntity
  8
1
  6
Continuous
 62
     7
100
AcDbCircle
 10
114.6815840832
 20
82.78351167650001
 30
0.0
 40
3.999999999999901
  0
CIRCLE
  5
186
330
1F
100
AcDbEntity
  8
1
  6
Continuous
 62
     7
100
AcDbCircle
 10
114.6815840832
 20
210.5835116765
 30
0.0
 40
3.999999999999915
  0
CIRCLE
  5
187
330
1F
100
AcDbEntity
  8
0
  6
DASHED
 62
     2
100
AcDbCircle
 10
107.1815840832
 20
77.68351167649999
 30
0.0
 40
5.099999999999994
  0
CIRCLE
  5
188
330
1F
100
AcDbEntity
  8
0
  6
DASHED
 62
     2
100
AcDbCircle
 10
122.1815840832
 20
77.68351167649999
 30
0.0
 40
5.099999999999994
  0
CIRCLE
  5
189
330
1F
100
AcDbEntity
  8
0
  6
DASHED
 62
     2
100
AcDbCircle
 10
107.1815840832
 20
77.68351167649999
 30
0.0
 40
2.75
  0
CIRCLE
  5
18A
330
1F
100
AcDbEntity
  8
0
  6
DASHED
 62
     2
100
AcDbCircle
 10
122.1815840832
 20
77.68351167649999
 30
0.0
 40
2.75
  0
CIRCLE
  5
18B
330
1F
100
AcDbEntity
  8
0
  6
DASHED
 62
     2
100
AcDbCircle
 10
152.681584066
 20
215.6835116765
 30
0.0
 40
2.75
  0
CIRCLE
  5
18C
330
1F
100
AcDbEntity
  8
0
  6
DASHED
 62
     2
100
AcDbCircle
 10
167.681584066
 20
215.6835116765
 30
0.0
 40
2.75
  0
CIRCLE
  5
18D
330
1F
100
AcDbEntity
  8
0
  6
DASHED
 62
     2
100
AcDbCircle
 10
167.681584066
 20
215.6835116765
 30
0.0
 40
5.099999999999994
  0
CIRCLE
  5
18E
330
1F
100
AcDbEntity
  8
0
  6
DASHED
 62
     2
100
AcDbCircle
 10
152.681584066
 20
215.6835116765
 30
0.0
 40
5.099999999999994
  0
CIRCLE
  5
18F
330
1F
100
AcDbEntity
  8
0
  6
DASHED
 62
     2
100
AcDbCircle
 10
122.1815840832
 20
215.6835116765
 30
0.0
 40
2.75
  0
CIRCLE
  5
190
330
1F
100
AcDbEntity
  8
0
  6
DASHED
 62
     2
100
AcDbCircle
 10
107.1815840832
 20
215.6835116765
 30
0.0
 40
2.75
  0
CIRCLE
  5
191
330
1F
100
AcDbEntity
  8
0
  6
DASHED
 62
     2
100
AcDbCircle
 10
122.1815840832
 20
215.6835116765
 30
0.0
 40
5.099999999999994
  0
CIRCLE
  5
192
330
1F
100
AcDbEntity
  8
0
  6
DASHED
 62
     2
100
AcDbCircle
 10
107.1815840832
 20
215.6835116765
 30
0.0
 40
5.099999999999994
  0
SPLINE
  5
193
330
1F
100
AcDbEntity
  8
0
  6
Continuous
 62
     7
100
AcDbSpline
210
0.0
220
0.0
230
1.0
 70
     8
 71
     3
 72
    15
 73
    11
 74
     9
 42
0.0000000001
 43
0.0000000001
 44
0.00000001
 40
0.0
 40
0.0
 40
0.0
 40
0.0
 40
0.3598709892969784
 40
0.7195757035191346
 40
0.871986323425888
 40
1.024370603442641
 40
1.162004709833583
 40
1.299583252604344
 40
1.538021968147141
 40
1.776318883913251
 40
1.776318883913251
 40
1.776318883913251
 40
1.776318883913251
 10
123.9032576887
 20
135.0835116765
 30
0.0
 10
123.7830660600691
 20
135.0913342844055
 30
0.0
 10
123.5427383362418
 20
135.1069758858527
 30
0.0
 10
123.2663660769905
 20
135.2117028575127
 30
0.0
 10
123.0761632543629
 20
135.3256496414456
 30
0.0
 10
122.9598736700377
 20
135.4170788427095
 30
0.0
 10
122.8596759026464
 20
135.5191284438398
 30
0.0
 10
122.7576147818121
 20
135.6567436452339
 30
0.0
 10
122.6652859470978
 20
135.8443624535836
 30
0.0
 10
122.651226020709
 20
136.0038110776084
 30
0.0
 10
122.6441981485
 20
136.0835116765
 30
0.0
 11
123.9032576887
 21
135.0835116765
 31
0.0
 11
123.5457495559408
 21
135.1246828308269
 31
0.0
 11
123.2084243384
 21
135.2495795043002
 31
0.0
 11
123.07793840051
 21
135.3283349299757
 31
0.0
 11
122.9582798703001
 21
135.4226896062999
 31
0.0
 11
122.8621153531576
 21
135.5211555033646
 31
0.0
 11
122.7800918424998
 21
135.6316091095996
 31
0.0
 11
122.6796710595353
 21
135.8478698027884
 31
0.0
 11
122.6441981485
 21
136.0835116765
 31
0.0
  0
SPLINE
  5
194
330
1F
100
AcDbEntity
  8
0
  6
Continuous
 62
     7
100
AcDbSpline
210
0.0
220
0.0
230
1.0
 70
     8
 71
     3
 72
    15
 73
    11
 74
     9
 42
0.0000000001
 43
0.0000000001
 44
0.00000001
 40
0.0
 40
0.0
 40
0.0
 40
0.0
 40
0.2382969157656002
 40
0.4767356313084747
 40
0.6143141740801162
 40
0.7519482804701392
 40
0.9043325604844934
 40
1.056743180393082
 40
1.416447894626251
 40
1.776318883936832
 40
1.776318883936832
 40
1.776318883936832
 40
1.776318883936832
 10
122.6441981485
 20
157.2835116765
 30
0.0
 10
122.6512260207089
 20
157.3632122753914
 30
0.0
 10
122.6652859470975
 20
157.5226608994163
 30
0.0
 10
122.7576147818133
 20
157.7102797077653
 30
0.0
 10
122.8596759026448
 20
157.8478949091612
 30
0.0
 10
122.9598736700359
 20
157.949944510291
 30
0.0
 10
123.0761632543679
 20
158.0413737115468
 30
0.0
 10
123.2663660769935
 20
158.1553204954798
 30
0.0
 10
123.5427383362027
 20
158.2600474673073
 30
0.0
 10
123.7830660600558
 20
158.2756890686479
 30
0.0
 10
123.9032576887
 20
158.2835116765
 30
0.0
 11
122.6441981485
 21
157.2835116765
 31
0.0
 11
122.6796710595353
 21
157.5191535502111
 31
0.0
 11
122.7800918425
 21
157.7354142433999
 31
0.0
 11
122.8621153531568
 21
157.8458678496366
 31
0.0
 11
122.9582798702997
 21
157.9443337466998
 31
0.0
 11
123.0779384005119
 21
158.0386884230171
 31
0.0
 11
123.2084243383996
 21
158.1174438486999
 31
0.0
 11
123.5457495559157
 21
158.2423405222716
 31
0.0
 11
123.9032576887
 21
158.2835116765
 31
0.0
  0
SPLINE
  5
195
330
1F
100
AcDbEntity
  8
0
  6
Continuous
 62
     7
100
AcDbSpline
210
0.0
220
0.0
230
1.0
 70
     8
 71
     3
 72
    15
 73
    11
 74
     9
 42
0.0000000001
 43
0.0000000001
 44
0.00000001
 40
0.0
 40
0.0
 40
0.0
 40
0.0
 40
0.3642219842427076
 40
0.728282999794639
 40
0.8822922912036205
 40
1.036275622842517
 40
1.175213568578331
 40
1.3140958692801
 40
1.554285118691145
 40
1.794318854027729
 40
1.794318854027729
 40
1.794318854027729
 40
1.794318854027729
 10
150.9387769412
 20
136.3335116765
 30
0.0
 10
151.0604102484376
 20
136.3257722615425
 30
0.0
 10
151.3036231068107
 20
136.3102968520784
 30
0.0
 10
151.5838965757903
 20
136.206531458714
 30
0.0
 10
151.7774037433902
 20
136.0932154018187
 30
0.0
 10
151.8958908349355
 20
136.0021772098609
 30
0.0
 10
151.9982831983209
 20
135.9003181287365
 30
0.0
 10
152.1027549246794
 20
135.7627110145089
 30
0.0
 10
152.1977707412842
 20
135.5744415207839
 30
0.0
 10
152.212309393947
 20
135.4138042844895
 30
0.0
 10
152.2195763662
 20
135.3335116765
 30
0.0
 11
150.9387769412
 21
136.3335116765
 31
0.0
 11
151.3007098601943
 21
136.2927413937689
 31
0.0
 11
151.6430164558
 21
136.1687792316004
 31
0.0
 11
151.7756537362088
 21
136.0905090988162
 31
0.0
 11
151.8976142179
 21
135.9965064003003
 31
0.0
 11
151.9958333635843
 21
135.8982376250645
 31
0.0
 11
152.0798705383999
 21
135.7876661698998
 31
0.0
 11
152.1829944000223
 21
135.5707414255835
 31
0.0
 11
152.2195763662
 21
135.3335116765
 31
0.0
  0
SPLINE
  5
196
330
1F
100
AcDbEntity
  8
0
  6
Continuous
 62
     7
100
AcDbSpline
210
0.0
220
0.0
230
1.0
 70
     8
 71
     3
 72
    15
 73
    11
 74
     9
 42
0.0000000001
 43
0.0000000001
 44
0.00000001
 40
0.0
 40
0.0
 40
0.0
 40
0.0
 40
0.2400337352915692
 40
0.480222984657097
 40
0.6191052853573986
 40
0.758043231093436
 40
0.9120265627623133
 40
1.066035854197242
 40
1.430096869749424
 40
1.794318853991391
 40
1.794318853991391
 40
1.794318853991391
 40
1.794318853991391
 10
152.2195763662
 20
158.0335116765
 30
0.0
 10
152.2123093939538
 20
157.9532190685239
 30
0.0
 10
152.1977707413047
 20
157.7925818322564
 30
0.0
 10
152.1027549246705
 20
157.6043123385774
 30
0.0
 10
151.9982831983109
 20
157.4667052243725
 30
0.0
 10
151.8958908349248
 20
157.3648461432366
 30
0.0
 10
151.7774037433942
 20
157.2738079512313
 30
0.0
 10
151.5838965758119
 20
157.160491894264
 30
0.0
 10
151.3036231068053
 20
157.0567265009331
 30
0.0
 10
151.0604102484357
 20
157.0412510914614
 30
0.0
 10
150.9387769412
 20
157.0335116765
 30
0.0
 11
152.2195763662
 21
158.0335116765
 31
0.0
 11
152.1829944000343
 21
157.7962819274602
 31
0.0
 11
152.0798705384001
 21
157.5793571831999
 31
0.0
 11
151.9958333635771
 21
157.4687857280427
 31
0.0
 11
151.8976142178998
 21
157.3705169527996
 31
0.0
 11
151.7756537362102
 21
157.2765142542326
 31
0.0
 11
151.6430164558
 21
157.1982441213997
 31
0.0
 11
151.3007098601933
 21
157.074281959233
 31
0.0
 11
150.9387769412
 21
157.0335116765
 31
0.0
  0
XLINE
  5
197
330
1F
100
AcDbEntity
  8
1
  6
DOT_CENTER
 62
     3
 60
     1
100
AcDbXline
 10
146.24149078485
 20
169.3335116765
 30
0.0
 11
0.0
 21
1.0
 31
0.0
  0
XLINE
  5
198
330
1F
100
AcDbEntity
  8
1
  6
DOT_CENTER
 62
     3
 60
     1
100
AcDbXline
 10
146.181584066
 20
169.3335116765
 30
0.0
 11
-1.0
 21
0.0
 31
0.0
  0
MTEXT
  5
19A
330
1F
100
AcDbEntity
  8
1
 62
     2
100
AcDbMText
 10
93.4008444015257
 20
149.876345747052
 30
0.0
 40
2.5
 41
0.0
 71
     5
 72
     1
  1
BBL
  7
CONVERTER_11
 73
     1
 44
1.32052821128451
  0
DIMENSION
  5
1A5
330
1F
100
AcDbEntity
  8
1
100
AcDbDimension
  2
*D1
 10
185.672222555547
 20
226.6835116765
 30
0.0
 11
181.922222555547
 21
145.9429745473295
 31
0.0
 70
    32
  1
<>
 71
     5
 42
-1.0
 53
90.0
  3
ME10_DIM_10
100
AcDbAlignedDimension
 13
160.181584066
 23
66.68351167649999
 33
0.0
 14
160.181584066
 24
226.6835116765
 34
0.0
 50
90.0
100
AcDbRotatedDimension
  0
DIMENSION
  5
1B0
330
1F
100
AcDbEntity
  8
1
100
AcDbDimension
  2
*D2
 10
100.6815840832
 20
56.6970978751457
 30
0.0
 11
114.6815840832
 21
60.4470978751457
 31
0.0
 70
    32
  1
<>
 71
     5
 42
-1.0
 53
0.00013888888889
  3
ME10_DIM_11
100
AcDbAlignedDimension
 13
128.6815840832
 23
80.68351167649999
 33
0.0
 14
100.6815840832
 24
80.68351167649999
 34
0.0
100
AcDbRotatedDimension
  0
DIMENSION
  5
1BB
330
1F
100
AcDbEntity
  8
1
100
AcDbDimension
  2
*D3
 10
146.1815840659999
 20
56.8043208598031
 30
0.0
 11
160.0740177445122
 21
60.5543208598031
 31
0.0
 70
    32
  1
<>
 71
     5
 42
-1.0
 53
0.00013888888889
  3
ME10_DIM_12
100
AcDbAlignedDimension
 13
174.181584066
 23
80.68351167649999
 33
0.0
 14
146.181584066
 24
80.68351167649999
 34
0.0
100
AcDbRotatedDimension
  0
DIMENSION
  5
1C6
330
1F
100
AcDbEntity
  8
1
100
AcDbDimension
  2
*D4
 10
128.6815840832
 20
56.8043208598031
 30
0.0
 11
137.2384970521759
 21
60.5543208598031
 31
0.0
 70
    32
  1
<>
 71
     5
 42
-1.0
 53
0.00013888888889
  3
ME10_DIM_13
100
AcDbAlignedDimension
 13
146.181584066
 23
80.68351167649999
 33
0.0
 14
128.6815840832
 24
80.68351167649999
 34
0.0
100
AcDbRotatedDimension
  0
ENDSEC
  0
SECTION
  2
OBJECTS
  0
DICTIONARY
  5
C
330
0
100
AcDbDictionary
281
     1
  3
ACAD_GROUP
350
D
  3
ACAD_LAYOUT
350
1A
  3
ACAD_MLINESTYLE
350
17
  3
ACAD_PLOTSETTINGS
350
19
  3
ACAD_PLOTSTYLENAME
350
E
  0
DICTIONARY
  5
D
102
{ACAD_REACTORS
330
C
102
}
330
C
100
AcDbDictionary
281
     1
  0
DICTIONARY
  5
1A
102
{ACAD_REACTORS
330
C
102
}
330
C
100
AcDbDictionary
281
     1
  3
Layout1
350
1E
  3
Layout2
350
26
  3
Model
350
22
  0
DICTIONARY
  5
17
102
{ACAD_REACTORS
330
C
102
}
330
C
100
AcDbDictionary
281
     1
  3
Standard
350
18
  0
DICTIONARY
  5
19
102
{ACAD_REACTORS
330
C
102
}
330
C
100
AcDbDictionary
281
     1
  0
ACDBDICTIONARYWDFLT
  5
E
102
{ACAD_REACTORS
330
C
102
}
330
C
100
AcDbDictionary
281
     1
  3
Normal
350
F
100
AcDbDictionaryWithDefault
340
F
  0
LAYOUT
  5
1E
102
{ACAD_REACTORS
330
1A
102
}
330
1A
100
AcDbPlotSettings
  1

  2

  4

  6

 40
0.0
 41
0.0
 42
0.0
 43
0.0
 44
0.0
 45
0.0
 46
0.0
 47
0.0
 48
0.0
 49
0.0
140
0.0
141
0.0
142
1.0
143
1.0
 70
   688
 72
     0
 73
     0
 74
     5
  7

 75
    16
 76
     0
 77
     2
 78
   300
147
1.0
148
0.0
149
0.0
100
AcDbLayout
  1
Layout1
 70
     1
 71
     1
 10
0.0
 20
0.0
 11
0.0
 21
0.0
 12
0.0
 22
0.0
 32
0.0
 14
0.0
 24
0.0
 34
0.0
 15
0.0
 25
0.0
 35
0.0
146
0.0
 13
0.0
 23
0.0
 33
0.0
 16
1.0
 26
0.0
 36
0.0
 17
0.0
 27
1.0
 37
0.0
 76
     0
330
1B
  0
LAYOUT
  5
26
102
{ACAD_REACTORS
330
1A
102
}
330
1A
100
AcDbPlotSettings
  1

  2

  4

  6

 40
0.0
 41
0.0
 42
0.0
 43
0.0
 44
0.0
 45
0.0
 46
0.0
 47
0.0
 48
0.0
 49
0.0
140
0.0
141
0.0
142
1.0
143
1.0
 70
   688
 72
     0
 73
     0
 74
     5
  7

 75
    16
 76
     0
 77
     2
 78
   300
147
1.0
148
0.0
149
0.0
100
AcDbLayout
  1
Layout2
 70
     1
 71
     2
 10
0.0
 20
0.0
 11
0.0
 21
0.0
 12
0.0
 22
0.0
 32
0.0
 14
0.0
 24
0.0
 34
0.0
 15
0.0
 25
0.0
 35
0.0
146
0.0
 13
0.0
 23
0.0
 33
0.0
 16
1.0
 26
0.0
 36
0.0
 17
0.0
 27
1.0
 37
0.0
 76
     0
330
23
  0
LAYOUT
  5
22
102
{ACAD_REACTORS
330
1A
102
}
330
1A
100
AcDbPlotSettings
  1

  2

  4

  6

 40
0.0
 41
0.0
 42
0.0
 43
0.0
 44
0.0
 45
0.0
 46
0.0
 47
0.0
 48
0.0
 49
0.0
140
0.0
141
0.0
142
1.0
143
1.0
 70
  1712
 72
     0
 73
     0
 74
     0
  7

 75
     0
 76
     0
 77
     2
 78
   300
147
1.0
148
0.0
149
0.0
100
AcDbLayout
  1
Model
 70
     1
 71
     0
 10
0.0
 20
0.0
 11
0.0
 21
0.0
 12
0.0
 22
0.0
 32
0.0
 14
86.2454687302768
 24
54.6970978751457
 34
0.0
 15
187.672222555547
 25
226.6835116765
 35
0.0
146
0.0
 13
0.0
 23
0.0
 33
0.0
 16
1.0
 26
0.0
 36
0.0
 17
0.0
 27
1.0
 37
0.0
 76
     0
330
1F
  0
MLINESTYLE
  5
18
102
{ACAD_REACTORS
330
17
102
}
330
17
100
AcDbMlineStyle
  2
Standard
 70
     0
  3

 62
   256
 51
90.0
 52
90.0
 71
     2
 49
0.5
 62
   256
  6
BYLAYER
 49
-0.5
 62
   256
  6
BYLAYER
  0
ACDBPLACEHOLDER
  5
F
102
{ACAD_REACTORS
330
E
102
}
330
E
  0
ENDSEC
  0
EOF
