  0
SECTION
  2
HEADER
  9
$ACADVER
  1
AC1018
  9
$ACADMAINTVER
 70
     0
  9
$DWGCODEPAGE
  3
ANSI_1252
  9
$INSBASE
 10
0.0
 20
0.0
 30
0.0
  9
$EXTMIN
 10
221.6971003121248
 20
107.8782104108829
 30
0.0
  9
$EXTMAX
 10
344.394844390742
 20
206.9230765075409
 30
0.0
  9
$LIMMIN
 10
0.0
 20
0.0
  9
$LIMMAX
 10
12.0
 20
9.0
  9
$ORTHOMODE
 70
     0
  9
$REGENMODE
 70
     1
  9
$FILLMODE
 70
     1
  9
$QTEXTMODE
 70
     0
  9
$MIRRTEXT
 70
     1
  9
$LTSCALE
 40
1.0
  9
$ATTMODE
 70
     1
  9
$TEXTSIZE
 40
0.2
  9
$TRACEWID
 40
0.05
  9
$TEXTSTYLE
  7
Standard
  9
$CLAYER
  8
0
  9
$CELTYPE
  6
ByLayer
  9
$CECOLOR
 62
   256
  9
$CELTSCALE
 40
1.0
  9
$DISPSILH
 70
     0
  9
$DIMSCALE
 40
1.0
  9
$DIMASZ
 40
0.18
  9
$DIMEXO
 40
0.0625
  9
$DIMDLI
 40
0.38
  9
$DIMRND
 40
0.0
  9
$DIMDLE
 40
0.0
  9
$DIMEXE
 40
0.18
  9
$DIMTP
 40
0.0
  9
$DIMTM
 40
0.0
  9
$DIMTXT
 40
0.18
  9
$DIMCEN
 40
0.09
  9
$DIMTSZ
 40
0.0
  9
$DIMTOL
 70
     0
  9
$DIMLIM
 70
     0
  9
$DIMTIH
 70
     1
  9
$DIMTOH
 70
     1
  9
$DIMSE1
 70
     0
  9
$DIMSE2
 70
     0
  9
$DIMTAD
 70
     0
  9
$DIMZIN
 70
     0
  9
$DIMBLK
  1

  9
$DIMASO
 70
     1
  9
$DIMSHO
 70
     1
  9
$DIMPOST
  1

  9
$DIMAPOST
  1

  9
$DIMALT
 70
     0
  9
$DIMALTD
 70
     2
  9
$DIMALTF
 40
25.4
  9
$DIMLFAC
 40
1.0
  9
$DIMTOFL
 70
     0
  9
$DIMTVP
 40
0.0
  9
$DIMTIX
 70
     0
  9
$DIMSOXD
 70
     0
  9
$DIMSAH
 70
     0
  9
$DIMBLK1
  1

  9
$DIMBLK2
  1

  9
$DIMSTYLE
  2
Standard
  9
$DIMCLRD
 70
     0
  9
$DIMCLRE
 70
     0
  9
$DIMCLRT
 70
     0
  9
$DIMTFAC
 40
1.0
  9
$DIMGAP
 40
0.09
  9
$DIMJUST
 70
     0
  9
$DIMSD1
 70
     0
  9
$DIMSD2
 70
     0
  9
$DIMTOLJ
 70
     1
  9
$DIMTZIN
 70
     0
  9
$DIMALTZ
 70
     0
  9
$DIMALTTZ
 70
     0
  9
$DIMUPT
 70
     0
  9
$DIMDEC
 70
     4
  9
$DIMTDEC
 70
     4
  9
$DIMALTU
 70
     2
  9
$DIMALTTD
 70
     2
  9
$DIMTXSTY
  7
Standard
  9
$DIMAUNIT
 70
     0
  9
$DIMADEC
 70
     0
  9
$DIMALTRND
 40
0.0
  9
$DIMAZIN
 70
     0
  9
$DIMDSEP
 70
    46
  9
$DIMATFIT
 70
     3
  9
$DIMFRAC
 70
     0
  9
$DIMLDRBLK
  1

  9
$DIMLUNIT
 70
     2
  9
$DIMLWD
 70
    -2
  9
$DIMLWE
 70
    -2
  9
$DIMTMOVE
 70
     0
  9
$LUNITS
 70
     2
  9
$LUPREC
 70
     4
  9
$SKETCHINC
 40
0.1
  9
$FILLETRAD
 40
0.5
  9
$AUNITS
 70
     0
  9
$AUPREC
 70
     0
  9
$MENU
  1
.
  9
$ELEVATION
 40
0.0
  9
$PELEVATION
 40
0.0
  9
$THICKNESS
 40
0.0
  9
$LIMCHECK
 70
     0
  9
$CHAMFERA
 40
0.5
  9
$CHAMFERB
 40
0.5
  9
$CHAMFERC
 40
1.0
  9
$CHAMFERD
 40
0.0
  9
$SKPOLY
 70
     0
  9
$TDCREATE
 40
2455841.334547928
  9
$TDUCREATE
 40
2455841.251214595
  9
$TDUPDATE
 40
2455841.33454794
  9
$TDUUPDATE
 40
2455841.251214607
  9
$TDINDWG
 40
0.0000000116
  9
$TDUSRTIMER
 40
0.0000000116
  9
$USRTIMER
 70
     1
  9
$ANGBASE
 50
0.0
  9
$ANGDIR
 70
     0
  9
$PDMODE
 70
     0
  9
$PDSIZE
 40
0.0
  9
$PLINEWID
 40
0.0
  9
$SPLFRAME
 70
     0
  9
$SPLINETYPE
 70
     6
  9
$SPLINESEGS
 70
     8
  9
$HANDSEED
  5
1B2
  9
$SURFTAB1
 70
     6
  9
$SURFTAB2
 70
     6
  9
$SURFTYPE
 70
     6
  9
$SURFU
 70
     6
  9
$SURFV
 70
     6
  9
$UCSBASE
  2

  9
$UCSNAME
  2

  9
$UCSORG
 10
0.0
 20
0.0
 30
0.0
  9
$UCSXDIR
 10
1.0
 20
0.0
 30
0.0
  9
$UCSYDIR
 10
0.0
 20
1.0
 30
0.0
  9
$UCSORTHOREF
  2

  9
$UCSORTHOVIEW
 70
     0
  9
$UCSORGTOP
 10
0.0
 20
0.0
 30
0.0
  9
$UCSORGBOTTOM
 10
0.0
 20
0.0
 30
0.0
  9
$UCSORGLEFT
 10
0.0
 20
0.0
 30
0.0
  9
$UCSORGRIGHT
 10
0.0
 20
0.0
 30
0.0
  9
$UCSORGFRONT
 10
0.0
 20
0.0
 30
0.0
  9
$UCSORGBACK
 10
0.0
 20
0.0
 30
0.0
  9
$PUCSBASE
  2

  9
$PUCSNAME
  2

  9
$PUCSORG
 10
0.0
 20
0.0
 30
0.0
  9
$PUCSXDIR
 10
1.0
 20
0.0
 30
0.0
  9
$PUCSYDIR
 10
0.0
 20
1.0
 30
0.0
  9
$PUCSORTHOREF
  2

  9
$PUCSORTHOVIEW
 70
     0
  9
$PUCSORGTOP
 10
0.0
 20
0.0
 30
0.0
  9
$PUCSORGBOTTOM
 10
0.0
 20
0.0
 30
0.0
  9
$PUCSORGLEFT
 10
0.0
 20
0.0
 30
0.0
  9
$PUCSORGRIGHT
 10
0.0
 20
0.0
 30
0.0
  9
$PUCSORGFRONT
 10
0.0
 20
0.0
 30
0.0
  9
$PUCSORGBACK
 10
0.0
 20
0.0
 30
0.0
  9
$USERI1
 70
     0
  9
$USERI2
 70
     0
  9
$USERI3
 70
     0
  9
$USERI4
 70
     0
  9
$USERI5
 70
     0
  9
$USERR1
 40
14.5
  9
$USERR2
 40
0.0
  9
$USERR3
 40
0.0
  9
$USERR4
 40
0.0
  9
$USERR5
 40
0.0
  9
$WORLDVIEW
 70
     1
  9
$SHADEDGE
 70
     3
  9
$SHADEDIF
 70
    70
  9
$TILEMODE
 70
     1
  9
$MAXACTVP
 70
    64
  9
$PINSBASE
 10
0.0
 20
0.0
 30
0.0
  9
$PLIMCHECK
 70
     0
  9
$PEXTMIN
 10
1.00000000000000E+20
 20
1.00000000000000E+20
 30
1.00000000000000E+20
  9
$PEXTMAX
 10
-1.00000000000000E+20
 20
-1.00000000000000E+20
 30
-1.00000000000000E+20
  9
$PLIMMIN
 10
0.0
 20
0.0
  9
$PLIMMAX
 10
12.0
 20
9.0
  9
$UNITMODE
 70
     0
  9
$VISRETAIN
 70
     1
  9
$PLINEGEN
 70
     0
  9
$PSLTSCALE
 70
     1
  9
$TREEDEPTH
 70
  3020
  9
$CMLSTYLE
  2
Standard
  9
$CMLJUST
 70
     0
  9
$CMLSCALE
 40
1.0
  9
$PROXYGRAPHICS
 70
     1
  9
$MEASUREMENT
 70
     1
  9
$CELWEIGHT
370
    -1
  9
$ENDCAPS
280
     0
  9
$JOINSTYLE
280
     0
  9
$LWDISPLAY
290
     0
  9
$INSUNITS
 70
     1
  9
$HYPERLINKBASE
  1

  9
$STYLESHEET
  1

  9
$XEDIT
290
     1
  9
$CEPSNTYPE
380
     0
  9
$PSTYLEMODE
290
     1
  9
$FINGERPRINTGUID
  2
{FA20B506-A9AA-4D66-8203-3BC467BA2718}
  9
$VERSIONGUID
  2
{FAEB1C32-E019-11D5-929B-00C0DF256EC4}
  9
$EXTNAMES
290
     1
  9
$PSVPSCALE
 40
0.0
  9
$OLESTARTUP
290
     0
  9
$SORTENTS
280
   127
  9
$INDEXCTL
280
     0
  9
$HIDETEXT
280
     1
  9
$XCLIPFRAME
290
     0
  9
$HALOGAP
280
     0
  9
$OBSCOLOR
 70
   257
  9
$OBSLTYPE
280
     0
  9
$INTERSECTIONDISPLAY
280
     0
  9
$INTERSECTIONCOLOR
 70
   257
  9
$DIMASSOC
280
     2
  9
$PROJECTNAME
  1

  0
ENDSEC
  0
SECTION
  2
CLASSES
  0
CLASS
  1
ACDBDICTIONARYWDFLT
  2
AcDbDictionaryWithDefault
  3
ObjectDBX Classes
 90
        0
 91
        3
280
     0
281
     0
  0
CLASS
  1

  2
exOdDbCircle
  3

 90
        0
 91
        3
280
     0
281
     1
  0
CLASS
  1

  2
exOdDbSpline
  3

 90
        0
 91
        3
280
     0
281
     1
  0
ENDSEC
  0
SECTION
  2
TABLES
  0
TABLE
  2
VPORT
  5
8
330
0
100
AcDbSymbolTable
 70
     1
  0
VPORT
  5
29
330
8
100
AcDbSymbolTableRecord
100
AcDbViewportTableRecord
  2
*Active
 70
     0
 10
0.0
 20
0.0
 11
1.0
 21
1.0
 12
283.0459723514334
 22
157.4006434592119
 13
0.0
 23
0.0
 14
0.5
 24
0.5
 15
0.5
 25
0.5
 16
0.0
 26
0.0
 36
1.0
 17
0.0
 27
0.0
 37
0.0
 40
108.9493527063238
 41
1.60267857142857
 42
50.0
 43
0.0
 44
0.0
 50
0.0
 51
0.0
 71
     0
 72
   100
 73
     1
 74
     3
 75
     0
 76
     0
 77
     0
 78
     0
281
     0
 65
     1
110
0.0
120
0.0
130
0.0
111
1.0
121
0.0
131
0.0
112
0.0
122
1.0
132
0.0
 79
     0
146
0.0
  0
ENDTAB
  0
TABLE
  2
LTYPE
  5
5
330
0
100
AcDbSymbolTable
 70
     8
  0
LTYPE
  5
14
330
5
100
AcDbSymbolTableRecord
100
AcDbLinetypeTableRecord
  2
ByBlock
 70
     0
  3

 72
    65
 73
     0
 40
0.0
  0
LTYPE
  5
15
330
5
100
AcDbSymbolTableRecord
100
AcDbLinetypeTableRecord
  2
ByLayer
 70
     0
  3

 72
    65
 73
     0
 40
0.0
  0
LTYPE
  5
16
330
5
100
AcDbSymbolTableRecord
100
AcDbLinetypeTableRecord
  2
Continuous
 70
     0
  3
Solid line
 72
    65
 73
     0
 40
0.0
  0
LTYPE
  5
2A
330
5
100
AcDbSymbolTableRecord
100
AcDbLinetypeTableRecord
  2
DASHED
 70
     0
  3
Dashed
 72
    65
 73
     2
 40
15.0
 49
7.0
 74
     0
 49
-8.0
 74
     0
  0
LTYPE
  5
2B
330
5
100
AcDbSymbolTableRecord
100
AcDbLinetypeTableRecord
  2
DOTTED
 70
     0
  3
Dotted
 72
    65
 73
     2
 40
1.0
 49
0.0
 74
     0
 49
-1.0
 74
     0
  0
LTYPE
  5
2C
330
5
100
AcDbSymbolTableRecord
100
AcDbLinetypeTableRecord
  2
DOT_CENTER
 70
     0
  3
Dot_Center
 72
    65
 73
     4
 40
14.0
 49
12.0
 74
     0
 49
-1.0
 74
     0
 49
0.0
 74
     0
 49
-1.0
 74
     0
  0
LTYPE
  5
2D
330
5
100
AcDbSymbolTableRecord
100
AcDbLinetypeTableRecord
  2
LONG_DASHED
 70
     0
  3
Long_Dashed
 72
    65
 73
     2
 40
15.0
 49
10.0
 74
     0
 49
-5.0
 74
     0
  0
LTYPE
  5
2E
330
5
100
AcDbSymbolTableRecord
100
AcDbLinetypeTableRecord
  2
DASH_CENTER
 70
     0
  3
Dash_Center
 72
    65
 73
     4
 40
14.0
 49
11.0
 74
     0
 49
-1.0
 74
     0
 49
1.0
 74
     0
 49
-1.0
 74
     0
  0
LTYPE
  5
2F
330
5
100
AcDbSymbolTableRecord
100
AcDbLinetypeTableRecord
  2
PHANTOM
 70
     0
  3
Phantom
 72
    65
 73
     6
 40
13.0
 49
10.0
 74
     0
 49
-1.0
 74
     0
 49
0.0
 74
     0
 49
-1.0
 74
     0
 49
0.0
 74
     0
 49
-1.0
 74
     0
  0
LTYPE
  5
30
330
5
100
AcDbSymbolTableRecord
100
AcDbLinetypeTableRecord
  2
CENTER_DASH_DASH
 70
     0
  3
Center_Dash_Dash
 72
    65
 73
     6
 40
14.0
 49
9.0
 74
     0
 49
-1.0
 74
     0
 49
1.0
 74
     0
 49
-1.0
 74
     0
 49
1.0
 74
     0
 49
-1.0
 74
     0
  0
ENDTAB
  0
TABLE
  2
LAYER
  5
2
330
0
100
AcDbSymbolTable
 70
     2
  0
LAYER
  5
10
330
2
100
AcDbSymbolTableRecord
100
AcDbLayerTableRecord
  2
0
 70
     0
 62
     7
  6
Continuous
370
    -3
390
F
  0
LAYER
  5
31
330
2
100
AcDbSymbolTableRecord
100
AcDbLayerTableRecord
  2
1
 70
     0
 62
     7
  6
Continuous
370
    -3
390
F
  0
ENDTAB
  0
TABLE
  2
STYLE
  5
3
330
0
100
AcDbSymbolTable
 70
     2
  0
STYLE
  5
11
330
3
100
AcDbSymbolTableRecord
100
AcDbTextStyleTableRecord
  2
Standard
 70
     0
 40
0.0
 41
1.0
 50
0.0
 71
     0
 42
0.2
  3
txt
  4

  0
STYLE
  5
157
330
3
100
AcDbSymbolTableRecord
100
AcDbTextStyleTableRecord
  2
CONVERTER_11
 70
     0
 40
0.0
 41
0.9
 50
0.0
 71
     0
 42
0.2
  3
txt.shx
  4

  0
ENDTAB
  0
TABLE
  2
VIEW
  5
6
330
0
100
AcDbSymbolTable
 70
     0
  0
ENDTAB
  0
TABLE
  2
UCS
  5
7
330
0
100
AcDbSymbolTable
 70
     0
  0
ENDTAB
  0
TABLE
  2
APPID
  5
9
330
0
100
AcDbSymbolTable
 70
     1
  0
APPID
  5
12
330
9
100
AcDbSymbolTableRecord
100
AcDbRegAppTableRecord
  2
ACAD
 70
     0
  0
ENDTAB
  0
TABLE
  2
DIMSTYLE
  5
A
330
0
100
AcDbSymbolTable
 70
     9
100
AcDbDimStyleTable
  0
DIMSTYLE
105
27
330
A
100
AcDbSymbolTableRecord
100
AcDbDimStyleTableRecord
  2
Standard
 70
     0
340
11
  0
DIMSTYLE
105
15B
102
{ACAD_REACTORS
330
15C
102
}
330
A
100
AcDbSymbolTableRecord
100
AcDbDimStyleTableRecord
  2
ME10_DIM_10
 70
     0
 41
3.5
 42
0.0
 44
2.0
 73
     0
 74
     0
 77
     1
 78
     8
140
3.5
147
2.0
172
     1
173
     1
176
     2
177
     2
178
     2
271
     3
340
157
  0
DIMSTYLE
105
166
102
{ACAD_REACTORS
330
167
102
}
330
A
100
AcDbSymbolTableRecord
100
AcDbDimStyleTableRecord
  2
ME10_DIM_11
 70
     0
 41
3.5
 42
0.0
 44
2.0
 73
     0
 74
     0
 77
     1
 78
     8
140
3.5
147
2.0
172
     1
173
     1
176
     2
177
     2
178
     2
271
     3
340
157
  0
DIMSTYLE
105
173
102
{ACAD_REACTORS
330
174
102
}
330
A
100
AcDbSymbolTableRecord
100
AcDbDimStyleTableRecord
  2
ME10_DIM_12
 70
     0
 41
3.5
 42
0.0
 44
2.0
 73
     0
 74
     0
 77
     1
 78
     8
140
3.5
147
2.0
172
     1
173
     1
176
     2
177
     2
178
     2
271
     3
340
157
  0
DIMSTYLE
105
17E
102
{ACAD_REACTORS
330
17F
102
}
330
A
100
AcDbSymbolTableRecord
100
AcDbDimStyleTableRecord
  2
ME10_DIM_13
 70
     0
 41
3.5
 42
0.0
 44
2.0
 73
     0
 74
     0
 77
     1
 78
     8
140
3.5
147
2.0
172
     1
173
     1
176
     2
177
     2
178
     2
271
     3
340
157
  0
DIMSTYLE
105
18B
102
{ACAD_REACTORS
330
18C
102
}
330
A
100
AcDbSymbolTableRecord
100
AcDbDimStyleTableRecord
  2
ME10_DIM_14
 70
     0
 41
3.5
 42
0.0
 44
2.0
 73
     0
 74
     0
 77
     1
 78
     8
140
3.5
147
2.0
172
     1
173
     1
176
     2
177
     2
178
     2
271
     3
340
157
  0
DIMSTYLE
105
196
102
{ACAD_REACTORS
330
197
102
}
330
A
100
AcDbSymbolTableRecord
100
AcDbDimStyleTableRecord
  2
ME10_DIM_15
 70
     0
 41
3.5
 42
0.0
 44
2.0
 73
     0
 74
     0
 77
     1
 78
     8
140
3.5
147
2.0
172
     1
173
     1
176
     2
177
     2
178
     2
271
     3
340
157
  0
DIMSTYLE
105
1A2
102
{ACAD_REACTORS
330
1A3
102
}
330
A
100
AcDbSymbolTableRecord
100
AcDbDimStyleTableRecord
  2
ME10_DIM_16
 70
     0
 41
3.5
 42
0.0
 44
2.0
 73
     0
 74
     0
 77
     1
 78
     8
140
3.5
147
2.0
172
     1
173
     1
176
     2
177
     2
178
     2
271
     3
340
157
  0
DIMSTYLE
105
1B0
102
{ACAD_REACTORS
330
1B1
102
}
330
A
100
AcDbSymbolTableRecord
100
AcDbDimStyleTableRecord
  2
ME10_DIM_17
 70
     0
 41
3.5
 42
0.0
 44
2.0
 73
     0
 74
     0
 77
     1
 78
     8
140
3.5
147
2.0
172
     1
173
     1
176
     2
177
     2
178
     2
271
     3
340
157
  0
ENDTAB
  0
TABLE
  2
BLOCK_RECORD
  5
1
330
0
100
AcDbSymbolTable
 70
     9
  0
BLOCK_RECORD
  5
1F
330
1
100
AcDbSymbolTableRecord
100
AcDbBlockTableRecord
  2
*Model_Space
340
22
  0
BLOCK_RECORD
  5
1B
330
1
100
AcDbSymbolTableRecord
100
AcDbBlockTableRecord
  2
*Paper_Space
340
1E
  0
BLOCK_RECORD
  5
23
330
1
100
AcDbSymbolTableRecord
100
AcDbBlockTableRecord
  2
*Paper_Space0
340
26
  0
BLOCK_RECORD
  5
14F
330
1
100
AcDbSymbolTableRecord
100
AcDbBlockTableRecord
  2
*D1
340
0
  0
BLOCK_RECORD
  5
15D
330
1
100
AcDbSymbolTableRecord
100
AcDbBlockTableRecord
  2
*D2
340
0
  0
BLOCK_RECORD
  5
168
330
1
100
AcDbSymbolTableRecord
100
AcDbBlockTableRecord
  2
*D3
340
0
  0
BLOCK_RECORD
  5
175
330
1
100
AcDbSymbolTableRecord
100
AcDbBlockTableRecord
  2
*D4
340
0
  0
BLOCK_RECORD
  5
180
330
1
100
AcDbSymbolTableRecord
100
AcDbBlockTableRecord
  2
*D5
340
0
  0
BLOCK_RECORD
  5
18D
330
1
100
AcDbSymbolTableRecord
100
AcDbBlockTableRecord
  2
*D6
340
0
  0
BLOCK_RECORD
  5
198
330
1
100
AcDbSymbolTableRecord
100
AcDbBlockTableRecord
  2
*D7
340
0
  0
BLOCK_RECORD
  5
1A4
330
1
100
AcDbSymbolTableRecord
100
AcDbBlockTableRecord
  2
*D8
340
0
  0
ENDTAB
  0
ENDSEC
  0
SECTION
  2
BLOCKS
  0
BLOCK
  5
20
330
1F
100
AcDbEntity
  8
0
100
AcDbBlockBegin
  2
*Model_Space
 70
     0
 71
     0
 10
0.0
 20
0.0
 30
0.0
  3
*Model_Space
  1

  0
ENDBLK
  5
21
330
1F
100
AcDbEntity
  8
0
100
AcDbBlockEnd
  0
BLOCK
  5
1C
330
1B
100
AcDbEntity
 67
     1
  8
0
100
AcDbBlockBegin
  2
*Paper_Space
 70
     0
 71
     0
 10
0.0
 20
0.0
 30
0.0
  3
*Paper_Space
  1

  0
ENDBLK
  5
1D
330
1B
100
AcDbEntity
 67
     1
  8
0
100
AcDbBlockEnd
  0
BLOCK
  5
24
330
23
100
AcDbEntity
  8
0
100
AcDbBlockBegin
  2
*Paper_Space0
 70
     0
 71
     0
 10
0.0
 20
0.0
 30
0.0
  3
*Paper_Space0
  1

  0
ENDBLK
  5
25
330
23
100
AcDbEntity
  8
0
100
AcDbBlockEnd
  0
BLOCK
  5
159
330
14F
100
AcDbEntity
  8
0
100
AcDbBlockBegin
  2
*D1
 70
     1
 71
     0
 10
0.0
 20
0.0
 30
0.0
  3
*D1
  1

  0
LINE
  5
150
330
14F
100
AcDbEntity
  8
1
  6
Continuous
 62
     2
100
AcDbLine
 10
269.0131708925338
 20
120.4831856226499
 30
0.0
 11
277.9921194702114
 21
120.4831856226499
 31
0.0
  0
LINE
  5
151
330
14F
100
AcDbEntity
  8
1
  6
Continuous
 62
     2
100
AcDbLine
 10
277.9921194702114
 20
120.4831856226499
 30
0.0
 11
281.4921194702111
 21
120.4831856226499
 31
0.0
  0
LINE
  5
152
330
14F
100
AcDbEntity
  8
1
  6
Continuous
 62
     2
100
AcDbLine
 10
281.4921194702111
 20
120.4831856226499
 30
0.0
 11
288.4921194702111
 21
120.4831856226499
 31
0.0
  0
LINE
  5
153
330
14F
100
AcDbEntity
  8
1
  6
Continuous
 62
     2
100
AcDbLine
 10
277.9921194702114
 20
132.6342333948953
 30
0.0
 11
277.9921194702114
 21
118.4831856226499
 31
0.0
  0
LINE
  5
154
330
14F
100
AcDbEntity
  8
1
  6
Continuous
 62
     2
100
AcDbLine
 10
281.4921194702111
 20
131.1342333948952
 30
0.0
 11
281.4921194702111
 21
118.4831856226499
 31
0.0
  0
SOLID
  5
155
330
14F
100
AcDbEntity
  8
1
 62
     2
100
AcDbTrace
 10
274.4921194702114
 20
120.022401881094
 30
0.0
 11
274.4921194702114
 21
120.9439693642058
 31
0.0
 12
277.9921194702114
 22
120.4831856226499
 32
0.0
 13
277.9921194702114
 23
120.4831856226499
 33
0.0
  0
SOLID
  5
156
330
14F
100
AcDbEntity
  8
1
 62
     2
100
AcDbTrace
 10
284.9921194702111
 20
120.9439693642058
 30
0.0
 11
284.9921194702111
 21
120.022401881094
 31
0.0
 12
281.4921194702111
 22
120.4831856226499
 32
0.0
 13
281.4921194702111
 23
120.4831856226499
 33
0.0
  0
MTEXT
  5
158
330
14F
100
AcDbEntity
  8
1
 62
     2
100
AcDbMText
 10
269.0131708925338
 20
122.4831856226499
 30
0.0
 40
3.5
 41
0.0
 71
     7
 72
     1
  1
3.5
  7
CONVERTER_11
 11
0.9999999999970621
 21
2.424068405545307E-6
 31
0.0
 73
     1
 44
0.60024009603842
  0
ENDBLK
  5
15A
330
14F
100
AcDbEntity
  8
0
100
AcDbBlockEnd
  0
BLOCK
  5
164
330
15D
100
AcDbEntity
  8
0
100
AcDbBlockBegin
  2
*D2
 70
     1
 71
     0
 10
0.0
 20
0.0
 30
0.0
  3
*D2
  1

  0
LINE
  5
15E
330
15D
100
AcDbEntity
  8
1
  6
Continuous
 62
     2
100
AcDbLine
 10
281.4921194702112
 20
109.8782104108829
 30
0.0
 11
314.9921194702114
 21
109.8782104108829
 31
0.0
  0
LINE
  5
15F
330
15D
100
AcDbEntity
  8
1
  6
Continuous
 62
     2
100
AcDbLine
 10
281.4921194702112
 20
131.1342333948952
 30
0.0
 11
281.4921194702112
 21
107.8782104108829
 31
0.0
  0
LINE
  5
160
330
15D
100
AcDbEntity
  8
1
  6
Continuous
 62
     2
100
AcDbLine
 10
314.9921194702114
 20
137.134233394895
 30
0.0
 11
314.9921194702114
 21
107.8782104108829
 31
0.0
  0
SOLID
  5
161
330
15D
100
AcDbEntity
  8
1
 62
     2
100
AcDbTrace
 10
284.9921194702112
 20
110.3389941524388
 30
0.0
 11
284.9921194702112
 21
109.417426669327
 31
0.0
 12
281.4921194702112
 22
109.8782104108829
 32
0.0
 13
281.4921194702112
 23
109.8782104108829
 33
0.0
  0
SOLID
  5
162
330
15D
100
AcDbEntity
  8
1
 62
     2
100
AcDbTrace
 10
311.4921194702114
 20
109.417426669327
 30
0.0
 11
311.4921194702114
 21
110.3389941524388
 31
0.0
 12
314.9921194702114
 22
109.8782104108829
 32
0.0
 13
314.9921194702114
 23
109.8782104108829
 33
0.0
  0
MTEXT
  5
163
330
15D
100
AcDbEntity
  8
1
 62
     2
100
AcDbMText
 10
292.5197789330618
 20
111.8782104108829
 30
0.0
 40
3.5
 41
0.0
 71
     7
 72
     1
  1
33.5
  7
CONVERTER_11
 11
0.9999999999970621
 21
2.424068405545307E-6
 31
0.0
 73
     1
 44
0.60024009603842
  0
ENDBLK
  5
165
330
15D
100
AcDbEntity
  8
0
100
AcDbBlockEnd
  0
BLOCK
  5
171
330
168
100
AcDbEntity
  8
0
100
AcDbBlockBegin
  2
*D3
 70
     1
 71
     0
 10
0.0
 20
0.0
 30
0.0
  3
*D3
  1

  0
LINE
  5
169
330
168
100
AcDbEntity
  8
1
  6
Continuous
 62
     2
100
AcDbLine
 10
333.5935353615059
 20
138.1342333948952
 30
0.0
 11
333.5935353615059
 21
131.1342333948952
 31
0.0
  0
LINE
  5
16A
330
168
100
AcDbEntity
  8
1
  6
Continuous
 62
     2
100
AcDbLine
 10
333.5935353615059
 20
131.1342333948952
 30
0.0
 11
333.5935353615059
 21
130.1342333948953
 31
0.0
  0
LINE
  5
16B
330
168
100
AcDbEntity
  8
1
  6
Continuous
 62
     2
100
AcDbLine
 10
333.5935353615059
 20
130.1342333948953
 30
0.0
 11
333.5935353615059
 21
123.1342333948953
 31
0.0
  0
LINE
  5
16C
330
168
100
AcDbEntity
  8
1
  6
Continuous
 62
     2
100
AcDbLine
 10
281.4921194702112
 20
131.1342333948952
 30
0.0
 11
335.5935353615059
 21
131.1342333948952
 31
0.0
  0
LINE
  5
16D
330
168
100
AcDbEntity
  8
1
  6
Continuous
 62
     2
100
AcDbLine
 10
275.4921194702115
 20
130.1342333948953
 30
0.0
 11
335.5935353615059
 21
130.1342333948953
 31
0.0
  0
SOLID
  5
16E
330
168
100
AcDbEntity
  8
1
 62
     2
100
AcDbTrace
 10
333.13275161995
 20
134.6342333948952
 30
0.0
 11
334.0543191030617
 21
134.6342333948952
 31
0.0
 12
333.5935353615059
 22
131.1342333948952
 32
0.0
 13
333.5935353615059
 23
131.1342333948952
 33
0.0
  0
SOLID
  5
16F
330
168
100
AcDbEntity
  8
1
 62
     2
100
AcDbTrace
 10
334.0543191030617
 20
126.6342333948953
 30
0.0
 11
333.13275161995
 21
126.6342333948953
 31
0.0
 12
333.5935353615059
 22
130.1342333948953
 32
0.0
 13
333.5935353615059
 23
130.1342333948953
 33
0.0
  0
MTEXT
  5
170
330
168
100
AcDbEntity
  8
1
 62
     2
100
AcDbMText
 10
331.5935353615059
 20
124.6404047706539
 30
0.0
 40
3.5
 41
0.0
 71
     7
 72
     1
  1
1
  7
CONVERTER_11
 11
0.0
 21
1.0
 31
0.0
 73
     1
 44
0.60024009603842
  0
ENDBLK
  5
172
330
168
100
AcDbEntity
  8
0
100
AcDbBlockEnd
  0
BLOCK
  5
17C
330
175
100
AcDbEntity
  8
0
100
AcDbBlockBegin
  2
*D4
 70
     1
 71
     0
 10
0.0
 20
0.0
 30
0.0
  3
*D4
  1

  0
LINE
  5
176
330
175
100
AcDbEntity
  8
1
  6
Continuous
 62
     2
100
AcDbLine
 10
240.9921194702113
 20
109.8782104108829
 30
0.0
 11
277.9921194702115
 21
109.8782104108829
 31
0.0
  0
LINE
  5
177
330
175
100
AcDbEntity
  8
1
  6
Continuous
 62
     2
100
AcDbLine
 10
240.9921194702113
 20
137.6342333948949
 30
0.0
 11
240.9921194702113
 21
107.8782104108829
 31
0.0
  0
LINE
  5
178
330
175
100
AcDbEntity
  8
1
  6
Continuous
 62
     2
100
AcDbLine
 10
277.9921194702115
 20
132.6342333948953
 30
0.0
 11
277.9921194702115
 21
107.8782104108829
 31
0.0
  0
SOLID
  5
179
330
175
100
AcDbEntity
  8
1
 62
     2
100
AcDbTrace
 10
244.4921194702113
 20
110.3389941524388
 30
0.0
 11
244.4921194702113
 21
109.417426669327
 31
0.0
 12
240.9921194702113
 22
109.8782104108829
 32
0.0
 13
240.9921194702113
 23
109.8782104108829
 33
0.0
  0
SOLID
  5
17A
330
175
100
AcDbEntity
  8
1
 62
     2
100
AcDbTrace
 10
274.4921194702115
 20
109.417426669327
 30
0.0
 11
274.4921194702115
 21
110.3389941524388
 31
0.0
 12
277.9921194702115
 22
109.8782104108829
 32
0.0
 13
277.9921194702115
 23
109.8782104108829
 33
0.0
  0
MTEXT
  5
17B
330
175
100
AcDbEntity
  8
1
 62
     2
100
AcDbMText
 10
258.904256370261
 20
111.8782104108829
 30
0.0
 40
3.5
 41
0.0
 71
     7
 72
     1
  1
37
  7
CONVERTER_11
 11
0.9999999999970621
 21
2.424068405545307E-6
 31
0.0
 73
     1
 44
0.60024009603842
  0
ENDBLK
  5
17D
330
175
100
AcDbEntity
  8
0
100
AcDbBlockEnd
  0
BLOCK
  5
189
330
180
100
AcDbEntity
  8
0
100
AcDbBlockBegin
  2
*D5
 70
     1
 71
     0
 10
0.0
 20
0.0
 30
0.0
  3
*D5
  1

  0
LINE
  5
181
330
180
100
AcDbEntity
  8
1
  6
Continuous
 62
     2
100
AcDbLine
 10
227.1971003121248
 20
130.1342333948952
 30
0.0
 11
227.1971003121248
 21
123.1342333948952
 31
0.0
  0
LINE
  5
182
330
180
100
AcDbEntity
  8
1
  6
Continuous
 62
     2
100
AcDbLine
 10
227.1971003121248
 20
135.1342333948952
 30
0.0
 11
227.1971003121248
 21
130.1342333948952
 31
0.0
  0
LINE
  5
183
330
180
100
AcDbEntity
  8
1
  6
Continuous
 62
     2
100
AcDbLine
 10
227.1971003121248
 20
142.1342333948952
 30
0.0
 11
227.1971003121248
 21
135.1342333948952
 31
0.0
  0
LINE
  5
184
330
180
100
AcDbEntity
  8
1
  6
Continuous
 62
     2
100
AcDbLine
 10
240.992119470211
 20
130.1342333948952
 30
0.0
 11
225.1971003121248
 21
130.1342333948952
 31
0.0
  0
LINE
  5
185
330
180
100
AcDbEntity
  8
1
  6
Continuous
 62
     2
100
AcDbLine
 10
251.992141268577
 20
135.1342333948952
 30
0.0
 11
225.1971003121248
 21
135.1342333948952
 31
0.0
  0
SOLID
  5
186
330
180
100
AcDbEntity
  8
1
 62
     2
100
AcDbTrace
 10
226.7363165705689
 20
138.6342333948952
 30
0.0
 11
227.6578840536807
 21
138.6342333948952
 31
0.0
 12
227.1971003121248
 22
135.1342333948952
 32
0.0
 13
227.1971003121248
 23
135.1342333948952
 33
0.0
  0
SOLID
  5
187
330
180
100
AcDbEntity
  8
1
 62
     2
100
AcDbTrace
 10
227.6578840536807
 20
126.6342333948952
 30
0.0
 11
226.7363165705689
 21
126.6342333948952
 31
0.0
 12
227.1971003121248
 22
130.1342333948952
 32
0.0
 13
227.1971003121248
 23
130.1342333948952
 33
0.0
  0
MTEXT
  5
188
330
180
100
AcDbEntity
  8
1
 62
     2
100
AcDbMText
 10
225.1971003121248
 20
131.5842333948952
 30
0.0
 40
3.5
 41
0.0
 71
     7
 72
     1
  1
5
  7
CONVERTER_11
 11
0.0
 21
1.0
 31
0.0
 73
     1
 44
0.60024009603842
  0
ENDBLK
  5
18A
330
180
100
AcDbEntity
  8
0
100
AcDbBlockEnd
  0
BLOCK
  5
194
330
18D
100
AcDbEntity
  8
0
100
AcDbBlockBegin
  2
*D6
 70
     1
 71
     0
 10
0.0
 20
0.0
 30
0.0
  3
*D6
  1

  0
LINE
  5
18E
330
18D
100
AcDbEntity
  8
1
  6
Continuous
 62
     2
100
AcDbLine
 10
227.1971003121248
 20
163.1342333948952
 30
0.0
 11
227.1971003121248
 21
135.1342333948952
 31
0.0
  0
LINE
  5
18F
330
18D
100
AcDbEntity
  8
1
  6
Continuous
 62
     2
100
AcDbLine
 10
251.992141268577
 20
135.1342333948952
 30
0.0
 11
225.1971003121248
 21
135.1342333948952
 31
0.0
  0
LINE
  5
190
330
18D
100
AcDbEntity
  8
1
  6
Continuous
 62
     2
100
AcDbLine
 10
251.9920984237818
 20
163.1342333948952
 30
0.0
 11
225.1971003121248
 21
163.1342333948952
 31
0.0
  0
SOLID
  5
191
330
18D
100
AcDbEntity
  8
1
 62
     2
100
AcDbTrace
 10
227.6578840536807
 20
159.6342333948952
 30
0.0
 11
226.7363165705689
 21
159.6342333948952
 31
0.0
 12
227.1971003121248
 22
163.1342333948952
 32
0.0
 13
227.1971003121248
 23
163.1342333948952
 33
0.0
  0
SOLID
  5
192
330
18D
100
AcDbEntity
  8
1
 62
     2
100
AcDbTrace
 10
226.7363165705689
 20
138.6342333948952
 30
0.0
 11
227.6578840536807
 21
138.6342333948952
 31
0.0
 12
227.1971003121248
 22
135.1342333948952
 32
0.0
 13
227.1971003121248
 23
135.1342333948952
 33
0.0
  0
MTEXT
  5
193
330
18D
100
AcDbEntity
  8
1
 62
     2
100
AcDbMText
 10
225.1971003121248
 20
147.160534914122
 30
0.0
 40
3.5
 41
0.0
 71
     7
 72
     1
  1
28
  7
CONVERTER_11
 11
0.0
 21
1.0
 31
0.0
 73
     1
 44
0.60024009603842
  0
ENDBLK
  5
195
330
18D
100
AcDbEntity
  8
0
100
AcDbBlockEnd
  0
BLOCK
  5
1A0
330
198
100
AcDbEntity
  8
0
100
AcDbBlockBegin
  2
*D7
 70
     1
 71
     0
 10
0.0
 20
0.0
 30
0.0
  3
*D7
  1

  0
LINE
  5
199
330
198
100
AcDbEntity
  8
1
  6
Continuous
 62
     2
100
AcDbLine
 10
342.394844390742
 20
163.1342333948952
 30
0.0
 11
342.394844390742
 21
135.1342333948949
 31
0.0
  0
LINE
  5
19A
330
198
100
AcDbEntity
  8
1
  6
Continuous
 62
     2
100
AcDbLine
 10
314.9921194702114
 20
135.1342333948949
 30
0.0
 11
330.961340893136
 21
135.1342333948949
 31
0.0
  0
LINE
  5
19B
330
198
100
AcDbEntity
  8
1
  6
Continuous
 62
     2
100
AcDbLine
 10
336.5349699102
 20
135.1342333948949
 30
0.0
 11
344.394844390742
 21
135.1342333948949
 31
0.0
  0
LINE
  5
19C
330
198
100
AcDbEntity
  8
1
  6
Continuous
 62
     2
100
AcDbLine
 10
314.9921194702114
 20
163.1342333948952
 30
0.0
 11
344.394844390742
 21
163.1342333948952
 31
0.0
  0
SOLID
  5
19D
330
198
100
AcDbEntity
  8
1
 62
     2
100
AcDbTrace
 10
342.8556281322979
 20
159.6342333948952
 30
0.0
 11
341.9340606491861
 21
159.6342333948952
 31
0.0
 12
342.394844390742
 22
163.1342333948952
 32
0.0
 13
342.394844390742
 23
163.1342333948952
 33
0.0
  0
SOLID
  5
19E
330
198
100
AcDbEntity
  8
1
 62
     2
100
AcDbTrace
 10
341.9340606491861
 20
138.6342333948949
 30
0.0
 11
342.8556281322979
 21
138.6342333948949
 31
0.0
 12
342.394844390742
 22
135.1342333948949
 32
0.0
 13
342.394844390742
 23
135.1342333948949
 33
0.0
  0
MTEXT
  5
19F
330
198
100
AcDbEntity
  8
1
 62
     2
100
AcDbMText
 10
340.394844390742
 20
145.111045136767
 30
0.0
 40
3.5
 41
0.0
 71
     7
 72
     1
  1
28
  7
CONVERTER_11
 11
0.0
 21
1.0
 31
0.0
 73
     1
 44
0.60024009603842
  0
ENDBLK
  5
1A1
330
198
100
AcDbEntity
  8
0
100
AcDbBlockEnd
  0
BLOCK
  5
1AE
330
1A4
100
AcDbEntity
  8
0
100
AcDbBlockBegin
  2
*D8
 70
     1
 71
     0
 10
0.0
 20
0.0
 30
0.0
  3
*D8
  1

  0
LINE
  5
1A5
330
1A4
100
AcDbEntity
  8
1
  6
Continuous
 62
     2
100
AcDbLine
 10
342.394844390742
 20
131.1342333948952
 30
0.0
 11
342.394844390742
 21
124.1342333948952
 31
0.0
  0
LINE
  5
1A6
330
1A4
100
AcDbEntity
  8
1
  6
Continuous
 62
     2
100
AcDbLine
 10
342.394844390742
 20
135.134233394895
 30
0.0
 11
342.394844390742
 21
131.1342333948952
 31
0.0
  0
LINE
  5
1A7
330
1A4
100
AcDbEntity
  8
1
  6
Continuous
 62
     2
100
AcDbLine
 10
342.394844390742
 20
142.134233394895
 30
0.0
 11
342.394844390742
 21
135.134233394895
 31
0.0
  0
LINE
  5
1A8
330
1A4
100
AcDbEntity
  8
1
  6
Continuous
 62
     2
100
AcDbLine
 10
325.4921194702114
 20
131.1342333948952
 30
0.0
 11
344.394844390742
 21
131.1342333948952
 31
0.0
  0
LINE
  5
1A9
330
1A4
100
AcDbEntity
  8
1
  6
Continuous
 62
     2
100
AcDbLine
 10
336.5349699102
 20
135.134233394895
 30
0.0
 11
344.394844390742
 21
135.134233394895
 31
0.0
  0
LINE
  5
1AA
330
1A4
100
AcDbEntity
  8
1
  6
Continuous
 62
     2
100
AcDbLine
 10
314.9921194702114
 20
135.134233394895
 30
0.0
 11
330.961340893136
 21
135.134233394895
 31
0.0
  0
SOLID
  5
1AB
330
1A4
100
AcDbEntity
  8
1
 62
     2
100
AcDbTrace
 10
341.9340606491861
 20
138.634233394895
 30
0.0
 11
342.8556281322979
 21
138.634233394895
 31
0.0
 12
342.394844390742
 22
135.134233394895
 32
0.0
 13
342.394844390742
 23
135.134233394895
 33
0.0
  0
SOLID
  5
1AC
330
1A4
100
AcDbEntity
  8
1
 62
     2
100
AcDbTrace
 10
342.8556281322979
 20
127.6342333948952
 30
0.0
 11
341.9340606491861
 21
127.6342333948952
 31
0.0
 12
342.394844390742
 22
131.1342333948952
 32
0.0
 13
342.394844390742
 23
131.1342333948952
 33
0.0
  0
MTEXT
  5
1AD
330
1A4
100
AcDbEntity
  8
1
 62
     2
100
AcDbMText
 10
340.394844390742
 20
132.0842333948951
 30
0.0
 40
3.5
 41
0.0
 71
     7
 72
     1
  1
4
  7
CONVERTER_11
 11
0.0
 21
1.0
 31
0.0
 73
     1
 44
0.60024009603842
  0
ENDBLK
  5
1AF
330
1A4
100
AcDbEntity
  8
0
100
AcDbBlockEnd
  0
ENDSEC
  0
SECTION
  2
ENTITIES
  0
POINT
  5
32
330
1F
100
AcDbEntity
  8
1
 62
     3
 60
     1
100
AcDbPoint
 10
314.9921194702114
 20
135.134233394895
 30
0.0
  0
POINT
  5
33
330
1F
100
AcDbEntity
  8
1
 62
     3
 60
     1
100
AcDbPoint
 10
242.4921194702113
 20
148.6342333948949
 30
0.0
  0
POINT
  5
34
330
1F
100
AcDbEntity
  8
1
 62
     3
 60
     1
100
AcDbPoint
 10
240.9921194702113
 20
148.6342333948949
 30
0.0
  0
LINE
  5
35
330
1F
100
AcDbEntity
  8
1
  6
DOT_CENTER
 62
     2
100
AcDbLine
 10
272.2421194702114
 20
146.2842332253699
 30
0.0
 11
272.2421194702114
 21
134.4842335644199
 31
0.0
  0
LINE
  5
36
330
1F
100
AcDbEntity
  8
1
  6
DOT_CENTER
 62
     2
100
AcDbLine
 10
278.1421193006864
 20
140.384233394895
 30
0.0
 11
266.3421196397364
 21
140.384233394895
 31
0.0
  0
LINE
  5
37
330
1F
100
AcDbEntity
  8
1
  6
DOT_CENTER
 62
     2
100
AcDbLine
 10
306.2421194702114
 20
158.4592337676555
 30
0.0
 11
306.2421194702114
 21
148.3092330221344
 31
0.0
  0
LINE
  5
38
330
1F
100
AcDbEntity
  8
1
  6
DOT_CENTER
 62
     2
100
AcDbLine
 10
311.317119842972
 20
153.384233394895
 30
0.0
 11
301.1671190974509
 21
153.384233394895
 31
0.0
  0
LINE
  5
39
330
1F
100
AcDbEntity
  8
1
  6
DOT_CENTER
 62
     2
100
AcDbLine
 10
253.2421194702114
 20
158.4592337676854
 30
0.0
 11
253.2421194702114
 21
148.3092330221045
 31
0.0
  0
LINE
  5
3A
330
1F
100
AcDbEntity
  8
1
  6
DOT_CENTER
 62
     2
100
AcDbLine
 10
258.3171198430018
 20
153.384233394895
 30
0.0
 11
248.167119097421
 21
153.384233394895
 31
0.0
  0
LINE
  5
3B
330
1F
100
AcDbEntity
  8
1
  6
DOT_CENTER
 62
     2
100
AcDbLine
 10
287.2421194702114
 20
146.2842332253713
 30
0.0
 11
287.2421194702114
 21
134.4842335644187
 31
0.0
  0
LINE
  5
3C
330
1F
100
AcDbEntity
  8
1
  6
DOT_CENTER
 62
     2
100
AcDbLine
 10
293.1421193006878
 20
140.384233394895
 30
0.0
 11
281.3421196397352
 21
140.384233394895
 31
0.0
  0
LINE
  5
3D
330
1F
100
AcDbEntity
  8
1
  6
DOT_CENTER
 62
     2
100
AcDbLine
 10
279.7421194702114
 20
163.2842338750252
 30
0.0
 11
279.7421194702114
 21
151.4842329147647
 31
0.0
  0
LINE
  5
3E
330
1F
100
AcDbEntity
  8
1
  6
DOT_CENTER
 62
     2
100
AcDbLine
 10
285.6421199503417
 20
157.384233394895
 30
0.0
 11
273.8421189900813
 21
157.384233394895
 31
0.0
  0
LINE
  5
3F
330
1F
100
AcDbEntity
  8
1
  6
Continuous
 62
     7
100
AcDbLine
 10
314.9921194702114
 20
159.1342333948952
 30
0.0
 11
314.9921194702114
 21
163.1342333948952
 31
0.0
  0
LINE
  5
40
330
1F
100
AcDbEntity
  8
1
  6
Continuous
 62
     7
100
AcDbLine
 10
276.4921194702115
 20
163.2342333948951
 30
0.0
 11
277.9921194702115
 21
163.2342333948951
 31
0.0
  0
LINE
  5
41
330
1F
100
AcDbEntity
  8
1
  6
Continuous
 62
     7
100
AcDbLine
 10
276.4921194702115
 20
163.2342333948951
 30
0.0
 11
276.4921194702115
 21
187.6342333948952
 31
0.0
  0
LINE
  5
42
330
1F
100
AcDbEntity
  8
1
  6
Continuous
 62
     7
100
AcDbLine
 10
276.4921194702115
 20
132.6342333948953
 30
0.0
 11
276.4921194702115
 21
135.034233394895
 31
0.0
  0
LINE
  5
43
330
1F
100
AcDbEntity
  8
1
  6
Continuous
 62
     7
100
AcDbLine
 10
277.9921194702115
 20
135.034233394895
 30
0.0
 11
277.9921194702115
 21
132.6342333948953
 31
0.0
  0
LINE
  5
44
330
1F
100
AcDbEntity
  8
1
  6
Continuous
 62
     7
100
AcDbLine
 10
277.9921194702115
 20
173.1342333948952
 30
0.0
 11
277.9921194702115
 21
163.2342333948951
 31
0.0
  0
LINE
  5
45
330
1F
100
AcDbEntity
  8
1
  6
Continuous
 62
     7
100
AcDbLine
 10
291.4921194702115
 20
176.6342333948952
 30
0.0
 11
291.4921194702115
 21
206.7269362325956
 31
0.0
  0
LINE
  5
46
330
1F
100
AcDbEntity
  8
1
  6
Continuous
 62
     7
100
AcDbLine
 10
292.9921194702115
 20
176.1342333948952
 30
0.0
 11
292.9921194702115
 21
206.7269362325956
 31
0.0
  0
LINE
  5
47
330
1F
100
AcDbEntity
  8
1
  6
Continuous
 62
     7
100
AcDbLine
 10
288.9812561180738
 20
174.1342333948952
 30
0.0
 11
290.9921194702115
 21
174.1342333948952
 31
0.0
  0
LINE
  5
48
330
1F
100
AcDbEntity
  8
1
  6
Continuous
 62
     7
100
AcDbLine
 10
289.6328688044946
 20
175.6342333948952
 30
0.0
 11
290.4921194702115
 21
175.6342333948952
 31
0.0
  0
LINE
  5
49
330
1F
100
AcDbEntity
  8
1
  6
Continuous
 62
     7
100
AcDbLine
 10
291.4410082096451
 20
187.2460048272414
 30
0.0
 11
288.6669429782054
 21
176.8930524399977
 31
0.0
  0
LINE
  5
4A
330
1F
100
AcDbEntity
  8
1
  6
Continuous
 62
     7
100
AcDbLine
 10
277.9921194702115
 20
189.134233394895
 30
0.0
 11
289.9921194702115
 21
189.1342333948952
 31
0.0
  0
LINE
  5
4B
330
1F
100
AcDbEntity
  8
1
  6
Continuous
 62
     7
100
AcDbLine
 10
289.8234696969355
 20
187.0048238723438
 30
0.0
 11
288.9802208305551
 21
183.8577762595876
 31
0.0
  0
LINE
  5
4C
330
1F
100
AcDbEntity
  8
1
  6
Continuous
 62
     7
100
AcDbLine
 10
278.4921194702115
 20
187.6342333948952
 30
0.0
 11
280.9921194702115
 21
187.6342333948952
 31
0.0
  0
LINE
  5
4D
330
1F
100
AcDbEntity
  8
1
  6
Continuous
 62
     7
100
AcDbLine
 10
277.9921194702115
 20
173.1342333948952
 30
0.0
 11
277.9921194702115
 21
184.6342333948952
 31
0.0
  0
LINE
  5
4E
330
1F
100
AcDbEntity
  8
1
  6
Continuous
 62
     7
100
AcDbLine
 10
279.9921194702115
 20
171.1342333948952
 30
0.0
 11
281.4921194702114
 21
171.1342333948952
 31
0.0
  0
LINE
  5
4F
330
1F
100
AcDbEntity
  8
1
  6
Continuous
 62
     7
100
AcDbLine
 10
280.9921194702115
 20
187.6342333948952
 30
0.0
 11
286.0824433516881
 21
187.6342333948952
 31
0.0
  0
LINE
  5
50
330
1F
100
AcDbEntity
  8
1
  6
Continuous
 62
     7
100
AcDbLine
 10
277.9921194702115
 20
184.6342333948952
 30
0.0
 11
277.9921194702115
 21
187.1342333948952
 31
0.0
  0
LINE
  5
51
330
1F
100
AcDbEntity
  8
1
  6
Continuous
 62
     7
100
AcDbLine
 10
286.0824433516881
 20
187.6342333948952
 30
0.0
 11
289.3405067837908
 21
187.6342333948952
 31
0.0
  0
LINE
  5
52
330
1F
100
AcDbEntity
  8
1
  6
Continuous
 62
     7
100
AcDbLine
 10
288.9802208305551
 20
183.8577762595876
 30
0.0
 11
287.0494044654957
 21
176.6518714851001
 31
0.0
  0
LINE
  5
53
330
1F
100
AcDbEntity
  8
1
  6
Continuous
 62
     7
100
AcDbLine
 10
279.9921194702115
 20
172.1342333948952
 30
0.0
 11
287.798040161454
 21
172.1342333948952
 31
0.0
  0
LINE
  5
54
330
1F
100
AcDbEntity
  8
1
  6
Continuous
 62
     7
100
AcDbLine
 10
278.9921194702115
 20
173.1342333948952
 30
0.0
 11
278.9921194702115
 21
184.6342333948952
 31
0.0
  0
LINE
  5
55
330
1F
100
AcDbEntity
  8
1
  6
Continuous
 62
     7
100
AcDbLine
 10
280.9921194702115
 20
186.6342333948952
 30
0.0
 11
286.0824433516881
 21
186.6342333948952
 31
0.0
  0
LINE
  5
56
330
1F
100
AcDbEntity
  8
1
  6
Continuous
 62
     7
100
AcDbLine
 10
288.0142950042663
 20
184.1165953046901
 30
0.0
 11
286.0834786392065
 21
176.9106905302027
 31
0.0
  0
LINE
  5
57
330
1F
100
AcDbEntity
  8
1
  6
Continuous
 62
     7
100
AcDbLine
 10
237.9921194702115
 20
140.1342333948952
 30
0.0
 11
237.9921194702115
 21
132.6342333948952
 31
0.0
  0
LINE
  5
58
330
1F
100
AcDbEntity
  8
1
  6
Continuous
 62
     7
100
AcDbLine
 10
240.9921194702111
 20
130.1342333948952
 30
0.0
 11
275.4921194702115
 21
130.1342333948953
 31
0.0
  0
LINE
  5
59
330
1F
100
AcDbEntity
  8
1
  6
Continuous
 62
     7
100
AcDbLine
 10
275.4921194702115
 20
131.6342333948953
 30
0.0
 11
240.9921194702111
 21
131.6342333948952
 31
0.0
  0
LINE
  5
5A
330
1F
100
AcDbEntity
  8
1
  6
Continuous
 62
     7
100
AcDbLine
 10
239.4921194702115
 20
132.6342333948952
 30
0.0
 11
239.4921194702115
 21
140.1342333948952
 31
0.0
  0
LINE
  5
5B
330
1F
100
AcDbEntity
  8
1
  6
Continuous
 62
     7
100
AcDbLine
 10
237.9921194702115
 20
140.1342333948952
 30
0.0
 11
239.4921194702115
 21
140.1342333948952
 31
0.0
  0
LINE
  5
5C
330
1F
100
AcDbEntity
  8
1
  6
Continuous
 62
     7
100
AcDbLine
 10
277.9921194702115
 20
135.034233394895
 30
0.0
 11
276.4921194702115
 21
135.034233394895
 31
0.0
  0
LINE
  5
5D
330
1F
100
AcDbEntity
  8
1
  6
Continuous
 62
     7
100
AcDbLine
 10
325.4921194702114
 20
131.1342333948952
 30
0.0
 11
281.4921194702112
 21
131.1342333948952
 31
0.0
  0
LINE
  5
5E
330
1F
100
AcDbEntity
  8
1
  6
PHANTOM
 62
     2
100
AcDbLine
 10
325.4921194702114
 20
131.1342333948952
 30
0.0
 11
325.4921194702114
 21
171.1342333948952
 31
0.0
  0
LINE
  5
5F
330
1F
100
AcDbEntity
  8
1
  6
Continuous
 62
     7
100
AcDbLine
 10
281.4921194702112
 20
131.1342333948952
 30
0.0
 11
281.4921194702112
 21
135.1342333948954
 31
0.0
  0
LINE
  5
60
330
1F
100
AcDbEntity
  8
1
  6
Continuous
 62
     7
100
AcDbLine
 10
314.9921194702114
 20
163.1342333948952
 30
0.0
 11
281.4921194702114
 21
163.1342333948953
 31
0.0
  0
LINE
  5
61
330
1F
100
AcDbEntity
  8
1
  6
Continuous
 62
     7
100
AcDbLine
 10
281.4921194702114
 20
163.1342333948953
 30
0.0
 11
281.4921194702114
 21
171.1342333948952
 31
0.0
  0
LINE
  5
62
330
1F
100
AcDbEntity
  8
1
  6
Continuous
 62
     7
100
AcDbLine
 10
281.4921194702114
 20
171.1342333948952
 30
0.0
 11
325.4921194702114
 21
171.1342333948952
 31
0.0
  0
LINE
  5
63
330
1F
100
AcDbEntity
  8
1
  6
PHANTOM
 62
     2
100
AcDbLine
 10
325.4921194702114
 20
171.1342333948952
 30
0.0
 11
325.4921194702114
 21
173.1387033945859
 31
0.0
  0
LINE
  5
64
330
1F
100
AcDbEntity
  8
1
  6
PHANTOM
 62
     2
100
AcDbLine
 10
325.4921194702114
 20
129.3585027877917
 30
0.0
 11
325.4921194702114
 21
131.1342333948952
 31
0.0
  0
LINE
  5
65
330
1F
100
AcDbEntity
  8
1
  6
Continuous
 62
     7
100
AcDbLine
 10
281.4921194702112
 20
135.1342333948954
 30
0.0
 11
281.4921194702114
 21
152.007047329408
 31
0.0
  0
LINE
  5
66
330
1F
100
AcDbEntity
  8
1
  6
Continuous
 62
     7
100
AcDbLine
 10
281.4921194702114
 20
160.9699104930959
 30
0.0
 11
281.4921194702114
 21
163.1342333948953
 31
0.0
  0
LINE
  5
67
330
1F
100
AcDbEntity
  8
1
  6
Continuous
 62
     7
100
AcDbLine
 10
242.4921194702113
 20
140.1342333948952
 30
0.0
 11
242.4921194702113
 21
137.6342333948949
 31
0.0
  0
LINE
  5
68
330
1F
100
AcDbEntity
  8
1
  6
Continuous
 62
     7
100
AcDbLine
 10
240.9921194702113
 20
140.1342333948952
 30
0.0
 11
240.9921194702113
 21
137.6342333948949
 31
0.0
  0
LINE
  5
69
330
1F
100
AcDbEntity
  8
1
  6
Continuous
 62
     7
100
AcDbLine
 10
240.9921194702113
 20
137.6342333948949
 30
0.0
 11
242.4921194702113
 21
137.6342333948949
 31
0.0
  0
LINE
  5
6A
330
1F
100
AcDbEntity
  8
1
  6
Continuous
 62
     7
100
AcDbLine
 10
242.4921194702113
 20
148.6342333948949
 30
0.0
 11
242.4921194702113
 21
140.1342333948952
 31
0.0
  0
LINE
  5
6B
330
1F
100
AcDbEntity
  8
1
  6
Continuous
 62
     7
100
AcDbLine
 10
240.9921194702113
 20
148.6342333948949
 30
0.0
 11
240.9921194702113
 21
140.1342333948952
 31
0.0
  0
LINE
  5
6C
330
1F
100
AcDbEntity
  8
1
  6
Continuous
 62
     7
100
AcDbLine
 10
240.9921194702113
 20
148.6342333948949
 30
0.0
 11
242.4921194702113
 21
148.6342333948949
 31
0.0
  0
LINE
  5
6D
330
1F
100
AcDbEntity
  8
1
  6
Continuous
 62
     7
100
AcDbLine
 10
242.6921194702113
 20
137.6342333948949
 30
0.0
 11
242.6921194702113
 21
148.6342333948949
 31
0.0
  0
LINE
  5
6E
330
1F
100
AcDbEntity
  8
1
  6
Continuous
 62
     7
100
AcDbLine
 10
244.1921194702113
 20
137.6342333948949
 30
0.0
 11
242.6921194702113
 21
137.6342333948949
 31
0.0
  0
LINE
  5
6F
330
1F
100
AcDbEntity
  8
1
  6
Continuous
 62
     7
100
AcDbLine
 10
244.1921194702113
 20
148.6342333948949
 30
0.0
 11
244.1921194702113
 21
137.6342333948949
 31
0.0
  0
LINE
  5
70
330
1F
100
AcDbEntity
  8
1
  6
Continuous
 62
     7
100
AcDbLine
 10
242.6921194702113
 20
148.6342333948949
 30
0.0
 11
244.1921194702113
 21
148.6342333948949
 31
0.0
  0
LINE
  5
71
330
1F
100
AcDbEntity
  8
1
  6
Continuous
 62
     7
100
AcDbLine
 10
273.4921194702113
 20
169.6342333948949
 30
0.0
 11
273.4921194702113
 21
166.6342333948949
 31
0.0
  0
LINE
  5
72
330
1F
100
AcDbEntity
  8
1
  6
Continuous
 62
     7
100
AcDbLine
 10
273.4921194702113
 20
169.6342333948949
 30
0.0
 11
276.4921194702112
 21
169.6342333948949
 31
0.0
  0
LINE
  5
73
330
1F
100
AcDbEntity
  8
1
  6
Continuous
 62
     7
100
AcDbLine
 10
276.4921194702112
 20
169.6342333948949
 30
0.0
 11
276.4921194702112
 21
171.1342333948949
 31
0.0
  0
LINE
  5
74
330
1F
100
AcDbEntity
  8
1
  6
Continuous
 62
     7
100
AcDbLine
 10
276.4921194702112
 20
171.1342333948949
 30
0.0
 11
273.0421194702112
 21
171.1342333948949
 31
0.0
  0
LINE
  5
75
330
1F
100
AcDbEntity
  8
1
  6
Continuous
 62
     7
100
AcDbLine
 10
273.4921194702113
 20
169.6342333948949
 30
0.0
 11
242.9921194702113
 21
169.6342333948949
 31
0.0
  0
LINE
  5
76
330
1F
100
AcDbEntity
  8
1
  6
Continuous
 62
     7
100
AcDbLine
 10
240.9921194702111
 20
131.6342333948952
 30
0.0
 11
242.4921194702113
 21
131.6342333948949
 31
0.0
  0
LINE
  5
77
330
1F
100
AcDbEntity
  8
1
  6
Continuous
 62
     7
100
AcDbLine
 10
273.0421194702112
 20
171.1342333948949
 30
0.0
 11
242.9921194702113
 21
171.1342333948949
 31
0.0
  0
LINE
  5
78
330
1F
100
AcDbEntity
  8
1
  6
Continuous
 62
     7
100
AcDbLine
 10
240.9921194702113
 20
169.1342333948949
 30
0.0
 11
240.9921194702113
 21
148.6342333948949
 31
0.0
  0
LINE
  5
79
330
1F
100
AcDbEntity
  8
1
  6
Continuous
 62
     7
100
AcDbLine
 10
242.4921194702113
 20
131.6342333948949
 30
0.0
 11
273.4921194702113
 21
131.6342333948949
 31
0.0
  0
LINE
  5
7A
330
1F
100
AcDbEntity
  8
1
  6
Continuous
 62
     7
100
AcDbLine
 10
273.4921194702113
 20
134.6342333948949
 30
0.0
 11
273.4921194702113
 21
131.6342333948949
 31
0.0
  0
LINE
  5
7B
330
1F
100
AcDbEntity
  8
1
  6
Continuous
 62
     7
100
AcDbLine
 10
242.4921194702113
 20
169.1342333948949
 30
0.0
 11
242.4921194702113
 21
148.6342333948949
 31
0.0
  0
LINE
  5
7C
330
1F
100
AcDbEntity
  8
1
  6
Continuous
 62
     7
100
AcDbLine
 10
240.9921194702113
 20
137.6342333948949
 30
0.0
 11
240.9921194702111
 21
131.6342333948952
 31
0.0
  0
LINE
  5
7D
330
1F
100
AcDbEntity
  8
1
  6
Continuous
 62
     7
100
AcDbLine
 10
242.4921194702113
 20
137.6342333948949
 30
0.0
 11
242.4921194702113
 21
131.6342333948949
 31
0.0
  0
LINE
  5
7E
330
1F
100
AcDbEntity
  8
1
  6
DASHED
 62
     2
100
AcDbLine
 10
267.9921194702112
 20
134.6342333948949
 30
0.0
 11
267.9921194702112
 21
135.1342333948952
 31
0.0
  0
LINE
  5
7F
330
1F
100
AcDbEntity
  8
1
  6
Continuous
 62
     7
100
AcDbLine
 10
273.9921194702112
 20
163.1342333948949
 30
0.0
 11
273.9921194702112
 21
166.6342333948949
 31
0.0
  0
LINE
  5
80
330
1F
100
AcDbEntity
  8
1
  6
Continuous
 62
     7
100
AcDbLine
 10
265.4921194702112
 20
166.6342333948949
 30
0.0
 11
267.9921194702112
 21
166.6342333948949
 31
0.0
  0
LINE
  5
81
330
1F
100
AcDbEntity
  8
1
  6
Continuous
 62
     7
100
AcDbLine
 10
265.4921194702112
 20
134.6342333948949
 30
0.0
 11
267.9921194702112
 21
134.6342333948949
 31
0.0
  0
LINE
  5
82
330
1F
100
AcDbEntity
  8
1
  6
Continuous
 62
     7
100
AcDbLine
 10
255.4921194702112
 20
167.1342333948949
 30
0.0
 11
255.4921194702112
 21
169.6342333948949
 31
0.0
  0
LINE
  5
83
330
1F
100
AcDbEntity
  8
1
  6
Continuous
 62
     7
100
AcDbLine
 10
257.4921194702112
 20
169.6342333948949
 30
0.0
 11
264.9921194702112
 21
169.6342333948949
 31
0.0
  0
LINE
  5
84
330
1F
100
AcDbEntity
  8
1
  6
Continuous
 62
     7
100
AcDbLine
 10
273.9921194702112
 20
166.6342333948949
 30
0.0
 11
267.9921194702112
 21
166.6342333948949
 31
0.0
  0
LINE
  5
85
330
1F
100
AcDbEntity
  8
1
  6
Continuous
 62
     7
100
AcDbLine
 10
255.4921194702112
 20
134.1342333948949
 30
0.0
 11
255.4921194702112
 21
131.6342333948949
 31
0.0
  0
LINE
  5
86
330
1F
100
AcDbEntity
  8
1
  6
Continuous
 62
     7
100
AcDbLine
 10
257.4921194702112
 20
131.6342333948949
 30
0.0
 11
264.9921194702112
 21
131.6342333948949
 31
0.0
  0
LINE
  5
87
330
1F
100
AcDbEntity
  8
1
  6
Continuous
 62
     7
100
AcDbLine
 10
267.9921194702112
 20
134.6342333948949
 30
0.0
 11
273.9921194702112
 21
134.6342333948949
 31
0.0
  0
LINE
  5
88
330
1F
100
AcDbEntity
  8
1
  6
Continuous
 62
     7
100
AcDbLine
 10
273.9921194702112
 20
166.6342333948949
 30
0.0
 11
276.4921194702112
 21
166.6342333948949
 31
0.0
  0
LINE
  5
89
330
1F
100
AcDbEntity
  8
1
  6
Continuous
 62
     7
100
AcDbLine
 10
276.4921194702112
 20
134.6342333948949
 30
0.0
 11
273.9921194702112
 21
134.6342333948949
 31
0.0
  0
LINE
  5
8A
330
1F
100
AcDbEntity
  8
1
  6
Continuous
 62
     7
100
AcDbLine
 10
257.4921194702112
 20
167.1342333948949
 30
0.0
 11
257.4921194702112
 21
169.6342333948949
 31
0.0
  0
LINE
  5
8B
330
1F
100
AcDbEntity
  8
1
  6
Continuous
 62
     7
100
AcDbLine
 10
255.4921194702112
 20
169.6342333948949
 30
0.0
 11
257.4921194702112
 21
169.6342333948949
 31
0.0
  0
LINE
  5
8C
330
1F
100
AcDbEntity
  8
1
  6
Continuous
 62
     7
100
AcDbLine
 10
255.4921194702112
 20
131.6342333948949
 30
0.0
 11
257.4921194702112
 21
131.6342333948949
 31
0.0
  0
LINE
  5
8D
330
1F
100
AcDbEntity
  8
1
  6
Continuous
 62
     7
100
AcDbLine
 10
255.4921194702112
 20
134.1342333948949
 30
0.0
 11
264.9921194702112
 21
134.1342333948949
 31
0.0
  0
LINE
  5
8E
330
1F
100
AcDbEntity
  8
1
  6
Continuous
 62
     7
100
AcDbLine
 10
257.4921194702112
 20
131.6342333948949
 30
0.0
 11
257.4921194702112
 21
134.1342333948949
 31
0.0
  0
LINE
  5
8F
330
1F
100
AcDbEntity
  8
1
  6
Continuous
 62
     7
100
AcDbLine
 10
264.9921194702112
 20
167.1342333948949
 30
0.0
 11
255.4921194702112
 21
167.1342333948949
 31
0.0
  0
LINE
  5
90
330
1F
100
AcDbEntity
  8
1
  6
Continuous
 62
     7
100
AcDbLine
 10
265.4921194702112
 20
166.6342333948949
 30
0.0
 11
265.4921194702112
 21
163.1342333948952
 31
0.0
  0
LINE
  5
91
330
1F
100
AcDbEntity
  8
1
  6
Continuous
 62
     7
100
AcDbLine
 10
273.9921194702112
 20
134.6342333948949
 30
0.0
 11
273.9921194702112
 21
135.134233394895
 31
0.0
  0
LINE
  5
92
330
1F
100
AcDbEntity
  8
1
  6
Continuous
 62
     7
100
AcDbLine
 10
276.4921194702112
 20
166.6342333948949
 30
0.0
 11
276.4921194702114
 21
163.1342364466518
 31
0.0
  0
LINE
  5
93
330
1F
100
AcDbEntity
  8
1
  6
DASHED
 62
     2
100
AcDbLine
 10
265.4921194702112
 20
131.6761935033451
 30
0.0
 11
265.4921194702112
 21
134.6342333948949
 31
0.0
  0
LINE
  5
94
330
1F
100
AcDbEntity
  8
1
  6
DASHED
 62
     2
100
AcDbLine
 10
267.9921194702112
 20
163.1342333948952
 30
0.0
 11
267.9921194702112
 21
166.6342333948949
 31
0.0
  0
LINE
  5
95
330
1F
100
AcDbEntity
  8
1
  6
Continuous
 62
     7
100
AcDbLine
 10
265.4921194702112
 20
135.1342333948952
 30
0.0
 11
265.4921194702112
 21
134.6342333948949
 31
0.0
  0
LINE
  5
96
330
1F
100
AcDbEntity
  8
1
  6
Continuous
 62
     7
100
AcDbLine
 10
276.4921194702114
 20
135.1342333948952
 30
0.0
 11
276.4921194702112
 21
134.6342333948949
 31
0.0
  0
LINE
  5
97
330
1F
100
AcDbEntity
  8
0
  6
Continuous
 62
     7
100
AcDbLine
 10
246.992119470211
 20
135.8342333948941
 30
0.0
 11
246.992119470211
 21
145.6342364466519
 31
0.0
  0
LINE
  5
98
330
1F
100
AcDbEntity
  8
0
  6
Continuous
 62
     7
100
AcDbLine
 10
246.992119470211
 20
145.6342364466519
 30
0.0
 11
246.992119470211
 21
162.4092303431381
 31
0.0
  0
LINE
  5
99
330
1F
100
AcDbEntity
  8
0
  6
Continuous
 62
     7
100
AcDbLine
 10
248.3921286254839
 20
145.6342364466519
 30
0.0
 11
248.3921286254839
 21
161.0092364466518
 31
0.0
  0
LINE
  5
9A
330
1F
100
AcDbEntity
  8
0
  6
Continuous
 62
     7
100
AcDbLine
 10
251.9920984237819
 20
163.1342333948952
 30
0.0
 11
251.992119470211
 21
163.1342364466518
 31
0.0
  0
LINE
  5
9B
330
1F
100
AcDbEntity
  8
0
  6
Continuous
 62
     7
100
AcDbLine
 10
256.0600988004111
 20
159.8342333948941
 30
0.0
 11
251.492119470211
 21
159.8342333948941
 31
0.0
  0
LINE
  5
9C
330
1F
100
AcDbEntity
  8
0
  6
Continuous
 62
     7
100
AcDbLine
 10
277.9921194702114
 20
136.3342333948941
 30
0.0
 11
277.9921194702114
 21
152.0070473294081
 31
0.0
  0
LINE
  5
9D
330
1F
100
AcDbEntity
  8
0
  6
Continuous
 62
     7
100
AcDbLine
 10
253.4977918502108
 20
150.1637394422951
 30
0.0
 11
267.7285652623581
 21
146.0795361797737
 31
0.0
  0
LINE
  5
9E
330
1F
100
AcDbEntity
  8
0
  6
Continuous
 62
     7
100
AcDbLine
 10
251.492119470211
 20
141.6342333948952
 30
0.0
 11
265.4921194702114
 21
141.6342333948952
 31
0.0
  0
LINE
  5
9F
330
1F
100
AcDbEntity
  8
0
  6
Continuous
 62
     7
100
AcDbLine
 10
266.4921194702114
 20
136.3342333948941
 30
0.0
 11
277.9921194702114
 21
136.3342333948941
 31
0.0
  0
LINE
  5
A0
330
1F
100
AcDbEntity
  8
0
  6
Continuous
 62
     7
100
AcDbLine
 10
277.9921194702114
 20
135.134233394895
 30
0.0
 11
264.9921194702114
 21
135.1342333948952
 31
0.0
  0
LINE
  5
A1
330
1F
100
AcDbEntity
  8
0
  6
Continuous
 62
     7
100
AcDbLine
 10
248.492119470211
 20
142.6342333948952
 30
0.0
 11
251.492119470211
 21
141.6342333948952
 31
0.0
  0
LINE
  5
A2
330
1F
100
AcDbEntity
  8
0
  6
Continuous
 62
     7
100
AcDbLine
 10
266.4921194702114
 20
140.6342333948952
 30
0.0
 11
266.4921194702114
 21
136.3342333948941
 31
0.0
  0
LINE
  5
A3
330
1F
100
AcDbEntity
  8
0
  6
Continuous
 62
     7
100
AcDbLine
 10
251.492119470211
 20
159.8342333948941
 30
0.0
 11
248.492119470211
 21
158.8342333948941
 31
0.0
  0
LINE
  5
A4
330
1F
100
AcDbEntity
  8
0
  6
Continuous
 62
     7
100
AcDbLine
 10
249.9636063661218
 20
156.431907448231
 30
0.0
 11
248.8463664921191
 21
152.5390582264072
 31
0.0
  0
LINE
  5
A5
330
1F
100
AcDbEntity
  8
0
  6
Continuous
 62
     7
100
AcDbLine
 10
248.492119470211
 20
158.8342333948941
 30
0.0
 11
248.492119470211
 21
142.6342333948952
 31
0.0
  0
LINE
  5
A6
330
1F
100
AcDbEntity
  8
1
  6
Continuous
 62
     7
100
AcDbLine
 10
251.2006654021078
 20
157.1172430896759
 30
0.0
 11
252.2693291383562
 21
156.8105387531114
 31
0.0
  0
LINE
  5
A7
330
1F
100
AcDbEntity
  8
1
  6
Continuous
 62
     7
100
AcDbLine
 10
249.5317021335982
 20
151.3019991903848
 30
0.0
 11
251.26551971373
 21
150.8043970424233
 31
0.0
  0
LINE
  5
A8
330
1F
100
AcDbEntity
  8
1
  6
DASHED
 62
     2
100
AcDbLine
 10
268.1323826030324
 20
152.2578744083522
 30
0.0
 11
272.3579957818632
 21
151.0451319501344
 31
0.0
  0
LINE
  5
A9
330
1F
100
AcDbEntity
  8
1
  6
DASHED
 62
     2
100
AcDbLine
 10
273.0433314233545
 20
149.808072914152
 30
0.0
 11
271.9260915494748
 21
145.9152236921373
 31
0.0
  0
LINE
  5
AA
330
1F
100
AcDbEntity
  8
0
  6
Continuous
 62
     7
100
AcDbLine
 10
251.9920984237819
 20
163.1342333948952
 30
0.0
 11
275.2171226001998
 21
163.1342333948952
 31
0.0
  0
LINE
  5
AB
330
1F
100
AcDbEntity
  8
1
  6
Continuous
 62
     7
100
AcDbLine
 10
277.9921194702114
 20
163.134233394895
 30
0.0
 11
277.9921194702114
 21
160.981107359682
 31
0.0
  0
LINE
  5
AC
330
1F
100
AcDbEntity
  8
1
  6
Continuous
 62
     7
100
AcDbLine
 10
277.9921194702114
 20
135.134233394895
 30
0.0
 11
277.9921194702114
 21
136.3342333948941
 31
0.0
  0
LINE
  5
AD
330
1F
100
AcDbEntity
  8
1
  6
DOT_CENTER
 62
     2
100
AcDbLine
 10
248.293334742434
 20
154.8045246287484
 30
0.0
 11
274.3570507078099
 21
147.3242907236373
 31
0.0
  0
LINE
  5
AE
330
1F
100
AcDbEntity
  8
0
  6
Continuous
 62
     7
100
AcDbLine
 10
275.2171226001998
 20
163.1342333948952
 30
0.0
 11
274.242760178878
 21
162.1342364466518
 31
0.0
  0
LINE
  5
AF
330
1F
100
AcDbEntity
  8
0
  6
Continuous
 62
     7
100
AcDbLine
 10
248.3921286254839
 20
140.2574634826515
 30
0.0
 11
248.3921286254839
 21
145.6342364466519
 31
0.0
  0
LINE
  5
B0
330
1F
100
AcDbEntity
  8
0
  6
Continuous
 62
     7
100
AcDbLine
 10
264.9921194702114
 20
135.1342333948952
 30
0.0
 11
264.9921194702114
 21
135.6342364466519
 31
0.0
  0
LINE
  5
B1
330
1F
100
AcDbEntity
  8
0
  6
Continuous
 62
     7
100
AcDbLine
 10
276.4921194702114
 20
163.1342364466518
 30
0.0
 11
276.4921194702114
 21
160.4377958989944
 31
0.0
  0
LINE
  5
B2
330
1F
100
AcDbEntity
  8
0
  6
Continuous
 62
     7
100
AcDbLine
 10
276.4921194702114
 20
136.3342333948941
 30
0.0
 11
276.4921194702114
 21
135.1342333948952
 31
0.0
  0
LINE
  5
B3
330
1F
100
AcDbEntity
  8
0
  6
Continuous
 62
     7
100
AcDbLine
 10
263.9921194702114
 20
136.6342364466519
 30
0.0
 11
255.6921164184536
 21
136.6342364466519
 31
0.0
  0
LINE
  5
B4
330
1F
100
AcDbEntity
  8
0
  6
Continuous
 62
     7
100
AcDbLine
 10
255.6921164184536
 20
136.6342364466519
 30
0.0
 11
250.9811502003248
 21
137.2857473565637
 31
0.0
  0
LINE
  5
B5
330
1F
100
AcDbEntity
  8
0
  6
Continuous
 62
     7
100
AcDbLine
 10
248.3921286254839
 20
161.0092364466518
 30
0.0
 11
256.3921286254839
 21
162.1342364466518
 31
0.0
  0
LINE
  5
B6
330
1F
100
AcDbEntity
  8
0
  6
Continuous
 62
     7
100
AcDbLine
 10
256.3921286254839
 20
162.1342364466518
 30
0.0
 11
274.242760178878
 21
162.1342364466518
 31
0.0
  0
LINE
  5
B7
330
1F
100
AcDbEntity
  8
0
  6
Continuous
 62
     7
100
AcDbLine
 10
246.992119470211
 20
162.4092303431381
 30
0.0
 11
251.9920984237819
 21
163.1342333948952
 31
0.0
  0
LINE
  5
B8
330
1F
100
AcDbEntity
  8
0
  6
Continuous
 62
     7
100
AcDbLine
 10
251.9921412685771
 20
135.1342333948952
 30
0.0
 11
246.992119470211
 21
135.8342333948941
 31
0.0
  0
LINE
  5
B9
330
1F
100
AcDbEntity
  8
0
  6
Continuous
 62
     7
100
AcDbLine
 10
264.9921194702114
 20
135.1342333948952
 30
0.0
 11
251.9921412685771
 21
135.1342333948952
 31
0.0
  0
LINE
  5
BA
330
1F
100
AcDbEntity
  8
0
  6
Continuous
 62
     7
100
AcDbLine
 10
268.1323826030324
 20
152.2578744083522
 30
0.0
 11
257.2409567224116
 21
155.3836916653954
 31
0.0
  0
LINE
  5
BB
330
1F
100
AcDbEntity
  8
0
  6
DASHED
 62
     2
100
AcDbLine
 10
267.7285652623581
 20
146.0795361797737
 30
0.0
 11
270.6890325134806
 21
145.2298880506497
 31
0.0
  0
LINE
  5
BC
330
1F
100
AcDbEntity
  8
1
  6
DASHED
 62
     2
100
AcDbLine
 10
251.26551971373
 20
150.8043970424233
 30
0.0
 11
253.4977918502108
 21
150.1637394422951
 31
0.0
  0
LINE
  5
BD
330
1F
100
AcDbEntity
  8
1
  6
DASHED
 62
     2
100
AcDbLine
 10
252.2693291383562
 20
156.8105387531114
 30
0.0
 11
257.2409567224116
 21
155.3836916653954
 31
0.0
  0
LINE
  5
BE
330
1F
100
AcDbEntity
  8
0
  6
Continuous
 62
     7
100
AcDbLine
 10
275.2171226001998
 20
163.1342333948952
 30
0.0
 11
277.9921194702114
 21
163.134233394895
 31
0.0
  0
LINE
  5
BF
330
1F
100
AcDbEntity
  8
0
  6
Continuous
 62
     7
100
AcDbLine
 10
268.4272518176116
 20
139.181410232395
 30
0.0
 11
268.2573401809116
 21
140.035613701195
 31
0.0
  0
LINE
  5
C0
330
1F
100
AcDbEntity
  8
0
  6
Continuous
 62
     7
100
AcDbLine
 10
268.2573401809116
 20
140.035613701195
 30
0.0
 11
267.4496414649116
 21
149.267648455995
 31
0.0
  0
LINE
  5
C1
330
1F
100
AcDbEntity
  8
0
  6
Continuous
 62
     7
100
AcDbLine
 10
269.1503202978114
 20
153.4769752450949
 30
0.0
 11
277.1178830352114
 21
160.4030720167949
 31
0.0
  0
LINE
  5
C2
330
1F
100
AcDbEntity
  8
0
  6
Continuous
 62
     7
100
AcDbLine
 10
273.4202864702114
 20
147.322454394895
 30
0.0
 11
275.8673504702116
 21
142.074706394895
 31
0.0
  0
LINE
  5
C3
330
1F
100
AcDbEntity
  8
0
  6
Continuous
 62
     7
100
AcDbLine
 10
288.3119227061114
 20
156.715785490195
 30
0.0
 11
284.7690782006115
 21
155.2843836899949
 31
0.0
  0
LINE
  5
C4
330
1F
100
AcDbEntity
  8
0
  6
Continuous
 62
     7
100
AcDbLine
 10
278.5934667855114
 20
152.2500075222949
 30
0.0
 11
274.7495385748115
 21
150.696959033095
 31
0.0
  0
LINE
  5
C5
330
1F
100
AcDbEntity
  8
0
  6
Continuous
 62
     7
100
AcDbLine
 10
289.4357424702115
 20
156.9342333948949
 30
0.0
 11
299.6242704702114
 21
156.9342333948949
 31
0.0
  0
LINE
  5
C6
330
1F
100
AcDbEntity
  8
0
  6
Continuous
 62
     7
100
AcDbLine
 10
283.1255354702115
 20
160.4342333948949
 30
0.0
 11
301.0765074702114
 21
160.4342333948949
 31
0.0
  0
LINE
  5
C7
330
1F
100
AcDbEntity
  8
0
  6
DASHED
 62
     2
100
AcDbLine
 10
298.9763635864114
 20
156.9342333948949
 30
0.0
 11
296.1421194702115
 21
160.4342333948949
 31
0.0
  0
LINE
  5
C8
330
1F
100
AcDbEntity
  8
0
  6
Continuous
 62
     7
100
AcDbLine
 10
303.1028610534114
 20
152.543069218195
 30
0.0
 11
302.5220493910116
 21
154.7106869585949
 31
0.0
  0
LINE
  5
C9
330
1F
100
AcDbEntity
  8
0
  6
Continuous
 62
     7
100
AcDbLine
 10
304.2904389710115
 20
159.2644600092949
 30
0.0
 11
308.3301954702114
 21
155.8747033948949
 31
0.0
  0
LINE
  5
CA
330
1F
100
AcDbEntity
  8
0
  6
Continuous
 62
     7
100
AcDbLine
 10
314.9921194702114
 20
144.134233394895
 30
0.0
 11
314.9921194702114
 21
162.009233394895
 31
0.0
  0
LINE
  5
CB
330
1F
100
AcDbEntity
  8
0
  6
Continuous
 62
     7
100
AcDbLine
 10
314.9921194702114
 20
137.134233394895
 30
0.0
 11
314.9921194702114
 21
144.134233394895
 31
0.0
  0
LINE
  5
CC
330
1F
100
AcDbEntity
  8
1
  6
Continuous
 62
     7
100
AcDbLine
 10
306.8421103149382
 20
137.134233394895
 30
0.0
 11
314.9921194702114
 21
137.134233394895
 31
0.0
  0
LINE
  5
CD
330
1F
100
AcDbEntity
  8
0
  6
Continuous
 62
     7
100
AcDbLine
 10
297.7921072631802
 20
135.134233394895
 30
0.0
 11
306.9921194702114
 21
135.134233394895
 31
0.0
  0
LINE
  5
CE
330
1F
100
AcDbEntity
  8
0
  6
Continuous
 62
     7
100
AcDbLine
 10
281.4921194702112
 20
135.1342333948954
 30
0.0
 11
291.4921194702114
 21
135.134233394895
 31
0.0
  0
LINE
  5
CF
330
1F
100
AcDbEntity
  8
1
  6
Continuous
 62
     7
100
AcDbLine
 10
297.7921072631802
 20
135.6342331326258
 30
0.0
 11
297.7921072631802
 21
135.134233394895
 31
0.0
  0
LINE
  5
D0
330
1F
100
AcDbEntity
  8
0
  6
Continuous
 62
     7
100
AcDbLine
 10
282.7921072631801
 20
163.134233394895
 30
0.0
 11
281.4921194702114
 21
163.1342333948953
 31
0.0
  0
LINE
  5
D1
330
1F
100
AcDbEntity
  8
0
  6
Continuous
 62
     7
100
AcDbLine
 10
281.4921194702114
 20
162.134233394895
 30
0.0
 11
281.4921194702114
 21
163.1342333948953
 31
0.0
  0
LINE
  5
D2
330
1F
100
AcDbEntity
  8
1
  6
Continuous
 62
     7
100
AcDbLine
 10
282.7921072631801
 20
162.134233394895
 30
0.0
 11
281.4921194702114
 21
162.134233394895
 31
0.0
  0
LINE
  5
D3
330
1F
100
AcDbEntity
  8
0
  6
Continuous
 62
     7
100
AcDbLine
 10
306.9921194702114
 20
135.134233394895
 30
0.0
 11
314.9921194702114
 21
136.259233394895
 31
0.0
  0
LINE
  5
D4
330
1F
100
AcDbEntity
  8
0
  6
Continuous
 62
     7
100
AcDbLine
 10
299.2921072631802
 20
137.134233394895
 30
0.0
 11
306.8421103149382
 21
137.134233394895
 31
0.0
  0
LINE
  5
D5
330
1F
100
AcDbEntity
  8
0
  6
Continuous
 62
     7
100
AcDbLine
 10
306.8421103149382
 20
137.134233394895
 30
0.0
 11
311.1918690254364
 21
137.7591978499702
 31
0.0
  0
LINE
  5
D6
330
1F
100
AcDbEntity
  8
0
  6
Continuous
 62
     7
100
AcDbLine
 10
314.9921194702114
 20
162.009233394895
 30
0.0
 11
306.9921194702114
 21
163.134233394895
 31
0.0
  0
LINE
  5
D7
330
1F
100
AcDbEntity
  8
0
  6
Continuous
 62
     7
100
AcDbLine
 10
313.7921225219692
 20
140.6311557733205
 30
0.0
 11
313.7921225219692
 21
160.1592349207739
 31
0.0
  0
LINE
  5
D8
330
1F
100
AcDbEntity
  8
0
  6
Continuous
 62
     7
100
AcDbLine
 10
305.7921225219692
 20
162.134233394895
 30
0.0
 11
313.7921225219692
 21
160.1592349207739
 31
0.0
  0
LINE
  5
D9
330
1F
100
AcDbEntity
  8
0
  6
Continuous
 62
     7
100
AcDbLine
 10
282.7921072631801
 20
162.134233394895
 30
0.0
 11
305.7921225219692
 21
162.134233394895
 31
0.0
  0
LINE
  5
DA
330
1F
100
AcDbEntity
  8
0
  6
Continuous
 62
     7
100
AcDbLine
 10
282.7921072631801
 20
163.134233394895
 30
0.0
 11
282.7921072631801
 21
162.134233394895
 31
0.0
  0
LINE
  5
DB
330
1F
100
AcDbEntity
  8
0
  6
Continuous
 62
     7
100
AcDbLine
 10
306.9921194702114
 20
163.134233394895
 30
0.0
 11
282.7921072631801
 21
163.134233394895
 31
0.0
  0
LINE
  5
DC
330
1F
100
AcDbEntity
  8
0
  6
Continuous
 62
     7
100
AcDbLine
 10
281.4921194702112
 20
135.1342333948954
 30
0.0
 11
281.4921194702114
 21
152.007047329408
 31
0.0
  0
LINE
  5
DD
330
1F
100
AcDbEntity
  8
0
  6
Continuous
 62
     7
100
AcDbLine
 10
291.4921194702114
 20
141.384233394895
 30
0.0
 11
291.4921194702114
 21
135.134233394895
 31
0.0
  0
LINE
  5
DE
330
1F
100
AcDbEntity
  8
0
  6
Continuous
 62
     7
100
AcDbLine
 10
291.4921194702114
 20
135.134233394895
 30
0.0
 11
297.7921072631802
 21
135.134233394895
 31
0.0
  0
LINE
  5
DF
330
1F
100
AcDbEntity
  8
0
  6
Continuous
 62
     7
100
AcDbLine
 10
307.9921194702114
 20
142.384233394895
 30
0.0
 11
292.4921194702114
 21
142.384233394895
 31
0.0
  0
LINE
  5
E0
330
1F
100
AcDbEntity
  8
1
  6
Continuous
 62
     7
100
AcDbLine
 10
314.9921194702114
 20
135.134233394895
 30
0.0
 11
314.9921194702114
 21
136.259233394895
 31
0.0
  0
LINE
  5
E1
330
1F
100
AcDbEntity
  8
0
  6
Continuous
 62
     7
100
AcDbLine
 10
310.9921194702114
 20
143.384233394895
 30
0.0
 11
307.9921194702114
 21
142.384233394895
 31
0.0
  0
LINE
  5
E2
330
1F
100
AcDbEntity
  8
1
  6
Continuous
 62
     7
100
AcDbLine
 10
314.9921194702114
 20
163.1342333948952
 30
0.0
 11
314.9921194702114
 21
162.009233394895
 31
0.0
  0
LINE
  5
E3
330
1F
100
AcDbEntity
  8
0
  6
Continuous
 62
     7
100
AcDbLine
 10
314.9921194702114
 20
136.259233394895
 30
0.0
 11
314.9921194702114
 21
137.134233394895
 31
0.0
  0
LINE
  5
E4
330
1F
100
AcDbEntity
  8
0
  6
Continuous
 62
     7
100
AcDbLine
 10
302.592119470212
 20
162.134233394895
 30
0.0
 11
310.9921194702114
 21
160.0342333948955
 31
0.0
  0
LINE
  5
E5
330
1F
100
AcDbEntity
  8
0
  6
Continuous
 62
     7
100
AcDbLine
 10
310.9921194702114
 20
160.0342333948955
 30
0.0
 11
310.9921194702114
 21
143.384233394895
 31
0.0
  0
LINE
  5
E6
330
1F
100
AcDbEntity
  8
0
  6
Continuous
 62
     7
100
AcDbLine
 10
281.4921194702114
 20
160.9699104930959
 30
0.0
 11
281.4921194702114
 21
162.134233394895
 31
0.0
  0
LINE
  5
E7
330
1F
100
AcDbEntity
  8
0
  6
DASHED
 62
     2
100
AcDbLine
 10
291.3518563374993
 20
152.2578744083538
 30
0.0
 11
287.1262431585386
 21
151.0451319500979
 31
0.0
  0
LINE
  5
E8
330
1F
100
AcDbEntity
  8
1
  6
DASHED
 62
     2
100
AcDbLine
 10
286.4409075170512
 20
149.8080729141028
 30
0.0
 11
287.4232950943119
 21
146.3850956242149
 31
0.0
  0
LINE
  5
E9
330
1F
100
AcDbEntity
  8
0
  6
DASHED
 62
     2
100
AcDbLine
 10
288.7952064269772
 20
145.2298880506303
 30
0.0
 11
291.7556736780622
 21
146.0795361797444
 31
0.0
  0
LINE
  5
EA
330
1F
100
AcDbEntity
  8
0
  6
Continuous
 62
     7
100
AcDbLine
 10
302.2432822181112
 20
155.3836916653953
 30
0.0
 11
291.3518563374993
 21
152.2578744083538
 31
0.0
  0
LINE
  5
EB
330
1F
100
AcDbEntity
  8
1
  6
DASHED
 62
     2
100
AcDbLine
 10
302.2432822181112
 20
155.3836916653953
 30
0.0
 11
307.2149098020814
 21
156.8105387530994
 31
0.0
  0
LINE
  5
EC
330
1F
100
AcDbEntity
  8
1
  6
DOT_CENTER
 62
     2
100
AcDbLine
 10
285.3549858313921
 20
147.3896681747509
 30
0.0
 11
311.6671909391284
 21
154.9412179628615
 31
0.0
  0
LINE
  5
ED
330
1F
100
AcDbEntity
  8
0
  6
Continuous
 62
     7
100
AcDbLine
 10
310.641221436334
 20
152.5400193791355
 30
0.0
 11
309.5239815621663
 21
156.4328686010148
 31
0.0
  0
LINE
  5
EE
330
1F
100
AcDbEntity
  8
0
  6
Continuous
 62
     7
100
AcDbLine
 10
291.7556736780622
 20
146.0795361797444
 30
0.0
 11
305.9344829822007
 21
150.1488258480912
 31
0.0
  0
LINE
  5
EF
330
1F
100
AcDbEntity
  8
1
  6
Continuous
 62
     7
100
AcDbLine
 10
287.4232950943119
 20
146.3850956242149
 30
0.0
 11
287.5581473909873
 21
145.9152236921044
 31
0.0
  0
LINE
  5
F0
330
1F
100
AcDbEntity
  8
0
  6
Continuous
 62
     7
100
AcDbLine
 10
308.218719226625
 20
150.8043970424076
 30
0.0
 11
309.9558857948581
 21
151.3029603432232
 31
0.0
  0
LINE
  5
F1
330
1F
100
AcDbEntity
  8
0
  6
DASHED
 62
     2
100
AcDbLine
 10
305.9344829822007
 20
150.1488258480912
 30
0.0
 11
308.218719226625
 21
150.8043970424076
 31
0.0
  0
LINE
  5
F2
330
1F
100
AcDbEntity
  8
1
  6
Continuous
 62
     7
100
AcDbLine
 10
307.2149098020814
 20
156.8105387530994
 30
0.0
 11
308.2869225261882
 21
157.118204242426
 31
0.0
  0
LINE
  5
F3
330
1F
100
AcDbEntity
  8
0
  6
Continuous
 62
     7
100
AcDbLine
 10
251.1540434702114
 20
155.8747033948949
 30
0.0
 11
255.1937999694116
 21
159.2644600092949
 31
0.0
  0
LINE
  5
F4
330
1F
100
AcDbEntity
  8
0
  6
Continuous
 62
     7
100
AcDbLine
 10
256.9621895494114
 20
154.7106869585949
 30
0.0
 11
256.3813778870116
 21
152.543069218195
 31
0.0
  0
LINE
  5
F5
330
1F
100
AcDbEntity
  8
0
  6
DASHED
 62
     2
100
AcDbLine
 10
263.3421194702115
 20
160.4342333948949
 30
0.0
 11
260.5078753540114
 21
156.9342333948949
 31
0.0
  0
LINE
  5
F6
330
1F
100
AcDbEntity
  8
0
  6
Continuous
 62
     7
100
AcDbLine
 10
258.4077314702114
 20
160.4342333948949
 30
0.0
 11
276.3587034702115
 21
160.4342333948949
 31
0.0
  0
LINE
  5
F7
330
1F
100
AcDbEntity
  8
0
  6
Continuous
 62
     7
100
AcDbLine
 10
259.8599684702116
 20
156.9342333948949
 30
0.0
 11
270.0484964702115
 21
156.9342333948949
 31
0.0
  0
LINE
  5
F8
330
1F
100
AcDbEntity
  8
0
  6
Continuous
 62
     7
100
AcDbLine
 10
284.7347003656115
 20
150.696959033095
 30
0.0
 11
280.8907721549116
 21
152.2500075222949
 31
0.0
  0
LINE
  5
F9
330
1F
100
AcDbEntity
  8
0
  6
DASHED
 62
     2
100
AcDbLine
 10
274.7151607398115
 20
155.2843836899949
 30
0.0
 11
272.3355149701341
 21
156.245822791617
 31
0.0
  0
LINE
  5
FA
330
1F
100
AcDbEntity
  8
0
  6
Continuous
 62
     7
100
AcDbLine
 10
286.2124422984115
 20
147.729883989995
 30
0.0
 11
291.3963596775114
 21
141.972560057495
 31
0.0
  0
LINE
  5
FB
330
1F
100
AcDbEntity
  8
0
  6
Continuous
 62
     7
100
AcDbLine
 10
283.6168884702114
 20
142.074706394895
 30
0.0
 11
286.0639524702116
 21
147.322454394895
 31
0.0
  0
LINE
  5
FC
330
1F
100
AcDbEntity
  8
0
  6
DASHED
 62
     2
100
AcDbLine
 10
282.3663559052114
 20
160.4030720167949
 30
0.0
 11
287.1487239702889
 21
156.245822791617
 31
0.0
  0
LINE
  5
FD
330
1F
100
AcDbEntity
  8
0
  6
Continuous
 62
     7
100
AcDbLine
 10
292.0345974755115
 20
149.267648455995
 30
0.0
 11
291.2268987595115
 21
140.035613701195
 31
0.0
  0
LINE
  5
FE
330
1F
100
AcDbEntity
  8
0
  6
Continuous
 62
     7
100
AcDbLine
 10
291.2268987595115
 20
140.035613701195
 30
0.0
 11
291.0569871228114
 21
139.181410232395
 31
0.0
  0
LINE
  5
FF
330
1F
100
AcDbEntity
  8
0
  6
Continuous
 62
     7
100
AcDbLine
 10
287.1487239702889
 20
156.245822791617
 30
0.0
 11
290.3339186426116
 21
153.4769752450949
 31
0.0
  0
LINE
  5
100
330
1F
100
AcDbEntity
  8
0
  6
Continuous
 62
     7
100
AcDbLine
 10
272.3355149701341
 20
156.245822791617
 30
0.0
 11
271.1723162343114
 21
156.715785490195
 31
0.0
  0
LINE
  5
101
330
1F
100
AcDbEntity
  8
1
  6
Continuous
 62
     7
100
AcDbLine
 10
281.4921194702112
 20
135.1342333948954
 30
0.0
 11
314.9921194702114
 21
135.134233394895
 31
0.0
  0
LINE
  5
102
330
1F
100
AcDbEntity
  8
1
  6
DASHED
 62
     2
100
AcDbLine
 10
314.9921194702114
 20
136.259233394895
 30
0.0
 11
314.9921194702114
 21
135.134233394895
 31
0.0
  0
ARC
  5
103
330
1F
100
AcDbEntity
  8
1
  6
Continuous
 62
     7
100
AcDbCircle
 10
279.9921194702115
 20
173.1342333948952
 30
0.0
 40
2.0
100
AcDbArc
 50
180.0
 51
-90.0
  0
ARC
  5
104
330
1F
100
AcDbEntity
  8
1
  6
Continuous
 62
     7
100
AcDbCircle
 10
287.798040161454
 20
172.7342333948952
 30
0.0
 40
1.599999999999994
100
AcDbArc
 50
-90.0
 51
70.81186354628426
  0
ARC
  5
105
330
1F
100
AcDbEntity
  8
1
  6
Continuous
 62
     7
100
AcDbCircle
 10
280.9921194702115
 20
184.6342333948952
 30
0.0
 40
3.0
100
AcDbArc
 50
90.0
 51
180.0
  0
ARC
  5
106
330
1F
100
AcDbEntity
  8
1
  6
Continuous
 62
     7
100
AcDbCircle
 10
286.0824433516881
 20
184.6342333948952
 30
0.0
 40
2.999999999999809
100
AcDbArc
 50
-15.00000000000162
 51
90.0
  0
ARC
  5
107
330
1F
100
AcDbEntity
  8
1
  6
Continuous
 62
     7
100
AcDbCircle
 10
279.9921194702115
 20
173.1342333948952
 30
0.0
 40
1.0
100
AcDbArc
 50
180.0
 51
-90.0
  0
ARC
  5
108
330
1F
100
AcDbEntity
  8
1
  6
Continuous
 62
     7
100
AcDbCircle
 10
280.9921194702115
 20
184.6342333948952
 30
0.0
 40
2.0
100
AcDbArc
 50
90.0
 51
180.0
  0
ARC
  5
109
330
1F
100
AcDbEntity
  8
1
  6
Continuous
 62
     7
100
AcDbCircle
 10
286.0824433516881
 20
184.6342333948952
 30
0.0
 40
2.000000000000068
100
AcDbArc
 50
-15.00000000000153
 51
90.0
  0
ARC
  5
10A
330
1F
100
AcDbEntity
  8
1
  6
Continuous
 62
     7
100
AcDbCircle
 10
287.798040161454
 20
172.7342333948952
 30
0.0
 40
0.5999999999999943
100
AcDbArc
 50
-90.0
 51
70.81186354630664
  0
ARC
  5
10B
330
1F
100
AcDbEntity
  8
0
  6
Continuous
 62
     7
100
AcDbCircle
 10
265.4921194702114
 20
140.6342333948952
 30
0.0
 40
1.0
100
AcDbArc
 50
0.0
 51
90.0
  0
ARC
  5
10C
330
1F
100
AcDbEntity
  8
0
  6
Continuous
 62
     7
100
AcDbCircle
 10
263.9921194702114
 20
135.6342364466519
 30
0.0
 40
1.0
100
AcDbArc
 50
0.0
 51
90.0
  0
ARC
  5
10D
330
1F
100
AcDbEntity
  8
0
  6
Continuous
 62
     7
100
AcDbCircle
 10
272.2421194702114
 20
140.384233394895
 30
0.0
 40
3.999999845887339
100
AcDbArc
 50
-162.4999998374112
 51
25.00000028714665
  0
ARC
  5
10E
330
1F
100
AcDbEntity
  8
0
  6
Continuous
 62
     7
100
AcDbCircle
 10
301.0765074702114
 20
155.4342333948949
 30
0.0
 40
5.00000000000054
100
AcDbArc
 50
50.00008987780176
 51
90.0
  0
ARC
  5
10F
330
1F
100
AcDbEntity
  8
0
  6
Continuous
 62
     7
100
AcDbCircle
 10
299.6242704702114
 20
153.9342333948949
 30
0.0
 40
3.000000000000044
100
AcDbArc
 50
14.99992698430828
 51
90.0
  0
ARC
  5
110
330
1F
100
AcDbEntity
  8
0
  6
Continuous
 62
     7
100
AcDbCircle
 10
272.4306154702116
 20
149.703427394895
 30
0.0
 40
5.000000532600041
100
AcDbArc
 50
131.0000676598981
 51
-174.9999979438434
  0
ARC
  5
111
330
1F
100
AcDbEntity
  8
0
  6
Continuous
 62
     7
100
AcDbCircle
 10
279.7421194702114
 20
157.384233394895
 30
0.0
 40
4.000000436500147
100
AcDbArc
 50
58.63263509180111
 51
131.0000006202477
  0
ARC
  5
112
330
1F
100
AcDbEntity
  8
0
  6
Continuous
 62
     7
100
AcDbCircle
 10
283.1255354702115
 20
162.9342333948949
 30
0.0
 40
2.499999999999964
100
AcDbArc
 50
-121.367738506091
 51
-90.0
  0
ARC
  5
113
330
1F
100
AcDbEntity
  8
0
  6
Continuous
 62
     7
100
AcDbCircle
 10
275.6860554702115
 20
148.378999394895
 30
0.0
 40
2.499999299699935
100
AcDbArc
 50
111.9998201300143
 51
-155.0000090626218
  0
ARC
  5
114
330
1F
100
AcDbEntity
  8
0
  6
Continuous
 62
     7
100
AcDbCircle
 10
279.3426804702116
 20
150.395639394895
 30
0.0
 40
2.000000574300299
100
AcDbArc
 50
86.72877031260869
 51
112.0000087356035
  0
ARC
  5
115
330
1F
100
AcDbEntity
  8
0
  6
Continuous
 62
     7
100
AcDbCircle
 10
289.4357424702115
 20
153.9342333948949
 30
0.0
 40
3.000000486899707
100
AcDbArc
 50
90.00014509489024
 51
111.9999959107517
  0
ARC
  5
116
330
1F
100
AcDbEntity
  8
0
  6
Continuous
 62
     7
100
AcDbCircle
 10
279.7421194702114
 20
157.384233394895
 30
0.0
 40
5.000000356199774
100
AcDbArc
 50
-93.27122968739705
 51
-34.39453284360049
  0
ARC
  5
117
330
1F
100
AcDbEntity
  8
0
  6
Continuous
 62
     7
100
AcDbCircle
 10
285.5182914702115
 20
153.430015394895
 30
0.0
 40
1.999999855599571
100
AcDbArc
 50
111.9997859598047
 51
145.605467156218
  0
ARC
  5
118
330
1F
100
AcDbEntity
  8
0
  6
Continuous
 62
     7
100
AcDbCircle
 10
306.2421194702114
 20
153.384233394895
 30
0.0
 40
3.250000338900127
100
AcDbArc
 50
-164.9999588063985
 51
50.02264049929775
  0
ARC
  5
119
330
1F
100
AcDbEntity
  8
0
  6
Continuous
 62
     7
100
AcDbCircle
 10
299.2921072631802
 20
135.634233394895
 30
0.0
 40
1.5
100
AcDbArc
 50
90.0
 51
-179.9999899820546
  0
ARC
  5
11A
330
1F
100
AcDbEntity
  8
0
  6
Continuous
 62
     7
100
AcDbCircle
 10
310.7921225219692
 20
140.7342318690143
 30
0.0
 40
3.00177025794846
100
AcDbArc
 50
-82.34717225367646
 51
-1.9678343049073
  0
ARC
  5
11B
330
1F
100
AcDbEntity
  8
0
  6
Continuous
 62
     7
100
AcDbCircle
 10
292.4921194702114
 20
141.384233394895
 30
0.0
 40
1.0
100
AcDbArc
 50
90.0
 51
180.0
  0
ARC
  5
11C
330
1F
100
AcDbEntity
  8
0
  6
Continuous
 62
     7
100
AcDbCircle
 10
309.680024097634
 20
152.2641576818359
 30
0.0
 40
0.9999999998757731
100
AcDbArc
 50
-73.9866277330532
 51
16.01337226972298
  0
ARC
  5
11D
330
1F
100
AcDbEntity
  8
0
  6
Continuous
 62
     7
100
AcDbCircle
 10
253.2421194702114
 20
153.384233394895
 30
0.0
 40
3.250000338873139
100
AcDbArc
 50
129.9773595007022
 51
-15.00004119360005
  0
ARC
  5
11E
330
1F
100
AcDbEntity
  8
0
  6
DASHED
 62
     2
100
AcDbCircle
 10
273.9659474702115
 20
153.430015394895
 30
0.0
 40
1.999999855593492
100
AcDbArc
 50
34.39453284378197
 51
68.00021404019535
  0
ARC
  5
11F
330
1F
100
AcDbEntity
  8
0
  6
DASHED
 62
     2
100
AcDbCircle
 10
279.7421194702114
 20
157.384233394895
 30
0.0
 40
5.000000356199816
100
AcDbArc
 50
-145.6054671563977
 51
-86.72877031260295
  0
ARC
  5
120
330
1F
100
AcDbEntity
  8
0
  6
Continuous
 62
     7
100
AcDbCircle
 10
270.0484964702115
 20
153.9342333948949
 30
0.0
 40
3.000000486841612
100
AcDbArc
 50
68.00000408925236
 51
89.9998549051076
  0
ARC
  5
121
330
1F
100
AcDbEntity
  8
0
  6
Continuous
 62
     7
100
AcDbCircle
 10
280.1415584702114
 20
150.395639394895
 30
0.0
 40
2.000000574314583
100
AcDbArc
 50
67.99999126439647
 51
93.27122968738969
  0
ARC
  5
122
330
1F
100
AcDbEntity
  8
0
  6
Continuous
 62
     7
100
AcDbCircle
 10
283.7981834702115
 20
148.378999394895
 30
0.0
 40
2.499999299677184
100
AcDbArc
 50
-24.99999093737816
 51
68.00017986998454
  0
ARC
  5
123
330
1F
100
AcDbEntity
  8
0
  6
Continuous
 62
     7
100
AcDbCircle
 10
276.3587034702115
 20
162.9342333948949
 30
0.0
 40
2.5
100
AcDbArc
 50
-90.0
 51
-58.63226149390681
  0
ARC
  5
124
330
1F
100
AcDbEntity
  8
0
  6
Continuous
 62
     7
100
AcDbCircle
 10
279.7421194702114
 20
157.384233394895
 30
0.0
 40
4.000000436500254
100
AcDbArc
 50
63.6913044243188
 51
121.3673649081954
  0
ARC
  5
125
330
1F
100
AcDbEntity
  8
0
  6
Continuous
 62
     7
100
AcDbCircle
 10
287.0536234702114
 20
149.703427394895
 30
0.0
 40
5.000000532506368
100
AcDbArc
 50
-5.00000205615647
 51
48.99993234010194
  0
ARC
  5
126
330
1F
100
AcDbEntity
  8
0
  6
Continuous
 62
     7
100
AcDbCircle
 10
259.8599684702116
 20
153.9342333948949
 30
0.0
 40
3.0
100
AcDbArc
 50
90.0
 51
165.0000730156912
  0
ARC
  5
127
330
1F
100
AcDbEntity
  8
0
  6
Continuous
 62
     7
100
AcDbCircle
 10
258.4077314702114
 20
155.4342333948949
 30
0.0
 40
5.0
100
AcDbArc
 50
90.0
 51
129.999910122196
  0
ARC
  5
128
330
1F
100
AcDbEntity
  8
0
  6
Continuous
 62
     7
100
AcDbCircle
 10
287.2421194702114
 20
140.384233394895
 30
0.0
 40
3.999999845886232
100
AcDbArc
 50
154.999999712852
 51
-17.50000016258783
  0
ARC
  5
129
330
1F
100
AcDbEntity
  8
0
  6
DASHED
 62
     2
100
AcDbCircle
 10
279.7421194702114
 20
157.384233394895
 30
0.0
 40
4.000000436481978
100
AcDbArc
 50
48.99999937975231
 51
63.6913044243188
  0
CIRCLE
  5
12A
330
1F
100
AcDbEntity
  8
0
  6
Continuous
 62
     7
100
AcDbCircle
 10
279.7421194702114
 20
157.384233394895
 30
0.0
 40
2.025000000000148
  0
CIRCLE
  5
12B
330
1F
100
AcDbEntity
  8
0
  6
Continuous
 62
     7
100
AcDbCircle
 10
306.2421194702114
 20
153.384233394895
 30
0.0
 40
2.025000000000148
  0
CIRCLE
  5
12C
330
1F
100
AcDbEntity
  8
0
  6
Continuous
 62
     7
100
AcDbCircle
 10
272.2421194702114
 20
140.384233394895
 30
0.0
 40
2.025000000000148
  0
CIRCLE
  5
12D
330
1F
100
AcDbEntity
  8
0
  6
Continuous
 62
     7
100
AcDbCircle
 10
287.2421194702114
 20
140.384233394895
 30
0.0
 40
2.024999999999864
  0
CIRCLE
  5
12E
330
1F
100
AcDbEntity
  8
0
  6
Continuous
 62
     7
100
AcDbCircle
 10
253.2421194702114
 20
153.384233394895
 30
0.0
 40
2.02499999999992
  0
SPLINE
  5
12F
330
1F
100
AcDbEntity
  8
1
  6
Continuous
 62
     7
100
AcDbSpline
210
0.0
220
0.0
230
1.0
 70
     8
 71
     3
 72
    12
 73
     8
 74
     6
 42
0.0000000001
 43
0.0000000001
 44
0.00000001
 40
0.0
 40
0.0
 40
0.0
 40
0.0
 40
0.2775291599796395
 40
0.5641738536599998
 40
0.8992522958634475
 40
1.297504019331778
 40
1.680834346735702
 40
1.680834346735702
 40
1.680834346735702
 40
1.680834346735702
 10
291.4921194702115
 20
206.7269362325956
 30
0.0
 10
291.5800633441625
 20
206.7961359393667
 30
0.0
 10
291.7588396366297
 20
206.9368082393299
 30
0.0
 10
291.959987220245
 20
206.572060260635
 30
0.0
 10
292.329570863553
 20
206.7362124687428
 30
0.0
 10
292.6484186789788
 20
207.0009946625411
 30
0.0
 10
292.8790200308981
 20
206.8171189018142
 30
0.0
 10
292.9921194702115
 20
206.7269362325956
 30
0.0
 11
291.4921194702115
 21
206.7269362325956
 31
0.0
 11
291.7432274097532
 21
206.8451192996488
 31
0.0
 11
291.9674786778033
 21
206.6665792503797
 31
0.0
 11
292.2949203517141
 21
206.7377095014408
 31
0.0
 11
292.6546085995947
 21
206.9086738239824
 31
0.0
 11
292.9921194702115
 21
206.7269362325956
 31
0.0
  0
ARC
  5
130
330
1F
100
AcDbEntity
  8
1
  6
Continuous
 62
     7
100
AcDbCircle
 10
277.9921194702115
 20
187.6342333948952
 30
0.0
 40
1.499999999999801
100
AcDbArc
 50
90.0
 51
180.0
  0
ARC
  5
131
330
1F
100
AcDbEntity
  8
1
  6
Continuous
 62
     7
100
AcDbCircle
 10
278.4921194702115
 20
187.1342333948952
 30
0.0
 40
0.5
100
AcDbArc
 50
90.0
 51
180.0
  0
ARC
  5
132
330
1F
100
AcDbEntity
  8
1
  6
Continuous
 62
     7
100
AcDbCircle
 10
290.9921194702115
 20
176.134233394895
 30
0.0
 40
1.999999999999801
100
AcDbArc
 50
-90.0
 51
0.0000000000057
  0
ARC
  5
133
330
1F
100
AcDbEntity
  8
1
  6
Continuous
 62
     7
100
AcDbCircle
 10
288.9812561180738
 20
176.134233394895
 30
0.0
 40
1.999999999999634
100
AcDbArc
 50
-109.1881364537233
 51
-90.0
  0
ARC
  5
134
330
1F
100
AcDbEntity
  8
1
  6
Continuous
 62
     7
100
AcDbCircle
 10
290.4921194702115
 20
176.6342333948952
 30
0.0
 40
1.0
100
AcDbArc
 50
-90.0
 51
0.0
  0
ARC
  5
135
330
1F
100
AcDbEntity
  8
1
  6
Continuous
 62
     7
100
AcDbCircle
 10
289.6328688044946
 20
176.6342333948952
 30
0.0
 40
1.000000000000125
100
AcDbArc
 50
165.0000000000041
 51
-90.0
  0
ARC
  5
136
330
1F
100
AcDbEntity
  8
1
  6
Continuous
 62
     7
100
AcDbCircle
 10
289.9921194702115
 20
187.6342333948952
 30
0.0
 40
1.499999999999991
100
AcDbArc
 50
-15.00000000000131
 51
90.0
  0
ARC
  5
137
330
1F
100
AcDbEntity
  8
1
  6
Continuous
 62
     7
100
AcDbCircle
 10
289.3405067837908
 20
187.1342333948952
 30
0.0
 40
0.5000000000002167
100
AcDbArc
 50
-15.00000000001141
 51
90.0
  0
ARC
  5
138
330
1F
100
AcDbEntity
  8
1
  6
Continuous
 62
     7
100
AcDbCircle
 10
288.9812561180738
 20
176.134233394895
 30
0.0
 40
2.000000000000006
100
AcDbArc
 50
164.9999999999988
 51
-109.1881364537233
  0
ARC
  5
139
330
1F
100
AcDbEntity
  8
1
  6
Continuous
 62
     7
100
AcDbCircle
 10
288.9812561180738
 20
176.134233394895
 30
0.0
 40
3.000000000000161
100
AcDbArc
 50
164.9999999999985
 51
-109.1881364537252
  0
ARC
  5
13A
330
1F
100
AcDbEntity
  8
1
  6
Continuous
 62
     7
100
AcDbCircle
 10
240.7421194702114
 20
132.8842333948948
 30
0.0
 40
1.274754878398034
100
AcDbArc
 50
-168.6900675259966
 51
-78.69006752599006
  0
ARC
  5
13B
330
1F
100
AcDbEntity
  8
1
  6
Continuous
 62
     7
100
AcDbCircle
 10
240.7421194702114
 20
132.8842333948948
 30
0.0
 40
2.761340254296694
100
AcDbArc
 50
-174.8055710922733
 51
-84.80557109227091
  0
ARC
  5
13C
330
1F
100
AcDbEntity
  8
1
  6
Continuous
 62
     7
100
AcDbCircle
 10
275.4921194702115
 20
132.6342333948953
 30
0.0
 40
2.5
100
AcDbArc
 50
-90.0
 51
0.0
  0
ARC
  5
13D
330
1F
100
AcDbEntity
  8
1
  6
Continuous
 62
     7
100
AcDbCircle
 10
275.4921194702115
 20
132.6342333948953
 30
0.0
 40
1.0
100
AcDbArc
 50
-90.0
 51
0.0
  0
ARC
  5
13E
330
1F
100
AcDbEntity
  8
1
  6
Continuous
 62
     7
100
AcDbCircle
 10
242.9921194702113
 20
169.1342333948949
 30
0.0
 40
2.0
100
AcDbArc
 50
90.0
 51
165.5224878140708
  0
ARC
  5
13F
330
1F
100
AcDbEntity
  8
1
  6
Continuous
 62
     7
100
AcDbCircle
 10
242.9921194702113
 20
169.1342333948949
 30
0.0
 40
0.5
100
AcDbArc
 50
90.0
 51
180.0
  0
ARC
  5
140
330
1F
100
AcDbEntity
  8
1
  6
Continuous
 62
     7
100
AcDbCircle
 10
242.9921194702113
 20
169.1342333948949
 30
0.0
 40
2.000000000000091
100
AcDbArc
 50
165.5224878140708
 51
180.0
  0
ARC
  5
141
330
1F
100
AcDbEntity
  8
1
  6
Continuous
 62
     7
100
AcDbCircle
 10
264.9921194702112
 20
134.6342333948949
 30
0.0
 40
0.5
100
AcDbArc
 50
-90.0
 51
0.0
  0
ARC
  5
142
330
1F
100
AcDbEntity
  8
1
  6
Continuous
 62
     7
100
AcDbCircle
 10
264.9921194702112
 20
166.6342333948949
 30
0.0
 40
0.5
100
AcDbArc
 50
0.0
 51
90.0
  0
ARC
  5
143
330
1F
100
AcDbEntity
  8
1
  6
Continuous
 62
     7
100
AcDbCircle
 10
264.9921194702112
 20
134.6342333948949
 30
0.0
 40
3.0
100
AcDbArc
 50
-90.0
 51
-80.40593177313947
  0
ARC
  5
144
330
1F
100
AcDbEntity
  8
1
  6
Continuous
 62
     7
100
AcDbCircle
 10
264.9921194702112
 20
166.6342333948949
 30
0.0
 40
3.0
100
AcDbArc
 50
0.0
 51
90.0
  0
ARC
  5
145
330
1F
100
AcDbEntity
  8
1
  6
Continuous
 62
     7
100
AcDbCircle
 10
264.9921194702112
 20
134.6342333948949
 30
0.0
 40
2.99999999999998
100
AcDbArc
 50
-80.40593177313947
 51
0.0
  0
ARC
  5
146
330
1F
100
AcDbEntity
  8
1
  6
DASHED
 62
     2
100
AcDbCircle
 10
272.0821340846193
 20
150.083934611398
 30
0.0
 40
0.9999999999995273
100
AcDbArc
 50
-16.01337226621634
 51
73.98662773391835
  0
ARC
  5
147
330
1F
100
AcDbEntity
  8
1
  6
Continuous
 62
     7
100
AcDbCircle
 10
251.3921286254839
 20
140.2574634826515
 30
0.0
 40
3.0
100
AcDbArc
 50
180.0
 51
-97.87387017109803
  0
ARC
  5
148
330
1F
100
AcDbEntity
  8
1
  6
DASHED
 62
     2
100
AcDbCircle
 10
270.9648942107382
 20
146.1910853893815
 30
0.0
 40
0.9999999999994753
100
AcDbArc
 50
-106.0133722669084
 51
-16.01337226609526
  0
ARC
  5
149
330
1F
100
AcDbEntity
  8
1
  6
Continuous
 62
     7
100
AcDbCircle
 10
250.9248037048459
 20
156.156045750945
 30
0.0
 40
0.999999999999785
100
AcDbArc
 50
73.98662773284086
 51
163.9866277314061
  0
ARC
  5
14A
330
1F
100
AcDbEntity
  8
1
  6
Continuous
 62
     7
100
AcDbCircle
 10
249.8075638308442
 20
152.263196529123
 30
0.0
 40
1.000000000000367
100
AcDbArc
 50
163.9866277315205
 51
-106.0133722661687
  0
ARC
  5
14B
330
1F
100
AcDbEntity
  8
1
  6
DASHED
 62
     2
100
AcDbCircle
 10
287.4021048557828
 20
150.0839346113616
 30
0.0
 40
1.000000000000091
100
AcDbArc
 50
106.0133722660986
 51
-163.9866277330227
  0
ARC
  5
14C
330
1F
100
AcDbEntity
  8
1
  6
DASHED
 62
     2
100
AcDbCircle
 10
288.5193447297191
 20
146.1910853893632
 30
0.0
 40
1.000000000000217
100
AcDbArc
 50
-91.21244973793902
 51
-73.98662773308048
  0
ARC
  5
14D
330
1F
100
AcDbEntity
  8
1
  6
Continuous
 62
     7
100
AcDbCircle
 10
288.5193447297191
 20
146.1910853893632
 30
0.0
 40
0.9999999999997773
100
AcDbArc
 50
-163.9866277330254
 51
-91.21244973793902
  0
ARC
  5
14E
330
1F
100
AcDbEntity
  8
1
  6
Continuous
 62
     7
100
AcDbCircle
 10
308.5627842234518
 20
156.1570069036951
 30
0.0
 40
0.9999999999999695
100
AcDbArc
 50
16.01337227060208
 51
106.0133722672515
  0
DIMENSION
  5
15C
330
1F
100
AcDbEntity
  8
1
100
AcDbDimension
  2
*D1
 10
277.9921194702114
 20
120.4831856226499
 30
0.0
 11
272.2069208925338
 21
124.2331856226499
 31
0.0
 70
    32
  1
<>
 71
     5
 42
-1.0
 53
0.00013888888889
  3
ME10_DIM_10
100
AcDbAlignedDimension
 13
281.4921194702112
 23
131.1342333948952
 33
0.0
 14
277.9921194702115
 24
132.6342333948953
 34
0.0
100
AcDbRotatedDimension
  0
DIMENSION
  5
167
330
1F
100
AcDbEntity
  8
1
100
AcDbDimension
  2
*D2
 10
281.4921194702112
 20
109.8782104108829
 30
0.0
 11
297.2885289330618
 21
113.6282104108829
 31
0.0
 70
    32
  1
<>
 71
     5
 42
-1.0
 53
0.00013888888889
  3
ME10_DIM_11
100
AcDbAlignedDimension
 13
314.9921194702114
 23
137.134233394895
 33
0.0
 14
281.4921194702112
 24
131.1342333948952
 34
0.0
100
AcDbRotatedDimension
  0
DIMENSION
  5
174
330
1F
100
AcDbEntity
  8
1
100
AcDbDimension
  2
*D3
 10
333.5935353615059
 20
131.1342333948952
 30
0.0
 11
329.8435353615059
 21
125.1654047706539
 31
0.0
 70
    32
  1
<>
 71
     5
 42
-1.0
 53
90.0
  3
ME10_DIM_12
100
AcDbAlignedDimension
 13
275.4921194702115
 23
130.1342333948953
 33
0.0
 14
281.4921194702112
 24
131.1342333948952
 34
0.0
 50
90.0
100
AcDbRotatedDimension
  0
DIMENSION
  5
17F
330
1F
100
AcDbEntity
  8
1
100
AcDbDimension
  2
*D4
 10
240.9921194702113
 20
109.8782104108829
 30
0.0
 11
261.529256370261
 21
113.6282104108829
 31
0.0
 70
    32
  1
<>
 71
     5
 42
-1.0
 53
0.00013888888889
  3
ME10_DIM_13
100
AcDbAlignedDimension
 13
277.9921194702115
 23
132.6342333948953
 33
0.0
 14
240.9921194702113
 24
137.6342333948949
 34
0.0
100
AcDbRotatedDimension
  0
DIMENSION
  5
18C
330
1F
100
AcDbEntity
  8
1
100
AcDbDimension
  2
*D5
 10
227.1971003121248
 20
135.1342333948952
 30
0.0
 11
223.4471003121248
 21
132.6342333948952
 31
0.0
 70
    32
  1
<>
 71
     5
 42
-1.0
 53
90.0
  3
ME10_DIM_14
100
AcDbAlignedDimension
 13
240.9921194702111
 23
130.1342333948952
 33
0.0
 14
251.9921412685771
 24
135.1342333948952
 34
0.0
 50
90.0
100
AcDbRotatedDimension
  0
DIMENSION
  5
197
330
1F
100
AcDbEntity
  8
1
100
AcDbDimension
  2
*D6
 10
227.1971003121248
 20
163.1342333948952
 30
0.0
 11
223.4471003121248
 21
149.785534914122
 31
0.0
 70
    32
  1
<>
 71
     5
 42
-1.0
 53
90.0
  3
ME10_DIM_15
100
AcDbAlignedDimension
 13
251.9921412685771
 23
135.1342333948952
 33
0.0
 14
251.9920984237819
 24
163.1342333948952
 34
0.0
 50
90.0
100
AcDbRotatedDimension
  0
DIMENSION
  5
1A3
330
1F
100
AcDbEntity
  8
1
100
AcDbDimension
  2
*D7
 10
342.394844390742
 20
163.1342333948952
 30
0.0
 11
338.644844390742
 21
147.736045136767
 31
0.0
 70
    32
  1
<>
 71
     5
 42
-1.0
 53
90.0
  3
ME10_DIM_16
100
AcDbAlignedDimension
 13
314.9921194702114
 23
135.134233394895
 33
0.0
 14
314.9921194702114
 24
163.1342333948952
 34
0.0
 50
90.0
100
AcDbRotatedDimension
  0
DIMENSION
  5
1B1
330
1F
100
AcDbEntity
  8
1
100
AcDbDimension
  2
*D8
 10
342.394844390742
 20
135.134233394895
 30
0.0
 11
338.644844390742
 21
133.1342333948951
 31
0.0
 70
    32
  1
<>
 71
     5
 42
-1.0
 53
90.0
  3
ME10_DIM_17
100
AcDbAlignedDimension
 13
325.4921194702114
 23
131.1342333948952
 33
0.0
 14
314.9921194702114
 24
135.134233394895
 34
0.0
 50
90.0
100
AcDbRotatedDimension
  0
ENDSEC
  0
SECTION
  2
OBJECTS
  0
DICTIONARY
  5
C
330
0
100
AcDbDictionary
281
     1
  3
ACAD_GROUP
350
D
  3
ACAD_LAYOUT
350
1A
  3
ACAD_MLINESTYLE
350
17
  3
ACAD_PLOTSETTINGS
350
19
  3
ACAD_PLOTSTYLENAME
350
E
  0
DICTIONARY
  5
D
102
{ACAD_REACTORS
330
C
102
}
330
C
100
AcDbDictionary
281
     1
  0
DICTIONARY
  5
1A
102
{ACAD_REACTORS
330
C
102
}
330
C
100
AcDbDictionary
281
     1
  3
Layout1
350
1E
  3
Layout2
350
26
  3
Model
350
22
  0
DICTIONARY
  5
17
102
{ACAD_REACTORS
330
C
102
}
330
C
100
AcDbDictionary
281
     1
  3
Standard
350
18
  0
DICTIONARY
  5
19
102
{ACAD_REACTORS
330
C
102
}
330
C
100
AcDbDictionary
281
     1
  0
ACDBDICTIONARYWDFLT
  5
E
102
{ACAD_REACTORS
330
C
102
}
330
C
100
AcDbDictionary
281
     1
  3
Normal
350
F
100
AcDbDictionaryWithDefault
340
F
  0
LAYOUT
  5
1E
102
{ACAD_REACTORS
330
1A
102
}
330
1A
100
AcDbPlotSettings
  1

  2

  4

  6

 40
0.0
 41
0.0
 42
0.0
 43
0.0
 44
0.0
 45
0.0
 46
0.0
 47
0.0
 48
0.0
 49
0.0
140
0.0
141
0.0
142
1.0
143
1.0
 70
   688
 72
     0
 73
     0
 74
     5
  7

 75
    16
 76
     0
 77
     2
 78
   300
147
1.0
148
0.0
149
0.0
100
AcDbLayout
  1
Layout1
 70
     1
 71
     1
 10
0.0
 20
0.0
 11
0.0
 21
0.0
 12
0.0
 22
0.0
 32
0.0
 14
0.0
 24
0.0
 34
0.0
 15
0.0
 25
0.0
 35
0.0
146
0.0
 13
0.0
 23
0.0
 33
0.0
 16
1.0
 26
0.0
 36
0.0
 17
0.0
 27
1.0
 37
0.0
 76
     0
330
1B
  0
LAYOUT
  5
26
102
{ACAD_REACTORS
330
1A
102
}
330
1A
100
AcDbPlotSettings
  1

  2

  4

  6

 40
0.0
 41
0.0
 42
0.0
 43
0.0
 44
0.0
 45
0.0
 46
0.0
 47
0.0
 48
0.0
 49
0.0
140
0.0
141
0.0
142
1.0
143
1.0
 70
   688
 72
     0
 73
     0
 74
     5
  7

 75
    16
 76
     0
 77
     2
 78
   300
147
1.0
148
0.0
149
0.0
100
AcDbLayout
  1
Layout2
 70
     1
 71
     2
 10
0.0
 20
0.0
 11
0.0
 21
0.0
 12
0.0
 22
0.0
 32
0.0
 14
0.0
 24
0.0
 34
0.0
 15
0.0
 25
0.0
 35
0.0
146
0.0
 13
0.0
 23
0.0
 33
0.0
 16
1.0
 26
0.0
 36
0.0
 17
0.0
 27
1.0
 37
0.0
 76
     0
330
23
  0
LAYOUT
  5
22
102
{ACAD_REACTORS
330
1A
102
}
330
1A
100
AcDbPlotSettings
  1

  2

  4

  6

 40
0.0
 41
0.0
 42
0.0
 43
0.0
 44
0.0
 45
0.0
 46
0.0
 47
0.0
 48
0.0
 49
0.0
140
0.0
141
0.0
142
1.0
143
1.0
 70
  1712
 72
     0
 73
     0
 74
     0
  7

 75
     0
 76
     0
 77
     2
 78
   300
147
1.0
148
0.0
149
0.0
100
AcDbLayout
  1
Model
 70
     1
 71
     0
 10
0.0
 20
0.0
 11
0.0
 21
0.0
 12
0.0
 22
0.0
 32
0.0
 14
221.6971003121248
 24
107.8782104108829
 34
0.0
 15
344.394844390742
 25
206.9230765075409
 35
0.0
146
0.0
 13
0.0
 23
0.0
 33
0.0
 16
1.0
 26
0.0
 36
0.0
 17
0.0
 27
1.0
 37
0.0
 76
     0
330
1F
  0
MLINESTYLE
  5
18
102
{ACAD_REACTORS
330
17
102
}
330
17
100
AcDbMlineStyle
  2
Standard
 70
     0
  3

 62
   256
 51
90.0
 52
90.0
 71
     2
 49
0.5
 62
   256
  6
BYLAYER
 49
-0.5
 62
   256
  6
BYLAYER
  0
ACDBPLACEHOLDER
  5
F
102
{ACAD_REACTORS
330
E
102
}
330
E
  0
ENDSEC
  0
EOF
