  0
SECTION
  2
HEADER
  9
$ACADVER
  1
AC1018
  9
$ACADMAINTVER
 70
     0
  9
$DWGCODEPAGE
  3
ANSI_1252
  9
$INSBASE
 10
0.0
 20
0.0
 30
0.0
  9
$EXTMIN
 10
-168.91485230427
 20
-150.6182392210103
 30
0.0
  9
$EXTMAX
 10
181.906839752014
 20
81.77063309968568
 30
0.0
  9
$LIMMIN
 10
0.0
 20
0.0
  9
$LIMMAX
 10
12.0
 20
9.0
  9
$ORTHOMODE
 70
     0
  9
$REGENMODE
 70
     1
  9
$FILLMODE
 70
     1
  9
$QTEXTMODE
 70
     0
  9
$MIRRTEXT
 70
     1
  9
$LTSCALE
 40
1.0
  9
$ATTMODE
 70
     1
  9
$TEXTSIZE
 40
0.2
  9
$TRACEWID
 40
0.05
  9
$TEXTSTYLE
  7
Standard
  9
$CLAYER
  8
0
  9
$CELTYPE
  6
ByLayer
  9
$CECOLOR
 62
   256
  9
$CELTSCALE
 40
1.0
  9
$DISPSILH
 70
     0
  9
$DIMSCALE
 40
1.0
  9
$DIMASZ
 40
0.18
  9
$DIMEXO
 40
0.0625
  9
$DIMDLI
 40
0.38
  9
$DIMRND
 40
0.0
  9
$DIMDLE
 40
0.0
  9
$DIMEXE
 40
0.18
  9
$DIMTP
 40
0.0
  9
$DIMTM
 40
0.0
  9
$DIMTXT
 40
0.18
  9
$DIMCEN
 40
0.09
  9
$DIMTSZ
 40
0.0
  9
$DIMTOL
 70
     0
  9
$DIMLIM
 70
     0
  9
$DIMTIH
 70
     1
  9
$DIMTOH
 70
     1
  9
$DIMSE1
 70
     0
  9
$DIMSE2
 70
     0
  9
$DIMTAD
 70
     0
  9
$DIMZIN
 70
     0
  9
$DIMBLK
  1

  9
$DIMASO
 70
     1
  9
$DIMSHO
 70
     1
  9
$DIMPOST
  1

  9
$DIMAPOST
  1

  9
$DIMALT
 70
     0
  9
$DIMALTD
 70
     2
  9
$DIMALTF
 40
25.4
  9
$DIMLFAC
 40
1.0
  9
$DIMTOFL
 70
     0
  9
$DIMTVP
 40
0.0
  9
$DIMTIX
 70
     0
  9
$DIMSOXD
 70
     0
  9
$DIMSAH
 70
     0
  9
$DIMBLK1
  1

  9
$DIMBLK2
  1

  9
$DIMSTYLE
  2
Standard
  9
$DIMCLRD
 70
     0
  9
$DIMCLRE
 70
     0
  9
$DIMCLRT
 70
     0
  9
$DIMTFAC
 40
1.0
  9
$DIMGAP
 40
0.09
  9
$DIMJUST
 70
     0
  9
$DIMSD1
 70
     0
  9
$DIMSD2
 70
     0
  9
$DIMTOLJ
 70
     1
  9
$DIMTZIN
 70
     0
  9
$DIMALTZ
 70
     0
  9
$DIMALTTZ
 70
     0
  9
$DIMUPT
 70
     0
  9
$DIMDEC
 70
     4
  9
$DIMTDEC
 70
     4
  9
$DIMALTU
 70
     2
  9
$DIMALTTD
 70
     2
  9
$DIMTXSTY
  7
Standard
  9
$DIMAUNIT
 70
     0
  9
$DIMADEC
 70
     0
  9
$DIMALTRND
 40
0.0
  9
$DIMAZIN
 70
     0
  9
$DIMDSEP
 70
    46
  9
$DIMATFIT
 70
     3
  9
$DIMFRAC
 70
     0
  9
$DIMLDRBLK
  1

  9
$DIMLUNIT
 70
     2
  9
$DIMLWD
 70
    -2
  9
$DIMLWE
 70
    -2
  9
$DIMTMOVE
 70
     0
  9
$LUNITS
 70
     2
  9
$LUPREC
 70
     4
  9
$SKETCHINC
 40
0.1
  9
$FILLETRAD
 40
0.5
  9
$AUNITS
 70
     0
  9
$AUPREC
 70
     0
  9
$MENU
  1
.
  9
$ELEVATION
 40
0.0
  9
$PELEVATION
 40
0.0
  9
$THICKNESS
 40
0.0
  9
$LIMCHECK
 70
     0
  9
$CHAMFERA
 40
0.5
  9
$CHAMFERB
 40
0.5
  9
$CHAMFERC
 40
1.0
  9
$CHAMFERD
 40
0.0
  9
$SKPOLY
 70
     0
  9
$TDCREATE
 40
2455841.353233438
  9
$TDUCREATE
 40
2455841.269900104
  9
$TDUPDATE
 40
2455841.353233449
  9
$TDUUPDATE
 40
2455841.269900116
  9
$TDINDWG
 40
0.0000000116
  9
$TDUSRTIMER
 40
0.0000000116
  9
$USRTIMER
 70
     1
  9
$ANGBASE
 50
0.0
  9
$ANGDIR
 70
     0
  9
$PDMODE
 70
     0
  9
$PDSIZE
 40
0.0
  9
$PLINEWID
 40
0.0
  9
$SPLFRAME
 70
     0
  9
$SPLINETYPE
 70
     6
  9
$SPLINESEGS
 70
     8
  9
$HANDSEED
  5
232
  9
$SURFTAB1
 70
     6
  9
$SURFTAB2
 70
     6
  9
$SURFTYPE
 70
     6
  9
$SURFU
 70
     6
  9
$SURFV
 70
     6
  9
$UCSBASE
  2

  9
$UCSNAME
  2

  9
$UCSORG
 10
0.0
 20
0.0
 30
0.0
  9
$UCSXDIR
 10
1.0
 20
0.0
 30
0.0
  9
$UCSYDIR
 10
0.0
 20
1.0
 30
0.0
  9
$UCSORTHOREF
  2

  9
$UCSORTHOVIEW
 70
     0
  9
$UCSORGTOP
 10
0.0
 20
0.0
 30
0.0
  9
$UCSORGBOTTOM
 10
0.0
 20
0.0
 30
0.0
  9
$UCSORGLEFT
 10
0.0
 20
0.0
 30
0.0
  9
$UCSORGRIGHT
 10
0.0
 20
0.0
 30
0.0
  9
$UCSORGFRONT
 10
0.0
 20
0.0
 30
0.0
  9
$UCSORGBACK
 10
0.0
 20
0.0
 30
0.0
  9
$PUCSBASE
  2

  9
$PUCSNAME
  2

  9
$PUCSORG
 10
0.0
 20
0.0
 30
0.0
  9
$PUCSXDIR
 10
1.0
 20
0.0
 30
0.0
  9
$PUCSYDIR
 10
0.0
 20
1.0
 30
0.0
  9
$PUCSORTHOREF
  2

  9
$PUCSORTHOVIEW
 70
     0
  9
$PUCSORGTOP
 10
0.0
 20
0.0
 30
0.0
  9
$PUCSORGBOTTOM
 10
0.0
 20
0.0
 30
0.0
  9
$PUCSORGLEFT
 10
0.0
 20
0.0
 30
0.0
  9
$PUCSORGRIGHT
 10
0.0
 20
0.0
 30
0.0
  9
$PUCSORGFRONT
 10
0.0
 20
0.0
 30
0.0
  9
$PUCSORGBACK
 10
0.0
 20
0.0
 30
0.0
  9
$USERI1
 70
     0
  9
$USERI2
 70
     0
  9
$USERI3
 70
     0
  9
$USERI4
 70
     0
  9
$USERI5
 70
     0
  9
$USERR1
 40
14.5
  9
$USERR2
 40
0.0
  9
$USERR3
 40
0.0
  9
$USERR4
 40
0.0
  9
$USERR5
 40
0.0
  9
$WORLDVIEW
 70
     1
  9
$SHADEDGE
 70
     3
  9
$SHADEDIF
 70
    70
  9
$TILEMODE
 70
     1
  9
$MAXACTVP
 70
    64
  9
$PINSBASE
 10
0.0
 20
0.0
 30
0.0
  9
$PLIMCHECK
 70
     0
  9
$PEXTMIN
 10
1.00000000000000E+20
 20
1.00000000000000E+20
 30
1.00000000000000E+20
  9
$PEXTMAX
 10
-1.00000000000000E+20
 20
-1.00000000000000E+20
 30
-1.00000000000000E+20
  9
$PLIMMIN
 10
0.0
 20
0.0
  9
$PLIMMAX
 10
12.0
 20
9.0
  9
$UNITMODE
 70
     0
  9
$VISRETAIN
 70
     1
  9
$PLINEGEN
 70
     0
  9
$PSLTSCALE
 70
     1
  9
$TREEDEPTH
 70
  3020
  9
$CMLSTYLE
  2
Standard
  9
$CMLJUST
 70
     0
  9
$CMLSCALE
 40
1.0
  9
$PROXYGRAPHICS
 70
     1
  9
$MEASUREMENT
 70
     1
  9
$CELWEIGHT
370
    -1
  9
$ENDCAPS
280
     0
  9
$JOINSTYLE
280
     0
  9
$LWDISPLAY
290
     0
  9
$INSUNITS
 70
     1
  9
$HYPERLINKBASE
  1

  9
$STYLESHEET
  1

  9
$XEDIT
290
     1
  9
$CEPSNTYPE
380
     0
  9
$PSTYLEMODE
290
     1
  9
$FINGERPRINTGUID
  2
{4596649B-6FF7-4910-91D3-90A8206BE677}
  9
$VERSIONGUID
  2
{FAEB1C32-E019-11D5-929B-00C0DF256EC4}
  9
$EXTNAMES
290
     1
  9
$PSVPSCALE
 40
0.0
  9
$OLESTARTUP
290
     0
  9
$SORTENTS
280
   127
  9
$INDEXCTL
280
     0
  9
$HIDETEXT
280
     1
  9
$XCLIPFRAME
290
     0
  9
$HALOGAP
280
     0
  9
$OBSCOLOR
 70
   257
  9
$OBSLTYPE
280
     0
  9
$INTERSECTIONDISPLAY
280
     0
  9
$INTERSECTIONCOLOR
 70
   257
  9
$DIMASSOC
280
     2
  9
$PROJECTNAME
  1

  0
ENDSEC
  0
SECTION
  2
CLASSES
  0
CLASS
  1
ACDBDICTIONARYWDFLT
  2
AcDbDictionaryWithDefault
  3
ObjectDBX Classes
 90
        0
 91
        3
280
     0
281
     0
  0
CLASS
  1

  2
exOdDbCircle
  3

 90
        0
 91
        3
280
     0
281
     1
  0
CLASS
  1

  2
exOdDbSpline
  3

 90
        0
 91
        3
280
     0
281
     1
  0
ENDSEC
  0
SECTION
  2
TABLES
  0
TABLE
  2
VPORT
  5
8
330
0
100
AcDbSymbolTable
 70
     1
  0
VPORT
  5
29
330
8
100
AcDbSymbolTableRecord
100
AcDbViewportTableRecord
  2
*Active
 70
     0
 10
0.0
 20
0.0
 11
1.0
 21
1.0
 12
6.495993723872
 22
-34.42380306066231
 13
0.0
 23
0.0
 14
0.5
 24
0.5
 15
0.5
 25
0.5
 16
0.0
 26
0.0
 36
1.0
 17
0.0
 27
0.0
 37
0.0
 40
255.6277595527656
 41
1.60267857142857
 42
50.0
 43
0.0
 44
0.0
 50
0.0
 51
0.0
 71
     0
 72
   100
 73
     1
 74
     3
 75
     0
 76
     0
 77
     0
 78
     0
281
     0
 65
     1
110
0.0
120
0.0
130
0.0
111
1.0
121
0.0
131
0.0
112
0.0
122
1.0
132
0.0
 79
     0
146
0.0
  0
ENDTAB
  0
TABLE
  2
LTYPE
  5
5
330
0
100
AcDbSymbolTable
 70
     8
  0
LTYPE
  5
14
330
5
100
AcDbSymbolTableRecord
100
AcDbLinetypeTableRecord
  2
ByBlock
 70
     0
  3

 72
    65
 73
     0
 40
0.0
  0
LTYPE
  5
15
330
5
100
AcDbSymbolTableRecord
100
AcDbLinetypeTableRecord
  2
ByLayer
 70
     0
  3

 72
    65
 73
     0
 40
0.0
  0
LTYPE
  5
16
330
5
100
AcDbSymbolTableRecord
100
AcDbLinetypeTableRecord
  2
Continuous
 70
     0
  3
Solid line
 72
    65
 73
     0
 40
0.0
  0
LTYPE
  5
2A
330
5
100
AcDbSymbolTableRecord
100
AcDbLinetypeTableRecord
  2
DASHED
 70
     0
  3
Dashed
 72
    65
 73
     2
 40
15.0
 49
7.0
 74
     0
 49
-8.0
 74
     0
  0
LTYPE
  5
2B
330
5
100
AcDbSymbolTableRecord
100
AcDbLinetypeTableRecord
  2
DOTTED
 70
     0
  3
Dotted
 72
    65
 73
     2
 40
1.0
 49
0.0
 74
     0
 49
-1.0
 74
     0
  0
LTYPE
  5
2C
330
5
100
AcDbSymbolTableRecord
100
AcDbLinetypeTableRecord
  2
DOT_CENTER
 70
     0
  3
Dot_Center
 72
    65
 73
     4
 40
14.0
 49
12.0
 74
     0
 49
-1.0
 74
     0
 49
0.0
 74
     0
 49
-1.0
 74
     0
  0
LTYPE
  5
2D
330
5
100
AcDbSymbolTableRecord
100
AcDbLinetypeTableRecord
  2
LONG_DASHED
 70
     0
  3
Long_Dashed
 72
    65
 73
     2
 40
15.0
 49
10.0
 74
     0
 49
-5.0
 74
     0
  0
LTYPE
  5
2E
330
5
100
AcDbSymbolTableRecord
100
AcDbLinetypeTableRecord
  2
DASH_CENTER
 70
     0
  3
Dash_Center
 72
    65
 73
     4
 40
14.0
 49
11.0
 74
     0
 49
-1.0
 74
     0
 49
1.0
 74
     0
 49
-1.0
 74
     0
  0
LTYPE
  5
2F
330
5
100
AcDbSymbolTableRecord
100
AcDbLinetypeTableRecord
  2
PHANTOM
 70
     0
  3
Phantom
 72
    65
 73
     6
 40
13.0
 49
10.0
 74
     0
 49
-1.0
 74
     0
 49
0.0
 74
     0
 49
-1.0
 74
     0
 49
0.0
 74
     0
 49
-1.0
 74
     0
  0
LTYPE
  5
30
330
5
100
AcDbSymbolTableRecord
100
AcDbLinetypeTableRecord
  2
CENTER_DASH_DASH
 70
     0
  3
Center_Dash_Dash
 72
    65
 73
     6
 40
14.0
 49
9.0
 74
     0
 49
-1.0
 74
     0
 49
1.0
 74
     0
 49
-1.0
 74
     0
 49
1.0
 74
     0
 49
-1.0
 74
     0
  0
ENDTAB
  0
TABLE
  2
LAYER
  5
2
330
0
100
AcDbSymbolTable
 70
     4
  0
LAYER
  5
10
330
2
100
AcDbSymbolTableRecord
100
AcDbLayerTableRecord
  2
0
 70
     0
 62
     7
  6
Continuous
370
    -3
390
F
  0
LAYER
  5
31
330
2
100
AcDbSymbolTableRecord
100
AcDbLayerTableRecord
  2
1
 70
     0
 62
     7
  6
Continuous
370
    -3
390
F
  0
LAYER
  5
32
330
2
100
AcDbSymbolTableRecord
100
AcDbLayerTableRecord
  2
A_ACHSEN
 70
     0
 62
     7
  6
Continuous
370
    -3
390
F
  0
LAYER
  5
33
330
2
100
AcDbSymbolTableRecord
100
AcDbLayerTableRecord
  2
A_RUNDUNGEN
 70
     0
 62
     7
  6
Continuous
370
    -3
390
F
  0
ENDTAB
  0
TABLE
  2
STYLE
  5
3
330
0
100
AcDbSymbolTable
 70
     2
  0
STYLE
  5
11
330
3
100
AcDbSymbolTableRecord
100
AcDbTextStyleTableRecord
  2
Standard
 70
     0
 40
0.0
 41
1.0
 50
0.0
 71
     0
 42
0.2
  3
txt
  4

  0
STYLE
  5
187
330
3
100
AcDbSymbolTableRecord
100
AcDbTextStyleTableRecord
  2
CONVERTER_11
 70
     0
 40
0.0
 41
0.9
 50
0.0
 71
     0
 42
0.2
  3
txt.shx
  4

  0
ENDTAB
  0
TABLE
  2
VIEW
  5
6
330
0
100
AcDbSymbolTable
 70
     0
  0
ENDTAB
  0
TABLE
  2
UCS
  5
7
330
0
100
AcDbSymbolTable
 70
     0
  0
ENDTAB
  0
TABLE
  2
APPID
  5
9
330
0
100
AcDbSymbolTable
 70
     1
  0
APPID
  5
12
330
9
100
AcDbSymbolTableRecord
100
AcDbRegAppTableRecord
  2
ACAD
 70
     0
  0
ENDTAB
  0
TABLE
  2
DIMSTYLE
  5
A
330
0
100
AcDbSymbolTable
 70
    14
100
AcDbDimStyleTable
  0
DIMSTYLE
105
27
330
A
100
AcDbSymbolTableRecord
100
AcDbDimStyleTableRecord
  2
Standard
 70
     0
340
11
  0
DIMSTYLE
105
196
102
{ACAD_REACTORS
330
197
102
}
330
A
100
AcDbSymbolTableRecord
100
AcDbDimStyleTableRecord
  2
ME10_DIM_10
 70
     0
 41
3.5
 42
0.0
 44
2.0
 73
     0
 74
     0
 77
     1
 78
     8
140
3.5
147
2.0
172
     1
173
     1
176
     2
177
     2
178
     2
271
     3
340
187
  0
DIMSTYLE
105
1A1
102
{ACAD_REACTORS
330
1A2
102
}
330
A
100
AcDbSymbolTableRecord
100
AcDbDimStyleTableRecord
  2
ME10_DIM_11
 70
     0
 41
3.5
 42
0.0
 44
2.0
 73
     0
 74
     0
 77
     1
 78
     8
140
3.5
147
2.0
172
     1
173
     1
176
     2
177
     2
178
     2
271
     3
340
187
  0
DIMSTYLE
105
1AC
102
{ACAD_REACTORS
330
1AD
102
}
330
A
100
AcDbSymbolTableRecord
100
AcDbDimStyleTableRecord
  2
ME10_DIM_12
 70
     0
 41
3.5
 42
0.0
 44
2.0
 73
     0
 74
     0
 77
     1
 78
     8
140
3.5
147
2.0
172
     1
173
     1
176
     2
177
     2
178
     2
271
     3
340
187
  0
DIMSTYLE
105
1B9
102
{ACAD_REACTORS
330
1BA
102
}
330
A
100
AcDbSymbolTableRecord
100
AcDbDimStyleTableRecord
  2
ME10_DIM_13
 70
     0
 41
3.5
 42
0.0
 44
2.0
 73
     0
 74
     0
 77
     1
 78
     8
140
3.5
147
2.0
172
     1
173
     1
176
     2
177
     2
178
     2
271
     3
340
187
  0
DIMSTYLE
105
1C4
102
{ACAD_REACTORS
330
1C5
102
}
330
A
100
AcDbSymbolTableRecord
100
AcDbDimStyleTableRecord
  2
ME10_DIM_14
 70
     0
 41
3.5
 42
0.0
 44
2.0
 73
     0
 74
     0
 77
     1
 78
     8
140
3.5
147
2.0
172
     1
173
     1
176
     2
177
     2
178
     2
271
     3
340
187
  0
DIMSTYLE
105
1CF
102
{ACAD_REACTORS
330
1D0
102
}
330
A
100
AcDbSymbolTableRecord
100
AcDbDimStyleTableRecord
  2
ME10_DIM_15
 70
     0
 41
3.5
 42
0.0
 44
2.0
 73
     0
 74
     0
 77
     1
 78
     8
140
3.5
147
2.0
172
     1
173
     1
176
     2
177
     2
178
     2
271
     2
340
187
  0
DIMSTYLE
105
1DA
102
{ACAD_REACTORS
330
1DB
102
}
330
A
100
AcDbSymbolTableRecord
100
AcDbDimStyleTableRecord
  2
ME10_DIM_16
 70
     0
 41
3.5
 42
0.0
 44
2.0
 73
     0
 74
     0
 77
     1
 78
     8
140
3.5
147
2.0
172
     1
173
     1
176
     2
177
     2
178
     2
271
     2
340
187
  0
DIMSTYLE
105
1E5
102
{ACAD_REACTORS
330
1E6
102
}
330
A
100
AcDbSymbolTableRecord
100
AcDbDimStyleTableRecord
  2
ME10_DIM_17
 70
     0
 41
3.5
 42
0.0
 44
2.0
 73
     0
 74
     0
 77
     1
 78
     8
140
3.5
147
2.0
172
     1
173
     1
176
     2
177
     2
178
     2
271
     2
340
187
  0
DIMSTYLE
105
1F2
102
{ACAD_REACTORS
330
1F3
102
}
330
A
100
AcDbSymbolTableRecord
100
AcDbDimStyleTableRecord
  2
ME10_DIM_18
 70
     0
 41
3.5
 42
0.0
 44
2.0
 73
     0
 74
     0
 77
     1
 78
     8
140
3.5
147
2.0
172
     1
173
     1
176
     2
177
     2
178
     2
271
     2
340
187
  0
DIMSTYLE
105
1FD
102
{ACAD_REACTORS
330
1FE
102
}
330
A
100
AcDbSymbolTableRecord
100
AcDbDimStyleTableRecord
  2
ME10_DIM_19
 70
     0
 41
3.5
 42
0.0
 44
2.0
 73
     0
 74
     0
 77
     1
 78
     8
140
3.5
147
2.0
172
     1
173
     1
176
     2
177
     2
178
     2
271
     3
340
187
  0
DIMSTYLE
105
208
102
{ACAD_REACTORS
330
209
102
}
330
A
100
AcDbSymbolTableRecord
100
AcDbDimStyleTableRecord
  2
ME10_DIM_20
 70
     0
 41
3.5
 42
0.0
 44
2.0
 73
     0
 74
     0
 77
     1
 78
     8
140
3.5
147
2.0
172
     1
173
     1
176
     2
177
     2
178
     2
271
     3
340
187
  0
DIMSTYLE
105
213
102
{ACAD_REACTORS
330
214
102
}
330
A
100
AcDbSymbolTableRecord
100
AcDbDimStyleTableRecord
  2
ME10_DIM_21
 70
     0
 41
3.5
 42
0.0
 44
2.0
 73
     0
 74
     0
 77
     1
 78
     8
140
3.5
147
2.0
172
     1
173
     1
176
     2
177
     2
178
     2
271
     3
340
187
  0
DIMSTYLE
105
220
102
{ACAD_REACTORS
330
221
102
}
330
A
100
AcDbSymbolTableRecord
100
AcDbDimStyleTableRecord
  2
ME10_DIM_22
 70
     0
 41
3.5
 42
0.0
 44
2.0
 73
     0
 74
     0
 77
     1
 78
     8
140
3.5
147
2.0
172
     1
173
     1
176
     2
177
     2
178
     2
271
     2
340
187
  0
ENDTAB
  0
TABLE
  2
BLOCK_RECORD
  5
1
330
0
100
AcDbSymbolTable
 70
    16
  0
BLOCK_RECORD
  5
1F
330
1
100
AcDbSymbolTableRecord
100
AcDbBlockTableRecord
  2
*Model_Space
340
22
  0
BLOCK_RECORD
  5
1B
330
1
100
AcDbSymbolTableRecord
100
AcDbBlockTableRecord
  2
*Paper_Space
340
1E
  0
BLOCK_RECORD
  5
23
330
1
100
AcDbSymbolTableRecord
100
AcDbBlockTableRecord
  2
*Paper_Space0
340
26
  0
BLOCK_RECORD
  5
18D
330
1
100
AcDbSymbolTableRecord
100
AcDbBlockTableRecord
  2
*D1
340
0
  0
BLOCK_RECORD
  5
198
330
1
100
AcDbSymbolTableRecord
100
AcDbBlockTableRecord
  2
*D2
340
0
  0
BLOCK_RECORD
  5
1A3
330
1
100
AcDbSymbolTableRecord
100
AcDbBlockTableRecord
  2
*D3
340
0
  0
BLOCK_RECORD
  5
1AE
330
1
100
AcDbSymbolTableRecord
100
AcDbBlockTableRecord
  2
*D4
340
0
  0
BLOCK_RECORD
  5
1BB
330
1
100
AcDbSymbolTableRecord
100
AcDbBlockTableRecord
  2
*D5
340
0
  0
BLOCK_RECORD
  5
1C6
330
1
100
AcDbSymbolTableRecord
100
AcDbBlockTableRecord
  2
*D6
340
0
  0
BLOCK_RECORD
  5
1D1
330
1
100
AcDbSymbolTableRecord
100
AcDbBlockTableRecord
  2
*D7
340
0
  0
BLOCK_RECORD
  5
1DC
330
1
100
AcDbSymbolTableRecord
100
AcDbBlockTableRecord
  2
*D8
340
0
  0
BLOCK_RECORD
  5
1E7
330
1
100
AcDbSymbolTableRecord
100
AcDbBlockTableRecord
  2
*D9
340
0
  0
BLOCK_RECORD
  5
1F4
330
1
100
AcDbSymbolTableRecord
100
AcDbBlockTableRecord
  2
*D10
340
0
  0
BLOCK_RECORD
  5
1FF
330
1
100
AcDbSymbolTableRecord
100
AcDbBlockTableRecord
  2
*D11
340
0
  0
BLOCK_RECORD
  5
20A
330
1
100
AcDbSymbolTableRecord
100
AcDbBlockTableRecord
  2
*D12
340
0
  0
BLOCK_RECORD
  5
215
330
1
100
AcDbSymbolTableRecord
100
AcDbBlockTableRecord
  2
*D13
340
0
  0
BLOCK_RECORD
  5
222
330
1
100
AcDbSymbolTableRecord
100
AcDbBlockTableRecord
  2
*D14
340
0
102
{BLKREFS
331
229
102
}
  0
BLOCK_RECORD
  5
22A
330
1
100
AcDbSymbolTableRecord
100
AcDbBlockTableRecord
  2
*D15
340
0
102
{BLKREFS
331
231
102
}
  0
ENDTAB
  0
ENDSEC
  0
SECTION
  2
BLOCKS
  0
BLOCK
  5
20
330
1F
100
AcDbEntity
  8
0
100
AcDbBlockBegin
  2
*Model_Space
 70
     0
 71
     0
 10
0.0
 20
0.0
 30
0.0
  3
*Model_Space
  1

  0
ENDBLK
  5
21
330
1F
100
AcDbEntity
  8
0
100
AcDbBlockEnd
  0
BLOCK
  5
1C
330
1B
100
AcDbEntity
 67
     1
  8
0
100
AcDbBlockBegin
  2
*Paper_Space
 70
     0
 71
     0
 10
0.0
 20
0.0
 30
0.0
  3
*Paper_Space
  1

  0
ENDBLK
  5
1D
330
1B
100
AcDbEntity
 67
     1
  8
0
100
AcDbBlockEnd
  0
BLOCK
  5
24
330
23
100
AcDbEntity
  8
0
100
AcDbBlockBegin
  2
*Paper_Space0
 70
     0
 71
     0
 10
0.0
 20
0.0
 30
0.0
  3
*Paper_Space0
  1

  0
ENDBLK
  5
25
330
23
100
AcDbEntity
  8
0
100
AcDbBlockEnd
  0
BLOCK
  5
194
330
18D
100
AcDbEntity
  8
0
100
AcDbBlockBegin
  2
*D1
 70
     1
 71
     0
 10
0.0
 20
0.0
 30
0.0
  3
*D1
  1

  0
LINE
  5
18E
330
18D
100
AcDbEntity
  8
1
  6
Continuous
 62
     2
100
AcDbLine
 10
130.094615818587
 20
44.88535147101105
 30
0.0
 11
130.094615818587
 21
-86.1146485289892
 31
0.0
  0
LINE
  5
18F
330
18D
100
AcDbEntity
  8
1
  6
Continuous
 62
     2
100
AcDbLine
 10
158.6755140245068
 20
-86.1146485289892
 30
0.0
 11
128.094615818587
 21
-86.1146485289892
 31
0.0
  0
LINE
  5
190
330
18D
100
AcDbEntity
  8
1
  6
Continuous
 62
     2
100
AcDbLine
 10
154.9068397520139
 20
44.88535147101105
 30
0.0
 11
128.094615818587
 21
44.88535147101105
 31
0.0
  0
SOLID
  5
191
330
18D
100
AcDbEntity
  8
1
 62
     2
100
AcDbTrace
 10
130.5553995601429
 20
41.38535147101105
 30
0.0
 11
129.6338320770311
 21
41.38535147101105
 31
0.0
 12
130.094615818587
 22
44.88535147101105
 32
0.0
 13
130.094615818587
 23
44.88535147101105
 33
0.0
  0
SOLID
  5
192
330
18D
100
AcDbEntity
  8
1
 62
     2
100
AcDbTrace
 10
129.6338320770311
 20
-82.6146485289892
 30
0.0
 11
130.5553995601429
 21
-82.6146485289892
 31
0.0
 12
130.094615818587
 22
-86.1146485289892
 32
0.0
 13
130.094615818587
 23
-86.1146485289892
 33
0.0
  0
MTEXT
  5
193
330
18D
100
AcDbEntity
  8
1
 62
     2
100
AcDbMText
 10
128.094615818587
 20
-23.70233169408329
 30
0.0
 40
3.5
 41
0.0
 71
     7
 72
     1
  1
131
  7
CONVERTER_11
 11
0.0
 21
1.0
 31
0.0
 73
     1
 44
0.60024009603842
  0
ENDBLK
  5
195
330
18D
100
AcDbEntity
  8
0
100
AcDbBlockEnd
  0
BLOCK
  5
19F
330
198
100
AcDbEntity
  8
0
100
AcDbBlockBegin
  2
*D2
 70
     1
 71
     0
 10
0.0
 20
0.0
 30
0.0
  3
*D2
  1

  0
LINE
  5
199
330
198
100
AcDbEntity
  8
1
  6
Continuous
 62
     2
100
AcDbLine
 10
122.326988504593
 20
48.38535147101105
 30
0.0
 11
122.326988504593
 21
-89.61464852898895
 31
0.0
  0
LINE
  5
19A
330
198
100
AcDbEntity
  8
1
  6
Continuous
 62
     2
100
AcDbLine
 10
147.1568397520139
 20
48.38535147101105
 30
0.0
 11
120.326988504593
 21
48.38535147101105
 31
0.0
  0
LINE
  5
19B
330
198
100
AcDbEntity
  8
1
  6
Continuous
 62
     2
100
AcDbLine
 10
147.1568397520139
 20
-89.61464852898895
 30
0.0
 11
120.326988504593
 21
-89.61464852898895
 31
0.0
  0
SOLID
  5
19C
330
198
100
AcDbEntity
  8
1
 62
     2
100
AcDbTrace
 10
122.7877722461489
 20
44.88535147101105
 30
0.0
 11
121.8662047630371
 21
44.88535147101105
 31
0.0
 12
122.326988504593
 22
48.38535147101105
 32
0.0
 13
122.326988504593
 23
48.38535147101105
 33
0.0
  0
SOLID
  5
19D
330
198
100
AcDbEntity
  8
1
 62
     2
100
AcDbTrace
 10
121.8662047630371
 20
-86.11464852898895
 30
0.0
 11
122.7877722461489
 21
-86.11464852898895
 31
0.0
 12
122.326988504593
 22
-89.61464852898895
 32
0.0
 13
122.326988504593
 23
-89.61464852898895
 33
0.0
  0
MTEXT
  5
19E
330
198
100
AcDbEntity
  8
1
 62
     2
100
AcDbMText
 10
120.326988504593
 20
-24.3245241982269
 30
0.0
 40
3.5
 41
0.0
 71
     7
 72
     1
  1
138
  7
CONVERTER_11
 11
0.0
 21
1.0
 31
0.0
 73
     1
 44
0.60024009603842
  0
ENDBLK
  5
1A0
330
198
100
AcDbEntity
  8
0
100
AcDbBlockEnd
  0
BLOCK
  5
1AA
330
1A3
100
AcDbEntity
  8
0
100
AcDbBlockBegin
  2
*D3
 70
     1
 71
     0
 10
0.0
 20
0.0
 30
0.0
  3
*D3
  1

  0
LINE
  5
1A4
330
1A3
100
AcDbEntity
  8
1
  6
Continuous
 62
     2
100
AcDbLine
 10
114.452069692064
 20
59.38535147101105
 30
0.0
 11
114.452069692064
 21
-100.614648528989
 31
0.0
  0
LINE
  5
1A5
330
1A3
100
AcDbEntity
  8
1
  6
Continuous
 62
     2
100
AcDbLine
 10
156.9068397520139
 20
59.38535147101105
 30
0.0
 11
112.452069692064
 21
59.38535147101105
 31
0.0
  0
LINE
  5
1A6
330
1A3
100
AcDbEntity
  8
1
  6
Continuous
 62
     2
100
AcDbLine
 10
156.9068397520139
 20
-100.614648528989
 30
0.0
 11
112.452069692064
 21
-100.614648528989
 31
0.0
  0
SOLID
  5
1A7
330
1A3
100
AcDbEntity
  8
1
 62
     2
100
AcDbTrace
 10
114.9128534336199
 20
55.88535147101105
 30
0.0
 11
113.9912859505081
 21
55.88535147101105
 31
0.0
 12
114.452069692064
 22
59.38535147101105
 32
0.0
 13
114.452069692064
 23
59.38535147101105
 33
0.0
  0
SOLID
  5
1A8
330
1A3
100
AcDbEntity
  8
1
 62
     2
100
AcDbTrace
 10
113.9912859505081
 20
-97.11464852898901
 30
0.0
 11
114.9128534336199
 21
-97.11464852898901
 31
0.0
 12
114.452069692064
 22
-100.614648528989
 32
0.0
 13
114.452069692064
 23
-100.614648528989
 33
0.0
  0
MTEXT
  5
1A9
330
1A3
100
AcDbEntity
  8
1
 62
     2
100
AcDbMText
 10
112.452069692064
 20
-24.3245241982269
 30
0.0
 40
3.5
 41
0.0
 71
     7
 72
     1
  1
160
  7
CONVERTER_11
 11
0.0
 21
1.0
 31
0.0
 73
     1
 44
0.60024009603842
  0
ENDBLK
  5
1AB
330
1A3
100
AcDbEntity
  8
0
100
AcDbBlockEnd
  0
BLOCK
  5
1B7
330
1AE
100
AcDbEntity
  8
0
100
AcDbBlockBegin
  2
*D4
 70
     1
 71
     0
 10
0.0
 20
0.0
 30
0.0
  3
*D4
  1

  0
LINE
  5
1AF
330
1AE
100
AcDbEntity
  8
1
  6
Continuous
 62
     2
100
AcDbLine
 10
181.906839752014
 20
-128.729476198668
 30
0.0
 11
174.906839752014
 21
-128.729476198668
 31
0.0
  0
LINE
  5
1B0
330
1AE
100
AcDbEntity
  8
1
  6
Continuous
 62
     2
100
AcDbLine
 10
174.906839752014
 20
-128.729476198668
 30
0.0
 11
170.906839752014
 21
-128.729476198668
 31
0.0
  0
LINE
  5
1B1
330
1AE
100
AcDbEntity
  8
1
  6
Continuous
 62
     2
100
AcDbLine
 10
170.906839752014
 20
-128.729476198668
 30
0.0
 11
163.906839752014
 21
-128.729476198668
 31
0.0
  0
LINE
  5
1B2
330
1AE
100
AcDbEntity
  8
1
  6
Continuous
 62
     2
100
AcDbLine
 10
170.906839752014
 20
-86.61464852898894
 30
0.0
 11
170.906839752014
 21
-130.729476198668
 31
0.0
  0
LINE
  5
1B3
330
1AE
100
AcDbEntity
  8
1
  6
Continuous
 62
     2
100
AcDbLine
 10
174.906839752014
 20
-120.614648528989
 30
0.0
 11
174.906839752014
 21
-130.729476198668
 31
0.0
  0
SOLID
  5
1B4
330
1AE
100
AcDbEntity
  8
1
 62
     2
100
AcDbTrace
 10
178.406839752014
 20
-128.2686924571121
 30
0.0
 11
178.406839752014
 21
-129.1902599402239
 31
0.0
 12
174.906839752014
 22
-128.729476198668
 32
0.0
 13
174.906839752014
 23
-128.729476198668
 33
0.0
  0
SOLID
  5
1B5
330
1AE
100
AcDbEntity
  8
1
 62
     2
100
AcDbTrace
 10
167.406839752014
 20
-129.1902599402239
 30
0.0
 11
167.406839752014
 21
-128.2686924571121
 31
0.0
 12
170.906839752014
 22
-128.729476198668
 32
0.0
 13
170.906839752014
 23
-128.729476198668
 33
0.0
  0
MTEXT
  5
1B6
330
1AE
100
AcDbEntity
  8
1
 62
     2
100
AcDbMText
 10
171.5841832420261
 20
-126.729476198668
 30
0.0
 40
3.5
 41
0.0
 71
     7
 72
     1
  1
4
  7
CONVERTER_11
 11
0.9999999999970621
 21
2.424068405545307E-6
 31
0.0
 73
     1
 44
0.60024009603842
  0
ENDBLK
  5
1B8
330
1AE
100
AcDbEntity
  8
0
100
AcDbBlockEnd
  0
BLOCK
  5
1C2
330
1BB
100
AcDbEntity
  8
0
100
AcDbBlockBegin
  2
*D5
 70
     1
 71
     0
 10
0.0
 20
0.0
 30
0.0
  3
*D5
  1

  0
LINE
  5
1BC
330
1BB
100
AcDbEntity
  8
1
  6
Continuous
 62
     2
100
AcDbLine
 10
164.4068397520139
 20
34.54515688290759
 30
0.0
 11
149.4068397520139
 21
34.54515688290759
 31
0.0
  0
LINE
  5
1BD
330
1BB
100
AcDbEntity
  8
1
  6
Continuous
 62
     2
100
AcDbLine
 10
164.4068397520139
 20
46.13535147101104
 30
0.0
 11
164.4068397520139
 21
32.54515688290759
 31
0.0
  0
LINE
  5
1BE
330
1BB
100
AcDbEntity
  8
1
  6
Continuous
 62
     2
100
AcDbLine
 10
149.4068397520139
 20
46.13535147101104
 30
0.0
 11
149.4068397520139
 21
32.54515688290759
 31
0.0
  0
SOLID
  5
1BF
330
1BB
100
AcDbEntity
  8
1
 62
     2
100
AcDbTrace
 10
160.9068397520139
 20
34.0843731413517
 30
0.0
 11
160.9068397520139
 21
35.00594062446348
 31
0.0
 12
164.4068397520139
 22
34.54515688290759
 32
0.0
 13
164.4068397520139
 23
34.54515688290759
 33
0.0
  0
SOLID
  5
1C0
330
1BB
100
AcDbEntity
  8
1
 62
     2
100
AcDbTrace
 10
152.9068397520139
 20
35.00594062446348
 30
0.0
 11
152.9068397520139
 21
34.0843731413517
 31
0.0
 12
149.4068397520139
 22
34.54515688290759
 32
0.0
 13
149.4068397520139
 23
34.54515688290759
 33
0.0
  0
MTEXT
  5
1C1
330
1BB
100
AcDbEntity
  8
1
 62
     2
100
AcDbMText
 10
158.6082697416599
 20
36.54515688290759
 30
0.0
 40
3.5
 41
0.0
 71
     7
 72
     1
  1
15
  7
CONVERTER_11
 11
0.9999999999970621
 21
2.424068405545307E-6
 31
0.0
 73
     1
 44
0.60024009603842
  0
ENDBLK
  5
1C3
330
1BB
100
AcDbEntity
  8
0
100
AcDbBlockEnd
  0
BLOCK
  5
1CD
330
1C6
100
AcDbEntity
  8
0
100
AcDbBlockBegin
  2
*D6
 70
     1
 71
     0
 10
0.0
 20
0.0
 30
0.0
  3
*D6
  1

  0
LINE
  5
1C7
330
1C6
100
AcDbEntity
  8
1
  6
Continuous
 62
     2
100
AcDbLine
 10
170.906839752014
 20
-128.729476198668
 30
0.0
 11
142.906839752014
 21
-128.729476198668
 31
0.0
  0
LINE
  5
1C8
330
1C6
100
AcDbEntity
  8
1
  6
Continuous
 62
     2
100
AcDbLine
 10
142.906839752014
 20
-86.61464852898894
 30
0.0
 11
142.906839752014
 21
-130.729476198668
 31
0.0
  0
LINE
  5
1C9
330
1C6
100
AcDbEntity
  8
1
  6
Continuous
 62
     2
100
AcDbLine
 10
170.906839752014
 20
-86.61464852898894
 30
0.0
 11
170.906839752014
 21
-130.729476198668
 31
0.0
  0
SOLID
  5
1CA
330
1C6
100
AcDbEntity
  8
1
 62
     2
100
AcDbTrace
 10
167.406839752014
 20
-129.1902599402239
 30
0.0
 11
167.406839752014
 21
-128.2686924571121
 31
0.0
 12
170.906839752014
 22
-128.729476198668
 32
0.0
 13
170.906839752014
 23
-128.729476198668
 33
0.0
  0
SOLID
  5
1CB
330
1C6
100
AcDbEntity
  8
1
 62
     2
100
AcDbTrace
 10
146.406839752014
 20
-128.2686924571121
 30
0.0
 11
146.406839752014
 21
-129.1902599402239
 31
0.0
 12
142.906839752014
 22
-128.729476198668
 32
0.0
 13
142.906839752014
 23
-128.729476198668
 33
0.0
  0
MTEXT
  5
1CC
330
1C6
100
AcDbEntity
  8
1
 62
     2
100
AcDbMText
 10
155.2166190824702
 20
-126.729476198668
 30
0.0
 40
3.5
 41
0.0
 71
     7
 72
     1
  1
28
  7
CONVERTER_11
 11
0.9999999999970621
 21
2.424068405545307E-6
 31
0.0
 73
     1
 44
0.60024009603842
  0
ENDBLK
  5
1CE
330
1C6
100
AcDbEntity
  8
0
100
AcDbBlockEnd
  0
BLOCK
  5
1D8
330
1D1
100
AcDbEntity
  8
0
100
AcDbBlockBegin
  2
*D7
 70
     1
 71
     0
 10
0.0
 20
0.0
 30
0.0
  3
*D7
  1

  0
LINE
  5
1D2
330
1D1
100
AcDbEntity
  8
1
  6
Continuous
 62
     2
100
AcDbLine
 10
61.19350625828599
 20
-138.6142090488623
 30
0.0
 11
95.19350625828604
 21
-138.6142090488623
 31
0.0
  0
LINE
  5
1D3
330
1D1
100
AcDbEntity
  8
1
  6
Continuous
 62
     2
100
AcDbLine
 10
95.19350625828604
 20
-86.11464852898916
 30
0.0
 11
95.19350625828604
 21
-140.6142090488623
 31
0.0
  0
LINE
  5
1D4
330
1D1
100
AcDbEntity
  8
1
  6
Continuous
 62
     2
100
AcDbLine
 10
61.19350625828599
 20
-100.614648528989
 30
0.0
 11
61.19350625828599
 21
-140.6142090488623
 31
0.0
  0
SOLID
  5
1D5
330
1D1
100
AcDbEntity
  8
1
 62
     2
100
AcDbTrace
 10
64.69350625828599
 20
-138.1534253073064
 30
0.0
 11
64.69350625828599
 21
-139.0749927904182
 31
0.0
 12
61.19350625828599
 22
-138.6142090488623
 32
0.0
 13
61.19350625828599
 23
-138.6142090488623
 33
0.0
  0
SOLID
  5
1D6
330
1D1
100
AcDbEntity
  8
1
 62
     2
100
AcDbTrace
 10
91.69350625828604
 20
-139.0749927904182
 30
0.0
 11
91.69350625828604
 21
-138.1534253073064
 31
0.0
 12
95.19350625828604
 22
-138.6142090488623
 32
0.0
 13
95.19350625828604
 23
-138.6142090488623
 33
0.0
  0
MTEXT
  5
1D7
330
1D1
100
AcDbEntity
  8
1
 62
     2
100
AcDbMText
 10
75.62203988861029
 20
-136.6142090488623
 30
0.0
 40
3.5
 41
0.0
 71
     7
 72
     1
  1
34
  7
CONVERTER_11
 11
0.9999999999970621
 21
2.424068405545307E-6
 31
0.0
 73
     1
 44
0.60024009603842
  0
ENDBLK
  5
1D9
330
1D1
100
AcDbEntity
  8
0
100
AcDbBlockEnd
  0
BLOCK
  5
1E3
330
1DC
100
AcDbEntity
  8
0
100
AcDbBlockBegin
  2
*D8
 70
     1
 71
     0
 10
0.0
 20
0.0
 30
0.0
  3
*D8
  1

  0
LINE
  5
1DD
330
1DC
100
AcDbEntity
  8
1
  6
Continuous
 62
     2
100
AcDbLine
 10
71.19350625828599
 20
-128.729476198668
 30
0.0
 11
61.19350625828599
 21
-128.729476198668
 31
0.0
  0
LINE
  5
1DE
330
1DC
100
AcDbEntity
  8
1
  6
Continuous
 62
     2
100
AcDbLine
 10
61.19350625828599
 20
-120.614648528989
 30
0.0
 11
61.19350625828599
 21
-130.729476198668
 31
0.0
  0
LINE
  5
1DF
330
1DC
100
AcDbEntity
  8
1
  6
Continuous
 62
     2
100
AcDbLine
 10
71.19350625828599
 20
-100.614648528989
 30
0.0
 11
71.19350625828599
 21
-130.729476198668
 31
0.0
  0
SOLID
  5
1E0
330
1DC
100
AcDbEntity
  8
1
 62
     2
100
AcDbTrace
 10
67.69350625828599
 20
-129.1902599402239
 30
0.0
 11
67.69350625828599
 21
-128.2686924571121
 31
0.0
 12
71.19350625828599
 22
-128.729476198668
 32
0.0
 13
71.19350625828599
 23
-128.729476198668
 33
0.0
  0
SOLID
  5
1E1
330
1DC
100
AcDbEntity
  8
1
 62
     2
100
AcDbTrace
 10
64.69350625828599
 20
-128.2686924571121
 30
0.0
 11
64.69350625828599
 21
-129.1902599402239
 31
0.0
 12
61.19350625828599
 22
-128.729476198668
 32
0.0
 13
61.19350625828599
 23
-128.729476198668
 33
0.0
  0
MTEXT
  5
1E2
330
1DC
100
AcDbEntity
  8
1
 62
     2
100
AcDbMText
 10
64.5750179222762
 20
-126.729476198668
 30
0.0
 40
3.5
 41
0.0
 71
     7
 72
     1
  1
10
  7
CONVERTER_11
 11
0.9999999999970621
 21
2.424068405545307E-6
 31
0.0
 73
     1
 44
0.60024009603842
  0
ENDBLK
  5
1E4
330
1DC
100
AcDbEntity
  8
0
100
AcDbBlockEnd
  0
BLOCK
  5
1F0
330
1E7
100
AcDbEntity
  8
0
100
AcDbBlockBegin
  2
*D9
 70
     1
 71
     0
 10
0.0
 20
0.0
 30
0.0
  3
*D9
  1

  0
LINE
  5
1E8
330
1E7
100
AcDbEntity
  8
1
  6
Continuous
 62
     2
100
AcDbLine
 10
20.21081070804349
 20
-101.226156920623
 30
0.0
 11
20.21081070804349
 21
-92.68918859156351
 31
0.0
  0
LINE
  5
1E9
330
1E7
100
AcDbEntity
  8
1
  6
Continuous
 62
     2
100
AcDbLine
 10
20.21081070804349
 20
-92.68918859156351
 30
0.0
 11
20.21081070804349
 21
-88.68918859156358
 31
0.0
  0
LINE
  5
1EA
330
1E7
100
AcDbEntity
  8
1
  6
Continuous
 62
     2
100
AcDbLine
 10
20.21081070804349
 20
-88.68918859156358
 30
0.0
 11
20.21081070804349
 21
-81.68918859156358
 31
0.0
  0
LINE
  5
1EB
330
1E7
100
AcDbEntity
  8
1
  6
Continuous
 62
     2
100
AcDbLine
 10
26.83123967983045
 20
-88.68918859156358
 30
0.0
 11
18.21081070804349
 21
-88.68918859156358
 31
0.0
  0
LINE
  5
1EC
330
1E7
100
AcDbEntity
  8
1
  6
Continuous
 62
     2
100
AcDbLine
 10
36.83123967983063
 20
-92.68918859156351
 30
0.0
 11
18.21081070804349
 21
-92.68918859156351
 31
0.0
  0
SOLID
  5
1ED
330
1E7
100
AcDbEntity
  8
1
 62
     2
100
AcDbTrace
 10
20.67159444959937
 20
-96.18918859156351
 30
0.0
 11
19.7500269664876
 21
-96.18918859156351
 31
0.0
 12
20.21081070804349
 22
-92.68918859156351
 32
0.0
 13
20.21081070804349
 23
-92.68918859156351
 33
0.0
  0
SOLID
  5
1EE
330
1E7
100
AcDbEntity
  8
1
 62
     2
100
AcDbTrace
 10
19.7500269664876
 20
-85.18918859156358
 30
0.0
 11
20.67159444959938
 21
-85.18918859156358
 31
0.0
 12
20.21081070804349
 22
-88.68918859156358
 32
0.0
 13
20.21081070804349
 23
-88.68918859156358
 33
0.0
  0
MTEXT
  5
1EF
330
1E7
100
AcDbEntity
  8
1
 62
     2
100
AcDbMText
 10
18.41185793235366
 20
-101.226156920623
 30
0.0
 40
3.5
 41
0.0
 71
     7
 72
     1
  1
4
  7
CONVERTER_11
 11
0.0
 21
1.0
 31
0.0
 73
     1
 44
0.60024009603842
  0
ENDBLK
  5
1F1
330
1E7
100
AcDbEntity
  8
0
100
AcDbBlockEnd
  0
BLOCK
  5
1FB
330
1F4
100
AcDbEntity
  8
0
100
AcDbBlockBegin
  2
*D10
 70
     1
 71
     0
 10
0.0
 20
0.0
 30
0.0
  3
*D10
  1

  0
LINE
  5
1F5
330
1F4
100
AcDbEntity
  8
1
  6
Continuous
 62
     2
100
AcDbLine
 10
-156.91485230427
 20
-130.2566310837739
 30
0.0
 11
-128.71485230427
 21
-130.2566310837739
 31
0.0
  0
LINE
  5
1F6
330
1F4
100
AcDbEntity
  8
1
  6
Continuous
 62
     2
100
AcDbLine
 10
-128.71485230427
 20
-77.11464852898868
 30
0.0
 11
-128.71485230427
 21
-132.2566310837739
 31
0.0
  0
LINE
  5
1F7
330
1F4
100
AcDbEntity
  8
1
  6
Continuous
 62
     2
100
AcDbLine
 10
-156.91485230427
 20
-77.1146485289887
 30
0.0
 11
-156.91485230427
 21
-132.2566310837739
 31
0.0
  0
SOLID
  5
1F8
330
1F4
100
AcDbEntity
  8
1
 62
     2
100
AcDbTrace
 10
-153.41485230427
 20
-129.795847342218
 30
0.0
 11
-153.41485230427
 21
-130.7174148253298
 31
0.0
 12
-156.91485230427
 22
-130.2566310837739
 32
0.0
 13
-156.91485230427
 23
-130.2566310837739
 33
0.0
  0
SOLID
  5
1F9
330
1F4
100
AcDbEntity
  8
1
 62
     2
100
AcDbTrace
 10
-132.21485230427
 20
-130.7174148253298
 30
0.0
 11
-132.21485230427
 21
-129.795847342218
 31
0.0
 12
-128.71485230427
 22
-130.2566310837739
 32
0.0
 13
-128.71485230427
 23
-130.2566310837739
 33
0.0
  0
MTEXT
  5
1FA
330
1F4
100
AcDbEntity
  8
1
 62
     2
100
AcDbMText
 10
-147.417772440059
 20
-128.2566310837739
 30
0.0
 40
3.5
 41
0.0
 71
     7
 72
     1
  1
28.2
  7
CONVERTER_11
 11
0.9999999999970621
 21
2.424068405545307E-6
 31
0.0
 73
     1
 44
0.60024009603842
  0
ENDBLK
  5
1FC
330
1F4
100
AcDbEntity
  8
0
100
AcDbBlockEnd
  0
BLOCK
  5
206
330
1FF
100
AcDbEntity
  8
0
100
AcDbBlockBegin
  2
*D11
 70
     1
 71
     0
 10
0.0
 20
0.0
 30
0.0
  3
*D11
  1

  0
LINE
  5
200
330
1FF
100
AcDbEntity
  8
1
  6
Continuous
 62
     2
100
AcDbLine
 10
-85.9248041572783
 20
59.38535147101096
 30
0.0
 11
-85.9248041572783
 21
-100.6146485289889
 31
0.0
  0
LINE
  5
201
330
1FF
100
AcDbEntity
  8
1
  6
Continuous
 62
     2
100
AcDbLine
 10
-142.81485230427
 20
-100.6146485289889
 30
0.0
 11
-83.9248041572783
 21
-100.6146485289889
 31
0.0
  0
LINE
  5
202
330
1FF
100
AcDbEntity
  8
1
  6
Continuous
 62
     2
100
AcDbLine
 10
-142.81485230427
 20
59.38535147101096
 30
0.0
 11
-83.9248041572783
 21
59.38535147101096
 31
0.0
  0
SOLID
  5
203
330
1FF
100
AcDbEntity
  8
1
 62
     2
100
AcDbTrace
 10
-85.46402041572242
 20
55.88535147101096
 30
0.0
 11
-86.38558789883419
 21
55.88535147101096
 31
0.0
 12
-85.9248041572783
 22
59.38535147101096
 32
0.0
 13
-85.9248041572783
 23
59.38535147101096
 33
0.0
  0
SOLID
  5
204
330
1FF
100
AcDbEntity
  8
1
 62
     2
100
AcDbTrace
 10
-86.38558789883419
 20
-97.11464852898891
 30
0.0
 11
-85.46402041572242
 21
-97.11464852898891
 31
0.0
 12
-85.9248041572783
 22
-100.6146485289889
 32
0.0
 13
-85.9248041572783
 23
-100.6146485289889
 33
0.0
  0
MTEXT
  5
205
330
1FF
100
AcDbEntity
  8
1
 62
     2
100
AcDbMText
 10
-87.9248041572783
 20
-24.976597804191
 30
0.0
 40
3.5
 41
0.0
 71
     7
 72
     1
  1
160
  7
CONVERTER_11
 11
0.0
 21
1.0
 31
0.0
 73
     1
 44
0.60024009603842
  0
ENDBLK
  5
207
330
1FF
100
AcDbEntity
  8
0
100
AcDbBlockEnd
  0
BLOCK
  5
211
330
20A
100
AcDbEntity
  8
0
100
AcDbBlockBegin
  2
*D12
 70
     1
 71
     0
 10
0.0
 20
0.0
 30
0.0
  3
*D12
  1

  0
LINE
  5
20B
330
20A
100
AcDbEntity
  8
1
  6
Continuous
 62
     2
100
AcDbLine
 10
-47.66876032016972
 20
-105.391646529108
 30
0.0
 11
-10.66876032016921
 21
-105.391646529108
 31
0.0
  0
LINE
  5
20C
330
20A
100
AcDbEntity
  8
1
  6
Continuous
 62
     2
100
AcDbLine
 10
-47.66876032016972
 20
-92.18918859156351
 30
0.0
 11
-47.66876032016972
 21
-107.391646529108
 31
0.0
  0
LINE
  5
20D
330
20A
100
AcDbEntity
  8
1
  6
Continuous
 62
     2
100
AcDbLine
 10
-10.66876032016921
 20
-88.78918859156354
 30
0.0
 11
-10.66876032016921
 21
-107.391646529108
 31
0.0
  0
SOLID
  5
20E
330
20A
100
AcDbEntity
  8
1
 62
     2
100
AcDbTrace
 10
-44.16876032016972
 20
-104.9308627875521
 30
0.0
 11
-44.16876032016972
 21
-105.8524302706639
 31
0.0
 12
-47.66876032016972
 22
-105.391646529108
 32
0.0
 13
-47.66876032016972
 23
-105.391646529108
 33
0.0
  0
SOLID
  5
20F
330
20A
100
AcDbEntity
  8
1
 62
     2
100
AcDbTrace
 10
-14.16876032016921
 20
-105.8524302706639
 30
0.0
 11
-14.16876032016921
 21
-104.9308627875521
 31
0.0
 12
-10.66876032016921
 22
-105.391646529108
 32
0.0
 13
-10.66876032016921
 23
-105.391646529108
 33
0.0
  0
MTEXT
  5
210
330
20A
100
AcDbEntity
  8
1
 62
     2
100
AcDbMText
 10
-33.1248778727054
 20
-103.391646529108
 30
0.0
 40
3.5
 41
0.0
 71
     7
 72
     1
  1
37
  7
CONVERTER_11
 11
0.9999999999970621
 21
2.424068405545307E-6
 31
0.0
 73
     1
 44
0.60024009603842
  0
ENDBLK
  5
212
330
20A
100
AcDbEntity
  8
0
100
AcDbBlockEnd
  0
BLOCK
  5
21E
330
215
100
AcDbEntity
  8
0
100
AcDbBlockBegin
  2
*D13
 70
     1
 71
     0
 10
0.0
 20
0.0
 30
0.0
  3
*D13
  1

  0
LINE
  5
216
330
215
100
AcDbEntity
  8
1
  6
Continuous
 62
     2
100
AcDbLine
 10
-168.91485230427
 20
-130.2566310837739
 30
0.0
 11
-161.91485230427
 21
-130.2566310837739
 31
0.0
  0
LINE
  5
217
330
215
100
AcDbEntity
  8
1
  6
Continuous
 62
     2
100
AcDbLine
 10
-161.91485230427
 20
-130.2566310837739
 30
0.0
 11
-156.91485230427
 21
-130.2566310837739
 31
0.0
  0
LINE
  5
218
330
215
100
AcDbEntity
  8
1
  6
Continuous
 62
     2
100
AcDbLine
 10
-156.91485230427
 20
-130.2566310837739
 30
0.0
 11
-149.91485230427
 21
-130.2566310837739
 31
0.0
  0
LINE
  5
219
330
215
100
AcDbEntity
  8
1
  6
Continuous
 62
     2
100
AcDbLine
 10
-156.91485230427
 20
-84.61464852898925
 30
0.0
 11
-156.91485230427
 21
-132.2566310837739
 31
0.0
  0
LINE
  5
21A
330
215
100
AcDbEntity
  8
1
  6
Continuous
 62
     2
100
AcDbLine
 10
-161.91485230427
 20
-120.614648528989
 30
0.0
 11
-161.91485230427
 21
-132.2566310837739
 31
0.0
  0
SOLID
  5
21B
330
215
100
AcDbEntity
  8
1
 62
     2
100
AcDbTrace
 10
-165.41485230427
 20
-130.7174148253298
 30
0.0
 11
-165.41485230427
 21
-129.795847342218
 31
0.0
 12
-161.91485230427
 22
-130.2566310837739
 32
0.0
 13
-161.91485230427
 23
-130.2566310837739
 33
0.0
  0
SOLID
  5
21C
330
215
100
AcDbEntity
  8
1
 62
     2
100
AcDbTrace
 10
-153.41485230427
 20
-129.795847342218
 30
0.0
 11
-153.41485230427
 21
-130.7174148253298
 31
0.0
 12
-156.91485230427
 22
-130.2566310837739
 32
0.0
 13
-156.91485230427
 23
-130.2566310837739
 33
0.0
  0
MTEXT
  5
21D
330
215
100
AcDbEntity
  8
1
 62
     2
100
AcDbMText
 10
-165.826615557664
 20
-128.2566310837739
 30
0.0
 40
3.5
 41
0.0
 71
     7
 72
     1
  1
5
  7
CONVERTER_11
 11
0.9999999999970621
 21
2.424068405545307E-6
 31
0.0
 73
     1
 44
0.60024009603842
  0
ENDBLK
  5
21F
330
215
100
AcDbEntity
  8
0
100
AcDbBlockEnd
  0
BLOCK
  5
227
330
222
100
AcDbEntity
  8
0
100
AcDbBlockBegin
  2
*D14
 70
     1
 71
     0
 10
0.0
 20
0.0
 30
0.0
  3
*D14
  1

  0
LINE
  5
223
330
222
100
AcDbEntity
  8
1
  6
Continuous
 62
     2
100
AcDbLine
 10
162.2747173725016
 20
-77.1428810397862
 30
0.0
 11
117.8794583275314
 21
-134.2151605966038
 31
0.0
  0
SOLID
  5
224
330
222
100
AcDbEntity
  8
1
 62
     2
100
AcDbTrace
 10
149.3242233989335
 20
-93.04090064906647
 30
0.0
 11
150.0516294760705
 21
-93.60673368528217
 31
0.0
 12
147.5389621315265
 22
-96.08641601819178
 32
0.0
 13
147.5389621315265
 23
-96.08641601819178
 33
0.0
  0
SOLID
  5
225
330
222
100
AcDbEntity
  8
1
 62
     2
100
AcDbTrace
 10
160.4894561050945
 20
-80.18839640891152
 30
0.0
 11
159.7620500279575
 21
-79.62256337269582
 31
0.0
 12
162.2747173725016
 22
-77.1428810397862
 32
0.0
 13
162.2747173725016
 23
-77.1428810397862
 33
0.0
  0
MTEXT
  5
226
330
222
100
AcDbEntity
  8
1
 62
     2
100
AcDbMText
 10
117.0744575628154
 20
-131.9926454068229
 30
0.0
 40
3.5
 41
0.0
 71
     7
 72
     1
  1
\C2;Fräserø\C2;24
  7
CONVERTER_11
 11
0.6139898017072948
 21
0.7893139574335657
 31
0.0
 73
     1
 44
0.60024009603842
  0
ENDBLK
  5
228
330
222
100
AcDbEntity
  8
0
100
AcDbBlockEnd
  0
BLOCK
  5
22F
330
22A
100
AcDbEntity
  8
0
100
AcDbBlockBegin
  2
*D15
 70
     1
 71
     0
 10
0.0
 20
0.0
 30
0.0
  3
*D15
  1

  0
LINE
  5
22B
330
22A
100
AcDbEntity
  8
1
  6
Continuous
 62
     2
100
AcDbLine
 10
-146.5243610600449
 20
-76.01466719488299
 30
0.0
 11
-105.9930073225277
 21
-149.270165306825
 31
0.0
  0
SOLID
  5
22C
330
22A
100
AcDbEntity
  8
1
 62
     2
100
AcDbTrace
 10
-137.0029686593791
 20
-94.17521257240472
 30
0.0
 11
-136.1965985451464
 21
-93.72905804222344
 31
0.0
 12
-134.9053435484951
 22
-97.01462986309501
 32
0.0
 13
-134.9053435484951
 23
-97.01462986309501
 33
0.0
  0
SOLID
  5
22D
330
22A
100
AcDbEntity
  8
1
 62
     2
100
AcDbTrace
 10
-144.4267359491609
 20
-78.85408448557328
 30
0.0
 11
-145.2331060633936
 21
-79.30023901575456
 31
0.0
 12
-146.5243610600449
 22
-76.01466719488299
 32
0.0
 13
-146.5243610600449
 23
-76.01466719488299
 33
0.0
  0
MTEXT
  5
22E
330
22A
100
AcDbEntity
  8
1
 62
     2
100
AcDbMText
 10
-116.510756422788
 20
-126.1294532636753
 30
0.0
 40
3.5
 41
0.0
 71
     7
 72
     1
  1
\C2;Fräserø\C2;24
  7
CONVERTER_11
 11
0.4841257296479085
 21
-0.8749984445088347
 31
0.0
 73
     1
 44
0.60024009603842
  0
ENDBLK
  5
230
330
22A
100
AcDbEntity
  8
0
100
AcDbBlockEnd
  0
ENDSEC
  0
SECTION
  2
ENTITIES
  0
POINT
  5
34
330
1F
100
AcDbEntity
  8
1
 62
     3
 60
     1
100
AcDbPoint
 10
-104.324895871924
 20
-20.61464852898895
 30
0.0
  0
POINT
  5
35
330
1F
100
AcDbEntity
  8
1
 62
     3
 60
     1
100
AcDbPoint
 10
-142.81485230427
 20
45.28535147101105
 30
0.0
  0
POINT
  5
36
330
1F
100
AcDbEntity
  8
1
 62
     3
 60
     1
100
AcDbPoint
 10
-128.71485230427
 20
45.28535147101105
 30
0.0
  0
POINT
  5
37
330
1F
100
AcDbEntity
  8
1
 62
     3
 60
     1
100
AcDbPoint
 10
-156.91485230427
 20
45.28535147101105
 30
0.0
  0
POINT
  5
38
330
1F
100
AcDbEntity
  8
1
 62
     3
 60
     1
100
AcDbPoint
 10
-142.81485230427
 20
-86.514648528989
 30
0.0
  0
POINT
  5
39
330
1F
100
AcDbEntity
  8
1
 62
     3
 60
     1
100
AcDbPoint
 10
-128.71485230427
 20
-86.514648528989
 30
0.0
  0
POINT
  5
3A
330
1F
100
AcDbEntity
  8
1
 62
     3
 60
     1
100
AcDbPoint
 10
-156.91485230427
 20
-86.514648528989
 30
0.0
  0
POINT
  5
3B
330
1F
100
AcDbEntity
  8
1
 62
     3
 60
     1
100
AcDbPoint
 10
-40.63332704236525
 20
-47.01893034775362
 30
0.0
  0
POINT
  5
3C
330
1F
100
AcDbEntity
  8
1
 62
     3
 60
     1
100
AcDbPoint
 10
-46.40875382383285
 20
-22.81467975991822
 30
0.0
  0
POINT
  5
3D
330
1F
100
AcDbEntity
  8
1
 62
     3
 60
     1
100
AcDbPoint
 10
-37.75511076610657
 20
-59.08125416079124
 30
0.0
  0
LINE
  5
3E
330
1F
100
AcDbEntity
  8
1
  6
Continuous
 62
     7
100
AcDbLine
 10
-46.16876032016944
 20
-92.18918859156379
 30
0.0
 11
-15.16876032016921
 21
-92.1891885915636
 31
0.0
  0
LINE
  5
3F
330
1F
100
AcDbEntity
  8
1
  6
DOT_CENTER
 62
     2
100
AcDbLine
 10
-15.16876032016944
 20
-80.68918859156379
 30
0.0
 11
-15.16876032016921
 21
-92.1891885915636
 31
0.0
  0
LINE
  5
40
330
1F
100
AcDbEntity
  8
1
  6
DOT_CENTER
 62
     2
100
AcDbLine
 10
-23.16876032016944
 20
-77.93918859156379
 30
0.0
 11
-23.16876032016944
 21
-65.43918859156379
 31
0.0
  0
LINE
  5
41
330
1F
100
AcDbEntity
  8
1
  6
DOT_CENTER
 62
     2
100
AcDbLine
 10
-23.16876032016944
 20
-65.43918859156379
 30
0.0
 11
-20.56876032016947
 21
-65.43918859156379
 31
0.0
  0
LINE
  5
42
330
1F
100
AcDbEntity
  8
1
  6
DOT_CENTER
 62
     2
100
AcDbLine
 10
-20.56876032016947
 20
-65.43918859156379
 30
0.0
 11
-20.56876032016947
 21
-77.93918859156379
 31
0.0
  0
LINE
  5
43
330
1F
100
AcDbEntity
  8
1
  6
DOT_CENTER
 62
     2
100
AcDbLine
 10
-20.56876032016947
 20
-77.93918859156379
 30
0.0
 11
-23.16876032016944
 21
-77.93918859156379
 31
0.0
  0
LINE
  5
44
330
1F
100
AcDbEntity
  8
1
  6
DOT_CENTER
 62
     2
100
AcDbLine
 10
-47.66876032016944
 20
-54.68918859156379
 30
0.0
 11
-47.66876032016944
 21
-66.87942936653378
 31
0.0
  0
LINE
  5
45
330
1F
100
AcDbEntity
  8
1
  6
DOT_CENTER
 62
     2
100
AcDbLine
 10
-15.61876032016954
 20
-52.68918859156379
 30
0.0
 11
-45.66876032016944
 21
-52.68918859156379
 31
0.0
  0
LINE
  5
46
330
1F
100
AcDbEntity
  8
1
  6
DOT_CENTER
 62
     2
100
AcDbLine
 10
-46.16876032016944
 20
-54.68918859156379
 30
0.0
 11
-46.16876032016944
 21
-75.18918859156379
 31
0.0
  0
LINE
  5
47
330
1F
100
AcDbEntity
  8
1
  6
Continuous
 62
     7
100
AcDbLine
 10
-47.66876032016972
 20
-92.18918859156351
 30
0.0
 11
-46.16876032016944
 21
-92.18918859156379
 31
0.0
  0
LINE
  5
48
330
1F
100
AcDbEntity
  8
1
  6
DOT_CENTER
 62
     2
100
AcDbLine
 10
-15.16876032016944
 20
-54.18918859156379
 30
0.0
 11
-45.66876032016944
 21
-54.18918859156379
 31
0.0
  0
LINE
  5
49
330
1F
100
AcDbEntity
  8
1
  6
DOT_CENTER
 62
     2
100
AcDbLine
 10
-12.16876032016955
 20
-52.68918859156379
 30
0.0
 11
-15.61876032016954
 21
-52.68918859156379
 31
0.0
  0
LINE
  5
4A
330
1F
100
AcDbEntity
  8
1
  6
DOT_CENTER
 62
     2
100
AcDbLine
 10
-15.16876032016944
 20
-54.18918859156379
 30
0.0
 11
-12.16876032016955
 21
-54.18918859156379
 31
0.0
  0
LINE
  5
4B
330
1F
100
AcDbEntity
  8
1
  6
DOT_CENTER
 62
     2
100
AcDbLine
 10
-20.56876032016947
 20
-79.68918859156379
 30
0.0
 11
-20.56876032016947
 21
-77.93918859156379
 31
0.0
  0
LINE
  5
4C
330
1F
100
AcDbEntity
  8
1
  6
Continuous
 62
     2
100
AcDbLine
 10
-15.16876032016944
 20
-80.68918859156379
 30
0.0
 11
-19.56876032016947
 21
-80.68918859156379
 31
0.0
  0
LINE
  5
4D
330
1F
100
AcDbEntity
  8
1
  6
DOT_CENTER
 62
     2
100
AcDbLine
 10
-15.16876032016944
 20
-62.68918859156379
 30
0.0
 11
-15.16876032016944
 21
-80.68918859156379
 31
0.0
  0
LINE
  5
4E
330
1F
100
AcDbEntity
  8
1
  6
DOT_CENTER
 62
     2
100
AcDbLine
 10
-20.56876032016947
 20
-63.68918859156379
 30
0.0
 11
-20.56876032016947
 21
-65.43918859156379
 31
0.0
  0
LINE
  5
4F
330
1F
100
AcDbEntity
  8
1
  6
DOT_CENTER
 62
     2
100
AcDbLine
 10
-15.16876032016944
 20
-62.68918859156379
 30
0.0
 11
-19.56876032016947
 21
-62.68918859156379
 31
0.0
  0
LINE
  5
50
330
1F
100
AcDbEntity
  8
1
  6
DOT_CENTER
 62
     2
100
AcDbLine
 10
-15.16876032016944
 20
-54.18918859156379
 30
0.0
 11
-15.16876032016944
 21
-62.68918859156379
 31
0.0
  0
LINE
  5
51
330
1F
100
AcDbEntity
  8
1
  6
DOT_CENTER
 62
     2
100
AcDbLine
 10
-45.96876032016985
 20
-75.18918859156379
 30
0.0
 11
-44.46876032016985
 21
-75.18918859156379
 31
0.0
  0
LINE
  5
52
330
1F
100
AcDbEntity
  8
1
  6
DOT_CENTER
 62
     2
100
AcDbLine
 10
-45.96876032016985
 20
-86.18918859156379
 30
0.0
 11
-45.96876032016985
 21
-75.18918859156379
 31
0.0
  0
LINE
  5
53
330
1F
100
AcDbEntity
  8
1
  6
DOT_CENTER
 62
     2
100
AcDbLine
 10
-44.46876032016985
 20
-86.18918859156379
 30
0.0
 11
-45.96876032016985
 21
-86.18918859156379
 31
0.0
  0
LINE
  5
54
330
1F
100
AcDbEntity
  8
1
  6
DOT_CENTER
 62
     2
100
AcDbLine
 10
-44.46876032016985
 20
-75.18918859156379
 30
0.0
 11
-44.46876032016985
 21
-86.18918859156379
 31
0.0
  0
LINE
  5
55
330
1F
100
AcDbEntity
  8
1
  6
DOT_CENTER
 62
     2
100
AcDbLine
 10
-47.66876032016944
 20
-66.87942936653378
 30
0.0
 11
-47.66876032016944
 21
-75.18918859156379
 31
0.0
  0
LINE
  5
56
330
1F
100
AcDbEntity
  8
1
  6
DOT_CENTER
 62
     2
100
AcDbLine
 10
-23.16876032016955
 20
-92.14722848311347
 30
0.0
 11
-23.16876032016955
 21
-89.18918859156379
 31
0.0
  0
LINE
  5
57
330
1F
100
AcDbEntity
  8
1
  6
DASHED
 62
     2
100
AcDbLine
 10
-12.16876032016955
 20
-80.18918859156379
 30
0.0
 11
-14.66876032016955
 21
-80.18918859156379
 31
0.0
  0
LINE
  5
58
330
1F
100
AcDbEntity
  8
1
  6
DASHED
 62
     2
100
AcDbLine
 10
-12.16876032016955
 20
-63.18918859156379
 30
0.0
 11
-14.66876032016955
 21
-63.18918859156379
 31
0.0
  0
LINE
  5
59
330
1F
100
AcDbEntity
  8
1
  6
DOT_CENTER
 62
     2
100
AcDbLine
 10
-14.66876032016955
 20
-74.93918859156379
 30
0.0
 11
-14.66876032016955
 21
-63.18918859156379
 31
0.0
  0
LINE
  5
5A
330
1F
100
AcDbEntity
  8
1
  6
DOT_CENTER
 62
     2
100
AcDbLine
 10
-14.66876032016955
 20
-89.18918859156379
 30
0.0
 11
-14.66876032016955
 21
-80.18918859156379
 31
0.0
  0
LINE
  5
5B
330
1F
100
AcDbEntity
  8
1
  6
DOT_CENTER
 62
     2
100
AcDbLine
 10
-20.66876032016955
 20
-65.18918859156379
 30
0.0
 11
-20.66876032016955
 21
-65.68918859156379
 31
0.0
  0
LINE
  5
5C
330
1F
100
AcDbEntity
  8
1
  6
DOT_CENTER
 62
     2
100
AcDbLine
 10
-23.16876032016955
 20
-57.18918859156379
 30
0.0
 11
-23.16876032016955
 21
-63.18918859156379
 31
0.0
  0
LINE
  5
5D
330
1F
100
AcDbEntity
  8
1
  6
DOT_CENTER
 62
     2
100
AcDbLine
 10
-20.66876032016955
 20
-63.18918859156379
 30
0.0
 11
-23.16876032016955
 21
-63.18918859156379
 31
0.0
  0
LINE
  5
5E
330
1F
100
AcDbEntity
  8
1
  6
DOT_CENTER
 62
     2
100
AcDbLine
 10
-20.66876032016955
 20
-79.68918859156379
 30
0.0
 11
-20.66876032016955
 21
-80.18918859156379
 31
0.0
  0
LINE
  5
5F
330
1F
100
AcDbEntity
  8
1
  6
DOT_CENTER
 62
     2
100
AcDbLine
 10
-20.66876032016955
 20
-84.18918859156379
 30
0.0
 11
-20.66876032016955
 21
-80.18918859156379
 31
0.0
  0
LINE
  5
60
330
1F
100
AcDbEntity
  8
1
  6
DOT_CENTER
 62
     2
100
AcDbLine
 10
-23.16876032016955
 20
-79.68918859156379
 30
0.0
 11
-23.16876032016955
 21
-80.18918859156379
 31
0.0
  0
LINE
  5
61
330
1F
100
AcDbEntity
  8
1
  6
DOT_CENTER
 62
     2
100
AcDbLine
 10
-20.66876032016955
 20
-80.18918859156379
 30
0.0
 11
-23.16876032016955
 21
-80.18918859156379
 31
0.0
  0
LINE
  5
62
330
1F
100
AcDbEntity
  8
1
  6
DOT_CENTER
 62
     2
100
AcDbLine
 10
-23.16876032016955
 20
-65.18918859156379
 30
0.0
 11
-23.16876032016955
 21
-65.68918859156379
 31
0.0
  0
LINE
  5
63
330
1F
100
AcDbEntity
  8
1
  6
DOT_CENTER
 62
     2
100
AcDbLine
 10
-23.16876032016955
 20
-65.68918859156379
 30
0.0
 11
-20.66876032016955
 21
-65.68918859156379
 31
0.0
  0
LINE
  5
64
330
1F
100
AcDbEntity
  8
1
  6
DOT_CENTER
 62
     2
100
AcDbLine
 10
-20.66876032016955
 20
-69.68918859156379
 30
0.0
 11
-20.66876032016955
 21
-77.68918859156379
 31
0.0
  0
LINE
  5
65
330
1F
100
AcDbEntity
  8
1
  6
DOT_CENTER
 62
     2
100
AcDbLine
 10
-23.16876032016955
 20
-69.68918859156379
 30
0.0
 11
-23.16876032016955
 21
-77.68918859156379
 31
0.0
  0
LINE
  5
66
330
1F
100
AcDbEntity
  8
1
  6
DOT_CENTER
 62
     2
100
AcDbLine
 10
-20.66876032016955
 20
-77.68918859156379
 30
0.0
 11
-23.16876032016955
 21
-77.68918859156379
 31
0.0
  0
LINE
  5
67
330
1F
100
AcDbEntity
  8
1
  6
DOT_CENTER
 62
     2
100
AcDbLine
 10
-23.66876032016955
 20
-56.68918859156379
 30
0.0
 11
-33.16876032016955
 21
-56.68918859156379
 31
0.0
  0
LINE
  5
68
330
1F
100
AcDbEntity
  8
1
  6
DOT_CENTER
 62
     2
100
AcDbLine
 10
-31.16876032016955
 20
-92.18918859156379
 30
0.0
 11
-31.16876032016955
 21
-89.68918859156379
 31
0.0
  0
LINE
  5
69
330
1F
100
AcDbEntity
  8
1
  6
DOT_CENTER
 62
     2
100
AcDbLine
 10
-33.16876032016955
 20
-89.68918859156379
 30
0.0
 11
-23.66876032016955
 21
-89.68918859156379
 31
0.0
  0
LINE
  5
6A
330
1F
100
AcDbEntity
  8
1
  6
Continuous
 62
     7
100
AcDbLine
 10
-33.16876032016955
 20
-92.18918859156379
 30
0.0
 11
-31.16876032016955
 21
-92.18918859156379
 31
0.0
  0
LINE
  5
6B
330
1F
100
AcDbEntity
  8
1
  6
DOT_CENTER
 62
     2
100
AcDbLine
 10
-33.16876032016955
 20
-54.18918859156379
 30
0.0
 11
-31.16876032016955
 21
-54.18918859156379
 31
0.0
  0
LINE
  5
6C
330
1F
100
AcDbEntity
  8
1
  6
DOT_CENTER
 62
     2
100
AcDbLine
 10
-31.16876032016955
 20
-56.68918859156379
 30
0.0
 11
-31.16876032016955
 21
-54.18918859156379
 31
0.0
  0
LINE
  5
6D
330
1F
100
AcDbEntity
  8
1
  6
DOT_CENTER
 62
     2
100
AcDbLine
 10
-12.16876032016955
 20
-89.18918859156379
 30
0.0
 11
-14.66876032016955
 21
-89.18918859156379
 31
0.0
  0
LINE
  5
6E
330
1F
100
AcDbEntity
  8
1
  6
DOT_CENTER
 62
     2
100
AcDbLine
 10
-14.66876032016955
 20
-57.18918859156379
 30
0.0
 11
-12.16876032016955
 21
-57.18918859156379
 31
0.0
  0
LINE
  5
6F
330
1F
100
AcDbEntity
  8
1
  6
DOT_CENTER
 62
     2
100
AcDbLine
 10
-20.66876032016955
 20
-89.18918859156379
 30
0.0
 11
-14.66876032016955
 21
-89.18918859156379
 31
0.0
  0
LINE
  5
70
330
1F
100
AcDbEntity
  8
1
  6
DOT_CENTER
 62
     2
100
AcDbLine
 10
-23.16876032016955
 20
-84.68918859156379
 30
0.0
 11
-23.16876032016955
 21
-89.18918859156379
 31
0.0
  0
LINE
  5
71
330
1F
100
AcDbEntity
  8
1
  6
Continuous
 62
     7
100
AcDbLine
 10
-31.16876032016955
 20
-92.18918859156379
 30
0.0
 11
-23.66876032016955
 21
-92.18918859156379
 31
0.0
  0
LINE
  5
72
330
1F
100
AcDbEntity
  8
1
  6
DOT_CENTER
 62
     2
100
AcDbLine
 10
-33.16876032016955
 20
-89.68918859156379
 30
0.0
 11
-33.16876032016955
 21
-92.18918859156379
 31
0.0
  0
LINE
  5
73
330
1F
100
AcDbEntity
  8
1
  6
DOT_CENTER
 62
     2
100
AcDbLine
 10
-14.66876032016955
 20
-57.18918859156379
 30
0.0
 11
-20.66876032016955
 21
-57.18918859156379
 31
0.0
  0
LINE
  5
74
330
1F
100
AcDbEntity
  8
1
  6
DOT_CENTER
 62
     2
100
AcDbLine
 10
-31.16876032016955
 20
-54.18918859156379
 30
0.0
 11
-23.66876032016955
 21
-54.18918859156379
 31
0.0
  0
LINE
  5
75
330
1F
100
AcDbEntity
  8
1
  6
DOT_CENTER
 62
     2
100
AcDbLine
 10
-33.16876032016955
 20
-56.68918859156379
 30
0.0
 11
-33.16876032016955
 21
-54.18918859156379
 31
0.0
  0
LINE
  5
76
330
1F
100
AcDbEntity
  8
1
  6
DOT_CENTER
 62
     2
100
AcDbLine
 10
-23.16876032016955
 20
-89.18918859156379
 30
0.0
 11
-20.66876032016955
 21
-89.18918859156379
 31
0.0
  0
LINE
  5
77
330
1F
100
AcDbEntity
  8
1
  6
DOT_CENTER
 62
     2
100
AcDbLine
 10
-23.16876032016955
 20
-57.18918859156379
 30
0.0
 11
-20.66876032016955
 21
-57.18918859156379
 31
0.0
  0
LINE
  5
78
330
1F
100
AcDbEntity
  8
1
  6
DOT_CENTER
 62
     2
100
AcDbLine
 10
-14.66876032016955
 20
-80.18918859156379
 30
0.0
 11
-14.66876032016955
 21
-74.93918859156379
 31
0.0
  0
LINE
  5
79
330
1F
100
AcDbEntity
  8
1
  6
DOT_CENTER
 62
     2
100
AcDbLine
 10
-14.66876032016955
 20
-63.18918859156379
 30
0.0
 11
-14.66876032016955
 21
-60.68918859156379
 31
0.0
  0
LINE
  5
7A
330
1F
100
AcDbEntity
  8
1
  6
DOT_CENTER
 62
     2
100
AcDbLine
 10
-14.66876032016955
 20
-60.68918859156379
 30
0.0
 11
-14.66876032016955
 21
-57.18918859156379
 31
0.0
  0
LINE
  5
7B
330
1F
100
AcDbEntity
  8
1
  6
DOT_CENTER
 62
     2
100
AcDbLine
 10
-20.66876032016955
 20
-63.18918859156379
 30
0.0
 11
-20.66876032016955
 21
-57.18918859156379
 31
0.0
  0
LINE
  5
7C
330
1F
100
AcDbEntity
  8
1
  6
DOT_CENTER
 62
     2
100
AcDbLine
 10
-14.66876032016955
 20
-80.18918859156379
 30
0.0
 11
-20.66876032016955
 21
-80.18918859156379
 31
0.0
  0
LINE
  5
7D
330
1F
100
AcDbEntity
  8
1
  6
DOT_CENTER
 62
     2
100
AcDbLine
 10
-20.66876032016955
 20
-63.18918859156379
 30
0.0
 11
-14.66876032016955
 21
-63.18918859156379
 31
0.0
  0
LINE
  5
7E
330
1F
100
AcDbEntity
  8
1
  6
DOT_CENTER
 62
     2
100
AcDbLine
 10
-19.61763562994446
 20
-67.18918859156379
 30
0.0
 11
-24.61763562994446
 21
-67.18918859156379
 31
0.0
  0
LINE
  5
7F
330
1F
100
AcDbEntity
  8
1
  6
DOT_CENTER
 62
     2
100
AcDbLine
 10
-19.33140678505549
 20
-82.18918859156379
 30
0.0
 11
-24.33140678505549
 21
-82.18918859156379
 31
0.0
  0
LINE
  5
80
330
1F
100
AcDbEntity
  8
1
  6
DOT_CENTER
 62
     2
100
AcDbLine
 10
-23.16876032016955
 20
-64.68918859156379
 30
0.0
 11
-20.66876032016955
 21
-64.68918859156379
 31
0.0
  0
LINE
  5
81
330
1F
100
AcDbEntity
  8
1
  6
DOT_CENTER
 62
     2
100
AcDbLine
 10
-20.66876032016955
 20
-63.18918859156379
 30
0.0
 11
-20.66876032016955
 21
-64.68918859156379
 31
0.0
  0
LINE
  5
82
330
1F
100
AcDbEntity
  8
1
  6
DOT_CENTER
 62
     2
100
AcDbLine
 10
-23.16876032016955
 20
-63.18918859156379
 30
0.0
 11
-23.16876032016955
 21
-64.68918859156379
 31
0.0
  0
LINE
  5
83
330
1F
100
AcDbEntity
  8
1
  6
DOT_CENTER
 62
     2
100
AcDbLine
 10
-20.66876032016955
 20
-65.18918859156379
 30
0.0
 11
-23.16876032016955
 21
-65.18918859156379
 31
0.0
  0
LINE
  5
84
330
1F
100
AcDbEntity
  8
1
  6
DOT_CENTER
 62
     2
100
AcDbLine
 10
-20.66876032016955
 20
-64.68918859156379
 30
0.0
 11
-20.66876032016955
 21
-65.18918859156379
 31
0.0
  0
LINE
  5
85
330
1F
100
AcDbEntity
  8
1
  6
DOT_CENTER
 62
     2
100
AcDbLine
 10
-23.16876032016955
 20
-64.68918859156379
 30
0.0
 11
-23.16876032016955
 21
-65.18918859156379
 31
0.0
  0
LINE
  5
86
330
1F
100
AcDbEntity
  8
1
  6
DOT_CENTER
 62
     2
100
AcDbLine
 10
-20.66876032016955
 20
-69.18918859156379
 30
0.0
 11
-23.16876032016955
 21
-69.18918859156379
 31
0.0
  0
LINE
  5
87
330
1F
100
AcDbEntity
  8
1
  6
DOT_CENTER
 62
     2
100
AcDbLine
 10
-20.66876032016955
 20
-65.68918859156379
 30
0.0
 11
-20.66876032016955
 21
-69.18918859156379
 31
0.0
  0
LINE
  5
88
330
1F
100
AcDbEntity
  8
1
  6
DOT_CENTER
 62
     2
100
AcDbLine
 10
-23.16876032016955
 20
-65.68918859156379
 30
0.0
 11
-23.16876032016955
 21
-69.18918859156379
 31
0.0
  0
LINE
  5
89
330
1F
100
AcDbEntity
  8
1
  6
DOT_CENTER
 62
     2
100
AcDbLine
 10
-23.16876032016955
 20
-69.68918859156379
 30
0.0
 11
-20.66876032016955
 21
-69.68918859156379
 31
0.0
  0
LINE
  5
8A
330
1F
100
AcDbEntity
  8
1
  6
DOT_CENTER
 62
     2
100
AcDbLine
 10
-20.66876032016955
 20
-69.18918859156379
 30
0.0
 11
-20.66876032016955
 21
-69.68918859156379
 31
0.0
  0
LINE
  5
8B
330
1F
100
AcDbEntity
  8
1
  6
DOT_CENTER
 62
     2
100
AcDbLine
 10
-23.16876032016955
 20
-69.18918859156379
 30
0.0
 11
-23.16876032016955
 21
-69.68918859156379
 31
0.0
  0
LINE
  5
8C
330
1F
100
AcDbEntity
  8
1
  6
DOT_CENTER
 62
     2
100
AcDbLine
 10
-23.16876032016955
 20
-79.68918859156379
 30
0.0
 11
-20.66876032016955
 21
-79.68918859156379
 31
0.0
  0
LINE
  5
8D
330
1F
100
AcDbEntity
  8
1
  6
DOT_CENTER
 62
     2
100
AcDbLine
 10
-20.66876032016955
 20
-77.68918859156379
 30
0.0
 11
-20.66876032016955
 21
-79.68918859156379
 31
0.0
  0
LINE
  5
8E
330
1F
100
AcDbEntity
  8
1
  6
DOT_CENTER
 62
     2
100
AcDbLine
 10
-23.16876032016955
 20
-77.68918859156379
 30
0.0
 11
-23.16876032016955
 21
-79.68918859156379
 31
0.0
  0
LINE
  5
8F
330
1F
100
AcDbEntity
  8
1
  6
DOT_CENTER
 62
     2
100
AcDbLine
 10
-23.16876032016955
 20
-84.18918859156379
 30
0.0
 11
-20.66876032016955
 21
-84.18918859156379
 31
0.0
  0
LINE
  5
90
330
1F
100
AcDbEntity
  8
1
  6
DOT_CENTER
 62
     2
100
AcDbLine
 10
-20.66876032016955
 20
-84.68918859156379
 30
0.0
 11
-20.66876032016955
 21
-84.18918859156379
 31
0.0
  0
LINE
  5
91
330
1F
100
AcDbEntity
  8
1
  6
DOT_CENTER
 62
     2
100
AcDbLine
 10
-23.16876032016955
 20
-80.18918859156379
 30
0.0
 11
-23.16876032016955
 21
-84.18918859156379
 31
0.0
  0
LINE
  5
92
330
1F
100
AcDbEntity
  8
1
  6
DOT_CENTER
 62
     2
100
AcDbLine
 10
-20.66876032016955
 20
-84.68918859156379
 30
0.0
 11
-23.16876032016955
 21
-84.68918859156379
 31
0.0
  0
LINE
  5
93
330
1F
100
AcDbEntity
  8
1
  6
DOT_CENTER
 62
     2
100
AcDbLine
 10
-23.16876032016955
 20
-84.18918859156379
 30
0.0
 11
-23.16876032016955
 21
-84.68918859156379
 31
0.0
  0
LINE
  5
94
330
1F
100
AcDbEntity
  8
1
  6
DOT_CENTER
 62
     2
100
AcDbLine
 10
-20.66876032016955
 20
-89.18918859156379
 30
0.0
 11
-20.66876032016955
 21
-84.68918859156379
 31
0.0
  0
LINE
  5
95
330
1F
100
AcDbEntity
  8
1
  6
DOT_CENTER
 62
     2
100
AcDbLine
 10
-8.85026068647107
 20
-74.68918859156355
 30
0.0
 11
-47.32043728617191
 21
-74.68918859156355
 31
0.0
  0
LINE
  5
96
330
1F
100
AcDbEntity
  8
1
  6
DOT_CENTER
 62
     2
100
AcDbLine
 10
-46.16876032016944
 20
-75.18918859156379
 30
0.0
 11
-47.66876032016944
 21
-75.18918859156379
 31
0.0
  0
LINE
  5
97
330
1F
100
AcDbEntity
  8
1
  6
DOT_CENTER
 62
     2
100
AcDbLine
 10
-46.16876032016944
 20
-75.18918859156379
 30
0.0
 11
-46.16876032016944
 21
-86.18918859156379
 31
0.0
  0
LINE
  5
98
330
1F
100
AcDbEntity
  8
1
  6
DOT_CENTER
 62
     2
100
AcDbLine
 10
-47.66876032016944
 20
-75.18918859156379
 30
0.0
 11
-47.66876032016944
 21
-86.18918859156379
 31
0.0
  0
LINE
  5
99
330
1F
100
AcDbEntity
  8
1
  6
DOT_CENTER
 62
     2
100
AcDbLine
 10
-46.16876032016944
 20
-86.18918859156379
 30
0.0
 11
-47.66876032016944
 21
-86.18918859156379
 31
0.0
  0
LINE
  5
9A
330
1F
100
AcDbEntity
  8
1
  6
DOT_CENTER
 62
     2
100
AcDbLine
 10
-46.16876032016944
 20
-86.18918859156379
 30
0.0
 11
-46.16876032016944
 21
-92.18918859156379
 31
0.0
  0
LINE
  5
9B
330
1F
100
AcDbEntity
  8
1
  6
DOT_CENTER
 62
     2
100
AcDbLine
 10
-47.66876032016944
 20
-86.18918859156379
 30
0.0
 11
-47.66876032016972
 21
-92.18918859156351
 31
0.0
  0
LINE
  5
9C
330
1F
100
AcDbEntity
  8
1
  6
Continuous
 62
     7
100
AcDbLine
 10
158.6755140245067
 20
-86.11464852898919
 30
0.0
 11
155.138165479521
 21
-86.11464852898919
 31
0.0
  0
LINE
  5
9D
330
1F
100
AcDbEntity
  8
1
  6
Continuous
 62
     7
100
AcDbLine
 10
142.906839752014
 20
-74.11464852898919
 30
0.0
 11
142.906839752014
 21
-57.61464852898895
 31
0.0
  0
LINE
  5
9E
330
1F
100
AcDbEntity
  8
1
  6
Continuous
 62
     7
100
AcDbLine
 10
142.906839752014
 20
-86.11464852898916
 30
0.0
 11
142.906839752014
 21
-74.11464852898919
 31
0.0
  0
LINE
  5
9F
330
1F
100
AcDbEntity
  8
1
  6
Continuous
 62
     7
100
AcDbLine
 10
170.906839752014
 20
-86.11464852898922
 30
0.0
 11
170.906839752014
 21
-57.61464852898895
 31
0.0
  0
LINE
  5
A0
330
1F
100
AcDbEntity
  8
1
  6
Continuous
 62
     7
100
AcDbLine
 10
154.906839752014
 20
44.88535147101106
 30
0.0
 11
158.906839752014
 21
44.88535147101106
 31
0.0
  0
LINE
  5
A1
330
1F
100
AcDbEntity
  8
1
  6
Continuous
 62
     7
100
AcDbLine
 10
142.906839752014
 20
32.13535147101108
 30
0.0
 11
142.906839752014
 21
45.38535147101105
 31
0.0
  0
LINE
  5
A2
330
1F
100
AcDbEntity
  8
1
  6
Continuous
 62
     7
100
AcDbLine
 10
170.906839752014
 20
44.88535147101109
 30
0.0
 11
170.906839752014
 21
45.38535147101105
 31
0.0
  0
LINE
  5
A3
330
1F
100
AcDbEntity
  8
1
  6
Continuous
 62
     7
100
AcDbLine
 10
134.906839752014
 20
16.38535147101106
 30
0.0
 11
134.906839752014
 21
-55.61464852898895
 31
0.0
  0
LINE
  5
A4
330
1F
100
AcDbEntity
  8
1
  6
Continuous
 62
     7
100
AcDbLine
 10
142.906839752014
 20
-86.614648528989
 30
0.0
 11
142.906839752014
 21
-86.11464852898916
 31
0.0
  0
LINE
  5
A5
330
1F
100
AcDbEntity
  8
1
  6
Continuous
 62
     7
100
AcDbLine
 10
170.906839752014
 20
-86.614648528989
 30
0.0
 11
170.906839752014
 21
-86.11464852898922
 31
0.0
  0
LINE
  5
A6
330
1F
100
AcDbEntity
  8
1
  6
Continuous
 62
     7
100
AcDbLine
 10
174.906839752014
 20
16.38535147101106
 30
0.0
 11
174.906839752014
 21
-57.61464852898894
 31
0.0
  0
LINE
  5
A7
330
1F
100
AcDbEntity
  8
1
  6
DOT_CENTER
 62
     2
100
AcDbLine
 10
173.4924687259799
 20
-86.614648528989
 30
0.0
 11
140.9715790336203
 21
-86.614648528989
 31
0.0
  0
LINE
  5
A8
330
1F
100
AcDbEntity
  8
1
  6
DOT_CENTER
 62
     2
100
AcDbLine
 10
140.9715790336203
 20
45.38535147101105
 30
0.0
 11
173.4924687259799
 21
45.38535147101105
 31
0.0
  0
LINE
  5
A9
330
1F
100
AcDbEntity
  8
1
  6
DOT_CENTER
 62
     2
100
AcDbLine
 10
149.406839752014
 20
-91.86464852898901
 30
0.0
 11
149.406839752014
 21
-87.36464852898895
 31
0.0
  0
LINE
  5
AA
330
1F
100
AcDbEntity
  8
1
  6
Continuous
 62
     7
100
AcDbLine
 10
159.1279004674992
 20
-86.1146485289892
 30
0.0
 11
158.6755140245067
 21
-86.11464852898919
 31
0.0
  0
LINE
  5
AB
330
1F
100
AcDbEntity
  8
1
  6
Continuous
 62
     7
100
AcDbLine
 10
170.906839752014
 20
16.38535147101105
 30
0.0
 11
170.906839752014
 21
44.88535147101109
 31
0.0
  0
LINE
  5
AC
330
1F
100
AcDbEntity
  8
1
  6
Continuous
 62
     7
100
AcDbLine
 10
142.906839752014
 20
16.38535147101105
 30
0.0
 11
142.906839752014
 21
32.13535147101108
 31
0.0
  0
LINE
  5
AD
330
1F
100
AcDbEntity
  8
1
  6
DOT_CENTER
 62
     2
100
AcDbLine
 10
156.906839752014
 20
-113.3289416243351
 30
0.0
 11
156.906839752014
 21
73.0770835440912
 31
0.0
  0
LINE
  5
AE
330
1F
100
AcDbEntity
  8
1
  6
Continuous
 62
     7
100
AcDbLine
 10
71.19350625828599
 20
-75.1146485289892
 30
0.0
 11
71.19350625828599
 21
-86.11464852898924
 31
0.0
  0
LINE
  5
AF
330
1F
100
AcDbEntity
  8
1
  6
Continuous
 62
     7
100
AcDbLine
 10
71.19350625828599
 20
32.88535147101108
 30
0.0
 11
71.19350625828599
 21
44.88535147101106
 31
0.0
  0
LINE
  5
B0
330
1F
100
AcDbEntity
  8
1
  6
DOT_CENTER
 62
     2
100
AcDbLine
 10
58.60069006045299
 20
-20.61464852898895
 30
0.0
 11
108.152768177045
 21
-20.61464852898896
 31
0.0
  0
LINE
  5
B1
330
1F
100
AcDbEntity
  8
1
  6
DOT_CENTER
 62
     2
100
AcDbLine
 10
106.1935062582861
 20
81.428151340832
 30
0.0
 11
106.1935062582861
 21
79.3853514710111
 31
0.0
  0
LINE
  5
B2
330
1F
100
AcDbEntity
  8
1
  6
DOT_CENTER
 62
     2
100
AcDbLine
 10
106.1935062582861
 20
-123.727582711116
 30
0.0
 11
106.1935062582861
 21
-120.614648528989
 31
0.0
  0
LINE
  5
B3
330
1F
100
AcDbEntity
  8
1
  6
DOT_CENTER
 62
     2
100
AcDbLine
 10
106.1935062582861
 20
16.38535147101105
 30
0.0
 11
106.1935062582861
 21
79.3853514710111
 31
0.0
  0
LINE
  5
B4
330
1F
100
AcDbEntity
  8
1
  6
Continuous
 62
     7
100
AcDbLine
 10
61.19350625828599
 20
-120.614648528989
 30
0.0
 11
61.19350625828599
 21
-100.614648528989
 31
0.0
  0
LINE
  5
B5
330
1F
100
AcDbEntity
  8
1
  6
Continuous
 62
     7
100
AcDbLine
 10
61.19350625828599
 20
-100.614648528989
 30
0.0
 11
71.19350625828599
 21
-100.614648528989
 31
0.0
  0
LINE
  5
B6
330
1F
100
AcDbEntity
  8
1
  6
Continuous
 62
     7
100
AcDbLine
 10
71.19350625828599
 20
-100.614648528989
 30
0.0
 11
71.19350625828599
 21
-86.11464852898924
 31
0.0
  0
LINE
  5
B7
330
1F
100
AcDbEntity
  8
1
  6
Continuous
 62
     7
100
AcDbLine
 10
71.19350625828599
 20
-86.11464852898924
 30
0.0
 11
95.19350625828599
 21
-86.11464852898916
 31
0.0
  0
LINE
  5
B8
330
1F
100
AcDbEntity
  8
1
  6
Continuous
 62
     7
100
AcDbLine
 10
95.1935062582861
 20
16.38535147101105
 30
0.0
 11
95.1935062582861
 21
44.88535147101106
 31
0.0
  0
LINE
  5
B9
330
1F
100
AcDbEntity
  8
1
  6
Continuous
 62
     7
100
AcDbLine
 10
95.1935062582861
 20
44.88535147101106
 30
0.0
 11
71.19350625828599
 21
44.88535147101106
 31
0.0
  0
LINE
  5
BA
330
1F
100
AcDbEntity
  8
1
  6
Continuous
 62
     7
100
AcDbLine
 10
71.19350625828599
 20
44.88535147101106
 30
0.0
 11
71.19350625828599
 21
59.38535147101105
 31
0.0
  0
LINE
  5
BB
330
1F
100
AcDbEntity
  8
1
  6
Continuous
 62
     7
100
AcDbLine
 10
61.19350625828599
 20
16.38535147101105
 30
0.0
 11
61.19350625828599
 21
59.38535147101106
 31
0.0
  0
LINE
  5
BC
330
1F
100
AcDbEntity
  8
1
  6
Continuous
 62
     7
100
AcDbLine
 10
71.19350625828599
 20
59.38535147101105
 30
0.0
 11
61.19350625828599
 21
59.38535147101106
 31
0.0
  0
LINE
  5
BD
330
1F
100
AcDbEntity
  8
1
  6
Continuous
 62
     7
100
AcDbLine
 10
61.19350625828599
 20
59.38535147101106
 30
0.0
 11
61.19350625828599
 21
79.3853514710111
 31
0.0
  0
LINE
  5
BE
330
1F
100
AcDbEntity
  8
1
  6
DOT_CENTER
 62
     2
100
AcDbLine
 10
58.51079731573259
 20
-120.614648528989
 30
0.0
 11
61.19350625828599
 21
-120.614648528989
 31
0.0
  0
LINE
  5
BF
330
1F
100
AcDbEntity
  8
1
  6
DOT_CENTER
 62
     2
100
AcDbLine
 10
61.19350625828599
 20
-120.614648528989
 30
0.0
 11
106.1935062582861
 21
-120.614648528989
 31
0.0
  0
LINE
  5
C0
330
1F
100
AcDbEntity
  8
1
  6
DOT_CENTER
 62
     2
100
AcDbLine
 10
101.1935062582861
 20
-120.614648528989
 30
0.0
 11
109.3326686703517
 21
-120.614648528989
 31
0.0
  0
LINE
  5
C1
330
1F
100
AcDbEntity
  8
1
  6
DOT_CENTER
 62
     2
100
AcDbLine
 10
58.5107973157327
 20
79.3853514710111
 30
0.0
 11
61.19350625828599
 21
79.3853514710111
 31
0.0
  0
LINE
  5
C2
330
1F
100
AcDbEntity
  8
1
  6
DOT_CENTER
 62
     2
100
AcDbLine
 10
61.19350625828599
 20
79.3853514710111
 30
0.0
 11
106.1935062582861
 21
79.3853514710111
 31
0.0
  0
LINE
  5
C3
330
1F
100
AcDbEntity
  8
1
  6
DOT_CENTER
 62
     2
100
AcDbLine
 10
101.1935062582861
 20
79.3853514710111
 30
0.0
 11
109.3326686703517
 21
79.3853514710111
 31
0.0
  0
LINE
  5
C4
330
1F
100
AcDbEntity
  8
1
  6
DOT_CENTER
 62
     2
100
AcDbLine
 10
132.7291665774761
 20
-20.61464852898896
 30
0.0
 11
177.4095822569691
 21
-20.61464852898896
 31
0.0
  0
LINE
  5
C5
330
1F
100
AcDbEntity
  8
1
  6
DOT_CENTER
 62
     2
100
AcDbLine
 10
132.7291665774761
 20
-120.614648528989
 30
0.0
 11
134.906839752014
 21
-120.614648528989
 31
0.0
  0
LINE
  5
C6
330
1F
100
AcDbEntity
  8
1
  6
DOT_CENTER
 62
     2
100
AcDbLine
 10
132.7291665774761
 20
79.3853514710111
 30
0.0
 11
134.906839752014
 21
79.3853514710111
 31
0.0
  0
LINE
  5
C7
330
1F
100
AcDbEntity
  8
1
  6
Continuous
 62
     7
100
AcDbLine
 10
134.906839752014
 20
-55.61464852898895
 30
0.0
 11
134.906839752014
 21
-120.614648528989
 31
0.0
  0
LINE
  5
C8
330
1F
100
AcDbEntity
  8
1
  6
DOT_CENTER
 62
     2
100
AcDbLine
 10
134.906839752014
 20
-120.614648528989
 30
0.0
 11
174.906839752014
 21
-120.614648528989
 31
0.0
  0
LINE
  5
C9
330
1F
100
AcDbEntity
  8
1
  6
DOT_CENTER
 62
     2
100
AcDbLine
 10
134.906839752014
 20
79.3853514710111
 30
0.0
 11
174.906839752014
 21
79.3853514710111
 31
0.0
  0
LINE
  5
CA
330
1F
100
AcDbEntity
  8
1
  6
Continuous
 62
     7
100
AcDbLine
 10
174.906839752014
 20
-57.61464852898894
 30
0.0
 11
174.906839752014
 21
-120.614648528989
 31
0.0
  0
LINE
  5
CB
330
1F
100
AcDbEntity
  8
1
  6
DOT_CENTER
 62
     2
100
AcDbLine
 10
174.906839752014
 20
-120.614648528989
 30
0.0
 11
177.4095822569691
 21
-120.614648528989
 31
0.0
  0
LINE
  5
CC
330
1F
100
AcDbEntity
  8
1
  6
DOT_CENTER
 62
     2
100
AcDbLine
 10
174.906839752014
 20
79.3853514710111
 30
0.0
 11
177.4095822569691
 21
79.3853514710111
 31
0.0
  0
LINE
  5
CD
330
1F
100
AcDbEntity
  8
1
  6
Continuous
 62
     7
100
AcDbLine
 10
170.906839752014
 20
-57.61464852898895
 30
0.0
 11
170.906839752014
 21
16.38535147101105
 31
0.0
  0
LINE
  5
CE
330
1F
100
AcDbEntity
  8
1
  6
Continuous
 62
     7
100
AcDbLine
 10
174.906839752014
 20
79.3853514710111
 30
0.0
 11
174.906839752014
 21
16.38535147101106
 31
0.0
  0
LINE
  5
CF
330
1F
100
AcDbEntity
  8
1
  6
Continuous
 62
     7
100
AcDbLine
 10
142.906839752014
 20
-57.61464852898895
 30
0.0
 11
142.906839752014
 21
16.38535147101105
 31
0.0
  0
LINE
  5
D0
330
1F
100
AcDbEntity
  8
1
  6
Continuous
 62
     7
100
AcDbLine
 10
134.906839752014
 20
79.3853514710111
 30
0.0
 11
134.906839752014
 21
16.38535147101106
 31
0.0
  0
LINE
  5
D1
330
1F
100
AcDbEntity
  8
1
  6
Continuous
 62
     7
100
AcDbLine
 10
95.19350625828599
 20
-57.61464852898897
 30
0.0
 11
95.1935062582861
 21
16.38535147101105
 31
0.0
  0
LINE
  5
D2
330
1F
100
AcDbEntity
  8
1
  6
DOT_CENTER
 62
     2
100
AcDbLine
 10
106.1935062582861
 20
-57.61464852898895
 30
0.0
 11
106.1935062582861
 21
16.38535147101105
 31
0.0
  0
LINE
  5
D3
330
1F
100
AcDbEntity
  8
1
  6
Continuous
 62
     7
100
AcDbLine
 10
61.19350625828599
 20
-57.61464852898895
 30
0.0
 11
61.19350625828599
 21
16.38535147101105
 31
0.0
  0
LINE
  5
D4
330
1F
100
AcDbEntity
  8
1
  6
Continuous
 62
     7
100
AcDbLine
 10
95.19350625828599
 20
-86.11464852898916
 30
0.0
 11
95.19350625828599
 21
-57.61464852898897
 31
0.0
  0
LINE
  5
D5
330
1F
100
AcDbEntity
  8
1
  6
DOT_CENTER
 62
     2
100
AcDbLine
 10
106.1935062582861
 20
-120.614648528989
 30
0.0
 11
106.1935062582861
 21
-57.61464852898895
 31
0.0
  0
LINE
  5
D6
330
1F
100
AcDbEntity
  8
1
  6
Continuous
 62
     7
100
AcDbLine
 10
61.19350625828599
 20
-100.614648528989
 30
0.0
 11
61.19350625828599
 21
-57.61464852898895
 31
0.0
  0
LINE
  5
D7
330
1F
100
AcDbEntity
  8
1
  6
DOT_CENTER
 62
     2
100
AcDbLine
 10
166.656839752014
 20
48.38535147101105
 30
0.0
 11
162.156839752014
 21
48.38535147101105
 31
0.0
  0
LINE
  5
D8
330
1F
100
AcDbEntity
  8
1
  6
DOT_CENTER
 62
     2
100
AcDbLine
 10
164.406839752014
 20
46.13535147101105
 30
0.0
 11
164.406839752014
 21
50.63535147101105
 31
0.0
  0
LINE
  5
D9
330
1F
100
AcDbEntity
  8
1
  6
DOT_CENTER
 62
     2
100
AcDbLine
 10
149.406839752014
 20
50.63535147101105
 30
0.0
 11
149.406839752014
 21
46.13535147101105
 31
0.0
  0
LINE
  5
DA
330
1F
100
AcDbEntity
  8
1
  6
DOT_CENTER
 62
     2
100
AcDbLine
 10
151.656839752014
 20
48.38535147101105
 30
0.0
 11
147.156839752014
 21
48.38535147101105
 31
0.0
  0
LINE
  5
DB
330
1F
100
AcDbEntity
  8
1
  6
DOT_CENTER
 62
     2
100
AcDbLine
 10
164.406839752014
 20
-91.86464852898901
 30
0.0
 11
164.406839752014
 21
-87.36464852898895
 31
0.0
  0
LINE
  5
DC
330
1F
100
AcDbEntity
  8
1
  6
DOT_CENTER
 62
     2
100
AcDbLine
 10
162.156839752014
 20
-89.61464852898895
 30
0.0
 11
166.656839752014
 21
-89.61464852898895
 31
0.0
  0
LINE
  5
DD
330
1F
100
AcDbEntity
  8
1
  6
DOT_CENTER
 62
     2
100
AcDbLine
 10
147.156839752014
 20
-89.61464852898895
 30
0.0
 11
151.656839752014
 21
-89.61464852898895
 31
0.0
  0
LINE
  5
DE
330
1F
100
AcDbEntity
  8
1
  6
DOT_CENTER
 62
     2
100
AcDbLine
 10
-104.324895871924
 20
-20.61464852898895
 30
0.0
 11
-95.3938869162998
 21
-20.61464852898895
 31
0.0
  0
LINE
  5
DF
330
1F
100
AcDbEntity
  8
1
  6
DOT_CENTER
 62
     2
100
AcDbLine
 10
-164.657794284912
 20
-20.61464852898895
 30
0.0
 11
-104.324895871924
 21
-20.61464852898895
 31
0.0
  0
LINE
  5
E0
330
1F
100
AcDbEntity
  8
1
  6
DOT_CENTER
 62
     2
100
AcDbLine
 10
-142.81485230427
 20
61.85581896158374
 30
0.0
 11
-142.81485230427
 21
-105.2569032480475
 31
0.0
  0
LINE
  5
E1
330
1F
100
AcDbEntity
  8
1
  6
Continuous
 62
     7
100
AcDbLine
 10
-128.71485230427
 20
-77.11464852898868
 30
0.0
 11
-128.71485230427
 21
-84.61464852898925
 31
0.0
  0
LINE
  5
E2
330
1F
100
AcDbEntity
  8
1
  6
Continuous
 62
     7
100
AcDbLine
 10
-156.91485230427
 20
-77.1146485289887
 30
0.0
 11
-156.91485230427
 21
-84.61464852898925
 31
0.0
  0
LINE
  5
E3
330
1F
100
AcDbEntity
  8
1
  6
Continuous
 62
     7
100
AcDbLine
 10
-156.91485230427
 20
45.28535147101105
 30
0.0
 11
-156.91485230427
 21
16.38535147101105
 31
0.0
  0
LINE
  5
E4
330
1F
100
AcDbEntity
  8
1
  6
Continuous
 62
     7
100
AcDbLine
 10
-128.71485230427
 20
45.28535147101105
 30
0.0
 11
-128.7148523042699
 21
16.38535147101105
 31
0.0
  0
LINE
  5
E5
330
1F
100
AcDbEntity
  8
1
  6
Continuous
 62
     7
100
AcDbLine
 10
-156.91485230427
 20
-20.61464852898895
 30
0.0
 11
-156.91485230427
 21
-55.61464852898895
 31
0.0
  0
LINE
  5
E6
330
1F
100
AcDbEntity
  8
1
  6
DOT_CENTER
 62
     2
100
AcDbLine
 10
-164.6556346287789
 20
79.385351471011
 30
0.0
 11
-161.91485230427
 21
79.385351471011
 31
0.0
  0
LINE
  5
E7
330
1F
100
AcDbEntity
  8
1
  6
DOT_CENTER
 62
     2
100
AcDbLine
 10
-164.6556346287789
 20
-120.614648528989
 30
0.0
 11
-161.91485230427
 21
-120.614648528989
 31
0.0
  0
LINE
  5
E8
330
1F
100
AcDbEntity
  8
1
  6
DOT_CENTER
 62
     2
100
AcDbLine
 10
-98.34933553994699
 20
79.385351471011
 30
0.0
 11
-98.34933553994699
 21
14.38535147101105
 31
0.0
  0
LINE
  5
E9
330
1F
100
AcDbEntity
  8
1
  6
DOT_CENTER
 62
     2
100
AcDbLine
 10
-98.34933553994699
 20
79.385351471011
 30
0.0
 11
-95.3938869162998
 21
79.385351471011
 31
0.0
  0
LINE
  5
EA
330
1F
100
AcDbEntity
  8
1
  6
DOT_CENTER
 62
     2
100
AcDbLine
 10
-98.34933553994699
 20
-120.614648528989
 30
0.0
 11
-95.3938869162998
 21
-120.614648528989
 31
0.0
  0
LINE
  5
EB
330
1F
100
AcDbEntity
  8
1
  6
DOT_CENTER
 62
     2
100
AcDbLine
 10
-98.34933553994699
 20
-120.614648528989
 30
0.0
 11
-98.34933553994699
 21
-123.894846638247
 31
0.0
  0
LINE
  5
EC
330
1F
100
AcDbEntity
  8
1
  6
DOT_CENTER
 62
     2
100
AcDbLine
 10
-98.34933553994699
 20
79.385351471011
 30
0.0
 11
-98.34933553994699
 21
81.77063309968568
 31
0.0
  0
LINE
  5
ED
330
1F
100
AcDbEntity
  8
1
  6
Continuous
 62
     7
100
AcDbLine
 10
-161.91485230427
 20
79.385351471011
 30
0.0
 11
-161.9148523042701
 21
16.38535147101106
 31
0.0
  0
LINE
  5
EE
330
1F
100
AcDbEntity
  8
1
  6
DOT_CENTER
 62
     2
100
AcDbLine
 10
-161.91485230427
 20
79.385351471011
 30
0.0
 11
-151.9148523042701
 21
79.385351471011
 31
0.0
  0
LINE
  5
EF
330
1F
100
AcDbEntity
  8
1
  6
DOT_CENTER
 62
     2
100
AcDbLine
 10
-161.91485230427
 20
-120.614648528989
 30
0.0
 11
-151.9148523042701
 21
-120.614648528989
 31
0.0
  0
LINE
  5
F0
330
1F
100
AcDbEntity
  8
1
  6
Continuous
 62
     7
100
AcDbLine
 10
-117.9148523042701
 20
79.385351471011
 30
0.0
 11
-117.9148523042701
 21
16.38535147101104
 31
0.0
  0
LINE
  5
F1
330
1F
100
AcDbEntity
  8
1
  6
DOT_CENTER
 62
     2
100
AcDbLine
 10
-117.9148523042701
 20
79.385351471011
 30
0.0
 11
-98.34933553994699
 21
79.385351471011
 31
0.0
  0
LINE
  5
F2
330
1F
100
AcDbEntity
  8
1
  6
DOT_CENTER
 62
     2
100
AcDbLine
 10
-117.9148523042701
 20
-120.614648528989
 30
0.0
 11
-98.34933553994699
 21
-120.614648528989
 31
0.0
  0
LINE
  5
F3
330
1F
100
AcDbEntity
  8
1
  6
Continuous
 62
     7
100
AcDbLine
 10
-128.7148523042699
 20
-20.61464852898895
 30
0.0
 11
-128.71485230427
 21
-55.61464852898895
 31
0.0
  0
LINE
  5
F4
330
1F
100
AcDbEntity
  8
1
  6
Continuous
 62
     7
100
AcDbLine
 10
-161.9148523042701
 20
16.38535147101106
 30
0.0
 11
-161.91485230427
 21
-55.61464852898895
 31
0.0
  0
LINE
  5
F5
330
1F
100
AcDbEntity
  8
1
  6
Continuous
 62
     7
100
AcDbLine
 10
-156.91485230427
 20
16.38535147101105
 30
0.0
 11
-156.91485230427
 21
-20.61464852898895
 31
0.0
  0
LINE
  5
F6
330
1F
100
AcDbEntity
  8
1
  6
Continuous
 62
     7
100
AcDbLine
 10
-128.7148523042699
 20
16.38535147101105
 30
0.0
 11
-128.7148523042699
 21
-20.61464852898895
 31
0.0
  0
LINE
  5
F7
330
1F
100
AcDbEntity
  8
1
  6
Continuous
 62
     7
100
AcDbLine
 10
-117.9148523042701
 20
16.38535147101104
 30
0.0
 11
-117.9148523042701
 21
-55.61464852898895
 31
0.0
  0
LINE
  5
F8
330
1F
100
AcDbEntity
  8
1
  6
Continuous
 62
     7
100
AcDbLine
 10
-117.9148523042701
 20
-55.61464852898895
 30
0.0
 11
-117.9148523042701
 21
-120.614648528989
 31
0.0
  0
LINE
  5
F9
330
1F
100
AcDbEntity
  8
1
  6
Continuous
 62
     7
100
AcDbLine
 10
-128.71485230427
 20
-55.61464852898895
 30
0.0
 11
-128.71485230427
 21
-86.514648528989
 31
0.0
  0
LINE
  5
FA
330
1F
100
AcDbEntity
  8
1
  6
Continuous
 62
     7
100
AcDbLine
 10
-156.91485230427
 20
-55.61464852898895
 30
0.0
 11
-156.91485230427
 21
-86.514648528989
 31
0.0
  0
LINE
  5
FB
330
1F
100
AcDbEntity
  8
1
  6
Continuous
 62
     7
100
AcDbLine
 10
-161.91485230427
 20
-55.61464852898895
 30
0.0
 11
-161.91485230427
 21
-120.614648528989
 31
0.0
  0
LINE
  5
FC
330
1F
100
AcDbEntity
  8
1
  6
DOT_CENTER
 62
     2
100
AcDbLine
 10
-123.204563032309
 20
-86.514648528989
 30
0.0
 11
-128.71485230427
 21
-86.514648528989
 31
0.0
  0
LINE
  5
FD
330
1F
100
AcDbEntity
  8
1
  6
DOT_CENTER
 62
     2
100
AcDbLine
 10
-158.6339311914812
 20
45.28535147101105
 30
0.0
 11
-156.91485230427
 21
45.28535147101105
 31
0.0
  0
LINE
  5
FE
330
1F
100
AcDbEntity
  8
1
  6
DOT_CENTER
 62
     2
100
AcDbLine
 10
-142.91485230427
 20
-120.614648528989
 30
0.0
 11
-117.9148523042701
 21
-120.614648528989
 31
0.0
  0
LINE
  5
FF
330
1F
100
AcDbEntity
  8
1
  6
DOT_CENTER
 62
     2
100
AcDbLine
 10
-142.9148523042701
 20
79.385351471011
 30
0.0
 11
-117.9148523042701
 21
79.385351471011
 31
0.0
  0
LINE
  5
100
330
1F
100
AcDbEntity
  8
1
  6
DASHED
 62
     2
100
AcDbLine
 10
-160.41485230427
 20
79.385351471011
 30
0.0
 11
-160.41485230427
 21
16.38535147101105
 31
0.0
  0
LINE
  5
101
330
1F
100
AcDbEntity
  8
1
  6
DASHED
 62
     2
100
AcDbLine
 10
-160.41485230427
 20
16.38535147101105
 30
0.0
 11
-160.41485230427
 21
-55.61464852898895
 31
0.0
  0
LINE
  5
102
330
1F
100
AcDbEntity
  8
1
  6
DASHED
 62
     2
100
AcDbLine
 10
-160.41485230427
 20
-55.61464852898895
 30
0.0
 11
-160.41485230427
 21
-120.614648528989
 31
0.0
  0
LINE
  5
103
330
1F
100
AcDbEntity
  8
1
  6
DASHED
 62
     2
100
AcDbLine
 10
-151.9148523042701
 20
79.385351471011
 30
0.0
 11
-151.9148523042701
 21
56.05568108527983
 31
0.0
  0
LINE
  5
104
330
1F
100
AcDbEntity
  8
1
  6
DOT_CENTER
 62
     2
100
AcDbLine
 10
-151.9148523042701
 20
79.385351471011
 30
0.0
 11
-142.9148523042701
 21
79.385351471011
 31
0.0
  0
LINE
  5
105
330
1F
100
AcDbEntity
  8
1
  6
Continuous
 62
     7
100
AcDbLine
 10
-151.9148523042701
 20
56.05568108527983
 30
0.0
 11
-151.9148523042701
 21
16.38535147101106
 31
0.0
  0
LINE
  5
106
330
1F
100
AcDbEntity
  8
1
  6
Continuous
 62
     7
100
AcDbLine
 10
-151.9148523042701
 20
16.38535147101106
 30
0.0
 11
-151.9148523042701
 21
-55.61464852898894
 31
0.0
  0
LINE
  5
107
330
1F
100
AcDbEntity
  8
1
  6
Continuous
 62
     7
100
AcDbLine
 10
-151.9148523042701
 20
-55.61464852898894
 30
0.0
 11
-151.9148523042701
 21
-97.28497814325789
 31
0.0
  0
LINE
  5
108
330
1F
100
AcDbEntity
  8
1
  6
DASHED
 62
     2
100
AcDbLine
 10
-151.9148523042701
 20
-97.28497814325789
 30
0.0
 11
-151.9148523042701
 21
-120.614648528989
 31
0.0
  0
LINE
  5
109
330
1F
100
AcDbEntity
  8
1
  6
DOT_CENTER
 62
     2
100
AcDbLine
 10
-151.9148523042701
 20
-120.614648528989
 30
0.0
 11
-142.91485230427
 21
-120.614648528989
 31
0.0
  0
LINE
  5
10A
330
1F
100
AcDbEntity
  8
1
  6
DASHED
 62
     2
100
AcDbLine
 10
-116.4148523042701
 20
79.385351471011
 30
0.0
 11
-116.4148523042701
 21
16.38535147101104
 31
0.0
  0
LINE
  5
10B
330
1F
100
AcDbEntity
  8
1
  6
DASHED
 62
     2
100
AcDbLine
 10
-116.4148523042701
 20
16.38535147101104
 30
0.0
 11
-116.4148523042701
 21
-55.61464852898895
 31
0.0
  0
LINE
  5
10C
330
1F
100
AcDbEntity
  8
1
  6
DASHED
 62
     2
100
AcDbLine
 10
-116.4148523042701
 20
-55.61464852898895
 30
0.0
 11
-116.4148523042701
 21
-120.614648528989
 31
0.0
  0
LINE
  5
10D
330
1F
100
AcDbEntity
  8
1
  6
DASHED
 62
     2
100
AcDbLine
 10
-104.4148523042701
 20
79.385351471011
 30
0.0
 11
-104.4148523042701
 21
16.38535147101104
 31
0.0
  0
LINE
  5
10E
330
1F
100
AcDbEntity
  8
1
  6
DASHED
 62
     2
100
AcDbLine
 10
-104.4148523042701
 20
16.38535147101104
 30
0.0
 11
-104.4148523042701
 21
-55.61464852898895
 31
0.0
  0
LINE
  5
10F
330
1F
100
AcDbEntity
  8
1
  6
DASHED
 62
     2
100
AcDbLine
 10
-104.4148523042701
 20
-55.61464852898895
 30
0.0
 11
-104.4148523042701
 21
-120.614648528989
 31
0.0
  0
LINE
  5
110
330
1F
100
AcDbEntity
  8
1
  6
DASHED
 62
     2
100
AcDbLine
 10
-102.9148523042701
 20
14.38535147101105
 30
0.0
 11
-102.9148523042701
 21
-55.61464852898895
 31
0.0
  0
LINE
  5
111
330
1F
100
AcDbEntity
  8
1
  6
DASHED
 62
     2
100
AcDbLine
 10
-102.9148523042701
 20
79.385351471011
 30
0.0
 11
-102.9148523042701
 21
14.38535147101105
 31
0.0
  0
LINE
  5
112
330
1F
100
AcDbEntity
  8
1
  6
DASHED
 62
     2
100
AcDbLine
 10
-102.9148523042701
 20
-55.61464852898895
 30
0.0
 11
-102.9148523042701
 21
-120.614648528989
 31
0.0
  0
LINE
  5
113
330
1F
100
AcDbEntity
  8
1
  6
DOT_CENTER
 62
     2
100
AcDbLine
 10
-98.34933553994699
 20
-55.61464852898894
 30
0.0
 11
-98.34933553994699
 21
-120.614648528989
 31
0.0
  0
LINE
  5
114
330
1F
100
AcDbEntity
  8
1
  6
DOT_CENTER
 62
     2
100
AcDbLine
 10
-98.34933553994699
 20
14.38535147101105
 30
0.0
 11
-98.34933553994699
 21
-55.61464852898894
 31
0.0
  0
LINE
  5
115
330
1F
100
AcDbEntity
  8
1
  6
Continuous
 62
     7
100
AcDbLine
 10
-7.16876032016955
 20
-88.68918859156331
 30
0.0
 11
-7.16876032016933
 21
-60.68918859156339
 31
0.0
  0
LINE
  5
116
330
1F
100
AcDbEntity
  8
1
  6
PHANTOM
 62
     2
100
AcDbLine
 10
36.83123967983067
 20
-94.46491919866698
 30
0.0
 11
36.83123967983067
 21
-92.68918859156351
 31
0.0
  0
LINE
  5
117
330
1F
100
AcDbEntity
  8
1
  6
PHANTOM
 62
     2
100
AcDbLine
 10
36.83123967983067
 20
-52.68918859156351
 30
0.0
 11
36.83123967983067
 21
-50.68471859187277
 31
0.0
  0
LINE
  5
118
330
1F
100
AcDbEntity
  8
1
  6
Continuous
 62
     7
100
AcDbLine
 10
-7.16876032016933
 20
-52.68918859156351
 30
0.0
 11
36.83123967983067
 21
-52.68918859156351
 31
0.0
  0
LINE
  5
119
330
1F
100
AcDbEntity
  8
1
  6
Continuous
 62
     7
100
AcDbLine
 10
-7.16876032016933
 20
-60.68918859156339
 30
0.0
 11
-7.16876032016933
 21
-52.68918859156351
 31
0.0
  0
LINE
  5
11A
330
1F
100
AcDbEntity
  8
1
  6
Continuous
 62
     7
100
AcDbLine
 10
26.83123967983067
 20
-60.68918859156351
 30
0.0
 11
2.83123967983074
 21
-60.68918859156331
 31
0.0
  0
LINE
  5
11B
330
1F
100
AcDbEntity
  8
1
  6
Continuous
 62
     7
100
AcDbLine
 10
26.83123967983045
 20
-88.68918859156358
 30
0.0
 11
26.83123967983067
 21
-60.68918859156351
 31
0.0
  0
LINE
  5
11C
330
1F
100
AcDbEntity
  8
1
  6
Continuous
 62
     7
100
AcDbLine
 10
-7.16876032016955
 20
-88.68918859156331
 30
0.0
 11
2.83123967983045
 21
-88.68918859156331
 31
0.0
  0
LINE
  5
11D
330
1F
100
AcDbEntity
  8
1
  6
Continuous
 62
     7
100
AcDbLine
 10
-7.16876032016955
 20
-92.68918859156351
 30
0.0
 11
-7.16876032016955
 21
-88.68918859156331
 31
0.0
  0
LINE
  5
11E
330
1F
100
AcDbEntity
  8
1
  6
PHANTOM
 62
     2
100
AcDbLine
 10
36.83123967983067
 20
-92.68918859156351
 30
0.0
 11
36.83123967983067
 21
-52.68918859156351
 31
0.0
  0
LINE
  5
11F
330
1F
100
AcDbEntity
  8
1
  6
Continuous
 62
     7
100
AcDbLine
 10
36.83123967983067
 20
-92.68918859156351
 30
0.0
 11
-7.16876032016955
 21
-92.68918859156351
 31
0.0
  0
LINE
  5
120
330
1F
100
AcDbEntity
  8
1
  6
Continuous
 62
     7
100
AcDbLine
 10
2.83123967983074
 20
-60.68918859156331
 30
0.0
 11
2.83123967983045
 21
-88.68918859156331
 31
0.0
  0
LINE
  5
121
330
1F
100
AcDbEntity
  8
1
  6
Continuous
 62
     7
100
AcDbLine
 10
2.83123967983074
 20
-60.68918859156331
 30
0.0
 11
-7.16876032016933
 21
-60.68918859156339
 31
0.0
  0
LINE
  5
122
330
1F
100
AcDbEntity
  8
1
  6
Continuous
 62
     7
100
AcDbLine
 10
2.83123967983045
 20
-88.68918859156331
 30
0.0
 11
26.83123967983045
 21
-88.68918859156358
 31
0.0
  0
LINE
  5
123
330
1F
100
AcDbEntity
  8
1
  6
DOT_CENTER
 62
     2
100
AcDbLine
 10
29.28744366190573
 20
-74.68918859156355
 30
0.0
 11
-8.85026068647107
 21
-74.68918859156355
 31
0.0
  0
LINE
  5
124
330
1F
100
AcDbEntity
  8
1
  6
Continuous
 62
     7
100
AcDbLine
 10
-10.66876032016921
 20
-88.78918859156354
 30
0.0
 11
-12.16876032016921
 21
-88.78918859156354
 31
0.0
  0
LINE
  5
125
330
1F
100
AcDbEntity
  8
1
  6
Continuous
 62
     7
100
AcDbLine
 10
-50.66876032016921
 20
-83.6891885915635
 30
0.0
 11
-49.16876032016921
 21
-83.6891885915635
 31
0.0
  0
LINE
  5
126
330
1F
100
AcDbEntity
  8
1
  6
Continuous
 62
     7
100
AcDbLine
 10
-49.16876032016921
 20
-91.18918859156351
 30
0.0
 11
-49.16876032016921
 21
-83.6891885915635
 31
0.0
  0
LINE
  5
127
330
1F
100
AcDbEntity
  8
1
  6
Continuous
 62
     7
100
AcDbLine
 10
-13.16876032016921
 20
-92.18918859156344
 30
0.0
 11
-47.66876032016972
 21
-92.18918859156351
 31
0.0
  0
LINE
  5
128
330
1F
100
AcDbEntity
  8
1
  6
Continuous
 62
     7
100
AcDbLine
 10
-47.66876032016972
 20
-93.6891885915635
 30
0.0
 11
-13.16876032016921
 21
-93.68918859156344
 31
0.0
  0
LINE
  5
129
330
1F
100
AcDbEntity
  8
1
  6
Continuous
 62
     7
100
AcDbLine
 10
-50.66876032016921
 20
-83.6891885915635
 30
0.0
 11
-50.66876032016921
 21
-91.1891885915635
 31
0.0
  0
LINE
  5
12A
330
1F
100
AcDbEntity
  8
1
  6
Continuous
 62
     7
100
AcDbLine
 10
-0.64658478611454
 20
-39.70682668176858
 30
0.0
 11
-2.57740115117417
 21
-46.91273145625598
 31
0.0
  0
LINE
  5
12B
330
1F
100
AcDbEntity
  8
1
  6
Continuous
 62
     7
100
AcDbLine
 10
-7.66876032016921
 20
-37.18918859156349
 30
0.0
 11
-2.57843643869273
 21
-37.18918859156349
 31
0.0
  0
LINE
  5
12C
330
1F
100
AcDbEntity
  8
1
  6
Continuous
 62
     7
100
AcDbLine
 10
-9.66876032016921
 20
-50.68918859156349
 30
0.0
 11
-9.66876032016921
 21
-39.18918859156349
 31
0.0
  0
LINE
  5
12D
330
1F
100
AcDbEntity
  8
1
  6
Continuous
 62
     7
100
AcDbLine
 10
-8.66876032016921
 20
-51.68918859156349
 30
0.0
 11
-0.86283962892685
 21
-51.68918859156349
 31
0.0
  0
LINE
  5
12E
330
1F
100
AcDbEntity
  8
1
  6
Continuous
 62
     7
100
AcDbLine
 10
0.31934104017455
 20
-39.965645726871
 30
0.0
 11
-1.61147532488485
 21
-47.17155050135851
 31
0.0
  0
LINE
  5
12F
330
1F
100
AcDbEntity
  8
1
  6
Continuous
 62
     7
100
AcDbLine
 10
-2.57843643869273
 20
-36.18918859156349
 30
0.0
 11
0.67962699341024
 21
-36.18918859156349
 31
0.0
  0
LINE
  5
130
330
1F
100
AcDbEntity
  8
1
  6
Continuous
 62
     7
100
AcDbLine
 10
-10.66876032016921
 20
-39.18918859156349
 30
0.0
 11
-10.66876032016921
 21
-36.68918859156349
 31
0.0
  0
LINE
  5
131
330
1F
100
AcDbEntity
  8
1
  6
Continuous
 62
     7
100
AcDbLine
 10
-7.66876032016921
 20
-36.18918859156349
 30
0.0
 11
-2.57843643869273
 21
-36.18918859156349
 31
0.0
  0
LINE
  5
132
330
1F
100
AcDbEntity
  8
1
  6
Continuous
 62
     7
100
AcDbLine
 10
-8.66876032016921
 20
-52.68918859156349
 30
0.0
 11
-0.86283962892685
 21
-52.68918859156349
 31
0.0
  0
LINE
  5
133
330
1F
100
AcDbEntity
  8
1
  6
Continuous
 62
     7
100
AcDbLine
 10
-10.66876032016921
 20
-50.68918859156349
 30
0.0
 11
-10.66876032016921
 21
-39.18918859156349
 31
0.0
  0
LINE
  5
134
330
1F
100
AcDbEntity
  8
1
  6
Continuous
 62
     7
100
AcDbLine
 10
-10.16876032016921
 20
-36.18918859156349
 30
0.0
 11
-7.66876032016921
 21
-36.18918859156349
 31
0.0
  0
LINE
  5
135
330
1F
100
AcDbEntity
  8
1
  6
Continuous
 62
     7
100
AcDbLine
 10
1.16258990655479
 20
-36.81859811411482
 30
0.0
 11
0.31934104017455
 21
-39.965645726871
 31
0.0
  0
LINE
  5
136
330
1F
100
AcDbEntity
  8
1
  6
Continuous
 62
     7
100
AcDbLine
 10
-10.66876032016921
 20
-34.68918859156361
 30
0.0
 11
1.33123967983079
 21
-34.68918859156349
 31
0.0
  0
LINE
  5
137
330
1F
100
AcDbEntity
  8
1
  6
Continuous
 62
     7
100
AcDbLine
 10
2.78012841926443
 20
-36.57741715921731
 30
0.0
 11
0.00606318782457
 21
-46.93036954646101
 31
0.0
  0
LINE
  5
138
330
1F
100
AcDbEntity
  8
1
  6
Continuous
 62
     7
100
AcDbLine
 10
0.97198901411389
 20
-48.18918859156349
 30
0.0
 11
1.83123967983079
 21
-48.18918859156349
 31
0.0
  0
LINE
  5
139
330
1F
100
AcDbEntity
  8
1
  6
Continuous
 62
     7
100
AcDbLine
 10
0.32037632769311
 20
-49.68918859156349
 30
0.0
 11
2.33123967983079
 21
-49.68918859156349
 31
0.0
  0
LINE
  5
13A
330
1F
100
AcDbEntity
  8
1
  6
Continuous
 62
     7
100
AcDbLine
 10
4.33123967983079
 20
-47.68918859156349
 30
0.0
 11
4.33123967983076
 21
-17.09648575386302
 31
0.0
  0
LINE
  5
13B
330
1F
100
AcDbEntity
  8
1
  6
Continuous
 62
     7
100
AcDbLine
 10
2.83123967983076
 20
-47.18918859156349
 30
0.0
 11
2.83123967983076
 21
-17.09648575386302
 31
0.0
  0
LINE
  5
13C
330
1F
100
AcDbEntity
  8
1
  6
Continuous
 62
     7
100
AcDbLine
 10
-10.66876032016921
 20
-50.68918859156349
 30
0.0
 11
-10.66876032016921
 21
-60.58918859156354
 31
0.0
  0
LINE
  5
13D
330
1F
100
AcDbEntity
  8
1
  6
Continuous
 62
     7
100
AcDbLine
 10
-10.66876032016921
 20
-88.78918859156354
 30
0.0
 11
-10.66876032016921
 21
-91.18918859156344
 31
0.0
  0
LINE
  5
13E
330
1F
100
AcDbEntity
  8
1
  6
Continuous
 62
     7
100
AcDbLine
 10
-12.16876032016921
 20
-91.18918859156344
 30
0.0
 11
-12.16876032016921
 21
-88.78918859156354
 31
0.0
  0
LINE
  5
13F
330
1F
100
AcDbEntity
  8
1
  6
Continuous
 62
     7
100
AcDbLine
 10
-12.16876032016921
 20
-60.58918859156355
 30
0.0
 11
-12.16876032016921
 21
-36.18918859156349
 31
0.0
  0
LINE
  5
140
330
1F
100
AcDbEntity
  8
1
  6
Continuous
 62
     7
100
AcDbLine
 10
-12.16876032016921
 20
-60.58918859156355
 30
0.0
 11
-10.66876032016921
 21
-60.58918859156354
 31
0.0
  0
LINE
  5
141
330
1F
100
AcDbEntity
  8
1
  6
Continuous
 62
     7
100
AcDbLine
 10
-10.66876032016921
 20
-60.58918859156354
 30
0.0
 11
-10.66876032016921
 21
-88.78918859156354
 31
0.0
  0
LINE
  5
142
330
1F
100
AcDbEntity
  8
1
  6
Continuous
 62
     7
100
AcDbLine
 10
-12.16876032016921
 20
-60.58918859156355
 30
0.0
 11
-12.16876032016921
 21
-88.78918859156354
 31
0.0
  0
LINE
  5
143
330
1F
100
AcDbEntity
  8
1
  6
DOT_CENTER
 62
     2
100
AcDbLine
 10
-12.16876032016921
 20
-89.6891885915636
 30
0.0
 11
-12.16876032016921
 21
-60.18918859156345
 31
0.0
  0
LINE
  5
144
330
1F
100
AcDbEntity
  8
1
  6
DOT_CENTER
 62
     2
100
AcDbLine
 10
-46.66876032016921
 20
-92.1891885915636
 30
0.0
 11
-35.86876032016915
 21
-92.1891885915636
 31
0.0
  0
LINE
  5
145
330
1F
100
AcDbEntity
  8
1
  6
DOT_CENTER
 62
     2
100
AcDbLine
 10
-14.66876032016921
 20
-92.1891885915636
 30
0.0
 11
-35.66876032016921
 21
-92.1891885915636
 31
0.0
  0
LINE
  5
146
330
1F
100
AcDbEntity
  8
1
  6
Continuous
 62
     2
100
AcDbLine
 10
-46.40875382383285
 20
-22.81467975991822
 30
0.0
 11
0.07029840657947
 21
-22.8146797599182
 31
0.0
  0
LINE
  5
147
330
1F
100
AcDbEntity
  8
1
  6
DOT_CENTER
 62
     2
100
AcDbLine
 10
-8.85026068647107
 20
-74.68918859156355
 30
0.0
 11
-47.32043728617191
 21
-74.68918859156355
 31
0.0
  0
LINE
  5
148
330
1F
100
AcDbEntity
  8
1
  6
Continuous
 62
     2
100
AcDbLine
 10
-40.63332704236525
 20
-47.01893034775362
 30
0.0
 11
-46.40875382383285
 21
-22.81467975991822
 31
0.0
  0
LINE
  5
149
330
1F
100
AcDbEntity
  8
1
  6
DOT_CENTER
 62
     2
100
AcDbLine
 10
-128.71485230427
 20
45.28535147101105
 30
0.0
 11
-123.204563032309
 21
45.28535147101105
 31
0.0
  0
LINE
  5
14A
330
1F
100
AcDbEntity
  8
1
  6
DOT_CENTER
 62
     2
100
AcDbLine
 10
-156.91485230427
 20
45.28535147101105
 30
0.0
 11
-128.71485230427
 21
45.28535147101105
 31
0.0
  0
LINE
  5
14B
330
1F
100
AcDbEntity
  8
1
  6
DOT_CENTER
 62
     2
100
AcDbLine
 10
-156.91485230427
 20
-86.514648528989
 30
0.0
 11
-158.6339311914812
 21
-86.514648528989
 31
0.0
  0
LINE
  5
14C
330
1F
100
AcDbEntity
  8
1
  6
DOT_CENTER
 62
     2
100
AcDbLine
 10
-128.71485230427
 20
-86.514648528989
 30
0.0
 11
-156.91485230427
 21
-86.514648528989
 31
0.0
  0
LINE
  5
14D
330
1F
100
AcDbEntity
  8
1
  6
Continuous
 62
     2
100
AcDbLine
 10
-40.63332704236525
 20
-47.01893034775362
 30
0.0
 11
-37.75511076610657
 21
-59.08125416079124
 31
0.0
  0
LINE
  5
14E
330
1F
100
AcDbEntity
  8
A_ACHSEN
  6
Continuous
 62
     7
100
AcDbLine
 10
-25.66876032016921
 20
-92.1891885915636
 30
0.0
 11
-15.16876032016921
 21
-92.1891885915636
 31
0.0
  0
LINE
  5
14F
330
1F
100
AcDbEntity
  8
A_ACHSEN
  6
Continuous
 62
     7
100
AcDbLine
 10
-42.16876032016921
 20
-92.1891885915636
 30
0.0
 11
-35.86876032016915
 21
-92.1891885915636
 31
0.0
  0
LINE
  5
150
330
1F
100
AcDbEntity
  8
0
  6
Continuous
 62
     7
100
AcDbLine
 10
-47.16876032016921
 20
-92.1891885915636
 30
0.0
 11
-42.16876032016921
 21
-92.1891885915636
 31
0.0
  0
LINE
  5
151
330
1F
100
AcDbEntity
  8
A_RUNDUNGEN
  6
Continuous
 62
     7
100
AcDbLine
 10
-12.16876032016921
 20
-60.6891885915636
 30
0.0
 11
-12.16876032016921
 21
-89.6891885915636
 31
0.0
  0
ARC
  5
152
330
1F
100
AcDbEntity
  8
1
  6
Continuous
 62
     7
100
AcDbCircle
 10
158.9017072460048
 20
-74.11164673259815
 30
0.0
 40
12.00513288129783
100
AcDbArc
 50
-91.07959520203144
 51
-88.92040479798634
  0
ARC
  5
153
330
1F
100
AcDbEntity
  8
1
  6
Continuous
 62
     7
100
AcDbCircle
 10
158.9017072460048
 20
-74.11164673259815
 30
0.0
 40
12.00513288129778
100
AcDbArc
 50
-88.92040479798634
 51
-0.01432639418966
  0
ARC
  5
154
330
1F
100
AcDbEntity
  8
1
  6
Continuous
 62
     7
100
AcDbCircle
 10
154.9119722580232
 20
-74.11164673259815
 30
0.0
 40
12.00513288129792
100
AcDbArc
 50
-179.9856736058103
 51
-88.92040479797006
  0
ARC
  5
155
330
1F
100
AcDbEntity
  8
1
  6
Continuous
 62
     7
100
AcDbCircle
 10
158.8875127781164
 20
32.84510255440159
 30
0.0
 40
12.04026442840177
100
AcDbArc
 50
-3.37943823176829
 51
89.90802905391133
  0
ARC
  5
156
330
1F
100
AcDbEntity
  8
1
  6
Continuous
 62
     7
100
AcDbCircle
 10
154.9261667259116
 20
32.84510255440159
 30
0.0
 40
12.04026442840171
100
AcDbArc
 50
90.09197094608854
 51
-176.6205617682317
  0
ARC
  5
157
330
1F
100
AcDbEntity
  8
1
  6
Continuous
 62
     7
100
AcDbCircle
 10
-0.86283962892685
 20
-51.08918859156347
 30
0.0
 40
0.6000000000000227
100
AcDbArc
 50
-90.0
 51
70.81186354627498
  0
ARC
  5
158
330
1F
100
AcDbEntity
  8
1
  6
Continuous
 62
     7
100
AcDbCircle
 10
-2.57843643869273
 20
-39.18918859156349
 30
0.0
 40
2.000000000000063
100
AcDbArc
 50
-15.00000000000094
 51
90.0
  0
ARC
  5
159
330
1F
100
AcDbEntity
  8
1
  6
Continuous
 62
     7
100
AcDbCircle
 10
-7.66876032016921
 20
-39.18918859156349
 30
0.0
 40
2.0
100
AcDbArc
 50
90.0
 51
180.0
  0
ARC
  5
15A
330
1F
100
AcDbEntity
  8
1
  6
Continuous
 62
     7
100
AcDbCircle
 10
-8.66876032016921
 20
-50.68918859156349
 30
0.0
 40
1.0
100
AcDbArc
 50
180.0
 51
-90.0
  0
ARC
  5
15B
330
1F
100
AcDbEntity
  8
1
  6
Continuous
 62
     7
100
AcDbCircle
 10
-2.57843643869273
 20
-39.18918859156349
 30
0.0
 40
3.000000000000063
100
AcDbArc
 50
-14.99999999999864
 51
90.0
  0
ARC
  5
15C
330
1F
100
AcDbEntity
  8
1
  6
Continuous
 62
     7
100
AcDbCircle
 10
-7.66876032016921
 20
-39.18918859156349
 30
0.0
 40
3.0
100
AcDbArc
 50
90.0
 51
180.0
  0
ARC
  5
15D
330
1F
100
AcDbEntity
  8
1
  6
Continuous
 62
     7
100
AcDbCircle
 10
-0.86283962892685
 20
-51.08918859156347
 30
0.0
 40
1.600000000000023
100
AcDbArc
 50
-90.0
 51
70.81186354628234
  0
ARC
  5
15E
330
1F
100
AcDbEntity
  8
1
  6
Continuous
 62
     7
100
AcDbCircle
 10
-8.66876032016921
 20
-50.68918859156349
 30
0.0
 40
1.999999999999996
100
AcDbArc
 50
180.0
 51
-90.0
  0
ARC
  5
15F
330
1F
100
AcDbEntity
  8
1
  6
Continuous
 62
     7
100
AcDbCircle
 10
-142.81485230427
 20
45.28535147101105
 30
0.0
 40
14.09999999999991
100
AcDbArc
 50
90.0
 51
180.0
  0
ARC
  5
160
330
1F
100
AcDbEntity
  8
1
  6
Continuous
 62
     7
100
AcDbCircle
 10
-142.81485230427
 20
-86.514648528989
 30
0.0
 40
14.09999999999989
100
AcDbArc
 50
-90.0
 51
0.0
  0
ARC
  5
161
330
1F
100
AcDbEntity
  8
1
  6
Continuous
 62
     7
100
AcDbCircle
 10
-142.81485230427
 20
-86.514648528989
 30
0.0
 40
14.09999999999999
100
AcDbArc
 50
180.0
 51
-90.0
  0
ARC
  5
162
330
1F
100
AcDbEntity
  8
1
  6
Continuous
 62
     7
100
AcDbCircle
 10
-142.81485230427
 20
45.28535147101105
 30
0.0
 40
14.09999999999999
100
AcDbArc
 50
0.0
 51
90.0
  0
CIRCLE
  5
163
330
1F
100
AcDbEntity
  8
1
  6
DOT_CENTER
 62
     2
100
AcDbCircle
 10
154.906839752014
 20
-86.614648528989
 30
0.0
 40
12.0
  0
CIRCLE
  5
164
330
1F
100
AcDbEntity
  8
1
  6
Continuous
 62
     7
100
AcDbCircle
 10
164.406839752014
 20
48.38535147101105
 30
0.0
 40
1.5
  0
CIRCLE
  5
165
330
1F
100
AcDbEntity
  8
1
  6
Continuous
 62
     7
100
AcDbCircle
 10
149.406839752014
 20
48.38535147101105
 30
0.0
 40
1.5
  0
CIRCLE
  5
166
330
1F
100
AcDbEntity
  8
1
  6
Continuous
 62
     7
100
AcDbCircle
 10
164.406839752014
 20
-89.61464852898895
 30
0.0
 40
1.5
  0
CIRCLE
  5
167
330
1F
100
AcDbEntity
  8
1
  6
Continuous
 62
     7
100
AcDbCircle
 10
149.406839752014
 20
-89.61464852898895
 30
0.0
 40
1.5
  0
CIRCLE
  5
168
330
1F
100
AcDbEntity
  8
1
  6
DOT_CENTER
 62
     2
100
AcDbCircle
 10
-140.71485230427
 20
-86.514648528989
 30
0.0
 40
12.0
  0
SPLINE
  5
169
330
1F
100
AcDbEntity
  8
1
  6
Continuous
 62
     2
100
AcDbSpline
210
0.0
220
0.0
230
1.0
 70
     8
 71
     3
 72
    12
 73
     8
 74
     6
 42
0.0000000001
 43
0.0000000001
 44
0.00000001
 40
0.0
 40
0.0
 40
0.0
 40
0.0
 40
0.2775291599796656
 40
0.5641738536600075
 40
0.8992522958634726
 40
1.297504019331678
 40
1.680834346735612
 40
1.680834346735612
 40
1.680834346735612
 40
1.680834346735612
 10
2.831239679830759
 20
-17.09648575386302
 30
0.0
 10
2.919183553781738
 20
-17.02728604709193
 30
0.0
 10
3.097959846248982
 20
-16.88661374712872
 30
0.0
 10
3.299107429864131
 20
-17.25136172582376
 30
0.0
 10
3.668691073172276
 20
-17.08720951771579
 30
0.0
 10
3.987538888598023
 20
-16.82242732391767
 30
0.0
 10
4.218140240517382
 20
-17.00630308464439
 30
0.0
 10
4.331239679830759
 20
-17.09648575386302
 30
0.0
 11
2.831239679830759
 21
-17.09648575386302
 31
0.0
 11
3.082347619372542
 21
-16.97830268680983
 31
0.0
 11
3.306598887422629
 21
-17.15684273607896
 31
0.0
 11
3.634040561333399
 21
-17.08571248501787
 31
0.0
 11
3.993728809213858
 21
-16.91474816247635
 31
0.0
 11
4.331239679830759
 21
-17.09648575386302
 31
0.0
  0
XLINE
  5
16A
330
1F
100
AcDbEntity
  8
1
  6
DOT_CENTER
 62
     3
 60
     1
100
AcDbXline
 10
-8.85026068647107
 20
-74.68918859156355
 30
0.0
 11
1.0
 21
0.0
 31
0.0
  0
ARC
  5
16B
330
1F
100
AcDbEntity
  8
1
  6
DOT_CENTER
 62
     2
100
AcDbCircle
 10
-45.66876032016944
 20
-54.68918859156379
 30
0.0
 40
2.000000000000118
100
AcDbArc
 50
165.522487814071
 51
180.0
  0
ARC
  5
16C
330
1F
100
AcDbEntity
  8
1
  6
DOT_CENTER
 62
     2
100
AcDbCircle
 10
-45.66876032016944
 20
-54.68918859156379
 30
0.0
 40
0.5
100
AcDbArc
 50
90.0
 51
180.0
  0
ARC
  5
16D
330
1F
100
AcDbEntity
  8
1
  6
DOT_CENTER
 62
     2
100
AcDbCircle
 10
-45.66876032016944
 20
-54.68918859156379
 30
0.0
 40
2.0
100
AcDbArc
 50
90.0
 51
165.522487814071
  0
ARC
  5
16E
330
1F
100
AcDbEntity
  8
1
  6
DOT_CENTER
 62
     2
100
AcDbCircle
 10
-19.56876032016947
 20
-63.68918859156379
 30
0.0
 40
1.0
100
AcDbArc
 50
90.0
 51
180.0
  0
ARC
  5
16F
330
1F
100
AcDbEntity
  8
1
  6
DOT_CENTER
 62
     2
100
AcDbCircle
 10
-19.56876032016947
 20
-79.68918859156379
 30
0.0
 40
1.0
100
AcDbArc
 50
180.0
 51
-90.0
  0
ARC
  5
170
330
1F
100
AcDbEntity
  8
1
  6
DOT_CENTER
 62
     2
100
AcDbCircle
 10
-23.66876032016955
 20
-89.18918859156379
 30
0.0
 40
2.999999999999868
100
AcDbArc
 50
-80.40593177313912
 51
0.0
  0
ARC
  5
171
330
1F
100
AcDbEntity
  8
1
  6
DOT_CENTER
 62
     2
100
AcDbCircle
 10
-23.66876032016955
 20
-57.18918859156379
 30
0.0
 40
3.0
100
AcDbArc
 50
0.0
 51
90.0
  0
ARC
  5
172
330
1F
100
AcDbEntity
  8
1
  6
Continuous
 62
     7
100
AcDbCircle
 10
-23.66876032016955
 20
-89.18918859156379
 30
0.0
 40
3.0
100
AcDbArc
 50
-90.0
 51
-80.40593177313912
  0
ARC
  5
173
330
1F
100
AcDbEntity
  8
1
  6
DOT_CENTER
 62
     2
100
AcDbCircle
 10
-23.66876032016955
 20
-57.18918859156379
 30
0.0
 40
0.5
100
AcDbArc
 50
0.0
 51
90.0
  0
ARC
  5
174
330
1F
100
AcDbEntity
  8
1
  6
DOT_CENTER
 62
     2
100
AcDbCircle
 10
-23.66876032016955
 20
-89.18918859156379
 30
0.0
 40
0.5
100
AcDbArc
 50
-90.0
 51
0.0
  0
ARC
  5
175
330
1F
100
AcDbEntity
  8
1
  6
Continuous
 62
     7
100
AcDbCircle
 10
156.906839752014
 20
45.38535147101105
 30
0.0
 40
14.0
100
AcDbArc
 50
0.0
 51
90.0
  0
ARC
  5
176
330
1F
100
AcDbEntity
  8
1
  6
Continuous
 62
     7
100
AcDbCircle
 10
156.906839752014
 20
45.38535147101105
 30
0.0
 40
14.0
100
AcDbArc
 50
90.0
 51
180.0
  0
ARC
  5
177
330
1F
100
AcDbEntity
  8
1
  6
Continuous
 62
     7
100
AcDbCircle
 10
156.906839752014
 20
-86.614648528989
 30
0.0
 40
14.0
100
AcDbArc
 50
180.0
 51
-90.0
  0
ARC
  5
178
330
1F
100
AcDbEntity
  8
1
  6
Continuous
 62
     7
100
AcDbCircle
 10
156.906839752014
 20
-86.614648528989
 30
0.0
 40
14.0
100
AcDbArc
 50
-90.0
 51
0.0
  0
ARC
  5
179
330
1F
100
AcDbEntity
  8
1
  6
Continuous
 62
     7
100
AcDbCircle
 10
-13.16876032016921
 20
-91.18918859156344
 30
0.0
 40
1.0
100
AcDbArc
 50
-90.0
 51
0.0
  0
ARC
  5
17A
330
1F
100
AcDbEntity
  8
1
  6
Continuous
 62
     7
100
AcDbCircle
 10
-13.16876032016921
 20
-91.18918859156344
 30
0.0
 40
2.5
100
AcDbArc
 50
-90.0
 51
0.0
  0
ARC
  5
17B
330
1F
100
AcDbEntity
  8
1
  6
Continuous
 62
     7
100
AcDbCircle
 10
-47.91876032016947
 20
-90.93918859156375
 30
0.0
 40
2.761340254296537
100
AcDbArc
 50
-174.80557109227
 51
-84.80557109226986
  0
ARC
  5
17C
330
1F
100
AcDbEntity
  8
1
  6
Continuous
 62
     7
100
AcDbCircle
 10
-47.91876032016947
 20
-90.93918859156375
 30
0.0
 40
1.274754878397898
100
AcDbArc
 50
-168.6900675259882
 51
-78.69006752598862
  0
ARC
  5
17D
330
1F
100
AcDbEntity
  8
1
  6
Continuous
 62
     7
100
AcDbCircle
 10
0.32037632769311
 20
-47.68918859156361
 30
0.0
 40
3.000000000000092
100
AcDbArc
 50
164.9999999999993
 51
-109.1881364537216
  0
ARC
  5
17E
330
1F
100
AcDbEntity
  8
1
  6
Continuous
 62
     7
100
AcDbCircle
 10
0.32037632769311
 20
-47.68918859156361
 30
0.0
 40
1.999999999999845
100
AcDbArc
 50
164.9999999999972
 51
-109.1881364537258
  0
ARC
  5
17F
330
1F
100
AcDbEntity
  8
1
  6
Continuous
 62
     7
100
AcDbCircle
 10
0.67962699341024
 20
-36.68918859156349
 30
0.0
 40
0.5000000000000304
100
AcDbArc
 50
-15.00000000000702
 51
90.0
  0
ARC
  5
180
330
1F
100
AcDbEntity
  8
1
  6
Continuous
 62
     7
100
AcDbCircle
 10
1.33123967983079
 20
-36.18918859156349
 30
0.0
 40
1.500000000000048
100
AcDbArc
 50
-15.000000000001
 51
90.0
  0
ARC
  5
181
330
1F
100
AcDbEntity
  8
1
  6
Continuous
 62
     7
100
AcDbCircle
 10
0.97198901411389
 20
-47.18918859156349
 30
0.0
 40
1.000000000000235
100
AcDbArc
 50
165.0000000000058
 51
-90.0
  0
ARC
  5
182
330
1F
100
AcDbEntity
  8
1
  6
Continuous
 62
     7
100
AcDbCircle
 10
1.83123967983079
 20
-47.18918859156349
 30
0.0
 40
1.0
100
AcDbArc
 50
-90.0
 51
0.0
  0
ARC
  5
183
330
1F
100
AcDbEntity
  8
1
  6
Continuous
 62
     7
100
AcDbCircle
 10
0.32037632769311
 20
-47.68918859156361
 30
0.0
 40
1.999999999999725
100
AcDbArc
 50
-109.1881364537258
 51
-90.0
  0
ARC
  5
184
330
1F
100
AcDbEntity
  8
1
  6
Continuous
 62
     7
100
AcDbCircle
 10
2.33123967983079
 20
-47.68918859156361
 30
0.0
 40
1.999999999999886
100
AcDbArc
 50
-90.0
 51
0.00000000000326
  0
ARC
  5
185
330
1F
100
AcDbEntity
  8
1
  6
Continuous
 62
     7
100
AcDbCircle
 10
-10.16876032016921
 20
-36.68918859156349
 30
0.0
 40
0.5
100
AcDbArc
 50
90.0
 51
180.0
  0
ARC
  5
186
330
1F
100
AcDbEntity
  8
1
  6
Continuous
 62
     7
100
AcDbCircle
 10
-10.66876032016921
 20
-36.18918859156349
 30
0.0
 40
1.499999999999886
100
AcDbArc
 50
90.0
 51
180.0
  0
MTEXT
  5
188
330
1F
100
AcDbEntity
  8
1
 62
     3
100
AcDbMText
 10
-83.31628452862638
 20
-131.7487481199814
 30
0.0
 40
5.0
 41
0.0
 71
     4
 72
     1
  1
Fräsbild\PStahlzarge
  7
CONVERTER_11
 73
     1
 44
1.32052821128451
  0
MTEXT
  5
189
330
1F
100
AcDbEntity
  8
1
 62
     3
100
AcDbMText
 10
24.84999588852313
 20
-126.7487481199814
 30
0.0
 40
5.0
 41
0.0
 71
     5
 72
     1
  1
Fräsbild
  7
CONVERTER_11
 73
     1
 44
1.32052821128451
  0
MTEXT
  5
18A
330
1F
100
AcDbEntity
  8
1
 62
     3
100
AcDbMText
 10
-67.66045484007688
 20
-148.1182392210103
 30
0.0
 40
5.0
 41
0.0
 71
     5
 72
     1
  1
Rahmen
  7
CONVERTER_11
 73
     1
 44
1.20048019207683
  0
MTEXT
  5
18B
330
1F
100
AcDbEntity
  8
1
 62
     3
100
AcDbMText
 10
21.65722620659244
 20
-138.1382832889033
 30
0.0
 40
5.0
 41
0.0
 71
     5
 72
     1
  1
Flügel
  7
CONVERTER_11
 73
     1
 44
1.20048019207683
  0
MTEXT
  5
18C
330
1F
100
AcDbEntity
  8
1
 62
     2
100
AcDbMText
 10
-42.13169381071367
 20
-22.81027927863813
 30
0.0
 40
2.5
 41
0.0
 71
     4
 72
     1
  1
Aufnahmeelement\PTECTUS TE340-3D SZ
  7
CONVERTER_11
 73
     1
 44
1.32052821128451
  0
DIMENSION
  5
197
330
1F
100
AcDbEntity
  8
1
100
AcDbDimension
  2
*D1
 10
130.094615818587
 20
44.88535147101105
 30
0.0
 11
126.344615818587
 21
-20.55233169408329
 31
0.0
 70
    32
  1
<>
 71
     5
 42
-1.0
 53
90.0
  3
ME10_DIM_10
100
AcDbAlignedDimension
 13
158.6755140245067
 23
-86.11464852898919
 33
0.0
 14
154.906839752014
 24
44.88535147101106
 34
0.0
 50
90.0
100
AcDbRotatedDimension
  0
DIMENSION
  5
1A2
330
1F
100
AcDbEntity
  8
1
100
AcDbDimension
  2
*D2
 10
122.326988504593
 20
48.38535147101105
 30
0.0
 11
118.576988504593
 21
-20.6495241982269
 31
0.0
 70
    32
  1
<>
 71
     5
 42
-1.0
 53
90.0
  3
ME10_DIM_11
100
AcDbAlignedDimension
 13
147.156839752014
 23
-89.61464852898895
 33
0.0
 14
147.156839752014
 24
48.38535147101105
 34
0.0
 50
90.0
100
AcDbRotatedDimension
  0
DIMENSION
  5
1AD
330
1F
100
AcDbEntity
  8
1
100
AcDbDimension
  2
*D3
 10
114.452069692064
 20
59.38535147101105
 30
0.0
 11
110.702069692064
 21
-20.6495241982269
 31
0.0
 70
    32
  1
<>
 71
     5
 42
-1.0
 53
90.0
  3
ME10_DIM_12
100
AcDbAlignedDimension
 13
156.906839752014
 23
-100.614648528989
 33
0.0
 14
156.906839752014
 24
59.38535147101105
 34
0.0
 50
90.0
100
AcDbRotatedDimension
  0
DIMENSION
  5
1BA
330
1F
100
AcDbEntity
  8
1
100
AcDbDimension
  2
*D4
 10
174.906839752014
 20
-128.729476198668
 30
0.0
 11
172.6341832420261
 21
-124.979476198668
 31
0.0
 70
    32
  1
<>
 71
     5
 42
-1.0
 53
0.00013888888889
  3
ME10_DIM_13
100
AcDbAlignedDimension
 13
170.906839752014
 23
-86.614648528989
 33
0.0
 14
174.906839752014
 24
-120.614648528989
 34
0.0
100
AcDbRotatedDimension
  0
DIMENSION
  5
1C5
330
1F
100
AcDbEntity
  8
1
100
AcDbDimension
  2
*D5
 10
164.4068397520139
 20
34.54515688290759
 30
0.0
 11
160.7082697416599
 21
38.29515688290759
 31
0.0
 70
    32
  1
<>
 71
     5
 42
-1.0
 53
0.00013888888889
  3
ME10_DIM_14
100
AcDbAlignedDimension
 13
149.406839752014
 23
46.13535147101105
 33
0.0
 14
164.406839752014
 24
46.13535147101105
 34
0.0
100
AcDbRotatedDimension
  0
DIMENSION
  5
1D0
330
1F
100
AcDbEntity
  8
1
100
AcDbDimension
  2
*D6
 10
170.906839752014
 20
-128.729476198668
 30
0.0
 11
157.8416190824702
 21
-124.979476198668
 31
0.0
 70
    32
  1
<>
 71
     5
 42
-1.0
 53
0.00013888888889
  3
ME10_DIM_15
100
AcDbAlignedDimension
 13
142.906839752014
 23
-86.614648528989
 33
0.0
 14
170.906839752014
 24
-86.614648528989
 34
0.0
100
AcDbRotatedDimension
  0
DIMENSION
  5
1DB
330
1F
100
AcDbEntity
  8
1
100
AcDbDimension
  2
*D7
 10
61.19350625828599
 20
-138.6142090488623
 30
0.0
 11
78.24703988861029
 21
-134.8642090488623
 31
0.0
 70
    32
  1
<>
 71
     5
 42
-1.0
 53
0.00013888888889
  3
ME10_DIM_16
100
AcDbAlignedDimension
 13
95.19350625828599
 23
-86.11464852898916
 33
0.0
 14
61.19350625828599
 24
-100.614648528989
 34
0.0
100
AcDbRotatedDimension
  0
DIMENSION
  5
1E6
330
1F
100
AcDbEntity
  8
1
100
AcDbDimension
  2
*D8
 10
71.19350625828599
 20
-128.729476198668
 30
0.0
 11
66.6750179222762
 21
-124.979476198668
 31
0.0
 70
    32
  1
<>
 71
     5
 42
-1.0
 53
0.00013888888889
  3
ME10_DIM_17
100
AcDbAlignedDimension
 13
61.19350625828599
 23
-120.614648528989
 33
0.0
 14
71.19350625828599
 24
-100.614648528989
 34
0.0
100
AcDbRotatedDimension
  0
DIMENSION
  5
1F3
330
1F
100
AcDbEntity
  8
1
100
AcDbDimension
  2
*D9
 10
20.21081070804349
 20
-92.68918859156351
 30
0.0
 11
16.66185793235366
 21
-100.176156920623
 31
0.0
 70
    32
  1
<>
 71
     5
 42
-1.0
 53
90.0
  3
ME10_DIM_18
100
AcDbAlignedDimension
 13
26.83123967983045
 23
-88.68918859156358
 33
0.0
 14
36.83123967983067
 24
-92.68918859156351
 34
0.0
 50
90.0
100
AcDbRotatedDimension
  0
DIMENSION
  5
1FE
330
1F
100
AcDbEntity
  8
1
100
AcDbDimension
  2
*D10
 10
-156.91485230427
 20
-130.2566310837739
 30
0.0
 11
-142.649022440059
 21
-126.5066310837739
 31
0.0
 70
    32
  1
<>
 71
     5
 42
-1.0
 53
0.00013888888889
  3
ME10_DIM_19
100
AcDbAlignedDimension
 13
-128.71485230427
 23
-77.11464852898868
 33
0.0
 14
-156.91485230427
 24
-77.1146485289887
 34
0.0
100
AcDbRotatedDimension
  0
DIMENSION
  5
209
330
1F
100
AcDbEntity
  8
1
100
AcDbDimension
  2
*D11
 10
-85.9248041572783
 20
59.38535147101096
 30
0.0
 11
-89.6748041572783
 21
-21.301597804191
 31
0.0
 70
    32
  1
<>
 71
     5
 42
-1.0
 53
90.0
  3
ME10_DIM_20
100
AcDbAlignedDimension
 13
-142.81485230427
 23
-100.6146485289889
 33
0.0
 14
-142.81485230427
 24
59.38535147101096
 34
0.0
 50
90.0
100
AcDbRotatedDimension
  0
DIMENSION
  5
214
330
1F
100
AcDbEntity
  8
1
100
AcDbDimension
  2
*D12
 10
-47.66876032016972
 20
-105.391646529108
 30
0.0
 11
-30.4998778727054
 21
-101.641646529108
 31
0.0
 70
    32
  1
<>
 71
     5
 42
-1.0
 53
0.00013888888889
  3
ME10_DIM_21
100
AcDbAlignedDimension
 13
-10.66876032016921
 23
-88.78918859156354
 33
0.0
 14
-47.66876032016972
 24
-92.18918859156351
 34
0.0
100
AcDbRotatedDimension
  0
DIMENSION
  5
221
330
1F
100
AcDbEntity
  8
1
100
AcDbDimension
  2
*D13
 10
-161.91485230427
 20
-130.2566310837739
 30
0.0
 11
-164.776615557664
 21
-126.5066310837739
 31
0.0
 70
    32
  1
<>
 71
     5
 42
-1.0
 53
0.00013888888889
  3
ME10_DIM_22
100
AcDbAlignedDimension
 13
-156.91485230427
 23
-84.61464852898925
 33
0.0
 14
-161.91485230427
 24
-120.614648528989
 34
0.0
100
AcDbRotatedDimension
  0
INSERT
  5
229
330
1F
100
AcDbEntity
  8
1
100
AcDbBlockReference
  2
*D14
 10
0.0
 20
0.0
 30
0.0
  0
INSERT
  5
231
330
1F
100
AcDbEntity
  8
1
100
AcDbBlockReference
  2
*D15
 10
0.0
 20
0.0
 30
0.0
  0
ENDSEC
  0
SECTION
  2
OBJECTS
  0
DICTIONARY
  5
C
330
0
100
AcDbDictionary
281
     1
  3
ACAD_GROUP
350
D
  3
ACAD_LAYOUT
350
1A
  3
ACAD_MLINESTYLE
350
17
  3
ACAD_PLOTSETTINGS
350
19
  3
ACAD_PLOTSTYLENAME
350
E
  0
DICTIONARY
  5
D
102
{ACAD_REACTORS
330
C
102
}
330
C
100
AcDbDictionary
281
     1
  0
DICTIONARY
  5
1A
102
{ACAD_REACTORS
330
C
102
}
330
C
100
AcDbDictionary
281
     1
  3
Layout1
350
1E
  3
Layout2
350
26
  3
Model
350
22
  0
DICTIONARY
  5
17
102
{ACAD_REACTORS
330
C
102
}
330
C
100
AcDbDictionary
281
     1
  3
Standard
350
18
  0
DICTIONARY
  5
19
102
{ACAD_REACTORS
330
C
102
}
330
C
100
AcDbDictionary
281
     1
  0
ACDBDICTIONARYWDFLT
  5
E
102
{ACAD_REACTORS
330
C
102
}
330
C
100
AcDbDictionary
281
     1
  3
Normal
350
F
100
AcDbDictionaryWithDefault
340
F
  0
LAYOUT
  5
1E
102
{ACAD_REACTORS
330
1A
102
}
330
1A
100
AcDbPlotSettings
  1

  2

  4

  6

 40
0.0
 41
0.0
 42
0.0
 43
0.0
 44
0.0
 45
0.0
 46
0.0
 47
0.0
 48
0.0
 49
0.0
140
0.0
141
0.0
142
1.0
143
1.0
 70
   688
 72
     0
 73
     0
 74
     5
  7

 75
    16
 76
     0
 77
     2
 78
   300
147
1.0
148
0.0
149
0.0
100
AcDbLayout
  1
Layout1
 70
     1
 71
     1
 10
0.0
 20
0.0
 11
0.0
 21
0.0
 12
0.0
 22
0.0
 32
0.0
 14
0.0
 24
0.0
 34
0.0
 15
0.0
 25
0.0
 35
0.0
146
0.0
 13
0.0
 23
0.0
 33
0.0
 16
1.0
 26
0.0
 36
0.0
 17
0.0
 27
1.0
 37
0.0
 76
     0
330
1B
  0
LAYOUT
  5
26
102
{ACAD_REACTORS
330
1A
102
}
330
1A
100
AcDbPlotSettings
  1

  2

  4

  6

 40
0.0
 41
0.0
 42
0.0
 43
0.0
 44
0.0
 45
0.0
 46
0.0
 47
0.0
 48
0.0
 49
0.0
140
0.0
141
0.0
142
1.0
143
1.0
 70
   688
 72
     0
 73
     0
 74
     5
  7

 75
    16
 76
     0
 77
     2
 78
   300
147
1.0
148
0.0
149
0.0
100
AcDbLayout
  1
Layout2
 70
     1
 71
     2
 10
0.0
 20
0.0
 11
0.0
 21
0.0
 12
0.0
 22
0.0
 32
0.0
 14
0.0
 24
0.0
 34
0.0
 15
0.0
 25
0.0
 35
0.0
146
0.0
 13
0.0
 23
0.0
 33
0.0
 16
1.0
 26
0.0
 36
0.0
 17
0.0
 27
1.0
 37
0.0
 76
     0
330
23
  0
LAYOUT
  5
22
102
{ACAD_REACTORS
330
1A
102
}
330
1A
100
AcDbPlotSettings
  1

  2

  4

  6

 40
0.0
 41
0.0
 42
0.0
 43
0.0
 44
0.0
 45
0.0
 46
0.0
 47
0.0
 48
0.0
 49
0.0
140
0.0
141
0.0
142
1.0
143
1.0
 70
  1712
 72
     0
 73
     0
 74
     0
  7

 75
     0
 76
     0
 77
     2
 78
   300
147
1.0
148
0.0
149
0.0
100
AcDbLayout
  1
Model
 70
     1
 71
     0
 10
0.0
 20
0.0
 11
0.0
 21
0.0
 12
0.0
 22
0.0
 32
0.0
 14
-168.91485230427
 24
-150.6182392210103
 34
0.0
 15
181.906839752014
 25
81.77063309968568
 35
0.0
146
0.0
 13
0.0
 23
0.0
 33
0.0
 16
1.0
 26
0.0
 36
0.0
 17
0.0
 27
1.0
 37
0.0
 76
     0
330
1F
  0
MLINESTYLE
  5
18
102
{ACAD_REACTORS
330
17
102
}
330
17
100
AcDbMlineStyle
  2
Standard
 70
     0
  3

 62
   256
 51
90.0
 52
90.0
 71
     2
 49
0.5
 62
   256
  6
BYLAYER
 49
-0.5
 62
   256
  6
BYLAYER
  0
ACDBPLACEHOLDER
  5
F
102
{ACAD_REACTORS
330
E
102
}
330
E
  0
ENDSEC
  0
EOF
