  0
SECTION
  2
HEADER
  9
$ACADVER
  1
AC1018
  9
$ACADMAINTVER
 70
     0
  9
$DWGCODEPAGE
  3
ANSI_1252
  9
$INSBASE
 10
0.0
 20
0.0
 30
0.0
  9
$EXTMIN
 10
231.5907536406453
 20
150.2939485246289
 30
0.0
  9
$EXTMAX
 10
363.2300914124719
 20
227.1202287664889
 30
0.0
  9
$LIMMIN
 10
0.0
 20
0.0
  9
$LIMMAX
 10
12.0
 20
9.0
  9
$ORTHOMODE
 70
     0
  9
$REGENMODE
 70
     1
  9
$FILLMODE
 70
     1
  9
$QTEXTMODE
 70
     0
  9
$MIRRTEXT
 70
     1
  9
$LTSCALE
 40
1.0
  9
$ATTMODE
 70
     1
  9
$TEXTSIZE
 40
0.2
  9
$TRACEWID
 40
0.05
  9
$TEXTSTYLE
  7
Standard
  9
$CLAYER
  8
0
  9
$CELTYPE
  6
ByLayer
  9
$CECOLOR
 62
   256
  9
$CELTSCALE
 40
1.0
  9
$DISPSILH
 70
     0
  9
$DIMSCALE
 40
1.0
  9
$DIMASZ
 40
0.18
  9
$DIMEXO
 40
0.0625
  9
$DIMDLI
 40
0.38
  9
$DIMRND
 40
0.0
  9
$DIMDLE
 40
0.0
  9
$DIMEXE
 40
0.18
  9
$DIMTP
 40
0.0
  9
$DIMTM
 40
0.0
  9
$DIMTXT
 40
0.18
  9
$DIMCEN
 40
0.09
  9
$DIMTSZ
 40
0.0
  9
$DIMTOL
 70
     0
  9
$DIMLIM
 70
     0
  9
$DIMTIH
 70
     1
  9
$DIMTOH
 70
     1
  9
$DIMSE1
 70
     0
  9
$DIMSE2
 70
     0
  9
$DIMTAD
 70
     0
  9
$DIMZIN
 70
     0
  9
$DIMBLK
  1

  9
$DIMASO
 70
     1
  9
$DIMSHO
 70
     1
  9
$DIMPOST
  1

  9
$DIMAPOST
  1

  9
$DIMALT
 70
     0
  9
$DIMALTD
 70
     2
  9
$DIMALTF
 40
25.4
  9
$DIMLFAC
 40
1.0
  9
$DIMTOFL
 70
     0
  9
$DIMTVP
 40
0.0
  9
$DIMTIX
 70
     0
  9
$DIMSOXD
 70
     0
  9
$DIMSAH
 70
     0
  9
$DIMBLK1
  1

  9
$DIMBLK2
  1

  9
$DIMSTYLE
  2
Standard
  9
$DIMCLRD
 70
     0
  9
$DIMCLRE
 70
     0
  9
$DIMCLRT
 70
     0
  9
$DIMTFAC
 40
1.0
  9
$DIMGAP
 40
0.09
  9
$DIMJUST
 70
     0
  9
$DIMSD1
 70
     0
  9
$DIMSD2
 70
     0
  9
$DIMTOLJ
 70
     1
  9
$DIMTZIN
 70
     0
  9
$DIMALTZ
 70
     0
  9
$DIMALTTZ
 70
     0
  9
$DIMUPT
 70
     0
  9
$DIMDEC
 70
     4
  9
$DIMTDEC
 70
     4
  9
$DIMALTU
 70
     2
  9
$DIMALTTD
 70
     2
  9
$DIMTXSTY
  7
Standard
  9
$DIMAUNIT
 70
     0
  9
$DIMADEC
 70
     0
  9
$DIMALTRND
 40
0.0
  9
$DIMAZIN
 70
     0
  9
$DIMDSEP
 70
    46
  9
$DIMATFIT
 70
     3
  9
$DIMFRAC
 70
     0
  9
$DIMLDRBLK
  1

  9
$DIMLUNIT
 70
     2
  9
$DIMLWD
 70
    -2
  9
$DIMLWE
 70
    -2
  9
$DIMTMOVE
 70
     0
  9
$LUNITS
 70
     2
  9
$LUPREC
 70
     4
  9
$SKETCHINC
 40
0.1
  9
$FILLETRAD
 40
0.5
  9
$AUNITS
 70
     0
  9
$AUPREC
 70
     0
  9
$MENU
  1
.
  9
$ELEVATION
 40
0.0
  9
$PELEVATION
 40
0.0
  9
$THICKNESS
 40
0.0
  9
$LIMCHECK
 70
     0
  9
$CHAMFERA
 40
0.5
  9
$CHAMFERB
 40
0.5
  9
$CHAMFERC
 40
1.0
  9
$CHAMFERD
 40
0.0
  9
$SKPOLY
 70
     0
  9
$TDCREATE
 40
2455817.449382419
  9
$TDUCREATE
 40
2455817.366049086
  9
$TDUPDATE
 40
2455817.44938243
  9
$TDUUPDATE
 40
2455817.366049097
  9
$TDINDWG
 40
0.0000000116
  9
$TDUSRTIMER
 40
0.0000000116
  9
$USRTIMER
 70
     1
  9
$ANGBASE
 50
0.0
  9
$ANGDIR
 70
     0
  9
$PDMODE
 70
     0
  9
$PDSIZE
 40
0.0
  9
$PLINEWID
 40
0.0
  9
$SPLFRAME
 70
     0
  9
$SPLINETYPE
 70
     6
  9
$SPLINESEGS
 70
     8
  9
$HANDSEED
  5
142
  9
$SURFTAB1
 70
     6
  9
$SURFTAB2
 70
     6
  9
$SURFTYPE
 70
     6
  9
$SURFU
 70
     6
  9
$SURFV
 70
     6
  9
$UCSBASE
  2

  9
$UCSNAME
  2

  9
$UCSORG
 10
0.0
 20
0.0
 30
0.0
  9
$UCSXDIR
 10
1.0
 20
0.0
 30
0.0
  9
$UCSYDIR
 10
0.0
 20
1.0
 30
0.0
  9
$UCSORTHOREF
  2

  9
$UCSORTHOVIEW
 70
     0
  9
$UCSORGTOP
 10
0.0
 20
0.0
 30
0.0
  9
$UCSORGBOTTOM
 10
0.0
 20
0.0
 30
0.0
  9
$UCSORGLEFT
 10
0.0
 20
0.0
 30
0.0
  9
$UCSORGRIGHT
 10
0.0
 20
0.0
 30
0.0
  9
$UCSORGFRONT
 10
0.0
 20
0.0
 30
0.0
  9
$UCSORGBACK
 10
0.0
 20
0.0
 30
0.0
  9
$PUCSBASE
  2

  9
$PUCSNAME
  2

  9
$PUCSORG
 10
0.0
 20
0.0
 30
0.0
  9
$PUCSXDIR
 10
1.0
 20
0.0
 30
0.0
  9
$PUCSYDIR
 10
0.0
 20
1.0
 30
0.0
  9
$PUCSORTHOREF
  2

  9
$PUCSORTHOVIEW
 70
     0
  9
$PUCSORGTOP
 10
0.0
 20
0.0
 30
0.0
  9
$PUCSORGBOTTOM
 10
0.0
 20
0.0
 30
0.0
  9
$PUCSORGLEFT
 10
0.0
 20
0.0
 30
0.0
  9
$PUCSORGRIGHT
 10
0.0
 20
0.0
 30
0.0
  9
$PUCSORGFRONT
 10
0.0
 20
0.0
 30
0.0
  9
$PUCSORGBACK
 10
0.0
 20
0.0
 30
0.0
  9
$USERI1
 70
     0
  9
$USERI2
 70
     0
  9
$USERI3
 70
     0
  9
$USERI4
 70
     0
  9
$USERI5
 70
     0
  9
$USERR1
 40
14.5
  9
$USERR2
 40
0.0
  9
$USERR3
 40
0.0
  9
$USERR4
 40
0.0
  9
$USERR5
 40
0.0
  9
$WORLDVIEW
 70
     1
  9
$SHADEDGE
 70
     3
  9
$SHADEDIF
 70
    70
  9
$TILEMODE
 70
     1
  9
$MAXACTVP
 70
    64
  9
$PINSBASE
 10
0.0
 20
0.0
 30
0.0
  9
$PLIMCHECK
 70
     0
  9
$PEXTMIN
 10
1.00000000000000E+20
 20
1.00000000000000E+20
 30
1.00000000000000E+20
  9
$PEXTMAX
 10
-1.00000000000000E+20
 20
-1.00000000000000E+20
 30
-1.00000000000000E+20
  9
$PLIMMIN
 10
0.0
 20
0.0
  9
$PLIMMAX
 10
12.0
 20
9.0
  9
$UNITMODE
 70
     0
  9
$VISRETAIN
 70
     1
  9
$PLINEGEN
 70
     0
  9
$PSLTSCALE
 70
     1
  9
$TREEDEPTH
 70
  3020
  9
$CMLSTYLE
  2
Standard
  9
$CMLJUST
 70
     0
  9
$CMLSCALE
 40
1.0
  9
$PROXYGRAPHICS
 70
     1
  9
$MEASUREMENT
 70
     1
  9
$CELWEIGHT
370
    -1
  9
$ENDCAPS
280
     0
  9
$JOINSTYLE
280
     0
  9
$LWDISPLAY
290
     0
  9
$INSUNITS
 70
     1
  9
$HYPERLINKBASE
  1

  9
$STYLESHEET
  1

  9
$XEDIT
290
     1
  9
$CEPSNTYPE
380
     0
  9
$PSTYLEMODE
290
     1
  9
$FINGERPRINTGUID
  2
{CAC6EB41-CDC8-4793-833E-AEA32D67C76E}
  9
$VERSIONGUID
  2
{FAEB1C32-E019-11D5-929B-00C0DF256EC4}
  9
$EXTNAMES
290
     1
  9
$PSVPSCALE
 40
0.0
  9
$OLESTARTUP
290
     0
  9
$SORTENTS
280
   127
  9
$INDEXCTL
280
     0
  9
$HIDETEXT
280
     1
  9
$XCLIPFRAME
290
     0
  9
$HALOGAP
280
     0
  9
$OBSCOLOR
 70
   257
  9
$OBSLTYPE
280
     0
  9
$INTERSECTIONDISPLAY
280
     0
  9
$INTERSECTIONCOLOR
 70
   257
  9
$DIMASSOC
280
     2
  9
$PROJECTNAME
  1

  0
ENDSEC
  0
SECTION
  2
CLASSES
  0
CLASS
  1
ACDBDICTIONARYWDFLT
  2
AcDbDictionaryWithDefault
  3
ObjectDBX Classes
 90
        0
 91
        3
280
     0
281
     0
  0
CLASS
  1

  2
exOdDbCircle
  3

 90
        0
 91
        3
280
     0
281
     1
  0
ENDSEC
  0
SECTION
  2
TABLES
  0
TABLE
  2
VPORT
  5
8
330
0
100
AcDbSymbolTable
 70
     1
  0
VPORT
  5
29
330
8
100
AcDbSymbolTableRecord
100
AcDbViewportTableRecord
  2
*Active
 70
     0
 10
0.0
 20
0.0
 11
1.0
 21
1.0
 12
297.4104225265586
 22
188.7070886455589
 13
0.0
 23
0.0
 14
0.5
 24
0.5
 15
0.5
 25
0.5
 16
0.0
 26
0.0
 36
1.0
 17
0.0
 27
0.0
 37
0.0
 40
90.35078781888048
 41
1.60267857142857
 42
50.0
 43
0.0
 44
0.0
 50
0.0
 51
0.0
 71
     0
 72
   100
 73
     1
 74
     3
 75
     0
 76
     0
 77
     0
 78
     0
281
     0
 65
     1
110
0.0
120
0.0
130
0.0
111
1.0
121
0.0
131
0.0
112
0.0
122
1.0
132
0.0
 79
     0
146
0.0
  0
ENDTAB
  0
TABLE
  2
LTYPE
  5
5
330
0
100
AcDbSymbolTable
 70
     8
  0
LTYPE
  5
14
330
5
100
AcDbSymbolTableRecord
100
AcDbLinetypeTableRecord
  2
ByBlock
 70
     0
  3

 72
    65
 73
     0
 40
0.0
  0
LTYPE
  5
15
330
5
100
AcDbSymbolTableRecord
100
AcDbLinetypeTableRecord
  2
ByLayer
 70
     0
  3

 72
    65
 73
     0
 40
0.0
  0
LTYPE
  5
16
330
5
100
AcDbSymbolTableRecord
100
AcDbLinetypeTableRecord
  2
Continuous
 70
     0
  3
Solid line
 72
    65
 73
     0
 40
0.0
  0
LTYPE
  5
2A
330
5
100
AcDbSymbolTableRecord
100
AcDbLinetypeTableRecord
  2
DASHED
 70
     0
  3
Dashed
 72
    65
 73
     2
 40
15.0
 49
7.0
 74
     0
 49
-8.0
 74
     0
  0
LTYPE
  5
2B
330
5
100
AcDbSymbolTableRecord
100
AcDbLinetypeTableRecord
  2
DOTTED
 70
     0
  3
Dotted
 72
    65
 73
     2
 40
1.0
 49
0.0
 74
     0
 49
-1.0
 74
     0
  0
LTYPE
  5
2C
330
5
100
AcDbSymbolTableRecord
100
AcDbLinetypeTableRecord
  2
DOT_CENTER
 70
     0
  3
Dot_Center
 72
    65
 73
     4
 40
14.0
 49
12.0
 74
     0
 49
-1.0
 74
     0
 49
0.0
 74
     0
 49
-1.0
 74
     0
  0
LTYPE
  5
2D
330
5
100
AcDbSymbolTableRecord
100
AcDbLinetypeTableRecord
  2
LONG_DASHED
 70
     0
  3
Long_Dashed
 72
    65
 73
     2
 40
15.0
 49
10.0
 74
     0
 49
-5.0
 74
     0
  0
LTYPE
  5
2E
330
5
100
AcDbSymbolTableRecord
100
AcDbLinetypeTableRecord
  2
DASH_CENTER
 70
     0
  3
Dash_Center
 72
    65
 73
     4
 40
14.0
 49
11.0
 74
     0
 49
-1.0
 74
     0
 49
1.0
 74
     0
 49
-1.0
 74
     0
  0
LTYPE
  5
2F
330
5
100
AcDbSymbolTableRecord
100
AcDbLinetypeTableRecord
  2
PHANTOM
 70
     0
  3
Phantom
 72
    65
 73
     6
 40
13.0
 49
10.0
 74
     0
 49
-1.0
 74
     0
 49
0.0
 74
     0
 49
-1.0
 74
     0
 49
0.0
 74
     0
 49
-1.0
 74
     0
  0
LTYPE
  5
30
330
5
100
AcDbSymbolTableRecord
100
AcDbLinetypeTableRecord
  2
CENTER_DASH_DASH
 70
     0
  3
Center_Dash_Dash
 72
    65
 73
     6
 40
14.0
 49
9.0
 74
     0
 49
-1.0
 74
     0
 49
1.0
 74
     0
 49
-1.0
 74
     0
 49
1.0
 74
     0
 49
-1.0
 74
     0
  0
ENDTAB
  0
TABLE
  2
LAYER
  5
2
330
0
100
AcDbSymbolTable
 70
     2
  0
LAYER
  5
10
330
2
100
AcDbSymbolTableRecord
100
AcDbLayerTableRecord
  2
0
 70
     0
 62
     7
  6
Continuous
370
    -3
390
F
  0
LAYER
  5
31
330
2
100
AcDbSymbolTableRecord
100
AcDbLayerTableRecord
  2
1
 70
     0
 62
     7
  6
Continuous
370
    -3
390
F
  0
ENDTAB
  0
TABLE
  2
STYLE
  5
3
330
0
100
AcDbSymbolTable
 70
     2
  0
STYLE
  5
11
330
3
100
AcDbSymbolTableRecord
100
AcDbTextStyleTableRecord
  2
Standard
 70
     0
 40
0.0
 41
1.0
 50
0.0
 71
     0
 42
0.2
  3
txt
  4

  0
STYLE
  5
F6
330
3
100
AcDbSymbolTableRecord
100
AcDbTextStyleTableRecord
  2
CONVERTER_11
 70
     0
 40
0.0
 41
0.9
 50
0.0
 71
     0
 42
0.2
  3
txt.shx
  4

  0
ENDTAB
  0
TABLE
  2
VIEW
  5
6
330
0
100
AcDbSymbolTable
 70
     0
  0
ENDTAB
  0
TABLE
  2
UCS
  5
7
330
0
100
AcDbSymbolTable
 70
     0
  0
ENDTAB
  0
TABLE
  2
APPID
  5
9
330
0
100
AcDbSymbolTable
 70
     1
  0
APPID
  5
12
330
9
100
AcDbSymbolTableRecord
100
AcDbRegAppTableRecord
  2
ACAD
 70
     0
  0
ENDTAB
  0
TABLE
  2
DIMSTYLE
  5
A
330
0
100
AcDbSymbolTable
 70
     8
100
AcDbDimStyleTable
  0
DIMSTYLE
105
27
330
A
100
AcDbSymbolTableRecord
100
AcDbDimStyleTableRecord
  2
Standard
 70
     0
340
11
  0
DIMSTYLE
105
FA
102
{ACAD_REACTORS
330
FB
102
}
330
A
100
AcDbSymbolTableRecord
100
AcDbDimStyleTableRecord
  2
ME10_DIM_10
 70
     0
 41
3.5
 42
0.0
 44
2.0
 73
     0
 74
     0
 77
     1
 78
     8
140
3.5
147
2.0
172
     1
173
     1
176
     2
177
     2
178
     2
271
     3
340
F6
  0
DIMSTYLE
105
105
102
{ACAD_REACTORS
330
106
102
}
330
A
100
AcDbSymbolTableRecord
100
AcDbDimStyleTableRecord
  2
ME10_DIM_11
 70
     0
 41
3.5
 42
0.0
 44
2.0
 73
     0
 74
     0
 77
     1
 78
     8
140
3.5
147
2.0
172
     1
173
     1
176
     2
177
     2
178
     2
271
     3
340
F6
  0
DIMSTYLE
105
112
102
{ACAD_REACTORS
330
113
102
}
330
A
100
AcDbSymbolTableRecord
100
AcDbDimStyleTableRecord
  2
ME10_DIM_12
 70
     0
 41
3.5
 42
0.0
 44
2.0
 73
     0
 74
     0
 77
     1
 78
     8
140
3.5
147
2.0
172
     1
173
     1
176
     2
177
     2
178
     2
271
     3
340
F6
  0
DIMSTYLE
105
11D
102
{ACAD_REACTORS
330
11E
102
}
330
A
100
AcDbSymbolTableRecord
100
AcDbDimStyleTableRecord
  2
ME10_DIM_13
 70
     0
 41
3.5
 42
0.0
 44
2.0
 73
     0
 74
     0
 77
     1
 78
     8
140
3.5
147
2.0
172
     1
173
     1
176
     2
177
     2
178
     2
271
     3
340
F6
  0
DIMSTYLE
105
128
102
{ACAD_REACTORS
330
129
102
}
330
A
100
AcDbSymbolTableRecord
100
AcDbDimStyleTableRecord
  2
ME10_DIM_14
 70
     0
 41
3.5
 42
0.0
 44
2.0
 73
     0
 74
     0
 77
     1
 78
     8
140
3.5
147
2.0
172
     1
173
     1
176
     2
177
     2
178
     2
271
     3
340
F6
  0
DIMSTYLE
105
133
102
{ACAD_REACTORS
330
134
102
}
330
A
100
AcDbSymbolTableRecord
100
AcDbDimStyleTableRecord
  2
ME10_DIM_15
 70
     0
 41
3.5
 42
0.0
 44
2.0
 73
     0
 74
     0
 77
     1
 78
     8
140
3.5
147
2.0
172
     1
173
     1
176
     2
177
     2
178
     2
271
     3
340
F6
  0
DIMSTYLE
105
140
102
{ACAD_REACTORS
330
141
102
}
330
A
100
AcDbSymbolTableRecord
100
AcDbDimStyleTableRecord
  2
ME10_DIM_16
 70
     0
 41
3.5
 42
0.0
 44
2.0
 73
     0
 74
     0
 77
     1
 78
     8
140
3.5
147
2.0
172
     1
173
     1
176
     2
177
     2
178
     2
271
     3
340
F6
  0
ENDTAB
  0
TABLE
  2
BLOCK_RECORD
  5
1
330
0
100
AcDbSymbolTable
 70
     8
  0
BLOCK_RECORD
  5
1F
330
1
100
AcDbSymbolTableRecord
100
AcDbBlockTableRecord
  2
*Model_Space
340
22
  0
BLOCK_RECORD
  5
1B
330
1
100
AcDbSymbolTableRecord
100
AcDbBlockTableRecord
  2
*Paper_Space
340
1E
  0
BLOCK_RECORD
  5
23
330
1
100
AcDbSymbolTableRecord
100
AcDbBlockTableRecord
  2
*Paper_Space0
340
26
  0
BLOCK_RECORD
  5
EE
330
1
100
AcDbSymbolTableRecord
100
AcDbBlockTableRecord
  2
*D1
340
0
  0
BLOCK_RECORD
  5
FC
330
1
100
AcDbSymbolTableRecord
100
AcDbBlockTableRecord
  2
*D2
340
0
  0
BLOCK_RECORD
  5
107
330
1
100
AcDbSymbolTableRecord
100
AcDbBlockTableRecord
  2
*D3
340
0
  0
BLOCK_RECORD
  5
114
330
1
100
AcDbSymbolTableRecord
100
AcDbBlockTableRecord
  2
*D4
340
0
  0
BLOCK_RECORD
  5
11F
330
1
100
AcDbSymbolTableRecord
100
AcDbBlockTableRecord
  2
*D5
340
0
  0
BLOCK_RECORD
  5
12A
330
1
100
AcDbSymbolTableRecord
100
AcDbBlockTableRecord
  2
*D6
340
0
  0
BLOCK_RECORD
  5
135
330
1
100
AcDbSymbolTableRecord
100
AcDbBlockTableRecord
  2
*D7
340
0
  0
ENDTAB
  0
ENDSEC
  0
SECTION
  2
BLOCKS
  0
BLOCK
  5
20
330
1F
100
AcDbEntity
  8
0
100
AcDbBlockBegin
  2
*Model_Space
 70
     0
 71
     0
 10
0.0
 20
0.0
 30
0.0
  3
*Model_Space
  1

  0
ENDBLK
  5
21
330
1F
100
AcDbEntity
  8
0
100
AcDbBlockEnd
  0
BLOCK
  5
1C
330
1B
100
AcDbEntity
 67
     1
  8
0
100
AcDbBlockBegin
  2
*Paper_Space
 70
     0
 71
     0
 10
0.0
 20
0.0
 30
0.0
  3
*Paper_Space
  1

  0
ENDBLK
  5
1D
330
1B
100
AcDbEntity
 67
     1
  8
0
100
AcDbBlockEnd
  0
BLOCK
  5
24
330
23
100
AcDbEntity
  8
0
100
AcDbBlockBegin
  2
*Paper_Space0
 70
     0
 71
     0
 10
0.0
 20
0.0
 30
0.0
  3
*Paper_Space0
  1

  0
ENDBLK
  5
25
330
23
100
AcDbEntity
  8
0
100
AcDbBlockEnd
  0
BLOCK
  5
F8
330
EE
100
AcDbEntity
  8
0
100
AcDbBlockBegin
  2
*D1
 70
     1
 71
     0
 10
0.0
 20
0.0
 30
0.0
  3
*D1
  1

  0
LINE
  5
EF
330
EE
100
AcDbEntity
  8
1
  6
Continuous
 62
     2
100
AcDbLine
 10
361.2300914124719
 20
160.1202287664889
 30
0.0
 11
361.2300914124719
 21
167.1202287664889
 31
0.0
  0
LINE
  5
F0
330
EE
100
AcDbEntity
  8
1
  6
Continuous
 62
     2
100
AcDbLine
 10
361.2300914124719
 20
167.1202287664889
 30
0.0
 11
361.2300914124719
 21
171.1202287664889
 31
0.0
  0
LINE
  5
F1
330
EE
100
AcDbEntity
  8
1
  6
Continuous
 62
     2
100
AcDbLine
 10
361.2300914124719
 20
171.1202287664889
 30
0.0
 11
361.2300914124719
 21
178.1202287664889
 31
0.0
  0
LINE
  5
F2
330
EE
100
AcDbEntity
  8
1
  6
Continuous
 62
     2
100
AcDbLine
 10
352.9954318530919
 20
167.1202287664889
 30
0.0
 11
363.2300914124719
 21
167.1202287664889
 31
0.0
  0
LINE
  5
F3
330
EE
100
AcDbEntity
  8
1
  6
Continuous
 62
     2
100
AcDbLine
 10
331.4954318530919
 20
171.1202287664889
 30
0.0
 11
363.2300914124719
 21
171.1202287664889
 31
0.0
  0
SOLID
  5
F4
330
EE
100
AcDbEntity
  8
1
 62
     2
100
AcDbTrace
 10
361.6908751540278
 20
163.6202287664889
 30
0.0
 11
360.769307670916
 21
163.6202287664889
 31
0.0
 12
361.2300914124719
 22
167.1202287664889
 32
0.0
 13
361.2300914124719
 23
167.1202287664889
 33
0.0
  0
SOLID
  5
F5
330
EE
100
AcDbEntity
  8
1
 62
     2
100
AcDbTrace
 10
360.769307670916
 20
174.6202287664889
 30
0.0
 11
361.6908751540278
 21
174.6202287664889
 31
0.0
 12
361.2300914124719
 22
171.1202287664889
 32
0.0
 13
361.2300914124719
 23
171.1202287664889
 33
0.0
  0
MTEXT
  5
F7
330
EE
100
AcDbEntity
  8
1
 62
     2
100
AcDbMText
 10
359.2300914124719
 20
161.1577190175329
 30
0.0
 40
3.5
 41
0.0
 71
     7
 72
     1
  1
4
  7
CONVERTER_11
 11
0.0
 21
1.0
 31
0.0
 73
     1
 44
0.60024009603842
  0
ENDBLK
  5
F9
330
EE
100
AcDbEntity
  8
0
100
AcDbBlockEnd
  0
BLOCK
  5
103
330
FC
100
AcDbEntity
  8
0
100
AcDbBlockBegin
  2
*D2
 70
     1
 71
     0
 10
0.0
 20
0.0
 30
0.0
  3
*D2
  1

  0
LINE
  5
FD
330
FC
100
AcDbEntity
  8
1
  6
Continuous
 62
     2
100
AcDbLine
 10
361.2300914124719
 20
171.1202287664889
 30
0.0
 11
361.2300914124719
 21
199.1202287664889
 31
0.0
  0
LINE
  5
FE
330
FC
100
AcDbEntity
  8
1
  6
Continuous
 62
     2
100
AcDbLine
 10
331.4954318530919
 20
171.1202287664889
 30
0.0
 11
363.2300914124719
 21
171.1202287664889
 31
0.0
  0
LINE
  5
FF
330
FC
100
AcDbEntity
  8
1
  6
Continuous
 62
     2
100
AcDbLine
 10
331.4954318530919
 20
199.1202287664889
 30
0.0
 11
363.2300914124719
 21
199.1202287664889
 31
0.0
  0
SOLID
  5
100
330
FC
100
AcDbEntity
  8
1
 62
     2
100
AcDbTrace
 10
360.769307670916
 20
174.6202287664889
 30
0.0
 11
361.6908751540278
 21
174.6202287664889
 31
0.0
 12
361.2300914124719
 22
171.1202287664889
 32
0.0
 13
361.2300914124719
 23
171.1202287664889
 33
0.0
  0
SOLID
  5
101
330
FC
100
AcDbEntity
  8
1
 62
     2
100
AcDbTrace
 10
361.6908751540278
 20
195.6202287664889
 30
0.0
 11
360.769307670916
 21
195.6202287664889
 31
0.0
 12
361.2300914124719
 22
199.1202287664889
 32
0.0
 13
361.2300914124719
 23
199.1202287664889
 33
0.0
  0
MTEXT
  5
102
330
FC
100
AcDbEntity
  8
1
 62
     2
100
AcDbMText
 10
359.2300914124719
 20
182.4952287664889
 30
0.0
 40
3.5
 41
0.0
 71
     7
 72
     1
  1
28
  7
CONVERTER_11
 11
0.0
 21
1.0
 31
0.0
 73
     1
 44
0.60024009603842
  0
ENDBLK
  5
104
330
FC
100
AcDbEntity
  8
0
100
AcDbBlockEnd
  0
BLOCK
  5
110
330
107
100
AcDbEntity
  8
0
100
AcDbBlockBegin
  2
*D3
 70
     1
 71
     0
 10
0.0
 20
0.0
 30
0.0
  3
*D3
  1

  0
LINE
  5
108
330
107
100
AcDbEntity
  8
1
  6
Continuous
 62
     2
100
AcDbLine
 10
237.0907536406453
 20
160.1202287664889
 30
0.0
 11
237.0907536406453
 21
167.1202287664889
 31
0.0
  0
LINE
  5
109
330
107
100
AcDbEntity
  8
1
  6
Continuous
 62
     2
100
AcDbLine
 10
237.0907536406453
 20
167.1202287664889
 30
0.0
 11
237.0907536406453
 21
171.120228766489
 31
0.0
  0
LINE
  5
10A
330
107
100
AcDbEntity
  8
1
  6
Continuous
 62
     2
100
AcDbLine
 10
237.0907536406453
 20
171.120228766489
 30
0.0
 11
237.0907536406453
 21
178.120228766489
 31
0.0
  0
LINE
  5
10B
330
107
100
AcDbEntity
  8
1
  6
Continuous
 62
     2
100
AcDbLine
 10
244.4954318530918
 20
167.1202287664889
 30
0.0
 11
235.0907536406453
 21
167.1202287664889
 31
0.0
  0
LINE
  5
10C
330
107
100
AcDbEntity
  8
1
  6
Continuous
 62
     2
100
AcDbLine
 10
263.4954318530914
 20
171.120228766489
 30
0.0
 11
235.0907536406453
 21
171.120228766489
 31
0.0
  0
SOLID
  5
10D
330
107
100
AcDbEntity
  8
1
 62
     2
100
AcDbTrace
 10
237.5515373822012
 20
163.6202287664889
 30
0.0
 11
236.6299698990894
 21
163.6202287664889
 31
0.0
 12
237.0907536406453
 22
167.1202287664889
 32
0.0
 13
237.0907536406453
 23
167.1202287664889
 33
0.0
  0
SOLID
  5
10E
330
107
100
AcDbEntity
  8
1
 62
     2
100
AcDbTrace
 10
236.6299698990894
 20
174.620228766489
 30
0.0
 11
237.5515373822012
 21
174.620228766489
 31
0.0
 12
237.0907536406453
 22
171.120228766489
 32
0.0
 13
237.0907536406453
 23
171.120228766489
 33
0.0
  0
MTEXT
  5
10F
330
107
100
AcDbEntity
  8
1
 62
     2
100
AcDbMText
 10
235.0907536406453
 20
160.3896488689059
 30
0.0
 40
3.5
 41
0.0
 71
     7
 72
     1
  1
4
  7
CONVERTER_11
 11
0.0
 21
1.0
 31
0.0
 73
     1
 44
0.60024009603842
  0
ENDBLK
  5
111
330
107
100
AcDbEntity
  8
0
100
AcDbBlockEnd
  0
BLOCK
  5
11B
330
114
100
AcDbEntity
  8
0
100
AcDbBlockBegin
  2
*D4
 70
     1
 71
     0
 10
0.0
 20
0.0
 30
0.0
  3
*D4
  1

  0
LINE
  5
115
330
114
100
AcDbEntity
  8
1
  6
Continuous
 62
     2
100
AcDbLine
 10
237.0907536406453
 20
171.120228766489
 30
0.0
 11
237.0907536406453
 21
199.1202318182458
 31
0.0
  0
LINE
  5
116
330
114
100
AcDbEntity
  8
1
  6
Continuous
 62
     2
100
AcDbLine
 10
263.4954318530914
 20
171.120228766489
 30
0.0
 11
235.0907536406453
 21
171.120228766489
 31
0.0
  0
LINE
  5
117
330
114
100
AcDbEntity
  8
1
  6
Continuous
 62
     2
100
AcDbLine
 10
263.4954318530914
 20
199.1202318182458
 30
0.0
 11
235.0907536406453
 21
199.1202318182458
 31
0.0
  0
SOLID
  5
118
330
114
100
AcDbEntity
  8
1
 62
     2
100
AcDbTrace
 10
236.6299698990894
 20
174.620228766489
 30
0.0
 11
237.5515373822012
 21
174.620228766489
 31
0.0
 12
237.0907536406453
 22
171.120228766489
 32
0.0
 13
237.0907536406453
 23
171.120228766489
 33
0.0
  0
SOLID
  5
119
330
114
100
AcDbEntity
  8
1
 62
     2
100
AcDbTrace
 10
237.5515373822012
 20
195.6202318182458
 30
0.0
 11
236.6299698990894
 21
195.6202318182458
 31
0.0
 12
237.0907536406453
 22
199.1202318182458
 32
0.0
 13
237.0907536406453
 23
199.1202318182458
 33
0.0
  0
MTEXT
  5
11A
330
114
100
AcDbEntity
  8
1
 62
     2
100
AcDbMText
 10
235.0907536406453
 20
182.4952302923674
 30
0.0
 40
3.5
 41
0.0
 71
     7
 72
     1
  1
28
  7
CONVERTER_11
 11
0.0
 21
1.0
 31
0.0
 73
     1
 44
0.60024009603842
  0
ENDBLK
  5
11C
330
114
100
AcDbEntity
  8
0
100
AcDbBlockEnd
  0
BLOCK
  5
126
330
11F
100
AcDbEntity
  8
0
100
AcDbBlockBegin
  2
*D5
 70
     1
 71
     0
 10
0.0
 20
0.0
 30
0.0
  3
*D5
  1

  0
LINE
  5
120
330
11F
100
AcDbEntity
  8
1
  6
Continuous
 62
     2
100
AcDbLine
 10
263.4954318530915
 20
157.0307464652599
 30
0.0
 11
294.4954318530919
 21
157.0307464652599
 31
0.0
  0
LINE
  5
121
330
11F
100
AcDbEntity
  8
1
  6
Continuous
 62
     2
100
AcDbLine
 10
263.4954318530915
 20
171.120228766489
 30
0.0
 11
263.4954318530915
 21
155.0307464652599
 31
0.0
  0
LINE
  5
122
330
11F
100
AcDbEntity
  8
1
  6
Continuous
 62
     2
100
AcDbLine
 10
294.4954318530919
 20
167.1202287664889
 30
0.0
 11
294.4954318530919
 21
155.0307464652599
 31
0.0
  0
SOLID
  5
123
330
11F
100
AcDbEntity
  8
1
 62
     2
100
AcDbTrace
 10
266.9954318530915
 20
157.4915302068158
 30
0.0
 11
266.9954318530915
 21
156.569962723704
 31
0.0
 12
263.4954318530915
 22
157.0307464652599
 32
0.0
 13
263.4954318530915
 23
157.0307464652599
 33
0.0
  0
SOLID
  5
124
330
11F
100
AcDbEntity
  8
1
 62
     2
100
AcDbTrace
 10
290.9954318530919
 20
156.569962723704
 30
0.0
 11
290.9954318530919
 21
157.4915302068158
 31
0.0
 12
294.4954318530919
 22
157.0307464652599
 32
0.0
 13
294.4954318530919
 23
157.0307464652599
 33
0.0
  0
MTEXT
  5
125
330
11F
100
AcDbEntity
  8
1
 62
     2
100
AcDbMText
 10
275.7103341035757
 20
159.0307464652599
 30
0.0
 40
3.5
 41
0.0
 71
     7
 72
     1
  1
31
  7
CONVERTER_11
 11
0.9999999999970621
 21
2.424068405545307E-6
 31
0.0
 73
     1
 44
0.60024009603842
  0
ENDBLK
  5
127
330
11F
100
AcDbEntity
  8
0
100
AcDbBlockEnd
  0
BLOCK
  5
131
330
12A
100
AcDbEntity
  8
0
100
AcDbBlockBegin
  2
*D6
 70
     1
 71
     0
 10
0.0
 20
0.0
 30
0.0
  3
*D6
  1

  0
LINE
  5
12B
330
12A
100
AcDbEntity
  8
1
  6
Continuous
 62
     2
100
AcDbLine
 10
297.9954318530919
 20
157.0307464652599
 30
0.0
 11
331.4954318530919
 21
157.0307464652599
 31
0.0
  0
LINE
  5
12C
330
12A
100
AcDbEntity
  8
1
  6
Continuous
 62
     2
100
AcDbLine
 10
297.9954318530919
 20
167.1202287664889
 30
0.0
 11
297.9954318530919
 21
155.0307464652599
 31
0.0
  0
LINE
  5
12D
330
12A
100
AcDbEntity
  8
1
  6
Continuous
 62
     2
100
AcDbLine
 10
331.4954318530919
 20
171.1202287664889
 30
0.0
 11
331.4954318530919
 21
155.0307464652599
 31
0.0
  0
SOLID
  5
12E
330
12A
100
AcDbEntity
  8
1
 62
     2
100
AcDbTrace
 10
301.4954318530919
 20
157.4915302068158
 30
0.0
 11
301.4954318530919
 21
156.569962723704
 31
0.0
 12
297.9954318530919
 22
157.0307464652599
 32
0.0
 13
297.9954318530919
 23
157.0307464652599
 33
0.0
  0
SOLID
  5
12F
330
12A
100
AcDbEntity
  8
1
 62
     2
100
AcDbTrace
 10
327.9954318530919
 20
156.569962723704
 30
0.0
 11
327.9954318530919
 21
157.4915302068158
 31
0.0
 12
331.4954318530919
 22
157.0307464652599
 32
0.0
 13
331.4954318530919
 23
157.0307464652599
 33
0.0
  0
MTEXT
  5
130
330
12A
100
AcDbEntity
  8
1
 62
     2
100
AcDbMText
 10
309.9766818530919
 20
159.0307464652599
 30
0.0
 40
3.5
 41
0.0
 71
     7
 72
     1
  1
33.5
  7
CONVERTER_11
 11
0.9999999999970621
 21
2.424068405545307E-6
 31
0.0
 73
     1
 44
0.60024009603842
  0
ENDBLK
  5
132
330
12A
100
AcDbEntity
  8
0
100
AcDbBlockEnd
  0
BLOCK
  5
13E
330
135
100
AcDbEntity
  8
0
100
AcDbBlockBegin
  2
*D7
 70
     1
 71
     0
 10
0.0
 20
0.0
 30
0.0
  3
*D7
  1

  0
LINE
  5
136
330
135
100
AcDbEntity
  8
1
  6
Continuous
 62
     2
100
AcDbLine
 10
287.4954318530918
 20
157.0307464652599
 30
0.0
 11
294.4954318530918
 21
157.0307464652599
 31
0.0
  0
LINE
  5
137
330
135
100
AcDbEntity
  8
1
  6
Continuous
 62
     2
100
AcDbLine
 10
294.4954318530918
 20
157.0307464652599
 30
0.0
 11
297.9954318530919
 21
157.0307464652599
 31
0.0
  0
LINE
  5
138
330
135
100
AcDbEntity
  8
1
  6
Continuous
 62
     2
100
AcDbLine
 10
297.9954318530919
 20
157.0307464652599
 30
0.0
 11
304.9954318530919
 21
157.0307464652599
 31
0.0
  0
LINE
  5
139
330
135
100
AcDbEntity
  8
1
  6
Continuous
 62
     2
100
AcDbLine
 10
294.4954318530918
 20
167.1202287664889
 30
0.0
 11
294.4954318530918
 21
155.0307464652599
 31
0.0
  0
LINE
  5
13A
330
135
100
AcDbEntity
  8
1
  6
Continuous
 62
     2
100
AcDbLine
 10
297.9954318530919
 20
167.1202287664889
 30
0.0
 11
297.9954318530919
 21
155.0307464652599
 31
0.0
  0
SOLID
  5
13B
330
135
100
AcDbEntity
  8
1
 62
     2
100
AcDbTrace
 10
290.9954318530918
 20
156.569962723704
 30
0.0
 11
290.9954318530918
 21
157.4915302068158
 31
0.0
 12
294.4954318530918
 22
157.0307464652599
 32
0.0
 13
294.4954318530918
 23
157.0307464652599
 33
0.0
  0
SOLID
  5
13C
330
135
100
AcDbEntity
  8
1
 62
     2
100
AcDbTrace
 10
301.4954318530919
 20
157.4915302068158
 30
0.0
 11
301.4954318530919
 21
156.569962723704
 31
0.0
 12
297.9954318530919
 22
157.0307464652599
 32
0.0
 13
297.9954318530919
 23
157.0307464652599
 33
0.0
  0
MTEXT
  5
13D
330
135
100
AcDbEntity
  8
1
 62
     2
100
AcDbMText
 10
293.0502676706218
 20
150.2939485246289
 30
0.0
 40
3.5
 41
0.0
 71
     7
 72
     1
  1
3.5
  7
CONVERTER_11
 11
0.9999999999970621
 21
2.424068405545307E-6
 31
0.0
 73
     1
 44
0.60024009603842
  0
ENDBLK
  5
13F
330
135
100
AcDbEntity
  8
0
100
AcDbBlockEnd
  0
ENDSEC
  0
SECTION
  2
ENTITIES
  0
LINE
  5
32
330
1F
100
AcDbEntity
  8
1
  6
Continuous
 62
     7
100
AcDbLine
 10
294.4954318530919
 20
210.1202287664889
 30
0.0
 11
296.2274826606606
 21
207.1202287664889
 31
0.0
  0
LINE
  5
33
330
1F
100
AcDbEntity
  8
1
  6
Continuous
 62
     7
100
AcDbLine
 10
296.2274826606606
 20
207.1202287664889
 30
0.0
 11
297.995431853092
 21
207.1202287664889
 31
0.0
  0
LINE
  5
34
330
1F
100
AcDbEntity
  8
1
  6
Continuous
 62
     7
100
AcDbLine
 10
305.7633810455233
 20
207.1202287664889
 30
0.0
 11
307.4954318530919
 21
210.1202287664889
 31
0.0
  0
LINE
  5
35
330
1F
100
AcDbEntity
  8
1
  6
Continuous
 62
     7
100
AcDbLine
 10
307.4954318530919
 20
210.1202287664889
 30
0.0
 11
307.4954318530919
 21
212.1202287664889
 31
0.0
  0
LINE
  5
36
330
1F
100
AcDbEntity
  8
1
  6
Continuous
 62
     7
100
AcDbLine
 10
295.4954318530919
 20
211.1202287664889
 30
0.0
 11
306.4954318530919
 21
211.1202287664889
 31
0.0
  0
LINE
  5
37
330
1F
100
AcDbEntity
  8
1
  6
Continuous
 62
     7
100
AcDbLine
 10
306.4954318530919
 20
211.1202287664889
 30
0.0
 11
306.4954318530919
 21
210.38817795892
 31
0.0
  0
LINE
  5
38
330
1F
100
AcDbEntity
  8
1
  6
Continuous
 62
     7
100
AcDbLine
 10
306.4954318530919
 20
210.38817795892
 30
0.0
 11
305.1860307763333
 21
208.1202287664889
 31
0.0
  0
LINE
  5
39
330
1F
100
AcDbEntity
  8
1
  6
Continuous
 62
     7
100
AcDbLine
 10
305.1860307763333
 20
208.1202287664889
 30
0.0
 11
296.8048329298503
 21
208.1202287664889
 31
0.0
  0
LINE
  5
3A
330
1F
100
AcDbEntity
  8
1
  6
Continuous
 62
     7
100
AcDbLine
 10
296.8048329298503
 20
208.1202287664889
 30
0.0
 11
295.4954318530919
 21
210.38817795892
 31
0.0
  0
LINE
  5
3B
330
1F
100
AcDbEntity
  8
1
  6
Continuous
 62
     7
100
AcDbLine
 10
295.4954318530919
 20
210.38817795892
 30
0.0
 11
295.4954318530919
 21
211.1202287664889
 31
0.0
  0
LINE
  5
3C
330
1F
100
AcDbEntity
  8
1
  6
Continuous
 62
     7
100
AcDbLine
 10
294.4954318530919
 20
212.1202287664889
 30
0.0
 11
307.4954318530919
 21
212.1202287664889
 31
0.0
  0
LINE
  5
3D
330
1F
100
AcDbEntity
  8
1
  6
Continuous
 62
     7
100
AcDbLine
 10
294.4954318530919
 20
212.1202287664889
 30
0.0
 11
294.4954318530919
 21
199.1202287664889
 31
0.0
  0
LINE
  5
3E
330
1F
100
AcDbEntity
  8
1
  6
Continuous
 62
     7
100
AcDbLine
 10
307.4954318530919
 20
212.1202287664889
 30
0.0
 11
307.4954318530919
 21
227.1202287664889
 31
0.0
  0
LINE
  5
3F
330
1F
100
AcDbEntity
  8
1
  6
DOT_CENTER
 62
     2
100
AcDbLine
 10
307.4954318530919
 20
227.1202287664889
 30
0.0
 11
312.5099050702228
 21
227.1202287664889
 31
0.0
  0
LINE
  5
40
330
1F
100
AcDbEntity
  8
1
  6
DOT_CENTER
 62
     2
100
AcDbLine
 10
244.4954318530919
 20
227.1202287664889
 30
0.0
 11
240.0271633168667
 21
227.1202287664889
 31
0.0
  0
LINE
  5
41
330
1F
100
AcDbEntity
  8
1
  6
Continuous
 62
     7
100
AcDbLine
 10
244.4954318530919
 20
227.1202287664889
 30
0.0
 11
244.4954318530919
 21
167.1202287664889
 31
0.0
  0
LINE
  5
42
330
1F
100
AcDbEntity
  8
1
  6
Continuous
 62
     7
100
AcDbLine
 10
244.4954318530919
 20
167.1202287664889
 30
0.0
 11
294.4954318530919
 21
167.1202287664889
 31
0.0
  0
LINE
  5
43
330
1F
100
AcDbEntity
  8
1
  6
Continuous
 62
     7
100
AcDbLine
 10
294.4954318530919
 20
167.1202287664889
 30
0.0
 11
294.4954318530919
 21
171.1202287664889
 31
0.0
  0
LINE
  5
44
330
1F
100
AcDbEntity
  8
1
  6
DOT_CENTER
 62
     2
100
AcDbLine
 10
307.4954318530919
 20
227.1202287664889
 30
0.0
 11
244.4954318530919
 21
227.1202287664889
 31
0.0
  0
LINE
  5
45
330
1F
100
AcDbEntity
  8
1
  6
Continuous
 62
     7
100
AcDbLine
 10
268.4954536514575
 20
171.1202287664891
 30
0.0
 11
263.4954318530914
 21
171.1202287664891
 31
0.0
  0
LINE
  5
46
330
1F
100
AcDbEntity
  8
1
  6
Continuous
 62
     7
100
AcDbLine
 10
268.4954318530914
 20
199.1202318182458
 30
0.0
 11
263.4954318530914
 21
199.1202318182458
 31
0.0
  0
LINE
  5
47
330
1F
100
AcDbEntity
  8
0
  6
Continuous
 62
     7
100
AcDbLine
 10
268.4954108066623
 20
199.1202287664891
 30
0.0
 11
268.4954318530914
 21
199.1202318182458
 31
0.0
  0
LINE
  5
48
330
1F
100
AcDbEntity
  8
0
  6
Continuous
 62
     7
100
AcDbLine
 10
272.5634111832916
 20
195.820228766488
 30
0.0
 11
267.9954318530914
 21
195.820228766488
 31
0.0
  0
LINE
  5
49
330
1F
100
AcDbEntity
  8
0
  6
Continuous
 62
     7
100
AcDbLine
 10
294.4954318530919
 20
172.320228766488
 30
0.0
 11
294.4954318530919
 21
187.9930427010021
 31
0.0
  0
LINE
  5
4A
330
1F
100
AcDbEntity
  8
0
  6
Continuous
 62
     7
100
AcDbLine
 10
270.0011042330913
 20
186.149734813889
 30
0.0
 11
284.2318776452386
 21
182.0655315513676
 31
0.0
  0
LINE
  5
4B
330
1F
100
AcDbEntity
  8
0
  6
Continuous
 62
     7
100
AcDbLine
 10
267.9954318530914
 20
177.6202287664891
 30
0.0
 11
281.9954318530919
 21
177.6202287664891
 31
0.0
  0
LINE
  5
4C
330
1F
100
AcDbEntity
  8
0
  6
Continuous
 62
     7
100
AcDbLine
 10
282.9954318530919
 20
172.320228766488
 30
0.0
 11
294.4954318530919
 21
172.320228766488
 31
0.0
  0
LINE
  5
4D
330
1F
100
AcDbEntity
  8
0
  6
Continuous
 62
     7
100
AcDbLine
 10
294.4954318530919
 20
171.1202287664889
 30
0.0
 11
281.4954318530919
 21
171.1202287664891
 31
0.0
  0
LINE
  5
4E
330
1F
100
AcDbEntity
  8
0
  6
Continuous
 62
     7
100
AcDbLine
 10
264.9954318530914
 20
178.6202287664891
 30
0.0
 11
267.9954318530914
 21
177.6202287664891
 31
0.0
  0
LINE
  5
4F
330
1F
100
AcDbEntity
  8
0
  6
Continuous
 62
     7
100
AcDbLine
 10
282.9954318530919
 20
176.6202287664891
 30
0.0
 11
282.9954318530919
 21
172.320228766488
 31
0.0
  0
LINE
  5
50
330
1F
100
AcDbEntity
  8
0
  6
Continuous
 62
     7
100
AcDbLine
 10
267.9954318530914
 20
195.820228766488
 30
0.0
 11
264.9954318530914
 21
194.820228766488
 31
0.0
  0
LINE
  5
51
330
1F
100
AcDbEntity
  8
0
  6
Continuous
 62
     7
100
AcDbLine
 10
266.4669187490023
 20
192.4179028198249
 30
0.0
 11
265.3496788749995
 21
188.5250535980011
 31
0.0
  0
LINE
  5
52
330
1F
100
AcDbEntity
  8
0
  6
Continuous
 62
     7
100
AcDbLine
 10
264.9954318530914
 20
194.820228766488
 30
0.0
 11
264.9954318530914
 21
178.6202287664891
 31
0.0
  0
LINE
  5
53
330
1F
100
AcDbEntity
  8
0
  6
Continuous
 62
     7
100
AcDbLine
 10
263.4954318530914
 20
171.820228766488
 30
0.0
 11
263.4954318530914
 21
198.395225714732
 31
0.0
  0
LINE
  5
54
330
1F
100
AcDbEntity
  8
1
  6
Continuous
 62
     7
100
AcDbLine
 10
267.7039777849883
 20
193.1032384612698
 30
0.0
 11
268.7726415212366
 21
192.7965341247053
 31
0.0
  0
LINE
  5
55
330
1F
100
AcDbEntity
  8
1
  6
Continuous
 62
     7
100
AcDbLine
 10
266.0350145164786
 20
187.2879945619787
 30
0.0
 11
267.7688320966105
 21
186.7903924140172
 31
0.0
  0
LINE
  5
56
330
1F
100
AcDbEntity
  8
1
  6
DASHED
 62
     2
100
AcDbLine
 10
284.6356949859129
 20
188.2438697799461
 30
0.0
 11
288.8613081647437
 21
187.0311273217284
 31
0.0
  0
LINE
  5
57
330
1F
100
AcDbEntity
  8
1
  6
DASHED
 62
     2
100
AcDbLine
 10
289.546643806235
 20
185.794068285746
 30
0.0
 11
288.4294039323552
 21
181.9012190637312
 31
0.0
  0
LINE
  5
58
330
1F
100
AcDbEntity
  8
1
  6
Continuous
 62
     7
100
AcDbLine
 10
263.4954318530914
 20
171.1202287664891
 30
0.0
 11
263.4954318530914
 21
171.820228766488
 31
0.0
  0
LINE
  5
59
330
1F
100
AcDbEntity
  8
1
  6
Continuous
 62
     7
100
AcDbLine
 10
263.4954318530914
 20
199.1202318182458
 30
0.0
 11
263.4954318530914
 21
198.395225714732
 31
0.0
  0
LINE
  5
5A
330
1F
100
AcDbEntity
  8
0
  6
Continuous
 62
     7
100
AcDbLine
 10
268.4954108066623
 20
199.1202287664891
 30
0.0
 11
291.7204349830802
 21
199.1202287664891
 31
0.0
  0
LINE
  5
5B
330
1F
100
AcDbEntity
  8
1
  6
Continuous
 62
     7
100
AcDbLine
 10
294.4954318530919
 20
199.1202287664889
 30
0.0
 11
294.4954318530919
 21
196.967102731276
 31
0.0
  0
LINE
  5
5C
330
1F
100
AcDbEntity
  8
1
  6
Continuous
 62
     7
100
AcDbLine
 10
294.4954318530919
 20
171.1202287664889
 30
0.0
 11
294.4954318530919
 21
172.320228766488
 31
0.0
  0
LINE
  5
5D
330
1F
100
AcDbEntity
  8
1
  6
DOT_CENTER
 62
     2
100
AcDbLine
 10
264.7966471253145
 20
190.7905200003423
 30
0.0
 11
290.8603630906903
 21
183.3102860952312
 31
0.0
  0
LINE
  5
5E
330
1F
100
AcDbEntity
  8
0
  6
Continuous
 62
     7
100
AcDbLine
 10
291.7204349830802
 20
199.1202287664891
 30
0.0
 11
290.7460725617585
 21
198.1202318182458
 31
0.0
  0
LINE
  5
5F
330
1F
100
AcDbEntity
  8
0
  6
Continuous
 62
     7
100
AcDbLine
 10
264.8954410083644
 20
176.2434588542454
 30
0.0
 11
264.8954410083644
 21
196.9952318182458
 31
0.0
  0
LINE
  5
60
330
1F
100
AcDbEntity
  8
0
  6
Continuous
 62
     7
100
AcDbLine
 10
281.4954318530919
 20
171.1202287664891
 30
0.0
 11
281.4954318530919
 21
171.6202318182458
 31
0.0
  0
LINE
  5
61
330
1F
100
AcDbEntity
  8
0
  6
Continuous
 62
     7
100
AcDbLine
 10
292.9954318530919
 20
199.1202318182458
 30
0.0
 11
292.9954318530919
 21
196.4237912705884
 31
0.0
  0
LINE
  5
62
330
1F
100
AcDbEntity
  8
0
  6
Continuous
 62
     7
100
AcDbLine
 10
292.9954318530919
 20
172.320228766488
 30
0.0
 11
292.9954318530919
 21
171.1202287664891
 31
0.0
  0
LINE
  5
63
330
1F
100
AcDbEntity
  8
0
  6
Continuous
 62
     7
100
AcDbLine
 10
280.4954318530919
 20
172.6202318182458
 30
0.0
 11
272.1954288013341
 21
172.6202318182458
 31
0.0
  0
LINE
  5
64
330
1F
100
AcDbEntity
  8
0
  6
Continuous
 62
     7
100
AcDbLine
 10
272.1954288013341
 20
172.6202318182458
 30
0.0
 11
267.4844625832053
 21
173.2717427281576
 31
0.0
  0
LINE
  5
65
330
1F
100
AcDbEntity
  8
0
  6
Continuous
 62
     7
100
AcDbLine
 10
264.8954410083644
 20
196.9952318182458
 30
0.0
 11
272.8954410083644
 21
198.1202318182458
 31
0.0
  0
LINE
  5
66
330
1F
100
AcDbEntity
  8
0
  6
Continuous
 62
     7
100
AcDbLine
 10
272.8954410083644
 20
198.1202318182458
 30
0.0
 11
290.7460725617585
 21
198.1202318182458
 31
0.0
  0
LINE
  5
67
330
1F
100
AcDbEntity
  8
0
  6
Continuous
 62
     7
100
AcDbLine
 10
263.4954318530914
 20
198.395225714732
 30
0.0
 11
268.4954108066623
 21
199.1202287664891
 31
0.0
  0
LINE
  5
68
330
1F
100
AcDbEntity
  8
0
  6
Continuous
 62
     7
100
AcDbLine
 10
268.4954536514575
 20
171.1202287664891
 30
0.0
 11
263.4954318530914
 21
171.820228766488
 31
0.0
  0
LINE
  5
69
330
1F
100
AcDbEntity
  8
0
  6
Continuous
 62
     7
100
AcDbLine
 10
281.4954318530919
 20
171.1202287664891
 30
0.0
 11
268.4954536514575
 21
171.1202287664891
 31
0.0
  0
LINE
  5
6A
330
1F
100
AcDbEntity
  8
0
  6
Continuous
 62
     7
100
AcDbLine
 10
284.6356949859129
 20
188.2438697799461
 30
0.0
 11
273.7442691052921
 21
191.3696870369894
 31
0.0
  0
LINE
  5
6B
330
1F
100
AcDbEntity
  8
0
  6
DASHED
 62
     2
100
AcDbLine
 10
284.2318776452386
 20
182.0655315513676
 30
0.0
 11
287.192344896361
 21
181.2158834222436
 31
0.0
  0
LINE
  5
6C
330
1F
100
AcDbEntity
  8
1
  6
DASHED
 62
     2
100
AcDbLine
 10
267.7688320966105
 20
186.7903924140172
 30
0.0
 11
270.0011042330913
 21
186.149734813889
 31
0.0
  0
LINE
  5
6D
330
1F
100
AcDbEntity
  8
1
  6
DASHED
 62
     2
100
AcDbLine
 10
268.7726415212366
 20
192.7965341247053
 30
0.0
 11
273.7442691052921
 21
191.3696870369894
 31
0.0
  0
LINE
  5
6E
330
1F
100
AcDbEntity
  8
0
  6
Continuous
 62
     7
100
AcDbLine
 10
291.7204349830802
 20
199.1202287664891
 30
0.0
 11
294.4954318530919
 21
199.1202287664889
 31
0.0
  0
LINE
  5
6F
330
1F
100
AcDbEntity
  8
0
  6
Continuous
 62
     7
100
AcDbLine
 10
284.930564200492
 20
175.1674056039889
 30
0.0
 11
284.760652563792
 21
176.0216090727889
 31
0.0
  0
LINE
  5
70
330
1F
100
AcDbEntity
  8
0
  6
Continuous
 62
     7
100
AcDbLine
 10
284.760652563792
 20
176.0216090727889
 30
0.0
 11
283.952953847792
 21
185.2536438275889
 31
0.0
  0
LINE
  5
71
330
1F
100
AcDbEntity
  8
0
  6
Continuous
 62
     7
100
AcDbLine
 10
285.6536326806919
 20
189.4629706166889
 30
0.0
 11
293.6211954180919
 21
196.3890673883889
 31
0.0
  0
LINE
  5
72
330
1F
100
AcDbEntity
  8
0
  6
Continuous
 62
     7
100
AcDbLine
 10
289.9235988530919
 20
183.3084497664889
 30
0.0
 11
292.370662853092
 21
178.0607017664889
 31
0.0
  0
LINE
  5
73
330
1F
100
AcDbEntity
  8
0
  6
Continuous
 62
     7
100
AcDbLine
 10
304.8152350889919
 20
192.7017808617889
 30
0.0
 11
301.272390583492
 21
191.2703790615889
 31
0.0
  0
LINE
  5
74
330
1F
100
AcDbEntity
  8
0
  6
Continuous
 62
     7
100
AcDbLine
 10
295.0967791683919
 20
188.2360028938889
 30
0.0
 11
291.252850957692
 21
186.6829544046889
 31
0.0
  0
LINE
  5
75
330
1F
100
AcDbEntity
  8
0
  6
Continuous
 62
     7
100
AcDbLine
 10
305.939054853092
 20
192.9202287664889
 30
0.0
 11
316.1275828530919
 21
192.9202287664889
 31
0.0
  0
LINE
  5
76
330
1F
100
AcDbEntity
  8
0
  6
Continuous
 62
     7
100
AcDbLine
 10
299.6288478530919
 20
196.4202287664889
 30
0.0
 11
317.5798198530919
 21
196.4202287664889
 31
0.0
  0
LINE
  5
77
330
1F
100
AcDbEntity
  8
0
  6
DASHED
 62
     2
100
AcDbLine
 10
315.4796759692919
 20
192.9202287664889
 30
0.0
 11
312.645431853092
 21
196.4202287664889
 31
0.0
  0
LINE
  5
78
330
1F
100
AcDbEntity
  8
0
  6
Continuous
 62
     7
100
AcDbLine
 10
319.6061734362919
 20
188.5290645897889
 30
0.0
 11
319.025361773892
 21
190.6966823301889
 31
0.0
  0
LINE
  5
79
330
1F
100
AcDbEntity
  8
0
  6
Continuous
 62
     7
100
AcDbLine
 10
320.7937513538919
 20
195.2504553808889
 30
0.0
 11
324.8335078530919
 21
191.8606987664889
 31
0.0
  0
LINE
  5
7A
330
1F
100
AcDbEntity
  8
1
  6
DOT_CENTER
 62
     2
100
AcDbLine
 10
294.6454316835668
 20
176.3702287664889
 30
0.0
 11
282.8454320226169
 21
176.3702287664889
 31
0.0
  0
LINE
  5
7B
330
1F
100
AcDbEntity
  8
1
  6
DOT_CENTER
 62
     2
100
AcDbLine
 10
288.7454318530919
 20
182.2702285969639
 30
0.0
 11
288.7454318530919
 21
170.4702289360139
 31
0.0
  0
LINE
  5
7C
330
1F
100
AcDbEntity
  8
1
  6
DOT_CENTER
 62
     2
100
AcDbLine
 10
302.1454323332221
 20
193.3702287664889
 30
0.0
 11
290.3454313729617
 21
193.3702287664889
 31
0.0
  0
LINE
  5
7D
330
1F
100
AcDbEntity
  8
1
  6
DOT_CENTER
 62
     2
100
AcDbLine
 10
296.2454318530919
 20
199.2702292466191
 30
0.0
 11
296.2454318530919
 21
187.4702282863587
 31
0.0
  0
LINE
  5
7E
330
1F
100
AcDbEntity
  8
1
  6
DOT_CENTER
 62
     2
100
AcDbLine
 10
327.8204322258524
 20
189.3702287664889
 30
0.0
 11
317.6704314803313
 21
189.3702287664889
 31
0.0
  0
LINE
  5
7F
330
1F
100
AcDbEntity
  8
1
  6
DOT_CENTER
 62
     2
100
AcDbLine
 10
322.7454318530919
 20
194.4452291392494
 30
0.0
 11
322.7454318530919
 21
184.2952283937284
 31
0.0
  0
LINE
  5
80
330
1F
100
AcDbEntity
  8
1
  6
Continuous
 62
     7
100
AcDbLine
 10
297.9954318530919
 20
171.1202287664889
 30
0.0
 11
297.9954318530919
 21
167.1202287664889
 31
0.0
  0
LINE
  5
81
330
1F
100
AcDbEntity
  8
1
  6
Continuous
 62
     7
100
AcDbLine
 10
297.9954318530919
 20
167.1202287664889
 30
0.0
 11
352.9954318530919
 21
167.1202287664889
 31
0.0
  0
LINE
  5
82
330
1F
100
AcDbEntity
  8
1
  6
DOT_CENTER
 62
     2
100
AcDbLine
 10
352.9954318530919
 20
167.1202287664889
 30
0.0
 11
352.9954318530919
 21
164.2202287664889
 31
0.0
  0
LINE
  5
83
330
1F
100
AcDbEntity
  8
1
  6
PHANTOM
 62
     2
100
AcDbLine
 10
352.9954318530919
 20
167.1202287664889
 30
0.0
 11
352.9954318530919
 21
207.1202287664889
 31
0.0
  0
LINE
  5
84
330
1F
100
AcDbEntity
  8
1
  6
DOT_CENTER
 62
     2
100
AcDbLine
 10
352.9954318530919
 20
207.1202287664889
 30
0.0
 11
352.9954318530919
 21
209.8718837676241
 31
0.0
  0
LINE
  5
85
330
1F
100
AcDbEntity
  8
1
  6
Continuous
 62
     7
100
AcDbLine
 10
297.995431853092
 20
207.1202287664889
 30
0.0
 11
297.9954318530919
 21
199.1202287664889
 31
0.0
  0
LINE
  5
86
330
1F
100
AcDbEntity
  8
1
  6
Continuous
 62
     7
100
AcDbLine
 10
297.995431853092
 20
207.1202287664889
 30
0.0
 11
352.9954318530919
 21
207.1202287664889
 31
0.0
  0
LINE
  5
87
330
1F
100
AcDbEntity
  8
1
  6
Continuous
 62
     7
100
AcDbLine
 10
323.4954318530919
 20
171.1202287664889
 30
0.0
 11
331.4954318530919
 21
171.1202287664889
 31
0.0
  0
LINE
  5
88
330
1F
100
AcDbEntity
  8
0
  6
Continuous
 62
     7
100
AcDbLine
 10
314.2954196460606
 20
171.1202287664889
 30
0.0
 11
323.4954318530919
 21
171.1202287664889
 31
0.0
  0
LINE
  5
89
330
1F
100
AcDbEntity
  8
0
  6
Continuous
 62
     7
100
AcDbLine
 10
297.9954318530919
 20
171.1202287664889
 30
0.0
 11
307.9954318530919
 21
171.1202287664889
 31
0.0
  0
LINE
  5
8A
330
1F
100
AcDbEntity
  8
1
  6
Continuous
 62
     7
100
AcDbLine
 10
314.2954196460606
 20
171.6202285042197
 30
0.0
 11
314.2954196460606
 21
171.1202287664889
 31
0.0
  0
LINE
  5
8B
330
1F
100
AcDbEntity
  8
0
  6
Continuous
 62
     7
100
AcDbLine
 10
299.2954196460606
 20
199.1202287664889
 30
0.0
 11
297.9954318530919
 21
199.1202287664889
 31
0.0
  0
LINE
  5
8C
330
1F
100
AcDbEntity
  8
0
  6
Continuous
 62
     7
100
AcDbLine
 10
297.9954318530919
 20
198.1202287664889
 30
0.0
 11
297.9954318530919
 21
199.1202287664889
 31
0.0
  0
LINE
  5
8D
330
1F
100
AcDbEntity
  8
1
  6
Continuous
 62
     7
100
AcDbLine
 10
299.2954196460606
 20
198.1202287664889
 30
0.0
 11
297.9954318530919
 21
198.1202287664889
 31
0.0
  0
LINE
  5
8E
330
1F
100
AcDbEntity
  8
0
  6
Continuous
 62
     7
100
AcDbLine
 10
323.4954318530919
 20
171.1202287664889
 30
0.0
 11
331.4954318530919
 21
172.2452287664889
 31
0.0
  0
LINE
  5
8F
330
1F
100
AcDbEntity
  8
0
  6
Continuous
 62
     7
100
AcDbLine
 10
315.7954196460606
 20
173.1202287664889
 30
0.0
 11
323.3454226978186
 21
173.1202287664889
 31
0.0
  0
LINE
  5
90
330
1F
100
AcDbEntity
  8
0
  6
Continuous
 62
     7
100
AcDbLine
 10
323.3454226978186
 20
173.1202287664889
 30
0.0
 11
327.6951814083169
 21
173.7451932215642
 31
0.0
  0
LINE
  5
91
330
1F
100
AcDbEntity
  8
0
  6
Continuous
 62
     7
100
AcDbLine
 10
331.4954318530919
 20
197.9952287664889
 30
0.0
 11
323.4954318530919
 21
199.1202287664889
 31
0.0
  0
LINE
  5
92
330
1F
100
AcDbEntity
  8
0
  6
Continuous
 62
     7
100
AcDbLine
 10
330.2954349048497
 20
176.6171511449145
 30
0.0
 11
330.2954349048497
 21
196.1452302923678
 31
0.0
  0
LINE
  5
93
330
1F
100
AcDbEntity
  8
0
  6
Continuous
 62
     7
100
AcDbLine
 10
322.2954349048497
 20
198.1202287664889
 30
0.0
 11
330.2954349048497
 21
196.1452302923678
 31
0.0
  0
LINE
  5
94
330
1F
100
AcDbEntity
  8
0
  6
Continuous
 62
     7
100
AcDbLine
 10
299.2954196460606
 20
198.1202287664889
 30
0.0
 11
322.2954349048497
 21
198.1202287664889
 31
0.0
  0
LINE
  5
95
330
1F
100
AcDbEntity
  8
0
  6
Continuous
 62
     7
100
AcDbLine
 10
299.2954196460606
 20
199.1202287664889
 30
0.0
 11
299.2954196460606
 21
198.1202287664889
 31
0.0
  0
LINE
  5
96
330
1F
100
AcDbEntity
  8
0
  6
Continuous
 62
     7
100
AcDbLine
 10
323.4954318530919
 20
199.1202287664889
 30
0.0
 11
299.2954196460606
 21
199.1202287664889
 31
0.0
  0
LINE
  5
97
330
1F
100
AcDbEntity
  8
0
  6
Continuous
 62
     7
100
AcDbLine
 10
297.9954318530919
 20
171.1202287664889
 30
0.0
 11
297.9954318530919
 21
187.9930427010019
 31
0.0
  0
LINE
  5
98
330
1F
100
AcDbEntity
  8
0
  6
Continuous
 62
     7
100
AcDbLine
 10
307.9954318530919
 20
177.3702287664889
 30
0.0
 11
307.9954318530919
 21
171.1202287664889
 31
0.0
  0
LINE
  5
99
330
1F
100
AcDbEntity
  8
0
  6
Continuous
 62
     7
100
AcDbLine
 10
307.9954318530919
 20
171.1202287664889
 30
0.0
 11
314.2954196460606
 21
171.1202287664889
 31
0.0
  0
LINE
  5
9A
330
1F
100
AcDbEntity
  8
0
  6
Continuous
 62
     7
100
AcDbLine
 10
324.4954318530919
 20
178.3702287664889
 30
0.0
 11
308.9954318530919
 21
178.3702287664889
 31
0.0
  0
LINE
  5
9B
330
1F
100
AcDbEntity
  8
1
  6
Continuous
 62
     7
100
AcDbLine
 10
331.4954318530919
 20
171.1202287664889
 30
0.0
 11
331.4954318530919
 21
172.2452287664889
 31
0.0
  0
LINE
  5
9C
330
1F
100
AcDbEntity
  8
0
  6
Continuous
 62
     7
100
AcDbLine
 10
327.4954318530919
 20
179.3702287664889
 30
0.0
 11
324.4954318530919
 21
178.3702287664889
 31
0.0
  0
LINE
  5
9D
330
1F
100
AcDbEntity
  8
1
  6
Continuous
 62
     7
100
AcDbLine
 10
331.4954318530919
 20
199.1202287664889
 30
0.0
 11
331.4954318530919
 21
197.9952287664889
 31
0.0
  0
LINE
  5
9E
330
1F
100
AcDbEntity
  8
0
  6
Continuous
 62
     7
100
AcDbLine
 10
331.4954318530919
 20
172.2452287664889
 30
0.0
 11
331.4954318530919
 21
197.9952287664889
 31
0.0
  0
LINE
  5
9F
330
1F
100
AcDbEntity
  8
0
  6
Continuous
 62
     7
100
AcDbLine
 10
319.0954318530924
 20
198.1202287664889
 30
0.0
 11
327.4954318530919
 21
196.0202287664895
 31
0.0
  0
LINE
  5
A0
330
1F
100
AcDbEntity
  8
0
  6
Continuous
 62
     7
100
AcDbLine
 10
327.4954318530919
 20
196.0202287664895
 30
0.0
 11
327.4954318530919
 21
179.3702287664889
 31
0.0
  0
LINE
  5
A1
330
1F
100
AcDbEntity
  8
1
  6
Continuous
 62
     7
100
AcDbLine
 10
323.4954318530919
 20
199.1202287664889
 30
0.0
 11
331.4954318530919
 21
199.1202287664889
 31
0.0
  0
LINE
  5
A2
330
1F
100
AcDbEntity
  8
0
  6
Continuous
 62
     7
100
AcDbLine
 10
297.9954318530919
 20
196.9559058646898
 30
0.0
 11
297.9954318530919
 21
198.1202287664889
 31
0.0
  0
LINE
  5
A3
330
1F
100
AcDbEntity
  8
0
  6
DASHED
 62
     2
100
AcDbLine
 10
307.8551687203797
 20
188.2438697799478
 30
0.0
 11
303.6295555414191
 21
187.0311273216919
 31
0.0
  0
LINE
  5
A4
330
1F
100
AcDbEntity
  8
1
  6
DASHED
 62
     2
100
AcDbLine
 10
302.9442198999316
 20
185.7940682856967
 30
0.0
 11
303.9266074771924
 21
182.3710909958088
 31
0.0
  0
LINE
  5
A5
330
1F
100
AcDbEntity
  8
0
  6
DASHED
 62
     2
100
AcDbLine
 10
305.2985188098576
 20
181.2158834222243
 30
0.0
 11
308.2589860609427
 21
182.0655315513384
 31
0.0
  0
LINE
  5
A6
330
1F
100
AcDbEntity
  8
0
  6
Continuous
 62
     7
100
AcDbLine
 10
318.7465946009917
 20
191.3696870369892
 30
0.0
 11
307.8551687203797
 21
188.2438697799478
 31
0.0
  0
LINE
  5
A7
330
1F
100
AcDbEntity
  8
1
  6
DASHED
 62
     2
100
AcDbLine
 10
318.7465946009917
 20
191.3696870369892
 30
0.0
 11
323.7182221849618
 21
192.7965341246934
 31
0.0
  0
LINE
  5
A8
330
1F
100
AcDbEntity
  8
1
  6
DOT_CENTER
 62
     2
100
AcDbLine
 10
301.8582982142726
 20
183.3756635463448
 30
0.0
 11
328.1705033220088
 21
190.9272133344555
 31
0.0
  0
LINE
  5
A9
330
1F
100
AcDbEntity
  8
0
  6
Continuous
 62
     7
100
AcDbLine
 10
327.1445338192144
 20
188.5260147507295
 30
0.0
 11
326.0272939450467
 21
192.4188639726087
 31
0.0
  0
LINE
  5
AA
330
1F
100
AcDbEntity
  8
0
  6
Continuous
 62
     7
100
AcDbLine
 10
308.2589860609427
 20
182.0655315513384
 30
0.0
 11
322.4377953650811
 21
186.1348212196851
 31
0.0
  0
LINE
  5
AB
330
1F
100
AcDbEntity
  8
1
  6
Continuous
 62
     7
100
AcDbLine
 10
303.9266074771924
 20
182.3710909958088
 30
0.0
 11
304.0614597738678
 21
181.9012190636983
 31
0.0
  0
LINE
  5
AC
330
1F
100
AcDbEntity
  8
0
  6
Continuous
 62
     7
100
AcDbLine
 10
324.7220316095054
 20
186.7903924140016
 30
0.0
 11
326.4591981777386
 21
187.2889557148171
 31
0.0
  0
LINE
  5
AD
330
1F
100
AcDbEntity
  8
0
  6
DASHED
 62
     2
100
AcDbLine
 10
322.4377953650811
 20
186.1348212196851
 30
0.0
 11
324.7220316095054
 21
186.7903924140016
 31
0.0
  0
LINE
  5
AE
330
1F
100
AcDbEntity
  8
1
  6
Continuous
 62
     7
100
AcDbLine
 10
323.7182221849618
 20
192.7965341246934
 30
0.0
 11
324.7902349090685
 21
193.10419961402
 31
0.0
  0
LINE
  5
AF
330
1F
100
AcDbEntity
  8
0
  6
Continuous
 62
     7
100
AcDbLine
 10
267.6573558530919
 20
191.8606987664889
 30
0.0
 11
271.697112352292
 21
195.2504553808889
 31
0.0
  0
LINE
  5
B0
330
1F
100
AcDbEntity
  8
0
  6
Continuous
 62
     7
100
AcDbLine
 10
273.4655019322919
 20
190.6966823301889
 30
0.0
 11
272.884690269892
 21
188.5290645897889
 31
0.0
  0
LINE
  5
B1
330
1F
100
AcDbEntity
  8
0
  6
DASHED
 62
     2
100
AcDbLine
 10
279.845431853092
 20
196.4202287664889
 30
0.0
 11
277.0111877368919
 21
192.9202287664889
 31
0.0
  0
LINE
  5
B2
330
1F
100
AcDbEntity
  8
0
  6
Continuous
 62
     7
100
AcDbLine
 10
274.9110438530919
 20
196.4202287664889
 30
0.0
 11
292.862015853092
 21
196.4202287664889
 31
0.0
  0
LINE
  5
B3
330
1F
100
AcDbEntity
  8
0
  6
Continuous
 62
     7
100
AcDbLine
 10
276.363280853092
 20
192.9202287664889
 30
0.0
 11
286.551808853092
 21
192.9202287664889
 31
0.0
  0
LINE
  5
B4
330
1F
100
AcDbEntity
  8
0
  6
Continuous
 62
     7
100
AcDbLine
 10
301.2380127484919
 20
186.6829544046889
 30
0.0
 11
297.394084537792
 21
188.2360028938889
 31
0.0
  0
LINE
  5
B5
330
1F
100
AcDbEntity
  8
0
  6
DASHED
 62
     2
100
AcDbLine
 10
291.218473122692
 20
191.2703790615889
 30
0.0
 11
288.8388273530146
 21
192.2318181632109
 31
0.0
  0
LINE
  5
B6
330
1F
100
AcDbEntity
  8
0
  6
Continuous
 62
     7
100
AcDbLine
 10
302.715754681292
 20
183.7158793615889
 30
0.0
 11
307.8996720603919
 21
177.9585554290889
 31
0.0
  0
LINE
  5
B7
330
1F
100
AcDbEntity
  8
0
  6
Continuous
 62
     7
100
AcDbLine
 10
300.1202008530919
 20
178.0607017664889
 30
0.0
 11
302.567264853092
 21
183.3084497664889
 31
0.0
  0
LINE
  5
B8
330
1F
100
AcDbEntity
  8
0
  6
DASHED
 62
     2
100
AcDbLine
 10
298.8696682880919
 20
196.3890673883889
 30
0.0
 11
303.6520363531693
 21
192.2318181632109
 31
0.0
  0
LINE
  5
B9
330
1F
100
AcDbEntity
  8
0
  6
Continuous
 62
     7
100
AcDbLine
 10
308.5379098583919
 20
185.2536438275889
 30
0.0
 11
307.7302111423919
 21
176.0216090727889
 31
0.0
  0
LINE
  5
BA
330
1F
100
AcDbEntity
  8
0
  6
Continuous
 62
     7
100
AcDbLine
 10
307.7302111423919
 20
176.0216090727889
 30
0.0
 11
307.5602995056919
 21
175.1674056039889
 31
0.0
  0
LINE
  5
BB
330
1F
100
AcDbEntity
  8
0
  6
Continuous
 62
     7
100
AcDbLine
 10
303.6520363531693
 20
192.2318181632109
 30
0.0
 11
306.837231025492
 21
189.4629706166889
 31
0.0
  0
LINE
  5
BC
330
1F
100
AcDbEntity
  8
0
  6
Continuous
 62
     7
100
AcDbLine
 10
288.8388273530146
 20
192.2318181632109
 30
0.0
 11
287.6756286171919
 21
192.7017808617889
 31
0.0
  0
LINE
  5
BD
330
1F
100
AcDbEntity
  8
1
  6
DOT_CENTER
 62
     2
100
AcDbLine
 10
274.8204322258823
 20
189.3702287664889
 30
0.0
 11
264.6704314803014
 21
189.3702287664889
 31
0.0
  0
LINE
  5
BE
330
1F
100
AcDbEntity
  8
1
  6
DOT_CENTER
 62
     2
100
AcDbLine
 10
269.7454318530919
 20
194.4452291392793
 30
0.0
 11
269.7454318530919
 21
184.2952283936985
 31
0.0
  0
LINE
  5
BF
330
1F
100
AcDbEntity
  8
1
  6
DOT_CENTER
 62
     2
100
AcDbLine
 10
309.6454316835682
 20
176.3702287664889
 30
0.0
 11
297.8454320226156
 21
176.3702287664889
 31
0.0
  0
LINE
  5
C0
330
1F
100
AcDbEntity
  8
1
  6
DOT_CENTER
 62
     2
100
AcDbLine
 10
303.7454318530919
 20
182.2702285969652
 30
0.0
 11
303.7454318530919
 21
170.4702289360126
 31
0.0
  0
ARC
  5
C1
330
1F
100
AcDbEntity
  8
0
  6
Continuous
 62
     7
100
AcDbCircle
 10
281.9954318530919
 20
176.6202287664891
 30
0.0
 40
1.0
100
AcDbArc
 50
0.0
 51
90.0
  0
ARC
  5
C2
330
1F
100
AcDbEntity
  8
0
  6
Continuous
 62
     7
100
AcDbCircle
 10
280.4954318530919
 20
171.6202318182458
 30
0.0
 40
1.0
100
AcDbArc
 50
0.0
 51
90.0
  0
ARC
  5
C3
330
1F
100
AcDbEntity
  8
0
  6
Continuous
 62
     7
100
AcDbCircle
 10
288.7454318530919
 20
176.3702287664891
 30
0.0
 40
3.999999845887507
100
AcDbArc
 50
-162.499999837409
 51
25.00000028714441
  0
ARC
  5
C4
330
1F
100
AcDbEntity
  8
0
  6
Continuous
 62
     7
100
AcDbCircle
 10
317.5798198530919
 20
191.4202287664889
 30
0.0
 40
5.000000000000438
100
AcDbArc
 50
50.00008987780164
 51
90.0
  0
ARC
  5
C5
330
1F
100
AcDbEntity
  8
0
  6
Continuous
 62
     7
100
AcDbCircle
 10
316.1275828530919
 20
189.9202287664889
 30
0.0
 40
3.000000000000051
100
AcDbArc
 50
14.99992698430881
 51
90.0
  0
ARC
  5
C6
330
1F
100
AcDbEntity
  8
0
  6
Continuous
 62
     7
100
AcDbCircle
 10
288.933927853092
 20
185.6894227664889
 30
0.0
 40
5.000000532599966
100
AcDbArc
 50
131.0000676598971
 51
-174.9999979438434
  0
ARC
  5
C7
330
1F
100
AcDbEntity
  8
0
  6
Continuous
 62
     7
100
AcDbCircle
 10
296.2454318530919
 20
193.3702287664889
 30
0.0
 40
4.000000436500244
100
AcDbArc
 50
58.63263509180196
 51
131.0000006202469
  0
ARC
  5
C8
330
1F
100
AcDbEntity
  8
0
  6
Continuous
 62
     7
100
AcDbCircle
 10
299.6288478530919
 20
198.9202287664889
 30
0.0
 40
2.499999999999935
100
AcDbArc
 50
-121.3677385060899
 51
-90.0
  0
ARC
  5
C9
330
1F
100
AcDbEntity
  8
0
  6
Continuous
 62
     7
100
AcDbCircle
 10
292.189367853092
 20
184.3649947664889
 30
0.0
 40
2.499999299699935
100
AcDbArc
 50
111.9998201300143
 51
-155.0000090626218
  0
ARC
  5
CA
330
1F
100
AcDbEntity
  8
0
  6
Continuous
 62
     7
100
AcDbCircle
 10
295.845992853092
 20
186.3816347664889
 30
0.0
 40
2.000000574300302
100
AcDbArc
 50
86.72877031260705
 51
112.0000087356011
  0
ARC
  5
CB
330
1F
100
AcDbEntity
  8
0
  6
Continuous
 62
     7
100
AcDbCircle
 10
305.939054853092
 20
189.9202287664889
 30
0.0
 40
3.000000486899622
100
AcDbArc
 50
90.00014509489134
 51
111.9999959107513
  0
ARC
  5
CC
330
1F
100
AcDbEntity
  8
0
  6
Continuous
 62
     7
100
AcDbCircle
 10
296.2454318530919
 20
193.3702287664889
 30
0.0
 40
5.000000356199774
100
AcDbArc
 50
-93.27122968739705
 51
-34.39453284360197
  0
ARC
  5
CD
330
1F
100
AcDbEntity
  8
0
  6
Continuous
 62
     7
100
AcDbCircle
 10
302.021603853092
 20
189.4160107664889
 30
0.0
 40
1.999999855599656
100
AcDbArc
 50
111.9997859598107
 51
145.6054671562217
  0
ARC
  5
CE
330
1F
100
AcDbEntity
  8
0
  6
Continuous
 62
     7
100
AcDbCircle
 10
322.7454318530919
 20
189.3702287664889
 30
0.0
 40
3.250000338900215
100
AcDbArc
 50
-164.9999588064005
 51
50.02264049929872
  0
ARC
  5
CF
330
1F
100
AcDbEntity
  8
0
  6
Continuous
 62
     7
100
AcDbCircle
 10
315.7954196460606
 20
171.6202287664889
 30
0.0
 40
1.5
100
AcDbArc
 50
90.0
 51
-179.9999899820546
  0
ARC
  5
D0
330
1F
100
AcDbEntity
  8
0
  6
Continuous
 62
     7
100
AcDbCircle
 10
327.2954349048497
 20
176.7202272406082
 30
0.0
 40
3.001770257948376
100
AcDbArc
 50
-82.34717225367625
 51
-1.96783430490567
  0
ARC
  5
D1
330
1F
100
AcDbEntity
  8
0
  6
Continuous
 62
     7
100
AcDbCircle
 10
308.9954318530919
 20
177.3702287664889
 30
0.0
 40
1.0
100
AcDbArc
 50
90.0
 51
180.0
  0
ARC
  5
D2
330
1F
100
AcDbEntity
  8
0
  6
Continuous
 62
     7
100
AcDbCircle
 10
326.1833364805144
 20
188.2501530534298
 30
0.0
 40
0.9999999998757888
100
AcDbArc
 50
-73.98662773305007
 51
16.01337226972924
  0
ARC
  5
D3
330
1F
100
AcDbEntity
  8
0
  6
Continuous
 62
     7
100
AcDbCircle
 10
269.7454318530919
 20
189.3702287664889
 30
0.0
 40
3.250000338873205
100
AcDbArc
 50
129.9773595007013
 51
-15.00004119359899
  0
ARC
  5
D4
330
1F
100
AcDbEntity
  8
0
  6
DASHED
 62
     2
100
AcDbCircle
 10
290.4692598530919
 20
189.4160107664889
 30
0.0
 40
1.999999855593586
100
AcDbArc
 50
34.39453284378013
 51
68.00021404019233
  0
ARC
  5
D5
330
1F
100
AcDbEntity
  8
0
  6
DASHED
 62
     2
100
AcDbCircle
 10
296.2454318530919
 20
193.3702287664889
 30
0.0
 40
5.000000356199816
100
AcDbArc
 50
-145.6054671563977
 51
-86.72877031260295
  0
ARC
  5
D6
330
1F
100
AcDbEntity
  8
0
  6
Continuous
 62
     7
100
AcDbCircle
 10
286.551808853092
 20
189.9202287664889
 30
0.0
 40
3.000000486841533
100
AcDbArc
 50
68.00000408925175
 51
89.99985490510976
  0
ARC
  5
D7
330
1F
100
AcDbEntity
  8
0
  6
Continuous
 62
     7
100
AcDbCircle
 10
296.6448708530919
 20
186.3816347664889
 30
0.0
 40
2.000000574314641
100
AcDbArc
 50
67.9999912643989
 51
93.2712296873962
  0
ARC
  5
D8
330
1F
100
AcDbEntity
  8
0
  6
Continuous
 62
     7
100
AcDbCircle
 10
300.301495853092
 20
184.3649947664889
 30
0.0
 40
2.499999299677133
100
AcDbArc
 50
-24.99999093737871
 51
68.00017986998937
  0
ARC
  5
D9
330
1F
100
AcDbEntity
  8
0
  6
Continuous
 62
     7
100
AcDbCircle
 10
292.862015853092
 20
198.9202287664889
 30
0.0
 40
2.5
100
AcDbArc
 50
-90.0
 51
-58.63226149390903
  0
ARC
  5
DA
330
1F
100
AcDbEntity
  8
0
  6
Continuous
 62
     7
100
AcDbCircle
 10
296.2454318530919
 20
193.3702287664889
 30
0.0
 40
4.000000436500254
100
AcDbArc
 50
63.6913044243188
 51
121.367364908196
  0
ARC
  5
DB
330
1F
100
AcDbEntity
  8
0
  6
Continuous
 62
     7
100
AcDbCircle
 10
303.5569358530919
 20
185.6894227664889
 30
0.0
 40
5.000000532506312
100
AcDbArc
 50
-5.00000205615652
 51
48.99993234010243
  0
ARC
  5
DC
330
1F
100
AcDbEntity
  8
0
  6
Continuous
 62
     7
100
AcDbCircle
 10
276.363280853092
 20
189.9202287664889
 30
0.0
 40
3.0
100
AcDbArc
 50
90.0
 51
165.0000730156909
  0
ARC
  5
DD
330
1F
100
AcDbEntity
  8
0
  6
Continuous
 62
     7
100
AcDbCircle
 10
274.9110438530919
 20
191.4202287664889
 30
0.0
 40
5.0
100
AcDbArc
 50
90.0
 51
129.9999101221984
  0
ARC
  5
DE
330
1F
100
AcDbEntity
  8
0
  6
Continuous
 62
     7
100
AcDbCircle
 10
303.7454318530919
 20
176.3702287664889
 30
0.0
 40
3.999999845886232
100
AcDbArc
 50
154.999999712852
 51
-17.50000016258783
  0
ARC
  5
DF
330
1F
100
AcDbEntity
  8
0
  6
DASHED
 62
     2
100
AcDbCircle
 10
296.2454318530919
 20
193.3702287664889
 30
0.0
 40
4.000000436482043
100
AcDbArc
 50
48.99999937975311
 51
63.6913044243188
  0
CIRCLE
  5
E0
330
1F
100
AcDbEntity
  8
0
  6
Continuous
 62
     7
100
AcDbCircle
 10
296.2454318530919
 20
193.3702287664889
 30
0.0
 40
2.025000000000148
  0
CIRCLE
  5
E1
330
1F
100
AcDbEntity
  8
0
  6
Continuous
 62
     7
100
AcDbCircle
 10
322.7454318530919
 20
189.3702287664889
 30
0.0
 40
2.025000000000148
  0
CIRCLE
  5
E2
330
1F
100
AcDbEntity
  8
0
  6
Continuous
 62
     7
100
AcDbCircle
 10
288.7454318530919
 20
176.3702287664891
 30
0.0
 40
2.025000000000148
  0
CIRCLE
  5
E3
330
1F
100
AcDbEntity
  8
0
  6
Continuous
 62
     7
100
AcDbCircle
 10
303.7454318530919
 20
176.3702287664889
 30
0.0
 40
2.024999999999977
  0
CIRCLE
  5
E4
330
1F
100
AcDbEntity
  8
0
  6
Continuous
 62
     7
100
AcDbCircle
 10
269.7454318530919
 20
189.3702287664889
 30
0.0
 40
2.024999999999864
  0
ARC
  5
E5
330
1F
100
AcDbEntity
  8
1
  6
DASHED
 62
     2
100
AcDbCircle
 10
288.5854464674997
 20
186.069929982992
 30
0.0
 40
0.9999999999996365
100
AcDbArc
 50
-16.01337226621454
 51
73.98662773391256
  0
ARC
  5
E6
330
1F
100
AcDbEntity
  8
1
  6
Continuous
 62
     7
100
AcDbCircle
 10
267.8954410083644
 20
176.2434588542454
 30
0.0
 40
3.0
100
AcDbArc
 50
180.0
 51
-97.87387017109803
  0
ARC
  5
E7
330
1F
100
AcDbEntity
  8
1
  6
DASHED
 62
     2
100
AcDbCircle
 10
287.4682065936187
 20
182.1770807609754
 30
0.0
 40
0.999999999999491
100
AcDbArc
 50
-106.0133722669115
 51
-16.01337226609616
  0
ARC
  5
E8
330
1F
100
AcDbEntity
  8
1
  6
Continuous
 62
     7
100
AcDbCircle
 10
267.4281160877264
 20
192.1420411225389
 30
0.0
 40
0.9999999999997928
100
AcDbArc
 50
73.98662773283928
 51
163.9866277314061
  0
ARC
  5
E9
330
1F
100
AcDbEntity
  8
1
  6
Continuous
 62
     7
100
AcDbCircle
 10
266.3108762137246
 20
188.2491919007169
 30
0.0
 40
1.000000000000394
100
AcDbArc
 50
163.9866277315209
 51
-106.0133722661687
  0
ARC
  5
EA
330
1F
100
AcDbEntity
  8
1
  6
DASHED
 62
     2
100
AcDbCircle
 10
303.9054172386633
 20
186.0699299829555
 30
0.0
 40
1.0000000000002
100
AcDbArc
 50
106.0133722660968
 51
-163.9866277330236
  0
ARC
  5
EB
330
1F
100
AcDbEntity
  8
1
  6
DASHED
 62
     2
100
AcDbCircle
 10
305.0226571125996
 20
182.1770807609571
 30
0.0
 40
1.000000000000248
100
AcDbArc
 50
-91.2124497379455
 51
-73.98662773308227
  0
ARC
  5
EC
330
1F
100
AcDbEntity
  8
1
  6
Continuous
 62
     7
100
AcDbCircle
 10
305.0226571125996
 20
182.1770807609571
 30
0.0
 40
0.9999999999997773
100
AcDbArc
 50
-163.9866277330254
 51
-91.2124497379455
  0
ARC
  5
ED
330
1F
100
AcDbEntity
  8
1
  6
Continuous
 62
     7
100
AcDbCircle
 10
325.0660966063322
 20
192.143002275289
 30
0.0
 40
0.9999999999999695
100
AcDbArc
 50
16.01337227060208
 51
106.0133722672595
  0
DIMENSION
  5
FB
330
1F
100
AcDbEntity
  8
1
100
AcDbDimension
  2
*D1
 10
361.2300914124719
 20
167.1202287664889
 30
0.0
 11
357.4800914124719
 21
162.2077190175329
 31
0.0
 70
    32
  1
<>
 71
     5
 42
-1.0
 53
90.0
  3
ME10_DIM_10
100
AcDbAlignedDimension
 13
331.4954318530919
 23
171.1202287664889
 33
0.0
 14
352.9954318530919
 24
167.1202287664889
 34
0.0
 50
90.0
100
AcDbRotatedDimension
  0
DIMENSION
  5
106
330
1F
100
AcDbEntity
  8
1
100
AcDbDimension
  2
*D2
 10
361.2300914124719
 20
171.1202287664889
 30
0.0
 11
357.4800914124719
 21
185.1202287664889
 31
0.0
 70
    32
  1
<>
 71
     5
 42
-1.0
 53
90.0
  3
ME10_DIM_11
100
AcDbAlignedDimension
 13
331.4954318530919
 23
199.1202287664889
 33
0.0
 14
331.4954318530919
 24
171.1202287664889
 34
0.0
 50
90.0
100
AcDbRotatedDimension
  0
DIMENSION
  5
113
330
1F
100
AcDbEntity
  8
1
100
AcDbDimension
  2
*D3
 10
237.0907536406453
 20
167.1202287664889
 30
0.0
 11
233.3407536406453
 21
161.4396488689059
 31
0.0
 70
    32
  1
<>
 71
     5
 42
-1.0
 53
90.0
  3
ME10_DIM_12
100
AcDbAlignedDimension
 13
263.4954318530914
 23
171.1202287664891
 33
0.0
 14
244.4954318530919
 24
167.1202287664889
 34
0.0
 50
90.0
100
AcDbRotatedDimension
  0
DIMENSION
  5
11E
330
1F
100
AcDbEntity
  8
1
100
AcDbDimension
  2
*D4
 10
237.0907536406453
 20
171.120228766489
 30
0.0
 11
233.3407536406453
 21
185.1202302923674
 31
0.0
 70
    32
  1
<>
 71
     5
 42
-1.0
 53
90.0
  3
ME10_DIM_13
100
AcDbAlignedDimension
 13
263.4954318530914
 23
199.1202318182458
 33
0.0
 14
263.4954318530914
 24
171.1202287664891
 34
0.0
 50
90.0
100
AcDbRotatedDimension
  0
DIMENSION
  5
129
330
1F
100
AcDbEntity
  8
1
100
AcDbDimension
  2
*D5
 10
263.4954318530915
 20
157.0307464652599
 30
0.0
 11
277.8103341035757
 21
160.7807464652599
 31
0.0
 70
    32
  1
<>
 71
     5
 42
-1.0
 53
0.00013888888889
  3
ME10_DIM_14
100
AcDbAlignedDimension
 13
294.4954318530919
 23
167.1202287664889
 33
0.0
 14
263.4954318530914
 24
171.1202287664891
 34
0.0
100
AcDbRotatedDimension
  0
DIMENSION
  5
134
330
1F
100
AcDbEntity
  8
1
100
AcDbDimension
  2
*D6
 10
297.9954318530919
 20
157.0307464652599
 30
0.0
 11
314.7454318530919
 21
160.7807464652599
 31
0.0
 70
    32
  1
<>
 71
     5
 42
-1.0
 53
0.00013888888889
  3
ME10_DIM_15
100
AcDbAlignedDimension
 13
331.4954318530919
 23
171.1202287664889
 33
0.0
 14
297.9954318530919
 24
167.1202287664889
 34
0.0
100
AcDbRotatedDimension
  0
DIMENSION
  5
141
330
1F
100
AcDbEntity
  8
1
100
AcDbDimension
  2
*D7
 10
294.4954318530918
 20
157.0307464652599
 30
0.0
 11
296.2440176706219
 21
152.0439485246289
 31
0.0
 70
    32
  1
<>
 71
     5
 42
-1.0
 53
0.00013888888889
  3
ME10_DIM_16
100
AcDbAlignedDimension
 13
297.9954318530919
 23
167.1202287664889
 33
0.0
 14
294.4954318530919
 24
167.1202287664889
 34
0.0
100
AcDbRotatedDimension
  0
ENDSEC
  0
SECTION
  2
OBJECTS
  0
DICTIONARY
  5
C
330
0
100
AcDbDictionary
281
     1
  3
ACAD_GROUP
350
D
  3
ACAD_LAYOUT
350
1A
  3
ACAD_MLINESTYLE
350
17
  3
ACAD_PLOTSETTINGS
350
19
  3
ACAD_PLOTSTYLENAME
350
E
  0
DICTIONARY
  5
D
102
{ACAD_REACTORS
330
C
102
}
330
C
100
AcDbDictionary
281
     1
  0
DICTIONARY
  5
1A
102
{ACAD_REACTORS
330
C
102
}
330
C
100
AcDbDictionary
281
     1
  3
Layout1
350
1E
  3
Layout2
350
26
  3
Model
350
22
  0
DICTIONARY
  5
17
102
{ACAD_REACTORS
330
C
102
}
330
C
100
AcDbDictionary
281
     1
  3
Standard
350
18
  0
DICTIONARY
  5
19
102
{ACAD_REACTORS
330
C
102
}
330
C
100
AcDbDictionary
281
     1
  0
ACDBDICTIONARYWDFLT
  5
E
102
{ACAD_REACTORS
330
C
102
}
330
C
100
AcDbDictionary
281
     1
  3
Normal
350
F
100
AcDbDictionaryWithDefault
340
F
  0
LAYOUT
  5
1E
102
{ACAD_REACTORS
330
1A
102
}
330
1A
100
AcDbPlotSettings
  1

  2

  4

  6

 40
0.0
 41
0.0
 42
0.0
 43
0.0
 44
0.0
 45
0.0
 46
0.0
 47
0.0
 48
0.0
 49
0.0
140
0.0
141
0.0
142
1.0
143
1.0
 70
   688
 72
     0
 73
     0
 74
     5
  7

 75
    16
 76
     0
 77
     2
 78
   300
147
1.0
148
0.0
149
0.0
100
AcDbLayout
  1
Layout1
 70
     1
 71
     1
 10
0.0
 20
0.0
 11
0.0
 21
0.0
 12
0.0
 22
0.0
 32
0.0
 14
0.0
 24
0.0
 34
0.0
 15
0.0
 25
0.0
 35
0.0
146
0.0
 13
0.0
 23
0.0
 33
0.0
 16
1.0
 26
0.0
 36
0.0
 17
0.0
 27
1.0
 37
0.0
 76
     0
330
1B
  0
LAYOUT
  5
26
102
{ACAD_REACTORS
330
1A
102
}
330
1A
100
AcDbPlotSettings
  1

  2

  4

  6

 40
0.0
 41
0.0
 42
0.0
 43
0.0
 44
0.0
 45
0.0
 46
0.0
 47
0.0
 48
0.0
 49
0.0
140
0.0
141
0.0
142
1.0
143
1.0
 70
   688
 72
     0
 73
     0
 74
     5
  7

 75
    16
 76
     0
 77
     2
 78
   300
147
1.0
148
0.0
149
0.0
100
AcDbLayout
  1
Layout2
 70
     1
 71
     2
 10
0.0
 20
0.0
 11
0.0
 21
0.0
 12
0.0
 22
0.0
 32
0.0
 14
0.0
 24
0.0
 34
0.0
 15
0.0
 25
0.0
 35
0.0
146
0.0
 13
0.0
 23
0.0
 33
0.0
 16
1.0
 26
0.0
 36
0.0
 17
0.0
 27
1.0
 37
0.0
 76
     0
330
23
  0
LAYOUT
  5
22
102
{ACAD_REACTORS
330
1A
102
}
330
1A
100
AcDbPlotSettings
  1

  2

  4

  6

 40
0.0
 41
0.0
 42
0.0
 43
0.0
 44
0.0
 45
0.0
 46
0.0
 47
0.0
 48
0.0
 49
0.0
140
0.0
141
0.0
142
1.0
143
1.0
 70
  1712
 72
     0
 73
     0
 74
     0
  7

 75
     0
 76
     0
 77
     2
 78
   300
147
1.0
148
0.0
149
0.0
100
AcDbLayout
  1
Model
 70
     1
 71
     0
 10
0.0
 20
0.0
 11
0.0
 21
0.0
 12
0.0
 22
0.0
 32
0.0
 14
231.5907536406453
 24
150.2939485246289
 34
0.0
 15
363.2300914124719
 25
227.1202287664889
 35
0.0
146
0.0
 13
0.0
 23
0.0
 33
0.0
 16
1.0
 26
0.0
 36
0.0
 17
0.0
 27
1.0
 37
0.0
 76
     0
330
1F
  0
MLINESTYLE
  5
18
102
{ACAD_REACTORS
330
17
102
}
330
17
100
AcDbMlineStyle
  2
Standard
 70
     0
  3

 62
   256
 51
90.0
 52
90.0
 71
     2
 49
0.5
 62
   256
  6
BYLAYER
 49
-0.5
 62
   256
  6
BYLAYER
  0
ACDBPLACEHOLDER
  5
F
102
{ACAD_REACTORS
330
E
102
}
330
E
  0
ENDSEC
  0
EOF
