  0
SECTION
  2
HEADER
  9
$ACADVER
  1
AC1018
  9
$ACADMAINTVER
 70
     0
  9
$DWGCODEPAGE
  3
ANSI_1252
  9
$INSBASE
 10
0.0
 20
0.0
 30
0.0
  9
$EXTMIN
 10
-207.91485230427
 20
-158.6182392210103
 30
0.0
  9
$EXTMAX
 10
181.9068397520139
 20
81.77063309968568
 30
0.0
  9
$LIMMIN
 10
0.0
 20
0.0
  9
$LIMMAX
 10
12.0
 20
9.0
  9
$ORTHOMODE
 70
     0
  9
$REGENMODE
 70
     1
  9
$FILLMODE
 70
     1
  9
$QTEXTMODE
 70
     0
  9
$MIRRTEXT
 70
     1
  9
$LTSCALE
 40
1.0
  9
$ATTMODE
 70
     1
  9
$TEXTSIZE
 40
0.2
  9
$TRACEWID
 40
0.05
  9
$TEXTSTYLE
  7
Standard
  9
$CLAYER
  8
0
  9
$CELTYPE
  6
ByLayer
  9
$CECOLOR
 62
   256
  9
$CELTSCALE
 40
1.0
  9
$DISPSILH
 70
     0
  9
$DIMSCALE
 40
1.0
  9
$DIMASZ
 40
0.18
  9
$DIMEXO
 40
0.0625
  9
$DIMDLI
 40
0.38
  9
$DIMRND
 40
0.0
  9
$DIMDLE
 40
0.0
  9
$DIMEXE
 40
0.18
  9
$DIMTP
 40
0.0
  9
$DIMTM
 40
0.0
  9
$DIMTXT
 40
0.18
  9
$DIMCEN
 40
0.09
  9
$DIMTSZ
 40
0.0
  9
$DIMTOL
 70
     0
  9
$DIMLIM
 70
     0
  9
$DIMTIH
 70
     1
  9
$DIMTOH
 70
     1
  9
$DIMSE1
 70
     0
  9
$DIMSE2
 70
     0
  9
$DIMTAD
 70
     0
  9
$DIMZIN
 70
     0
  9
$DIMBLK
  1

  9
$DIMASO
 70
     1
  9
$DIMSHO
 70
     1
  9
$DIMPOST
  1

  9
$DIMAPOST
  1

  9
$DIMALT
 70
     0
  9
$DIMALTD
 70
     2
  9
$DIMALTF
 40
25.4
  9
$DIMLFAC
 40
1.0
  9
$DIMTOFL
 70
     0
  9
$DIMTVP
 40
0.0
  9
$DIMTIX
 70
     0
  9
$DIMSOXD
 70
     0
  9
$DIMSAH
 70
     0
  9
$DIMBLK1
  1

  9
$DIMBLK2
  1

  9
$DIMSTYLE
  2
Standard
  9
$DIMCLRD
 70
     0
  9
$DIMCLRE
 70
     0
  9
$DIMCLRT
 70
     0
  9
$DIMTFAC
 40
1.0
  9
$DIMGAP
 40
0.09
  9
$DIMJUST
 70
     0
  9
$DIMSD1
 70
     0
  9
$DIMSD2
 70
     0
  9
$DIMTOLJ
 70
     1
  9
$DIMTZIN
 70
     0
  9
$DIMALTZ
 70
     0
  9
$DIMALTTZ
 70
     0
  9
$DIMUPT
 70
     0
  9
$DIMDEC
 70
     4
  9
$DIMTDEC
 70
     4
  9
$DIMALTU
 70
     2
  9
$DIMALTTD
 70
     2
  9
$DIMTXSTY
  7
Standard
  9
$DIMAUNIT
 70
     0
  9
$DIMADEC
 70
     0
  9
$DIMALTRND
 40
0.0
  9
$DIMAZIN
 70
     0
  9
$DIMDSEP
 70
    46
  9
$DIMATFIT
 70
     3
  9
$DIMFRAC
 70
     0
  9
$DIMLDRBLK
  1

  9
$DIMLUNIT
 70
     2
  9
$DIMLWD
 70
    -2
  9
$DIMLWE
 70
    -2
  9
$DIMTMOVE
 70
     0
  9
$LUNITS
 70
     2
  9
$LUPREC
 70
     4
  9
$SKETCHINC
 40
0.1
  9
$FILLETRAD
 40
0.5
  9
$AUNITS
 70
     0
  9
$AUPREC
 70
     0
  9
$MENU
  1
.
  9
$ELEVATION
 40
0.0
  9
$PELEVATION
 40
0.0
  9
$THICKNESS
 40
0.0
  9
$LIMCHECK
 70
     0
  9
$CHAMFERA
 40
0.5
  9
$CHAMFERB
 40
0.5
  9
$CHAMFERC
 40
1.0
  9
$CHAMFERD
 40
0.0
  9
$SKPOLY
 70
     0
  9
$TDCREATE
 40
2455134.340151192
  9
$TDUCREATE
 40
2455134.298484526
  9
$TDUPDATE
 40
2455134.340151204
  9
$TDUUPDATE
 40
2455134.298484537
  9
$TDINDWG
 40
0.0000000116
  9
$TDUSRTIMER
 40
0.0000000116
  9
$USRTIMER
 70
     1
  9
$ANGBASE
 50
0.0
  9
$ANGDIR
 70
     0
  9
$PDMODE
 70
     0
  9
$PDSIZE
 40
0.0
  9
$PLINEWID
 40
0.0
  9
$SPLFRAME
 70
     0
  9
$SPLINETYPE
 70
     6
  9
$SPLINESEGS
 70
     8
  9
$HANDSEED
  5
220
  9
$SURFTAB1
 70
     6
  9
$SURFTAB2
 70
     6
  9
$SURFTYPE
 70
     6
  9
$SURFU
 70
     6
  9
$SURFV
 70
     6
  9
$UCSBASE
  2

  9
$UCSNAME
  2

  9
$UCSORG
 10
0.0
 20
0.0
 30
0.0
  9
$UCSXDIR
 10
1.0
 20
0.0
 30
0.0
  9
$UCSYDIR
 10
0.0
 20
1.0
 30
0.0
  9
$UCSORTHOREF
  2

  9
$UCSORTHOVIEW
 70
     0
  9
$UCSORGTOP
 10
0.0
 20
0.0
 30
0.0
  9
$UCSORGBOTTOM
 10
0.0
 20
0.0
 30
0.0
  9
$UCSORGLEFT
 10
0.0
 20
0.0
 30
0.0
  9
$UCSORGRIGHT
 10
0.0
 20
0.0
 30
0.0
  9
$UCSORGFRONT
 10
0.0
 20
0.0
 30
0.0
  9
$UCSORGBACK
 10
0.0
 20
0.0
 30
0.0
  9
$PUCSBASE
  2

  9
$PUCSNAME
  2

  9
$PUCSORG
 10
0.0
 20
0.0
 30
0.0
  9
$PUCSXDIR
 10
1.0
 20
0.0
 30
0.0
  9
$PUCSYDIR
 10
0.0
 20
1.0
 30
0.0
  9
$PUCSORTHOREF
  2

  9
$PUCSORTHOVIEW
 70
     0
  9
$PUCSORGTOP
 10
0.0
 20
0.0
 30
0.0
  9
$PUCSORGBOTTOM
 10
0.0
 20
0.0
 30
0.0
  9
$PUCSORGLEFT
 10
0.0
 20
0.0
 30
0.0
  9
$PUCSORGRIGHT
 10
0.0
 20
0.0
 30
0.0
  9
$PUCSORGFRONT
 10
0.0
 20
0.0
 30
0.0
  9
$PUCSORGBACK
 10
0.0
 20
0.0
 30
0.0
  9
$USERI1
 70
     0
  9
$USERI2
 70
     0
  9
$USERI3
 70
     0
  9
$USERI4
 70
     0
  9
$USERI5
 70
     0
  9
$USERR1
 40
14.5
  9
$USERR2
 40
0.0
  9
$USERR3
 40
0.0
  9
$USERR4
 40
0.0
  9
$USERR5
 40
0.0
  9
$WORLDVIEW
 70
     1
  9
$SHADEDGE
 70
     3
  9
$SHADEDIF
 70
    70
  9
$TILEMODE
 70
     1
  9
$MAXACTVP
 70
    64
  9
$PINSBASE
 10
0.0
 20
0.0
 30
0.0
  9
$PLIMCHECK
 70
     0
  9
$PEXTMIN
 10
1.00000000000000E+20
 20
1.00000000000000E+20
 30
1.00000000000000E+20
  9
$PEXTMAX
 10
-1.00000000000000E+20
 20
-1.00000000000000E+20
 30
-1.00000000000000E+20
  9
$PLIMMIN
 10
0.0
 20
0.0
  9
$PLIMMAX
 10
12.0
 20
9.0
  9
$UNITMODE
 70
     0
  9
$VISRETAIN
 70
     1
  9
$PLINEGEN
 70
     0
  9
$PSLTSCALE
 70
     1
  9
$TREEDEPTH
 70
  3020
  9
$CMLSTYLE
  2
Standard
  9
$CMLJUST
 70
     0
  9
$CMLSCALE
 40
1.0
  9
$PROXYGRAPHICS
 70
     1
  9
$MEASUREMENT
 70
     1
  9
$CELWEIGHT
370
    -1
  9
$ENDCAPS
280
     0
  9
$JOINSTYLE
280
     0
  9
$LWDISPLAY
290
     0
  9
$INSUNITS
 70
     1
  9
$HYPERLINKBASE
  1

  9
$STYLESHEET
  1

  9
$XEDIT
290
     1
  9
$CEPSNTYPE
380
     0
  9
$PSTYLEMODE
290
     1
  9
$FINGERPRINTGUID
  2
{A914F888-9602-4DE9-A68D-C06E64DE92CC}
  9
$VERSIONGUID
  2
{FAEB1C32-E019-11D5-929B-00C0DF256EC4}
  9
$EXTNAMES
290
     1
  9
$PSVPSCALE
 40
0.0
  9
$OLESTARTUP
290
     0
  9
$SORTENTS
280
   127
  9
$INDEXCTL
280
     0
  9
$HIDETEXT
280
     1
  9
$XCLIPFRAME
290
     0
  9
$HALOGAP
280
     0
  9
$OBSCOLOR
 70
   257
  9
$OBSLTYPE
280
     0
  9
$INTERSECTIONDISPLAY
280
     0
  9
$INTERSECTIONCOLOR
 70
   257
  9
$DIMASSOC
280
     2
  9
$PROJECTNAME
  1

  0
ENDSEC
  0
SECTION
  2
CLASSES
  0
CLASS
  1
ACDBDICTIONARYWDFLT
  2
AcDbDictionaryWithDefault
  3
ObjectDBX Classes
 90
        0
 91
        3
280
     0
281
     0
  0
CLASS
  1

  2
exOdDbCircle
  3

 90
        0
 91
        3
280
     0
281
     1
  0
ENDSEC
  0
SECTION
  2
TABLES
  0
TABLE
  2
VPORT
  5
8
330
0
100
AcDbSymbolTable
 70
     1
  0
VPORT
  5
29
330
8
100
AcDbSymbolTableRecord
100
AcDbViewportTableRecord
  2
*Active
 70
     0
 10
0.0
 20
0.0
 11
1.0
 21
1.0
 12
-13.00400627612805
 22
-38.42380306066231
 13
0.0
 23
0.0
 14
0.5
 24
0.5
 15
0.5
 25
0.5
 16
0.0
 26
0.0
 36
1.0
 17
0.0
 27
0.0
 37
0.0
 40
267.554498391834
 41
1.60267857142857
 42
50.0
 43
0.0
 44
0.0
 50
0.0
 51
0.0
 71
     0
 72
   100
 73
     1
 74
     3
 75
     0
 76
     0
 77
     0
 78
     0
281
     0
 65
     1
110
0.0
120
0.0
130
0.0
111
1.0
121
0.0
131
0.0
112
0.0
122
1.0
132
0.0
 79
     0
146
0.0
  0
ENDTAB
  0
TABLE
  2
LTYPE
  5
5
330
0
100
AcDbSymbolTable
 70
     8
  0
LTYPE
  5
14
330
5
100
AcDbSymbolTableRecord
100
AcDbLinetypeTableRecord
  2
ByBlock
 70
     0
  3

 72
    65
 73
     0
 40
0.0
  0
LTYPE
  5
15
330
5
100
AcDbSymbolTableRecord
100
AcDbLinetypeTableRecord
  2
ByLayer
 70
     0
  3

 72
    65
 73
     0
 40
0.0
  0
LTYPE
  5
16
330
5
100
AcDbSymbolTableRecord
100
AcDbLinetypeTableRecord
  2
Continuous
 70
     0
  3
Solid line
 72
    65
 73
     0
 40
0.0
  0
LTYPE
  5
2A
330
5
100
AcDbSymbolTableRecord
100
AcDbLinetypeTableRecord
  2
DASHED
 70
     0
  3
Dashed
 72
    65
 73
     2
 40
15.0
 49
7.0
 74
     0
 49
-8.0
 74
     0
  0
LTYPE
  5
2B
330
5
100
AcDbSymbolTableRecord
100
AcDbLinetypeTableRecord
  2
DOTTED
 70
     0
  3
Dotted
 72
    65
 73
     2
 40
1.0
 49
0.0
 74
     0
 49
-1.0
 74
     0
  0
LTYPE
  5
2C
330
5
100
AcDbSymbolTableRecord
100
AcDbLinetypeTableRecord
  2
DOT_CENTER
 70
     0
  3
Dot_Center
 72
    65
 73
     4
 40
14.0
 49
12.0
 74
     0
 49
-1.0
 74
     0
 49
0.0
 74
     0
 49
-1.0
 74
     0
  0
LTYPE
  5
2D
330
5
100
AcDbSymbolTableRecord
100
AcDbLinetypeTableRecord
  2
LONG_DASHED
 70
     0
  3
Long_Dashed
 72
    65
 73
     2
 40
15.0
 49
10.0
 74
     0
 49
-5.0
 74
     0
  0
LTYPE
  5
2E
330
5
100
AcDbSymbolTableRecord
100
AcDbLinetypeTableRecord
  2
DASH_CENTER
 70
     0
  3
Dash_Center
 72
    65
 73
     4
 40
14.0
 49
11.0
 74
     0
 49
-1.0
 74
     0
 49
1.0
 74
     0
 49
-1.0
 74
     0
  0
LTYPE
  5
2F
330
5
100
AcDbSymbolTableRecord
100
AcDbLinetypeTableRecord
  2
PHANTOM
 70
     0
  3
Phantom
 72
    65
 73
     6
 40
13.0
 49
10.0
 74
     0
 49
-1.0
 74
     0
 49
0.0
 74
     0
 49
-1.0
 74
     0
 49
0.0
 74
     0
 49
-1.0
 74
     0
  0
LTYPE
  5
30
330
5
100
AcDbSymbolTableRecord
100
AcDbLinetypeTableRecord
  2
CENTER_DASH_DASH
 70
     0
  3
Center_Dash_Dash
 72
    65
 73
     6
 40
14.0
 49
9.0
 74
     0
 49
-1.0
 74
     0
 49
1.0
 74
     0
 49
-1.0
 74
     0
 49
1.0
 74
     0
 49
-1.0
 74
     0
  0
ENDTAB
  0
TABLE
  2
LAYER
  5
2
330
0
100
AcDbSymbolTable
 70
     2
  0
LAYER
  5
10
330
2
100
AcDbSymbolTableRecord
100
AcDbLayerTableRecord
  2
0
 70
     0
 62
     7
  6
Continuous
370
    -3
390
F
  0
LAYER
  5
31
330
2
100
AcDbSymbolTableRecord
100
AcDbLayerTableRecord
  2
1
 70
     0
 62
     7
  6
Continuous
370
    -3
390
F
  0
ENDTAB
  0
TABLE
  2
STYLE
  5
3
330
0
100
AcDbSymbolTable
 70
     2
  0
STYLE
  5
11
330
3
100
AcDbSymbolTableRecord
100
AcDbTextStyleTableRecord
  2
Standard
 70
     0
 40
0.0
 41
1.0
 50
0.0
 71
     0
 42
0.2
  3
txt
  4

  0
STYLE
  5
11D
330
3
100
AcDbSymbolTableRecord
100
AcDbTextStyleTableRecord
  2
CONVERTER_11
 70
     0
 40
0.0
 41
0.9
 50
0.0
 71
     0
 42
0.2
  3
txt.shx
  4

  0
ENDTAB
  0
TABLE
  2
VIEW
  5
6
330
0
100
AcDbSymbolTable
 70
     0
  0
ENDTAB
  0
TABLE
  2
UCS
  5
7
330
0
100
AcDbSymbolTable
 70
     0
  0
ENDTAB
  0
TABLE
  2
APPID
  5
9
330
0
100
AcDbSymbolTable
 70
     1
  0
APPID
  5
12
330
9
100
AcDbSymbolTableRecord
100
AcDbRegAppTableRecord
  2
ACAD
 70
     0
  0
ENDTAB
  0
TABLE
  2
DIMSTYLE
  5
A
330
0
100
AcDbSymbolTable
 70
    21
100
AcDbDimStyleTable
  0
DIMSTYLE
105
27
330
A
100
AcDbSymbolTableRecord
100
AcDbDimStyleTableRecord
  2
Standard
 70
     0
340
11
  0
DIMSTYLE
105
12B
102
{ACAD_REACTORS
330
12C
102
}
330
A
100
AcDbSymbolTableRecord
100
AcDbDimStyleTableRecord
  2
ME10_DIM_10
 70
     0
 41
3.5
 42
0.0
 44
2.0
 73
     0
 74
     0
 77
     1
 78
     8
140
3.5
147
2.0
172
     1
173
     1
176
     2
177
     2
178
     2
271
     3
340
11D
  0
DIMSTYLE
105
136
102
{ACAD_REACTORS
330
137
102
}
330
A
100
AcDbSymbolTableRecord
100
AcDbDimStyleTableRecord
  2
ME10_DIM_11
 70
     0
 41
3.5
 42
0.0
 44
2.0
 73
     0
 74
     0
 77
     1
 78
     8
140
3.5
147
2.0
172
     1
173
     1
176
     2
177
     2
178
     2
271
     3
340
11D
  0
DIMSTYLE
105
141
102
{ACAD_REACTORS
330
142
102
}
330
A
100
AcDbSymbolTableRecord
100
AcDbDimStyleTableRecord
  2
ME10_DIM_12
 70
     0
 41
3.5
 42
0.0
 44
2.0
 73
     0
 74
     0
 77
     1
 78
     8
140
3.5
147
2.0
172
     1
173
     1
176
     2
177
     2
178
     2
271
     2
340
11D
  0
DIMSTYLE
105
14E
102
{ACAD_REACTORS
330
14F
102
}
330
A
100
AcDbSymbolTableRecord
100
AcDbDimStyleTableRecord
  2
ME10_DIM_13
 70
     0
 41
3.5
 42
0.0
 44
2.0
 73
     0
 74
     0
 77
     1
 78
     8
140
3.5
147
2.0
172
     1
173
     1
176
     2
177
     2
178
     2
271
     2
340
11D
  0
DIMSTYLE
105
159
102
{ACAD_REACTORS
330
15A
102
}
330
A
100
AcDbSymbolTableRecord
100
AcDbDimStyleTableRecord
  2
ME10_DIM_14
 70
     0
 41
3.5
 42
0.0
 44
2.0
 73
     0
 74
     0
 77
     1
 78
     8
140
3.5
147
2.0
172
     1
173
     1
176
     2
177
     2
178
     2
271
     2
340
11D
  0
DIMSTYLE
105
164
102
{ACAD_REACTORS
330
165
102
}
330
A
100
AcDbSymbolTableRecord
100
AcDbDimStyleTableRecord
  2
ME10_DIM_15
 70
     0
 41
3.5
 42
0.0
 44
2.0
 73
     0
 74
     0
 77
     1
 78
     8
140
3.5
147
2.0
172
     1
173
     1
176
     2
177
     2
178
     2
271
     2
340
11D
  0
DIMSTYLE
105
16F
102
{ACAD_REACTORS
330
170
102
}
330
A
100
AcDbSymbolTableRecord
100
AcDbDimStyleTableRecord
  2
ME10_DIM_16
 70
     0
 41
3.5
 42
0.0
 44
2.0
 73
     0
 74
     0
 77
     1
 78
     8
140
3.5
147
2.0
172
     1
173
     1
176
     2
177
     2
178
     2
271
     2
340
11D
  0
DIMSTYLE
105
17A
102
{ACAD_REACTORS
330
17B
102
}
330
A
100
AcDbSymbolTableRecord
100
AcDbDimStyleTableRecord
  2
ME10_DIM_17
 70
     0
 41
3.5
 42
0.0
 44
2.0
 73
     0
 74
     0
 77
     1
 78
     8
140
3.5
147
2.0
172
     1
173
     1
176
     2
177
     2
178
     2
271
     2
340
11D
  0
DIMSTYLE
105
185
102
{ACAD_REACTORS
330
186
102
}
330
A
100
AcDbSymbolTableRecord
100
AcDbDimStyleTableRecord
  2
ME10_DIM_18
 70
     0
 41
3.5
 42
0.0
 44
2.0
 73
     0
 74
     0
 77
     1
 78
     8
140
3.5
147
2.0
172
     1
173
     1
176
     2
177
     2
178
     2
271
     2
340
11D
  0
DIMSTYLE
105
190
102
{ACAD_REACTORS
330
191
102
}
330
A
100
AcDbSymbolTableRecord
100
AcDbDimStyleTableRecord
  2
ME10_DIM_19
 70
     0
 41
3.5
 42
0.0
 44
2.0
 73
     0
 74
     0
 77
     1
 78
     8
140
3.5
147
2.0
172
     1
173
     1
176
     2
177
     2
178
     2
271
     2
340
11D
  0
DIMSTYLE
105
19D
102
{ACAD_REACTORS
330
19E
102
}
330
A
100
AcDbSymbolTableRecord
100
AcDbDimStyleTableRecord
  2
ME10_DIM_20
 70
     0
 41
3.5
 42
0.0
 44
2.0
 73
     0
 74
     0
 77
     1
 78
     8
140
3.5
147
2.0
172
     1
173
     1
176
     2
177
     2
178
     2
271
     2
340
11D
  0
DIMSTYLE
105
1A8
102
{ACAD_REACTORS
330
1A9
102
}
330
A
100
AcDbSymbolTableRecord
100
AcDbDimStyleTableRecord
  2
ME10_DIM_21
 70
     0
 41
3.5
 42
0.0
 44
2.0
 73
     0
 74
     0
 77
     1
 78
     8
140
3.5
147
2.0
172
     1
173
     1
176
     2
177
     2
178
     2
271
     3
340
11D
  0
DIMSTYLE
105
1B3
102
{ACAD_REACTORS
330
1B4
102
}
330
A
100
AcDbSymbolTableRecord
100
AcDbDimStyleTableRecord
  2
ME10_DIM_22
 70
     0
 41
3.5
 42
0.0
 44
2.0
 73
     0
 74
     0
 77
     1
 78
     8
140
3.5
147
2.0
172
     1
173
     1
176
     2
177
     2
178
     2
271
     3
340
11D
  0
DIMSTYLE
105
1C0
102
{ACAD_REACTORS
330
1C1
102
}
330
A
100
AcDbSymbolTableRecord
100
AcDbDimStyleTableRecord
  2
ME10_DIM_23
 70
     0
 41
3.5
 42
0.0
 44
2.0
 73
     0
 74
     0
 77
     1
 78
     8
140
3.5
147
2.0
172
     1
173
     1
176
     2
177
     2
178
     2
271
     3
340
11D
  0
DIMSTYLE
105
1CB
102
{ACAD_REACTORS
330
1CC
102
}
330
A
100
AcDbSymbolTableRecord
100
AcDbDimStyleTableRecord
  2
ME10_DIM_24
 70
     0
 41
3.5
 42
0.0
 44
2.0
 73
     0
 74
     0
 77
     1
 78
     8
140
3.5
147
2.0
172
     1
173
     1
176
     2
177
     2
178
     2
271
     3
340
11D
  0
DIMSTYLE
105
1D6
102
{ACAD_REACTORS
330
1D7
102
}
330
A
100
AcDbSymbolTableRecord
100
AcDbDimStyleTableRecord
  2
ME10_DIM_25
 70
     0
 41
3.5
 42
0.0
 44
2.0
 73
     0
 74
     0
 77
     1
 78
     8
140
3.5
147
2.0
172
     1
173
     1
176
     2
177
     2
178
     2
271
     3
340
11D
  0
DIMSTYLE
105
1E1
102
{ACAD_REACTORS
330
1E2
102
}
330
A
100
AcDbSymbolTableRecord
100
AcDbDimStyleTableRecord
  2
ME10_DIM_26
 70
     0
 41
3.5
 42
0.0
 44
2.0
 73
     0
 74
     0
 77
     1
 78
     8
140
3.5
147
2.0
172
     1
173
     1
176
     2
177
     2
178
     2
271
     3
340
11D
  0
DIMSTYLE
105
1EC
102
{ACAD_REACTORS
330
1ED
102
}
330
A
100
AcDbSymbolTableRecord
100
AcDbDimStyleTableRecord
  2
ME10_DIM_27
 70
     0
 41
3.5
 42
0.0
 44
2.0
 73
     0
 74
     0
 77
     1
 78
     8
140
3.5
147
2.0
172
     1
173
     1
176
     2
177
     2
178
     2
271
     3
340
11D
  0
DIMSTYLE
105
1F9
102
{ACAD_REACTORS
330
1FA
102
}
330
A
100
AcDbSymbolTableRecord
100
AcDbDimStyleTableRecord
  2
ME10_DIM_28
 70
     0
 41
3.5
 42
0.0
 44
2.0
 73
     0
 74
     0
 77
     1
 78
     8
140
3.5
147
2.0
172
     1
173
     1
176
     2
177
     2
178
     2
271
     2
340
11D
  0
DIMSTYLE
105
205
102
{ACAD_REACTORS
330
206
102
}
330
A
100
AcDbSymbolTableRecord
100
AcDbDimStyleTableRecord
  2
ME10_DIM_29
 70
     0
 41
3.5
 42
0.0
 44
2.0
 73
     0
 74
     0
 77
     1
 78
     8
140
3.5
147
2.0
172
     1
173
     1
176
     2
177
     2
178
     2
271
     2
340
11D
  0
ENDTAB
  0
TABLE
  2
BLOCK_RECORD
  5
1
330
0
100
AcDbSymbolTable
 70
    24
  0
BLOCK_RECORD
  5
1F
330
1
100
AcDbSymbolTableRecord
100
AcDbBlockTableRecord
  2
*Model_Space
340
22
  0
BLOCK_RECORD
  5
1B
330
1
100
AcDbSymbolTableRecord
100
AcDbBlockTableRecord
  2
*Paper_Space
340
1E
  0
BLOCK_RECORD
  5
23
330
1
100
AcDbSymbolTableRecord
100
AcDbBlockTableRecord
  2
*Paper_Space0
340
26
  0
BLOCK_RECORD
  5
122
330
1
100
AcDbSymbolTableRecord
100
AcDbBlockTableRecord
  2
*D1
340
0
  0
BLOCK_RECORD
  5
12D
330
1
100
AcDbSymbolTableRecord
100
AcDbBlockTableRecord
  2
*D2
340
0
  0
BLOCK_RECORD
  5
138
330
1
100
AcDbSymbolTableRecord
100
AcDbBlockTableRecord
  2
*D3
340
0
  0
BLOCK_RECORD
  5
143
330
1
100
AcDbSymbolTableRecord
100
AcDbBlockTableRecord
  2
*D4
340
0
  0
BLOCK_RECORD
  5
150
330
1
100
AcDbSymbolTableRecord
100
AcDbBlockTableRecord
  2
*D5
340
0
  0
BLOCK_RECORD
  5
15B
330
1
100
AcDbSymbolTableRecord
100
AcDbBlockTableRecord
  2
*D6
340
0
  0
BLOCK_RECORD
  5
166
330
1
100
AcDbSymbolTableRecord
100
AcDbBlockTableRecord
  2
*D7
340
0
  0
BLOCK_RECORD
  5
171
330
1
100
AcDbSymbolTableRecord
100
AcDbBlockTableRecord
  2
*D8
340
0
  0
BLOCK_RECORD
  5
17C
330
1
100
AcDbSymbolTableRecord
100
AcDbBlockTableRecord
  2
*D9
340
0
  0
BLOCK_RECORD
  5
187
330
1
100
AcDbSymbolTableRecord
100
AcDbBlockTableRecord
  2
*D10
340
0
  0
BLOCK_RECORD
  5
192
330
1
100
AcDbSymbolTableRecord
100
AcDbBlockTableRecord
  2
*D11
340
0
  0
BLOCK_RECORD
  5
19F
330
1
100
AcDbSymbolTableRecord
100
AcDbBlockTableRecord
  2
*D12
340
0
  0
BLOCK_RECORD
  5
1AA
330
1
100
AcDbSymbolTableRecord
100
AcDbBlockTableRecord
  2
*D13
340
0
  0
BLOCK_RECORD
  5
1B5
330
1
100
AcDbSymbolTableRecord
100
AcDbBlockTableRecord
  2
*D14
340
0
  0
BLOCK_RECORD
  5
1C2
330
1
100
AcDbSymbolTableRecord
100
AcDbBlockTableRecord
  2
*D15
340
0
  0
BLOCK_RECORD
  5
1CD
330
1
100
AcDbSymbolTableRecord
100
AcDbBlockTableRecord
  2
*D16
340
0
  0
BLOCK_RECORD
  5
1D8
330
1
100
AcDbSymbolTableRecord
100
AcDbBlockTableRecord
  2
*D17
340
0
  0
BLOCK_RECORD
  5
1E3
330
1
100
AcDbSymbolTableRecord
100
AcDbBlockTableRecord
  2
*D18
340
0
  0
BLOCK_RECORD
  5
1EE
330
1
100
AcDbSymbolTableRecord
100
AcDbBlockTableRecord
  2
*D19
340
0
  0
BLOCK_RECORD
  5
1FB
330
1
100
AcDbSymbolTableRecord
100
AcDbBlockTableRecord
  2
*D20
340
0
  0
BLOCK_RECORD
  5
207
330
1
100
AcDbSymbolTableRecord
100
AcDbBlockTableRecord
  2
*D21
340
0
102
{BLKREFS
331
20F
102
}
  0
BLOCK_RECORD
  5
210
330
1
100
AcDbSymbolTableRecord
100
AcDbBlockTableRecord
  2
*D22
340
0
102
{BLKREFS
331
217
102
}
  0
BLOCK_RECORD
  5
218
330
1
100
AcDbSymbolTableRecord
100
AcDbBlockTableRecord
  2
*D23
340
0
102
{BLKREFS
331
21F
102
}
  0
ENDTAB
  0
ENDSEC
  0
SECTION
  2
BLOCKS
  0
BLOCK
  5
20
330
1F
100
AcDbEntity
  8
0
100
AcDbBlockBegin
  2
*Model_Space
 70
     0
 71
     0
 10
0.0
 20
0.0
 30
0.0
  3
*Model_Space
  1

  0
ENDBLK
  5
21
330
1F
100
AcDbEntity
  8
0
100
AcDbBlockEnd
  0
BLOCK
  5
1C
330
1B
100
AcDbEntity
 67
     1
  8
0
100
AcDbBlockBegin
  2
*Paper_Space
 70
     0
 71
     0
 10
0.0
 20
0.0
 30
0.0
  3
*Paper_Space
  1

  0
ENDBLK
  5
1D
330
1B
100
AcDbEntity
 67
     1
  8
0
100
AcDbBlockEnd
  0
BLOCK
  5
24
330
23
100
AcDbEntity
  8
0
100
AcDbBlockBegin
  2
*Paper_Space0
 70
     0
 71
     0
 10
0.0
 20
0.0
 30
0.0
  3
*Paper_Space0
  1

  0
ENDBLK
  5
25
330
23
100
AcDbEntity
  8
0
100
AcDbBlockEnd
  0
BLOCK
  5
129
330
122
100
AcDbEntity
  8
0
100
AcDbBlockBegin
  2
*D1
 70
     1
 71
     0
 10
0.0
 20
0.0
 30
0.0
  3
*D1
  1

  0
LINE
  5
123
330
122
100
AcDbEntity
  8
1
  6
Continuous
 62
     2
100
AcDbLine
 10
-146.46006720403
 20
44.88535147101105
 30
0.0
 11
-146.46006720403
 21
-86.11464852898895
 31
0.0
  0
LINE
  5
124
330
122
100
AcDbEntity
  8
1
  6
Continuous
 62
     2
100
AcDbLine
 10
-180.9148523042697
 20
44.88535147101105
 30
0.0
 11
-144.46006720403
 21
44.88535147101105
 31
0.0
  0
LINE
  5
125
330
122
100
AcDbEntity
  8
1
  6
Continuous
 62
     2
100
AcDbLine
 10
-180.91485230427
 20
-86.11464852898897
 30
0.0
 11
-144.46006720403
 21
-86.11464852898897
 31
0.0
  0
SOLID
  5
126
330
122
100
AcDbEntity
  8
1
 62
     2
100
AcDbTrace
 10
-145.9992834624741
 20
41.38535147101105
 30
0.0
 11
-146.9208509455859
 21
41.38535147101105
 31
0.0
 12
-146.46006720403
 22
44.88535147101105
 32
0.0
 13
-146.46006720403
 23
44.88535147101105
 33
0.0
  0
SOLID
  5
127
330
122
100
AcDbEntity
  8
1
 62
     2
100
AcDbTrace
 10
-146.9208509455859
 20
-82.61464852898895
 30
0.0
 11
-145.9992834624741
 21
-82.61464852898895
 31
0.0
 12
-146.46006720403
 22
-86.11464852898895
 32
0.0
 13
-146.46006720403
 23
-86.11464852898895
 33
0.0
  0
MTEXT
  5
128
330
122
100
AcDbEntity
  8
1
 62
     2
100
AcDbMText
 10
-148.46006720403
 20
-24.81142479651582
 30
0.0
 40
3.5
 41
0.0
 71
     7
 72
     1
  1
131
  7
CONVERTER_11
 11
0.0
 21
1.0
 31
0.0
 73
     1
 44
0.60024009603842
  0
ENDBLK
  5
12A
330
122
100
AcDbEntity
  8
0
100
AcDbBlockEnd
  0
BLOCK
  5
134
330
12D
100
AcDbEntity
  8
0
100
AcDbBlockBegin
  2
*D2
 70
     1
 71
     0
 10
0.0
 20
0.0
 30
0.0
  3
*D2
  1

  0
LINE
  5
12E
330
12D
100
AcDbEntity
  8
1
  6
Continuous
 62
     2
100
AcDbLine
 10
-129.5328328129109
 20
48.38535147101105
 30
0.0
 11
-129.5328328129109
 21
-89.61464852898895
 31
0.0
  0
LINE
  5
12F
330
12D
100
AcDbEntity
  8
1
  6
Continuous
 62
     2
100
AcDbLine
 10
-173.1648523042699
 20
48.38535147101105
 30
0.0
 11
-127.5328328129109
 21
48.38535147101105
 31
0.0
  0
LINE
  5
130
330
12D
100
AcDbEntity
  8
1
  6
Continuous
 62
     2
100
AcDbLine
 10
-173.1648523042699
 20
-89.61464852898895
 30
0.0
 11
-127.5328328129109
 21
-89.61464852898895
 31
0.0
  0
SOLID
  5
131
330
12D
100
AcDbEntity
  8
1
 62
     2
100
AcDbTrace
 10
-129.072049071355
 20
44.88535147101105
 30
0.0
 11
-129.9936165544668
 21
44.88535147101105
 31
0.0
 12
-129.5328328129109
 22
48.38535147101105
 32
0.0
 13
-129.5328328129109
 23
48.38535147101105
 33
0.0
  0
SOLID
  5
132
330
12D
100
AcDbEntity
  8
1
 62
     2
100
AcDbTrace
 10
-129.9936165544668
 20
-86.11464852898895
 30
0.0
 11
-129.072049071355
 21
-86.11464852898895
 31
0.0
 12
-129.5328328129109
 22
-89.61464852898895
 32
0.0
 13
-129.5328328129109
 23
-89.61464852898895
 33
0.0
  0
MTEXT
  5
133
330
12D
100
AcDbEntity
  8
1
 62
     2
100
AcDbMText
 10
-131.5328328129109
 20
-25.15707721537089
 30
0.0
 40
3.5
 41
0.0
 71
     7
 72
     1
  1
138
  7
CONVERTER_11
 11
0.0
 21
1.0
 31
0.0
 73
     1
 44
0.60024009603842
  0
ENDBLK
  5
135
330
12D
100
AcDbEntity
  8
0
100
AcDbBlockEnd
  0
BLOCK
  5
13F
330
138
100
AcDbEntity
  8
0
100
AcDbBlockBegin
  2
*D3
 70
     1
 71
     0
 10
0.0
 20
0.0
 30
0.0
  3
*D3
  1

  0
LINE
  5
139
330
138
100
AcDbEntity
  8
1
  6
Continuous
 62
     2
100
AcDbLine
 10
-68.35733264471742
 20
-141.2746447316281
 30
0.0
 11
-99.85733264471742
 21
-141.2746447316281
 31
0.0
  0
LINE
  5
13A
330
138
100
AcDbEntity
  8
1
  6
Continuous
 62
     2
100
AcDbLine
 10
-68.35733264471742
 20
-100.614648528989
 30
0.0
 11
-68.35733264471742
 21
-143.2746447316281
 31
0.0
  0
LINE
  5
13B
330
138
100
AcDbEntity
  8
1
  6
Continuous
 62
     2
100
AcDbLine
 10
-99.85733264471742
 20
-86.11464852898922
 30
0.0
 11
-99.85733264471742
 21
-143.2746447316281
 31
0.0
  0
SOLID
  5
13C
330
138
100
AcDbEntity
  8
1
 62
     2
100
AcDbTrace
 10
-71.85733264471742
 20
-141.735428473184
 30
0.0
 11
-71.85733264471742
 21
-140.8138609900722
 31
0.0
 12
-68.35733264471742
 22
-141.2746447316281
 32
0.0
 13
-68.35733264471742
 23
-141.2746447316281
 33
0.0
  0
SOLID
  5
13D
330
138
100
AcDbEntity
  8
1
 62
     2
100
AcDbTrace
 10
-96.35733264471742
 20
-140.8138609900722
 30
0.0
 11
-96.35733264471742
 21
-141.735428473184
 31
0.0
 12
-99.85733264471742
 22
-141.2746447316281
 32
0.0
 13
-99.85733264471742
 23
-141.2746447316281
 33
0.0
  0
MTEXT
  5
13E
330
138
100
AcDbEntity
  8
1
 62
     2
100
AcDbMText
 10
-88.57767340609422
 20
-139.2746447316281
 30
0.0
 40
3.5
 41
0.0
 71
     7
 72
     1
  1
31.5
  7
CONVERTER_11
 11
0.9999999999970621
 21
2.424068405545307E-6
 31
0.0
 73
     1
 44
0.60024009603842
  0
ENDBLK
  5
140
330
138
100
AcDbEntity
  8
0
100
AcDbBlockEnd
  0
BLOCK
  5
14C
330
143
100
AcDbEntity
  8
0
100
AcDbBlockBegin
  2
*D4
 70
     1
 71
     0
 10
0.0
 20
0.0
 30
0.0
  3
*D4
  1

  0
LINE
  5
144
330
143
100
AcDbEntity
  8
1
  6
Continuous
 62
     2
100
AcDbLine
 10
-23.17515141969547
 20
-101.1518849186211
 30
0.0
 11
-23.17515141969547
 21
-92.68918859156351
 31
0.0
  0
LINE
  5
145
330
143
100
AcDbEntity
  8
1
  6
Continuous
 62
     2
100
AcDbLine
 10
-23.17515141969547
 20
-92.68918859156351
 30
0.0
 11
-23.17515141969547
 21
-88.68918859156351
 31
0.0
  0
LINE
  5
146
330
143
100
AcDbEntity
  8
1
  6
Continuous
 62
     2
100
AcDbLine
 10
-23.17515141969547
 20
-88.68918859156351
 30
0.0
 11
-23.17515141969547
 21
-81.68918859156351
 31
0.0
  0
LINE
  5
147
330
143
100
AcDbEntity
  8
1
  6
Continuous
 62
     2
100
AcDbLine
 10
-32.16876032016921
 20
-88.68918859156351
 30
0.0
 11
-21.17515141969547
 21
-88.68918859156351
 31
0.0
  0
LINE
  5
148
330
143
100
AcDbEntity
  8
1
  6
Continuous
 62
     2
100
AcDbLine
 10
-41.66876032016923
 20
-92.68918859156351
 30
0.0
 11
-21.17515141969547
 21
-92.68918859156351
 31
0.0
  0
SOLID
  5
149
330
143
100
AcDbEntity
  8
1
 62
     2
100
AcDbTrace
 10
-22.71436767813959
 20
-96.18918859156351
 30
0.0
 11
-23.63593516125136
 21
-96.18918859156351
 31
0.0
 12
-23.17515141969547
 22
-92.68918859156351
 32
0.0
 13
-23.17515141969547
 23
-92.68918859156351
 33
0.0
  0
SOLID
  5
14A
330
143
100
AcDbEntity
  8
1
 62
     2
100
AcDbTrace
 10
-23.63593516125136
 20
-85.18918859156351
 30
0.0
 11
-22.71436767813958
 21
-85.18918859156351
 31
0.0
 12
-23.17515141969547
 22
-88.68918859156351
 32
0.0
 13
-23.17515141969547
 23
-88.68918859156351
 33
0.0
  0
MTEXT
  5
14B
330
143
100
AcDbEntity
  8
1
 62
     2
100
AcDbMText
 10
-25.17515141969547
 20
-101.1518849186211
 30
0.0
 40
3.5
 41
0.0
 71
     7
 72
     1
  1
X
  7
CONVERTER_11
 11
0.0
 21
1.0
 31
0.0
 73
     1
 44
0.60024009603842
  0
ENDBLK
  5
14D
330
143
100
AcDbEntity
  8
0
100
AcDbBlockEnd
  0
BLOCK
  5
157
330
150
100
AcDbEntity
  8
0
100
AcDbBlockBegin
  2
*D5
 70
     1
 71
     0
 10
0.0
 20
0.0
 30
0.0
  3
*D5
  1

  0
LINE
  5
151
330
150
100
AcDbEntity
  8
1
  6
Continuous
 62
     2
100
AcDbLine
 10
-78.35733264471742
 20
-130.2566310837739
 30
0.0
 11
-68.35733264471742
 21
-130.2566310837739
 31
0.0
  0
LINE
  5
152
330
150
100
AcDbEntity
  8
1
  6
Continuous
 62
     2
100
AcDbLine
 10
-78.35733264471742
 20
-100.614648528989
 30
0.0
 11
-78.35733264471742
 21
-132.2566310837739
 31
0.0
  0
LINE
  5
153
330
150
100
AcDbEntity
  8
1
  6
Continuous
 62
     2
100
AcDbLine
 10
-68.35733264471742
 20
-120.614648528989
 30
0.0
 11
-68.35733264471742
 21
-132.2566310837739
 31
0.0
  0
SOLID
  5
154
330
150
100
AcDbEntity
  8
1
 62
     2
100
AcDbTrace
 10
-74.85733264471742
 20
-129.795847342218
 30
0.0
 11
-74.85733264471742
 21
-130.7174148253298
 31
0.0
 12
-78.35733264471742
 22
-130.2566310837739
 32
0.0
 13
-78.35733264471742
 23
-130.2566310837739
 33
0.0
  0
SOLID
  5
155
330
150
100
AcDbEntity
  8
1
 62
     2
100
AcDbTrace
 10
-71.85733264471742
 20
-130.7174148253298
 30
0.0
 11
-71.85733264471742
 21
-129.795847342218
 31
0.0
 12
-68.35733264471742
 22
-130.2566310837739
 32
0.0
 13
-68.35733264471742
 23
-130.2566310837739
 33
0.0
  0
MTEXT
  5
156
330
150
100
AcDbEntity
  8
1
 62
     2
100
AcDbMText
 10
-76.38969881964928
 20
-128.2566310837739
 30
0.0
 40
3.5
 41
0.0
 71
     7
 72
     1
  1
10
  7
CONVERTER_11
 11
0.9999999999970621
 21
2.424068405545307E-6
 31
0.0
 73
     1
 44
0.60024009603842
  0
ENDBLK
  5
158
330
150
100
AcDbEntity
  8
0
100
AcDbBlockEnd
  0
BLOCK
  5
162
330
15B
100
AcDbEntity
  8
0
100
AcDbBlockBegin
  2
*D6
 70
     1
 71
     0
 10
0.0
 20
0.0
 30
0.0
  3
*D6
  1

  0
LINE
  5
15C
330
15B
100
AcDbEntity
  8
1
  6
Continuous
 62
     2
100
AcDbLine
 10
-46.78686100436367
 20
-92.68918859156351
 30
0.0
 11
-46.78686100436367
 21
-52.68918859156351
 31
0.0
  0
LINE
  5
15D
330
15B
100
AcDbEntity
  8
1
  6
Continuous
 62
     2
100
AcDbLine
 10
1.06329048739953
 20
-52.68918859156351
 30
0.0
 11
-48.78686100436367
 21
-52.68918859156351
 31
0.0
  0
LINE
  5
15E
330
15B
100
AcDbEntity
  8
1
  6
Continuous
 62
     2
100
AcDbLine
 10
-41.66876032016923
 20
-92.68918859156351
 30
0.0
 11
-48.78686100436367
 21
-92.68918859156351
 31
0.0
  0
SOLID
  5
15F
330
15B
100
AcDbEntity
  8
1
 62
     2
100
AcDbTrace
 10
-47.24764474591956
 20
-89.18918859156351
 30
0.0
 11
-46.32607726280779
 21
-89.18918859156351
 31
0.0
 12
-46.78686100436367
 22
-92.68918859156351
 32
0.0
 13
-46.78686100436367
 23
-92.68918859156351
 33
0.0
  0
SOLID
  5
160
330
15B
100
AcDbEntity
  8
1
 62
     2
100
AcDbTrace
 10
-46.32607726280779
 20
-56.18918859156351
 30
0.0
 11
-47.24764474591956
 21
-56.18918859156351
 31
0.0
 12
-46.78686100436367
 22
-52.68918859156351
 32
0.0
 13
-46.78686100436367
 23
-52.68918859156351
 33
0.0
  0
MTEXT
  5
161
330
15B
100
AcDbEntity
  8
1
 62
     2
100
AcDbMText
 10
-48.78686100436367
 20
-73.77015165379738
 30
0.0
 40
3.5
 41
0.0
 71
     7
 72
     1
  1
A
  7
CONVERTER_11
 11
0.0
 21
1.0
 31
0.0
 73
     1
 44
0.60024009603842
  0
ENDBLK
  5
163
330
15B
100
AcDbEntity
  8
0
100
AcDbBlockEnd
  0
BLOCK
  5
16D
330
166
100
AcDbEntity
  8
0
100
AcDbBlockBegin
  2
*D7
 70
     1
 71
     0
 10
0.0
 20
0.0
 30
0.0
  3
*D7
  1

  0
LINE
  5
167
330
166
100
AcDbEntity
  8
1
  6
Continuous
 62
     2
100
AcDbLine
 10
71.19350625828599
 20
-128.729476198668
 30
0.0
 11
61.19350625828599
 21
-128.729476198668
 31
0.0
  0
LINE
  5
168
330
166
100
AcDbEntity
  8
1
  6
Continuous
 62
     2
100
AcDbLine
 10
61.19350625828599
 20
-120.614648528989
 30
0.0
 11
61.19350625828599
 21
-130.729476198668
 31
0.0
  0
LINE
  5
169
330
166
100
AcDbEntity
  8
1
  6
Continuous
 62
     2
100
AcDbLine
 10
71.19350625828599
 20
-100.614648528989
 30
0.0
 11
71.19350625828599
 21
-130.729476198668
 31
0.0
  0
SOLID
  5
16A
330
166
100
AcDbEntity
  8
1
 62
     2
100
AcDbTrace
 10
67.69350625828599
 20
-129.1902599402239
 30
0.0
 11
67.69350625828599
 21
-128.2686924571121
 31
0.0
 12
71.19350625828599
 22
-128.729476198668
 32
0.0
 13
71.19350625828599
 23
-128.729476198668
 33
0.0
  0
SOLID
  5
16B
330
166
100
AcDbEntity
  8
1
 62
     2
100
AcDbTrace
 10
64.69350625828599
 20
-128.2686924571121
 30
0.0
 11
64.69350625828599
 21
-129.1902599402239
 31
0.0
 12
61.19350625828599
 22
-128.729476198668
 32
0.0
 13
61.19350625828599
 23
-128.729476198668
 33
0.0
  0
MTEXT
  5
16C
330
166
100
AcDbEntity
  8
1
 62
     2
100
AcDbMText
 10
64.5750179222762
 20
-126.729476198668
 30
0.0
 40
3.5
 41
0.0
 71
     7
 72
     1
  1
10
  7
CONVERTER_11
 11
0.9999999999970621
 21
2.424068405545307E-6
 31
0.0
 73
     1
 44
0.60024009603842
  0
ENDBLK
  5
16E
330
166
100
AcDbEntity
  8
0
100
AcDbBlockEnd
  0
BLOCK
  5
178
330
171
100
AcDbEntity
  8
0
100
AcDbBlockBegin
  2
*D8
 70
     1
 71
     0
 10
0.0
 20
0.0
 30
0.0
  3
*D8
  1

  0
LINE
  5
172
330
171
100
AcDbEntity
  8
1
  6
Continuous
 62
     2
100
AcDbLine
 10
61.19350625828599
 20
-138.6142090488623
 30
0.0
 11
95.19350625828599
 21
-138.6142090488623
 31
0.0
  0
LINE
  5
173
330
171
100
AcDbEntity
  8
1
  6
Continuous
 62
     2
100
AcDbLine
 10
95.19350625828599
 20
-86.11464852898916
 30
0.0
 11
95.19350625828599
 21
-140.6142090488623
 31
0.0
  0
LINE
  5
174
330
171
100
AcDbEntity
  8
1
  6
Continuous
 62
     2
100
AcDbLine
 10
61.19350625828599
 20
-100.614648528989
 30
0.0
 11
61.19350625828599
 21
-140.6142090488623
 31
0.0
  0
SOLID
  5
175
330
171
100
AcDbEntity
  8
1
 62
     2
100
AcDbTrace
 10
64.69350625828599
 20
-138.1534253073064
 30
0.0
 11
64.69350625828599
 21
-139.0749927904182
 31
0.0
 12
61.19350625828599
 22
-138.6142090488623
 32
0.0
 13
61.19350625828599
 23
-138.6142090488623
 33
0.0
  0
SOLID
  5
176
330
171
100
AcDbEntity
  8
1
 62
     2
100
AcDbTrace
 10
91.69350625828599
 20
-139.0749927904182
 30
0.0
 11
91.69350625828599
 21
-138.1534253073064
 31
0.0
 12
95.19350625828599
 22
-138.6142090488623
 32
0.0
 13
95.19350625828599
 23
-138.6142090488623
 33
0.0
  0
MTEXT
  5
177
330
171
100
AcDbEntity
  8
1
 62
     2
100
AcDbMText
 10
75.62203988861025
 20
-136.6142090488623
 30
0.0
 40
3.5
 41
0.0
 71
     7
 72
     1
  1
34
  7
CONVERTER_11
 11
0.9999999999970621
 21
2.424068405545307E-6
 31
0.0
 73
     1
 44
0.60024009603842
  0
ENDBLK
  5
179
330
171
100
AcDbEntity
  8
0
100
AcDbBlockEnd
  0
BLOCK
  5
183
330
17C
100
AcDbEntity
  8
0
100
AcDbBlockBegin
  2
*D9
 70
     1
 71
     0
 10
0.0
 20
0.0
 30
0.0
  3
*D9
  1

  0
LINE
  5
17D
330
17C
100
AcDbEntity
  8
1
  6
Continuous
 62
     2
100
AcDbLine
 10
170.9068397520139
 20
-128.729476198668
 30
0.0
 11
142.9068397520139
 21
-128.729476198668
 31
0.0
  0
LINE
  5
17E
330
17C
100
AcDbEntity
  8
1
  6
Continuous
 62
     2
100
AcDbLine
 10
170.9068397520139
 20
-86.61464852898894
 30
0.0
 11
170.9068397520139
 21
-130.729476198668
 31
0.0
  0
LINE
  5
17F
330
17C
100
AcDbEntity
  8
1
  6
Continuous
 62
     2
100
AcDbLine
 10
142.9068397520139
 20
-86.61464852898894
 30
0.0
 11
142.9068397520139
 21
-130.729476198668
 31
0.0
  0
SOLID
  5
180
330
17C
100
AcDbEntity
  8
1
 62
     2
100
AcDbTrace
 10
167.4068397520139
 20
-129.1902599402239
 30
0.0
 11
167.4068397520139
 21
-128.2686924571121
 31
0.0
 12
170.9068397520139
 22
-128.729476198668
 32
0.0
 13
170.9068397520139
 23
-128.729476198668
 33
0.0
  0
SOLID
  5
181
330
17C
100
AcDbEntity
  8
1
 62
     2
100
AcDbTrace
 10
146.4068397520139
 20
-128.2686924571121
 30
0.0
 11
146.4068397520139
 21
-129.1902599402239
 31
0.0
 12
142.9068397520139
 22
-128.729476198668
 32
0.0
 13
142.9068397520139
 23
-128.729476198668
 33
0.0
  0
MTEXT
  5
182
330
17C
100
AcDbEntity
  8
1
 62
     2
100
AcDbMText
 10
155.2166190824701
 20
-126.729476198668
 30
0.0
 40
3.5
 41
0.0
 71
     7
 72
     1
  1
28
  7
CONVERTER_11
 11
0.9999999999970621
 21
2.424068405545307E-6
 31
0.0
 73
     1
 44
0.60024009603842
  0
ENDBLK
  5
184
330
17C
100
AcDbEntity
  8
0
100
AcDbBlockEnd
  0
BLOCK
  5
18E
330
187
100
AcDbEntity
  8
0
100
AcDbBlockBegin
  2
*D10
 70
     1
 71
     0
 10
0.0
 20
0.0
 30
0.0
  3
*D10
  1

  0
LINE
  5
188
330
187
100
AcDbEntity
  8
1
  6
Continuous
 62
     2
100
AcDbLine
 10
55.73157899085594
 20
-92.68918859156351
 30
0.0
 11
55.73157899085594
 21
-52.68918859156351
 31
0.0
  0
LINE
  5
189
330
187
100
AcDbEntity
  8
1
  6
Continuous
 62
     2
100
AcDbLine
 10
46.83123967983067
 20
-52.68918859156351
 30
0.0
 11
57.73157899085594
 21
-52.68918859156351
 31
0.0
  0
LINE
  5
18A
330
187
100
AcDbEntity
  8
1
  6
Continuous
 62
     2
100
AcDbLine
 10
46.83123967983067
 20
-92.68918859156351
 30
0.0
 11
57.73157899085594
 21
-92.68918859156351
 31
0.0
  0
SOLID
  5
18B
330
187
100
AcDbEntity
  8
1
 62
     2
100
AcDbTrace
 10
55.27079524930005
 20
-89.18918859156351
 30
0.0
 11
56.19236273241182
 21
-89.18918859156351
 31
0.0
 12
55.73157899085594
 22
-92.68918859156351
 32
0.0
 13
55.73157899085594
 23
-92.68918859156351
 33
0.0
  0
SOLID
  5
18C
330
187
100
AcDbEntity
  8
1
 62
     2
100
AcDbTrace
 10
56.19236273241182
 20
-56.18918859156351
 30
0.0
 11
55.27079524930005
 21
-56.18918859156351
 31
0.0
 12
55.73157899085594
 22
-52.68918859156351
 32
0.0
 13
55.73157899085594
 23
-52.68918859156351
 33
0.0
  0
MTEXT
  5
18D
330
187
100
AcDbEntity
  8
1
 62
     2
100
AcDbMText
 10
53.73157899085594
 20
-72.9105098904355
 30
0.0
 40
3.5
 41
0.0
 71
     7
 72
     1
  1
B
  7
CONVERTER_11
 11
0.0
 21
1.0
 31
0.0
 73
     1
 44
0.60024009603842
  0
ENDBLK
  5
18F
330
187
100
AcDbEntity
  8
0
100
AcDbBlockEnd
  0
BLOCK
  5
19B
330
192
100
AcDbEntity
  8
0
100
AcDbBlockBegin
  2
*D11
 70
     1
 71
     0
 10
0.0
 20
0.0
 30
0.0
  3
*D11
  1

  0
LINE
  5
193
330
192
100
AcDbEntity
  8
1
  6
Continuous
 62
     2
100
AcDbLine
 10
30.21081070804353
 20
-101.226156920623
 30
0.0
 11
30.21081070804353
 21
-92.68918859156351
 31
0.0
  0
LINE
  5
194
330
192
100
AcDbEntity
  8
1
  6
Continuous
 62
     2
100
AcDbLine
 10
30.21081070804353
 20
-92.68918859156351
 30
0.0
 11
30.21081070804353
 21
-88.68918859156352
 31
0.0
  0
LINE
  5
195
330
192
100
AcDbEntity
  8
1
  6
Continuous
 62
     2
100
AcDbLine
 10
30.21081070804353
 20
-88.68918859156352
 30
0.0
 11
30.21081070804353
 21
-81.68918859156352
 31
0.0
  0
LINE
  5
196
330
192
100
AcDbEntity
  8
1
  6
Continuous
 62
     2
100
AcDbLine
 10
36.83123967983047
 20
-88.68918859156352
 30
0.0
 11
28.21081070804353
 21
-88.68918859156352
 31
0.0
  0
LINE
  5
197
330
192
100
AcDbEntity
  8
1
  6
Continuous
 62
     2
100
AcDbLine
 10
46.83123967983067
 20
-92.68918859156351
 30
0.0
 11
28.21081070804353
 21
-92.68918859156351
 31
0.0
  0
SOLID
  5
198
330
192
100
AcDbEntity
  8
1
 62
     2
100
AcDbTrace
 10
30.67159444959941
 20
-96.18918859156351
 30
0.0
 11
29.75002696648765
 21
-96.18918859156351
 31
0.0
 12
30.21081070804353
 22
-92.68918859156351
 32
0.0
 13
30.21081070804353
 23
-92.68918859156351
 33
0.0
  0
SOLID
  5
199
330
192
100
AcDbEntity
  8
1
 62
     2
100
AcDbTrace
 10
29.75002696648765
 20
-85.18918859156352
 30
0.0
 11
30.67159444959942
 21
-85.18918859156352
 31
0.0
 12
30.21081070804353
 22
-88.68918859156352
 32
0.0
 13
30.21081070804353
 23
-88.68918859156352
 33
0.0
  0
MTEXT
  5
19A
330
192
100
AcDbEntity
  8
1
 62
     2
100
AcDbMText
 10
28.4118579323537
 20
-101.226156920623
 30
0.0
 40
3.5
 41
0.0
 71
     7
 72
     1
  1
4
  7
CONVERTER_11
 11
0.0
 21
1.0
 31
0.0
 73
     1
 44
0.60024009603842
  0
ENDBLK
  5
19C
330
192
100
AcDbEntity
  8
0
100
AcDbBlockEnd
  0
BLOCK
  5
1A6
330
19F
100
AcDbEntity
  8
0
100
AcDbBlockBegin
  2
*D12
 70
     1
 71
     0
 10
0.0
 20
0.0
 30
0.0
  3
*D12
  1

  0
LINE
  5
1A0
330
19F
100
AcDbEntity
  8
1
  6
Continuous
 62
     2
100
AcDbLine
 10
164.4068397520139
 20
34.5451568829076
 30
0.0
 11
149.4068397520139
 21
34.5451568829076
 31
0.0
  0
LINE
  5
1A1
330
19F
100
AcDbEntity
  8
1
  6
Continuous
 62
     2
100
AcDbLine
 10
149.4068397520139
 20
46.13535147101105
 30
0.0
 11
149.4068397520139
 21
32.5451568829076
 31
0.0
  0
LINE
  5
1A2
330
19F
100
AcDbEntity
  8
1
  6
Continuous
 62
     2
100
AcDbLine
 10
164.4068397520139
 20
46.13535147101105
 30
0.0
 11
164.4068397520139
 21
32.5451568829076
 31
0.0
  0
SOLID
  5
1A3
330
19F
100
AcDbEntity
  8
1
 62
     2
100
AcDbTrace
 10
160.9068397520139
 20
34.08437314135171
 30
0.0
 11
160.9068397520139
 21
35.00594062446348
 31
0.0
 12
164.4068397520139
 22
34.5451568829076
 32
0.0
 13
164.4068397520139
 23
34.5451568829076
 33
0.0
  0
SOLID
  5
1A4
330
19F
100
AcDbEntity
  8
1
 62
     2
100
AcDbTrace
 10
152.9068397520139
 20
35.00594062446348
 30
0.0
 11
152.9068397520139
 21
34.08437314135171
 31
0.0
 12
149.4068397520139
 22
34.5451568829076
 32
0.0
 13
149.4068397520139
 23
34.5451568829076
 33
0.0
  0
MTEXT
  5
1A5
330
19F
100
AcDbEntity
  8
1
 62
     2
100
AcDbMText
 10
158.6082697416599
 20
36.5451568829076
 30
0.0
 40
3.5
 41
0.0
 71
     7
 72
     1
  1
15
  7
CONVERTER_11
 11
0.9999999999970621
 21
2.424068405545307E-6
 31
0.0
 73
     1
 44
0.60024009603842
  0
ENDBLK
  5
1A7
330
19F
100
AcDbEntity
  8
0
100
AcDbBlockEnd
  0
BLOCK
  5
1B1
330
1AA
100
AcDbEntity
  8
0
100
AcDbBlockBegin
  2
*D13
 70
     1
 71
     0
 10
0.0
 20
0.0
 30
0.0
  3
*D13
  1

  0
LINE
  5
1AB
330
1AA
100
AcDbEntity
  8
1
  6
Continuous
 62
     2
100
AcDbLine
 10
-190.4148523042701
 20
25.93517029822284
 30
0.0
 11
-175.4148523042699
 21
25.93517029822284
 31
0.0
  0
LINE
  5
1AC
330
1AA
100
AcDbEntity
  8
1
  6
Continuous
 62
     2
100
AcDbLine
 10
-190.4148523042701
 20
46.13535147101105
 30
0.0
 11
-190.4148523042701
 21
23.93517029822284
 31
0.0
  0
LINE
  5
1AD
330
1AA
100
AcDbEntity
  8
1
  6
Continuous
 62
     2
100
AcDbLine
 10
-175.4148523042699
 20
46.13535147101105
 30
0.0
 11
-175.4148523042699
 21
23.93517029822284
 31
0.0
  0
SOLID
  5
1AE
330
1AA
100
AcDbEntity
  8
1
 62
     2
100
AcDbTrace
 10
-186.9148523042701
 20
26.39595403977873
 30
0.0
 11
-186.9148523042701
 21
25.47438655666695
 31
0.0
 12
-190.4148523042701
 22
25.93517029822284
 32
0.0
 13
-190.4148523042701
 23
25.93517029822284
 33
0.0
  0
SOLID
  5
1AF
330
1AA
100
AcDbEntity
  8
1
 62
     2
100
AcDbTrace
 10
-178.9148523042699
 20
25.47438655666695
 30
0.0
 11
-178.9148523042699
 21
26.39595403977873
 31
0.0
 12
-175.4148523042699
 22
25.93517029822284
 32
0.0
 13
-175.4148523042699
 23
25.93517029822284
 33
0.0
  0
MTEXT
  5
1B0
330
1AA
100
AcDbEntity
  8
1
 62
     2
100
AcDbMText
 10
-184.6668985813797
 20
27.93517029822284
 30
0.0
 40
3.5
 41
0.0
 71
     7
 72
     1
  1
15
  7
CONVERTER_11
 11
0.9999999999970621
 21
2.424068405545307E-6
 31
0.0
 73
     1
 44
0.60024009603842
  0
ENDBLK
  5
1B2
330
1AA
100
AcDbEntity
  8
0
100
AcDbBlockEnd
  0
BLOCK
  5
1BE
330
1B5
100
AcDbEntity
  8
0
100
AcDbBlockBegin
  2
*D14
 70
     1
 71
     0
 10
0.0
 20
0.0
 30
0.0
  3
*D14
  1

  0
LINE
  5
1B6
330
1B5
100
AcDbEntity
  8
1
  6
Continuous
 62
     2
100
AcDbLine
 10
170.9068397520139
 20
-128.729476198668
 30
0.0
 11
163.9068397520139
 21
-128.729476198668
 31
0.0
  0
LINE
  5
1B7
330
1B5
100
AcDbEntity
  8
1
  6
Continuous
 62
     2
100
AcDbLine
 10
174.9068397520139
 20
-128.729476198668
 30
0.0
 11
170.9068397520139
 21
-128.729476198668
 31
0.0
  0
LINE
  5
1B8
330
1B5
100
AcDbEntity
  8
1
  6
Continuous
 62
     2
100
AcDbLine
 10
181.9068397520139
 20
-128.729476198668
 30
0.0
 11
174.9068397520139
 21
-128.729476198668
 31
0.0
  0
LINE
  5
1B9
330
1B5
100
AcDbEntity
  8
1
  6
Continuous
 62
     2
100
AcDbLine
 10
174.9068397520139
 20
-120.614648528989
 30
0.0
 11
174.9068397520139
 21
-130.729476198668
 31
0.0
  0
LINE
  5
1BA
330
1B5
100
AcDbEntity
  8
1
  6
Continuous
 62
     2
100
AcDbLine
 10
170.9068397520139
 20
-86.61464852898894
 30
0.0
 11
170.9068397520139
 21
-130.729476198668
 31
0.0
  0
SOLID
  5
1BB
330
1B5
100
AcDbEntity
  8
1
 62
     2
100
AcDbTrace
 10
178.4068397520139
 20
-128.2686924571121
 30
0.0
 11
178.4068397520139
 21
-129.1902599402239
 31
0.0
 12
174.9068397520139
 22
-128.729476198668
 32
0.0
 13
174.9068397520139
 23
-128.729476198668
 33
0.0
  0
SOLID
  5
1BC
330
1B5
100
AcDbEntity
  8
1
 62
     2
100
AcDbTrace
 10
167.4068397520139
 20
-129.1902599402239
 30
0.0
 11
167.4068397520139
 21
-128.2686924571121
 31
0.0
 12
170.9068397520139
 22
-128.729476198668
 32
0.0
 13
170.9068397520139
 23
-128.729476198668
 33
0.0
  0
MTEXT
  5
1BD
330
1B5
100
AcDbEntity
  8
1
 62
     2
100
AcDbMText
 10
171.584183242026
 20
-126.729476198668
 30
0.0
 40
3.5
 41
0.0
 71
     7
 72
     1
  1
4
  7
CONVERTER_11
 11
0.9999999999970621
 21
2.424068405545307E-6
 31
0.0
 73
     1
 44
0.60024009603842
  0
ENDBLK
  5
1BF
330
1B5
100
AcDbEntity
  8
0
100
AcDbBlockEnd
  0
BLOCK
  5
1C9
330
1C2
100
AcDbEntity
  8
0
100
AcDbBlockBegin
  2
*D15
 70
     1
 71
     0
 10
0.0
 20
0.0
 30
0.0
  3
*D15
  1

  0
LINE
  5
1C3
330
1C2
100
AcDbEntity
  8
1
  6
Continuous
 62
     2
100
AcDbLine
 10
-119.893378353309
 20
59.38535147101105
 30
0.0
 11
-119.893378353309
 21
-100.614648528989
 31
0.0
  0
LINE
  5
1C4
330
1C2
100
AcDbEntity
  8
1
  6
Continuous
 62
     2
100
AcDbLine
 10
-182.9148523042696
 20
-100.614648528989
 30
0.0
 11
-117.893378353309
 21
-100.614648528989
 31
0.0
  0
LINE
  5
1C5
330
1C2
100
AcDbEntity
  8
1
  6
Continuous
 62
     2
100
AcDbLine
 10
-182.9148523042699
 20
59.38535147101105
 30
0.0
 11
-117.893378353309
 21
59.38535147101105
 31
0.0
  0
SOLID
  5
1C6
330
1C2
100
AcDbEntity
  8
1
 62
     2
100
AcDbTrace
 10
-119.4325946117531
 20
55.88535147101105
 30
0.0
 11
-120.3541620948649
 21
55.88535147101105
 31
0.0
 12
-119.893378353309
 22
59.38535147101105
 32
0.0
 13
-119.893378353309
 23
59.38535147101105
 33
0.0
  0
SOLID
  5
1C7
330
1C2
100
AcDbEntity
  8
1
 62
     2
100
AcDbTrace
 10
-120.3541620948649
 20
-97.114648528989
 30
0.0
 11
-119.4325946117531
 21
-97.114648528989
 31
0.0
 12
-119.893378353309
 22
-100.614648528989
 32
0.0
 13
-119.893378353309
 23
-100.614648528989
 33
0.0
  0
MTEXT
  5
1C8
330
1C2
100
AcDbEntity
  8
1
 62
     2
100
AcDbMText
 10
-121.893378353309
 20
-25.3245241982269
 30
0.0
 40
3.5
 41
0.0
 71
     7
 72
     1
  1
160
  7
CONVERTER_11
 11
0.0
 21
1.0
 31
0.0
 73
     1
 44
0.60024009603842
  0
ENDBLK
  5
1CA
330
1C2
100
AcDbEntity
  8
0
100
AcDbBlockEnd
  0
BLOCK
  5
1D4
330
1CD
100
AcDbEntity
  8
0
100
AcDbBlockBegin
  2
*D16
 70
     1
 71
     0
 10
0.0
 20
0.0
 30
0.0
  3
*D16
  1

  0
LINE
  5
1CE
330
1CD
100
AcDbEntity
  8
1
  6
Continuous
 62
     2
100
AcDbLine
 10
114.452069692064
 20
59.38535147101105
 30
0.0
 11
114.452069692064
 21
-100.614648528989
 31
0.0
  0
LINE
  5
1CF
330
1CD
100
AcDbEntity
  8
1
  6
Continuous
 62
     2
100
AcDbLine
 10
156.9068397520139
 20
-100.614648528989
 30
0.0
 11
112.452069692064
 21
-100.614648528989
 31
0.0
  0
LINE
  5
1D0
330
1CD
100
AcDbEntity
  8
1
  6
Continuous
 62
     2
100
AcDbLine
 10
156.9068397520139
 20
59.38535147101105
 30
0.0
 11
112.452069692064
 21
59.38535147101105
 31
0.0
  0
SOLID
  5
1D1
330
1CD
100
AcDbEntity
  8
1
 62
     2
100
AcDbTrace
 10
114.9128534336199
 20
55.88535147101105
 30
0.0
 11
113.9912859505081
 21
55.88535147101105
 31
0.0
 12
114.452069692064
 22
59.38535147101105
 32
0.0
 13
114.452069692064
 23
59.38535147101105
 33
0.0
  0
SOLID
  5
1D2
330
1CD
100
AcDbEntity
  8
1
 62
     2
100
AcDbTrace
 10
113.9912859505081
 20
-97.11464852898901
 30
0.0
 11
114.9128534336199
 21
-97.11464852898901
 31
0.0
 12
114.452069692064
 22
-100.614648528989
 32
0.0
 13
114.452069692064
 23
-100.614648528989
 33
0.0
  0
MTEXT
  5
1D3
330
1CD
100
AcDbEntity
  8
1
 62
     2
100
AcDbMText
 10
112.452069692064
 20
-24.3245241982269
 30
0.0
 40
3.5
 41
0.0
 71
     7
 72
     1
  1
160
  7
CONVERTER_11
 11
0.0
 21
1.0
 31
0.0
 73
     1
 44
0.60024009603842
  0
ENDBLK
  5
1D5
330
1CD
100
AcDbEntity
  8
0
100
AcDbBlockEnd
  0
BLOCK
  5
1DF
330
1D8
100
AcDbEntity
  8
0
100
AcDbBlockBegin
  2
*D17
 70
     1
 71
     0
 10
0.0
 20
0.0
 30
0.0
  3
*D17
  1

  0
LINE
  5
1D9
330
1D8
100
AcDbEntity
  8
1
  6
Continuous
 62
     2
100
AcDbLine
 10
122.326988504593
 20
48.38535147101105
 30
0.0
 11
122.326988504593
 21
-89.61464852898895
 31
0.0
  0
LINE
  5
1DA
330
1D8
100
AcDbEntity
  8
1
  6
Continuous
 62
     2
100
AcDbLine
 10
147.1568397520139
 20
-89.61464852898895
 30
0.0
 11
120.326988504593
 21
-89.61464852898895
 31
0.0
  0
LINE
  5
1DB
330
1D8
100
AcDbEntity
  8
1
  6
Continuous
 62
     2
100
AcDbLine
 10
147.1568397520139
 20
48.38535147101105
 30
0.0
 11
120.326988504593
 21
48.38535147101105
 31
0.0
  0
SOLID
  5
1DC
330
1D8
100
AcDbEntity
  8
1
 62
     2
100
AcDbTrace
 10
122.7877722461489
 20
44.88535147101105
 30
0.0
 11
121.8662047630371
 21
44.88535147101105
 31
0.0
 12
122.326988504593
 22
48.38535147101105
 32
0.0
 13
122.326988504593
 23
48.38535147101105
 33
0.0
  0
SOLID
  5
1DD
330
1D8
100
AcDbEntity
  8
1
 62
     2
100
AcDbTrace
 10
121.8662047630371
 20
-86.11464852898895
 30
0.0
 11
122.7877722461489
 21
-86.11464852898895
 31
0.0
 12
122.326988504593
 22
-89.61464852898895
 32
0.0
 13
122.326988504593
 23
-89.61464852898895
 33
0.0
  0
MTEXT
  5
1DE
330
1D8
100
AcDbEntity
  8
1
 62
     2
100
AcDbMText
 10
120.326988504593
 20
-24.3245241982269
 30
0.0
 40
3.5
 41
0.0
 71
     7
 72
     1
  1
138
  7
CONVERTER_11
 11
0.0
 21
1.0
 31
0.0
 73
     1
 44
0.60024009603842
  0
ENDBLK
  5
1E0
330
1D8
100
AcDbEntity
  8
0
100
AcDbBlockEnd
  0
BLOCK
  5
1EA
330
1E3
100
AcDbEntity
  8
0
100
AcDbBlockBegin
  2
*D18
 70
     1
 71
     0
 10
0.0
 20
0.0
 30
0.0
  3
*D18
  1

  0
LINE
  5
1E4
330
1E3
100
AcDbEntity
  8
1
  6
Continuous
 62
     2
100
AcDbLine
 10
130.094615818587
 20
44.88535147101105
 30
0.0
 11
130.094615818587
 21
-86.1146485289892
 31
0.0
  0
LINE
  5
1E5
330
1E3
100
AcDbEntity
  8
1
  6
Continuous
 62
     2
100
AcDbLine
 10
154.9068397520139
 20
44.88535147101105
 30
0.0
 11
128.094615818587
 21
44.88535147101105
 31
0.0
  0
LINE
  5
1E6
330
1E3
100
AcDbEntity
  8
1
  6
Continuous
 62
     2
100
AcDbLine
 10
158.6755140245068
 20
-86.1146485289892
 30
0.0
 11
128.094615818587
 21
-86.1146485289892
 31
0.0
  0
SOLID
  5
1E7
330
1E3
100
AcDbEntity
  8
1
 62
     2
100
AcDbTrace
 10
130.5553995601429
 20
41.38535147101105
 30
0.0
 11
129.6338320770311
 21
41.38535147101105
 31
0.0
 12
130.094615818587
 22
44.88535147101105
 32
0.0
 13
130.094615818587
 23
44.88535147101105
 33
0.0
  0
SOLID
  5
1E8
330
1E3
100
AcDbEntity
  8
1
 62
     2
100
AcDbTrace
 10
129.6338320770311
 20
-82.6146485289892
 30
0.0
 11
130.5553995601429
 21
-82.6146485289892
 31
0.0
 12
130.094615818587
 22
-86.1146485289892
 32
0.0
 13
130.094615818587
 23
-86.1146485289892
 33
0.0
  0
MTEXT
  5
1E9
330
1E3
100
AcDbEntity
  8
1
 62
     2
100
AcDbMText
 10
128.094615818587
 20
-23.70233169408329
 30
0.0
 40
3.5
 41
0.0
 71
     7
 72
     1
  1
131
  7
CONVERTER_11
 11
0.0
 21
1.0
 31
0.0
 73
     1
 44
0.60024009603842
  0
ENDBLK
  5
1EB
330
1E3
100
AcDbEntity
  8
0
100
AcDbBlockEnd
  0
BLOCK
  5
1F7
330
1EE
100
AcDbEntity
  8
0
100
AcDbBlockBegin
  2
*D19
 70
     1
 71
     0
 10
0.0
 20
0.0
 30
0.0
  3
*D19
  1

  0
LINE
  5
1EF
330
1EE
100
AcDbEntity
  8
1
  6
Continuous
 62
     2
100
AcDbLine
 10
-196.91485230427
 20
-130.2566310837739
 30
0.0
 11
-189.91485230427
 21
-130.2566310837739
 31
0.0
  0
LINE
  5
1F0
330
1EE
100
AcDbEntity
  8
1
  6
Continuous
 62
     2
100
AcDbLine
 10
-200.91485230427
 20
-130.2566310837739
 30
0.0
 11
-196.91485230427
 21
-130.2566310837739
 31
0.0
  0
LINE
  5
1F1
330
1EE
100
AcDbEntity
  8
1
  6
Continuous
 62
     2
100
AcDbLine
 10
-207.91485230427
 20
-130.2566310837739
 30
0.0
 11
-200.91485230427
 21
-130.2566310837739
 31
0.0
  0
LINE
  5
1F2
330
1EE
100
AcDbEntity
  8
1
  6
Continuous
 62
     2
100
AcDbLine
 10
-200.91485230427
 20
-120.614648528989
 30
0.0
 11
-200.91485230427
 21
-132.2566310837739
 31
0.0
  0
LINE
  5
1F3
330
1EE
100
AcDbEntity
  8
1
  6
Continuous
 62
     2
100
AcDbLine
 10
-196.91485230427
 20
-86.614648528989
 30
0.0
 11
-196.91485230427
 21
-132.2566310837739
 31
0.0
  0
SOLID
  5
1F4
330
1EE
100
AcDbEntity
  8
1
 62
     2
100
AcDbTrace
 10
-204.41485230427
 20
-130.7174148253298
 30
0.0
 11
-204.41485230427
 21
-129.795847342218
 31
0.0
 12
-200.91485230427
 22
-130.2566310837739
 32
0.0
 13
-200.91485230427
 23
-130.2566310837739
 33
0.0
  0
SOLID
  5
1F5
330
1EE
100
AcDbEntity
  8
1
 62
     2
100
AcDbTrace
 10
-193.41485230427
 20
-129.795847342218
 30
0.0
 11
-193.41485230427
 21
-130.7174148253298
 31
0.0
 12
-196.91485230427
 22
-130.2566310837739
 32
0.0
 13
-196.91485230427
 23
-130.2566310837739
 33
0.0
  0
MTEXT
  5
1F6
330
1EE
100
AcDbEntity
  8
1
 62
     2
100
AcDbMText
 10
-205.001615557664
 20
-128.2566310837739
 30
0.0
 40
3.5
 41
0.0
 71
     7
 72
     1
  1
X
  7
CONVERTER_11
 11
0.9999999999970621
 21
2.424068405545307E-6
 31
0.0
 73
     1
 44
0.60024009603842
  0
ENDBLK
  5
1F8
330
1EE
100
AcDbEntity
  8
0
100
AcDbBlockEnd
  0
BLOCK
  5
203
330
1FB
100
AcDbEntity
  8
0
100
AcDbBlockBegin
  2
*D20
 70
     1
 71
     0
 10
0.0
 20
0.0
 30
0.0
  3
*D20
  1

  0
LINE
  5
1FC
330
1FB
100
AcDbEntity
  8
1
  6
Continuous
 62
     2
100
AcDbLine
 10
-196.91485230427
 20
-130.2566310837739
 30
0.0
 11
-168.9148523042698
 21
-130.2566310837739
 31
0.0
  0
LINE
  5
1FD
330
1FB
100
AcDbEntity
  8
1
  6
Continuous
 62
     2
100
AcDbLine
 10
-196.91485230427
 20
-86.614648528989
 30
0.0
 11
-196.91485230427
 21
-132.2566310837739
 31
0.0
  0
LINE
  5
1FE
330
1FB
100
AcDbEntity
  8
1
  6
Continuous
 62
     2
100
AcDbLine
 10
-168.9148523042698
 20
-114.808001637242
 30
0.0
 11
-168.9148523042698
 21
-132.2566310837739
 31
0.0
  0
LINE
  5
1FF
330
1FB
100
AcDbEntity
  8
1
  6
Continuous
 62
     2
100
AcDbLine
 10
-168.9148523042698
 20
-86.614648528989
 30
0.0
 11
-168.9148523042698
 21
-105.949238010584
 31
0.0
  0
SOLID
  5
200
330
1FB
100
AcDbEntity
  8
1
 62
     2
100
AcDbTrace
 10
-193.41485230427
 20
-129.795847342218
 30
0.0
 11
-193.41485230427
 21
-130.7174148253298
 31
0.0
 12
-196.91485230427
 22
-130.2566310837739
 32
0.0
 13
-196.91485230427
 23
-130.2566310837739
 33
0.0
  0
SOLID
  5
201
330
1FB
100
AcDbEntity
  8
1
 62
     2
100
AcDbTrace
 10
-172.4148523042698
 20
-130.7174148253298
 30
0.0
 11
-172.4148523042698
 21
-129.795847342218
 31
0.0
 12
-168.9148523042698
 22
-130.2566310837739
 32
0.0
 13
-168.9148523042698
 23
-130.2566310837739
 33
0.0
  0
MTEXT
  5
202
330
1FB
100
AcDbEntity
  8
1
 62
     2
100
AcDbMText
 10
-186.0106662427407
 20
-128.2566310837739
 30
0.0
 40
3.5
 41
0.0
 71
     7
 72
     1
  1
28
  7
CONVERTER_11
 11
0.9999999999970621
 21
2.424068405545307E-6
 31
0.0
 73
     1
 44
0.60024009603842
  0
ENDBLK
  5
204
330
1FB
100
AcDbEntity
  8
0
100
AcDbBlockEnd
  0
BLOCK
  5
20D
330
207
100
AcDbEntity
  8
0
100
AcDbBlockBegin
  2
*D21
 70
     1
 71
     0
 10
0.0
 20
0.0
 30
0.0
  3
*D21
  1

  0
LINE
  5
208
330
207
100
AcDbEntity
  8
1
  6
Continuous
 62
     2
100
AcDbLine
 10
-183.1097003351689
 20
52.98862494310547
 30
0.0
 11
-189.1457955541939
 21
49.1850357618947
 31
0.0
  0
LINE
  5
209
330
207
100
AcDbEntity
  8
1
  6
Continuous
 62
     2
100
AcDbLine
 10
-191.6839090543463
 20
47.58566718012739
 30
0.0
 11
-196.1256076796129
 21
44.78677216203461
 31
0.0
  0
SOLID
  5
20A
330
207
100
AcDbEntity
  8
1
 62
     2
100
AcDbTrace
 10
-186.4303174837607
 20
51.44080625232113
 30
0.0
 11
-185.9390087909383
 21
50.66112529559199
 31
0.0
 12
-189.1457955541939
 22
49.1850357618947
 32
0.0
 13
-189.1457955541939
 23
49.1850357618947
 33
0.0
  0
SOLID
  5
20B
330
207
100
AcDbEntity
  8
1
 62
     2
100
AcDbTrace
 10
-194.3993871247795
 20
45.32989668970097
 30
0.0
 11
-194.8906958176019
 21
46.1095776464301
 31
0.0
 12
-191.6839090543463
 22
47.58566718012739
 32
0.0
 13
-191.6839090543463
 23
47.58566718012739
 33
0.0
  0
MTEXT
  5
20C
330
207
100
AcDbEntity
  8
1
 62
     2
100
AcDbMText
 10
-188.3807540882662
 20
52.03107999274587
 30
0.0
 40
3.5
 41
0.0
 71
     7
 72
     1
  1
\C2;ø\C2;3
  7
CONVERTER_11
 11
0.8460378333841184
 21
0.5331228605891016
 31
0.0
 73
     1
 44
0.60024009603842
  0
ENDBLK
  5
20E
330
207
100
AcDbEntity
  8
0
100
AcDbBlockEnd
  0
BLOCK
  5
215
330
210
100
AcDbEntity
  8
0
100
AcDbBlockBegin
  2
*D22
 70
     1
 71
     0
 10
0.0
 20
0.0
 30
0.0
  3
*D22
  1

  0
LINE
  5
211
330
210
100
AcDbEntity
  8
1
  6
Continuous
 62
     2
100
AcDbLine
 10
-185.9161473856815
 20
-73.70653010697677
 30
0.0
 11
-149.5599003388155
 21
-153.0016410155721
 31
0.0
  0
SOLID
  5
212
330
210
100
AcDbEntity
  8
1
 62
     2
100
AcDbTrace
 10
-177.791125256589
 20
-92.53327536626787
 30
0.0
 11
-176.9534113199508
 21
-92.1491894562282
 31
0.0
 12
-175.9135572228581
 22
-95.52276695100164
 32
0.0
 13
-175.9135572228581
 23
-95.52276695100164
 33
0.0
  0
SOLID
  5
213
330
210
100
AcDbEntity
  8
1
 62
     2
100
AcDbTrace
 10
-184.0385793519506
 20
-76.69602169171054
 30
0.0
 11
-184.8762932885888
 21
-77.08010760175021
 31
0.0
 12
-185.9161473856815
 22
-73.70653010697677
 32
0.0
 13
-185.9161473856815
 23
-73.70653010697677
 33
0.0
  0
MTEXT
  5
214
330
210
100
AcDbEntity
  8
1
 62
     2
100
AcDbMText
 10
-159.4990917890321
 20
-126.5249234449225
 30
0.0
 40
3.5
 41
0.0
 71
     7
 72
     1
  1
\C2;Fräser ø\C2;24
  7
CONVERTER_11
 11
0.4167745901176436
 21
-0.9090098685010359
 31
0.0
 73
     1
 44
0.60024009603842
  0
ENDBLK
  5
216
330
210
100
AcDbEntity
  8
0
100
AcDbBlockEnd
  0
BLOCK
  5
21D
330
218
100
AcDbEntity
  8
0
100
AcDbBlockBegin
  2
*D23
 70
     1
 71
     0
 10
0.0
 20
0.0
 30
0.0
  3
*D23
  1

  0
LINE
  5
219
330
218
100
AcDbEntity
  8
1
  6
Continuous
 62
     2
100
AcDbLine
 10
162.2747173725014
 20
-77.14288103978616
 30
0.0
 11
116.9124243898423
 21
-135.4583300795616
 31
0.0
  0
SOLID
  5
21A
330
218
100
AcDbEntity
  8
1
 62
     2
100
AcDbTrace
 10
149.3242233989334
 20
-93.04090064906643
 30
0.0
 11
150.0516294760704
 21
-93.60673368528212
 31
0.0
 12
147.5389621315264
 22
-96.08641601819174
 32
0.0
 13
147.5389621315264
 23
-96.08641601819174
 33
0.0
  0
SOLID
  5
21B
330
218
100
AcDbEntity
  8
1
 62
     2
100
AcDbTrace
 10
160.4894561050944
 20
-80.18839640891147
 30
0.0
 11
159.7620500279573
 21
-79.62256337269578
 31
0.0
 12
162.2747173725014
 22
-77.14288103978616
 32
0.0
 13
162.2747173725014
 23
-77.14288103978616
 33
0.0
  0
MTEXT
  5
21C
330
218
100
AcDbEntity
  8
1
 62
     2
100
AcDbMText
 10
116.2793407696044
 20
-133.0148069816994
 30
0.0
 40
3.5
 41
0.0
 71
     7
 72
     1
  1
\C2;Fräser ø\C2;24
  7
CONVERTER_11
 11
0.6139898017072942
 21
0.7893139574335662
 31
0.0
 73
     1
 44
0.60024009603842
  0
ENDBLK
  5
21E
330
218
100
AcDbEntity
  8
0
100
AcDbBlockEnd
  0
ENDSEC
  0
SECTION
  2
ENTITIES
  0
POINT
  5
32
330
1F
100
AcDbEntity
  8
1
 62
     3
 60
     1
100
AcDbPoint
 10
-196.91485230427
 20
-74.11464852898894
 30
0.0
  0
POINT
  5
33
330
1F
100
AcDbEntity
  8
1
 62
     3
 60
     1
100
AcDbPoint
 10
-184.9148523042701
 20
-86.11464852898895
 30
0.0
  0
POINT
  5
34
330
1F
100
AcDbEntity
  8
1
 62
     3
 60
     1
100
AcDbPoint
 10
-168.9148523042698
 20
-74.11464852898894
 30
0.0
  0
POINT
  5
35
330
1F
100
AcDbEntity
  8
1
 62
     3
 60
     1
100
AcDbPoint
 10
-180.91485230427
 20
-86.11464852898895
 30
0.0
  0
POINT
  5
36
330
1F
100
AcDbEntity
  8
1
 62
     3
 60
     1
100
AcDbPoint
 10
-184.9148523042699
 20
44.88535147101105
 30
0.0
  0
POINT
  5
37
330
1F
100
AcDbEntity
  8
1
 62
     3
 60
     1
100
AcDbPoint
 10
-196.91485230427
 20
32.88535147101105
 30
0.0
  0
POINT
  5
38
330
1F
100
AcDbEntity
  8
1
 62
     3
 60
     1
100
AcDbPoint
 10
-180.9148523042697
 20
44.88535147101105
 30
0.0
  0
POINT
  5
39
330
1F
100
AcDbEntity
  8
1
 62
     3
 60
     1
100
AcDbPoint
 10
-168.9148523042697
 20
32.88535147101105
 30
0.0
  0
POINT
  5
3A
330
1F
100
AcDbEntity
  8
1
 62
     3
 60
     1
100
AcDbPoint
 10
-154.279696207698
 20
-20.61464852898895
 30
0.0
  0
POINT
  5
3B
330
1F
100
AcDbEntity
  8
1
 62
     3
 60
     1
100
AcDbPoint
 10
-175.4148523042699
 20
48.38535147101105
 30
0.0
  0
POINT
  5
3C
330
1F
100
AcDbEntity
  8
1
 62
     3
 60
     1
100
AcDbPoint
 10
142.9068397520139
 20
32.13535147101108
 30
0.0
  0
POINT
  5
3D
330
1F
100
AcDbEntity
  8
1
 62
     3
 60
     1
100
AcDbPoint
 10
154.9068397520139
 20
44.88535147101107
 30
0.0
  0
POINT
  5
3E
330
1F
100
AcDbEntity
  8
1
 62
     3
 60
     1
100
AcDbPoint
 10
158.9068397520139
 20
44.88535147101107
 30
0.0
  0
POINT
  5
3F
330
1F
100
AcDbEntity
  8
1
 62
     3
 60
     1
100
AcDbPoint
 10
170.9068397520139
 20
32.13535147101108
 30
0.0
  0
POINT
  5
40
330
1F
100
AcDbEntity
  8
1
 62
     3
 60
     1
100
AcDbPoint
 10
155.138165479521
 20
-86.11464852898919
 30
0.0
  0
POINT
  5
41
330
1F
100
AcDbEntity
  8
1
 62
     3
 60
     1
100
AcDbPoint
 10
142.9068397520139
 20
-74.11464852898919
 30
0.0
  0
POINT
  5
42
330
1F
100
AcDbEntity
  8
1
 62
     3
 60
     1
100
AcDbPoint
 10
170.9068397520138
 20
-74.11464852898919
 30
0.0
  0
POINT
  5
43
330
1F
100
AcDbEntity
  8
1
 62
     3
 60
     1
100
AcDbPoint
 10
158.6755140245067
 20
-86.11464852898919
 30
0.0
  0
LINE
  5
44
330
1F
100
AcDbEntity
  8
1
  6
DOT_CENTER
 62
     2
100
AcDbLine
 10
-182.91485230427
 20
26.44184572170184
 30
0.0
 11
-182.91485230427
 21
-115.2569032480472
 31
0.0
  0
LINE
  5
45
330
1F
100
AcDbEntity
  8
1
  6
DOT_CENTER
 62
     2
100
AcDbLine
 10
147.1568397520139
 20
-89.61464852898895
 30
0.0
 11
151.6568397520139
 21
-89.61464852898895
 31
0.0
  0
LINE
  5
46
330
1F
100
AcDbEntity
  8
1
  6
DOT_CENTER
 62
     2
100
AcDbLine
 10
162.1568397520139
 20
-89.61464852898895
 30
0.0
 11
166.6568397520139
 21
-89.61464852898895
 31
0.0
  0
LINE
  5
47
330
1F
100
AcDbEntity
  8
1
  6
DOT_CENTER
 62
     2
100
AcDbLine
 10
164.4068397520139
 20
-91.86464852898901
 30
0.0
 11
164.4068397520139
 21
-87.36464852898895
 31
0.0
  0
LINE
  5
48
330
1F
100
AcDbEntity
  8
1
  6
DOT_CENTER
 62
     2
100
AcDbLine
 10
151.6568397520139
 20
48.38535147101105
 30
0.0
 11
147.1568397520139
 21
48.38535147101105
 31
0.0
  0
LINE
  5
49
330
1F
100
AcDbEntity
  8
1
  6
DOT_CENTER
 62
     2
100
AcDbLine
 10
149.4068397520139
 20
50.63535147101105
 30
0.0
 11
149.4068397520139
 21
46.13535147101105
 31
0.0
  0
LINE
  5
4A
330
1F
100
AcDbEntity
  8
1
  6
DOT_CENTER
 62
     2
100
AcDbLine
 10
164.4068397520139
 20
46.13535147101105
 30
0.0
 11
164.4068397520139
 21
50.63535147101105
 31
0.0
  0
LINE
  5
4B
330
1F
100
AcDbEntity
  8
1
  6
DOT_CENTER
 62
     2
100
AcDbLine
 10
166.6568397520139
 20
48.38535147101105
 30
0.0
 11
162.1568397520139
 21
48.38535147101105
 31
0.0
  0
LINE
  5
4C
330
1F
100
AcDbEntity
  8
1
  6
Continuous
 62
     7
100
AcDbLine
 10
61.19350625828599
 20
-100.614648528989
 30
0.0
 11
61.19350625828599
 21
-57.61464852898895
 31
0.0
  0
LINE
  5
4D
330
1F
100
AcDbEntity
  8
1
  6
DOT_CENTER
 62
     2
100
AcDbLine
 10
106.193506258286
 20
-120.614648528989
 30
0.0
 11
106.193506258286
 21
-57.61464852898895
 31
0.0
  0
LINE
  5
4E
330
1F
100
AcDbEntity
  8
1
  6
Continuous
 62
     7
100
AcDbLine
 10
95.19350625828599
 20
-86.11464852898916
 30
0.0
 11
95.19350625828599
 21
-57.61464852898896
 31
0.0
  0
LINE
  5
4F
330
1F
100
AcDbEntity
  8
1
  6
Continuous
 62
     7
100
AcDbLine
 10
61.19350625828599
 20
-57.61464852898895
 30
0.0
 11
61.19350625828599
 21
16.38535147101105
 31
0.0
  0
LINE
  5
50
330
1F
100
AcDbEntity
  8
1
  6
DOT_CENTER
 62
     2
100
AcDbLine
 10
106.193506258286
 20
-57.61464852898895
 30
0.0
 11
106.193506258286
 21
16.38535147101105
 31
0.0
  0
LINE
  5
51
330
1F
100
AcDbEntity
  8
1
  6
Continuous
 62
     7
100
AcDbLine
 10
95.19350625828599
 20
-57.61464852898896
 30
0.0
 11
95.193506258286
 21
16.38535147101105
 31
0.0
  0
LINE
  5
52
330
1F
100
AcDbEntity
  8
1
  6
Continuous
 62
     7
100
AcDbLine
 10
134.9068397520139
 20
79.3853514710111
 30
0.0
 11
134.9068397520139
 21
16.38535147101106
 31
0.0
  0
LINE
  5
53
330
1F
100
AcDbEntity
  8
1
  6
Continuous
 62
     7
100
AcDbLine
 10
142.9068397520139
 20
-57.61464852898895
 30
0.0
 11
142.9068397520139
 21
16.38535147101105
 31
0.0
  0
LINE
  5
54
330
1F
100
AcDbEntity
  8
1
  6
Continuous
 62
     7
100
AcDbLine
 10
174.9068397520139
 20
79.3853514710111
 30
0.0
 11
174.9068397520139
 21
16.38535147101106
 31
0.0
  0
LINE
  5
55
330
1F
100
AcDbEntity
  8
1
  6
Continuous
 62
     7
100
AcDbLine
 10
170.9068397520139
 20
-57.61464852898895
 30
0.0
 11
170.9068397520139
 21
16.38535147101105
 31
0.0
  0
LINE
  5
56
330
1F
100
AcDbEntity
  8
1
  6
Continuous
 62
     7
100
AcDbLine
 10
2.83123967983047
 20
-88.68918859156331
 30
0.0
 11
2.83123967983065
 21
-60.68918859156356
 31
0.0
  0
LINE
  5
57
330
1F
100
AcDbEntity
  8
1
  6
PHANTOM
 62
     2
100
AcDbLine
 10
46.83123967983067
 20
-94.46491919866698
 30
0.0
 11
46.83123967983067
 21
-92.68918859156351
 31
0.0
  0
LINE
  5
58
330
1F
100
AcDbEntity
  8
1
  6
PHANTOM
 62
     2
100
AcDbLine
 10
46.83123967983067
 20
-52.68918859156351
 30
0.0
 11
46.83123967983067
 21
-50.68471859187277
 31
0.0
  0
LINE
  5
59
330
1F
100
AcDbEntity
  8
1
  6
Continuous
 62
     7
100
AcDbLine
 10
2.8312396798307
 20
-52.68918859156351
 30
0.0
 11
46.83123967983067
 21
-52.68918859156351
 31
0.0
  0
LINE
  5
5A
330
1F
100
AcDbEntity
  8
1
  6
Continuous
 62
     7
100
AcDbLine
 10
2.83123967983065
 20
-60.68918859156356
 30
0.0
 11
2.8312396798307
 21
-52.68918859156351
 31
0.0
  0
LINE
  5
5B
330
1F
100
AcDbEntity
  8
1
  6
Continuous
 62
     7
100
AcDbLine
 10
36.83123967983065
 20
-60.68918859156366
 30
0.0
 11
12.83123967983068
 21
-60.68918859156356
 31
0.0
  0
LINE
  5
5C
330
1F
100
AcDbEntity
  8
1
  6
Continuous
 62
     7
100
AcDbLine
 10
36.83123967983048
 20
-88.68918859156352
 30
0.0
 11
36.83123967983065
 21
-60.68918859156366
 31
0.0
  0
LINE
  5
5D
330
1F
100
AcDbEntity
  8
1
  6
Continuous
 62
     7
100
AcDbLine
 10
2.83123967983047
 20
-88.68918859156331
 30
0.0
 11
12.83123967983047
 21
-88.68918859156332
 31
0.0
  0
LINE
  5
5E
330
1F
100
AcDbEntity
  8
1
  6
Continuous
 62
     7
100
AcDbLine
 10
2.83123967983047
 20
-92.68918859156351
 30
0.0
 11
2.83123967983047
 21
-88.68918859156331
 31
0.0
  0
LINE
  5
5F
330
1F
100
AcDbEntity
  8
1
  6
PHANTOM
 62
     2
100
AcDbLine
 10
46.83123967983067
 20
-92.68918859156351
 30
0.0
 11
46.83123967983067
 21
-52.68918859156351
 31
0.0
  0
LINE
  5
60
330
1F
100
AcDbEntity
  8
1
  6
Continuous
 62
     7
100
AcDbLine
 10
46.83123967983067
 20
-92.68918859156351
 30
0.0
 11
2.83123967983047
 21
-92.68918859156351
 31
0.0
  0
LINE
  5
61
330
1F
100
AcDbEntity
  8
1
  6
DOT_CENTER
 62
     2
100
AcDbLine
 10
174.9068397520139
 20
79.3853514710111
 30
0.0
 11
177.409582256969
 21
79.3853514710111
 31
0.0
  0
LINE
  5
62
330
1F
100
AcDbEntity
  8
1
  6
DOT_CENTER
 62
     2
100
AcDbLine
 10
174.9068397520139
 20
-120.614648528989
 30
0.0
 11
177.409582256969
 21
-120.614648528989
 31
0.0
  0
LINE
  5
63
330
1F
100
AcDbEntity
  8
1
  6
Continuous
 62
     7
100
AcDbLine
 10
174.9068397520139
 20
-57.61464852898894
 30
0.0
 11
174.9068397520139
 21
-120.614648528989
 31
0.0
  0
LINE
  5
64
330
1F
100
AcDbEntity
  8
1
  6
DOT_CENTER
 62
     2
100
AcDbLine
 10
134.9068397520139
 20
79.3853514710111
 30
0.0
 11
174.9068397520139
 21
79.3853514710111
 31
0.0
  0
LINE
  5
65
330
1F
100
AcDbEntity
  8
1
  6
DOT_CENTER
 62
     2
100
AcDbLine
 10
134.9068397520139
 20
-120.614648528989
 30
0.0
 11
174.9068397520139
 21
-120.614648528989
 31
0.0
  0
LINE
  5
66
330
1F
100
AcDbEntity
  8
1
  6
Continuous
 62
     7
100
AcDbLine
 10
134.9068397520139
 20
-55.61464852898895
 30
0.0
 11
134.9068397520139
 21
-120.614648528989
 31
0.0
  0
LINE
  5
67
330
1F
100
AcDbEntity
  8
1
  6
DOT_CENTER
 62
     2
100
AcDbLine
 10
132.729166577476
 20
79.3853514710111
 30
0.0
 11
134.9068397520139
 21
79.3853514710111
 31
0.0
  0
LINE
  5
68
330
1F
100
AcDbEntity
  8
1
  6
DOT_CENTER
 62
     2
100
AcDbLine
 10
132.729166577476
 20
-120.614648528989
 30
0.0
 11
134.9068397520139
 21
-120.614648528989
 31
0.0
  0
LINE
  5
69
330
1F
100
AcDbEntity
  8
1
  6
DOT_CENTER
 62
     2
100
AcDbLine
 10
132.729166577476
 20
-20.61464852898895
 30
0.0
 11
177.409582256969
 21
-20.61464852898895
 31
0.0
  0
LINE
  5
6A
330
1F
100
AcDbEntity
  8
1
  6
Continuous
 62
     7
100
AcDbLine
 10
12.83123967983068
 20
-60.68918859156356
 30
0.0
 11
12.83123967983047
 21
-88.68918859156332
 31
0.0
  0
LINE
  5
6B
330
1F
100
AcDbEntity
  8
1
  6
Continuous
 62
     7
100
AcDbLine
 10
12.83123967983068
 20
-60.68918859156356
 30
0.0
 11
2.83123967983065
 21
-60.68918859156356
 31
0.0
  0
LINE
  5
6C
330
1F
100
AcDbEntity
  8
1
  6
Continuous
 62
     7
100
AcDbLine
 10
12.83123967983047
 20
-88.68918859156332
 30
0.0
 11
36.83123967983048
 21
-88.68918859156352
 31
0.0
  0
LINE
  5
6D
330
1F
100
AcDbEntity
  8
1
  6
DOT_CENTER
 62
     2
100
AcDbLine
 10
101.193506258286
 20
79.3853514710111
 30
0.0
 11
109.3326686703517
 21
79.3853514710111
 31
0.0
  0
LINE
  5
6E
330
1F
100
AcDbEntity
  8
1
  6
DOT_CENTER
 62
     2
100
AcDbLine
 10
61.19350625828599
 20
79.3853514710111
 30
0.0
 11
106.193506258286
 21
79.3853514710111
 31
0.0
  0
LINE
  5
6F
330
1F
100
AcDbEntity
  8
1
  6
DOT_CENTER
 62
     2
100
AcDbLine
 10
58.51079731573259
 20
79.3853514710111
 30
0.0
 11
61.19350625828599
 21
79.3853514710111
 31
0.0
  0
LINE
  5
70
330
1F
100
AcDbEntity
  8
1
  6
DOT_CENTER
 62
     2
100
AcDbLine
 10
101.193506258286
 20
-120.614648528989
 30
0.0
 11
109.3326686703517
 21
-120.614648528989
 31
0.0
  0
LINE
  5
71
330
1F
100
AcDbEntity
  8
1
  6
DOT_CENTER
 62
     2
100
AcDbLine
 10
61.19350625828599
 20
-120.614648528989
 30
0.0
 11
106.193506258286
 21
-120.614648528989
 31
0.0
  0
LINE
  5
72
330
1F
100
AcDbEntity
  8
1
  6
DOT_CENTER
 62
     2
100
AcDbLine
 10
58.51079731573259
 20
-120.614648528989
 30
0.0
 11
61.19350625828599
 21
-120.614648528989
 31
0.0
  0
LINE
  5
73
330
1F
100
AcDbEntity
  8
1
  6
Continuous
 62
     7
100
AcDbLine
 10
61.19350625828599
 20
59.38535147101106
 30
0.0
 11
61.19350625828599
 21
79.3853514710111
 31
0.0
  0
LINE
  5
74
330
1F
100
AcDbEntity
  8
1
  6
Continuous
 62
     7
100
AcDbLine
 10
71.19350625828599
 20
59.38535147101106
 30
0.0
 11
61.19350625828599
 21
59.38535147101106
 31
0.0
  0
LINE
  5
75
330
1F
100
AcDbEntity
  8
1
  6
Continuous
 62
     7
100
AcDbLine
 10
61.19350625828599
 20
16.38535147101105
 30
0.0
 11
61.19350625828599
 21
59.38535147101106
 31
0.0
  0
LINE
  5
76
330
1F
100
AcDbEntity
  8
1
  6
Continuous
 62
     7
100
AcDbLine
 10
71.19350625828599
 20
44.88535147101107
 30
0.0
 11
71.19350625828599
 21
59.38535147101106
 31
0.0
  0
LINE
  5
77
330
1F
100
AcDbEntity
  8
1
  6
Continuous
 62
     7
100
AcDbLine
 10
95.193506258286
 20
44.88535147101107
 30
0.0
 11
71.19350625828599
 21
44.88535147101107
 31
0.0
  0
LINE
  5
78
330
1F
100
AcDbEntity
  8
1
  6
Continuous
 62
     7
100
AcDbLine
 10
95.193506258286
 20
16.38535147101105
 30
0.0
 11
95.193506258286
 21
44.88535147101107
 31
0.0
  0
LINE
  5
79
330
1F
100
AcDbEntity
  8
1
  6
Continuous
 62
     7
100
AcDbLine
 10
71.19350625828599
 20
-86.11464852898924
 30
0.0
 11
95.19350625828599
 21
-86.11464852898916
 31
0.0
  0
LINE
  5
7A
330
1F
100
AcDbEntity
  8
1
  6
Continuous
 62
     7
100
AcDbLine
 10
71.19350625828599
 20
-100.614648528989
 30
0.0
 11
71.19350625828599
 21
-86.11464852898924
 31
0.0
  0
LINE
  5
7B
330
1F
100
AcDbEntity
  8
1
  6
Continuous
 62
     7
100
AcDbLine
 10
61.19350625828599
 20
-100.614648528989
 30
0.0
 11
71.19350625828599
 21
-100.614648528989
 31
0.0
  0
LINE
  5
7C
330
1F
100
AcDbEntity
  8
1
  6
Continuous
 62
     7
100
AcDbLine
 10
61.19350625828599
 20
-120.614648528989
 30
0.0
 11
61.19350625828599
 21
-100.614648528989
 31
0.0
  0
LINE
  5
7D
330
1F
100
AcDbEntity
  8
1
  6
DOT_CENTER
 62
     2
100
AcDbLine
 10
106.193506258286
 20
16.38535147101105
 30
0.0
 11
106.193506258286
 21
79.3853514710111
 31
0.0
  0
LINE
  5
7E
330
1F
100
AcDbEntity
  8
1
  6
DOT_CENTER
 62
     2
100
AcDbLine
 10
106.193506258286
 20
-123.727582711116
 30
0.0
 11
106.193506258286
 21
-120.614648528989
 31
0.0
  0
LINE
  5
7F
330
1F
100
AcDbEntity
  8
1
  6
DOT_CENTER
 62
     2
100
AcDbLine
 10
106.193506258286
 20
81.428151340832
 30
0.0
 11
106.193506258286
 21
79.3853514710111
 31
0.0
  0
LINE
  5
80
330
1F
100
AcDbEntity
  8
1
  6
DOT_CENTER
 62
     2
100
AcDbLine
 10
58.60069006045299
 20
-20.61464852898895
 30
0.0
 11
108.152768177045
 21
-20.61464852898895
 31
0.0
  0
LINE
  5
81
330
1F
100
AcDbEntity
  8
1
  6
DOT_CENTER
 62
     2
100
AcDbLine
 10
39.28744366190571
 20
-72.68918859156351
 30
0.0
 11
1.14973931352895
 21
-72.68918859156351
 31
0.0
  0
LINE
  5
82
330
1F
100
AcDbEntity
  8
1
  6
Continuous
 62
     7
100
AcDbLine
 10
71.19350625828599
 20
32.88535147101108
 30
0.0
 11
71.19350625828599
 21
44.88535147101107
 31
0.0
  0
LINE
  5
83
330
1F
100
AcDbEntity
  8
1
  6
Continuous
 62
     7
100
AcDbLine
 10
71.19350625828599
 20
-75.1146485289892
 30
0.0
 11
71.19350625828599
 21
-86.11464852898924
 31
0.0
  0
LINE
  5
84
330
1F
100
AcDbEntity
  8
1
  6
DOT_CENTER
 62
     2
100
AcDbLine
 10
156.9068397520139
 20
-113.3289416243351
 30
0.0
 11
156.9068397520139
 21
73.0770835440912
 31
0.0
  0
LINE
  5
85
330
1F
100
AcDbEntity
  8
1
  6
Continuous
 62
     7
100
AcDbLine
 10
142.9068397520139
 20
16.38535147101105
 30
0.0
 11
142.9068397520139
 21
32.13535147101108
 31
0.0
  0
LINE
  5
86
330
1F
100
AcDbEntity
  8
1
  6
Continuous
 62
     7
100
AcDbLine
 10
170.9068397520139
 20
16.38535147101105
 30
0.0
 11
170.9068397520139
 21
44.8853514710111
 31
0.0
  0
LINE
  5
87
330
1F
100
AcDbEntity
  8
1
  6
Continuous
 62
     7
100
AcDbLine
 10
159.1279004674991
 20
-86.1146485289892
 30
0.0
 11
158.6755140245067
 21
-86.11464852898919
 31
0.0
  0
LINE
  5
88
330
1F
100
AcDbEntity
  8
1
  6
DOT_CENTER
 62
     2
100
AcDbLine
 10
149.4068397520139
 20
-91.86464852898901
 30
0.0
 11
149.4068397520139
 21
-87.36464852898895
 31
0.0
  0
LINE
  5
89
330
1F
100
AcDbEntity
  8
1
  6
DOT_CENTER
 62
     2
100
AcDbLine
 10
140.9715790336202
 20
45.38535147101105
 30
0.0
 11
173.4924687259798
 21
45.38535147101105
 31
0.0
  0
LINE
  5
8A
330
1F
100
AcDbEntity
  8
1
  6
DOT_CENTER
 62
     2
100
AcDbLine
 10
173.4924687259798
 20
-86.614648528989
 30
0.0
 11
140.9715790336202
 21
-86.614648528989
 31
0.0
  0
LINE
  5
8B
330
1F
100
AcDbEntity
  8
1
  6
Continuous
 62
     7
100
AcDbLine
 10
174.9068397520139
 20
16.38535147101106
 30
0.0
 11
174.9068397520139
 21
-57.61464852898894
 31
0.0
  0
LINE
  5
8C
330
1F
100
AcDbEntity
  8
1
  6
Continuous
 62
     7
100
AcDbLine
 10
170.9068397520139
 20
-86.614648528989
 30
0.0
 11
170.9068397520139
 21
-86.11464852898922
 31
0.0
  0
LINE
  5
8D
330
1F
100
AcDbEntity
  8
1
  6
Continuous
 62
     7
100
AcDbLine
 10
142.9068397520139
 20
-86.614648528989
 30
0.0
 11
142.9068397520139
 21
-86.11464852898916
 31
0.0
  0
LINE
  5
8E
330
1F
100
AcDbEntity
  8
1
  6
Continuous
 62
     7
100
AcDbLine
 10
134.9068397520139
 20
16.38535147101106
 30
0.0
 11
134.9068397520139
 21
-55.61464852898895
 31
0.0
  0
LINE
  5
8F
330
1F
100
AcDbEntity
  8
1
  6
DOT_CENTER
 62
     2
100
AcDbLine
 10
-198.6339311914812
 20
45.38535147101105
 30
0.0
 11
-167.2045630323088
 21
45.38535147101105
 31
0.0
  0
LINE
  5
90
330
1F
100
AcDbEntity
  8
1
  6
DOT_CENTER
 62
     2
100
AcDbLine
 10
-167.2045630323088
 20
-86.614648528989
 30
0.0
 11
-198.6339311914812
 21
-86.614648528989
 31
0.0
  0
LINE
  5
91
330
1F
100
AcDbEntity
  8
1
  6
DOT_CENTER
 62
     2
100
AcDbLine
 10
-190.4148523042701
 20
-91.86464852898895
 30
0.0
 11
-190.4148523042701
 21
-87.36464852898895
 31
0.0
  0
LINE
  5
92
330
1F
100
AcDbEntity
  8
1
  6
DOT_CENTER
 62
     2
100
AcDbLine
 10
-188.1648523042701
 20
-89.61464852898895
 30
0.0
 11
-192.6648523042701
 21
-89.61464852898895
 31
0.0
  0
LINE
  5
93
330
1F
100
AcDbEntity
  8
1
  6
DOT_CENTER
 62
     2
100
AcDbLine
 10
-173.41485230427
 20
-91.86464852898895
 30
0.0
 11
-173.41485230427
 21
-87.36464852898895
 31
0.0
  0
LINE
  5
94
330
1F
100
AcDbEntity
  8
1
  6
DOT_CENTER
 62
     2
100
AcDbLine
 10
-173.1648523042699
 20
-89.61464852898895
 30
0.0
 11
-175.66485230427
 21
-89.61464852898895
 31
0.0
  0
LINE
  5
95
330
1F
100
AcDbEntity
  8
1
  6
Continuous
 62
     7
100
AcDbLine
 10
-200.91485230427
 20
-55.61464852898895
 30
0.0
 11
-200.91485230427
 21
-120.614648528989
 31
0.0
  0
LINE
  5
96
330
1F
100
AcDbEntity
  8
1
  6
Continuous
 62
     7
100
AcDbLine
 10
-196.91485230427
 20
-55.61464852898895
 30
0.0
 11
-196.91485230427
 21
-74.11464852898894
 31
0.0
  0
LINE
  5
97
330
1F
100
AcDbEntity
  8
1
  6
Continuous
 62
     7
100
AcDbLine
 10
-168.91485230427
 20
-55.61464852898901
 30
0.0
 11
-168.9148523042698
 21
-74.11464852898894
 31
0.0
  0
LINE
  5
98
330
1F
100
AcDbEntity
  8
1
  6
Continuous
 62
     7
100
AcDbLine
 10
-158.91485230427
 20
-57.61464852898895
 30
0.0
 11
-158.91485230427
 21
-120.614648528989
 31
0.0
  0
LINE
  5
99
330
1F
100
AcDbEntity
  8
1
  6
Continuous
 62
     7
100
AcDbLine
 10
-111.3573326447174
 20
-55.61464852898895
 30
0.0
 11
-111.3573326447174
 21
-120.614648528989
 31
0.0
  0
LINE
  5
9A
330
1F
100
AcDbEntity
  8
1
  6
Continuous
 62
     7
100
AcDbLine
 10
-99.85733264471742
 20
-55.61464852898895
 30
0.0
 11
-99.85733264471742
 21
-86.11464852898922
 31
0.0
  0
LINE
  5
9B
330
1F
100
AcDbEntity
  8
1
  6
Continuous
 62
     7
100
AcDbLine
 10
-68.35733264471742
 20
-55.61464852898895
 30
0.0
 11
-68.35733264471742
 21
-100.614648528989
 31
0.0
  0
LINE
  5
9C
330
1F
100
AcDbEntity
  8
1
  6
Continuous
 62
     7
100
AcDbLine
 10
-55.35733264471736
 20
-55.61464852898895
 30
0.0
 11
-55.35733264471735
 21
16.38535147101105
 31
0.0
  0
LINE
  5
9D
330
1F
100
AcDbEntity
  8
1
  6
Continuous
 62
     7
100
AcDbLine
 10
-55.35733264471735
 20
16.38535147101105
 30
0.0
 11
-55.35733264471736
 21
79.385351471011
 31
0.0
  0
LINE
  5
9E
330
1F
100
AcDbEntity
  8
1
  6
Continuous
 62
     7
100
AcDbLine
 10
-68.35733264471742
 20
16.38535147101105
 30
0.0
 11
-68.35733264471742
 21
-55.61464852898895
 31
0.0
  0
LINE
  5
9F
330
1F
100
AcDbEntity
  8
1
  6
Continuous
 62
     7
100
AcDbLine
 10
-99.85733264471742
 20
16.38535147101105
 30
0.0
 11
-99.85733264471742
 21
-55.61464852898895
 31
0.0
  0
LINE
  5
A0
330
1F
100
AcDbEntity
  8
1
  6
Continuous
 62
     7
100
AcDbLine
 10
-111.3573326447174
 20
16.38535147101105
 30
0.0
 11
-111.3573326447174
 21
-55.61464852898895
 31
0.0
  0
LINE
  5
A1
330
1F
100
AcDbEntity
  8
1
  6
Continuous
 62
     7
100
AcDbLine
 10
-158.91485230427
 20
16.38535147101104
 30
0.0
 11
-158.91485230427
 21
-57.61464852898895
 31
0.0
  0
LINE
  5
A2
330
1F
100
AcDbEntity
  8
1
  6
Continuous
 62
     7
100
AcDbLine
 10
-168.9148523042697
 20
16.38535147101105
 30
0.0
 11
-168.9148523042697
 21
-20.61464852898895
 31
0.0
  0
LINE
  5
A3
330
1F
100
AcDbEntity
  8
1
  6
Continuous
 62
     7
100
AcDbLine
 10
-196.91485230427
 20
16.38535147101105
 30
0.0
 11
-196.91485230427
 21
-20.61464852898895
 31
0.0
  0
LINE
  5
A4
330
1F
100
AcDbEntity
  8
1
  6
Continuous
 62
     7
100
AcDbLine
 10
-200.91485230427
 20
16.38535147101105
 30
0.0
 11
-200.91485230427
 21
-55.61464852898895
 31
0.0
  0
LINE
  5
A5
330
1F
100
AcDbEntity
  8
1
  6
DOT_CENTER
 62
     2
100
AcDbLine
 10
0.80832898479886
 20
-72.68918859156351
 30
0.0
 11
-34.43358211204212
 21
-72.68918859156351
 31
0.0
  0
LINE
  5
A6
330
1F
100
AcDbEntity
  8
1
  6
Continuous
 62
     7
100
AcDbLine
 10
-78.35733264471742
 20
44.88535147101106
 30
0.0
 11
-78.35733264471742
 21
32.88535147101105
 31
0.0
  0
LINE
  5
A7
330
1F
100
AcDbEntity
  8
1
  6
Continuous
 62
     7
100
AcDbLine
 10
-78.35733264471742
 20
-86.1146485289892
 30
0.0
 11
-78.35733264471742
 21
-74.1146485289892
 31
0.0
  0
LINE
  5
A8
330
1F
100
AcDbEntity
  8
1
  6
Continuous
 62
     7
100
AcDbLine
 10
-168.9148523042697
 20
-20.61464852898895
 30
0.0
 11
-168.91485230427
 21
-55.61464852898901
 31
0.0
  0
LINE
  5
A9
330
1F
100
AcDbEntity
  8
1
  6
Continuous
 62
     7
100
AcDbLine
 10
-10.66876032016936
 20
-60.6891885915635
 30
0.0
 11
-0.66876032016924
 21
-60.68918859156351
 31
0.0
  0
LINE
  5
AA
330
1F
100
AcDbEntity
  8
1
  6
Continuous
 62
     7
100
AcDbLine
 10
-10.66876032016924
 20
-88.68918859156351
 30
0.0
 11
-32.16876032016921
 21
-88.68918859156351
 31
0.0
  0
LINE
  5
AB
330
1F
100
AcDbEntity
  8
1
  6
Continuous
 62
     7
100
AcDbLine
 10
-10.66876032016924
 20
-88.68918859156351
 30
0.0
 11
-10.66876032016936
 21
-60.6891885915635
 31
0.0
  0
LINE
  5
AC
330
1F
100
AcDbEntity
  8
1
  6
Continuous
 62
     7
100
AcDbLine
 10
-68.35733264471742
 20
-100.614648528989
 30
0.0
 11
-68.35733264471742
 21
-120.614648528989
 31
0.0
  0
LINE
  5
AD
330
1F
100
AcDbEntity
  8
1
  6
Continuous
 62
     7
100
AcDbLine
 10
-78.35733264471742
 20
-100.614648528989
 30
0.0
 11
-68.35733264471742
 21
-100.614648528989
 31
0.0
  0
LINE
  5
AE
330
1F
100
AcDbEntity
  8
1
  6
Continuous
 62
     7
100
AcDbLine
 10
-78.35733264471742
 20
-86.1146485289892
 30
0.0
 11
-78.35733264471742
 21
-100.614648528989
 31
0.0
  0
LINE
  5
AF
330
1F
100
AcDbEntity
  8
1
  6
Continuous
 62
     7
100
AcDbLine
 10
-99.85733264471742
 20
-86.11464852898922
 30
0.0
 11
-78.35733264471742
 21
-86.1146485289892
 31
0.0
  0
LINE
  5
B0
330
1F
100
AcDbEntity
  8
1
  6
Continuous
 62
     7
100
AcDbLine
 10
-99.85733264471742
 20
44.88535147101108
 30
0.0
 11
-99.85733264471742
 21
16.38535147101105
 31
0.0
  0
LINE
  5
B1
330
1F
100
AcDbEntity
  8
1
  6
Continuous
 62
     7
100
AcDbLine
 10
-78.35733264471742
 20
44.88535147101106
 30
0.0
 11
-99.85733264471742
 21
44.88535147101108
 31
0.0
  0
LINE
  5
B2
330
1F
100
AcDbEntity
  8
1
  6
Continuous
 62
     7
100
AcDbLine
 10
-78.35733264471742
 20
59.38535147101105
 30
0.0
 11
-78.35733264471742
 21
44.88535147101106
 31
0.0
  0
LINE
  5
B3
330
1F
100
AcDbEntity
  8
1
  6
Continuous
 62
     7
100
AcDbLine
 10
-68.35733264471742
 20
59.38535147101106
 30
0.0
 11
-68.35733264471742
 21
16.38535147101105
 31
0.0
  0
LINE
  5
B4
330
1F
100
AcDbEntity
  8
1
  6
Continuous
 62
     7
100
AcDbLine
 10
-68.35733264471742
 20
59.38535147101106
 30
0.0
 11
-78.35733264471742
 21
59.38535147101105
 31
0.0
  0
LINE
  5
B5
330
1F
100
AcDbEntity
  8
1
  6
DOT_CENTER
 62
     2
100
AcDbLine
 10
-68.35733264471742
 20
-120.614648528989
 30
0.0
 11
-55.35733264471736
 21
-120.614648528989
 31
0.0
  0
LINE
  5
B6
330
1F
100
AcDbEntity
  8
1
  6
DOT_CENTER
 62
     2
100
AcDbLine
 10
-68.35733264471742
 20
79.385351471011
 30
0.0
 11
-55.35733264471736
 21
79.385351471011
 31
0.0
  0
LINE
  5
B7
330
1F
100
AcDbEntity
  8
1
  6
Continuous
 62
     7
100
AcDbLine
 10
-68.35733264471742
 20
79.385351471011
 30
0.0
 11
-68.35733264471742
 21
59.38535147101106
 31
0.0
  0
LINE
  5
B8
330
1F
100
AcDbEntity
  8
1
  6
DOT_CENTER
 62
     2
100
AcDbLine
 10
-55.35733264471736
 20
-120.614648528989
 30
0.0
 11
-50.84744871881924
 21
-120.614648528989
 31
0.0
  0
LINE
  5
B9
330
1F
100
AcDbEntity
  8
1
  6
DOT_CENTER
 62
     2
100
AcDbLine
 10
-55.35733264471736
 20
79.385351471011
 30
0.0
 11
-50.84744871881924
 21
79.385351471011
 31
0.0
  0
LINE
  5
BA
330
1F
100
AcDbEntity
  8
1
  6
Continuous
 62
     7
100
AcDbLine
 10
-55.35733264471736
 20
-120.614648528989
 30
0.0
 11
-55.35733264471736
 21
-55.61464852898895
 31
0.0
  0
LINE
  5
BB
330
1F
100
AcDbEntity
  8
1
  6
DOT_CENTER
 62
     2
100
AcDbLine
 10
-111.3573326447174
 20
-120.614648528989
 30
0.0
 11
-68.35733264471742
 21
-120.614648528989
 31
0.0
  0
LINE
  5
BC
330
1F
100
AcDbEntity
  8
1
  6
DOT_CENTER
 62
     2
100
AcDbLine
 10
-111.3573326447174
 20
79.385351471011
 30
0.0
 11
-68.35733264471742
 21
79.385351471011
 31
0.0
  0
LINE
  5
BD
330
1F
100
AcDbEntity
  8
1
  6
Continuous
 62
     7
100
AcDbLine
 10
-111.3573326447174
 20
79.385351471011
 30
0.0
 11
-111.3573326447174
 21
16.38535147101105
 31
0.0
  0
LINE
  5
BE
330
1F
100
AcDbEntity
  8
1
  6
DOT_CENTER
 62
     2
100
AcDbLine
 10
-114.119084989988
 20
-120.614648528989
 30
0.0
 11
-111.3573326447174
 21
-120.614648528989
 31
0.0
  0
LINE
  5
BF
330
1F
100
AcDbEntity
  8
1
  6
DOT_CENTER
 62
     2
100
AcDbLine
 10
-114.119084989988
 20
-20.61464852898895
 30
0.0
 11
-50.84744871881924
 21
-20.61464852898895
 31
0.0
  0
LINE
  5
C0
330
1F
100
AcDbEntity
  8
1
  6
DOT_CENTER
 62
     2
100
AcDbLine
 10
-114.119084989988
 20
79.385351471011
 30
0.0
 11
-111.3573326447174
 21
79.385351471011
 31
0.0
  0
LINE
  5
C1
330
1F
100
AcDbEntity
  8
1
  6
DOT_CENTER
 62
     2
100
AcDbLine
 10
-158.91485230427
 20
-120.614648528989
 30
0.0
 11
-138.349335539947
 21
-120.614648528989
 31
0.0
  0
LINE
  5
C2
330
1F
100
AcDbEntity
  8
1
  6
DOT_CENTER
 62
     2
100
AcDbLine
 10
-158.91485230427
 20
79.385351471011
 30
0.0
 11
-138.349335539947
 21
79.385351471011
 31
0.0
  0
LINE
  5
C3
330
1F
100
AcDbEntity
  8
1
  6
Continuous
 62
     7
100
AcDbLine
 10
-158.91485230427
 20
79.385351471011
 30
0.0
 11
-158.91485230427
 21
16.38535147101104
 31
0.0
  0
LINE
  5
C4
330
1F
100
AcDbEntity
  8
1
  6
DOT_CENTER
 62
     2
100
AcDbLine
 10
-200.91485230427
 20
-120.614648528989
 30
0.0
 11
-158.91485230427
 21
-120.614648528989
 31
0.0
  0
LINE
  5
C5
330
1F
100
AcDbEntity
  8
1
  6
DOT_CENTER
 62
     2
100
AcDbLine
 10
-200.91485230427
 20
79.385351471011
 30
0.0
 11
-158.91485230427
 21
79.385351471011
 31
0.0
  0
LINE
  5
C6
330
1F
100
AcDbEntity
  8
1
  6
Continuous
 62
     7
100
AcDbLine
 10
-200.91485230427
 20
79.385351471011
 30
0.0
 11
-200.91485230427
 21
16.38535147101105
 31
0.0
  0
LINE
  5
C7
330
1F
100
AcDbEntity
  8
1
  6
DOT_CENTER
 62
     2
100
AcDbLine
 10
-138.349335539947
 20
79.385351471011
 30
0.0
 11
-138.349335539947
 21
81.77063309968568
 31
0.0
  0
LINE
  5
C8
330
1F
100
AcDbEntity
  8
1
  6
DOT_CENTER
 62
     2
100
AcDbLine
 10
-138.349335539947
 20
-120.614648528989
 30
0.0
 11
-138.349335539947
 21
-123.894846638247
 31
0.0
  0
LINE
  5
C9
330
1F
100
AcDbEntity
  8
1
  6
DOT_CENTER
 62
     2
100
AcDbLine
 10
-138.349335539947
 20
-120.614648528989
 30
0.0
 11
-135.3938869162998
 21
-120.614648528989
 31
0.0
  0
LINE
  5
CA
330
1F
100
AcDbEntity
  8
1
  6
DOT_CENTER
 62
     2
100
AcDbLine
 10
-138.349335539947
 20
79.385351471011
 30
0.0
 11
-135.3938869162998
 21
79.385351471011
 31
0.0
  0
LINE
  5
CB
330
1F
100
AcDbEntity
  8
1
  6
DOT_CENTER
 62
     2
100
AcDbLine
 10
-138.349335539947
 20
79.385351471011
 30
0.0
 11
-138.349335539947
 21
-120.614648528989
 31
0.0
  0
LINE
  5
CC
330
1F
100
AcDbEntity
  8
1
  6
DOT_CENTER
 62
     2
100
AcDbLine
 10
-203.6556346287789
 20
-120.614648528989
 30
0.0
 11
-200.91485230427
 21
-120.614648528989
 31
0.0
  0
LINE
  5
CD
330
1F
100
AcDbEntity
  8
1
  6
DOT_CENTER
 62
     2
100
AcDbLine
 10
-203.6556346287789
 20
79.385351471011
 30
0.0
 11
-200.91485230427
 21
79.385351471011
 31
0.0
  0
LINE
  5
CE
330
1F
100
AcDbEntity
  8
1
  6
Continuous
 62
     7
100
AcDbLine
 10
-0.66876032016924
 20
-92.68918859156351
 30
0.0
 11
-41.66876032016923
 21
-92.68918859156351
 31
0.0
  0
LINE
  5
CF
330
1F
100
AcDbEntity
  8
1
  6
Continuous
 62
     7
100
AcDbLine
 10
-0.66876032016924
 20
-88.68918859156351
 30
0.0
 11
-0.66876032016924
 21
-92.68918859156351
 31
0.0
  0
LINE
  5
D0
330
1F
100
AcDbEntity
  8
1
  6
DOT_CENTER
 62
     2
100
AcDbLine
 10
12.33123967983078
 20
-31.12367182724053
 30
0.0
 11
-41.66876032016923
 21
-31.12367182724053
 31
0.0
  0
LINE
  5
D1
330
1F
100
AcDbEntity
  8
1
  6
Continuous
 62
     7
100
AcDbLine
 10
12.33123967983078
 20
-47.68918859156351
 30
0.0
 11
12.33123967983078
 21
-31.12367182724053
 31
0.0
  0
LINE
  5
D2
330
1F
100
AcDbEntity
  8
1
  6
Continuous
 62
     7
100
AcDbLine
 10
-0.66876032016936
 20
-47.68918859156351
 30
0.0
 11
12.33123967983078
 21
-47.68918859156351
 31
0.0
  0
LINE
  5
D3
330
1F
100
AcDbEntity
  8
1
  6
Continuous
 62
     7
100
AcDbLine
 10
-0.66876032016924
 20
-60.68918859156351
 30
0.0
 11
-0.66876032016936
 21
-47.68918859156351
 31
0.0
  0
LINE
  5
D4
330
1F
100
AcDbEntity
  8
1
  6
Continuous
 62
     7
100
AcDbLine
 10
-32.16876032016921
 20
-88.68918859156351
 30
0.0
 11
-32.16876032016924
 21
-60.68918859156351
 31
0.0
  0
LINE
  5
D5
330
1F
100
AcDbEntity
  8
1
  6
Continuous
 62
     7
100
AcDbLine
 10
-41.66876032016923
 20
-31.12367182724053
 30
0.0
 11
-41.66876032016923
 21
-92.68918859156351
 31
0.0
  0
LINE
  5
D6
330
1F
100
AcDbEntity
  8
1
  6
Continuous
 62
     7
100
AcDbLine
 10
-32.16876032016924
 20
-60.68918859156351
 30
0.0
 11
-10.66876032016936
 21
-60.6891885915635
 31
0.0
  0
LINE
  5
D7
330
1F
100
AcDbEntity
  8
1
  6
Continuous
 62
     7
100
AcDbLine
 10
-0.66876032016924
 20
-60.68918859156351
 30
0.0
 11
-0.66876032016924
 21
-88.68918859156351
 31
0.0
  0
LINE
  5
D8
330
1F
100
AcDbEntity
  8
1
  6
Continuous
 62
     7
100
AcDbLine
 10
-0.66876032016924
 20
-88.68918859156351
 30
0.0
 11
-10.66876032016924
 21
-88.68918859156351
 31
0.0
  0
LINE
  5
D9
330
1F
100
AcDbEntity
  8
1
  6
Continuous
 62
     7
100
AcDbLine
 10
0.33123967983076
 20
-49.42123939913243
 30
0.0
 11
0.33123967983076
 21
-48.68918859156351
 31
0.0
  0
LINE
  5
DA
330
1F
100
AcDbEntity
  8
1
  6
Continuous
 62
     7
100
AcDbLine
 10
1.64064075658916
 20
-51.68918859156351
 30
0.0
 11
0.33123967983076
 21
-49.42123939913243
 31
0.0
  0
LINE
  5
DB
330
1F
100
AcDbEntity
  8
1
  6
Continuous
 62
     7
100
AcDbLine
 10
10.02183860307224
 20
-51.68918859156351
 30
0.0
 11
1.64064075658916
 21
-51.68918859156351
 31
0.0
  0
LINE
  5
DC
330
1F
100
AcDbEntity
  8
1
  6
Continuous
 62
     7
100
AcDbLine
 10
11.33123967983078
 20
-49.42123939913243
 30
0.0
 11
10.02183860307224
 21
-51.68918859156351
 31
0.0
  0
LINE
  5
DD
330
1F
100
AcDbEntity
  8
1
  6
Continuous
 62
     7
100
AcDbLine
 10
11.33123967983078
 20
-48.68918859156351
 30
0.0
 11
11.33123967983078
 21
-49.42123939913243
 31
0.0
  0
LINE
  5
DE
330
1F
100
AcDbEntity
  8
1
  6
Continuous
 62
     7
100
AcDbLine
 10
0.33123967983076
 20
-48.68918859156351
 30
0.0
 11
11.33123967983078
 21
-48.68918859156351
 31
0.0
  0
LINE
  5
DF
330
1F
100
AcDbEntity
  8
1
  6
Continuous
 62
     7
100
AcDbLine
 10
12.33123967983078
 20
-49.68918859156351
 30
0.0
 11
12.33123967983078
 21
-47.68918859156351
 31
0.0
  0
LINE
  5
E0
330
1F
100
AcDbEntity
  8
1
  6
Continuous
 62
     7
100
AcDbLine
 10
10.59918887226189
 20
-52.68918859156351
 30
0.0
 11
12.33123967983078
 21
-49.68918859156351
 31
0.0
  0
LINE
  5
E1
330
1F
100
AcDbEntity
  8
1
  6
Continuous
 62
     7
100
AcDbLine
 10
1.06329048739954
 20
-52.68918859156351
 30
0.0
 11
10.59918887226189
 21
-52.68918859156351
 31
0.0
  0
LINE
  5
E2
330
1F
100
AcDbEntity
  8
1
  6
Continuous
 62
     7
100
AcDbLine
 10
-0.66876032016924
 20
-49.68918859156351
 30
0.0
 11
1.06329048739954
 21
-52.68918859156351
 31
0.0
  0
LINE
  5
E3
330
1F
100
AcDbEntity
  8
1
  6
DOT_CENTER
 62
     2
100
AcDbLine
 10
-41.66876032016923
 20
-31.12367182724053
 30
0.0
 11
-44.13702885639437
 21
-31.12367182724053
 31
0.0
  0
LINE
  5
E4
330
1F
100
AcDbEntity
  8
1
  6
DOT_CENTER
 62
     2
100
AcDbLine
 10
12.33123967983078
 20
-31.12367182724053
 30
0.0
 11
14.4310199439095
 21
-31.12367182724053
 31
0.0
  0
LINE
  5
E5
330
1F
100
AcDbEntity
  8
1
  6
Continuous
 62
     7
100
AcDbLine
 10
-196.91485230427
 20
-20.61464852898895
 30
0.0
 11
-196.91485230427
 21
-55.61464852898895
 31
0.0
  0
LINE
  5
E6
330
1F
100
AcDbEntity
  8
1
  6
Continuous
 62
     7
100
AcDbLine
 10
-184.9148523042699
 20
44.88535147101105
 30
0.0
 11
-180.9148523042697
 21
44.88535147101105
 31
0.0
  0
LINE
  5
E7
330
1F
100
AcDbEntity
  8
1
  6
Continuous
 62
     7
100
AcDbLine
 10
-184.9148523042701
 20
-86.11464852898895
 30
0.0
 11
-180.91485230427
 21
-86.11464852898895
 31
0.0
  0
LINE
  5
E8
330
1F
100
AcDbEntity
  8
1
  6
Continuous
 62
     7
100
AcDbLine
 10
-168.9148523042698
 20
45.38535147101117
 30
0.0
 11
-168.9148523042697
 21
32.88535147101105
 31
0.0
  0
LINE
  5
E9
330
1F
100
AcDbEntity
  8
1
  6
Continuous
 62
     7
100
AcDbLine
 10
-196.91485230427
 20
45.38535147101105
 30
0.0
 11
-196.91485230427
 21
32.88535147101105
 31
0.0
  0
LINE
  5
EA
330
1F
100
AcDbEntity
  8
1
  6
Continuous
 62
     7
100
AcDbLine
 10
-168.9148523042697
 20
32.88535147101105
 30
0.0
 11
-168.9148523042697
 21
16.38535147101105
 31
0.0
  0
LINE
  5
EB
330
1F
100
AcDbEntity
  8
1
  6
Continuous
 62
     7
100
AcDbLine
 10
-196.91485230427
 20
32.88535147101105
 30
0.0
 11
-196.91485230427
 21
16.38535147101105
 31
0.0
  0
LINE
  5
EC
330
1F
100
AcDbEntity
  8
1
  6
Continuous
 62
     7
100
AcDbLine
 10
-196.91485230427
 20
-74.11464852898894
 30
0.0
 11
-196.91485230427
 21
-86.614648528989
 31
0.0
  0
LINE
  5
ED
330
1F
100
AcDbEntity
  8
1
  6
Continuous
 62
     7
100
AcDbLine
 10
-168.9148523042698
 20
-74.11464852898894
 30
0.0
 11
-168.9148523042698
 21
-86.614648528989
 31
0.0
  0
LINE
  5
EE
330
1F
100
AcDbEntity
  8
1
  6
DOT_CENTER
 62
     2
100
AcDbLine
 10
-177.6648523042699
 20
48.38535147101105
 30
0.0
 11
-173.1648523042699
 21
48.38535147101105
 31
0.0
  0
LINE
  5
EF
330
1F
100
AcDbEntity
  8
1
  6
DOT_CENTER
 62
     2
100
AcDbLine
 10
-175.4148523042699
 20
46.13535147101105
 30
0.0
 11
-175.4148523042699
 21
50.63535147101105
 31
0.0
  0
LINE
  5
F0
330
1F
100
AcDbEntity
  8
1
  6
DOT_CENTER
 62
     2
100
AcDbLine
 10
-192.6648523042701
 20
48.38535147101105
 30
0.0
 11
-188.1648523042701
 21
48.38535147101105
 31
0.0
  0
LINE
  5
F1
330
1F
100
AcDbEntity
  8
1
  6
DOT_CENTER
 62
     2
100
AcDbLine
 10
-190.4148523042701
 20
46.13535147101105
 30
0.0
 11
-190.4148523042701
 21
50.63535147101105
 31
0.0
  0
LINE
  5
F2
330
1F
100
AcDbEntity
  8
1
  6
DOT_CENTER
 62
     2
100
AcDbLine
 10
-182.91485230427
 20
61.85581896158374
 30
0.0
 11
-182.91485230427
 21
37.83852806366555
 31
0.0
  0
LINE
  5
F3
330
1F
100
AcDbEntity
  8
1
  6
DOT_CENTER
 62
     2
100
AcDbLine
 10
-203.657794284912
 20
-20.61464852898895
 30
0.0
 11
-154.279696207698
 21
-20.61464852898895
 31
0.0
  0
LINE
  5
F4
330
1F
100
AcDbEntity
  8
1
  6
DOT_CENTER
 62
     2
100
AcDbLine
 10
-144.324895871924
 20
-20.61464852898895
 30
0.0
 11
-135.3938869162998
 21
-20.61464852898895
 31
0.0
  0
LINE
  5
F5
330
1F
100
AcDbEntity
  8
1
  6
Continuous
 62
     7
100
AcDbLine
 10
170.9068397520139
 20
44.8853514710111
 30
0.0
 11
170.9068397520139
 21
45.38535147101105
 31
0.0
  0
LINE
  5
F6
330
1F
100
AcDbEntity
  8
1
  6
Continuous
 62
     7
100
AcDbLine
 10
142.9068397520139
 20
32.13535147101108
 30
0.0
 11
142.9068397520139
 21
45.38535147101105
 31
0.0
  0
LINE
  5
F7
330
1F
100
AcDbEntity
  8
1
  6
Continuous
 62
     7
100
AcDbLine
 10
154.9068397520139
 20
44.88535147101107
 30
0.0
 11
158.9068397520139
 21
44.88535147101107
 31
0.0
  0
LINE
  5
F8
330
1F
100
AcDbEntity
  8
1
  6
Continuous
 62
     7
100
AcDbLine
 10
170.9068397520139
 20
-86.11464852898922
 30
0.0
 11
170.9068397520139
 21
-57.61464852898895
 31
0.0
  0
LINE
  5
F9
330
1F
100
AcDbEntity
  8
1
  6
Continuous
 62
     7
100
AcDbLine
 10
142.9068397520139
 20
-86.11464852898916
 30
0.0
 11
142.9068397520139
 21
-74.11464852898919
 31
0.0
  0
LINE
  5
FA
330
1F
100
AcDbEntity
  8
1
  6
Continuous
 62
     7
100
AcDbLine
 10
142.9068397520139
 20
-74.11464852898919
 30
0.0
 11
142.9068397520139
 21
-57.61464852898895
 31
0.0
  0
LINE
  5
FB
330
1F
100
AcDbEntity
  8
1
  6
Continuous
 62
     7
100
AcDbLine
 10
158.6755140245067
 20
-86.11464852898919
 30
0.0
 11
155.138165479521
 21
-86.11464852898919
 31
0.0
  0
ARC
  5
FC
330
1F
100
AcDbEntity
  8
1
  6
Continuous
 62
     7
100
AcDbCircle
 10
-184.9148523042701
 20
-74.11464852898895
 30
0.0
 40
11.99999999999989
100
AcDbArc
 50
179.9999999999999
 51
-90.0
  0
ARC
  5
FD
330
1F
100
AcDbEntity
  8
1
  6
Continuous
 62
     7
100
AcDbCircle
 10
-180.91485230427
 20
-74.11464852898895
 30
0.0
 40
12.0
100
AcDbArc
 50
-90.0
 51
0.00000000000007
  0
ARC
  5
FE
330
1F
100
AcDbEntity
  8
1
  6
Continuous
 62
     7
100
AcDbCircle
 10
-184.9148523042699
 20
32.88535147101105
 30
0.0
 40
12.0
100
AcDbArc
 50
90.0
 51
180.0
  0
ARC
  5
FF
330
1F
100
AcDbEntity
  8
1
  6
Continuous
 62
     7
100
AcDbCircle
 10
-180.9148523042697
 20
32.88535147101105
 30
0.0
 40
12.0
100
AcDbArc
 50
0.0
 51
90.0
  0
ARC
  5
100
330
1F
100
AcDbEntity
  8
1
  6
Continuous
 62
     7
100
AcDbCircle
 10
154.9261667259115
 20
32.84510255440159
 30
0.0
 40
12.04026442840172
100
AcDbArc
 50
90.09197094608854
 51
-176.6205617682317
  0
ARC
  5
101
330
1F
100
AcDbEntity
  8
1
  6
Continuous
 62
     7
100
AcDbCircle
 10
158.8875127781163
 20
32.84510255440159
 30
0.0
 40
12.04026442840174
100
AcDbArc
 50
-3.3794382317683
 51
89.90802905391146
  0
ARC
  5
102
330
1F
100
AcDbEntity
  8
1
  6
Continuous
 62
     7
100
AcDbCircle
 10
154.9119722580231
 20
-74.11164673259815
 30
0.0
 40
12.00513288129792
100
AcDbArc
 50
-179.9856736058103
 51
-88.92040479796951
  0
ARC
  5
103
330
1F
100
AcDbEntity
  8
1
  6
Continuous
 62
     7
100
AcDbCircle
 10
158.9017072460047
 20
-74.11164673259815
 30
0.0
 40
12.00513288129778
100
AcDbArc
 50
-88.9204047979862
 51
-0.01432639418966
  0
ARC
  5
104
330
1F
100
AcDbEntity
  8
1
  6
Continuous
 62
     7
100
AcDbCircle
 10
158.9017072460047
 20
-74.11164673259815
 30
0.0
 40
12.00513288129783
100
AcDbArc
 50
-91.07959520203089
 51
-88.9204047979862
  0
CIRCLE
  5
105
330
1F
100
AcDbEntity
  8
1
  6
Continuous
 62
     7
100
AcDbCircle
 10
149.4068397520139
 20
-89.61464852898895
 30
0.0
 40
1.5
  0
CIRCLE
  5
106
330
1F
100
AcDbEntity
  8
1
  6
Continuous
 62
     7
100
AcDbCircle
 10
164.4068397520139
 20
-89.61464852898895
 30
0.0
 40
1.5
  0
CIRCLE
  5
107
330
1F
100
AcDbEntity
  8
1
  6
Continuous
 62
     7
100
AcDbCircle
 10
149.4068397520139
 20
48.38535147101105
 30
0.0
 40
1.5
  0
CIRCLE
  5
108
330
1F
100
AcDbEntity
  8
1
  6
Continuous
 62
     7
100
AcDbCircle
 10
164.4068397520139
 20
48.38535147101105
 30
0.0
 40
1.5
  0
CIRCLE
  5
109
330
1F
100
AcDbEntity
  8
1
  6
Continuous
 62
     7
100
AcDbCircle
 10
-190.4148523042701
 20
-89.61464852898895
 30
0.0
 40
1.5
  0
CIRCLE
  5
10A
330
1F
100
AcDbEntity
  8
1
  6
Continuous
 62
     7
100
AcDbCircle
 10
-173.41485230427
 20
-89.61464852898895
 30
0.0
 40
1.5
  0
CIRCLE
  5
10B
330
1F
100
AcDbEntity
  8
1
  6
Continuous
 62
     7
100
AcDbCircle
 10
-175.4148523042699
 20
48.38535147101105
 30
0.0
 40
1.5
  0
CIRCLE
  5
10C
330
1F
100
AcDbEntity
  8
1
  6
Continuous
 62
     7
100
AcDbCircle
 10
-190.4148523042701
 20
48.38535147101105
 30
0.0
 40
1.5
  0
CIRCLE
  5
10D
330
1F
100
AcDbEntity
  8
1
  6
DOT_CENTER
 62
     2
100
AcDbCircle
 10
-180.9148523042698
 20
-84.6146485289892
 30
0.0
 40
12.0
  0
CIRCLE
  5
10E
330
1F
100
AcDbEntity
  8
1
  6
DOT_CENTER
 62
     2
100
AcDbCircle
 10
154.9068397520139
 20
-86.614648528989
 30
0.0
 40
12.0
  0
XLINE
  5
10F
330
1F
100
AcDbEntity
  8
1
  6
DOT_CENTER
 62
     3
 60
     1
100
AcDbXline
 10
-182.91485230427
 20
-55.61464852898898
 30
0.0
 11
0.0
 21
1.0
 31
0.0
  0
XLINE
  5
110
330
1F
100
AcDbEntity
  8
1
  6
DOT_CENTER
 62
     3
 60
     1
100
AcDbXline
 10
-182.91485230427
 20
-55.61464852898898
 30
0.0
 11
0.0
 21
1.0
 31
0.0
  0
XLINE
  5
111
330
1F
100
AcDbEntity
  8
1
  6
DOT_CENTER
 62
     3
 60
     1
100
AcDbXline
 10
142.9068397520139
 20
32.13535147101108
 30
0.0
 11
-1.0
 21
0.0
 31
0.0
  0
XLINE
  5
112
330
1F
100
AcDbEntity
  8
1
  6
DOT_CENTER
 62
     3
 60
     1
100
AcDbXline
 10
156.9068397520139
 20
-113.3289416243351
 30
0.0
 11
0.0
 21
1.0
 31
0.0
  0
XLINE
  5
113
330
1F
100
AcDbEntity
  8
1
  6
DOT_CENTER
 62
     3
 60
     1
100
AcDbXline
 10
170.9068397520139
 20
32.13535147101108
 30
0.0
 11
1.0
 21
0.0
 31
0.0
  0
XLINE
  5
114
330
1F
100
AcDbEntity
  8
1
  6
DOT_CENTER
 62
     3
 60
     1
100
AcDbXline
 10
156.9068397520139
 20
-113.3289416243351
 30
0.0
 11
0.0
 21
1.0
 31
0.0
  0
ARC
  5
115
330
1F
100
AcDbEntity
  8
1
  6
Continuous
 62
     7
100
AcDbCircle
 10
-182.91485230427
 20
-86.614648528989
 30
0.0
 40
14.0
100
AcDbArc
 50
180.0
 51
-89.99999999999837
  0
ARC
  5
116
330
1F
100
AcDbEntity
  8
1
  6
Continuous
 62
     7
100
AcDbCircle
 10
-182.91485230427
 20
-86.614648528989
 30
0.0
 40
14.0
100
AcDbArc
 50
-89.99999999999837
 51
0.0
  0
ARC
  5
117
330
1F
100
AcDbEntity
  8
1
  6
Continuous
 62
     7
100
AcDbCircle
 10
-182.91485230427
 20
45.38535147101105
 30
0.0
 40
14.0
100
AcDbArc
 50
89.99999999999966
 51
180.0
  0
ARC
  5
118
330
1F
100
AcDbEntity
  8
1
  6
Continuous
 62
     7
100
AcDbCircle
 10
-182.91485230427
 20
45.38535147101105
 30
0.0
 40
14.0000000000002
100
AcDbArc
 50
0.00000000000049
 51
89.99999999999966
  0
ARC
  5
119
330
1F
100
AcDbEntity
  8
1
  6
Continuous
 62
     7
100
AcDbCircle
 10
156.9068397520139
 20
-86.614648528989
 30
0.0
 40
14.0
100
AcDbArc
 50
-90.0
 51
0.0
  0
ARC
  5
11A
330
1F
100
AcDbEntity
  8
1
  6
Continuous
 62
     7
100
AcDbCircle
 10
156.9068397520139
 20
-86.614648528989
 30
0.0
 40
14.0
100
AcDbArc
 50
180.0
 51
-90.0
  0
ARC
  5
11B
330
1F
100
AcDbEntity
  8
1
  6
Continuous
 62
     7
100
AcDbCircle
 10
156.9068397520139
 20
45.38535147101105
 30
0.0
 40
14.0
100
AcDbArc
 50
90.0
 51
180.0
  0
ARC
  5
11C
330
1F
100
AcDbEntity
  8
1
  6
Continuous
 62
     7
100
AcDbCircle
 10
156.9068397520139
 20
45.38535147101105
 30
0.0
 40
14.0
100
AcDbArc
 50
0.0
 51
90.0
  0
MTEXT
  5
11E
330
1F
100
AcDbEntity
  8
1
 62
     3
100
AcDbMText
 10
32.65722620659244
 20
-145.1382832889033
 30
0.0
 40
5.0
 41
0.0
 71
     5
 72
     1
  1
Flügel
  7
CONVERTER_11
 73
     1
 44
1.20048019207683
  0
MTEXT
  5
11F
330
1F
100
AcDbEntity
  8
1
 62
     3
100
AcDbMText
 10
-43.66045484007687
 20
-156.1182392210103
 30
0.0
 40
5.0
 41
0.0
 71
     5
 72
     1
  1
Rahmen
  7
CONVERTER_11
 73
     1
 44
1.20048019207683
  0
MTEXT
  5
120
330
1F
100
AcDbEntity
  8
1
 62
     3
100
AcDbMText
 10
35.84999588852313
 20
-133.7487481199814
 30
0.0
 40
5.0
 41
0.0
 71
     5
 72
     1
  1
Fräsbild
  7
CONVERTER_11
 73
     1
 44
1.32052821128451
  0
MTEXT
  5
121
330
1F
100
AcDbEntity
  8
1
 62
     3
100
AcDbMText
 10
-60.31628452862638
 20
-139.7487481199814
 30
0.0
 40
5.0
 41
0.0
 71
     4
 72
     1
  1
Fräsbild\PBlockzarge
  7
CONVERTER_11
 73
     1
 44
1.32052821128451
  0
DIMENSION
  5
12C
330
1F
100
AcDbEntity
  8
1
100
AcDbDimension
  2
*D1
 10
-146.46006720403
 20
44.88535147101105
 30
0.0
 11
-150.21006720403
 21
-21.66142479651582
 31
0.0
 70
    32
  1
<>
 71
     5
 42
-1.0
 53
90.0
  3
ME10_DIM_10
100
AcDbAlignedDimension
 13
-180.91485230427
 23
-86.11464852898895
 33
0.0
 14
-180.9148523042697
 24
44.88535147101105
 34
0.0
 50
90.0
100
AcDbRotatedDimension
  0
DIMENSION
  5
137
330
1F
100
AcDbEntity
  8
1
100
AcDbDimension
  2
*D2
 10
-129.5328328129109
 20
48.38535147101105
 30
0.0
 11
-133.2828328129109
 21
-21.48207721537089
 31
0.0
 70
    32
  1
<>
 71
     5
 42
-1.0
 53
90.0
  3
ME10_DIM_11
100
AcDbAlignedDimension
 13
-173.1648523042699
 23
-89.61464852898895
 33
0.0
 14
-173.1648523042699
 24
48.38535147101105
 34
0.0
 50
90.0
100
AcDbRotatedDimension
  0
DIMENSION
  5
142
330
1F
100
AcDbEntity
  8
1
100
AcDbDimension
  2
*D3
 10
-68.35733264471742
 20
-141.2746447316281
 30
0.0
 11
-84.33392340609421
 21
-137.5246447316281
 31
0.0
 70
    32
  1
<>
 71
     5
 42
-1.0
 53
0.00013888888889
  3
ME10_DIM_12
100
AcDbAlignedDimension
 13
-99.85733264471742
 23
-86.11464852898922
 33
0.0
 14
-68.35733264471742
 24
-100.614648528989
 34
0.0
100
AcDbRotatedDimension
  0
DIMENSION
  5
14F
330
1F
100
AcDbEntity
  8
1
100
AcDbDimension
  2
*D4
 10
-23.17515141969547
 20
-92.68918859156351
 30
0.0
 11
-26.92515141969547
 21
-99.9268849186211
 31
0.0
 70
    32
  1
X
 71
     5
 42
-1.0
 53
90.0
  3
ME10_DIM_13
100
AcDbAlignedDimension
 13
-32.16876032016921
 23
-88.68918859156351
 33
0.0
 14
-41.66876032016923
 24
-92.68918859156351
 34
0.0
 50
90.0
100
AcDbRotatedDimension
  0
DIMENSION
  5
15A
330
1F
100
AcDbEntity
  8
1
100
AcDbDimension
  2
*D5
 10
-78.35733264471742
 20
-130.2566310837739
 30
0.0
 11
-74.28969881964929
 21
-126.5066310837739
 31
0.0
 70
    32
  1
<>
 71
     5
 42
-1.0
 53
0.00013888888889
  3
ME10_DIM_14
100
AcDbAlignedDimension
 13
-68.35733264471742
 23
-120.614648528989
 33
0.0
 14
-78.35733264471742
 24
-100.614648528989
 34
0.0
100
AcDbRotatedDimension
  0
DIMENSION
  5
165
330
1F
100
AcDbEntity
  8
1
100
AcDbDimension
  2
*D6
 10
-46.78686100436367
 20
-92.68918859156351
 30
0.0
 11
-50.53686100436367
 21
-72.37015165379738
 31
0.0
 70
    32
  1
A
 71
     5
 42
-1.0
 53
90.0
  3
ME10_DIM_15
100
AcDbAlignedDimension
 13
1.06329048739954
 23
-52.68918859156351
 33
0.0
 14
-41.66876032016923
 24
-92.68918859156351
 34
0.0
 50
90.0
100
AcDbRotatedDimension
  0
DIMENSION
  5
170
330
1F
100
AcDbEntity
  8
1
100
AcDbDimension
  2
*D7
 10
71.19350625828599
 20
-128.729476198668
 30
0.0
 11
66.6750179222762
 21
-124.979476198668
 31
0.0
 70
    32
  1
<>
 71
     5
 42
-1.0
 53
0.00013888888889
  3
ME10_DIM_16
100
AcDbAlignedDimension
 13
61.19350625828599
 23
-120.614648528989
 33
0.0
 14
71.19350625828599
 24
-100.614648528989
 34
0.0
100
AcDbRotatedDimension
  0
DIMENSION
  5
17B
330
1F
100
AcDbEntity
  8
1
100
AcDbDimension
  2
*D8
 10
61.19350625828599
 20
-138.6142090488623
 30
0.0
 11
78.24703988861025
 21
-134.8642090488623
 31
0.0
 70
    32
  1
<>
 71
     5
 42
-1.0
 53
0.00013888888889
  3
ME10_DIM_17
100
AcDbAlignedDimension
 13
95.19350625828599
 23
-86.11464852898916
 33
0.0
 14
61.19350625828599
 24
-100.614648528989
 34
0.0
100
AcDbRotatedDimension
  0
DIMENSION
  5
186
330
1F
100
AcDbEntity
  8
1
100
AcDbDimension
  2
*D9
 10
170.9068397520139
 20
-128.729476198668
 30
0.0
 11
157.8416190824701
 21
-124.979476198668
 31
0.0
 70
    32
  1
<>
 71
     5
 42
-1.0
 53
0.00013888888889
  3
ME10_DIM_18
100
AcDbAlignedDimension
 13
142.9068397520139
 23
-86.614648528989
 33
0.0
 14
170.9068397520139
 24
-86.614648528989
 34
0.0
100
AcDbRotatedDimension
  0
DIMENSION
  5
191
330
1F
100
AcDbEntity
  8
1
100
AcDbDimension
  2
*D10
 10
55.73157899085594
 20
-92.68918859156351
 30
0.0
 11
51.98157899085594
 21
-71.7730098904355
 31
0.0
 70
    32
  1
B
 71
     5
 42
-1.0
 53
90.0
  3
ME10_DIM_19
100
AcDbAlignedDimension
 13
46.83123967983067
 23
-52.68918859156351
 33
0.0
 14
46.83123967983067
 24
-92.68918859156351
 34
0.0
 50
90.0
100
AcDbRotatedDimension
  0
DIMENSION
  5
19E
330
1F
100
AcDbEntity
  8
1
100
AcDbDimension
  2
*D11
 10
30.21081070804353
 20
-92.68918859156351
 30
0.0
 11
26.6618579323537
 21
-100.176156920623
 31
0.0
 70
    32
  1
<>
 71
     5
 42
-1.0
 53
90.0
  3
ME10_DIM_20
100
AcDbAlignedDimension
 13
36.83123967983048
 23
-88.68918859156352
 33
0.0
 14
46.83123967983067
 24
-92.68918859156351
 34
0.0
 50
90.0
100
AcDbRotatedDimension
  0
DIMENSION
  5
1A9
330
1F
100
AcDbEntity
  8
1
100
AcDbDimension
  2
*D12
 10
164.4068397520139
 20
34.5451568829076
 30
0.0
 11
160.7082697416599
 21
38.2951568829076
 31
0.0
 70
    32
  1
<>
 71
     5
 42
-1.0
 53
0.00013888888889
  3
ME10_DIM_21
100
AcDbAlignedDimension
 13
149.4068397520139
 23
46.13535147101105
 33
0.0
 14
164.4068397520139
 24
46.13535147101105
 34
0.0
100
AcDbRotatedDimension
  0
DIMENSION
  5
1B4
330
1F
100
AcDbEntity
  8
1
100
AcDbDimension
  2
*D13
 10
-190.4148523042701
 20
25.93517029822284
 30
0.0
 11
-182.5668985813797
 21
29.68517029822284
 31
0.0
 70
    32
  1
<>
 71
     5
 42
-1.0
 53
0.00013888888889
  3
ME10_DIM_22
100
AcDbAlignedDimension
 13
-175.4148523042699
 23
46.13535147101105
 33
0.0
 14
-190.4148523042701
 24
46.13535147101105
 34
0.0
100
AcDbRotatedDimension
  0
DIMENSION
  5
1C1
330
1F
100
AcDbEntity
  8
1
100
AcDbDimension
  2
*D14
 10
174.9068397520139
 20
-128.729476198668
 30
0.0
 11
172.634183242026
 21
-124.979476198668
 31
0.0
 70
    32
  1
<>
 71
     5
 42
-1.0
 53
0.00013888888889
  3
ME10_DIM_23
100
AcDbAlignedDimension
 13
170.9068397520139
 23
-86.614648528989
 33
0.0
 14
174.9068397520139
 24
-120.614648528989
 34
0.0
100
AcDbRotatedDimension
  0
DIMENSION
  5
1CC
330
1F
100
AcDbEntity
  8
1
100
AcDbDimension
  2
*D15
 10
-119.893378353309
 20
59.38535147101105
 30
0.0
 11
-123.643378353309
 21
-21.6495241982269
 31
0.0
 70
    32
  1
<>
 71
     5
 42
-1.0
 53
90.0
  3
ME10_DIM_24
100
AcDbAlignedDimension
 13
-182.9148523042696
 23
-100.614648528989
 33
0.0
 14
-182.9148523042699
 24
59.38535147101105
 34
0.0
 50
90.0
100
AcDbRotatedDimension
  0
DIMENSION
  5
1D7
330
1F
100
AcDbEntity
  8
1
100
AcDbDimension
  2
*D16
 10
114.452069692064
 20
59.38535147101105
 30
0.0
 11
110.702069692064
 21
-20.6495241982269
 31
0.0
 70
    32
  1
<>
 71
     5
 42
-1.0
 53
90.0
  3
ME10_DIM_25
100
AcDbAlignedDimension
 13
156.9068397520139
 23
-100.614648528989
 33
0.0
 14
156.9068397520139
 24
59.38535147101105
 34
0.0
 50
90.0
100
AcDbRotatedDimension
  0
DIMENSION
  5
1E2
330
1F
100
AcDbEntity
  8
1
100
AcDbDimension
  2
*D17
 10
122.326988504593
 20
48.38535147101105
 30
0.0
 11
118.576988504593
 21
-20.6495241982269
 31
0.0
 70
    32
  1
<>
 71
     5
 42
-1.0
 53
90.0
  3
ME10_DIM_26
100
AcDbAlignedDimension
 13
147.1568397520139
 23
-89.61464852898895
 33
0.0
 14
147.1568397520139
 24
48.38535147101105
 34
0.0
 50
90.0
100
AcDbRotatedDimension
  0
DIMENSION
  5
1ED
330
1F
100
AcDbEntity
  8
1
100
AcDbDimension
  2
*D18
 10
130.094615818587
 20
44.88535147101105
 30
0.0
 11
126.344615818587
 21
-20.55233169408329
 31
0.0
 70
    32
  1
<>
 71
     5
 42
-1.0
 53
90.0
  3
ME10_DIM_27
100
AcDbAlignedDimension
 13
158.6755140245067
 23
-86.11464852898919
 33
0.0
 14
154.9068397520139
 24
44.88535147101107
 34
0.0
 50
90.0
100
AcDbRotatedDimension
  0
DIMENSION
  5
1FA
330
1F
100
AcDbEntity
  8
1
100
AcDbDimension
  2
*D19
 10
-200.91485230427
 20
-130.2566310837739
 30
0.0
 11
-203.776615557664
 21
-126.5066310837739
 31
0.0
 70
    32
  1
X
 71
     5
 42
-1.0
 53
0.00013888888889
  3
ME10_DIM_28
100
AcDbAlignedDimension
 13
-196.91485230427
 23
-86.614648528989
 33
0.0
 14
-200.91485230427
 24
-120.614648528989
 34
0.0
100
AcDbRotatedDimension
  0
DIMENSION
  5
206
330
1F
100
AcDbEntity
  8
1
100
AcDbDimension
  2
*D20
 10
-196.91485230427
 20
-130.2566310837739
 30
0.0
 11
-183.3856662427407
 21
-126.5066310837739
 31
0.0
 70
    32
  1
<>
 71
     5
 42
-1.0
 53
0.00013888888889
  3
ME10_DIM_29
100
AcDbAlignedDimension
 13
-168.9148523042698
 23
-86.614648528989
 33
0.0
 14
-196.91485230427
 24
-86.614648528989
 34
0.0
100
AcDbRotatedDimension
  0
INSERT
  5
20F
330
1F
100
AcDbEntity
  8
1
100
AcDbBlockReference
  2
*D21
 10
0.0
 20
0.0
 30
0.0
  0
INSERT
  5
217
330
1F
100
AcDbEntity
  8
1
100
AcDbBlockReference
  2
*D22
 10
0.0
 20
0.0
 30
0.0
  0
INSERT
  5
21F
330
1F
100
AcDbEntity
  8
1
100
AcDbBlockReference
  2
*D23
 10
0.0
 20
0.0
 30
0.0
  0
ENDSEC
  0
SECTION
  2
OBJECTS
  0
DICTIONARY
  5
C
330
0
100
AcDbDictionary
281
     1
  3
ACAD_GROUP
350
D
  3
ACAD_LAYOUT
350
1A
  3
ACAD_MLINESTYLE
350
17
  3
ACAD_PLOTSETTINGS
350
19
  3
ACAD_PLOTSTYLENAME
350
E
  0
DICTIONARY
  5
D
102
{ACAD_REACTORS
330
C
102
}
330
C
100
AcDbDictionary
281
     1
  0
DICTIONARY
  5
1A
102
{ACAD_REACTORS
330
C
102
}
330
C
100
AcDbDictionary
281
     1
  3
Layout1
350
1E
  3
Layout2
350
26
  3
Model
350
22
  0
DICTIONARY
  5
17
102
{ACAD_REACTORS
330
C
102
}
330
C
100
AcDbDictionary
281
     1
  3
Standard
350
18
  0
DICTIONARY
  5
19
102
{ACAD_REACTORS
330
C
102
}
330
C
100
AcDbDictionary
281
     1
  0
ACDBDICTIONARYWDFLT
  5
E
102
{ACAD_REACTORS
330
C
102
}
330
C
100
AcDbDictionary
281
     1
  3
Normal
350
F
100
AcDbDictionaryWithDefault
340
F
  0
LAYOUT
  5
1E
102
{ACAD_REACTORS
330
1A
102
}
330
1A
100
AcDbPlotSettings
  1

  2

  4

  6

 40
0.0
 41
0.0
 42
0.0
 43
0.0
 44
0.0
 45
0.0
 46
0.0
 47
0.0
 48
0.0
 49
0.0
140
0.0
141
0.0
142
1.0
143
1.0
 70
   688
 72
     0
 73
     0
 74
     5
  7

 75
    16
 76
     0
 77
     2
 78
   300
147
1.0
148
0.0
149
0.0
100
AcDbLayout
  1
Layout1
 70
     1
 71
     1
 10
0.0
 20
0.0
 11
0.0
 21
0.0
 12
0.0
 22
0.0
 32
0.0
 14
0.0
 24
0.0
 34
0.0
 15
0.0
 25
0.0
 35
0.0
146
0.0
 13
0.0
 23
0.0
 33
0.0
 16
1.0
 26
0.0
 36
0.0
 17
0.0
 27
1.0
 37
0.0
 76
     0
330
1B
  0
LAYOUT
  5
26
102
{ACAD_REACTORS
330
1A
102
}
330
1A
100
AcDbPlotSettings
  1

  2

  4

  6

 40
0.0
 41
0.0
 42
0.0
 43
0.0
 44
0.0
 45
0.0
 46
0.0
 47
0.0
 48
0.0
 49
0.0
140
0.0
141
0.0
142
1.0
143
1.0
 70
   688
 72
     0
 73
     0
 74
     5
  7

 75
    16
 76
     0
 77
     2
 78
   300
147
1.0
148
0.0
149
0.0
100
AcDbLayout
  1
Layout2
 70
     1
 71
     2
 10
0.0
 20
0.0
 11
0.0
 21
0.0
 12
0.0
 22
0.0
 32
0.0
 14
0.0
 24
0.0
 34
0.0
 15
0.0
 25
0.0
 35
0.0
146
0.0
 13
0.0
 23
0.0
 33
0.0
 16
1.0
 26
0.0
 36
0.0
 17
0.0
 27
1.0
 37
0.0
 76
     0
330
23
  0
LAYOUT
  5
22
102
{ACAD_REACTORS
330
1A
102
}
330
1A
100
AcDbPlotSettings
  1

  2

  4

  6

 40
0.0
 41
0.0
 42
0.0
 43
0.0
 44
0.0
 45
0.0
 46
0.0
 47
0.0
 48
0.0
 49
0.0
140
0.0
141
0.0
142
1.0
143
1.0
 70
  1712
 72
     0
 73
     0
 74
     0
  7

 75
     0
 76
     0
 77
     2
 78
   300
147
1.0
148
0.0
149
0.0
100
AcDbLayout
  1
Model
 70
     1
 71
     0
 10
0.0
 20
0.0
 11
0.0
 21
0.0
 12
0.0
 22
0.0
 32
0.0
 14
-207.91485230427
 24
-158.6182392210103
 34
0.0
 15
181.9068397520139
 25
81.77063309968568
 35
0.0
146
0.0
 13
0.0
 23
0.0
 33
0.0
 16
1.0
 26
0.0
 36
0.0
 17
0.0
 27
1.0
 37
0.0
 76
     0
330
1F
  0
MLINESTYLE
  5
18
102
{ACAD_REACTORS
330
17
102
}
330
17
100
AcDbMlineStyle
  2
Standard
 70
     0
  3

 62
   256
 51
90.0
 52
90.0
 71
     2
 49
0.5
 62
   256
  6
BYLAYER
 49
-0.5
 62
   256
  6
BYLAYER
  0
ACDBPLACEHOLDER
  5
F
102
{ACAD_REACTORS
330
E
102
}
330
E
  0
ENDSEC
  0
EOF
