  0
SECTION
  2
HEADER
  9
$ACADVER
  1
AC1024
  9
$ACADMAINTVER
 70
     6
  9
$DWGCODEPAGE
  3
ANSI_1252
  9
$INSBASE
 10
0.0
 20
0.0
 30
0.0
  9
$EXTMIN
 10
277.202585970614
 20
108.8920181026532
 30
0.0
  9
$EXTMAX
 10
386.696862213633
 20
246.8514312604182
 30
0.0
  9
$LIMMIN
 10
0.0
 20
0.0
  9
$LIMMAX
 10
12.0
 20
9.0
  9
$ORTHOMODE
 70
     0
  9
$REGENMODE
 70
     1
  9
$FILLMODE
 70
     1
  9
$QTEXTMODE
 70
     0
  9
$MIRRTEXT
 70
     1
  9
$LTSCALE
 40
1.0
  9
$ATTMODE
 70
     1
  9
$TEXTSIZE
 40
0.2
  9
$TRACEWID
 40
0.05
  9
$TEXTSTYLE
  7
Standard
  9
$CLAYER
  8
0
  9
$CELTYPE
  6
ByLayer
  9
$CECOLOR
 62
   256
  9
$CELTSCALE
 40
1.0
  9
$DISPSILH
 70
     0
  9
$DIMSCALE
 40
1.0
  9
$DIMASZ
 40
0.18
  9
$DIMEXO
 40
0.0625
  9
$DIMDLI
 40
0.38
  9
$DIMRND
 40
0.0
  9
$DIMDLE
 40
0.0
  9
$DIMEXE
 40
0.18
  9
$DIMTP
 40
0.0
  9
$DIMTM
 40
0.0
  9
$DIMTXT
 40
0.18
  9
$DIMCEN
 40
0.09
  9
$DIMTSZ
 40
0.0
  9
$DIMTOL
 70
     0
  9
$DIMLIM
 70
     0
  9
$DIMTIH
 70
     1
  9
$DIMTOH
 70
     1
  9
$DIMSE1
 70
     0
  9
$DIMSE2
 70
     0
  9
$DIMTAD
 70
     0
  9
$DIMZIN
 70
     0
  9
$DIMBLK
  1

  9
$DIMASO
 70
     1
  9
$DIMSHO
 70
     1
  9
$DIMPOST
  1

  9
$DIMAPOST
  1

  9
$DIMALT
 70
     0
  9
$DIMALTD
 70
     2
  9
$DIMALTF
 40
25.4
  9
$DIMLFAC
 40
1.0
  9
$DIMTOFL
 70
     0
  9
$DIMTVP
 40
0.0
  9
$DIMTIX
 70
     0
  9
$DIMSOXD
 70
     0
  9
$DIMSAH
 70
     0
  9
$DIMBLK1
  1

  9
$DIMBLK2
  1

  9
$DIMSTYLE
  2
Standard
  9
$DIMCLRD
 70
     0
  9
$DIMCLRE
 70
     0
  9
$DIMCLRT
 70
     0
  9
$DIMTFAC
 40
1.0
  9
$DIMGAP
 40
0.09
  9
$DIMJUST
 70
     0
  9
$DIMSD1
 70
     0
  9
$DIMSD2
 70
     0
  9
$DIMTOLJ
 70
     1
  9
$DIMTZIN
 70
     0
  9
$DIMALTZ
 70
     0
  9
$DIMALTTZ
 70
     0
  9
$DIMUPT
 70
     0
  9
$DIMDEC
 70
     4
  9
$DIMTDEC
 70
     4
  9
$DIMALTU
 70
     2
  9
$DIMALTTD
 70
     2
  9
$DIMTXSTY
  7
Standard
  9
$DIMAUNIT
 70
     0
  9
$DIMADEC
 70
     0
  9
$DIMALTRND
 40
0.0
  9
$DIMAZIN
 70
     0
  9
$DIMDSEP
 70
    46
  9
$DIMATFIT
 70
     3
  9
$DIMFRAC
 70
     0
  9
$DIMLDRBLK
  1

  9
$DIMLUNIT
 70
     2
  9
$DIMLWD
 70
    -2
  9
$DIMLWE
 70
    -2
  9
$DIMTMOVE
 70
     0
  9
$DIMFXL
 40
1.0
  9
$DIMFXLON
 70
     0
  9
$DIMJOGANG
 40
0.78539816339745
  9
$DIMTFILL
 70
     0
  9
$DIMTFILLCLR
 70
     0
  9
$DIMARCSYM
 70
     0
  9
$DIMLTYPE
  6

  9
$DIMLTEX1
  6

  9
$DIMLTEX2
  6

  9
$DIMTXTDIRECTION
 70
     0
  9
$LUNITS
 70
     2
  9
$LUPREC
 70
     4
  9
$SKETCHINC
 40
0.1
  9
$FILLETRAD
 40
0.5
  9
$AUNITS
 70
     0
  9
$AUPREC
 70
     0
  9
$MENU
  1
.
  9
$ELEVATION
 40
0.0
  9
$PELEVATION
 40
0.0
  9
$THICKNESS
 40
0.0
  9
$LIMCHECK
 70
     0
  9
$CHAMFERA
 40
0.5
  9
$CHAMFERB
 40
0.5
  9
$CHAMFERC
 40
1.0
  9
$CHAMFERD
 40
0.0
  9
$SKPOLY
 70
     0
  9
$TDCREATE
 40
2457305.453549132
  9
$TDUCREATE
 40
2457305.370215799
  9
$TDUPDATE
 40
2457305.453550394
  9
$TDUUPDATE
 40
2457305.37021706
  9
$TDINDWG
 40
0.0000000116
  9
$TDUSRTIMER
 40
0.0000000116
  9
$USRTIMER
 70
     1
  9
$ANGBASE
 50
0.0
  9
$ANGDIR
 70
     0
  9
$PDMODE
 70
     0
  9
$PDSIZE
 40
0.0
  9
$PLINEWID
 40
0.0
  9
$SPLFRAME
 70
     0
  9
$SPLINETYPE
 70
     6
  9
$SPLINESEGS
 70
     8
  9
$HANDSEED
  5
225
  9
$SURFTAB1
 70
     6
  9
$SURFTAB2
 70
     6
  9
$SURFTYPE
 70
     6
  9
$SURFU
 70
     6
  9
$SURFV
 70
     6
  9
$UCSBASE
  2

  9
$UCSNAME
  2

  9
$UCSORG
 10
0.0
 20
0.0
 30
0.0
  9
$UCSXDIR
 10
1.0
 20
0.0
 30
0.0
  9
$UCSYDIR
 10
0.0
 20
1.0
 30
0.0
  9
$UCSORTHOREF
  2

  9
$UCSORTHOVIEW
 70
     0
  9
$UCSORGTOP
 10
0.0
 20
0.0
 30
0.0
  9
$UCSORGBOTTOM
 10
0.0
 20
0.0
 30
0.0
  9
$UCSORGLEFT
 10
0.0
 20
0.0
 30
0.0
  9
$UCSORGRIGHT
 10
0.0
 20
0.0
 30
0.0
  9
$UCSORGFRONT
 10
0.0
 20
0.0
 30
0.0
  9
$UCSORGBACK
 10
0.0
 20
0.0
 30
0.0
  9
$PUCSBASE
  2

  9
$PUCSNAME
  2

  9
$PUCSORG
 10
0.0
 20
0.0
 30
0.0
  9
$PUCSXDIR
 10
1.0
 20
0.0
 30
0.0
  9
$PUCSYDIR
 10
0.0
 20
1.0
 30
0.0
  9
$PUCSORTHOREF
  2

  9
$PUCSORTHOVIEW
 70
     0
  9
$PUCSORGTOP
 10
0.0
 20
0.0
 30
0.0
  9
$PUCSORGBOTTOM
 10
0.0
 20
0.0
 30
0.0
  9
$PUCSORGLEFT
 10
0.0
 20
0.0
 30
0.0
  9
$PUCSORGRIGHT
 10
0.0
 20
0.0
 30
0.0
  9
$PUCSORGFRONT
 10
0.0
 20
0.0
 30
0.0
  9
$PUCSORGBACK
 10
0.0
 20
0.0
 30
0.0
  9
$USERI1
 70
     0
  9
$USERI2
 70
     0
  9
$USERI3
 70
     0
  9
$USERI4
 70
     0
  9
$USERI5
 70
     0
  9
$USERR1
 40
18.1
  9
$USERR2
 40
0.0
  9
$USERR3
 40
0.0
  9
$USERR4
 40
0.0
  9
$USERR5
 40
0.0
  9
$WORLDVIEW
 70
     1
  9
$SHADEDGE
 70
     3
  9
$SHADEDIF
 70
    70
  9
$TILEMODE
 70
     1
  9
$MAXACTVP
 70
    64
  9
$PINSBASE
 10
0.0
 20
0.0
 30
0.0
  9
$PLIMCHECK
 70
     0
  9
$PEXTMIN
 10
1.00000000000000E+20
 20
1.00000000000000E+20
 30
1.00000000000000E+20
  9
$PEXTMAX
 10
-1.00000000000000E+20
 20
-1.00000000000000E+20
 30
-1.00000000000000E+20
  9
$PLIMMIN
 10
0.0
 20
0.0
  9
$PLIMMAX
 10
12.0
 20
9.0
  9
$UNITMODE
 70
     0
  9
$VISRETAIN
 70
     1
  9
$PLINEGEN
 70
     0
  9
$PSLTSCALE
 70
     1
  9
$TREEDEPTH
 70
  3020
  9
$CMLSTYLE
  2
Standard
  9
$CMLJUST
 70
     0
  9
$CMLSCALE
 40
1.0
  9
$PROXYGRAPHICS
 70
     1
  9
$MEASUREMENT
 70
     1
  9
$CELWEIGHT
370
    -1
  9
$ENDCAPS
280
     0
  9
$JOINSTYLE
280
     0
  9
$LWDISPLAY
290
     0
  9
$INSUNITS
 70
     4
  9
$HYPERLINKBASE
  1

  9
$STYLESHEET
  1

  9
$XEDIT
290
     1
  9
$CEPSNTYPE
380
     0
  9
$PSTYLEMODE
290
     1
  9
$FINGERPRINTGUID
  2
{9EB6CF25-0A68-4C81-9E25-54C41D2A818D}
  9
$VERSIONGUID
  2
{FAEB1C32-E019-11D5-929B-00C0DF256EC4}
  9
$EXTNAMES
290
     1
  9
$PSVPSCALE
 40
0.0
  9
$OLESTARTUP
290
     0
  9
$SORTENTS
280
   127
  9
$INDEXCTL
280
     0
  9
$HIDETEXT
280
     1
  9
$XCLIPFRAME
280
     2
  9
$HALOGAP
280
     0
  9
$OBSCOLOR
 70
   257
  9
$OBSLTYPE
280
     0
  9
$INTERSECTIONDISPLAY
280
     0
  9
$INTERSECTIONCOLOR
 70
   257
  9
$DIMASSOC
280
     2
  9
$PROJECTNAME
  1

  9
$CAMERADISPLAY
290
     0
  9
$LENSLENGTH
 40
50.0
  9
$CAMERAHEIGHT
 40
0.0
  9
$STEPSPERSEC
 40
2.0
  9
$STEPSIZE
 40
6.0
  9
$3DDWFPREC
 40
2.0
  9
$PSOLWIDTH
 40
0.25
  9
$PSOLHEIGHT
 40
4.0
  9
$LOFTANG1
 40
1.5707963267949
  9
$LOFTANG2
 40
1.5707963267949
  9
$LOFTMAG1
 40
0.0
  9
$LOFTMAG2
 40
0.0
  9
$LOFTPARAM
 70
     7
  9
$LOFTNORMALS
280
     1
  9
$LATITUDE
 40
37.795
  9
$LONGITUDE
 40
-122.394
  9
$NORTHDIRECTION
 40
0.0
  9
$TIMEZONE
 70
 -8000
  9
$LIGHTGLYPHDISPLAY
280
     1
  9
$TILEMODELIGHTSYNCH
280
     1
  9
$SOLIDHIST
280
     1
  9
$SHOWHIST
280
     1
  9
$DWFFRAME
280
     2
  9
$DGNFRAME
280
     2
  9
$REALWORLDSCALE
290
     1
  9
$INTERFERECOLOR
 62
   256
  9
$CSHADOW
280
     0
  9
$SHADOWPLANELOCATION
 40
0.0
  0
ENDSEC
  0
SECTION
  2
CLASSES
  0
CLASS
  1
ACDBDICTIONARYWDFLT
  2
AcDbDictionaryWithDefault
  3
ObjectDBX Classes
 90
        0
 91
        4
280
     0
281
     0
  0
CLASS
  1
VISUALSTYLE
  2
AcDbVisualStyle
  3
ObjectDBX Classes
 90
     4095
 91
        4
280
     0
281
     0
  0
CLASS
  1
MATERIAL
  2
AcDbMaterial
  3
ObjectDBX Classes
 90
     1153
 91
        4
280
     0
281
     0
  0
ENDSEC
  0
SECTION
  2
TABLES
  0
TABLE
  2
VPORT
  5
8
330
0
100
AcDbSymbolTable
 70
     1
  0
VPORT
  5
29
330
8
100
AcDbSymbolTableRecord
100
AcDbViewportTableRecord
  2
*Active
 70
     0
 10
0.0
 20
0.0
 11
1.0
 21
1.0
 12
331.9497240921235
 22
177.8717246815357
 13
0.0
 23
0.0
 14
0.5
 24
0.5
 15
0.5
 25
0.5
 16
0.0
 26
0.0
 36
1.0
 17
0.0
 27
0.0
 37
0.0
 40
151.7553544735415
 41
1.60267857142857
 42
50.0
 43
0.0
 44
0.0
 50
0.0
 51
0.0
 71
     0
 72
   100
 73
     1
 74
     3
 75
     0
 76
     0
 77
     0
 78
     0
281
     0
 65
     1
110
0.0
120
0.0
130
0.0
111
1.0
121
0.0
131
0.0
112
0.0
122
1.0
132
0.0
 79
     0
146
0.0
 60
     3
 61
     5
292
     1
282
     1
141
0.0
142
0.0
 63
   250
  0
ENDTAB
  0
TABLE
  2
LTYPE
  5
5
330
0
100
AcDbSymbolTable
 70
     9
  0
LTYPE
  5
14
330
5
100
AcDbSymbolTableRecord
100
AcDbLinetypeTableRecord
  2
ByBlock
 70
     0
  3

 72
    65
 73
     0
 40
0.0
  0
LTYPE
  5
15
330
5
100
AcDbSymbolTableRecord
100
AcDbLinetypeTableRecord
  2
ByLayer
 70
     0
  3

 72
    65
 73
     0
 40
0.0
  0
LTYPE
  5
16
330
5
100
AcDbSymbolTableRecord
100
AcDbLinetypeTableRecord
  2
Continuous
 70
     0
  3
Solid line
 72
    65
 73
     0
 40
0.0
  0
LTYPE
  5
3F
330
5
100
AcDbSymbolTableRecord
100
AcDbLinetypeTableRecord
  2
DASHED
 70
     0
  3
Dashed
 72
    65
 73
     2
 40
15.0
 49
7.0
 74
     0
 49
-8.0
 74
     0
  0
LTYPE
  5
40
330
5
100
AcDbSymbolTableRecord
100
AcDbLinetypeTableRecord
  2
DOTTED
 70
     0
  3
Dotted
 72
    65
 73
     2
 40
1.0
 49
0.0
 74
     0
 49
-1.0
 74
     0
  0
LTYPE
  5
41
330
5
100
AcDbSymbolTableRecord
100
AcDbLinetypeTableRecord
  2
DOT_CENTER
 70
     0
  3
Dot_Center
 72
    65
 73
     4
 40
14.0
 49
12.0
 74
     0
 49
-1.0
 74
     0
 49
0.0
 74
     0
 49
-1.0
 74
     0
  0
LTYPE
  5
42
330
5
100
AcDbSymbolTableRecord
100
AcDbLinetypeTableRecord
  2
LONG_DASHED
 70
     0
  3
Long_Dashed
 72
    65
 73
     2
 40
15.0
 49
10.0
 74
     0
 49
-5.0
 74
     0
  0
LTYPE
  5
43
330
5
100
AcDbSymbolTableRecord
100
AcDbLinetypeTableRecord
  2
DASH_CENTER
 70
     0
  3
Dash_Center
 72
    65
 73
     4
 40
14.0
 49
11.0
 74
     0
 49
-1.0
 74
     0
 49
1.0
 74
     0
 49
-1.0
 74
     0
  0
LTYPE
  5
44
330
5
100
AcDbSymbolTableRecord
100
AcDbLinetypeTableRecord
  2
PHANTOM
 70
     0
  3
Phantom
 72
    65
 73
     6
 40
13.0
 49
10.0
 74
     0
 49
-1.0
 74
     0
 49
0.0
 74
     0
 49
-1.0
 74
     0
 49
0.0
 74
     0
 49
-1.0
 74
     0
  0
LTYPE
  5
45
330
5
100
AcDbSymbolTableRecord
100
AcDbLinetypeTableRecord
  2
CENTER_DASH_DASH
 70
     0
  3
Center_Dash_Dash
 72
    65
 73
     6
 40
14.0
 49
9.0
 74
     0
 49
-1.0
 74
     0
 49
1.0
 74
     0
 49
-1.0
 74
     0
 49
1.0
 74
     0
 49
-1.0
 74
     0
  0
LTYPE
  5
46
330
5
100
AcDbSymbolTableRecord
100
AcDbLinetypeTableRecord
  2
CENTER
 70
     0
  3
CENTER
 72
    65
 73
     4
 40
15.0
 49
9.0
 74
     0
 49
-2.0
 74
     0
 49
2.0
 74
     0
 49
-2.0
 74
     0
  0
ENDTAB
  0
TABLE
  2
LAYER
  5
2
330
0
100
AcDbSymbolTable
 70
     6
  0
LAYER
  5
10
330
2
100
AcDbSymbolTableRecord
100
AcDbLayerTableRecord
  2
0
 70
     0
 62
     7
  6
Continuous
370
    -3
390
F
347
3E
  0
LAYER
  5
47
330
2
100
AcDbSymbolTableRecord
100
AcDbLayerTableRecord
  2
1
 70
     0
 62
     7
  6
Continuous
370
    -3
390
F
347
3E
  0
LAYER
  5
48
330
2
100
AcDbSymbolTableRecord
100
AcDbLayerTableRecord
  2
A_ACHSEN
 70
     0
 62
     7
  6
Continuous
370
    -3
390
F
347
3E
  0
LAYER
  5
49
330
2
100
AcDbSymbolTableRecord
100
AcDbLayerTableRecord
  2
A_FASEN
 70
     0
 62
     7
  6
Continuous
370
    -3
390
F
347
3E
  0
LAYER
  5
4A
330
2
100
AcDbSymbolTableRecord
100
AcDbLayerTableRecord
  2
A_RUNDUNGEN
 70
     0
 62
     7
  6
Continuous
370
    -3
390
F
347
3E
  0
LAYER
  5
4B
330
2
100
AcDbSymbolTableRecord
100
AcDbLayerTableRecord
  2
DEFAULT_1
 70
     0
 62
     7
  6
Continuous
370
    -3
390
F
347
3E
  0
ENDTAB
  0
TABLE
  2
STYLE
  5
3
330
0
100
AcDbSymbolTable
 70
     2
  0
STYLE
  5
11
330
3
100
AcDbSymbolTableRecord
100
AcDbTextStyleTableRecord
  2
Standard
 70
     0
 40
0.0
 41
1.0
 50
0.0
 71
     0
 42
0.2
  3
txt
  4

  0
STYLE
  5
1E9
330
3
100
AcDbSymbolTableRecord
100
AcDbTextStyleTableRecord
  2
CONVERTER_11
 70
     0
 40
0.0
 41
0.9
 50
0.0
 71
     0
 42
0.2
  3
txt.shx
  4

  0
ENDTAB
  0
TABLE
  2
VIEW
  5
6
330
0
100
AcDbSymbolTable
 70
     0
  0
ENDTAB
  0
TABLE
  2
UCS
  5
7
330
0
100
AcDbSymbolTable
 70
     0
  0
ENDTAB
  0
TABLE
  2
APPID
  5
9
330
0
100
AcDbSymbolTable
 70
     1
  0
APPID
  5
12
330
9
100
AcDbSymbolTableRecord
100
AcDbRegAppTableRecord
  2
ACAD
 70
     0
  0
ENDTAB
  0
TABLE
  2
DIMSTYLE
  5
A
330
0
100
AcDbSymbolTable
 70
     6
100
AcDbDimStyleTable
  0
DIMSTYLE
105
27
330
A
100
AcDbSymbolTableRecord
100
AcDbDimStyleTableRecord
  2
Standard
 70
     0
178
     0
340
11
  0
DIMSTYLE
105
1F4
102
{ACAD_REACTORS
330
1F5
102
}
330
A
100
AcDbSymbolTableRecord
100
AcDbDimStyleTableRecord
  2
ME10_DIM_10
 70
     0
 41
3.5
 42
0.0
 44
2.0
 73
     0
 74
     0
 77
     1
 78
     8
140
3.5
147
2.0
172
     1
173
     1
174
     1
175
     1
176
     2
177
     2
271
     3
178
     2
271
     3
340
1E9
  0
DIMSTYLE
105
1FF
102
{ACAD_REACTORS
330
200
102
}
330
A
100
AcDbSymbolTableRecord
100
AcDbDimStyleTableRecord
  2
ME10_DIM_11
 70
     0
 41
3.5
 42
0.0
 44
2.0
 73
     0
 74
     0
 77
     1
 78
     8
140
3.5
147
2.0
172
     1
173
     1
174
     1
175
     1
176
     2
177
     2
271
     3
178
     2
271
     3
340
1E9
  0
DIMSTYLE
105
20A
102
{ACAD_REACTORS
330
20B
102
}
330
A
100
AcDbSymbolTableRecord
100
AcDbDimStyleTableRecord
  2
ME10_DIM_12
 70
     0
 41
3.5
 42
0.0
 44
2.0
 73
     0
 74
     0
 77
     1
 78
     8
140
3.5
147
2.0
172
     1
173
     1
174
     1
175
     1
176
     2
177
     2
271
     3
178
     2
271
     3
340
1E9
  0
DIMSTYLE
105
215
102
{ACAD_REACTORS
330
216
102
}
330
A
100
AcDbSymbolTableRecord
100
AcDbDimStyleTableRecord
  2
ME10_DIM_13
 70
     0
 41
3.5
 42
0.0
 44
2.0
 73
     0
 74
     0
 77
     1
 78
     8
140
3.5
147
2.0
172
     1
173
     1
174
     1
175
     1
176
     2
177
     2
271
     3
178
     2
271
     3
340
1E9
  0
DIMSTYLE
105
221
102
{ACAD_REACTORS
330
222
102
}
330
A
100
AcDbSymbolTableRecord
100
AcDbDimStyleTableRecord
  2
ME10_DIM_14
 70
     0
 41
3.5
 42
0.0
 44
2.0
 73
     0
 74
     0
 77
     1
 78
     8
140
3.5
147
2.0
172
     1
173
     1
174
     1
175
     1
176
     2
177
     2
271
     3
178
     2
271
     3
340
1E9
  0
ENDTAB
  0
TABLE
  2
BLOCK_RECORD
  5
1
330
0
100
AcDbSymbolTable
 70
     6
  0
BLOCK_RECORD
  5
1F
330
1
100
AcDbSymbolTableRecord
100
AcDbBlockTableRecord
  2
*Model_Space
340
22
 70
     0
280
     1
281
     0
  0
BLOCK_RECORD
  5
1B
330
1
100
AcDbSymbolTableRecord
100
AcDbBlockTableRecord
  2
*Paper_Space
340
1E
 70
     0
280
     1
281
     0
  0
BLOCK_RECORD
  5
23
330
1
100
AcDbSymbolTableRecord
100
AcDbBlockTableRecord
  2
*Paper_Space0
340
26
 70
     0
280
     1
281
     0
  0
BLOCK_RECORD
  5
1EB
330
1
100
AcDbSymbolTableRecord
100
AcDbBlockTableRecord
  2
*D1
340
0
 70
     0
280
     1
281
     0
  0
BLOCK_RECORD
  5
1F6
330
1
100
AcDbSymbolTableRecord
100
AcDbBlockTableRecord
  2
*D2
340
0
 70
     0
280
     1
281
     0
  0
BLOCK_RECORD
  5
201
330
1
100
AcDbSymbolTableRecord
100
AcDbBlockTableRecord
  2
*D3
340
0
 70
     0
280
     1
281
     0
  0
BLOCK_RECORD
  5
20C
330
1
100
AcDbSymbolTableRecord
100
AcDbBlockTableRecord
  2
*D4
340
0
 70
     0
280
     1
281
     0
  0
BLOCK_RECORD
  5
217
330
1
100
AcDbSymbolTableRecord
100
AcDbBlockTableRecord
  2
*D5
340
0
 70
     0
280
     1
281
     0
  0
ENDTAB
  0
ENDSEC
  0
SECTION
  2
BLOCKS
  0
BLOCK
  5
20
330
1F
100
AcDbEntity
  8
0
100
AcDbBlockBegin
  2
*Model_Space
 70
     0
 10
0.0
 20
0.0
 30
0.0
  3
*Model_Space
  1

  0
ENDBLK
  5
21
330
1F
100
AcDbEntity
  8
0
100
AcDbBlockEnd
  0
BLOCK
  5
1C
330
1B
100
AcDbEntity
 67
     1
  8
0
100
AcDbBlockBegin
  2
*Paper_Space
 70
     0
 10
0.0
 20
0.0
 30
0.0
  3
*Paper_Space
  1

  0
ENDBLK
  5
1D
330
1B
100
AcDbEntity
 67
     1
  8
0
100
AcDbBlockEnd
  0
BLOCK
  5
24
330
23
100
AcDbEntity
  8
0
100
AcDbBlockBegin
  2
*Paper_Space0
 70
     0
 10
0.0
 20
0.0
 30
0.0
  3
*Paper_Space0
  1

  0
ENDBLK
  5
25
330
23
100
AcDbEntity
  8
0
100
AcDbBlockEnd
  0
BLOCK
  5
1F2
330
1EB
100
AcDbEntity
  8
0
100
AcDbBlockBegin
  2
*D1
 70
     1
 10
0.0
 20
0.0
 30
0.0
  3
*D1
  1

  0
LINE
  5
1EC
330
1EB
100
AcDbEntity
  8
1
  6
Continuous
 62
     2
100
AcDbLine
 10
351.630127714169
 20
110.8920181026532
 30
0.0
 11
375.630127714169
 21
110.8920181026532
 31
0.0
  0
LINE
  5
1ED
330
1EB
100
AcDbEntity
  8
1
  6
Continuous
 62
     2
100
AcDbLine
 10
375.630127714169
 20
133.1014312604182
 30
0.0
 11
375.630127714169
 21
108.8920181026532
 31
0.0
  0
LINE
  5
1EE
330
1EB
100
AcDbEntity
  8
1
  6
Continuous
 62
     2
100
AcDbLine
 10
351.630127714169
 20
133.1014312604182
 30
0.0
 11
351.630127714169
 21
108.8920181026532
 31
0.0
  0
SOLID
  5
1EF
330
1EB
100
AcDbEntity
  8
1
 62
     2
100
AcDbTrace
 10
355.130127714169
 20
111.3528018442091
 30
0.0
 11
355.130127714169
 21
110.4312343610973
 31
0.0
 12
351.630127714169
 22
110.8920181026532
 32
0.0
 13
351.630127714169
 23
110.8920181026532
 33
0.0
  0
SOLID
  5
1F0
330
1EB
100
AcDbEntity
  8
1
 62
     2
100
AcDbTrace
 10
372.130127714169
 20
110.4312343610973
 30
0.0
 11
372.130127714169
 21
111.3528018442091
 31
0.0
 12
375.630127714169
 22
110.8920181026532
 32
0.0
 13
375.630127714169
 23
110.8920181026532
 33
0.0
  0
MTEXT
  5
1F1
330
1EB
100
AcDbEntity
  8
1
 62
     2
100
AcDbMText
 10
362.07585821436
 20
112.8920181026532
 30
0.0
 40
3.5
 41
0.0
 46
0.0
 71
     7
 72
     1
  1
24
  7
CONVERTER_11
 11
0.9999999999970619
 21
2.424068405545306E-6
 31
0.0
 73
     1
 44
0.60024009603842
  0
ENDBLK
  5
1F3
330
1EB
100
AcDbEntity
  8
0
100
AcDbBlockEnd
  0
BLOCK
  5
1FD
330
1F6
100
AcDbEntity
  8
0
100
AcDbBlockBegin
  2
*D2
 70
     1
 10
0.0
 20
0.0
 30
0.0
  3
*D2
  1

  0
LINE
  5
1F7
330
1F6
100
AcDbEntity
  8
1
  6
Continuous
 62
     2
100
AcDbLine
 10
328.568706963869
 20
110.8920181026532
 30
0.0
 11
351.630127714169
 21
110.8920181026532
 31
0.0
  0
LINE
  5
1F8
330
1F6
100
AcDbEntity
  8
1
  6
Continuous
 62
     2
100
AcDbLine
 10
351.630127714169
 20
133.1014312604182
 30
0.0
 11
351.630127714169
 21
108.8920181026532
 31
0.0
  0
LINE
  5
1F9
330
1F6
100
AcDbEntity
  8
1
  6
Continuous
 62
     2
100
AcDbLine
 10
328.568706963869
 20
137.2514312604182
 30
0.0
 11
328.568706963869
 21
108.8920181026532
 31
0.0
  0
SOLID
  5
1FA
330
1F6
100
AcDbEntity
  8
1
 62
     2
100
AcDbTrace
 10
332.068706963869
 20
111.3528018442091
 30
0.0
 11
332.068706963869
 21
110.4312343610973
 31
0.0
 12
328.568706963869
 22
110.8920181026532
 32
0.0
 13
328.568706963869
 23
110.8920181026532
 33
0.0
  0
SOLID
  5
1FB
330
1F6
100
AcDbEntity
  8
1
 62
     2
100
AcDbTrace
 10
348.130127714169
 20
110.4312343610973
 30
0.0
 11
348.130127714169
 21
111.3528018442091
 31
0.0
 12
351.630127714169
 22
110.8920181026532
 32
0.0
 13
351.630127714169
 23
110.8920181026532
 33
0.0
  0
MTEXT
  5
1FC
330
1F6
100
AcDbEntity
  8
1
 62
     2
100
AcDbMText
 10
337.364218674159
 20
112.8920181026532
 30
0.0
 40
3.5
 41
0.0
 46
0.0
 71
     7
 72
     1
  1
23
  7
CONVERTER_11
 11
0.9999999999970619
 21
2.424068405545306E-6
 31
0.0
 73
     1
 44
0.60024009603842
  0
ENDBLK
  5
1FE
330
1F6
100
AcDbEntity
  8
0
100
AcDbBlockEnd
  0
BLOCK
  5
208
330
201
100
AcDbEntity
  8
0
100
AcDbBlockBegin
  2
*D3
 70
     1
 10
0.0
 20
0.0
 30
0.0
  3
*D3
  1

  0
LINE
  5
202
330
201
100
AcDbEntity
  8
1
  6
Continuous
 62
     2
100
AcDbLine
 10
328.568706963869
 20
135.7514312604182
 30
0.0
 11
348.630127714169
 21
135.7514312604182
 31
0.0
  0
LINE
  5
203
330
201
100
AcDbEntity
  8
1
  6
Continuous
 62
     2
100
AcDbLine
 10
348.630127714169
 20
154.1514312604182
 30
0.0
 11
348.630127714169
 21
133.7514312604182
 31
0.0
  0
LINE
  5
204
330
201
100
AcDbEntity
  8
1
  6
Continuous
 62
     2
100
AcDbLine
 10
328.568706963869
 20
137.2514312604182
 30
0.0
 11
328.568706963869
 21
133.7514312604182
 31
0.0
  0
SOLID
  5
205
330
201
100
AcDbEntity
  8
1
 62
     2
100
AcDbTrace
 10
332.068706963869
 20
136.2122150019741
 30
0.0
 11
332.068706963869
 21
135.2906475188623
 31
0.0
 12
328.568706963869
 22
135.7514312604182
 32
0.0
 13
328.568706963869
 23
135.7514312604182
 33
0.0
  0
SOLID
  5
206
330
201
100
AcDbEntity
  8
1
 62
     2
100
AcDbTrace
 10
345.130127714169
 20
135.2906475188623
 30
0.0
 11
345.130127714169
 21
136.2122150019741
 31
0.0
 12
348.630127714169
 22
135.7514312604182
 32
0.0
 13
348.630127714169
 23
135.7514312604182
 33
0.0
  0
MTEXT
  5
207
330
201
100
AcDbEntity
  8
1
 62
     2
100
AcDbMText
 10
336.703054249028
 20
137.7514312604182
 30
0.0
 40
3.5
 41
0.0
 46
0.0
 71
     7
 72
     1
  1
20
  7
CONVERTER_11
 11
0.9999999999970619
 21
2.424068405545306E-6
 31
0.0
 73
     1
 44
0.60024009603842
  0
ENDBLK
  5
209
330
201
100
AcDbEntity
  8
0
100
AcDbBlockEnd
  0
BLOCK
  5
213
330
20C
100
AcDbEntity
  8
0
100
AcDbBlockBegin
  2
*D4
 70
     1
 10
0.0
 20
0.0
 30
0.0
  3
*D4
  1

  0
LINE
  5
20D
330
20C
100
AcDbEntity
  8
1
  6
Continuous
 62
     2
100
AcDbLine
 10
292.568706963869
 20
110.8920181026532
 30
0.0
 11
328.568706963869
 21
110.8920181026532
 31
0.0
  0
LINE
  5
20E
330
20C
100
AcDbEntity
  8
1
  6
Continuous
 62
     2
100
AcDbLine
 10
292.568706963869
 20
139.2514306403182
 30
0.0
 11
292.568706963869
 21
108.8920181026532
 31
0.0
  0
LINE
  5
20F
330
20C
100
AcDbEntity
  8
1
  6
Continuous
 62
     2
100
AcDbLine
 10
328.568706963869
 20
137.2514312604182
 30
0.0
 11
328.568706963869
 21
108.8920181026532
 31
0.0
  0
SOLID
  5
210
330
20C
100
AcDbEntity
  8
1
 62
     2
100
AcDbTrace
 10
296.068706963869
 20
111.3528018442091
 30
0.0
 11
296.068706963869
 21
110.4312343610973
 31
0.0
 12
292.568706963869
 22
110.8920181026532
 32
0.0
 13
292.568706963869
 23
110.8920181026532
 33
0.0
  0
SOLID
  5
211
330
20C
100
AcDbEntity
  8
1
 62
     2
100
AcDbTrace
 10
325.068706963869
 20
110.4312343610973
 30
0.0
 11
325.068706963869
 21
111.3528018442091
 31
0.0
 12
328.568706963869
 22
110.8920181026532
 32
0.0
 13
328.568706963869
 23
110.8920181026532
 33
0.0
  0
MTEXT
  5
212
330
20C
100
AcDbEntity
  8
1
 62
     2
100
AcDbMText
 10
307.884682722347
 20
112.8920181026532
 30
0.0
 40
3.5
 41
0.0
 46
0.0
 71
     7
 72
     1
  1
36
  7
CONVERTER_11
 11
0.9999999999970619
 21
2.424068405545306E-6
 31
0.0
 73
     1
 44
0.60024009603842
  0
ENDBLK
  5
214
330
20C
100
AcDbEntity
  8
0
100
AcDbBlockEnd
  0
BLOCK
  5
21F
330
217
100
AcDbEntity
  8
0
100
AcDbBlockBegin
  2
*D5
 70
     1
 10
0.0
 20
0.0
 30
0.0
  3
*D5
  1

  0
LINE
  5
218
330
217
100
AcDbEntity
  8
1
  6
Continuous
 62
     2
100
AcDbLine
 10
282.702585970614
 20
246.2514312604182
 30
0.0
 11
282.702585970614
 21
121.2514317845182
 31
0.0
  0
LINE
  5
219
330
217
100
AcDbEntity
  8
1
  6
Continuous
 62
     2
100
AcDbLine
 10
310.568706963869
 20
246.2514312604182
 30
0.0
 11
280.702585970614
 21
246.2514312604182
 31
0.0
  0
LINE
  5
21A
330
217
100
AcDbEntity
  8
1
  6
Continuous
 62
     2
100
AcDbLine
 10
290.836698923726
 20
121.2514317845182
 30
0.0
 11
280.702585970614
 21
121.2514317845182
 31
0.0
  0
LINE
  5
21B
330
217
100
AcDbEntity
  8
1
  6
Continuous
 62
     2
100
AcDbLine
 10
310.568706963869
 20
121.2514317845182
 30
0.0
 11
295.025967180208
 21
121.2514317845182
 31
0.0
  0
SOLID
  5
21C
330
217
100
AcDbEntity
  8
1
 62
     2
100
AcDbTrace
 10
283.1633697121699
 20
242.7514312604182
 30
0.0
 11
282.2418022290581
 21
242.7514312604182
 31
0.0
 12
282.702585970614
 22
246.2514312604182
 32
0.0
 13
282.702585970614
 23
246.2514312604182
 33
0.0
  0
SOLID
  5
21D
330
217
100
AcDbEntity
  8
1
 62
     2
100
AcDbTrace
 10
282.2418022290581
 20
124.7514317845182
 30
0.0
 11
283.1633697121699
 21
124.7514317845182
 31
0.0
 12
282.702585970614
 22
121.2514317845182
 32
0.0
 13
282.702585970614
 23
121.2514317845182
 33
0.0
  0
MTEXT
  5
21E
330
217
100
AcDbEntity
  8
1
 62
     2
100
AcDbMText
 10
280.702585970614
 20
179.471536110199
 30
0.0
 40
3.5
 41
0.0
 46
0.0
 71
     7
 72
     1
  1
125
  7
CONVERTER_11
 11
0.0
 21
1.0
 31
0.0
 73
     1
 44
0.60024009603842
  0
ENDBLK
  5
220
330
217
100
AcDbEntity
  8
0
100
AcDbBlockEnd
  0
ENDSEC
  0
SECTION
  2
ENTITIES
  0
POINT
  5
4C
330
1F
100
AcDbEntity
  8
1
 62
     3
 60
     1
100
AcDbPoint
 10
352.759410631623
 20
232.2514312604182
 30
0.0
  0
POINT
  5
4D
330
1F
100
AcDbEntity
  8
1
 62
     3
 60
     1
100
AcDbPoint
 10
361.759410631623
 20
232.2514312604182
 30
0.0
  0
POINT
  5
4E
330
1F
100
AcDbEntity
  8
1
 62
     3
 60
     1
100
AcDbPoint
 10
352.851424383462
 20
135.2514312604182
 30
0.0
  0
POINT
  5
4F
330
1F
100
AcDbEntity
  8
1
 62
     3
 60
     1
100
AcDbPoint
 10
361.851424383462
 20
135.2514312604182
 30
0.0
  0
POINT
  5
50
330
1F
100
AcDbEntity
  8
1
 62
     3
 60
     1
100
AcDbPoint
 10
345.604999087569
 20
207.6533311785802
 30
0.0
  0
POINT
  5
51
330
1F
100
AcDbEntity
  8
1
 62
     3
 60
     1
100
AcDbPoint
 10
345.604999087569
 20
158.6533311785802
 30
0.0
  0
LINE
  5
52
330
1F
100
AcDbEntity
  8
1
  6
DOT_CENTER
 62
     2
100
AcDbLine
 10
345.604999087569
 20
207.6533311785802
 30
0.0
 11
345.604999087569
 21
158.6533311785802
 31
0.0
  0
LINE
  5
53
330
1F
100
AcDbEntity
  8
1
  6
DOT_CENTER
 62
     7
100
AcDbLine
 10
290.600066049203
 20
183.7514312604182
 30
0.0
 11
378.709394038952
 21
183.7514312604182
 31
0.0
  0
LINE
  5
54
330
1F
100
AcDbEntity
  8
1
  6
DOT_CENTER
 62
     7
100
AcDbLine
 10
378.709394038952
 20
183.7514312604182
 30
0.0
 11
386.696862213633
 21
183.7514312604182
 31
0.0
  0
LINE
  5
55
330
1F
100
AcDbEntity
  8
1
  6
Continuous
 62
     7
100
AcDbLine
 10
364.130127714169
 20
232.1514312604183
 30
0.0
 11
363.130127714169
 21
232.1514312604183
 31
0.0
  0
LINE
  5
56
330
1F
100
AcDbEntity
  8
1
  6
Continuous
 62
     7
100
AcDbLine
 10
364.130127714169
 20
233.4014312604183
 30
0.0
 11
364.130127714169
 21
232.1514312604183
 31
0.0
  0
LINE
  5
57
330
1F
100
AcDbEntity
  8
1
  6
Continuous
 62
     7
100
AcDbLine
 10
365.880127714169
 20
233.9014312604183
 30
0.0
 11
364.630127714169
 21
233.9014312604183
 31
0.0
  0
LINE
  5
58
330
1F
100
AcDbEntity
  8
1
  6
Continuous
 62
     7
100
AcDbLine
 10
365.880127714169
 20
234.9014312604183
 30
0.0
 11
365.880127714169
 21
233.9014312604183
 31
0.0
  0
LINE
  5
59
330
1F
100
AcDbEntity
  8
1
  6
Continuous
 62
     7
100
AcDbLine
 10
364.630127714169
 20
234.9014312604183
 30
0.0
 11
365.880127714169
 21
234.9014312604183
 31
0.0
  0
LINE
  5
5A
330
1F
100
AcDbEntity
  8
1
  6
Continuous
 62
     7
100
AcDbLine
 10
364.130127714169
 20
236.6514312604183
 30
0.0
 11
364.130127714169
 21
235.4014312604183
 31
0.0
  0
LINE
  5
5B
330
1F
100
AcDbEntity
  8
1
  6
Continuous
 62
     7
100
AcDbLine
 10
363.130127714169
 20
236.6514312604183
 30
0.0
 11
364.130127714169
 21
236.6514312604183
 31
0.0
  0
LINE
  5
5C
330
1F
100
AcDbEntity
  8
1
  6
Continuous
 62
     7
100
AcDbLine
 10
363.130127714169
 20
235.4014312604183
 30
0.0
 11
363.130127714169
 21
236.6514312604183
 31
0.0
  0
LINE
  5
5D
330
1F
100
AcDbEntity
  8
1
  6
Continuous
 62
     7
100
AcDbLine
 10
361.380127714169
 20
234.9014312604183
 30
0.0
 11
362.630127714169
 21
234.9014312604183
 31
0.0
  0
LINE
  5
5E
330
1F
100
AcDbEntity
  8
1
  6
Continuous
 62
     7
100
AcDbLine
 10
361.380127714169
 20
233.9014312604183
 30
0.0
 11
361.380127714169
 21
234.9014312604183
 31
0.0
  0
LINE
  5
5F
330
1F
100
AcDbEntity
  8
1
  6
Continuous
 62
     7
100
AcDbLine
 10
362.630127714169
 20
233.9014312604183
 30
0.0
 11
361.380127714169
 21
233.9014312604183
 31
0.0
  0
LINE
  5
60
330
1F
100
AcDbEntity
  8
1
  6
Continuous
 62
     7
100
AcDbLine
 10
363.130127714169
 20
232.1514312604183
 30
0.0
 11
363.130127714169
 21
233.4014312604183
 31
0.0
  0
LINE
  5
61
330
1F
100
AcDbEntity
  8
1
  6
Continuous
 62
     7
100
AcDbLine
 10
362.880127714169
 20
233.6514312604183
 30
0.0
 11
363.130127714169
 21
233.4014312604183
 31
0.0
  0
LINE
  5
62
330
1F
100
AcDbEntity
  8
1
  6
Continuous
 62
     7
100
AcDbLine
 10
364.380127714169
 20
233.6514312604183
 30
0.0
 11
364.130127714169
 21
233.4014312604183
 31
0.0
  0
LINE
  5
63
330
1F
100
AcDbEntity
  8
1
  6
Continuous
 62
     7
100
AcDbLine
 10
364.380127714169
 20
235.1514312604183
 30
0.0
 11
364.630127714169
 21
234.9014312604183
 31
0.0
  0
LINE
  5
64
330
1F
100
AcDbEntity
  8
1
  6
Continuous
 62
     7
100
AcDbLine
 10
362.880127714169
 20
235.1514312604183
 30
0.0
 11
363.130127714169
 21
235.4014312604183
 31
0.0
  0
LINE
  5
65
330
1F
100
AcDbEntity
  8
1
  6
Continuous
 62
     2
100
AcDbLine
 10
365.2211179718387
 20
232.8104410027485
 30
0.0
 11
364.380127714169
 21
233.6514312604183
 31
0.0
  0
LINE
  5
66
330
1F
100
AcDbEntity
  8
1
  6
Continuous
 62
     7
100
AcDbLine
 10
364.630127714169
 20
233.9014312604183
 30
0.0
 11
364.380127714169
 21
233.6514312604183
 31
0.0
  0
LINE
  5
67
330
1F
100
AcDbEntity
  8
1
  6
Continuous
 62
     2
100
AcDbLine
 10
362.0391374564993
 20
232.8104410027485
 30
0.0
 11
362.880127714169
 21
233.6514312604183
 31
0.0
  0
LINE
  5
68
330
1F
100
AcDbEntity
  8
1
  6
Continuous
 62
     7
100
AcDbLine
 10
362.630127714169
 20
233.9014312604183
 30
0.0
 11
362.880127714169
 21
233.6514312604183
 31
0.0
  0
LINE
  5
69
330
1F
100
AcDbEntity
  8
1
  6
Continuous
 62
     2
100
AcDbLine
 10
362.0391374564993
 20
235.9924215180881
 30
0.0
 11
362.880127714169
 21
235.1514312604183
 31
0.0
  0
LINE
  5
6A
330
1F
100
AcDbEntity
  8
1
  6
Continuous
 62
     7
100
AcDbLine
 10
362.630127714169
 20
234.9014312604183
 30
0.0
 11
362.880127714169
 21
235.1514312604183
 31
0.0
  0
LINE
  5
6B
330
1F
100
AcDbEntity
  8
1
  6
Continuous
 62
     2
100
AcDbLine
 10
365.2211179718387
 20
235.9924215180881
 30
0.0
 11
364.380127714169
 21
235.1514312604183
 31
0.0
  0
LINE
  5
6C
330
1F
100
AcDbEntity
  8
1
  6
Continuous
 62
     7
100
AcDbLine
 10
364.130127714169
 20
235.4014312604183
 30
0.0
 11
364.380127714169
 21
235.1514312604183
 31
0.0
  0
LINE
  5
6D
330
1F
100
AcDbEntity
  8
1
  6
Continuous
 62
     7
100
AcDbLine
 10
311.068706963869
 20
229.5014312604183
 30
0.0
 11
310.068706963869
 21
229.5014312604183
 31
0.0
  0
LINE
  5
6E
330
1F
100
AcDbEntity
  8
1
  6
Continuous
 62
     7
100
AcDbLine
 10
311.068706963869
 20
230.7514312604183
 30
0.0
 11
311.068706963869
 21
229.5014312604183
 31
0.0
  0
LINE
  5
6F
330
1F
100
AcDbEntity
  8
1
  6
Continuous
 62
     7
100
AcDbLine
 10
312.818706963869
 20
231.2514312604183
 30
0.0
 11
311.568706963869
 21
231.2514312604183
 31
0.0
  0
LINE
  5
70
330
1F
100
AcDbEntity
  8
1
  6
Continuous
 62
     7
100
AcDbLine
 10
312.818706963869
 20
232.2514312604183
 30
0.0
 11
312.818706963869
 21
231.2514312604183
 31
0.0
  0
LINE
  5
71
330
1F
100
AcDbEntity
  8
1
  6
Continuous
 62
     7
100
AcDbLine
 10
311.568706963869
 20
232.2514312604183
 30
0.0
 11
312.818706963869
 21
232.2514312604183
 31
0.0
  0
LINE
  5
72
330
1F
100
AcDbEntity
  8
1
  6
Continuous
 62
     7
100
AcDbLine
 10
311.068706963869
 20
234.0014312604183
 30
0.0
 11
311.068706963869
 21
232.7514312604183
 31
0.0
  0
LINE
  5
73
330
1F
100
AcDbEntity
  8
1
  6
Continuous
 62
     7
100
AcDbLine
 10
310.068706963869
 20
234.0014312604183
 30
0.0
 11
311.068706963869
 21
234.0014312604183
 31
0.0
  0
LINE
  5
74
330
1F
100
AcDbEntity
  8
1
  6
Continuous
 62
     7
100
AcDbLine
 10
310.068706963869
 20
232.7514312604183
 30
0.0
 11
310.068706963869
 21
234.0014312604183
 31
0.0
  0
LINE
  5
75
330
1F
100
AcDbEntity
  8
1
  6
Continuous
 62
     7
100
AcDbLine
 10
308.318706963869
 20
232.2514312604183
 30
0.0
 11
309.568706963869
 21
232.2514312604183
 31
0.0
  0
LINE
  5
76
330
1F
100
AcDbEntity
  8
1
  6
Continuous
 62
     7
100
AcDbLine
 10
308.318706963869
 20
231.2514312604183
 30
0.0
 11
308.318706963869
 21
232.2514312604183
 31
0.0
  0
LINE
  5
77
330
1F
100
AcDbEntity
  8
1
  6
Continuous
 62
     7
100
AcDbLine
 10
309.568706963869
 20
231.2514312604183
 30
0.0
 11
308.318706963869
 21
231.2514312604183
 31
0.0
  0
LINE
  5
78
330
1F
100
AcDbEntity
  8
1
  6
Continuous
 62
     7
100
AcDbLine
 10
310.068706963869
 20
229.5014312604183
 30
0.0
 11
310.068706963869
 21
230.7514312604183
 31
0.0
  0
LINE
  5
79
330
1F
100
AcDbEntity
  8
1
  6
Continuous
 62
     7
100
AcDbLine
 10
309.818706963869
 20
231.0014312604183
 30
0.0
 11
310.068706963869
 21
230.7514312604183
 31
0.0
  0
LINE
  5
7A
330
1F
100
AcDbEntity
  8
1
  6
Continuous
 62
     7
100
AcDbLine
 10
311.318706963869
 20
231.0014312604183
 30
0.0
 11
311.068706963869
 21
230.7514312604183
 31
0.0
  0
LINE
  5
7B
330
1F
100
AcDbEntity
  8
1
  6
Continuous
 62
     7
100
AcDbLine
 10
311.318706963869
 20
232.5014312604183
 30
0.0
 11
311.568706963869
 21
232.2514312604183
 31
0.0
  0
LINE
  5
7C
330
1F
100
AcDbEntity
  8
1
  6
Continuous
 62
     7
100
AcDbLine
 10
309.818706963869
 20
232.5014312604183
 30
0.0
 11
310.068706963869
 21
232.7514312604183
 31
0.0
  0
LINE
  5
7D
330
1F
100
AcDbEntity
  8
1
  6
Continuous
 62
     2
100
AcDbLine
 10
312.1596972215388
 20
230.1604410027485
 30
0.0
 11
311.318706963869
 21
231.0014312604183
 31
0.0
  0
LINE
  5
7E
330
1F
100
AcDbEntity
  8
1
  6
Continuous
 62
     7
100
AcDbLine
 10
311.568706963869
 20
231.2514312604183
 30
0.0
 11
311.318706963869
 21
231.0014312604183
 31
0.0
  0
LINE
  5
7F
330
1F
100
AcDbEntity
  8
1
  6
Continuous
 62
     2
100
AcDbLine
 10
308.9777167061993
 20
230.1604410027485
 30
0.0
 11
309.818706963869
 21
231.0014312604183
 31
0.0
  0
LINE
  5
80
330
1F
100
AcDbEntity
  8
1
  6
Continuous
 62
     7
100
AcDbLine
 10
309.568706963869
 20
231.2514312604183
 30
0.0
 11
309.818706963869
 21
231.0014312604183
 31
0.0
  0
LINE
  5
81
330
1F
100
AcDbEntity
  8
1
  6
Continuous
 62
     2
100
AcDbLine
 10
308.9777167061993
 20
233.3424215180881
 30
0.0
 11
309.818706963869
 21
232.5014312604183
 31
0.0
  0
LINE
  5
82
330
1F
100
AcDbEntity
  8
1
  6
Continuous
 62
     7
100
AcDbLine
 10
309.568706963869
 20
232.2514312604183
 30
0.0
 11
309.818706963869
 21
232.5014312604183
 31
0.0
  0
LINE
  5
83
330
1F
100
AcDbEntity
  8
1
  6
Continuous
 62
     2
100
AcDbLine
 10
312.1596972215388
 20
233.3424215180881
 30
0.0
 11
311.318706963869
 21
232.5014312604183
 31
0.0
  0
LINE
  5
84
330
1F
100
AcDbEntity
  8
1
  6
Continuous
 62
     7
100
AcDbLine
 10
311.068706963869
 20
232.7514312604183
 30
0.0
 11
311.318706963869
 21
232.5014312604183
 31
0.0
  0
LINE
  5
85
330
1F
100
AcDbEntity
  8
1
  6
Continuous
 62
     7
100
AcDbLine
 10
364.130127714169
 20
130.8514312604183
 30
0.0
 11
363.130127714169
 21
130.8514312604183
 31
0.0
  0
LINE
  5
86
330
1F
100
AcDbEntity
  8
1
  6
Continuous
 62
     7
100
AcDbLine
 10
364.130127714169
 20
132.1014312604183
 30
0.0
 11
364.130127714169
 21
130.8514312604183
 31
0.0
  0
LINE
  5
87
330
1F
100
AcDbEntity
  8
1
  6
Continuous
 62
     7
100
AcDbLine
 10
365.880127714169
 20
132.6014312604183
 30
0.0
 11
364.630127714169
 21
132.6014312604183
 31
0.0
  0
LINE
  5
88
330
1F
100
AcDbEntity
  8
1
  6
Continuous
 62
     7
100
AcDbLine
 10
365.880127714169
 20
133.6014312604183
 30
0.0
 11
365.880127714169
 21
132.6014312604183
 31
0.0
  0
LINE
  5
89
330
1F
100
AcDbEntity
  8
1
  6
Continuous
 62
     7
100
AcDbLine
 10
364.630127714169
 20
133.6014312604183
 30
0.0
 11
365.880127714169
 21
133.6014312604183
 31
0.0
  0
LINE
  5
8A
330
1F
100
AcDbEntity
  8
1
  6
Continuous
 62
     7
100
AcDbLine
 10
364.130127714169
 20
135.3514312604183
 30
0.0
 11
364.130127714169
 21
134.1014312604183
 31
0.0
  0
LINE
  5
8B
330
1F
100
AcDbEntity
  8
1
  6
Continuous
 62
     7
100
AcDbLine
 10
363.130127714169
 20
135.3514312604183
 30
0.0
 11
364.130127714169
 21
135.3514312604183
 31
0.0
  0
LINE
  5
8C
330
1F
100
AcDbEntity
  8
1
  6
Continuous
 62
     7
100
AcDbLine
 10
363.130127714169
 20
134.1014312604183
 30
0.0
 11
363.130127714169
 21
135.3514312604183
 31
0.0
  0
LINE
  5
8D
330
1F
100
AcDbEntity
  8
1
  6
Continuous
 62
     7
100
AcDbLine
 10
361.380127714169
 20
133.6014312604183
 30
0.0
 11
362.630127714169
 21
133.6014312604183
 31
0.0
  0
LINE
  5
8E
330
1F
100
AcDbEntity
  8
1
  6
Continuous
 62
     7
100
AcDbLine
 10
361.380127714169
 20
132.6014312604183
 30
0.0
 11
361.380127714169
 21
133.6014312604183
 31
0.0
  0
LINE
  5
8F
330
1F
100
AcDbEntity
  8
1
  6
Continuous
 62
     7
100
AcDbLine
 10
362.630127714169
 20
132.6014312604183
 30
0.0
 11
361.380127714169
 21
132.6014312604183
 31
0.0
  0
LINE
  5
90
330
1F
100
AcDbEntity
  8
1
  6
Continuous
 62
     7
100
AcDbLine
 10
363.130127714169
 20
130.8514312604183
 30
0.0
 11
363.130127714169
 21
132.1014312604183
 31
0.0
  0
LINE
  5
91
330
1F
100
AcDbEntity
  8
1
  6
Continuous
 62
     7
100
AcDbLine
 10
362.880127714169
 20
132.3514312604183
 30
0.0
 11
363.130127714169
 21
132.1014312604183
 31
0.0
  0
LINE
  5
92
330
1F
100
AcDbEntity
  8
1
  6
Continuous
 62
     7
100
AcDbLine
 10
364.380127714169
 20
132.3514312604183
 30
0.0
 11
364.130127714169
 21
132.1014312604183
 31
0.0
  0
LINE
  5
93
330
1F
100
AcDbEntity
  8
1
  6
Continuous
 62
     7
100
AcDbLine
 10
364.380127714169
 20
133.8514312604183
 30
0.0
 11
364.630127714169
 21
133.6014312604183
 31
0.0
  0
LINE
  5
94
330
1F
100
AcDbEntity
  8
1
  6
Continuous
 62
     7
100
AcDbLine
 10
362.880127714169
 20
133.8514312604183
 30
0.0
 11
363.130127714169
 21
134.1014312604183
 31
0.0
  0
LINE
  5
95
330
1F
100
AcDbEntity
  8
1
  6
Continuous
 62
     2
100
AcDbLine
 10
365.2211179718387
 20
131.5104410027485
 30
0.0
 11
364.380127714169
 21
132.3514312604183
 31
0.0
  0
LINE
  5
96
330
1F
100
AcDbEntity
  8
1
  6
Continuous
 62
     7
100
AcDbLine
 10
364.630127714169
 20
132.6014312604183
 30
0.0
 11
364.380127714169
 21
132.3514312604183
 31
0.0
  0
LINE
  5
97
330
1F
100
AcDbEntity
  8
1
  6
Continuous
 62
     2
100
AcDbLine
 10
362.0391374564993
 20
131.5104410027485
 30
0.0
 11
362.880127714169
 21
132.3514312604183
 31
0.0
  0
LINE
  5
98
330
1F
100
AcDbEntity
  8
1
  6
Continuous
 62
     7
100
AcDbLine
 10
362.630127714169
 20
132.6014312604183
 30
0.0
 11
362.880127714169
 21
132.3514312604183
 31
0.0
  0
LINE
  5
99
330
1F
100
AcDbEntity
  8
1
  6
Continuous
 62
     2
100
AcDbLine
 10
362.0391374564993
 20
134.6924215180881
 30
0.0
 11
362.880127714169
 21
133.8514312604183
 31
0.0
  0
LINE
  5
9A
330
1F
100
AcDbEntity
  8
1
  6
Continuous
 62
     7
100
AcDbLine
 10
362.630127714169
 20
133.6014312604183
 30
0.0
 11
362.880127714169
 21
133.8514312604183
 31
0.0
  0
LINE
  5
9B
330
1F
100
AcDbEntity
  8
1
  6
Continuous
 62
     2
100
AcDbLine
 10
365.2211179718387
 20
134.6924215180881
 30
0.0
 11
364.380127714169
 21
133.8514312604183
 31
0.0
  0
LINE
  5
9C
330
1F
100
AcDbEntity
  8
1
  6
Continuous
 62
     7
100
AcDbLine
 10
364.130127714169
 20
134.1014312604183
 30
0.0
 11
364.380127714169
 21
133.8514312604183
 31
0.0
  0
LINE
  5
9D
330
1F
100
AcDbEntity
  8
1
  6
Continuous
 62
     7
100
AcDbLine
 10
311.068706963869
 20
133.5014312604183
 30
0.0
 11
310.068706963869
 21
133.5014312604183
 31
0.0
  0
LINE
  5
9E
330
1F
100
AcDbEntity
  8
1
  6
Continuous
 62
     7
100
AcDbLine
 10
311.068706963869
 20
134.7514312604183
 30
0.0
 11
311.068706963869
 21
133.5014312604183
 31
0.0
  0
LINE
  5
9F
330
1F
100
AcDbEntity
  8
1
  6
Continuous
 62
     7
100
AcDbLine
 10
312.818706963869
 20
135.2514312604183
 30
0.0
 11
311.568706963869
 21
135.2514312604183
 31
0.0
  0
LINE
  5
A0
330
1F
100
AcDbEntity
  8
1
  6
Continuous
 62
     7
100
AcDbLine
 10
312.818706963869
 20
136.2514312604183
 30
0.0
 11
312.818706963869
 21
135.2514312604183
 31
0.0
  0
LINE
  5
A1
330
1F
100
AcDbEntity
  8
1
  6
Continuous
 62
     7
100
AcDbLine
 10
311.568706963869
 20
136.2514312604183
 30
0.0
 11
312.818706963869
 21
136.2514312604183
 31
0.0
  0
LINE
  5
A2
330
1F
100
AcDbEntity
  8
1
  6
Continuous
 62
     7
100
AcDbLine
 10
311.068706963869
 20
138.0014312604183
 30
0.0
 11
311.068706963869
 21
136.7514312604183
 31
0.0
  0
LINE
  5
A3
330
1F
100
AcDbEntity
  8
1
  6
Continuous
 62
     7
100
AcDbLine
 10
310.068706963869
 20
138.0014312604183
 30
0.0
 11
311.068706963869
 21
138.0014312604183
 31
0.0
  0
LINE
  5
A4
330
1F
100
AcDbEntity
  8
1
  6
Continuous
 62
     7
100
AcDbLine
 10
310.068706963869
 20
136.7514312604183
 30
0.0
 11
310.068706963869
 21
138.0014312604183
 31
0.0
  0
LINE
  5
A5
330
1F
100
AcDbEntity
  8
1
  6
Continuous
 62
     7
100
AcDbLine
 10
308.318706963869
 20
136.2514312604183
 30
0.0
 11
309.568706963869
 21
136.2514312604183
 31
0.0
  0
LINE
  5
A6
330
1F
100
AcDbEntity
  8
1
  6
Continuous
 62
     7
100
AcDbLine
 10
308.318706963869
 20
135.2514312604183
 30
0.0
 11
308.318706963869
 21
136.2514312604183
 31
0.0
  0
LINE
  5
A7
330
1F
100
AcDbEntity
  8
1
  6
Continuous
 62
     7
100
AcDbLine
 10
309.568706963869
 20
135.2514312604183
 30
0.0
 11
308.318706963869
 21
135.2514312604183
 31
0.0
  0
LINE
  5
A8
330
1F
100
AcDbEntity
  8
1
  6
Continuous
 62
     7
100
AcDbLine
 10
310.068706963869
 20
133.5014312604183
 30
0.0
 11
310.068706963869
 21
134.7514312604183
 31
0.0
  0
LINE
  5
A9
330
1F
100
AcDbEntity
  8
1
  6
Continuous
 62
     7
100
AcDbLine
 10
309.818706963869
 20
135.0014312604183
 30
0.0
 11
310.068706963869
 21
134.7514312604183
 31
0.0
  0
LINE
  5
AA
330
1F
100
AcDbEntity
  8
1
  6
Continuous
 62
     7
100
AcDbLine
 10
311.318706963869
 20
135.0014312604183
 30
0.0
 11
311.068706963869
 21
134.7514312604183
 31
0.0
  0
LINE
  5
AB
330
1F
100
AcDbEntity
  8
1
  6
Continuous
 62
     7
100
AcDbLine
 10
311.318706963869
 20
136.5014312604183
 30
0.0
 11
311.568706963869
 21
136.2514312604183
 31
0.0
  0
LINE
  5
AC
330
1F
100
AcDbEntity
  8
1
  6
Continuous
 62
     7
100
AcDbLine
 10
309.818706963869
 20
136.5014312604183
 30
0.0
 11
310.068706963869
 21
136.7514312604183
 31
0.0
  0
LINE
  5
AD
330
1F
100
AcDbEntity
  8
1
  6
Continuous
 62
     2
100
AcDbLine
 10
312.1596972215388
 20
134.1604410027485
 30
0.0
 11
311.318706963869
 21
135.0014312604183
 31
0.0
  0
LINE
  5
AE
330
1F
100
AcDbEntity
  8
1
  6
Continuous
 62
     7
100
AcDbLine
 10
311.568706963869
 20
135.2514312604183
 30
0.0
 11
311.318706963869
 21
135.0014312604183
 31
0.0
  0
LINE
  5
AF
330
1F
100
AcDbEntity
  8
1
  6
Continuous
 62
     2
100
AcDbLine
 10
308.9777167061993
 20
134.1604410027485
 30
0.0
 11
309.818706963869
 21
135.0014312604183
 31
0.0
  0
LINE
  5
B0
330
1F
100
AcDbEntity
  8
1
  6
Continuous
 62
     7
100
AcDbLine
 10
309.568706963869
 20
135.2514312604183
 30
0.0
 11
309.818706963869
 21
135.0014312604183
 31
0.0
  0
LINE
  5
B1
330
1F
100
AcDbEntity
  8
1
  6
Continuous
 62
     2
100
AcDbLine
 10
308.9777167061993
 20
137.3424215180881
 30
0.0
 11
309.818706963869
 21
136.5014312604183
 31
0.0
  0
LINE
  5
B2
330
1F
100
AcDbEntity
  8
1
  6
Continuous
 62
     7
100
AcDbLine
 10
309.568706963869
 20
136.2514312604183
 30
0.0
 11
309.818706963869
 21
136.5014312604183
 31
0.0
  0
LINE
  5
B3
330
1F
100
AcDbEntity
  8
1
  6
Continuous
 62
     2
100
AcDbLine
 10
312.1596972215388
 20
137.3424215180881
 30
0.0
 11
311.318706963869
 21
136.5014312604183
 31
0.0
  0
LINE
  5
B4
330
1F
100
AcDbEntity
  8
1
  6
Continuous
 62
     7
100
AcDbLine
 10
311.068706963869
 20
136.7514312604183
 30
0.0
 11
311.318706963869
 21
136.5014312604183
 31
0.0
  0
LINE
  5
B5
330
1F
100
AcDbEntity
  8
0
  6
Continuous
 62
     7
100
AcDbLine
 10
351.630127714169
 20
153.6014312604182
 30
0.0
 11
351.630127714169
 21
133.1014312604182
 31
0.0
  0
LINE
  5
B6
330
1F
100
AcDbEntity
  8
0
  6
Continuous
 62
     7
100
AcDbLine
 10
375.630127714169
 20
133.1014312604182
 30
0.0
 11
375.630127714169
 21
153.6014312604182
 31
0.0
  0
LINE
  5
B7
330
1F
100
AcDbEntity
  8
A_ACHSEN
  6
DOT_CENTER
 62
     2
100
AcDbLine
 10
365.275566849654
 20
135.2514312604182
 30
0.0
 11
373.084555127869
 21
135.2514312604182
 31
0.0
  0
LINE
  5
B8
330
1F
100
AcDbEntity
  8
1
  6
DOT_CENTER
 62
     2
100
AcDbLine
 10
352.851424383462
 20
135.2514312604182
 30
0.0
 11
361.851424383462
 21
135.2514312604182
 31
0.0
  0
LINE
  5
B9
330
1F
100
AcDbEntity
  8
A_ACHSEN
  6
DOT_CENTER
 62
     2
100
AcDbLine
 10
363.630127714169
 20
133.2514312604182
 30
0.0
 11
363.630127714169
 21
133.2513312604182
 31
0.0
  0
LINE
  5
BA
330
1F
100
AcDbEntity
  8
1
  6
DOT_CENTER
 62
     2
100
AcDbLine
 10
363.630127714169
 20
133.2514312604182
 30
0.0
 11
366.151877838649
 21
133.2514312604182
 31
0.0
  0
LINE
  5
BB
330
1F
100
AcDbEntity
  8
0
  6
Continuous
 62
     7
100
AcDbLine
 10
375.630127714169
 20
153.6014312604182
 30
0.0
 11
351.630127714169
 21
153.6014312604182
 31
0.0
  0
LINE
  5
BC
330
1F
100
AcDbEntity
  8
A_RUNDUNGEN
  6
Continuous
 62
     7
100
AcDbLine
 10
356.630127714169
 20
153.6014312604182
 30
0.0
 11
356.630127714169
 21
153.6514312604182
 31
0.0
  0
LINE
  5
BD
330
1F
100
AcDbEntity
  8
0
  6
Continuous
 62
     7
100
AcDbLine
 10
375.630127714169
 20
213.9014312604182
 30
0.0
 11
375.630127714169
 21
234.4014312604182
 31
0.0
  0
LINE
  5
BE
330
1F
100
AcDbEntity
  8
0
  6
Continuous
 62
     7
100
AcDbLine
 10
351.630127714169
 20
234.4014312604182
 30
0.0
 11
351.630127714169
 21
213.9014312604182
 31
0.0
  0
LINE
  5
BF
330
1F
100
AcDbEntity
  8
A_ACHSEN
  6
DOT_CENTER
 62
     2
100
AcDbLine
 10
365.272172797919
 20
232.2514312604182
 30
0.0
 11
372.760964693369
 21
232.2514312604182
 31
0.0
  0
LINE
  5
C0
330
1F
100
AcDbEntity
  8
1
  6
DOT_CENTER
 62
     2
100
AcDbLine
 10
352.759410631623
 20
232.2514312604182
 30
0.0
 11
361.759410631623
 21
232.2514312604182
 31
0.0
  0
LINE
  5
C1
330
1F
100
AcDbEntity
  8
0
  6
Continuous
 62
     7
100
AcDbLine
 10
328.568706963869
 20
153.7514312604182
 30
0.0
 11
328.568706963869
 21
137.2514312604182
 31
0.0
  0
LINE
  5
C2
330
1F
100
AcDbEntity
  8
0
  6
Continuous
 62
     7
100
AcDbLine
 10
328.568706963869
 20
153.7514312604182
 30
0.0
 11
328.568706963869
 21
154.0014312604182
 31
0.0
  0
LINE
  5
C3
330
1F
100
AcDbEntity
  8
0
  6
Continuous
 62
     7
100
AcDbLine
 10
296.568706963869
 20
153.7514312604182
 30
0.0
 11
328.568706963869
 21
153.7514312604182
 31
0.0
  0
LINE
  5
C4
330
1F
100
AcDbEntity
  8
DEFAULT_1
  6
DOT_CENTER
 62
     2
100
AcDbLine
 10
361.693429497469
 20
211.7664368218962
 30
0.0
 11
361.693429497469
 21
150.5874927758182
 31
0.0
  0
LINE
  5
C5
330
1F
100
AcDbEntity
  8
0
  6
Continuous
 62
     7
100
AcDbLine
 10
351.630127714169
 20
213.9014312604182
 30
0.0
 11
375.630127714169
 21
213.9014312604182
 31
0.0
  0
LINE
  5
C6
330
1F
100
AcDbEntity
  8
A_RUNDUNGEN
  6
Continuous
 62
     7
100
AcDbLine
 10
370.630127714169
 20
213.9014312604182
 30
0.0
 11
370.630127714169
 21
213.8514312604182
 31
0.0
  0
LINE
  5
C7
330
1F
100
AcDbEntity
  8
0
  6
Continuous
 62
     7
100
AcDbLine
 10
328.568706963869
 20
213.7514312604182
 30
0.0
 11
296.568706963869
 21
213.7514312604182
 31
0.0
  0
LINE
  5
C8
330
1F
100
AcDbEntity
  8
0
  6
Continuous
 62
     7
100
AcDbLine
 10
296.568706963869
 20
153.7514312604182
 30
0.0
 11
296.568706963869
 21
213.7514312604182
 31
0.0
  0
LINE
  5
C9
330
1F
100
AcDbEntity
  8
1
  6
Continuous
 62
     7
100
AcDbLine
 10
297.868800306169
 20
213.5014312604182
 30
0.0
 11
328.568706963869
 21
213.5014312604182
 31
0.0
  0
LINE
  5
CA
330
1F
100
AcDbEntity
  8
A_ACHSEN
  6
DOT_CENTER
 62
     2
100
AcDbLine
 10
308.568706963869
 20
238.7514312604182
 30
0.0
 11
300.468706963869
 21
238.7514312604182
 31
0.0
  0
LINE
  5
CB
330
1F
100
AcDbEntity
  8
A_ACHSEN
  6
DOT_CENTER
 62
     2
100
AcDbLine
 10
308.568706963869
 20
238.7514312604182
 30
0.0
 11
320.668706963869
 21
238.7514312604182
 31
0.0
  0
LINE
  5
CC
330
1F
100
AcDbEntity
  8
A_ACHSEN
  6
DOT_CENTER
 62
     2
100
AcDbLine
 10
363.630127714169
 20
237.2514312604182
 30
0.0
 11
360.6300277141691
 21
237.2514312604182
 31
0.0
  0
LINE
  5
CD
330
1F
100
AcDbEntity
  8
A_ACHSEN
  6
DOT_CENTER
 62
     2
100
AcDbLine
 10
363.630127714169
 20
237.2514312604182
 30
0.0
 11
366.630227714169
 21
237.2514312604182
 31
0.0
  0
LINE
  5
CE
330
1F
100
AcDbEntity
  8
A_ACHSEN
  6
DOT_CENTER
 62
     2
100
AcDbLine
 10
357.530127714169
 20
235.2514312604182
 30
0.0
 11
354.530027714169
 21
235.2514312604182
 31
0.0
  0
LINE
  5
CF
330
1F
100
AcDbEntity
  8
A_ACHSEN
  6
DOT_CENTER
 62
     2
100
AcDbLine
 10
369.730127714169
 20
235.2514312604182
 30
0.0
 11
366.730027714169
 21
235.2514312604182
 31
0.0
  0
LINE
  5
D0
330
1F
100
AcDbEntity
  8
A_ACHSEN
  6
DOT_CENTER
 62
     2
100
AcDbLine
 10
369.730127714169
 20
235.2514312604182
 30
0.0
 11
372.730227714169
 21
235.2514312604182
 31
0.0
  0
LINE
  5
D1
330
1F
100
AcDbEntity
  8
A_ACHSEN
  6
DOT_CENTER
 62
     2
100
AcDbLine
 10
357.530127714169
 20
235.2514312604182
 30
0.0
 11
360.530227714169
 21
235.2514312604182
 31
0.0
  0
LINE
  5
D2
330
1F
100
AcDbEntity
  8
A_ACHSEN
  6
DOT_CENTER
 62
     2
100
AcDbLine
 10
363.630127714169
 20
234.2514312604182
 30
0.0
 11
360.6300277141691
 21
234.2514312604182
 31
0.0
  0
LINE
  5
D3
330
1F
100
AcDbEntity
  8
A_ACHSEN
  6
DOT_CENTER
 62
     2
100
AcDbLine
 10
363.630127714169
 20
234.2514312604182
 30
0.0
 11
366.630227714169
 21
234.2514312604182
 31
0.0
  0
LINE
  5
D4
330
1F
100
AcDbEntity
  8
A_ACHSEN
  6
DOT_CENTER
 62
     2
100
AcDbLine
 10
310.568706963869
 20
231.7514312604182
 30
0.0
 11
304.568706963869
 21
231.7514312604182
 31
0.0
  0
LINE
  5
D5
330
1F
100
AcDbEntity
  8
A_ACHSEN
  6
DOT_CENTER
 62
     2
100
AcDbLine
 10
310.568706963869
 20
231.7514312604182
 30
0.0
 11
316.568706963869
 21
231.7514312604182
 31
0.0
  0
LINE
  5
D6
330
1F
100
AcDbEntity
  8
A_ACHSEN
  6
DOT_CENTER
 62
     2
100
AcDbLine
 10
363.630127714169
 20
231.2514312604182
 30
0.0
 11
360.6300277141691
 21
231.2514312604182
 31
0.0
  0
LINE
  5
D7
330
1F
100
AcDbEntity
  8
A_ACHSEN
  6
DOT_CENTER
 62
     2
100
AcDbLine
 10
363.630127714169
 20
231.2514312604182
 30
0.0
 11
366.630227714169
 21
231.2514312604182
 31
0.0
  0
LINE
  5
D8
330
1F
100
AcDbEntity
  8
A_ACHSEN
  6
DOT_CENTER
 62
     2
100
AcDbLine
 10
357.530127714169
 20
229.2514312604182
 30
0.0
 11
354.530027714169
 21
229.2514312604182
 31
0.0
  0
LINE
  5
D9
330
1F
100
AcDbEntity
  8
A_ACHSEN
  6
DOT_CENTER
 62
     2
100
AcDbLine
 10
369.730127714169
 20
229.2514312604182
 30
0.0
 11
366.730027714169
 21
229.2514312604182
 31
0.0
  0
LINE
  5
DA
330
1F
100
AcDbEntity
  8
A_ACHSEN
  6
DOT_CENTER
 62
     2
100
AcDbLine
 10
369.730127714169
 20
229.2514312604182
 30
0.0
 11
372.730227714169
 21
229.2514312604182
 31
0.0
  0
LINE
  5
DB
330
1F
100
AcDbEntity
  8
A_ACHSEN
  6
DOT_CENTER
 62
     2
100
AcDbLine
 10
357.530127714169
 20
229.2514312604182
 30
0.0
 11
360.530227714169
 21
229.2514312604182
 31
0.0
  0
LINE
  5
DC
330
1F
100
AcDbEntity
  8
0
  6
Continuous
 62
     7
100
AcDbLine
 10
343.904999087569
 20
206.9014312604182
 30
0.0
 11
343.604999087569
 21
206.6014312604182
 31
0.0
  0
LINE
  5
DD
330
1F
100
AcDbEntity
  8
A_RUNDUNGEN
  6
Continuous
 62
     7
100
AcDbLine
 10
297.368706963869
 20
154.5014312604182
 30
0.0
 11
297.368706963869
 21
213.0014312604182
 31
0.0
  0
LINE
  5
DE
330
1F
100
AcDbEntity
  8
A_RUNDUNGEN
  6
Continuous
 62
     7
100
AcDbLine
 10
297.568706963869
 20
207.8514312604182
 30
0.0
 11
297.568706963869
 21
212.8514312604182
 31
0.0
  0
LINE
  5
DF
330
1F
100
AcDbEntity
  8
A_RUNDUNGEN
  6
Continuous
 62
     7
100
AcDbLine
 10
297.568706963869
 20
154.6514312604182
 30
0.0
 11
297.568706963869
 21
159.6514312604182
 31
0.0
  0
LINE
  5
E0
330
1F
100
AcDbEntity
  8
A_RUNDUNGEN
  6
Continuous
 62
     7
100
AcDbLine
 10
373.930127714169
 20
213.5014312604182
 30
0.0
 11
370.781726590869
 21
213.5014312604182
 31
0.0
  0
LINE
  5
E1
330
1F
100
AcDbEntity
  8
A_RUNDUNGEN
  6
Continuous
 62
     7
100
AcDbLine
 10
372.730127714169
 20
213.3514312604182
 30
0.0
 11
348.630127714169
 21
213.3514312604182
 31
0.0
  0
LINE
  5
E2
330
1F
100
AcDbEntity
  8
A_RUNDUNGEN
  6
Continuous
 62
     7
100
AcDbLine
 10
298.069011735969
 20
213.3514312604182
 30
0.0
 11
328.068706963869
 21
213.3514312604182
 31
0.0
  0
LINE
  5
E3
330
1F
100
AcDbEntity
  8
0
  6
Continuous
 62
     7
100
AcDbLine
 10
373.230127714169
 20
210.1514312604182
 30
0.0
 11
348.630127714169
 21
210.1514312604182
 31
0.0
  0
LINE
  5
E4
330
1F
100
AcDbEntity
  8
0
  6
Continuous
 62
     7
100
AcDbLine
 10
348.630127714169
 20
207.8514312604182
 30
0.0
 11
373.230127714169
 21
207.8514312604182
 31
0.0
  0
LINE
  5
E5
330
1F
100
AcDbEntity
  8
0
  6
Continuous
 62
     7
100
AcDbLine
 10
297.568706963869
 20
207.8514312604182
 30
0.0
 11
328.568706963869
 21
207.8514312604182
 31
0.0
  0
LINE
  5
E6
330
1F
100
AcDbEntity
  8
A_ACHSEN
  6
Continuous
 62
     7
100
AcDbLine
 10
308.255520987569
 20
160.9014312604182
 30
0.0
 11
308.255520987569
 21
206.6014312604182
 31
0.0
  0
LINE
  5
E7
330
1F
100
AcDbEntity
  8
A_ACHSEN
  6
Continuous
 62
     7
100
AcDbLine
 10
308.475433237069
 20
159.6514312604182
 30
0.0
 11
308.475433237069
 21
160.9514312604182
 31
0.0
  0
LINE
  5
E8
330
1F
100
AcDbEntity
  8
A_ACHSEN
  6
Continuous
 62
     7
100
AcDbLine
 10
308.475433237069
 20
207.8514312604182
 30
0.0
 11
308.475433237069
 21
206.5514312604182
 31
0.0
  0
LINE
  5
E9
330
1F
100
AcDbEntity
  8
A_ACHSEN
  6
DOT_CENTER
 62
     2
100
AcDbLine
 10
310.568706963869
 20
238.7514312604182
 30
0.0
 11
310.568706963869
 21
246.8514312604182
 31
0.0
  0
LINE
  5
EA
330
1F
100
AcDbEntity
  8
A_ACHSEN
  6
DOT_CENTER
 62
     2
100
AcDbLine
 10
312.568706963869
 20
155.8439028213182
 30
0.0
 11
312.568706963869
 21
210.1037118814092
 31
0.0
  0
LINE
  5
EB
330
1F
100
AcDbEntity
  8
A_ACHSEN
  6
DOT_CENTER
 62
     2
100
AcDbLine
 10
310.568706963869
 20
136.8514312604182
 30
0.0
 11
310.568706963869
 21
141.0764312604182
 31
0.0
  0
LINE
  5
EC
330
1F
100
AcDbEntity
  8
A_ACHSEN
  6
DOT_CENTER
 62
     2
100
AcDbLine
 10
310.568706963869
 20
135.7514312604182
 30
0.0
 11
310.568706963869
 21
136.8514312604182
 31
0.0
  0
LINE
  5
ED
330
1F
100
AcDbEntity
  8
A_ACHSEN
  6
DOT_CENTER
 62
     2
100
AcDbLine
 10
310.568706963869
 20
128.7514312604182
 30
0.0
 11
310.568706963869
 21
129.7514312604182
 31
0.0
  0
LINE
  5
EE
330
1F
100
AcDbEntity
  8
A_ACHSEN
  6
DOT_CENTER
 62
     2
100
AcDbLine
 10
310.568706963869
 20
128.7514312604182
 30
0.0
 11
310.568706963869
 21
120.6514312604182
 31
0.0
  0
LINE
  5
EF
330
1F
100
AcDbEntity
  8
A_ACHSEN
  6
DOT_CENTER
 62
     2
100
AcDbLine
 10
310.568706963869
 20
135.7514312604182
 30
0.0
 11
310.568706963869
 21
129.7514312604182
 31
0.0
  0
LINE
  5
F0
330
1F
100
AcDbEntity
  8
A_ACHSEN
  6
DOT_CENTER
 62
     2
100
AcDbLine
 10
310.568706963869
 20
230.6514312604182
 30
0.0
 11
310.568706963869
 21
225.7514312604182
 31
0.0
  0
LINE
  5
F1
330
1F
100
AcDbEntity
  8
A_ACHSEN
  6
DOT_CENTER
 62
     2
100
AcDbLine
 10
310.568706963869
 20
238.7514312604182
 30
0.0
 11
310.568706963869
 21
230.6514312604182
 31
0.0
  0
LINE
  5
F2
330
1F
100
AcDbEntity
  8
0
  6
Continuous
 62
     7
100
AcDbLine
 10
347.304997964069
 20
206.9014312604182
 30
0.0
 11
343.905000210969
 21
206.9014312604182
 31
0.0
  0
LINE
  5
F3
330
1F
100
AcDbEntity
  8
0
  6
Continuous
 62
     7
100
AcDbLine
 10
357.287656734269
 20
206.6014312604182
 30
0.0
 11
365.693103242969
 21
206.6014312604182
 31
0.0
  0
LINE
  5
F4
330
1F
100
AcDbEntity
  8
A_ACHSEN
  6
Continuous
 62
     7
100
AcDbLine
 10
309.723896962469
 20
206.6014312604182
 30
0.0
 11
356.630126623269
 21
206.6014312604182
 31
0.0
  0
LINE
  5
F5
330
1F
100
AcDbEntity
  8
A_ACHSEN
  6
Continuous
 62
     7
100
AcDbLine
 10
308.255793183069
 20
206.6014312604182
 30
0.0
 11
308.475433237069
 21
206.6014312604182
 31
0.0
  0
LINE
  5
F6
330
1F
100
AcDbEntity
  8
A_ACHSEN
  6
Continuous
 62
     7
100
AcDbLine
 10
310.128136881669
 20
206.5514312604182
 30
0.0
 11
308.475433237069
 21
206.5514312604182
 31
0.0
  0
LINE
  5
F7
330
1F
100
AcDbEntity
  8
A_ACHSEN
  6
Continuous
 62
     7
100
AcDbLine
 10
357.287656734269
 20
206.5514312604182
 30
0.0
 11
356.786233892669
 21
206.5514312604182
 31
0.0
  0
LINE
  5
F8
330
1F
100
AcDbEntity
  8
0
  6
Continuous
 62
     7
100
AcDbLine
 10
356.629883528669
 20
195.3514312604182
 30
0.0
 11
327.947655482869
 21
195.3514312604182
 31
0.0
  0
LINE
  5
F9
330
1F
100
AcDbEntity
  8
A_ACHSEN
  6
Continuous
 62
     7
100
AcDbLine
 10
347.629686505869
 20
195.3514312604182
 30
0.0
 11
344.072434219769
 21
195.3514312604182
 31
0.0
  0
LINE
  5
FA
330
1F
100
AcDbEntity
  8
A_RUNDUNGEN
  6
Continuous
 62
     7
100
AcDbLine
 10
324.156962785769
 20
195.3514312604182
 30
0.0
 11
327.947655482869
 21
195.3514312604182
 31
0.0
  0
LINE
  5
FB
330
1F
100
AcDbEntity
  8
0
  6
Continuous
 62
     7
100
AcDbLine
 10
355.630114896069
 20
195.2514312604182
 30
0.0
 11
349.630140532169
 21
195.2514312604182
 31
0.0
  0
LINE
  5
FC
330
1F
100
AcDbEntity
  8
A_RUNDUNGEN
  6
Continuous
 62
     7
100
AcDbLine
 10
327.762746913569
 20
194.3669942317182
 30
0.0
 11
327.756973069769
 21
194.2658951628182
 31
0.0
  0
LINE
  5
FD
330
1F
100
AcDbEntity
  8
A_ACHSEN
  6
Continuous
 62
     7
100
AcDbLine
 10
316.472106197869
 20
159.6514312604182
 30
0.0
 11
316.472106197869
 21
160.9014312604182
 31
0.0
  0
LINE
  5
FE
330
1F
100
AcDbEntity
  8
A_ACHSEN
  6
Continuous
 62
     7
100
AcDbLine
 10
316.472106197869
 20
207.8514312604182
 30
0.0
 11
316.472106197869
 21
206.6014312604182
 31
0.0
  0
LINE
  5
FF
330
1F
100
AcDbEntity
  8
A_ACHSEN
  6
Continuous
 62
     7
100
AcDbLine
 10
320.068706963869
 20
159.6514312604182
 30
0.0
 11
320.068706963869
 21
160.9014312604182
 31
0.0
  0
LINE
  5
100
330
1F
100
AcDbEntity
  8
A_ACHSEN
  6
Continuous
 62
     7
100
AcDbLine
 10
320.068706963869
 20
207.8514312604182
 30
0.0
 11
320.068706963869
 21
206.6014312604182
 31
0.0
  0
LINE
  5
101
330
1F
100
AcDbEntity
  8
A_RUNDUNGEN
  6
Continuous
 62
     7
100
AcDbLine
 10
322.420619901069
 20
173.6514312604182
 30
0.0
 11
322.420619901069
 21
193.8514312604182
 31
0.0
  0
LINE
  5
102
330
1F
100
AcDbEntity
  8
DEFAULT_1
  6
DOT_CENTER
 62
     2
100
AcDbLine
 10
324.068706963869
 20
208.6014312604182
 30
0.0
 11
324.068706963869
 21
158.9014312604182
 31
0.0
  0
LINE
  5
103
330
1F
100
AcDbEntity
  8
A_ACHSEN
  6
Continuous
 62
     7
100
AcDbLine
 10
349.534288483669
 20
194.1014312604182
 30
0.0
 11
346.379079562269
 21
194.1014312604182
 31
0.0
  0
LINE
  5
104
330
1F
100
AcDbEntity
  8
0
  6
Continuous
 62
     7
100
AcDbLine
 10
354.463519807969
 20
194.1014312604182
 30
0.0
 11
322.455829979069
 21
194.1014312604182
 31
0.0
  0
LINE
  5
105
330
1F
100
AcDbEntity
  8
A_RUNDUNGEN
  6
Continuous
 62
     7
100
AcDbLine
 10
354.463519807969
 20
194.1014312604182
 30
0.0
 11
355.772191236969
 21
194.1014312604182
 31
0.0
  0
LINE
  5
106
330
1F
100
AcDbEntity
  8
0
  6
Continuous
 62
     7
100
AcDbLine
 10
347.604999087569
 20
160.9014312604182
 30
0.0
 11
347.304999087569
 21
160.6014312604182
 31
0.0
  0
LINE
  5
107
330
1F
100
AcDbEntity
  8
0
  6
Continuous
 62
     7
100
AcDbLine
 10
328.068706963869
 20
194.1014312604182
 30
0.0
 11
328.068706963869
 21
195.3514312604182
 31
0.0
  0
LINE
  5
108
330
1F
100
AcDbEntity
  8
0
  6
Continuous
 62
     7
100
AcDbLine
 10
328.068706963869
 20
172.1514312604182
 30
0.0
 11
328.068706963869
 21
173.4014312604182
 31
0.0
  0
LINE
  5
109
330
1F
100
AcDbEntity
  8
A_ACHSEN
  6
Continuous
 62
     7
100
AcDbLine
 10
328.068706963869
 20
159.6514312604182
 30
0.0
 11
328.068706963869
 21
160.9014312604182
 31
0.0
  0
LINE
  5
10A
330
1F
100
AcDbEntity
  8
A_ACHSEN
  6
Continuous
 62
     7
100
AcDbLine
 10
328.068706963869
 20
207.8514312604182
 30
0.0
 11
328.068706963869
 21
206.6014312604182
 31
0.0
  0
LINE
  5
10B
330
1F
100
AcDbEntity
  8
0
  6
Continuous
 62
     7
100
AcDbLine
 10
328.568706963869
 20
213.5014312604182
 30
0.0
 11
328.568706963869
 21
213.7514312604182
 31
0.0
  0
LINE
  5
10C
330
1F
100
AcDbEntity
  8
A_RUNDUNGEN
  6
Continuous
 62
     7
100
AcDbLine
 10
328.568706963869
 20
206.6014312604182
 30
0.0
 11
328.568706963869
 21
212.8514312604182
 31
0.0
  0
LINE
  5
10D
330
1F
100
AcDbEntity
  8
A_RUNDUNGEN
  6
Continuous
 62
     7
100
AcDbLine
 10
328.568706963869
 20
194.1014312604182
 30
0.0
 11
328.568706963869
 21
195.3514312604182
 31
0.0
  0
LINE
  5
10E
330
1F
100
AcDbEntity
  8
A_RUNDUNGEN
  6
Continuous
 62
     7
100
AcDbLine
 10
328.568706963869
 20
172.1514312604182
 30
0.0
 11
328.568706963869
 21
173.4014312604182
 31
0.0
  0
LINE
  5
10F
330
1F
100
AcDbEntity
  8
A_RUNDUNGEN
  6
Continuous
 62
     7
100
AcDbLine
 10
328.568706963869
 20
154.0014312604182
 30
0.0
 11
328.568706963869
 21
160.9014312604182
 31
0.0
  0
LINE
  5
110
330
1F
100
AcDbEntity
  8
A_RUNDUNGEN
  6
Continuous
 62
     7
100
AcDbLine
 10
328.568706963869
 20
154.5872176980182
 30
0.0
 11
328.568706963869
 21
154.0014312604182
 31
0.0
  0
LINE
  5
111
330
1F
100
AcDbEntity
  8
A_RUNDUNGEN
  6
Continuous
 62
     7
100
AcDbLine
 10
328.568706963869
 20
213.5014312604182
 30
0.0
 11
328.568706963869
 21
212.9156448228182
 31
0.0
  0
LINE
  5
112
330
1F
100
AcDbEntity
  8
A_RUNDUNGEN
  6
Continuous
 62
     7
100
AcDbLine
 10
327.756971275969
 20
173.2369619548182
 30
0.0
 11
327.762746913569
 21
173.1358682892182
 31
0.0
  0
LINE
  5
113
330
1F
100
AcDbEntity
  8
0
  6
Continuous
 62
     7
100
AcDbLine
 10
354.463519807969
 20
173.4014312604182
 30
0.0
 11
322.455829979069
 21
173.4014312604182
 31
0.0
  0
LINE
  5
114
330
1F
100
AcDbEntity
  8
A_RUNDUNGEN
  6
Continuous
 62
     7
100
AcDbLine
 10
354.463519807969
 20
173.4014312604182
 30
0.0
 11
355.772191236969
 21
173.4014312604182
 31
0.0
  0
LINE
  5
115
330
1F
100
AcDbEntity
  8
A_ACHSEN
  6
Continuous
 62
     7
100
AcDbLine
 10
346.379079562269
 20
173.4014312604182
 30
0.0
 11
349.534288483669
 21
173.4014312604182
 31
0.0
  0
LINE
  5
116
330
1F
100
AcDbEntity
  8
0
  6
Continuous
 62
     7
100
AcDbLine
 10
355.630114896069
 20
172.2514312604182
 30
0.0
 11
349.630140532169
 21
172.2514312604182
 31
0.0
  0
LINE
  5
117
330
1F
100
AcDbEntity
  8
0
  6
Continuous
 62
     7
100
AcDbLine
 10
356.629883528669
 20
172.1514312604182
 30
0.0
 11
327.947655482869
 21
172.1514312604182
 31
0.0
  0
LINE
  5
118
330
1F
100
AcDbEntity
  8
A_ACHSEN
  6
Continuous
 62
     7
100
AcDbLine
 10
347.629686505869
 20
172.1514312604182
 30
0.0
 11
344.072434219769
 21
172.1514312604182
 31
0.0
  0
LINE
  5
119
330
1F
100
AcDbEntity
  8
A_RUNDUNGEN
  6
Continuous
 62
     7
100
AcDbLine
 10
324.156962785769
 20
172.1514312604182
 30
0.0
 11
327.947655482869
 21
172.1514312604182
 31
0.0
  0
LINE
  5
11A
330
1F
100
AcDbEntity
  8
A_ACHSEN
  6
Continuous
 62
     7
100
AcDbLine
 10
341.604999087569
 20
172.1514312604182
 30
0.0
 11
341.604999087569
 21
173.4014312604182
 31
0.0
  0
LINE
  5
11B
330
1F
100
AcDbEntity
  8
A_ACHSEN
  6
Continuous
 62
     7
100
AcDbLine
 10
341.604999087569
 20
195.3514312604182
 30
0.0
 11
341.604999087569
 21
194.1014312604182
 31
0.0
  0
LINE
  5
11C
330
1F
100
AcDbEntity
  8
0
  6
Continuous
 62
     7
100
AcDbLine
 10
348.630127714169
 20
207.8514312604182
 30
0.0
 11
348.630127714169
 21
213.3514312604182
 31
0.0
  0
LINE
  5
11D
330
1F
100
AcDbEntity
  8
A_ACHSEN
  6
Continuous
 62
     7
100
AcDbLine
 10
348.630127714169
 20
159.6514312604182
 30
0.0
 11
348.630127714169
 21
160.9014312604182
 31
0.0
  0
LINE
  5
11E
330
1F
100
AcDbEntity
  8
0
  6
Continuous
 62
     7
100
AcDbLine
 10
348.630127714169
 20
154.1514312604182
 30
0.0
 11
348.630127714169
 21
159.6514312604182
 31
0.0
  0
LINE
  5
11F
330
1F
100
AcDbEntity
  8
A_ACHSEN
  6
Continuous
 62
     7
100
AcDbLine
 10
348.630127714169
 20
207.8514312604182
 30
0.0
 11
348.630127714169
 21
206.6014312604182
 31
0.0
  0
LINE
  5
120
330
1F
100
AcDbEntity
  8
0
  6
Continuous
 62
     7
100
AcDbLine
 10
347.304999087569
 20
206.9014312604182
 30
0.0
 11
347.604999087569
 21
206.6014312604182
 31
0.0
  0
LINE
  5
121
330
1F
100
AcDbEntity
  8
A_ACHSEN
  6
Continuous
 62
     7
100
AcDbLine
 10
356.786233892669
 20
160.9514312604182
 30
0.0
 11
357.287656734269
 21
160.9514312604182
 31
0.0
  0
LINE
  5
122
330
1F
100
AcDbEntity
  8
A_ACHSEN
  6
Continuous
 62
     7
100
AcDbLine
 10
308.475433237069
 20
160.9514312604182
 30
0.0
 11
310.128136881669
 21
160.9514312604182
 31
0.0
  0
LINE
  5
123
330
1F
100
AcDbEntity
  8
A_ACHSEN
  6
Continuous
 62
     7
100
AcDbLine
 10
356.630126623269
 20
160.9014312604182
 30
0.0
 11
309.723896962469
 21
160.9014312604182
 31
0.0
  0
LINE
  5
124
330
1F
100
AcDbEntity
  8
0
  6
Continuous
 62
     7
100
AcDbLine
 10
357.287656734269
 20
160.9014312604182
 30
0.0
 11
365.693103242969
 21
160.9014312604182
 31
0.0
  0
LINE
  5
125
330
1F
100
AcDbEntity
  8
A_ACHSEN
  6
Continuous
 62
     7
100
AcDbLine
 10
308.255793183069
 20
160.9014312604182
 30
0.0
 11
308.475433237069
 21
160.9014312604182
 31
0.0
  0
LINE
  5
126
330
1F
100
AcDbEntity
  8
0
  6
Continuous
 62
     7
100
AcDbLine
 10
347.304997964069
 20
160.6014312604182
 30
0.0
 11
343.905000210969
 21
160.6014312604182
 31
0.0
  0
LINE
  5
127
330
1F
100
AcDbEntity
  8
0
  6
Continuous
 62
     7
100
AcDbLine
 10
348.630127714169
 20
159.6514312604182
 30
0.0
 11
373.230127714169
 21
159.6514312604182
 31
0.0
  0
LINE
  5
128
330
1F
100
AcDbEntity
  8
0
  6
Continuous
 62
     7
100
AcDbLine
 10
297.568706963869
 20
159.6514312604182
 30
0.0
 11
328.568706963869
 21
159.6514312604182
 31
0.0
  0
LINE
  5
129
330
1F
100
AcDbEntity
  8
A_ACHSEN
  6
Continuous
 62
     7
100
AcDbLine
 10
349.604999087569
 20
172.1514312604182
 30
0.0
 11
349.604999087569
 21
173.4014312604182
 31
0.0
  0
LINE
  5
12A
330
1F
100
AcDbEntity
  8
A_ACHSEN
  6
Continuous
 62
     7
100
AcDbLine
 10
349.604999087569
 20
195.3514312604182
 30
0.0
 11
349.604999087569
 21
194.1014312604182
 31
0.0
  0
LINE
  5
12B
330
1F
100
AcDbEntity
  8
0
  6
Continuous
 62
     7
100
AcDbLine
 10
349.630127714169
 20
194.1014312604182
 30
0.0
 11
349.630127714169
 21
195.2514312604182
 31
0.0
  0
LINE
  5
12C
330
1F
100
AcDbEntity
  8
0
  6
Continuous
 62
     7
100
AcDbLine
 10
349.630127714169
 20
172.2514312604182
 30
0.0
 11
349.630127714169
 21
173.4014312604182
 31
0.0
  0
LINE
  5
12D
330
1F
100
AcDbEntity
  8
0
  6
Continuous
 62
     7
100
AcDbLine
 10
350.655127714169
 20
172.2514312604182
 30
0.0
 11
350.655127714169
 21
172.1514312604182
 31
0.0
  0
LINE
  5
12E
330
1F
100
AcDbEntity
  8
0
  6
Continuous
 62
     7
100
AcDbLine
 10
350.655127714169
 20
195.3514312604182
 30
0.0
 11
350.655127714169
 21
195.2514312604182
 31
0.0
  0
LINE
  5
12F
330
1F
100
AcDbEntity
  8
A_RUNDUNGEN
  6
Continuous
 62
     7
100
AcDbLine
 10
351.630127714169
 20
213.3514312604182
 30
0.0
 11
351.630127714169
 21
213.9014312604182
 31
0.0
  0
LINE
  5
130
330
1F
100
AcDbEntity
  8
A_RUNDUNGEN
  6
Continuous
 62
     7
100
AcDbLine
 10
351.630127714169
 20
153.6014312604182
 30
0.0
 11
351.630127714169
 21
154.1514312604182
 31
0.0
  0
LINE
  5
131
330
1F
100
AcDbEntity
  8
0
  6
DASHED
 62
     2
100
AcDbLine
 10
353.280127714169
 20
132.2514312604182
 30
0.0
 11
353.280127714169
 21
138.2514312604182
 31
0.0
  0
LINE
  5
132
330
1F
100
AcDbEntity
  8
0
  6
DASHED
 62
     2
100
AcDbLine
 10
353.280127714169
 20
235.2514312604182
 30
0.0
 11
353.280127714169
 21
229.2514312604182
 31
0.0
  0
LINE
  5
133
330
1F
100
AcDbEntity
  8
0
  6
Continuous
 62
     7
100
AcDbLine
 10
354.605127714169
 20
172.2514312604182
 30
0.0
 11
354.605127714169
 21
172.1514312604182
 31
0.0
  0
LINE
  5
134
330
1F
100
AcDbEntity
  8
0
  6
Continuous
 62
     7
100
AcDbLine
 10
354.605127714169
 20
195.3514312604182
 30
0.0
 11
354.605127714169
 21
195.2514312604182
 31
0.0
  0
LINE
  5
135
330
1F
100
AcDbEntity
  8
0
  6
DASHED
 62
     2
100
AcDbLine
 10
354.930127714169
 20
229.2514312604182
 30
0.0
 11
354.930127714169
 21
235.2514312604182
 31
0.0
  0
LINE
  5
136
330
1F
100
AcDbEntity
  8
0
  6
DASHED
 62
     2
100
AcDbLine
 10
354.930127714169
 20
138.2514312604182
 30
0.0
 11
354.930127714169
 21
132.2514312604182
 31
0.0
  0
LINE
  5
137
330
1F
100
AcDbEntity
  8
0
  6
Continuous
 62
     7
100
AcDbLine
 10
355.630127714169
 20
194.1014312604182
 30
0.0
 11
355.630127714169
 21
195.2514312604182
 31
0.0
  0
LINE
  5
138
330
1F
100
AcDbEntity
  8
0
  6
Continuous
 62
     7
100
AcDbLine
 10
355.630127714169
 20
172.2514312604182
 30
0.0
 11
355.630127714169
 21
173.4014312604182
 31
0.0
  0
LINE
  5
139
330
1F
100
AcDbEntity
  8
A_ACHSEN
  6
Continuous
 62
     7
100
AcDbLine
 10
356.630127714169
 20
195.3514312604182
 30
0.0
 11
356.630127714169
 21
207.8514312604182
 31
0.0
  0
LINE
  5
13A
330
1F
100
AcDbEntity
  8
A_ACHSEN
  6
Continuous
 62
     7
100
AcDbLine
 10
356.630127714169
 20
159.6514312604182
 30
0.0
 11
356.630127714169
 21
172.1514312604182
 31
0.0
  0
LINE
  5
13B
330
1F
100
AcDbEntity
  8
A_ACHSEN
  6
Continuous
 62
     7
100
AcDbLine
 10
356.786233892669
 20
159.6514312604182
 30
0.0
 11
356.786233892669
 21
160.9514312604182
 31
0.0
  0
LINE
  5
13C
330
1F
100
AcDbEntity
  8
A_ACHSEN
  6
Continuous
 62
     7
100
AcDbLine
 10
356.786233892669
 20
207.8514312604182
 30
0.0
 11
356.786233892669
 21
206.5514312604182
 31
0.0
  0
LINE
  5
13D
330
1F
100
AcDbEntity
  8
A_RUNDUNGEN
  6
Continuous
 62
     7
100
AcDbLine
 10
357.287656734269
 20
195.6014312604182
 30
0.0
 11
357.287656734269
 21
206.6014312604182
 31
0.0
  0
LINE
  5
13E
330
1F
100
AcDbEntity
  8
A_RUNDUNGEN
  6
Continuous
 62
     7
100
AcDbLine
 10
357.287656734269
 20
160.9014312604182
 30
0.0
 11
357.287656734269
 21
171.9014312604182
 31
0.0
  0
LINE
  5
13F
330
1F
100
AcDbEntity
  8
A_ACHSEN
  6
DOT_CENTER
 62
     2
100
AcDbLine
 10
357.530127714169
 20
235.2514312604182
 30
0.0
 11
357.530127714169
 21
240.2515312604182
 31
0.0
  0
LINE
  5
140
330
1F
100
AcDbEntity
  8
A_ACHSEN
  6
DOT_CENTER
 62
     2
100
AcDbLine
 10
357.530127714169
 20
229.2514312604182
 30
0.0
 11
357.530127714169
 21
232.2515312604182
 31
0.0
  0
LINE
  5
141
330
1F
100
AcDbEntity
  8
A_ACHSEN
  6
DOT_CENTER
 62
     2
100
AcDbLine
 10
357.530127714169
 20
138.2514312604182
 30
0.0
 11
357.530127714169
 21
143.2515312604182
 31
0.0
  0
LINE
  5
142
330
1F
100
AcDbEntity
  8
A_ACHSEN
  6
DOT_CENTER
 62
     2
100
AcDbLine
 10
357.530127714169
 20
132.2514312604182
 30
0.0
 11
357.530127714169
 21
135.2515312604182
 31
0.0
  0
LINE
  5
143
330
1F
100
AcDbEntity
  8
A_ACHSEN
  6
DOT_CENTER
 62
     2
100
AcDbLine
 10
357.530127714169
 20
132.2514312604182
 30
0.0
 11
357.530127714169
 21
127.2513312604182
 31
0.0
  0
LINE
  5
144
330
1F
100
AcDbEntity
  8
A_ACHSEN
  6
DOT_CENTER
 62
     2
100
AcDbLine
 10
357.530127714169
 20
138.2514312604182
 30
0.0
 11
357.530127714169
 21
135.2513312604182
 31
0.0
  0
LINE
  5
145
330
1F
100
AcDbEntity
  8
A_ACHSEN
  6
DOT_CENTER
 62
     2
100
AcDbLine
 10
357.530127714169
 20
229.2514312604182
 30
0.0
 11
357.530127714169
 21
224.2513312604182
 31
0.0
  0
LINE
  5
146
330
1F
100
AcDbEntity
  8
A_ACHSEN
  6
DOT_CENTER
 62
     2
100
AcDbLine
 10
357.530127714169
 20
235.2514312604182
 30
0.0
 11
357.530127714169
 21
232.2513312604182
 31
0.0
  0
LINE
  5
147
330
1F
100
AcDbEntity
  8
0
  6
DASHED
 62
     2
100
AcDbLine
 10
360.130127714169
 20
132.2514312604182
 30
0.0
 11
360.130127714169
 21
138.2514312604182
 31
0.0
  0
LINE
  5
148
330
1F
100
AcDbEntity
  8
0
  6
DASHED
 62
     2
100
AcDbLine
 10
360.130127714169
 20
235.2514312604182
 30
0.0
 11
360.130127714169
 21
229.2514312604182
 31
0.0
  0
LINE
  5
149
330
1F
100
AcDbEntity
  8
0
  6
Continuous
 62
     7
100
AcDbLine
 10
348.630127714169
 20
157.3514312604182
 30
0.0
 11
373.230127714169
 21
157.3514312604182
 31
0.0
  0
LINE
  5
14A
330
1F
100
AcDbEntity
  8
A_RUNDUNGEN
  6
Continuous
 62
     7
100
AcDbLine
 10
372.730127714169
 20
154.1514312604182
 30
0.0
 11
348.630127714169
 21
154.1514312604182
 31
0.0
  0
LINE
  5
14B
330
1F
100
AcDbEntity
  8
A_RUNDUNGEN
  6
Continuous
 62
     7
100
AcDbLine
 10
298.069011735969
 20
154.1514312604182
 30
0.0
 11
328.068706963869
 21
154.1514312604182
 31
0.0
  0
LINE
  5
14C
330
1F
100
AcDbEntity
  8
A_RUNDUNGEN
  6
Continuous
 62
     7
100
AcDbLine
 10
322.922822250969
 20
154.0014312604182
 30
0.0
 11
297.868800306169
 21
154.0014312604182
 31
0.0
  0
LINE
  5
14D
330
1F
100
AcDbEntity
  8
A_RUNDUNGEN
  6
Continuous
 62
     7
100
AcDbLine
 10
328.568706963869
 20
154.0014312604182
 30
0.0
 11
322.922822250969
 21
154.0014312604182
 31
0.0
  0
LINE
  5
14E
330
1F
100
AcDbEntity
  8
A_RUNDUNGEN
  6
Continuous
 62
     7
100
AcDbLine
 10
356.478528837469
 20
154.0014312604182
 30
0.0
 11
351.630127714169
 21
154.0014312604182
 31
0.0
  0
LINE
  5
14F
330
1F
100
AcDbEntity
  8
A_RUNDUNGEN
  6
Continuous
 62
     7
100
AcDbLine
 10
373.930127714169
 20
154.0014312604182
 30
0.0
 11
370.781726590869
 21
154.0014312604182
 31
0.0
  0
LINE
  5
150
330
1F
100
AcDbEntity
  8
A_FASEN
  6
DASHED
 62
     2
100
AcDbLine
 10
361.530127714169
 20
236.6875719221182
 30
0.0
 11
361.530127714169
 21
237.2514312604182
 31
0.0
  0
LINE
  5
151
330
1F
100
AcDbEntity
  8
0
  6
DASHED
 62
     2
100
AcDbLine
 10
361.530127714169
 20
130.8152905988182
 30
0.0
 11
361.530127714169
 21
136.2514312604182
 31
0.0
  0
LINE
  5
152
330
1F
100
AcDbEntity
  8
A_FASEN
  6
DASHED
 62
     2
100
AcDbLine
 10
361.530127714169
 20
130.2514312604182
 30
0.0
 11
361.530127714169
 21
130.8152905988182
 31
0.0
  0
LINE
  5
153
330
1F
100
AcDbEntity
  8
0
  6
DASHED
 62
     2
100
AcDbLine
 10
361.530127714169
 20
236.6875719221182
 30
0.0
 11
361.530127714169
 21
231.2514312604182
 31
0.0
  0
LINE
  5
154
330
1F
100
AcDbEntity
  8
A_FASEN
  6
DASHED
 62
     2
100
AcDbLine
 10
361.780127714169
 20
229.2514312604182
 30
0.0
 11
361.780127714169
 21
230.2577009147182
 31
0.0
  0
LINE
  5
155
330
1F
100
AcDbEntity
  8
A_FASEN
  6
DASHED
 62
     2
100
AcDbLine
 10
361.780127714169
 20
137.2451616061182
 30
0.0
 11
361.780127714169
 21
138.2514312604182
 31
0.0
  0
LINE
  5
156
330
1F
100
AcDbEntity
  8
A_ACHSEN
  6
DOT_CENTER
 62
     2
100
AcDbLine
 10
363.630127714169
 20
237.2514312604182
 30
0.0
 11
363.630127714169
 21
241.2515312604182
 31
0.0
  0
LINE
  5
157
330
1F
100
AcDbEntity
  8
A_ACHSEN
  6
DOT_CENTER
 62
     2
100
AcDbLine
 10
363.630127714169
 20
138.2515312604182
 30
0.0
 11
363.630127714169
 21
139.6811822475032
 31
0.0
  0
LINE
  5
158
330
1F
100
AcDbEntity
  8
A_ACHSEN
  6
DOT_CENTER
 62
     2
100
AcDbLine
 10
363.630127714169
 20
136.2514312604182
 30
0.0
 11
363.630127714169
 21
138.2515312604182
 31
0.0
  0
LINE
  5
159
330
1F
100
AcDbEntity
  8
A_ACHSEN
  6
DOT_CENTER
 62
     2
100
AcDbLine
 10
363.630127714169
 20
130.2514312604182
 30
0.0
 11
363.630127714169
 21
126.9522189276632
 31
0.0
  0
LINE
  5
15A
330
1F
100
AcDbEntity
  8
A_ACHSEN
  6
DOT_CENTER
 62
     2
100
AcDbLine
 10
363.630127714169
 20
132.2513312604182
 30
0.0
 11
363.630127714169
 21
130.2513312604182
 31
0.0
  0
LINE
  5
15B
330
1F
100
AcDbEntity
  8
A_ACHSEN
  6
CENTER
 62
     2
100
AcDbLine
 10
363.630127714169
 20
133.2513312604182
 30
0.0
 11
363.630127714169
 21
132.2513312604182
 31
0.0
  0
LINE
  5
15C
330
1F
100
AcDbEntity
  8
A_ACHSEN
  6
DOT_CENTER
 62
     2
100
AcDbLine
 10
363.630127714169
 20
136.2514312604182
 30
0.0
 11
363.630127714169
 21
133.2514312604182
 31
0.0
  0
LINE
  5
15D
330
1F
100
AcDbEntity
  8
A_ACHSEN
  6
DOT_CENTER
 62
     2
100
AcDbLine
 10
363.630127714169
 20
229.2513312604182
 30
0.0
 11
363.630127714169
 21
227.2513312604182
 31
0.0
  0
LINE
  5
15E
330
1F
100
AcDbEntity
  8
A_ACHSEN
  6
DOT_CENTER
 62
     2
100
AcDbLine
 10
363.630127714169
 20
231.2513312604182
 30
0.0
 11
363.630127714169
 21
229.2513312604182
 31
0.0
  0
LINE
  5
15F
330
1F
100
AcDbEntity
  8
A_ACHSEN
  6
DOT_CENTER
 62
     2
100
AcDbLine
 10
363.630127714169
 20
234.2514312604182
 30
0.0
 11
363.630127714169
 21
231.2513312604182
 31
0.0
  0
LINE
  5
160
330
1F
100
AcDbEntity
  8
A_ACHSEN
  6
DOT_CENTER
 62
     2
100
AcDbLine
 10
363.630127714169
 20
237.2514312604182
 30
0.0
 11
363.630127714169
 21
234.2513312604182
 31
0.0
  0
LINE
  5
161
330
1F
100
AcDbEntity
  8
A_FASEN
  6
DASHED
 62
     2
100
AcDbLine
 10
365.480127714169
 20
138.2514312604182
 30
0.0
 11
365.480127714169
 21
137.2451616061182
 31
0.0
  0
LINE
  5
162
330
1F
100
AcDbEntity
  8
A_FASEN
  6
DASHED
 62
     2
100
AcDbLine
 10
365.480127714169
 20
230.2577009147182
 30
0.0
 11
365.480127714169
 21
229.2514312604182
 31
0.0
  0
LINE
  5
163
330
1F
100
AcDbEntity
  8
A_ACHSEN
  6
Continuous
 62
     7
100
AcDbLine
 10
365.499021535669
 20
159.6514312604182
 30
0.0
 11
365.499021535669
 21
160.9014312604182
 31
0.0
  0
LINE
  5
164
330
1F
100
AcDbEntity
  8
A_ACHSEN
  6
Continuous
 62
     7
100
AcDbLine
 10
365.499021535669
 20
207.8514312604182
 30
0.0
 11
365.499021535669
 21
206.6014312604182
 31
0.0
  0
LINE
  5
165
330
1F
100
AcDbEntity
  8
0
  6
Continuous
 62
     7
100
AcDbLine
 10
365.693429497469
 20
160.9014312604182
 30
0.0
 11
365.693429497469
 21
206.6014312604182
 31
0.0
  0
LINE
  5
166
330
1F
100
AcDbEntity
  8
0
  6
DASHED
 62
     2
100
AcDbLine
 10
365.730127714169
 20
231.2514312604182
 30
0.0
 11
365.730127714169
 21
236.6875719221182
 31
0.0
  0
LINE
  5
167
330
1F
100
AcDbEntity
  8
A_FASEN
  6
DASHED
 62
     2
100
AcDbLine
 10
365.730127714169
 20
130.8152905988182
 30
0.0
 11
365.730127714169
 21
130.2514312604182
 31
0.0
  0
LINE
  5
168
330
1F
100
AcDbEntity
  8
0
  6
DASHED
 62
     2
100
AcDbLine
 10
365.730127714169
 20
136.2514312604182
 30
0.0
 11
365.730127714169
 21
130.8152905988182
 31
0.0
  0
LINE
  5
169
330
1F
100
AcDbEntity
  8
A_FASEN
  6
DASHED
 62
     2
100
AcDbLine
 10
365.730127714169
 20
237.2514312604182
 30
0.0
 11
365.730127714169
 21
236.6875719221182
 31
0.0
  0
LINE
  5
16A
330
1F
100
AcDbEntity
  8
0
  6
DASHED
 62
     2
100
AcDbLine
 10
367.130127714169
 20
132.2514312604182
 30
0.0
 11
367.130127714169
 21
138.2514312604182
 31
0.0
  0
LINE
  5
16B
330
1F
100
AcDbEntity
  8
0
  6
DASHED
 62
     2
100
AcDbLine
 10
367.130127714169
 20
235.2514312604182
 30
0.0
 11
367.130127714169
 21
229.2514312604182
 31
0.0
  0
LINE
  5
16C
330
1F
100
AcDbEntity
  8
A_ACHSEN
  6
DOT_CENTER
 62
     2
100
AcDbLine
 10
369.730127714169
 20
235.2514312604182
 30
0.0
 11
369.730127714169
 21
240.2515312604182
 31
0.0
  0
LINE
  5
16D
330
1F
100
AcDbEntity
  8
A_ACHSEN
  6
DOT_CENTER
 62
     2
100
AcDbLine
 10
369.730127714169
 20
229.2514312604182
 30
0.0
 11
369.730127714169
 21
232.2515312604182
 31
0.0
  0
LINE
  5
16E
330
1F
100
AcDbEntity
  8
A_ACHSEN
  6
DOT_CENTER
 62
     2
100
AcDbLine
 10
369.730127714169
 20
138.2514312604182
 30
0.0
 11
369.730127714169
 21
143.2515312604182
 31
0.0
  0
LINE
  5
16F
330
1F
100
AcDbEntity
  8
A_ACHSEN
  6
DOT_CENTER
 62
     2
100
AcDbLine
 10
369.730127714169
 20
132.2514312604182
 30
0.0
 11
369.730127714169
 21
135.2515312604182
 31
0.0
  0
LINE
  5
170
330
1F
100
AcDbEntity
  8
A_ACHSEN
  6
DOT_CENTER
 62
     2
100
AcDbLine
 10
369.730127714169
 20
132.2514312604182
 30
0.0
 11
369.730127714169
 21
127.2513312604182
 31
0.0
  0
LINE
  5
171
330
1F
100
AcDbEntity
  8
A_ACHSEN
  6
DOT_CENTER
 62
     2
100
AcDbLine
 10
369.730127714169
 20
138.2514312604182
 30
0.0
 11
369.730127714169
 21
135.2513312604182
 31
0.0
  0
LINE
  5
172
330
1F
100
AcDbEntity
  8
A_ACHSEN
  6
DOT_CENTER
 62
     2
100
AcDbLine
 10
369.730127714169
 20
229.2514312604182
 30
0.0
 11
369.730127714169
 21
224.2513312604182
 31
0.0
  0
LINE
  5
173
330
1F
100
AcDbEntity
  8
A_ACHSEN
  6
DOT_CENTER
 62
     2
100
AcDbLine
 10
369.730127714169
 20
235.2514312604182
 30
0.0
 11
369.730127714169
 21
232.2513312604182
 31
0.0
  0
LINE
  5
174
330
1F
100
AcDbEntity
  8
A_RUNDUNGEN
  6
Continuous
 62
     7
100
AcDbLine
 10
370.630127714169
 20
153.6514312604182
 30
0.0
 11
370.630127714169
 21
153.6014312604182
 31
0.0
  0
LINE
  5
175
330
1F
100
AcDbEntity
  8
0
  6
DASHED
 62
     2
100
AcDbLine
 10
372.330127714169
 20
229.2514312604182
 30
0.0
 11
372.330127714169
 21
235.2514312604182
 31
0.0
  0
LINE
  5
176
330
1F
100
AcDbEntity
  8
0
  6
DASHED
 62
     2
100
AcDbLine
 10
372.330127714169
 20
138.2514312604182
 30
0.0
 11
372.330127714169
 21
132.2514312604182
 31
0.0
  0
LINE
  5
177
330
1F
100
AcDbEntity
  8
0
  6
Continuous
 62
     7
100
AcDbLine
 10
373.230127714169
 20
207.8514312604182
 30
0.0
 11
373.230127714169
 21
210.1514312604182
 31
0.0
  0
LINE
  5
178
330
1F
100
AcDbEntity
  8
0
  6
Continuous
 62
     7
100
AcDbLine
 10
373.230127714169
 20
157.3514312604182
 30
0.0
 11
373.230127714169
 21
159.6514312604182
 31
0.0
  0
LINE
  5
179
330
1F
100
AcDbEntity
  8
A_RUNDUNGEN
  6
Continuous
 62
     7
100
AcDbLine
 10
373.230127714169
 20
157.3514312604182
 30
0.0
 11
373.230127714169
 21
154.6514312604182
 31
0.0
  0
LINE
  5
17A
330
1F
100
AcDbEntity
  8
A_RUNDUNGEN
  6
Continuous
 62
     7
100
AcDbLine
 10
373.230127714169
 20
212.8514312604182
 30
0.0
 11
373.230127714169
 21
210.1514312604182
 31
0.0
  0
LINE
  5
17B
330
1F
100
AcDbEntity
  8
A_ACHSEN
  6
DOT_CENTER
 62
     2
100
AcDbLine
 10
357.530127714169
 20
138.2514312604182
 30
0.0
 11
354.530027714169
 21
138.2514312604182
 31
0.0
  0
LINE
  5
17C
330
1F
100
AcDbEntity
  8
A_ACHSEN
  6
DOT_CENTER
 62
     2
100
AcDbLine
 10
369.730127714169
 20
138.2514312604182
 30
0.0
 11
366.730027714169
 21
138.2514312604182
 31
0.0
  0
LINE
  5
17D
330
1F
100
AcDbEntity
  8
A_ACHSEN
  6
DOT_CENTER
 62
     2
100
AcDbLine
 10
369.730127714169
 20
138.2514312604182
 30
0.0
 11
372.730227714169
 21
138.2514312604182
 31
0.0
  0
LINE
  5
17E
330
1F
100
AcDbEntity
  8
A_ACHSEN
  6
DOT_CENTER
 62
     2
100
AcDbLine
 10
357.530127714169
 20
138.2514312604182
 30
0.0
 11
360.530227714169
 21
138.2514312604182
 31
0.0
  0
LINE
  5
17F
330
1F
100
AcDbEntity
  8
A_ACHSEN
  6
DOT_CENTER
 62
     2
100
AcDbLine
 10
363.630127714169
 20
136.2514312604182
 30
0.0
 11
360.6300277141691
 21
136.2514312604182
 31
0.0
  0
LINE
  5
180
330
1F
100
AcDbEntity
  8
A_ACHSEN
  6
DOT_CENTER
 62
     2
100
AcDbLine
 10
363.630127714169
 20
136.2514312604182
 30
0.0
 11
366.630227714169
 21
136.2514312604182
 31
0.0
  0
LINE
  5
181
330
1F
100
AcDbEntity
  8
A_ACHSEN
  6
DOT_CENTER
 62
     2
100
AcDbLine
 10
312.568706963869
 20
135.7514312604182
 30
0.0
 11
306.568706963869
 21
135.7514312604182
 31
0.0
  0
LINE
  5
182
330
1F
100
AcDbEntity
  8
A_ACHSEN
  6
DOT_CENTER
 62
     2
100
AcDbLine
 10
310.568706963869
 20
135.7514312604182
 30
0.0
 11
316.568706963869
 21
135.7514312604182
 31
0.0
  0
LINE
  5
183
330
1F
100
AcDbEntity
  8
0
  6
DASHED
 62
     2
100
AcDbLine
 10
373.980127714169
 20
229.2514312604182
 30
0.0
 11
373.980127714169
 21
235.2514312604182
 31
0.0
  0
LINE
  5
184
330
1F
100
AcDbEntity
  8
0
  6
DASHED
 62
     2
100
AcDbLine
 10
373.980127714169
 20
138.2514312604182
 30
0.0
 11
373.980127714169
 21
132.2514312604182
 31
0.0
  0
LINE
  5
185
330
1F
100
AcDbEntity
  8
A_RUNDUNGEN
  6
Continuous
 62
     7
100
AcDbLine
 10
374.430127714169
 20
213.0014312604182
 30
0.0
 11
374.430127714169
 21
154.5014312604182
 31
0.0
  0
LINE
  5
186
330
1F
100
AcDbEntity
  8
A_RUNDUNGEN
  6
Continuous
 62
     7
100
AcDbLine
 10
375.630127714169
 20
213.9014312604182
 30
0.0
 11
375.630127714169
 21
153.6014312604182
 31
0.0
  0
LINE
  5
187
330
1F
100
AcDbEntity
  8
0
  6
Continuous
 62
     7
100
AcDbLine
 10
343.604999087569
 20
160.9014312604182
 30
0.0
 11
343.904999087569
 21
160.6014312604182
 31
0.0
  0
LINE
  5
188
330
1F
100
AcDbEntity
  8
A_ACHSEN
  6
DOT_CENTER
 62
     2
100
AcDbLine
 10
363.630127714169
 20
133.2514312604182
 30
0.0
 11
360.6300277141691
 21
133.2514312604182
 31
0.0
  0
LINE
  5
189
330
1F
100
AcDbEntity
  8
A_ACHSEN
  6
DOT_CENTER
 62
     2
100
AcDbLine
 10
357.530127714169
 20
132.2514312604182
 30
0.0
 11
354.530027714169
 21
132.2514312604182
 31
0.0
  0
LINE
  5
18A
330
1F
100
AcDbEntity
  8
A_ACHSEN
  6
DOT_CENTER
 62
     2
100
AcDbLine
 10
369.730127714169
 20
132.2514312604182
 30
0.0
 11
366.730027714169
 21
132.2514312604182
 31
0.0
  0
LINE
  5
18B
330
1F
100
AcDbEntity
  8
A_ACHSEN
  6
DOT_CENTER
 62
     2
100
AcDbLine
 10
369.730127714169
 20
132.2514312604182
 30
0.0
 11
372.730227714169
 21
132.2514312604182
 31
0.0
  0
LINE
  5
18C
330
1F
100
AcDbEntity
  8
A_ACHSEN
  6
DOT_CENTER
 62
     2
100
AcDbLine
 10
357.530127714169
 20
132.2514312604182
 30
0.0
 11
360.530227714169
 21
132.2514312604182
 31
0.0
  0
LINE
  5
18D
330
1F
100
AcDbEntity
  8
A_ACHSEN
  6
DOT_CENTER
 62
     2
100
AcDbLine
 10
363.630127714169
 20
130.2514312604182
 30
0.0
 11
360.6300277141691
 21
130.2514312604182
 31
0.0
  0
LINE
  5
18E
330
1F
100
AcDbEntity
  8
A_ACHSEN
  6
DOT_CENTER
 62
     2
100
AcDbLine
 10
363.630127714169
 20
130.2514312604182
 30
0.0
 11
366.630227714169
 21
130.2514312604182
 31
0.0
  0
LINE
  5
18F
330
1F
100
AcDbEntity
  8
A_ACHSEN
  6
DOT_CENTER
 62
     2
100
AcDbLine
 10
310.568706963869
 20
128.7514312604182
 30
0.0
 11
302.468706963869
 21
128.7514312604182
 31
0.0
  0
LINE
  5
190
330
1F
100
AcDbEntity
  8
A_ACHSEN
  6
DOT_CENTER
 62
     2
100
AcDbLine
 10
310.568706963869
 20
128.7514312604182
 30
0.0
 11
318.668706963869
 21
128.7514312604182
 31
0.0
  0
LINE
  5
191
330
1F
100
AcDbEntity
  8
0
  6
Continuous
 62
     7
100
AcDbLine
 10
292.568706963869
 20
228.2514317845182
 30
0.0
 11
292.568706963869
 21
207.8514317845182
 31
0.0
  0
LINE
  5
192
330
1F
100
AcDbEntity
  8
0
  6
Continuous
 62
     7
100
AcDbLine
 10
292.568706963869
 20
139.2514306403182
 30
0.0
 11
292.568706963869
 21
228.2514317845182
 31
0.0
  0
LINE
  5
193
330
1F
100
AcDbEntity
  8
0
  6
Continuous
 62
     7
100
AcDbLine
 10
292.568706963869
 20
207.8514317845182
 30
0.0
 11
297.368706963869
 21
207.8514317845182
 31
0.0
  0
LINE
  5
194
330
1F
100
AcDbEntity
  8
0
  6
Continuous
 62
     7
100
AcDbLine
 10
297.368706963869
 20
159.6514317845182
 30
0.0
 11
292.568706963869
 21
159.6514317845182
 31
0.0
  0
LINE
  5
195
330
1F
100
AcDbEntity
  8
A_RUNDUNGEN
  6
Continuous
 62
     7
100
AcDbLine
 10
328.568706963869
 20
213.7514317845182
 30
0.0
 11
298.368706963869
 21
213.7514317845182
 31
0.0
  0
LINE
  5
196
330
1F
100
AcDbEntity
  8
A_RUNDUNGEN
  6
Continuous
 62
     7
100
AcDbLine
 10
297.368706963869
 20
207.8514317845182
 30
0.0
 11
297.368706963869
 21
212.7514317845182
 31
0.0
  0
LINE
  5
197
330
1F
100
AcDbEntity
  8
0
  6
Continuous
 62
     7
100
AcDbLine
 10
328.568706963869
 20
228.2514312604182
 30
0.0
 11
328.568706963869
 21
213.7514317845182
 31
0.0
  0
LINE
  5
198
330
1F
100
AcDbEntity
  8
0
  6
Continuous
 62
     7
100
AcDbLine
 10
292.568706963869
 20
159.6514317845182
 30
0.0
 11
292.568706963869
 21
139.2514317845182
 31
0.0
  0
LINE
  5
199
330
1F
100
AcDbEntity
  8
A_RUNDUNGEN
  6
Continuous
 62
     7
100
AcDbLine
 10
297.368706963869
 20
154.7514317845182
 30
0.0
 11
297.368706963869
 21
159.6514317845182
 31
0.0
  0
LINE
  5
19A
330
1F
100
AcDbEntity
  8
0
  6
Continuous
 62
     7
100
AcDbLine
 10
328.568706963869
 20
153.7514317845182
 30
0.0
 11
328.568706963869
 21
139.2514317845182
 31
0.0
  0
LINE
  5
19B
330
1F
100
AcDbEntity
  8
A_RUNDUNGEN
  6
Continuous
 62
     7
100
AcDbLine
 10
298.368706963869
 20
153.7514317845182
 30
0.0
 11
328.568706963869
 21
153.7514317845182
 31
0.0
  0
ARC
  5
19C
330
1F
100
AcDbEntity
  8
0
  6
Continuous
 62
     7
100
AcDbCircle
 10
363.630127714169
 20
133.1014312604182
 30
0.0
 40
12.0
100
AcDbArc
 50
180.0
 51
0.0
  0
ARC
  5
19D
330
1F
100
AcDbEntity
  8
A_RUNDUNGEN
  6
Continuous
 62
     7
100
AcDbCircle
 10
372.630127714169
 20
153.0014312604182
 30
0.0
 40
1.0
100
AcDbArc
 50
90.0
 51
143.1301023541567
  0
ARC
  5
19E
330
1F
100
AcDbEntity
  8
0
  6
Continuous
 62
     7
100
AcDbCircle
 10
363.630127714169
 20
234.4014312604182
 30
0.0
 40
12.0
100
AcDbArc
 50
0.0
 51
180.0
  0
ARC
  5
19F
330
1F
100
AcDbEntity
  8
A_RUNDUNGEN
  6
Continuous
 62
     7
100
AcDbCircle
 10
328.068706963869
 20
212.8514312604182
 30
0.0
 40
0.5
100
AcDbArc
 50
0.0
 51
90.0
  0
ARC
  5
1A0
330
1F
100
AcDbEntity
  8
A_ACHSEN
  6
DASHED
 62
     2
100
AcDbCircle
 10
310.568706963869
 20
238.7514312604182
 30
0.0
 40
5.099999999999588
100
AcDbArc
 50
285.6292383613009
 51
254.3707616387009
  0
ARC
  5
1A1
330
1F
100
AcDbEntity
  8
A_RUNDUNGEN
  6
Continuous
 62
     7
100
AcDbCircle
 10
355.772181775769
 20
195.6250438059182
 30
0.0
 40
1.523612545529391
100
AcDbArc
 50
270.0003557904723
 51
272.361595147297
  0
ARC
  5
1A2
330
1F
100
AcDbEntity
  8
A_FASEN
  6
DASHED
 62
     2
100
AcDbCircle
 10
363.630134685869
 20
231.2514184117182
 30
0.0
 40
2.099988939800139
100
AcDbArc
 50
208.2421383480096
 51
331.7576816333071
  0
ARC
  5
1A3
330
1F
100
AcDbEntity
  8
A_FASEN
  6
DASHED
 62
     2
100
AcDbCircle
 10
363.630123149169
 20
237.2514374407182
 30
0.0
 40
2.09999570150012
100
AcDbArc
 50
359.9998313785028
 51
180.0001686222067
  0
ARC
  5
1A4
330
1F
100
AcDbEntity
  8
0
  6
DASHED
 62
     2
100
AcDbCircle
 10
363.630127714169
 20
231.2514312604182
 30
0.0
 40
2.100000000000023
100
AcDbArc
 50
180.0
 51
208.2425371840114
  0
ARC
  5
1A5
330
1F
100
AcDbEntity
  8
0
  6
DASHED
 62
     2
100
AcDbCircle
 10
363.630127714169
 20
231.2514312604182
 30
0.0
 40
2.099999999991641
100
AcDbArc
 50
331.7574628159878
 51
0.0
  0
ARC
  5
1A6
330
1F
100
AcDbEntity
  8
0
  6
DASHED
 62
     2
100
AcDbCircle
 10
357.530127714169
 20
229.2514312604182
 30
0.0
 40
2.600000000000023
100
AcDbArc
 50
180.0
 51
0.0
  0
ARC
  5
1A7
330
1F
100
AcDbEntity
  8
0
  6
DASHED
 62
     2
100
AcDbCircle
 10
357.530127714169
 20
235.2514312604182
 30
0.0
 40
2.600000000000023
100
AcDbArc
 50
0.0
 51
180.0
  0
ARC
  5
1A8
330
1F
100
AcDbEntity
  8
A_FASEN
  6
DASHED
 62
     2
100
AcDbCircle
 10
363.630134685869
 20
231.2514184117182
 30
0.0
 40
3.0999804408002
100
AcDbArc
 50
232.7627710169077
 51
307.2370162313937
  0
ARC
  5
1A9
330
1F
100
AcDbEntity
  8
A_FASEN
  6
DASHED
 62
     2
100
AcDbCircle
 10
363.630123149169
 20
237.2514374407182
 30
0.0
 40
3.099987923299869
100
AcDbArc
 50
16.45741994810513
 51
163.5424976236924
  0
ARC
  5
1AA
330
1F
100
AcDbEntity
  8
A_FASEN
  6
DASHED
 62
     2
100
AcDbCircle
 10
357.530127714169
 20
235.2514312604182
 30
0.0
 40
4.250000000022129
100
AcDbArc
 50
19.74992279647349
 51
180.0
  0
ARC
  5
1AB
330
1F
100
AcDbEntity
  8
A_FASEN
  6
DASHED
 62
     2
100
AcDbCircle
 10
357.530127714169
 20
229.2514312604182
 30
0.0
 40
4.25
100
AcDbArc
 50
180.0
 51
0.0
  0
ARC
  5
1AC
330
1F
100
AcDbEntity
  8
A_RUNDUNGEN
  6
DASHED
 62
     2
100
AcDbCircle
 10
363.630127714169
 20
231.2514312604182
 30
0.0
 40
12.0
100
AcDbArc
 50
0.0
 51
180.0
  0
ARC
  5
1AD
330
1F
100
AcDbEntity
  8
A_RUNDUNGEN
  6
Continuous
 62
     7
100
AcDbCircle
 10
373.930127714169
 20
213.0014312604182
 30
0.0
 40
0.5
100
AcDbArc
 50
0.0
 51
90.0
  0
ARC
  5
1AE
330
1F
100
AcDbEntity
  8
A_RUNDUNGEN
  6
Continuous
 62
     7
100
AcDbCircle
 10
372.730127714169
 20
212.8514312604182
 30
0.0
 40
0.5
100
AcDbArc
 50
0.0
 51
90.0
  0
ARC
  5
1AF
330
1F
100
AcDbEntity
  8
A_RUNDUNGEN
  6
Continuous
 62
     7
100
AcDbCircle
 10
371.130127714169
 20
213.8514312604182
 30
0.0
 40
0.5
100
AcDbArc
 50
180.0
 51
270.0
  0
ARC
  5
1B0
330
1F
100
AcDbEntity
  8
A_RUNDUNGEN
  6
Continuous
 62
     7
100
AcDbCircle
 10
372.630127714169
 20
214.5014312604182
 30
0.0
 40
1.000000000000006
100
AcDbArc
 50
216.8698976458433
 51
270.0
  0
ARC
  5
1B1
330
1F
100
AcDbEntity
  8
0
  6
DASHED
 62
     2
100
AcDbCircle
 10
369.730127714169
 20
229.2514312604182
 30
0.0
 40
2.599999999999966
100
AcDbArc
 50
180.0
 51
0.0
  0
ARC
  5
1B2
330
1F
100
AcDbEntity
  8
0
  6
DASHED
 62
     2
100
AcDbCircle
 10
369.730127714169
 20
235.2514312604182
 30
0.0
 40
2.600000000000023
100
AcDbArc
 50
0.0
 51
180.0
  0
ARC
  5
1B3
330
1F
100
AcDbEntity
  8
A_FASEN
  6
DASHED
 62
     2
100
AcDbCircle
 10
369.730127714169
 20
229.2514312604182
 30
0.0
 40
4.25
100
AcDbArc
 50
180.0
 51
0.0
  0
ARC
  5
1B4
330
1F
100
AcDbEntity
  8
A_FASEN
  6
DASHED
 62
     2
100
AcDbCircle
 10
369.730127714169
 20
235.2514312604182
 30
0.0
 40
4.25
100
AcDbArc
 50
0.0
 51
160.2500772035265
  0
ARC
  5
1B5
330
1F
100
AcDbEntity
  8
A_RUNDUNGEN
  6
Continuous
 62
     7
100
AcDbCircle
 10
328.068706963869
 20
154.6514312604182
 30
0.0
 40
0.5
100
AcDbArc
 50
270.0
 51
0.0
  0
ARC
  5
1B6
330
1F
100
AcDbEntity
  8
A_ACHSEN
  6
DASHED
 62
     2
100
AcDbCircle
 10
310.568706963869
 20
128.7514312604182
 30
0.0
 40
5.099999999999514
100
AcDbArc
 50
105.6292383612992
 51
74.37076163869897
  0
ARC
  5
1B7
330
1F
100
AcDbEntity
  8
A_RUNDUNGEN
  6
Continuous
 62
     7
100
AcDbCircle
 10
356.130127714169
 20
153.6514312604182
 30
0.0
 40
0.5
100
AcDbArc
 50
0.0
 51
90.0
  0
ARC
  5
1B8
330
1F
100
AcDbEntity
  8
A_RUNDUNGEN
  6
Continuous
 62
     7
100
AcDbCircle
 10
354.630127714169
 20
153.0014312604182
 30
0.0
 40
0.9999999999999603
100
AcDbArc
 50
36.86989764584533
 51
90.0
  0
ARC
  5
1B9
330
1F
100
AcDbEntity
  8
A_RUNDUNGEN
  6
Continuous
 62
     7
100
AcDbCircle
 10
355.772181794369
 20
171.8777913942182
 30
0.0
 40
1.523639866199571
100
AcDbArc
 50
87.63827493768622
 51
89.99964491535053
  0
ARC
  5
1BA
330
1F
100
AcDbEntity
  8
0
  6
DASHED
 62
     2
100
AcDbCircle
 10
363.630127714169
 20
136.2514312604182
 30
0.0
 40
2.099999999999966
100
AcDbArc
 50
0.0
 51
28.24253718401211
  0
ARC
  5
1BB
330
1F
100
AcDbEntity
  8
0
  6
DASHED
 62
     2
100
AcDbCircle
 10
363.630127714169
 20
136.2514312604182
 30
0.0
 40
2.09999999999169
100
AcDbArc
 50
151.7574628159886
 51
180.0
  0
ARC
  5
1BC
330
1F
100
AcDbEntity
  8
A_FASEN
  6
DASHED
 62
     2
100
AcDbCircle
 10
363.630115890269
 20
130.2514320125182
 30
0.0
 40
2.100000523100128
100
AcDbArc
 50
180.0000205187048
 51
359.9999794815953
  0
ARC
  5
1BD
330
1F
100
AcDbEntity
  8
A_FASEN
  6
DASHED
 62
     2
100
AcDbCircle
 10
363.630138636469
 20
136.2514197525182
 30
0.0
 40
2.100009905999768
100
AcDbArc
 50
28.24295480179863
 51
151.7573272317161
  0
ARC
  5
1BE
330
1F
100
AcDbEntity
  8
0
  6
DASHED
 62
     2
100
AcDbCircle
 10
357.530127714169
 20
138.2514312604182
 30
0.0
 40
2.600000000000023
100
AcDbArc
 50
0.0
 51
180.0
  0
ARC
  5
1BF
330
1F
100
AcDbEntity
  8
0
  6
DASHED
 62
     2
100
AcDbCircle
 10
357.530127714169
 20
132.2514312604182
 30
0.0
 40
2.600000000000023
100
AcDbArc
 50
180.0
 51
0.0
  0
ARC
  5
1C0
330
1F
100
AcDbEntity
  8
A_FASEN
  6
DASHED
 62
     2
100
AcDbCircle
 10
363.630115890269
 20
130.2514320125182
 30
0.0
 40
3.100000228400413
100
AcDbArc
 50
196.4576632634943
 51
343.5424951825968
  0
ARC
  5
1C1
330
1F
100
AcDbEntity
  8
A_FASEN
  6
DASHED
 62
     2
100
AcDbCircle
 10
363.630138636469
 20
136.2514197525182
 30
0.0
 40
3.100007728299356
100
AcDbArc
 50
52.76331430550185
 51
127.2370147101942
  0
ARC
  5
1C2
330
1F
100
AcDbEntity
  8
A_FASEN
  6
DASHED
 62
     2
100
AcDbCircle
 10
357.530127714169
 20
132.2514312604182
 30
0.0
 40
4.25
100
AcDbArc
 50
180.0
 51
340.2500772047952
  0
ARC
  5
1C3
330
1F
100
AcDbEntity
  8
A_FASEN
  6
DASHED
 62
     2
100
AcDbCircle
 10
357.530127714169
 20
138.2514312604182
 30
0.0
 40
4.25
100
AcDbArc
 50
0.0
 51
180.0
  0
ARC
  5
1C4
330
1F
100
AcDbEntity
  8
A_RUNDUNGEN
  6
DASHED
 62
     2
100
AcDbCircle
 10
363.630127714169
 20
136.2514312604182
 30
0.0
 40
12.0
100
AcDbArc
 50
180.0
 51
0.0
  0
ARC
  5
1C5
330
1F
100
AcDbEntity
  8
A_RUNDUNGEN
  6
Continuous
 62
     7
100
AcDbCircle
 10
373.930127714169
 20
154.5014312604182
 30
0.0
 40
0.5
100
AcDbArc
 50
270.0
 51
0.0
  0
ARC
  5
1C6
330
1F
100
AcDbEntity
  8
A_RUNDUNGEN
  6
Continuous
 62
     7
100
AcDbCircle
 10
371.130127714169
 20
153.6514312604182
 30
0.0
 40
0.5
100
AcDbArc
 50
90.0
 51
180.0
  0
ARC
  5
1C7
330
1F
100
AcDbEntity
  8
A_RUNDUNGEN
  6
Continuous
 62
     7
100
AcDbCircle
 10
372.730127714169
 20
154.6514312604182
 30
0.0
 40
0.5
100
AcDbArc
 50
270.0
 51
0.0
  0
ARC
  5
1C8
330
1F
100
AcDbEntity
  8
0
  6
DASHED
 62
     2
100
AcDbCircle
 10
369.730127714169
 20
138.2514312604182
 30
0.0
 40
2.600000000000023
100
AcDbArc
 50
0.0
 51
180.0
  0
ARC
  5
1C9
330
1F
100
AcDbEntity
  8
0
  6
DASHED
 62
     2
100
AcDbCircle
 10
369.730127714169
 20
132.2514312604182
 30
0.0
 40
2.599999999999966
100
AcDbArc
 50
180.0
 51
0.0
  0
ARC
  5
1CA
330
1F
100
AcDbEntity
  8
A_FASEN
  6
DASHED
 62
     2
100
AcDbCircle
 10
369.730127714169
 20
138.2514312604182
 30
0.0
 40
4.25
100
AcDbArc
 50
0.0
 51
180.0
  0
ARC
  5
1CB
330
1F
100
AcDbEntity
  8
A_FASEN
  6
DASHED
 62
     2
100
AcDbCircle
 10
369.730127714169
 20
132.2514312604182
 30
0.0
 40
4.249999999988342
100
AcDbArc
 50
199.7499227952048
 51
0.0
  0
ARC
  5
1CC
330
1F
100
AcDbEntity
  8
0
  6
Continuous
 62
     7
100
AcDbCircle
 10
310.568706963869
 20
228.2514312604182
 30
0.0
 40
18.0
100
AcDbArc
 50
90.0
 51
179.9999983317379
  0
ARC
  5
1CD
330
1F
100
AcDbEntity
  8
A_RUNDUNGEN
  6
Continuous
 62
     7
100
AcDbCircle
 10
298.368706963869
 20
212.7514317845182
 30
0.0
 40
1.0
100
AcDbArc
 50
90.0
 51
180.0
  0
ARC
  5
1CE
330
1F
100
AcDbEntity
  8
A_RUNDUNGEN
  6
Continuous
 62
     7
100
AcDbCircle
 10
298.368706963869
 20
154.7514317845182
 30
0.0
 40
1.0
100
AcDbArc
 50
180.0
 51
270.0
  0
ARC
  5
1CF
330
1F
100
AcDbEntity
  8
0
  6
Continuous
 62
     7
100
AcDbCircle
 10
310.568706963869
 20
139.2514317845182
 30
0.0
 40
17.99999999999999
100
AcDbArc
 50
270.0
 51
0.0
  0
ARC
  5
1D0
330
1F
100
AcDbEntity
  8
0
  6
Continuous
 62
     7
100
AcDbCircle
 10
310.568706963869
 20
139.2514317845182
 30
0.0
 40
18.0
100
AcDbArc
 50
180.0
 51
270.0
  0
ARC
  5
1D1
330
1F
100
AcDbEntity
  8
0
  6
Continuous
 62
     7
100
AcDbCircle
 10
310.568706963869
 20
228.2514312604182
 30
0.0
 40
18.0
100
AcDbArc
 50
0.0
 51
90.0
  0
CIRCLE
  5
1D2
330
1F
100
AcDbEntity
  8
1
  6
Continuous
 62
     7
100
AcDbCircle
 10
363.630127714169
 20
234.4014312604182
 30
0.0
 40
3.999999999999915
  0
CIRCLE
  5
1D3
330
1F
100
AcDbEntity
  8
1
  6
Continuous
 62
     7
100
AcDbCircle
 10
310.568706963869
 20
231.7514312604182
 30
0.0
 40
3.999999999999915
  0
CIRCLE
  5
1D4
330
1F
100
AcDbEntity
  8
1
  6
Continuous
 62
     7
100
AcDbCircle
 10
363.630127714169
 20
133.1014312604182
 30
0.0
 40
3.999999999999886
  0
CIRCLE
  5
1D5
330
1F
100
AcDbEntity
  8
1
  6
Continuous
 62
     7
100
AcDbCircle
 10
310.568706963869
 20
135.7514312604182
 30
0.0
 40
3.999999999999915
  0
CIRCLE
  5
1D6
330
1F
100
AcDbEntity
  8
A_ACHSEN
  6
DASHED
 62
     2
100
AcDbCircle
 10
310.568706963869
 20
238.7514312604182
 30
0.0
 40
2.75
  0
CIRCLE
  5
1D7
330
1F
100
AcDbEntity
  8
A_ACHSEN
  6
DASHED
 62
     2
100
AcDbCircle
 10
310.568706963869
 20
128.7514312604182
 30
0.0
 40
2.75
  0
SPLINE
  5
1D8
330
1F
100
AcDbEntity
  8
A_RUNDUNGEN
  6
Continuous
 62
     7
100
AcDbSpline
210
0.0
220
0.0
230
1.0
 70
     8
 71
     3
 72
    23
 73
    19
 74
    17
 42
0.000000001
 43
0.0000000001
 44
0.00000001
 40
0.0
 40
0.0
 40
0.0
 40
0.0
 40
0.0871563471270804
 40
0.1743126964146848
 40
0.2179333808594709
 40
0.2615543671328828
 40
0.3051761058138634
 40
0.3487983980038016
 40
0.3924232643782504
 40
0.4360451818862855
 40
0.4796641981234802
 40
0.5232947982205653
 40
0.566942480952278
 40
0.6105470343307663
 40
0.6540952462143658
 40
0.6977988879663725
 40
0.7417031443166743
 40
0.7850658231311468
 40
0.7850658231311468
 40
0.7850658231311468
 40
0.7850658231311468
 10
297.368706963869
 20
154.5014312604182
 30
0.0
 10
297.3701704372542
 20
154.4723447771804
 30
0.0
 10
297.3730973986661
 20
154.4141718112634
 30
0.0
 10
297.3927959465769
 20
154.3436162672816
 30
0.0
 10
297.4149703824484
 20
154.2898559743835
 30
0.0
 10
297.4351606848637
 20
154.251112435878
 30
0.0
 10
297.4586285602758
 20
154.2142801057472
 30
0.0
 10
297.4852199520688
 20
154.17962760396
 30
0.0
 10
297.5147344729617
 20
154.1474302209812
 30
0.0
 10
297.5469369338641
 20
154.1179223723357
 30
0.0
 10
297.5815940045689
 20
154.0913372243149
 30
0.0
 10
297.6184406907066
 20
154.067865262268
 30
0.0
 10
297.6571901083456
 20
154.0476977543174
 30
0.0
 10
297.6975215367206
 20
154.0309931095591
 30
0.0
 10
297.7391862374965
 20
154.0178744325847
 30
0.0
 10
297.7819187750464
 20
154.008477148278
 30
0.0
 10
297.8252312511003
 20
154.0023123110872
 30
0.0
 10
297.8543374986216
 20
154.0017237215802
 30
0.0
 10
297.868800306169
 20
154.0014312604182
 30
0.0
 11
297.368706963869
 21
154.5014312604182
 31
0.0
 11
297.3763045895076
 21
154.4146066951354
 31
0.0
 11
297.3988662826114
 21
154.3304211887463
 31
0.0
 11
297.4155621974556
 21
154.2901221739876
 31
0.0
 11
297.4357067673872
 21
154.2514312604047
 31
0.0
 11
297.4591489045042
 21
154.2146437307443
 31
0.0
 11
297.4857065801829
 21
154.180037455557
 31
0.0
 11
297.5151832883058
 21
154.1478776563122
 31
0.0
 11
297.5473465019875
 21
154.1184090388377
 31
0.0
 11
297.5819545680515
 21
154.0918590786679
 31
0.0
 11
297.618753634969
 21
154.0684185585022
 31
0.0
 11
297.6574710288085
 21
154.0482670406047
 31
0.0
 11
297.6977583095252
 21
154.0315849499995
 31
0.0
 11
297.7392978921383
 21
154.0185116984457
 31
0.0
 11
297.7819600085978
 21
154.0090273838847
 31
0.0
 11
297.8254728020541
 21
154.0031775377328
 31
0.0
 11
297.868800306169
 21
154.0014312604182
 31
0.0
  0
SPLINE
  5
1D9
330
1F
100
AcDbEntity
  8
A_RUNDUNGEN
  6
Continuous
 62
     7
100
AcDbSpline
210
0.0
220
0.0
230
1.0
 70
     8
 71
     3
 72
    23
 73
    19
 74
    17
 42
0.000000001
 43
0.0000000001
 44
0.00000001
 40
0.0
 40
0.0
 40
0.0
 40
0.0
 40
0.0871714066974141
 40
0.1743428106459194
 40
0.2179686330340147
 40
0.2615949181370379
 40
0.3052197757197473
 40
0.348844473390931
 40
0.3924678909848667
 40
0.4360913282193397
 40
0.4797134735542712
 40
0.5233352186098157
 40
0.5669545146689497
 40
0.6105773376317291
 40
0.6542066728012238
 40
0.6978153132411407
 40
0.7413863047343119
 40
0.7850603427333019
 40
0.7850603427333019
 40
0.7850603427333019
 40
0.7850603427333019
 10
297.868800306169
 20
213.5014312604182
 30
0.0
 10
297.8397088209362
 20
213.4999681224368
 30
0.0
 10
297.781525852667
 20
213.4970418319193
 30
0.0
 10
297.7109573298312
 20
213.4773472412669
 30
0.0
 10
297.6571861538087
 20
213.4551769103268
 30
0.0
 10
297.6184355202963
 20
213.4349904676953
 30
0.0
 10
297.5815963962716
 20
213.4115265633871
 30
0.0
 10
297.5469378928982
 20
213.384940840701
 30
0.0
 10
297.5147334037454
 20
213.3554328641821
 30
0.0
 10
297.4852191578753
 20
213.3232346504547
 30
0.0
 10
297.45863149927
 20
213.2885812903239
 30
0.0
 10
297.435157733409
 20
213.2517495121119
 30
0.0
 10
297.4149806015481
 20
213.2130122003861
 30
0.0
 10
297.3982660986318
 20
213.1726584255405
 30
0.0
 10
297.3851491760994
 20
213.1309932708328
 30
0.0
 10
297.3757472849873
 20
213.0883767278871
 30
0.0
 10
297.3697010557168
 20
213.0450910626175
 30
0.0
 10
297.3690385838256
 20
213.0159959829123
 30
0.0
 10
297.368706963869
 20
213.0014312604182
 30
0.0
 11
297.868800306169
 21
213.5014312604182
 31
0.0
 11
297.7819604849681
 21
213.4938352210547
 31
0.0
 11
297.6977583095274
 21
213.4712775708381
 31
0.0
 11
297.6574522984818
 21
213.4545851202878
 31
0.0
 11
297.6187536349711
 21
213.4344439623356
 31
0.0
 11
297.5819596535271
 21
213.4110061472641
 31
0.0
 11
297.5473465019895
 21
213.3844534820004
 31
0.0
 11
297.5151816760217
 21
213.3549844036756
 31
0.0
 11
297.4857065801841
 21
213.322825065281
 31
0.0
 11
297.459150268353
 21
213.2882179285716
 31
0.0
 11
297.4357067673882
 21
213.2514312604343
 31
0.0
 11
297.4155583544384
 21
213.2127442536035
 31
0.0
 11
297.3988662826123
 21
213.1724413320927
 31
0.0
 11
297.3857659195834
 21
213.1308252360546
 31
0.0
 11
297.3763045053441
 21
213.0882553492587
 31
0.0
 11
297.3705460128693
 21
213.0450665634966
 31
0.0
 11
297.368706963869
 21
213.0014312604182
 31
0.0
  0
SPLINE
  5
1DA
330
1F
100
AcDbEntity
  8
A_RUNDUNGEN
  6
Continuous
 62
     7
100
AcDbSpline
210
0.0
220
0.0
230
1.0
 70
     8
 71
     3
 72
    13
 73
     9
 74
     7
 42
0.000000001
 43
0.0000000001
 44
0.00000001
 40
0.0
 40
0.0
 40
0.0
 40
0.0
 40
0.2453616274114874
 40
0.4907231742772846
 40
0.5983633220760441
 40
0.7060045668588013
 40
0.8449330872628431
 40
0.9838570898807628
 40
0.9838570898807628
 40
0.9838570898807628
 40
0.9838570898807628
 10
327.801585950261
 20
172.1529859864792
 30
0.0
 10
327.8004763150821
 20
172.2347664440215
 30
0.0
 10
327.7982570302263
 20
172.3983273320169
 30
0.0
 10
327.7926024659682
 20
172.5977103104521
 30
0.0
 10
327.7866946784904
 20
172.7511457643087
 30
0.0
 10
327.7811561842908
 20
172.8690854074084
 30
0.0
 10
327.7740170983077
 20
172.9973953107324
 30
0.0
 10
327.7665036059759
 20
173.0897111304403
 30
0.0
 10
327.762746913569
 20
173.1358682892182
 30
0.0
 11
327.801585950261
 21
172.1529859864792
 31
0.0
 11
327.7976525210257
 21
172.3983160823067
 31
0.0
 11
327.7907254091563
 21
172.6435798247827
 31
0.0
 11
327.786543409608
 21
172.7511387037068
 31
0.0
 11
327.7815099257288
 21
172.8586621978564
 31
0.0
 11
327.7734250428786
 21
172.9973552713265
 31
0.0
 11
327.762746913569
 21
173.1358682892182
 31
0.0
  0
SPLINE
  5
1DB
330
1F
100
AcDbEntity
  8
A_RUNDUNGEN
  6
Continuous
 62
     7
100
AcDbSpline
210
0.0
220
0.0
230
1.0
 70
     8
 71
     3
 72
    13
 73
     9
 74
     7
 42
0.000000001
 43
0.0000000001
 44
0.00000001
 40
0.0
 40
0.0
 40
0.0
 40
0.0
 40
0.1833200041788256
 40
0.3666422291159932
 40
0.4794981698452945
 40
0.5923531606030241
 40
0.7881041566969806
 40
0.9838548408414864
 40
0.9838548408414864
 40
0.9838548408414864
 40
0.9838548408414864
 10
327.762746913569
 20
194.3669942317182
 30
0.0
 10
327.7675488368445
 20
194.4279151876342
 30
0.0
 10
327.7771527268607
 20
194.5497578385526
 30
0.0
 10
327.7849091219092
 20
194.7094202581976
 30
0.0
 10
327.7903796430883
 20
194.845653578797
 30
0.0
 10
327.7949315337463
 20
194.9860685972311
 30
0.0
 10
327.7990534502486
 20
195.1541408479885
 30
0.0
 10
327.8007417889568
 20
195.2846313401423
 30
0.0
 10
327.801585950261
 20
195.3498765343422
 30
0.0
 11
327.762746913569
 21
194.3669942317182
 31
0.0
 11
327.7762344247115
 21
194.5498174005111
 31
0.0
 11
327.7857310824746
 21
194.7328934825223
 31
0.0
 11
327.7902344178038
 21
194.8456595385724
 31
0.0
 11
327.7939278043148
 21
194.9584540769064
 31
0.0
 11
327.7986756480437
 21
195.1541474860939
 31
0.0
 11
327.801585950261
 21
195.3498765343422
 31
0.0
  0
SPLINE
  5
1DC
330
1F
100
AcDbEntity
  8
A_RUNDUNGEN
  6
Continuous
 62
     7
100
AcDbSpline
210
0.0
220
0.0
230
1.0
 70
     8
 71
     3
 72
    23
 73
    19
 74
    17
 42
0.000000001
 43
0.0000000001
 44
0.00000001
 40
0.0
 40
0.0
 40
0.0
 40
0.0
 40
0.0871577192185656
 40
0.1743154461677085
 40
0.2179394628588083
 40
0.2615637536249751
 40
0.3051915192423265
 40
0.3488199444050636
 40
0.3924542019963837
 40
0.4360851921985139
 40
0.4797160588809283
 40
0.5233594755920836
 40
0.5670237020643969
 40
0.6106422390703043
 40
0.6542043821794807
 40
0.6979274095277492
 40
0.7418542803734877
 40
0.7852352609492951
 40
0.7852352609492951
 40
0.7852352609492951
 40
0.7852352609492951
 10
297.568706963869
 20
154.6514312604182
 30
0.0
 10
297.5701711178048
 20
154.6223442888223
 30
0.0
 10
297.5730994404135
 20
154.5641703443305
 30
0.0
 10
297.5928067381683
 20
154.4936146492967
 30
0.0
 10
297.6149902786547
 20
154.4398552202954
 30
0.0
 10
297.63518934124
 20
154.4011114393989
 30
0.0
 10
297.6586671915327
 20
154.3642793219394
 30
0.0
 10
297.6852701101856
 20
154.3296265953518
 30
0.0
 10
297.7147968417847
 20
154.2974292658404
 30
0.0
 10
297.7470130936946
 20
154.2679214636285
 30
0.0
 10
297.7816852940674
 20
154.2413375232094
 30
0.0
 10
297.8185478842213
 20
154.2178652118306
 30
0.0
 10
297.8573113862353
 20
154.1976935341412
 30
0.0
 10
297.8976598645554
 20
154.1809904205128
 30
0.0
 10
297.9393471725102
 20
154.1678892112367
 30
0.0
 10
297.9820956506572
 20
154.1584913114247
 30
0.0
 10
298.0254188502167
 20
154.1522392651214
 30
0.0
 10
298.0545414700226
 20
154.1516994654883
 30
0.0
 10
298.069011735969
 20
154.1514312604182
 30
0.0
 11
297.568706963869
 21
154.6514312604182
 31
0.0
 11
297.5763079924694
 21
154.5646056156663
 31
0.0
 11
297.5988790334844
 21
154.4804211887705
 31
0.0
 11
297.6155822656941
 21
154.4401215992334
 31
0.0
 11
297.635735093698
 21
154.4014312604429
 31
0.0
 11
297.6591875788928
 21
154.3646431792781
 31
0.0
 11
297.6857560454388
 21
154.3300374556085
 31
0.0
 11
297.715245771837
 21
154.2978768505971
 31
0.0
 11
297.7474220273996
 21
154.2684090389005
 31
0.0
 11
297.782045380479
 21
154.241859538111
 31
0.0
 11
297.8188593499233
 21
154.2184185585745
 31
0.0
 11
297.8575935234136
 21
154.1982634468732
 31
0.0
 11
297.897897426114
 21
154.181584950079
 31
0.0
 11
297.9394554910366
 21
154.1685240304462
 31
0.0
 11
297.982134724021
 21
154.1590273839691
 31
0.0
 11
298.0256640688233
 21
154.1531310882424
 31
0.0
 11
298.069011735969
 21
154.1514312604182
 31
0.0
  0
SPLINE
  5
1DD
330
1F
100
AcDbEntity
  8
A_RUNDUNGEN
  6
Continuous
 62
     7
100
AcDbSpline
210
0.0
220
0.0
230
1.0
 70
     8
 71
     3
 72
    23
 73
    19
 74
    17
 42
0.000000001
 43
0.0000000001
 44
0.00000001
 40
0.0
 40
0.0
 40
0.0
 40
0.0
 40
0.0872068903738802
 40
0.1744137724075059
 40
0.2180547672487156
 40
0.2616961412713589
 40
0.3053332392593452
 40
0.3489704151750374
 40
0.3926034279206678
 40
0.4362357775948433
 40
0.4798630821535279
 40
0.5234915956750633
 40
0.5671158823580491
 40
0.6107412694832943
 40
0.6543725281790327
 40
0.6979784237875983
 40
0.7415222823209028
 40
0.7852371868579434
 40
0.7852371868579434
 40
0.7852371868579434
 40
0.7852371868579434
 10
298.069011735969
 20
213.3514312604182
 30
0.0
 10
298.039908437991
 20
213.3499681873937
 30
0.0
 10
297.9817018460967
 20
213.3470420268733
 30
0.0
 10
297.9111036371353
 20
213.327347810103
 30
0.0
 10
297.8573088306523
 20
213.3051772931473
 30
0.0
 10
297.8185421073389
 20
213.2849910886548
 30
0.0
 10
297.7816873765898
 20
213.2615269895101
 30
0.0
 10
297.7470142996914
 20
213.2349415092545
 30
0.0
 10
297.7147952090887
 20
213.2054341915082
 30
0.0
 10
297.685268864127
 20
213.1732362046839
 30
0.0
 10
297.6586731186173
 20
213.1385801954955
 30
0.0
 10
297.6351885849862
 20
213.101749093892
 30
0.0
 10
297.6149876960267
 20
213.0630188229028
 30
0.0
 10
297.5982700290838
 20
213.0226615239286
 30
0.0
 10
297.5852041499711
 20
212.9809778926547
 30
0.0
 10
297.5757959107423
 20
212.9383815645462
 30
0.0
 10
297.5694782334223
 20
212.8951221327921
 30
0.0
 10
297.5689643846554
 20
212.8660139042042
 30
0.0
 10
297.568706963869
 20
212.8514312604182
 30
0.0
 11
298.069011735969
 21
213.3514312604182
 31
0.0
 11
297.9821362791212
 21
213.34383541132
 31
0.0
 11
297.8978974261112
 21
213.3212775707566
 31
0.0
 11
297.857574878964
 21
213.3045853967724
 31
0.0
 11
297.8188593499211
 21
213.2844439622607
 31
0.0
 11
297.7820506211319
 21
213.2610065167967
 31
0.0
 11
297.7474220273982
 21
213.2344534819344
 31
0.0
 11
297.7152434514324
 21
213.2049852093072
 31
0.0
 11
297.6857560454378
 21
213.1728250652257
 31
0.0
 11
297.6591916200387
 21
213.1382176520209
 31
0.0
 11
297.6357350936973
 21
213.1014312603909
 31
0.0
 11
297.6155684230764
 21
213.0627481395955
 31
0.0
 11
297.5988790334837
 21
213.0224413320635
 31
0.0
 11
297.5858105607733
 21
212.9808131946564
 31
0.0
 11
297.5763077175365
 21
212.9382553492439
 31
0.0
 11
297.5704075326773
 21
212.895113077402
 31
0.0
 11
297.568706963869
 21
212.8514312604182
 31
0.0
  0
SPLINE
  5
1DE
330
1F
100
AcDbEntity
  8
A_ACHSEN
  6
DASHED
 62
     2
100
AcDbSpline
210
0.0
220
0.0
230
1.0
 70
     8
 71
     3
 72
    11
 73
     7
 74
     5
 42
0.000000001
 43
0.0000000001
 44
0.00000001
 40
0.0
 40
0.0
 40
0.0
 40
0.0
 40
0.1664529668134669
 40
0.332930230738865
 40
0.8563984582565183
 40
1.379729505031266
 40
1.379729505031266
 40
1.379729505031266
 40
1.379729505031266
 10
311.9427045576611
 20
133.6628598318472
 30
0.0
 10
311.8878428689221
 20
133.6545560899647
 30
0.0
 10
311.7781114811773
 20
133.6379474084582
 30
0.0
 10
311.4950304595021
 20
133.6011604105278
 30
0.0
 10
311.0921599386368
 20
133.5613747149302
 30
0.0
 10
310.7431760445097
 20
133.5547454501732
 30
0.0
 10
310.568706963869
 20
133.5514312604182
 30
0.0
 11
311.9427045576611
 21
133.6628598318472
 31
0.0
 11
311.7780399718004
 21
133.6385254032021
 31
0.0
 11
311.6129728112512
 21
133.61690337755
 31
0.0
 11
311.0917661892817
 21
133.5682963509242
 31
0.0
 11
310.568706963869
 21
133.5514312604182
 31
0.0
  0
SPLINE
  5
1DF
330
1F
100
AcDbEntity
  8
A_ACHSEN
  6
DASHED
 62
     2
100
AcDbSpline
210
0.0
220
0.0
230
1.0
 70
     8
 71
     3
 72
    11
 73
     7
 74
     5
 42
0.000000001
 43
0.0000000001
 44
0.00000001
 40
0.0
 40
0.0
 40
0.0
 40
0.0
 40
0.1772859496423924
 40
0.3545927543403592
 40
0.8671721892308186
 40
1.379758494148815
 40
1.379758494148815
 40
1.379758494148815
 40
1.379758494148815
 10
310.568706963869
 20
133.5514312604182
 30
0.0
 10
310.5096095806244
 20
133.5518009325575
 30
0.0
 10
310.3914078623729
 20
133.5525403348485
 30
0.0
 10
310.1025039598129
 20
133.5623956508759
 30
0.0
 10
309.7023424626212
 20
133.5909651094543
 30
0.0
 10
309.3639211562476
 20
133.6388948119124
 30
0.0
 10
309.194709370077
 20
133.6628598318472
 30
0.0
 11
310.568706963869
 21
133.5514312604182
 31
0.0
 11
310.3914315364189
 21
133.5533628108972
 31
0.0
 11
310.2142192048326
 21
133.5591500934619
 31
0.0
 11
309.7030286474377
 21
133.5968580732129
 31
0.0
 11
309.194709370077
 21
133.6628598318472
 31
0.0
  0
SPLINE
  5
1E0
330
1F
100
AcDbEntity
  8
A_ACHSEN
  6
DASHED
 62
     2
100
AcDbSpline
210
0.0
220
0.0
230
1.0
 70
     8
 71
     3
 72
    11
 73
     7
 74
     5
 42
0.000000001
 43
0.0000000001
 44
0.00000001
 40
0.0
 40
0.0
 40
0.0
 40
0.0
 40
0.1772860339066763
 40
0.3545929236674908
 40
0.867172273810696
 40
1.379758489319195
 40
1.379758489319195
 40
1.379758489319195
 40
1.379758489319195
 10
310.568706963869
 20
233.9514312604182
 30
0.0
 10
310.6278043752151
 20
233.9510615829963
 30
0.0
 10
310.7460061499357
 20
233.9503221701381
 30
0.0
 10
311.0349100782307
 20
233.9404667816901
 30
0.0
 10
311.435071545824
 20
233.9118973591038
 30
0.0
 10
311.7734927989061
 20
233.8639676914253
 30
0.0
 10
311.9427045576611
 20
233.8400026889892
 30
0.0
 11
310.568706963869
 21
233.9514312604182
 31
0.0
 11
310.7459824753597
 21
233.9494996889516
 31
0.0
 11
310.923194890843
 21
233.9437123692996
 31
0.0
 11
311.4343853637083
 21
233.9060043956211
 31
0.0
 11
311.9427045576611
 21
233.8400026889892
 31
0.0
  0
SPLINE
  5
1E1
330
1F
100
AcDbEntity
  8
A_ACHSEN
  6
DASHED
 62
     2
100
AcDbSpline
210
0.0
220
0.0
230
1.0
 70
     8
 71
     3
 72
    11
 73
     7
 74
     5
 42
0.000000001
 43
0.0000000001
 44
0.00000001
 40
0.0
 40
0.0
 40
0.0
 40
0.0
 40
0.1664539441408245
 40
0.332932185896392
 40
0.8563994360341346
 40
1.379729503683401
 40
1.379729503683401
 40
1.379729503683401
 40
1.379729503683401
 10
309.194709370077
 20
233.8400026889892
 30
0.0
 10
309.2495713814953
 20
233.8483064761407
 30
0.0
 10
309.3593034147642
 20
233.8649152482097
 30
0.0
 10
309.642384769487
 20
233.9017022138643
 30
0.0
 10
310.0452549680423
 20
233.9414878241866
 30
0.0
 10
310.3942382097359
 20
233.9481170767603
 30
0.0
 10
310.568706963869
 20
233.9514312604182
 30
0.0
 11
309.194709370077
 21
233.8400026889892
 31
0.0
 11
309.3593749251193
 21
233.8643372445804
 31
0.0
 11
309.5244430602611
 21
233.8859593587187
 31
0.0
 11
310.0456487167113
 21
233.9345662126887
 31
0.0
 11
310.568706963869
 21
233.9514312604182
 31
0.0
  0
SPLINE
  5
1E2
330
1F
100
AcDbEntity
  8
A_RUNDUNGEN
  6
Continuous
 62
     7
100
AcDbSpline
210
0.0
220
0.0
230
1.0
 70
     8
 71
     3
 72
    11
 73
     7
 74
     5
 42
0.000000001
 43
0.0000000001
 44
0.00000001
 40
0.0
 40
0.0
 40
0.0
 40
0.0
 40
0.0924506917243901
 40
0.1853560058053694
 40
0.2837713255835084
 40
0.3817347695983008
 40
0.3817347695983008
 40
0.3817347695983008
 40
0.3817347695983008
 10
353.577838683369
 20
154.0014312604182
 30
0.0
 10
353.5469610407951
 20
154.0032570971815
 30
0.0
 10
353.4850539178396
 20
154.0069177639065
 30
0.0
 10
353.3943294412608
 20
154.036489160865
 30
0.0
 10
353.3087734924979
 20
154.082975413929
 30
0.0
 10
353.2612230821134
 20
154.1283323209898
 30
0.0
 10
353.2375025894691
 20
154.1509585961182
 30
0.0
 11
353.577838683369
 21
154.0014312604182
 31
0.0
 11
353.4858642604508
 21
154.0108033538932
 31
0.0
 11
353.3971719542897
 21
154.0384632994368
 31
0.0
 11
353.3112841548472
 21
154.0865139131805
 31
0.0
 11
353.2375025894691
 21
154.1509585961182
 31
0.0
  0
SPLINE
  5
1E3
330
1F
100
AcDbEntity
  8
A_RUNDUNGEN
  6
Continuous
 62
     7
100
AcDbSpline
210
0.0
220
0.0
230
1.0
 70
     8
 71
     3
 72
    17
 73
    13
 74
    11
 42
0.000000001
 43
0.0000000001
 44
0.00000001
 40
0.0
 40
0.0
 40
0.0
 40
0.0
 40
0.1616656455210683
 40
0.3235823744138041
 40
0.4845012501287462
 40
0.6454595206223384
 40
0.9624059405921048
 40
1.280410162273031
 40
1.59489742137812
 40
1.909377083432679
 40
2.224545104578316
 40
2.538836558184345
 40
2.538836558184345
 40
2.538836558184345
 40
2.538836558184345
 10
322.420619901069
 20
193.8514312604182
 30
0.0
 10
322.4226358838588
 20
193.9053534148034
 30
0.0
 10
322.4266709945077
 20
194.0132814692918
 30
0.0
 10
322.4583427326932
 20
194.1722997137675
 30
0.0
 10
322.5078522473826
 20
194.3261051231795
 30
0.0
 10
322.5973825329802
 20
194.519837571873
 30
0.0
 10
322.749316895318
 20
194.7400300939682
 30
0.0
 10
322.9788743583108
 20
194.960600568229
 30
0.0
 10
323.2445719270382
 20
195.1344053368605
 30
0.0
 10
323.5352202787458
 20
195.2581207703683
 30
0.0
 10
323.8420564404826
 20
195.3365673157107
 30
0.0
 10
324.0520914999178
 20
195.3464812189549
 30
0.0
 10
324.156962785769
 20
195.3514312604182
 30
0.0
 11
322.420619901069
 21
193.8514312604182
 31
0.0
 11
322.4309405649819
 21
194.0127671397911
 31
0.0
 11
322.4614099273141
 21
194.1717911818459
 31
0.0
 11
322.5108902278499
 21
194.324913959411
 31
0.0
 11
322.5782719428562
 21
194.4710894352732
 31
0.0
 11
322.7571659672903
 21
194.7327226944642
 31
0.0
 11
322.9859272775847
 21
194.9536184812483
 31
0.0
 11
323.2488621426053
 21
195.1261510675717
 31
0.0
 11
323.5377119908848
 21
195.2505022769525
 31
0.0
 11
323.8437010122799
 21
195.3260112196772
 31
0.0
 11
324.156962785769
 21
195.3514312604182
 31
0.0
  0
SPLINE
  5
1E4
330
1F
100
AcDbEntity
  8
A_RUNDUNGEN
  6
Continuous
 62
     7
100
AcDbSpline
210
0.0
220
0.0
230
1.0
 70
     8
 71
     3
 72
    17
 73
    13
 74
    11
 42
0.000000001
 43
0.0000000001
 44
0.00000001
 40
0.0
 40
0.0
 40
0.0
 40
0.0
 40
0.3142914536060263
 40
0.629459474751719
 40
0.9439391368071621
 40
1.258426395921764
 40
1.576430617626993
 40
1.893377037601437
 40
2.054335308074281
 40
2.215254183765586
 40
2.377170912647323
 40
2.538836558166892
 40
2.538836558166892
 40
2.538836558166892
 40
2.538836558166892
 10
324.156962785769
 20
172.1514312604182
 30
0.0
 10
324.0520914999178
 20
172.1563813018815
 30
0.0
 10
323.8420564404826
 20
172.1662952051257
 30
0.0
 10
323.5352202787454
 20
172.2447417504681
 30
0.0
 10
323.2445719270347
 20
172.3684571839776
 30
0.0
 10
322.9788743583038
 20
172.5422619526279
 30
0.0
 10
322.7493168953251
 20
172.7628324269218
 30
0.0
 10
322.5973825329893
 20
172.9830249490185
 30
0.0
 10
322.507852247383
 20
173.1767573976933
 30
0.0
 10
322.4583427326912
 20
173.3305628070854
 30
0.0
 10
322.4266709945074
 20
173.4895810515492
 30
0.0
 10
322.4226358838588
 20
173.5975091060335
 30
0.0
 10
322.420619901069
 20
173.6514312604182
 30
0.0
 11
324.156962785769
 21
172.1514312604182
 31
0.0
 11
323.8437010122799
 21
172.1768513011592
 31
0.0
 11
323.5377119908848
 21
172.2523602438838
 31
0.0
 11
323.2488621426053
 21
172.3767114532672
 31
0.0
 11
322.9859272775847
 21
172.5492440396079
 31
0.0
 11
322.7571659672903
 21
172.7701398264269
 31
0.0
 11
322.5782719428562
 21
173.0317730856235
 31
0.0
 11
322.5108902278499
 21
173.1779485614629
 31
0.0
 11
322.4614099273142
 21
173.3310713390032
 31
0.0
 11
322.430940564982
 21
173.4900953810468
 31
0.0
 11
322.420619901069
 21
173.6514312604182
 31
0.0
  0
SPLINE
  5
1E5
330
1F
100
AcDbEntity
  8
A_RUNDUNGEN
  6
Continuous
 62
     7
100
AcDbSpline
210
0.0
220
0.0
230
1.0
 70
     8
 71
     3
 72
    15
 73
    11
 74
     9
 42
0.000000001
 43
0.0000000001
 44
0.00000001
 40
0.0
 40
0.0
 40
0.0
 40
0.0
 40
0.3202839983605694
 40
0.6419822581928816
 40
0.9322526045786328
 40
1.222035618560376
 40
1.492732738285629
 40
1.763629954759
 40
2.033001579980326
 40
2.3015195226255
 40
2.3015195226255
 40
2.3015195226255
 40
2.3015195226255
 10
357.287656734269
 20
195.6014312604182
 30
0.0
 10
357.2807597202282
 20
195.4944934458022
 30
0.0
 10
357.2669352229346
 20
195.2801456183898
 30
0.0
 10
357.1636267520366
 20
194.9831333908206
 30
0.0
 10
357.0113811967848
 20
194.7223047951555
 30
0.0
 10
356.8221792947191
 20
194.5085305377472
 30
0.0
 10
356.6023613769324
 20
194.3372893227101
 30
0.0
 10
356.3617006383427
 20
194.2116616058753
 30
0.0
 10
356.103283129469
 20
194.1277195728913
 30
0.0
 10
355.9243088037725
 20
194.1110479019079
 30
0.0
 10
355.834963664735
 20
194.1027253033622
 30
0.0
 11
357.287656734269
 21
195.6014312604182
 31
0.0
 11
357.2526994054585
 21
195.2830606810489
 31
0.0
 11
357.1503327849744
 21
194.9780838840524
 31
0.0
 11
357.0035188139156
 21
194.7276791460809
 31
0.0
 11
356.8116408456908
 21
194.5105224253574
 31
0.0
 11
356.598036565589
 21
194.3442391041663
 31
0.0
 11
356.3581571565458
 21
194.2183694419951
 31
0.0
 11
356.1012267543576
 21
194.1374507054367
 31
0.0
 11
355.834963664735
 21
194.1027253033622
 31
0.0
  0
SPLINE
  5
1E6
330
1F
100
AcDbEntity
  8
A_RUNDUNGEN
  6
Continuous
 62
     7
100
AcDbSpline
210
0.0
220
0.0
230
1.0
 70
     8
 71
     3
 72
    15
 73
    11
 74
     9
 42
0.000000001
 43
0.0000000001
 44
0.00000001
 40
0.0
 40
0.0
 40
0.0
 40
0.0
 40
0.0363087233645612
 40
0.0726681683710699
 40
0.0997144129552578
 40
0.126744262899736
 40
0.1475261340457245
 40
0.1680508671740001
 40
0.1883704694819549
 40
0.2087832095062804
 40
0.2087832095062804
 40
0.2087832095062804
 40
0.2087832095062804
 10
327.757384035069
 20
194.2659303406182
 30
0.0
 10
327.7575158494668
 20
194.2538235377628
 30
0.0
 10
327.75777967085
 20
194.2295930196217
 30
0.0
 10
327.7611957400833
 20
194.1964768906528
 30
0.0
 10
327.7669816881788
 20
194.1668318376986
 30
0.0
 10
327.7759610645608
 20
194.1433347549685
 30
0.0
 10
327.7886804574222
 20
194.1242185550579
 30
0.0
 10
327.8043427970537
 20
194.1104304296377
 30
0.0
 10
327.8237355619495
 20
194.1027156741998
 30
0.0
 10
327.8373405736681
 20
194.1018600464692
 30
0.0
 10
327.844158634769
 20
194.1014312604182
 30
0.0
 11
327.757384035069
 21
194.2659303406182
 31
0.0
 11
327.7583351249087
 21
194.2296340841261
 31
0.0
 11
327.7621344553933
 21
194.193473686178
 31
0.0
 11
327.7677398943935
 21
194.1670146900292
 31
0.0
 11
327.7777217635022
 21
194.141895470596
 31
0.0
 11
327.7894395171181
 21
194.124732122768
 31
0.0
 11
327.8050388125201
 21
194.1113932034115
 31
0.0
 11
327.8238827502129
 21
194.1037910733285
 31
0.0
 11
327.844158634769
 21
194.1014312604182
 31
0.0
  0
SPLINE
  5
1E7
330
1F
100
AcDbEntity
  8
A_RUNDUNGEN
  6
Continuous
 62
     7
100
AcDbSpline
210
0.0
220
0.0
230
1.0
 70
     8
 71
     3
 72
    15
 73
    11
 74
     9
 42
0.000000001
 43
0.0000000001
 44
0.00000001
 40
0.0
 40
0.0
 40
0.0
 40
0.0
 40
0.2685119100877105
 40
0.5378775897258644
 40
0.8087758308902588
 40
1.079473856449735
 40
1.369257792914558
 40
1.659529146827486
 40
1.981229160840975
 40
2.301514884166307
 40
2.301514884166307
 40
2.301514884166307
 40
2.301514884166307
 10
355.834968260945
 20
173.4001370519082
 30
0.0
 10
355.9243113694406
 20
173.39181441103
 30
0.0
 10
356.1032816629185
 20
173.3751426519568
 30
0.0
 10
356.361695586071
 20
173.2912018652644
 30
0.0
 10
356.6023558771744
 20
173.1655762825934
 30
0.0
 10
356.8221756812716
 20
172.9943358842838
 30
0.0
 10
357.0113790304235
 20
172.7805615727621
 30
0.0
 10
357.1636257694881
 20
172.5197322207103
 30
0.0
 10
357.2669350729969
 20
172.2227186449741
 30
0.0
 10
357.2807596704772
 20
172.0083696526227
 30
0.0
 10
357.287656734269
 20
171.9014312604182
 30
0.0
 11
355.834968260945
 21
173.4001370519082
 31
0.0
 11
356.101225296496
 21
173.3654118765913
 31
0.0
 11
356.3581501219049
 21
173.2844952251787
 31
0.0
 11
356.598031143923
 21
173.1586264316413
 31
0.0
 11
356.8116371304668
 21
172.9923438278878
 31
0.0
 11
357.003516555872
 21
172.7751871637203
 31
0.0
 11
357.1503316011414
 21
172.5247818876364
 31
0.0
 11
357.2526991286493
 21
172.2198035447255
 31
0.0
 11
357.287656734269
 21
171.9014312604182
 31
0.0
  0
SPLINE
  5
1E8
330
1F
100
AcDbEntity
  8
A_RUNDUNGEN
  6
Continuous
 62
     7
100
AcDbSpline
210
0.0
220
0.0
230
1.0
 70
     8
 71
     3
 72
    15
 73
    11
 74
     9
 42
0.000000001
 43
0.0000000001
 44
0.00000001
 40
0.0
 40
0.0
 40
0.0
 40
0.0
 40
0.0204130586549472
 40
0.0407329660666916
 40
0.0612581269305093
 40
0.0820404622852677
 40
0.1090711485942052
 40
0.1361182098004124
 40
0.1724787841177716
 40
0.2087886398840727
 40
0.2087886398840727
 40
0.2087886398840727
 40
0.2087886398840727
 10
327.844158634769
 20
173.4014312604182
 30
0.0
 10
327.8373404671564
 20
173.4010024610888
 30
0.0
 10
327.8237352469328
 20
173.4001468071154
 30
0.0
 10
327.8043421748458
 20
173.3924318073561
 30
0.0
 10
327.7886797189727
 20
173.3786431755685
 30
0.0
 10
327.7759603372747
 20
173.3595262750331
 30
0.0
 10
327.7669810430763
 20
173.3360284041715
 30
0.0
 10
327.7611952856064
 20
173.3063823696618
 30
0.0
 10
327.7577794093303
 20
173.2732651910852
 30
0.0
 10
327.7575157574057
 20
173.2490339169735
 30
0.0
 10
327.757384027669
 20
173.2369267356182
 30
0.0
 11
327.844158634769
 21
173.4014312604182
 31
0.0
 11
327.8238824378456
 21
173.3990713752118
 31
0.0
 11
327.8050382632755
 21
173.3914690167876
 31
0.0
 11
327.7894388196523
 21
173.3781296126108
 31
0.0
 11
327.7777210820605
 21
173.3609656917689
 31
0.0
 11
327.7677392649358
 21
173.3358455517008
 31
0.0
 11
327.7621339806421
 21
173.3093856880324
 31
0.0
 11
327.7583348709525
 21
173.2732241313599
 31
0.0
 11
327.757384027669
 21
173.2369267356182
 31
0.0
  0
MTEXT
  5
1EA
330
1F
100
AcDbEntity
  8
1
 62
     2
100
AcDbMText
 10
381.74828655026
 20
186.8338631514692
 30
0.0
 40
2.5
 41
0.0
 46
0.0
 71
     5
 72
     1
  1
BBL
  7
CONVERTER_11
 73
     1
 44
1.32052821128451
  0
DIMENSION
  5
1F5
330
1F
100
AcDbEntity
  8
1
100
AcDbDimension
280
     0
  2
*D1
 10
351.630127714169
 20
110.8920181026532
 30
0.0
 11
364.70085821436
 21
114.6420181026532
 31
0.0
 70
    32
  1
<>
 71
     5
 42
-1.0
 73
     0
 74
     0
 75
     0
 53
0.00013888888889
  3
ME10_DIM_10
100
AcDbAlignedDimension
 13
375.630127714169
 23
133.1014312604182
 33
0.0
 14
351.630127714169
 24
133.1014312604182
 34
0.0
100
AcDbRotatedDimension
  0
DIMENSION
  5
200
330
1F
100
AcDbEntity
  8
1
100
AcDbDimension
280
     0
  2
*D2
 10
328.568706963869
 20
110.8920181026532
 30
0.0
 11
339.989218674159
 21
114.6420181026532
 31
0.0
 70
    32
  1
23
 71
     5
 42
-1.0
 73
     0
 74
     0
 75
     0
 53
0.00013888888889
  3
ME10_DIM_11
100
AcDbAlignedDimension
 13
351.630127714169
 23
133.1014312604182
 33
0.0
 14
328.568706963869
 24
137.2514312604182
 34
0.0
100
AcDbRotatedDimension
  0
DIMENSION
  5
20B
330
1F
100
AcDbEntity
  8
1
100
AcDbDimension
280
     0
  2
*D3
 10
328.568706963869
 20
135.7514312604182
 30
0.0
 11
339.328054249028
 21
139.5014312604182
 31
0.0
 70
    32
  1
20
 71
     5
 42
-1.0
 73
     0
 74
     0
 75
     0
 53
0.00013888888889
  3
ME10_DIM_12
100
AcDbAlignedDimension
 13
348.630127714169
 23
154.1514312604182
 33
0.0
 14
328.568706963869
 24
137.2514312604182
 34
0.0
100
AcDbRotatedDimension
  0
DIMENSION
  5
216
330
1F
100
AcDbEntity
  8
1
100
AcDbDimension
280
     0
  2
*D4
 10
292.568706963869
 20
110.8920181026532
 30
0.0
 11
310.509682722347
 21
114.6420181026532
 31
0.0
 70
    32
  1
<>
 71
     5
 42
-1.0
 73
     0
 74
     0
 75
     0
 53
0.00013888888889
  3
ME10_DIM_13
100
AcDbAlignedDimension
 13
328.568706963869
 23
137.2514312604182
 33
0.0
 14
292.568706963869
 24
139.2514306403182
 34
0.0
100
AcDbRotatedDimension
  0
DIMENSION
  5
222
330
1F
100
AcDbEntity
  8
1
100
AcDbDimension
280
     0
  2
*D5
 10
282.702585970614
 20
246.2514312604182
 30
0.0
 11
278.952585970614
 21
183.146536110199
 31
0.0
 70
    32
  1
<>
 71
     5
 42
-1.0
 73
     0
 74
     0
 75
     0
 53
90.0
  3
ME10_DIM_14
100
AcDbAlignedDimension
 13
310.568706963869
 23
121.2514317845182
 33
0.0
 14
310.568706963869
 24
246.2514312604182
 34
0.0
 50
90.0
100
AcDbRotatedDimension
  0
ENDSEC
  0
SECTION
  2
OBJECTS
  0
DICTIONARY
  5
C
330
0
100
AcDbDictionary
281
     1
  3
ACAD_GROUP
350
D
  3
ACAD_LAYOUT
350
1A
  3
ACAD_MATERIAL
350
3B
  3
ACAD_MLEADERSTYLE
350
224
  3
ACAD_MLINESTYLE
350
17
  3
ACAD_PLOTSETTINGS
350
19
  3
ACAD_PLOTSTYLENAME
350
E
  3
ACAD_TABLESTYLE
350
223
  3
ACAD_VISUALSTYLE
350
2A
  0
DICTIONARY
  5
D
102
{ACAD_REACTORS
330
C
102
}
330
C
100
AcDbDictionary
281
     1
  0
DICTIONARY
  5
1A
102
{ACAD_REACTORS
330
C
102
}
330
C
100
AcDbDictionary
281
     1
  3
Layout1
350
1E
  3
Layout2
350
26
  3
Model
350
22
  0
DICTIONARY
  5
3B
102
{ACAD_REACTORS
330
C
102
}
330
C
100
AcDbDictionary
281
     1
  3
ByBlock
350
3D
  3
ByLayer
350
3C
  3
Global
350
3E
  0
DICTIONARY
  5
224
102
{ACAD_REACTORS
330
C
102
}
330
C
100
AcDbDictionary
281
     1
  0
DICTIONARY
  5
17
102
{ACAD_REACTORS
330
C
102
}
330
C
100
AcDbDictionary
281
     1
  3
Standard
350
18
  0
DICTIONARY
  5
19
102
{ACAD_REACTORS
330
C
102
}
330
C
100
AcDbDictionary
281
     1
  0
ACDBDICTIONARYWDFLT
  5
E
102
{ACAD_REACTORS
330
C
102
}
330
C
100
AcDbDictionary
281
     1
  3
Normal
350
F
100
AcDbDictionaryWithDefault
340
F
  0
DICTIONARY
  5
223
102
{ACAD_REACTORS
330
C
102
}
330
C
100
AcDbDictionary
281
     1
  0
DICTIONARY
  5
2A
102
{ACAD_REACTORS
330
C
102
}
330
C
100
AcDbDictionary
281
     1
  3
2dWireframe
350
2F
  3
3D Hidden
350
31
  3
3dWireframe
350
30
  3
Basic
350
32
  3
Brighten
350
36
  3
ColorChange
350
3A
  3
Conceptual
350
34
  3
Dim
350
35
  3
Facepattern
350
39
  3
Flat
350
2B
  3
FlatWithEdges
350
2C
  3
Gouraud
350
2D
  3
GouraudWithEdges
350
2E
  3
Linepattern
350
38
  3
Realistic
350
33
  3
Thicken
350
37
  0
LAYOUT
  5
1E
102
{ACAD_REACTORS
330
1A
102
}
330
1A
100
AcDbPlotSettings
  1

  2
none_device
  4

  6

 40
0.0
 41
0.0
 42
0.0
 43
0.0
 44
0.0
 45
0.0
 46
0.0
 47
0.0
 48
0.0
 49
0.0
140
0.0
141
0.0
142
1.0
143
1.0
 70
   688
 72
     0
 73
     0
 74
     5
  7

 75
    16
 76
     0
 77
     2
 78
   300
147
1.0
148
0.0
149
0.0
100
AcDbLayout
  1
Layout1
 70
     1
 71
     1
 10
0.0
 20
0.0
 11
12.0
 21
9.0
 12
0.0
 22
0.0
 32
0.0
 14
1.00000000000000E+20
 24
1.00000000000000E+20
 34
1.00000000000000E+20
 15
-1.00000000000000E+20
 25
-1.00000000000000E+20
 35
-1.00000000000000E+20
146
0.0
 13
0.0
 23
0.0
 33
0.0
 16
1.0
 26
0.0
 36
0.0
 17
0.0
 27
1.0
 37
0.0
 76
     0
330
1B
  0
LAYOUT
  5
26
102
{ACAD_REACTORS
330
1A
102
}
330
1A
100
AcDbPlotSettings
  1

  2
none_device
  4

  6

 40
0.0
 41
0.0
 42
0.0
 43
0.0
 44
0.0
 45
0.0
 46
0.0
 47
0.0
 48
0.0
 49
0.0
140
0.0
141
0.0
142
1.0
143
1.0
 70
   688
 72
     0
 73
     0
 74
     5
  7

 75
    16
 76
     0
 77
     2
 78
   300
147
1.0
148
0.0
149
0.0
100
AcDbLayout
  1
Layout2
 70
     1
 71
     2
 10
0.0
 20
0.0
 11
0.0
 21
0.0
 12
0.0
 22
0.0
 32
0.0
 14
0.0
 24
0.0
 34
0.0
 15
0.0
 25
0.0
 35
0.0
146
0.0
 13
0.0
 23
0.0
 33
0.0
 16
1.0
 26
0.0
 36
0.0
 17
0.0
 27
1.0
 37
0.0
 76
     0
330
23
  0
LAYOUT
  5
22
102
{ACAD_REACTORS
330
1A
102
}
330
1A
100
AcDbPlotSettings
  1

  2
none_device
  4

  6

 40
0.0
 41
0.0
 42
0.0
 43
0.0
 44
0.0
 45
0.0
 46
0.0
 47
0.0
 48
0.0
 49
0.0
140
0.0
141
0.0
142
1.0
143
1.0
 70
  1712
 72
     0
 73
     0
 74
     0
  7

 75
     0
 76
     0
 77
     2
 78
   300
147
1.0
148
0.0
149
0.0
100
AcDbLayout
  1
Model
 70
     1
 71
     0
 10
0.0
 20
0.0
 11
12.0
 21
9.0
 12
0.0
 22
0.0
 32
0.0
 14
277.202585970614
 24
108.8920181026532
 34
0.0
 15
386.696862213633
 25
246.8514312604182
 35
0.0
146
0.0
 13
0.0
 23
0.0
 33
0.0
 16
1.0
 26
0.0
 36
0.0
 17
0.0
 27
1.0
 37
0.0
 76
     0
330
1F
331
29
  0
MATERIAL
  5
3D
102
{ACAD_REACTORS
330
3B
102
}
330
3B
100
AcDbMaterial
  1
ByBlock
 72
     1
 94
      127
  0
MATERIAL
  5
3C
102
{ACAD_REACTORS
330
3B
102
}
330
3B
100
AcDbMaterial
  1
ByLayer
 72
     1
 94
      127
  0
MATERIAL
  5
3E
102
{ACAD_REACTORS
330
3B
102
}
330
3B
100
AcDbMaterial
  1
Global
 72
     1
 94
      127
  0
MLINESTYLE
  5
18
102
{ACAD_REACTORS
330
17
102
}
330
17
100
AcDbMlineStyle
  2
Standard
 70
     0
  3

 62
   256
 51
90.0
 52
90.0
 71
     2
 49
0.5
 62
   256
  6
BYLAYER
 49
-0.5
 62
   256
  6
BYLAYER
  0
ACDBPLACEHOLDER
  5
F
102
{ACAD_REACTORS
330
E
102
}
330
E
  0
VISUALSTYLE
  5
2F
102
{ACAD_REACTORS
330
2A
102
}
330
2A
100
AcDbVisualStyle
  2
2dWireframe
 70
     4
177
     2
291
     0
 71
     0
176
     1
 72
     2
176
     1
 73
     0
176
     1
 90
        0
176
     1
 40
-0.6
176
     1
 41
-30.0
176
     1
 62
     5
 63
     7
421
 16777215
176
     1
 74
     1
176
     1
 91
        4
176
     1
 64
     7
176
     1
 65
   257
176
     1
 75
     1
176
     1
175
     1
176
     1
 42
1.0
176
     1
 92
        0
176
     1
 66
   257
176
     1
 43
1.0
176
     1
 76
     1
176
     1
 77
     6
176
     1
 78
     2
176
     1
 67
     7
176
     1
 79
     5
176
     1
170
     0
176
     1
171
     0
176
     1
290
     0
176
     1
 93
        1
176
     1
 44
0.0
176
     1
173
     0
176
     1
  0
VISUALSTYLE
  5
31
102
{ACAD_REACTORS
330
2A
102
}
330
2A
100
AcDbVisualStyle
  2
3D Hidden
 70
     6
177
     2
291
     0
 71
     1
176
     1
 72
     2
176
     1
 73
     2
176
     1
 90
        0
176
     1
 40
-0.6
176
     1
 41
-30.0
176
     1
 62
     5
 63
     7
421
 16777215
176
     1
 74
     2
176
     1
 91
        2
176
     1
 64
     7
176
     1
 65
   257
176
     1
 75
     2
176
     1
175
     1
176
     1
 42
40.0
176
     1
 92
        0
176
     1
 66
   257
176
     1
 43
1.0
176
     1
 76
     1
176
     1
 77
     6
176
     1
 78
     2
176
     1
 67
     7
176
     1
 79
     3
176
     1
170
     0
176
     1
171
     0
176
     1
290
     0
176
     1
 93
        1
176
     1
 44
0.0
176
     1
173
     0
176
     1
  0
VISUALSTYLE
  5
30
102
{ACAD_REACTORS
330
2A
102
}
330
2A
100
AcDbVisualStyle
  2
3dWireframe
 70
     5
177
     2
291
     0
 71
     0
176
     1
 72
     2
176
     1
 73
     0
176
     1
 90
        0
176
     1
 40
-0.6
176
     1
 41
-30.0
176
     1
 62
     5
 63
     7
421
 16777215
176
     1
 74
     1
176
     1
 91
        4
176
     1
 64
     7
176
     1
 65
   257
176
     1
 75
     1
176
     1
175
     1
176
     1
 42
1.0
176
     1
 92
        0
176
     1
 66
   257
176
     1
 43
1.0
176
     1
 76
     1
176
     1
 77
     6
176
     1
 78
     2
176
     1
 67
     7
176
     1
 79
     5
176
     1
170
     0
176
     1
171
     0
176
     1
290
     0
176
     1
 93
        1
176
     1
 44
0.0
176
     1
173
     0
176
     1
  0
VISUALSTYLE
  5
32
102
{ACAD_REACTORS
330
2A
102
}
330
2A
100
AcDbVisualStyle
  2
Basic
 70
     7
177
     2
291
     1
 71
     1
176
     1
 72
     0
176
     1
 73
     1
176
     1
 90
        0
176
     1
 40
-0.6
176
     1
 41
-30.0
176
     1
 62
     5
 63
     7
421
 16777215
176
     1
 74
     0
176
     1
 91
        4
176
     1
 64
     7
176
     1
 65
   257
176
     1
 75
     1
176
     1
175
     1
176
     1
 42
1.0
176
     1
 92
        8
176
     1
 66
     7
176
     1
 43
1.0
176
     1
 76
     1
176
     1
 77
     6
176
     1
 78
     2
176
     1
 67
     7
176
     1
 79
     5
176
     1
170
     0
176
     1
171
     0
176
     1
290
     0
176
     1
 93
        1
176
     1
 44
0.0
176
     1
173
     0
176
     1
  0
VISUALSTYLE
  5
36
102
{ACAD_REACTORS
330
2A
102
}
330
2A
100
AcDbVisualStyle
  2
Brighten
 70
    12
177
     2
291
     1
 71
     2
176
     1
 72
     2
176
     1
 73
     0
176
     1
 90
        0
176
     1
 40
-0.6
176
     1
 41
-30.0
176
     1
 62
     5
 63
     7
421
 16777215
176
     1
 74
     1
176
     1
 91
        4
176
     1
 64
     7
176
     1
 65
   257
176
     1
 75
     1
176
     1
175
     1
176
     1
 42
1.0
176
     1
 92
        8
176
     1
 66
     7
176
     1
 43
1.0
176
     1
 76
     1
176
     1
 77
     6
176
     1
 78
     2
176
     1
 67
     7
176
     1
 79
     5
176
     1
170
     0
176
     1
171
     0
176
     1
290
     0
176
     1
 93
        1
176
     1
 44
50.0
176
     1
173
     0
176
     1
  0
VISUALSTYLE
  5
3A
102
{ACAD_REACTORS
330
2A
102
}
330
2A
100
AcDbVisualStyle
  2
ColorChange
 70
    16
177
     2
291
     1
 71
     2
176
     1
 72
     2
176
     1
 73
     3
176
     1
 90
        0
176
     1
 40
-0.6
176
     1
 41
-30.0
176
     1
 62
     5
 63
     8
421
  8421504
176
     1
 74
     1
176
     1
 91
        4
176
     1
 64
     7
176
     1
 65
   257
176
     1
 75
     1
176
     1
175
     1
176
     1
 42
1.0
176
     1
 92
        8
176
     1
 66
     8
424
  8421504
176
     1
 43
1.0
176
     1
 76
     1
176
     1
 77
     6
176
     1
 78
     2
176
     1
 67
     7
176
     1
 79
     5
176
     1
170
     0
176
     1
171
     0
176
     1
290
     0
176
     1
 93
        1
176
     1
 44
0.0
176
     1
173
     0
176
     1
  0
VISUALSTYLE
  5
34
102
{ACAD_REACTORS
330
2A
102
}
330
2A
100
AcDbVisualStyle
  2
Conceptual
 70
     9
177
     2
291
     0
 71
     3
176
     1
 72
     2
176
     1
 73
     0
176
     1
 90
        0
176
     1
 40
-0.6
176
     1
 41
-30.0
176
     1
 62
     5
 63
     7
421
 16777215
176
     1
 74
     2
176
     1
 91
        2
176
     1
 64
     7
176
     1
 65
   257
176
     1
 75
     1
176
     1
175
     1
176
     1
 42
40.0
176
     1
 92
        8
176
     1
 66
     7
176
     1
 43
1.0
176
     1
 76
     1
176
     1
 77
     6
176
     1
 78
     2
176
     1
 67
     7
176
     1
 79
     3
176
     1
170
     0
176
     1
171
     0
176
     1
290
     0
176
     1
 93
        1
176
     1
 44
0.0
176
     1
173
     0
176
     1
  0
VISUALSTYLE
  5
35
102
{ACAD_REACTORS
330
2A
102
}
330
2A
100
AcDbVisualStyle
  2
Dim
 70
    11
177
     2
291
     1
 71
     2
176
     1
 72
     2
176
     1
 73
     0
176
     1
 90
        0
176
     1
 40
-0.6
176
     1
 41
-30.0
176
     1
 62
     5
 63
     7
421
 16777215
176
     1
 74
     1
176
     1
 91
        4
176
     1
 64
     7
176
     1
 65
   257
176
     1
 75
     1
176
     1
175
     1
176
     1
 42
1.0
176
     1
 92
        8
176
     1
 66
     7
176
     1
 43
1.0
176
     1
 76
     1
176
     1
 77
     6
176
     1
 78
     2
176
     1
 67
     7
176
     1
 79
     5
176
     1
170
     0
176
     1
171
     0
176
     1
290
     0
176
     1
 93
        1
176
     1
 44
-50.0
176
     1
173
     0
176
     1
  0
VISUALSTYLE
  5
39
102
{ACAD_REACTORS
330
2A
102
}
330
2A
100
AcDbVisualStyle
  2
Facepattern
 70
    15
177
     2
291
     1
 71
     2
176
     1
 72
     2
176
     1
 73
     0
176
     1
 90
        0
176
     1
 40
-0.6
176
     1
 41
-30.0
176
     1
 62
     5
 63
     7
421
 16777215
176
     1
 74
     1
176
     1
 91
        4
176
     1
 64
     7
176
     1
 65
   257
176
     1
 75
     1
176
     1
175
     1
176
     1
 42
1.0
176
     1
 92
        8
176
     1
 66
     7
176
     1
 43
1.0
176
     1
 76
     1
176
     1
 77
     6
176
     1
 78
     2
176
     1
 67
     7
176
     1
 79
     5
176
     1
170
     0
176
     1
171
     0
176
     1
290
     0
176
     1
 93
        1
176
     1
 44
0.0
176
     1
173
     0
176
     1
  0
VISUALSTYLE
  5
2B
102
{ACAD_REACTORS
330
2A
102
}
330
2A
100
AcDbVisualStyle
  2
Flat
 70
     0
177
     2
291
     1
 71
     2
176
     1
 72
     1
176
     1
 73
     1
176
     1
 90
        2
176
     1
 40
-0.6
176
     1
 41
30.0
176
     1
 62
     5
 63
     7
421
 16777215
176
     1
 74
     0
176
     1
 91
        4
176
     1
 64
     7
176
     1
 65
   257
176
     1
 75
     1
176
     1
175
     1
176
     1
 42
1.0
176
     1
 92
        8
176
     1
 66
     7
176
     1
 43
1.0
176
     1
 76
     1
176
     1
 77
     6
176
     1
 78
     2
176
     1
 67
     7
176
     1
 79
     5
176
     1
170
     0
176
     1
171
     0
176
     1
290
     0
176
     1
 93
       13
176
     1
 44
0.0
176
     1
173
     0
176
     1
  0
VISUALSTYLE
  5
2C
102
{ACAD_REACTORS
330
2A
102
}
330
2A
100
AcDbVisualStyle
  2
FlatWithEdges
 70
     1
177
     2
291
     1
 71
     2
176
     1
 72
     1
176
     1
 73
     1
176
     1
 90
        2
176
     1
 40
-0.6
176
     1
 41
30.0
176
     1
 62
     5
 63
     7
421
 16777215
176
     1
 74
     1
176
     1
 91
        4
176
     1
 64
     7
176
     1
 65
   257
176
     1
 75
     1
176
     1
175
     1
176
     1
 42
1.0
176
     1
 92
        0
176
     1
 66
   257
176
     1
 43
1.0
176
     1
 76
     1
176
     1
 77
     6
176
     1
 78
     2
176
     1
 67
     7
176
     1
 79
     5
176
     1
170
     0
176
     1
171
     0
176
     1
290
     0
176
     1
 93
       13
176
     1
 44
0.0
176
     1
173
     0
176
     1
  0
VISUALSTYLE
  5
2D
102
{ACAD_REACTORS
330
2A
102
}
330
2A
100
AcDbVisualStyle
  2
Gouraud
 70
     2
177
     2
291
     1
 71
     2
176
     1
 72
     2
176
     1
 73
     1
176
     1
 90
        2
176
     1
 40
-0.6
176
     1
 41
30.0
176
     1
 62
     5
 63
     7
421
 16777215
176
     1
 74
     0
176
     1
 91
        4
176
     1
 64
     7
176
     1
 65
   257
176
     1
 75
     1
176
     1
175
     1
176
     1
 42
1.0
176
     1
 92
        0
176
     1
 66
     7
176
     1
 43
1.0
176
     1
 76
     1
176
     1
 77
     6
176
     1
 78
     2
176
     1
 67
     7
176
     1
 79
     5
176
     1
170
     0
176
     1
171
     0
176
     1
290
     0
176
     1
 93
       13
176
     1
 44
0.0
176
     1
173
     0
176
     1
  0
VISUALSTYLE
  5
2E
102
{ACAD_REACTORS
330
2A
102
}
330
2A
100
AcDbVisualStyle
  2
GouraudWithEdges
 70
     3
177
     2
291
     1
 71
     2
176
     1
 72
     2
176
     1
 73
     1
176
     1
 90
        2
176
     1
 40
-0.6
176
     1
 41
30.0
176
     1
 62
     5
 63
     7
421
 16777215
176
     1
 74
     1
176
     1
 91
        4
176
     1
 64
     7
176
     1
 65
   257
176
     1
 75
     1
176
     1
175
     1
176
     1
 42
1.0
176
     1
 92
        0
176
     1
 66
   257
176
     1
 43
1.0
176
     1
 76
     1
176
     1
 77
     6
176
     1
 78
     2
176
     1
 67
     7
176
     1
 79
     5
176
     1
170
     0
176
     1
171
     0
176
     1
290
     0
176
     1
 93
       13
176
     1
 44
0.0
176
     1
173
     0
176
     1
  0
VISUALSTYLE
  5
38
102
{ACAD_REACTORS
330
2A
102
}
330
2A
100
AcDbVisualStyle
  2
Linepattern
 70
    14
177
     2
291
     1
 71
     2
176
     1
 72
     2
176
     1
 73
     0
176
     1
 90
        0
176
     1
 40
-0.6
176
     1
 41
-30.0
176
     1
 62
     5
 63
     7
421
 16777215
176
     1
 74
     1
176
     1
 91
        4
176
     1
 64
     7
176
     1
 65
   257
176
     1
 75
     7
176
     1
175
     7
176
     1
 42
1.0
176
     1
 92
        8
176
     1
 66
     7
176
     1
 43
1.0
176
     1
 76
     1
176
     1
 77
     6
176
     1
 78
     2
176
     1
 67
     7
176
     1
 79
     5
176
     1
170
     0
176
     1
171
     0
176
     1
290
     0
176
     1
 93
        1
176
     1
 44
0.0
176
     1
173
     0
176
     1
  0
VISUALSTYLE
  5
33
102
{ACAD_REACTORS
330
2A
102
}
330
2A
100
AcDbVisualStyle
  2
Realistic
 70
     8
177
     2
291
     0
 71
     2
176
     1
 72
     2
176
     1
 73
     0
176
     1
 90
        0
176
     1
 40
-0.6
176
     1
 41
-30.0
176
     1
 62
     5
 63
     7
421
 16777215
176
     1
 74
     1
176
     1
 91
        0
176
     1
 64
     7
176
     1
 65
   257
176
     1
 75
     1
176
     1
175
     1
176
     1
 42
1.0
176
     1
 92
        8
176
     1
 66
     8
424
  7895160
176
     1
 43
1.0
176
     1
 76
     1
176
     1
 77
     6
176
     1
 78
     2
176
     1
 67
     7
176
     1
 79
     5
176
     1
170
     0
176
     1
171
     0
176
     1
290
     0
176
     1
 93
       13
176
     1
 44
0.0
176
     1
173
     0
176
     1
  0
VISUALSTYLE
  5
37
102
{ACAD_REACTORS
330
2A
102
}
330
2A
100
AcDbVisualStyle
  2
Thicken
 70
    13
177
     2
291
     1
 71
     2
176
     1
 72
     2
176
     1
 73
     0
176
     1
 90
        0
176
     1
 40
-0.6
176
     1
 41
-30.0
176
     1
 62
     5
 63
     7
421
 16777215
176
     1
 74
     1
176
     1
 91
        4
176
     1
 64
     7
176
     1
 65
   257
176
     1
 75
     1
176
     1
175
     1
176
     1
 42
1.0
176
     1
 92
       12
176
     1
 66
     7
176
     1
 43
1.0
176
     1
 76
     1
176
     1
 77
     6
176
     1
 78
     2
176
     1
 67
     7
176
     1
 79
     5
176
     1
170
     0
176
     1
171
     0
176
     1
290
     0
176
     1
 93
        1
176
     1
 44
0.0
176
     1
173
     0
176
     1
  0
ENDSEC
  0
EOF
