  0
SECTION
  2
HEADER
  9
$ACADVER
  1
AC1018
  9
$ACADMAINTVER
 70
     0
  9
$DWGCODEPAGE
  3
ANSI_1252
  9
$INSBASE
 10
0.0
 20
0.0
 30
0.0
  9
$EXTMIN
 10
8.04854321897921
 20
52.39615596702235
 30
0.0
  9
$EXTMAX
 10
424.2332239546
 20
280.8510474915
 30
0.0
  9
$LIMMIN
 10
0.0
 20
0.0
  9
$LIMMAX
 10
12.0
 20
9.0
  9
$ORTHOMODE
 70
     0
  9
$REGENMODE
 70
     1
  9
$FILLMODE
 70
     1
  9
$QTEXTMODE
 70
     0
  9
$MIRRTEXT
 70
     1
  9
$LTSCALE
 40
1.0
  9
$ATTMODE
 70
     1
  9
$TEXTSIZE
 40
0.2
  9
$TRACEWID
 40
0.05
  9
$TEXTSTYLE
  7
Standard
  9
$CLAYER
  8
0
  9
$CELTYPE
  6
ByLayer
  9
$CECOLOR
 62
   256
  9
$CELTSCALE
 40
1.0
  9
$DISPSILH
 70
     0
  9
$DIMSCALE
 40
1.0
  9
$DIMASZ
 40
0.18
  9
$DIMEXO
 40
0.0625
  9
$DIMDLI
 40
0.38
  9
$DIMRND
 40
0.0
  9
$DIMDLE
 40
0.0
  9
$DIMEXE
 40
0.18
  9
$DIMTP
 40
0.0
  9
$DIMTM
 40
0.0
  9
$DIMTXT
 40
0.18
  9
$DIMCEN
 40
0.09
  9
$DIMTSZ
 40
0.0
  9
$DIMTOL
 70
     0
  9
$DIMLIM
 70
     0
  9
$DIMTIH
 70
     1
  9
$DIMTOH
 70
     1
  9
$DIMSE1
 70
     0
  9
$DIMSE2
 70
     0
  9
$DIMTAD
 70
     0
  9
$DIMZIN
 70
     0
  9
$DIMBLK
  1

  9
$DIMASO
 70
     1
  9
$DIMSHO
 70
     1
  9
$DIMPOST
  1

  9
$DIMAPOST
  1

  9
$DIMALT
 70
     0
  9
$DIMALTD
 70
     2
  9
$DIMALTF
 40
25.4
  9
$DIMLFAC
 40
1.0
  9
$DIMTOFL
 70
     0
  9
$DIMTVP
 40
0.0
  9
$DIMTIX
 70
     0
  9
$DIMSOXD
 70
     0
  9
$DIMSAH
 70
     0
  9
$DIMBLK1
  1

  9
$DIMBLK2
  1

  9
$DIMSTYLE
  2
Standard
  9
$DIMCLRD
 70
     0
  9
$DIMCLRE
 70
     0
  9
$DIMCLRT
 70
     0
  9
$DIMTFAC
 40
1.0
  9
$DIMGAP
 40
0.09
  9
$DIMJUST
 70
     0
  9
$DIMSD1
 70
     0
  9
$DIMSD2
 70
     0
  9
$DIMTOLJ
 70
     1
  9
$DIMTZIN
 70
     0
  9
$DIMALTZ
 70
     0
  9
$DIMALTTZ
 70
     0
  9
$DIMUPT
 70
     0
  9
$DIMDEC
 70
     4
  9
$DIMTDEC
 70
     4
  9
$DIMALTU
 70
     2
  9
$DIMALTTD
 70
     2
  9
$DIMTXSTY
  7
Standard
  9
$DIMAUNIT
 70
     0
  9
$DIMADEC
 70
     0
  9
$DIMALTRND
 40
0.0
  9
$DIMAZIN
 70
     0
  9
$DIMDSEP
 70
    46
  9
$DIMATFIT
 70
     3
  9
$DIMFRAC
 70
     0
  9
$DIMLDRBLK
  1

  9
$DIMLUNIT
 70
     2
  9
$DIMLWD
 70
    -2
  9
$DIMLWE
 70
    -2
  9
$DIMTMOVE
 70
     0
  9
$LUNITS
 70
     2
  9
$LUPREC
 70
     4
  9
$SKETCHINC
 40
0.1
  9
$FILLETRAD
 40
0.5
  9
$AUNITS
 70
     0
  9
$AUPREC
 70
     0
  9
$MENU
  1
.
  9
$ELEVATION
 40
0.0
  9
$PELEVATION
 40
0.0
  9
$THICKNESS
 40
0.0
  9
$LIMCHECK
 70
     0
  9
$CHAMFERA
 40
0.5
  9
$CHAMFERB
 40
0.5
  9
$CHAMFERC
 40
1.0
  9
$CHAMFERD
 40
0.0
  9
$SKPOLY
 70
     0
  9
$TDCREATE
 40
2457078.422480625
  9
$TDUCREATE
 40
2457078.380813958
  9
$TDUPDATE
 40
2457078.422480637
  9
$TDUUPDATE
 40
2457078.38081397
  9
$TDINDWG
 40
0.0000000116
  9
$TDUSRTIMER
 40
0.0000000116
  9
$USRTIMER
 70
     1
  9
$ANGBASE
 50
0.0
  9
$ANGDIR
 70
     0
  9
$PDMODE
 70
     0
  9
$PDSIZE
 40
0.0
  9
$PLINEWID
 40
0.0
  9
$SPLFRAME
 70
     0
  9
$SPLINETYPE
 70
     6
  9
$SPLINESEGS
 70
     8
  9
$HANDSEED
  5
23C
  9
$SURFTAB1
 70
     6
  9
$SURFTAB2
 70
     6
  9
$SURFTYPE
 70
     6
  9
$SURFU
 70
     6
  9
$SURFV
 70
     6
  9
$UCSBASE
  2

  9
$UCSNAME
  2

  9
$UCSORG
 10
0.0
 20
0.0
 30
0.0
  9
$UCSXDIR
 10
1.0
 20
0.0
 30
0.0
  9
$UCSYDIR
 10
0.0
 20
1.0
 30
0.0
  9
$UCSORTHOREF
  2

  9
$UCSORTHOVIEW
 70
     0
  9
$UCSORGTOP
 10
0.0
 20
0.0
 30
0.0
  9
$UCSORGBOTTOM
 10
0.0
 20
0.0
 30
0.0
  9
$UCSORGLEFT
 10
0.0
 20
0.0
 30
0.0
  9
$UCSORGRIGHT
 10
0.0
 20
0.0
 30
0.0
  9
$UCSORGFRONT
 10
0.0
 20
0.0
 30
0.0
  9
$UCSORGBACK
 10
0.0
 20
0.0
 30
0.0
  9
$PUCSBASE
  2

  9
$PUCSNAME
  2

  9
$PUCSORG
 10
0.0
 20
0.0
 30
0.0
  9
$PUCSXDIR
 10
1.0
 20
0.0
 30
0.0
  9
$PUCSYDIR
 10
0.0
 20
1.0
 30
0.0
  9
$PUCSORTHOREF
  2

  9
$PUCSORTHOVIEW
 70
     0
  9
$PUCSORGTOP
 10
0.0
 20
0.0
 30
0.0
  9
$PUCSORGBOTTOM
 10
0.0
 20
0.0
 30
0.0
  9
$PUCSORGLEFT
 10
0.0
 20
0.0
 30
0.0
  9
$PUCSORGRIGHT
 10
0.0
 20
0.0
 30
0.0
  9
$PUCSORGFRONT
 10
0.0
 20
0.0
 30
0.0
  9
$PUCSORGBACK
 10
0.0
 20
0.0
 30
0.0
  9
$USERI1
 70
     0
  9
$USERI2
 70
     0
  9
$USERI3
 70
     0
  9
$USERI4
 70
     0
  9
$USERI5
 70
     0
  9
$USERR1
 40
14.5
  9
$USERR2
 40
0.0
  9
$USERR3
 40
0.0
  9
$USERR4
 40
0.0
  9
$USERR5
 40
0.0
  9
$WORLDVIEW
 70
     1
  9
$SHADEDGE
 70
     3
  9
$SHADEDIF
 70
    70
  9
$TILEMODE
 70
     1
  9
$MAXACTVP
 70
    64
  9
$PINSBASE
 10
0.0
 20
0.0
 30
0.0
  9
$PLIMCHECK
 70
     0
  9
$PEXTMIN
 10
1.00000000000000E+20
 20
1.00000000000000E+20
 30
1.00000000000000E+20
  9
$PEXTMAX
 10
-1.00000000000000E+20
 20
-1.00000000000000E+20
 30
-1.00000000000000E+20
  9
$PLIMMIN
 10
0.0
 20
0.0
  9
$PLIMMAX
 10
12.0
 20
9.0
  9
$UNITMODE
 70
     0
  9
$VISRETAIN
 70
     1
  9
$PLINEGEN
 70
     0
  9
$PSLTSCALE
 70
     1
  9
$TREEDEPTH
 70
  3020
  9
$CMLSTYLE
  2
Standard
  9
$CMLJUST
 70
     0
  9
$CMLSCALE
 40
1.0
  9
$PROXYGRAPHICS
 70
     1
  9
$MEASUREMENT
 70
     1
  9
$CELWEIGHT
370
    -1
  9
$ENDCAPS
280
     0
  9
$JOINSTYLE
280
     0
  9
$LWDISPLAY
290
     0
  9
$INSUNITS
 70
     1
  9
$HYPERLINKBASE
  1

  9
$STYLESHEET
  1

  9
$XEDIT
290
     1
  9
$CEPSNTYPE
380
     0
  9
$PSTYLEMODE
290
     1
  9
$FINGERPRINTGUID
  2
{51F92A0F-EE31-49C3-9396-6F2AC57303C9}
  9
$VERSIONGUID
  2
{FAEB1C32-E019-11D5-929B-00C0DF256EC4}
  9
$EXTNAMES
290
     1
  9
$PSVPSCALE
 40
0.0
  9
$OLESTARTUP
290
     0
  9
$SORTENTS
280
   127
  9
$INDEXCTL
280
     0
  9
$HIDETEXT
280
     1
  9
$XCLIPFRAME
290
     0
  9
$HALOGAP
280
     0
  9
$OBSCOLOR
 70
   257
  9
$OBSLTYPE
280
     0
  9
$INTERSECTIONDISPLAY
280
     0
  9
$INTERSECTIONCOLOR
 70
   257
  9
$DIMASSOC
280
     2
  9
$PROJECTNAME
  1

  0
ENDSEC
  0
SECTION
  2
CLASSES
  0
CLASS
  1
ACDBDICTIONARYWDFLT
  2
AcDbDictionaryWithDefault
  3
ObjectDBX Classes
 90
        0
 91
        3
280
     0
281
     0
  0
CLASS
  1

  2
exOdDbCircle
  3

 90
        0
 91
        3
280
     0
281
     1
  0
CLASS
  1

  2
exOdDbPolyline
  3

 90
        0
 91
        3
280
     0
281
     1
  0
ENDSEC
  0
SECTION
  2
TABLES
  0
TABLE
  2
VPORT
  5
8
330
0
100
AcDbSymbolTable
 70
     1
  0
VPORT
  5
29
330
8
100
AcDbSymbolTableRecord
100
AcDbViewportTableRecord
  2
*Active
 70
     0
 10
0.0
 20
0.0
 11
1.0
 21
1.0
 12
216.1408835867896
 22
166.6236017292612
 13
0.0
 23
0.0
 14
0.5
 24
0.5
 15
0.5
 25
0.5
 16
0.0
 26
0.0
 36
1.0
 17
0.0
 27
0.0
 37
0.0
 40
285.648761373975
 41
1.60267857142857
 42
50.0
 43
0.0
 44
0.0
 50
0.0
 51
0.0
 71
     0
 72
   100
 73
     1
 74
     3
 75
     0
 76
     0
 77
     0
 78
     0
281
     0
 65
     1
110
0.0
120
0.0
130
0.0
111
1.0
121
0.0
131
0.0
112
0.0
122
1.0
132
0.0
 79
     0
146
0.0
  0
ENDTAB
  0
TABLE
  2
LTYPE
  5
5
330
0
100
AcDbSymbolTable
 70
     9
  0
LTYPE
  5
14
330
5
100
AcDbSymbolTableRecord
100
AcDbLinetypeTableRecord
  2
ByBlock
 70
     0
  3

 72
    65
 73
     0
 40
0.0
  0
LTYPE
  5
15
330
5
100
AcDbSymbolTableRecord
100
AcDbLinetypeTableRecord
  2
ByLayer
 70
     0
  3

 72
    65
 73
     0
 40
0.0
  0
LTYPE
  5
16
330
5
100
AcDbSymbolTableRecord
100
AcDbLinetypeTableRecord
  2
Continuous
 70
     0
  3
Solid line
 72
    65
 73
     0
 40
0.0
  0
LTYPE
  5
2A
330
5
100
AcDbSymbolTableRecord
100
AcDbLinetypeTableRecord
  2
DASHED
 70
     0
  3
Dashed
 72
    65
 73
     2
 40
15.0
 49
7.0
 74
     0
 49
-8.0
 74
     0
  0
LTYPE
  5
2B
330
5
100
AcDbSymbolTableRecord
100
AcDbLinetypeTableRecord
  2
DOTTED
 70
     0
  3
Dotted
 72
    65
 73
     2
 40
1.0
 49
0.0
 74
     0
 49
-1.0
 74
     0
  0
LTYPE
  5
2C
330
5
100
AcDbSymbolTableRecord
100
AcDbLinetypeTableRecord
  2
DOT_CENTER
 70
     0
  3
Dot_Center
 72
    65
 73
     4
 40
14.0
 49
12.0
 74
     0
 49
-1.0
 74
     0
 49
0.0
 74
     0
 49
-1.0
 74
     0
  0
LTYPE
  5
2D
330
5
100
AcDbSymbolTableRecord
100
AcDbLinetypeTableRecord
  2
LONG_DASHED
 70
     0
  3
Long_Dashed
 72
    65
 73
     2
 40
15.0
 49
10.0
 74
     0
 49
-5.0
 74
     0
  0
LTYPE
  5
2E
330
5
100
AcDbSymbolTableRecord
100
AcDbLinetypeTableRecord
  2
DASH_CENTER
 70
     0
  3
Dash_Center
 72
    65
 73
     4
 40
14.0
 49
11.0
 74
     0
 49
-1.0
 74
     0
 49
1.0
 74
     0
 49
-1.0
 74
     0
  0
LTYPE
  5
2F
330
5
100
AcDbSymbolTableRecord
100
AcDbLinetypeTableRecord
  2
PHANTOM
 70
     0
  3
Phantom
 72
    65
 73
     6
 40
13.0
 49
10.0
 74
     0
 49
-1.0
 74
     0
 49
0.0
 74
     0
 49
-1.0
 74
     0
 49
0.0
 74
     0
 49
-1.0
 74
     0
  0
LTYPE
  5
30
330
5
100
AcDbSymbolTableRecord
100
AcDbLinetypeTableRecord
  2
CENTER_DASH_DASH
 70
     0
  3
Center_Dash_Dash
 72
    65
 73
     6
 40
14.0
 49
9.0
 74
     0
 49
-1.0
 74
     0
 49
1.0
 74
     0
 49
-1.0
 74
     0
 49
1.0
 74
     0
 49
-1.0
 74
     0
  0
LTYPE
  5
31
330
5
100
AcDbSymbolTableRecord
100
AcDbLinetypeTableRecord
  2
CENTER_1
 70
     0
  3
CENTER_1
 72
    65
 73
     4
 40
15.0
 49
9.0
 74
     0
 49
-2.0
 74
     0
 49
2.0
 74
     0
 49
-2.0
 74
     0
  0
ENDTAB
  0
TABLE
  2
LAYER
  5
2
330
0
100
AcDbSymbolTable
 70
     5
  0
LAYER
  5
10
330
2
100
AcDbSymbolTableRecord
100
AcDbLayerTableRecord
  2
0
 70
     0
 62
     7
  6
Continuous
370
    -3
390
F
  0
LAYER
  5
32
330
2
100
AcDbSymbolTableRecord
100
AcDbLayerTableRecord
  2
1
 70
     0
 62
     7
  6
Continuous
370
    -3
390
F
  0
LAYER
  5
33
330
2
100
AcDbSymbolTableRecord
100
AcDbLayerTableRecord
  2
A_ACHSEN
 70
     0
 62
     7
  6
Continuous
370
    -3
390
F
  0
LAYER
  5
34
330
2
100
AcDbSymbolTableRecord
100
AcDbLayerTableRecord
  2
A_BEMASSUNGEN
 70
     0
 62
     7
  6
Continuous
370
    -3
390
F
  0
LAYER
  5
35
330
2
100
AcDbSymbolTableRecord
100
AcDbLayerTableRecord
  2
A_NOTIZEN_SYMB
 70
     0
 62
     7
  6
Continuous
370
    -3
390
F
  0
ENDTAB
  0
TABLE
  2
STYLE
  5
3
330
0
100
AcDbSymbolTable
 70
     2
  0
STYLE
  5
11
330
3
100
AcDbSymbolTableRecord
100
AcDbTextStyleTableRecord
  2
Standard
 70
     0
 40
0.0
 41
1.0
 50
0.0
 71
     0
 42
0.2
  3
txt
  4

  0
STYLE
  5
11C
330
3
100
AcDbSymbolTableRecord
100
AcDbTextStyleTableRecord
  2
CONVERTER_11
 70
     0
 40
0.0
 41
0.9
 50
0.0
 71
     0
 42
0.2
  3
txt.shx
  4

  0
ENDTAB
  0
TABLE
  2
VIEW
  5
6
330
0
100
AcDbSymbolTable
 70
     0
  0
ENDTAB
  0
TABLE
  2
UCS
  5
7
330
0
100
AcDbSymbolTable
 70
     0
  0
ENDTAB
  0
TABLE
  2
APPID
  5
9
330
0
100
AcDbSymbolTable
 70
     1
  0
APPID
  5
12
330
9
100
AcDbSymbolTableRecord
100
AcDbRegAppTableRecord
  2
ACAD
 70
     0
  0
ENDTAB
  0
TABLE
  2
DIMSTYLE
  5
A
330
0
100
AcDbSymbolTable
 70
    21
100
AcDbDimStyleTable
  0
DIMSTYLE
105
27
330
A
100
AcDbSymbolTableRecord
100
AcDbDimStyleTableRecord
  2
Standard
 70
     0
340
11
  0
DIMSTYLE
105
129
102
{ACAD_REACTORS
330
12A
102
}
330
A
100
AcDbSymbolTableRecord
100
AcDbDimStyleTableRecord
  2
ME10_DIM_10
 70
     0
 41
3.5
 42
0.0
 44
2.0
 73
     0
 74
     0
 77
     1
 78
     8
140
3.5
147
2.0
172
     1
173
     1
176
     2
177
     2
178
     2
271
     1
340
11C
  0
DIMSTYLE
105
134
102
{ACAD_REACTORS
330
135
102
}
330
A
100
AcDbSymbolTableRecord
100
AcDbDimStyleTableRecord
  2
ME10_DIM_11
 70
     0
 41
3.5
 42
0.0
 44
2.0
 73
     0
 74
     0
 77
     1
 78
     8
140
3.5
147
2.0
172
     1
173
     1
176
     2
177
     2
178
     2
271
     3
340
11C
  0
DIMSTYLE
105
13F
102
{ACAD_REACTORS
330
140
102
}
330
A
100
AcDbSymbolTableRecord
100
AcDbDimStyleTableRecord
  2
ME10_DIM_12
 70
     0
 41
3.5
 42
0.0
 44
2.0
 73
     0
 74
     0
 77
     1
 78
     8
140
3.5
147
2.0
172
     1
173
     1
176
     2
177
     2
178
     2
271
     3
340
11C
  0
DIMSTYLE
105
14A
102
{ACAD_REACTORS
330
14B
102
}
330
A
100
AcDbSymbolTableRecord
100
AcDbDimStyleTableRecord
  2
ME10_DIM_13
 70
     0
 41
3.5
 42
0.0
 44
2.0
 73
     0
 74
     0
 77
     1
 78
     8
140
3.5
147
2.0
172
     1
173
     1
176
     2
177
     2
178
     2
271
     3
340
11C
  0
DIMSTYLE
105
155
102
{ACAD_REACTORS
330
156
102
}
330
A
100
AcDbSymbolTableRecord
100
AcDbDimStyleTableRecord
  2
ME10_DIM_14
 70
     0
 41
3.5
 42
0.0
 44
2.0
 73
     0
 74
     0
 77
     1
 78
     8
140
3.5
147
2.0
172
     1
173
     1
176
     2
177
     2
178
     2
271
     3
340
11C
  0
DIMSTYLE
105
160
102
{ACAD_REACTORS
330
161
102
}
330
A
100
AcDbSymbolTableRecord
100
AcDbDimStyleTableRecord
  2
ME10_DIM_15
 70
     0
 41
3.5
 42
0.0
 44
2.0
 73
     0
 74
     0
 77
     1
 78
     8
140
3.5
147
2.0
172
     1
173
     1
176
     2
177
     2
178
     2
271
     3
340
11C
  0
DIMSTYLE
105
16B
102
{ACAD_REACTORS
330
16C
102
}
330
A
100
AcDbSymbolTableRecord
100
AcDbDimStyleTableRecord
  2
ME10_DIM_16
 70
     0
 41
3.5
 42
0.0
 44
2.0
 73
     0
 74
     0
 77
     1
 78
     8
140
3.5
147
2.0
172
     1
173
     1
176
     2
177
     2
178
     2
271
     3
340
11C
  0
DIMSTYLE
105
176
102
{ACAD_REACTORS
330
177
102
}
330
A
100
AcDbSymbolTableRecord
100
AcDbDimStyleTableRecord
  2
ME10_DIM_17
 70
     0
 41
3.5
 42
0.0
 44
2.0
 73
     0
 74
     0
 77
     1
 78
     8
140
3.5
147
2.0
172
     1
173
     1
176
     2
177
     2
178
     2
271
     3
340
11C
  0
DIMSTYLE
105
181
102
{ACAD_REACTORS
330
182
102
}
330
A
100
AcDbSymbolTableRecord
100
AcDbDimStyleTableRecord
  2
ME10_DIM_18
 70
     0
 41
3.5
 42
0.0
 44
2.0
 73
     0
 74
     0
 77
     1
 78
     8
140
3.5
147
2.0
172
     1
173
     1
176
     2
177
     2
178
     2
271
     3
340
11C
  0
DIMSTYLE
105
18C
102
{ACAD_REACTORS
330
18D
102
}
330
A
100
AcDbSymbolTableRecord
100
AcDbDimStyleTableRecord
  2
ME10_DIM_19
 70
     0
 41
3.5
 42
0.0
 44
2.0
 73
     0
 74
     0
 77
     1
 78
     8
140
3.5
147
2.0
172
     1
173
     1
176
     2
177
     2
178
     2
271
     3
340
11C
  0
DIMSTYLE
105
197
102
{ACAD_REACTORS
330
198
102
}
330
A
100
AcDbSymbolTableRecord
100
AcDbDimStyleTableRecord
  2
ME10_DIM_20
 70
     0
 41
3.5
 42
0.0
 44
2.0
 73
     0
 74
     0
 77
     1
 78
     8
140
3.5
147
2.0
172
     1
173
     1
176
     2
177
     2
178
     2
271
     3
340
11C
  0
DIMSTYLE
105
1A2
102
{ACAD_REACTORS
330
1A3
102
}
330
A
100
AcDbSymbolTableRecord
100
AcDbDimStyleTableRecord
  2
ME10_DIM_21
 70
     0
 41
3.5
 42
0.0
 44
2.0
 73
     0
 74
     0
 77
     1
 78
     8
140
3.5
147
2.0
172
     1
173
     1
176
     2
177
     2
178
     2
271
     3
340
11C
  0
DIMSTYLE
105
1AD
102
{ACAD_REACTORS
330
1AE
102
}
330
A
100
AcDbSymbolTableRecord
100
AcDbDimStyleTableRecord
  2
ME10_DIM_22
 70
     0
 41
3.5
 42
0.0
 44
2.0
 73
     0
 74
     0
 77
     1
 78
     8
140
3.5
147
2.0
172
     1
173
     1
176
     2
177
     2
178
     2
271
     3
340
11C
  0
DIMSTYLE
105
1B8
102
{ACAD_REACTORS
330
1B9
102
}
330
A
100
AcDbSymbolTableRecord
100
AcDbDimStyleTableRecord
  2
ME10_DIM_23
 70
     0
 41
3.5
 42
0.0
 44
2.0
 73
     0
 74
     0
 77
     1
 78
     8
140
3.5
147
2.0
172
     1
173
     1
176
     2
177
     2
178
     2
271
     3
340
11C
  0
DIMSTYLE
105
1C3
102
{ACAD_REACTORS
330
1C4
102
}
330
A
100
AcDbSymbolTableRecord
100
AcDbDimStyleTableRecord
  2
ME10_DIM_24
 70
     0
 41
3.5
 42
0.0
 44
2.0
 73
     0
 74
     0
 77
     1
 78
     8
140
3.5
147
2.0
172
     1
173
     1
176
     2
177
     2
178
     2
271
     3
340
11C
  0
DIMSTYLE
105
1CE
102
{ACAD_REACTORS
330
1CF
102
}
330
A
100
AcDbSymbolTableRecord
100
AcDbDimStyleTableRecord
  2
ME10_DIM_25
 70
     0
 41
3.5
 42
0.0
 44
2.0
 73
     0
 74
     0
 77
     1
 78
     8
140
3.5
147
2.0
172
     1
173
     1
176
     2
177
     2
178
     2
271
     3
340
11C
  0
DIMSTYLE
105
1D9
102
{ACAD_REACTORS
330
1DA
102
}
330
A
100
AcDbSymbolTableRecord
100
AcDbDimStyleTableRecord
  2
ME10_DIM_26
 70
     0
 41
3.5
 42
0.0
 44
2.0
 73
     0
 74
     0
 77
     1
 78
     8
140
3.5
147
2.0
172
     1
173
     1
176
     2
177
     2
178
     2
271
     3
340
11C
  0
DIMSTYLE
105
1EA
102
{ACAD_REACTORS
330
1EB
102
}
330
A
100
AcDbSymbolTableRecord
100
AcDbDimStyleTableRecord
  2
ME10_DIM_27
 70
     0
 41
3.5
 42
0.0
 44
2.0
 73
     0
 74
     0
 77
     1
 78
     8
140
3.5
147
2.0
172
     1
173
     1
176
     2
177
     2
178
     2
271
     3
340
11C
  0
DIMSTYLE
105
1F8
102
{ACAD_REACTORS
330
1F9
102
}
330
A
100
AcDbSymbolTableRecord
100
AcDbDimStyleTableRecord
  2
ME10_DIM_28
 70
     0
 41
3.5
 42
0.0
 44
2.0
 73
     0
 74
     0
 77
     1
 78
     8
140
3.5
147
2.0
172
     1
173
     1
176
     2
177
     2
178
     2
271
     3
340
11C
  0
DIMSTYLE
105
208
102
{ACAD_REACTORS
330
209
102
}
330
A
100
AcDbSymbolTableRecord
100
AcDbDimStyleTableRecord
  2
ME10_DIM_29
 70
     0
 41
3.5
 42
0.0
 44
2.0
 73
     0
 74
     0
 77
     1
 78
     8
140
3.5
147
2.0
172
     1
173
     1
176
     2
177
     2
178
     2
271
     3
340
11C
  0
ENDTAB
  0
TABLE
  2
BLOCK_RECORD
  5
1
330
0
100
AcDbSymbolTable
 70
    27
  0
BLOCK_RECORD
  5
1F
330
1
100
AcDbSymbolTableRecord
100
AcDbBlockTableRecord
  2
*Model_Space
340
22
  0
BLOCK_RECORD
  5
1B
330
1
100
AcDbSymbolTableRecord
100
AcDbBlockTableRecord
  2
*Paper_Space
340
1E
  0
BLOCK_RECORD
  5
23
330
1
100
AcDbSymbolTableRecord
100
AcDbBlockTableRecord
  2
*Paper_Space0
340
26
  0
BLOCK_RECORD
  5
120
330
1
100
AcDbSymbolTableRecord
100
AcDbBlockTableRecord
  2
*D1
340
0
  0
BLOCK_RECORD
  5
12B
330
1
100
AcDbSymbolTableRecord
100
AcDbBlockTableRecord
  2
*D2
340
0
  0
BLOCK_RECORD
  5
136
330
1
100
AcDbSymbolTableRecord
100
AcDbBlockTableRecord
  2
*D3
340
0
  0
BLOCK_RECORD
  5
141
330
1
100
AcDbSymbolTableRecord
100
AcDbBlockTableRecord
  2
*D4
340
0
  0
BLOCK_RECORD
  5
14C
330
1
100
AcDbSymbolTableRecord
100
AcDbBlockTableRecord
  2
*D5
340
0
  0
BLOCK_RECORD
  5
157
330
1
100
AcDbSymbolTableRecord
100
AcDbBlockTableRecord
  2
*D6
340
0
  0
BLOCK_RECORD
  5
162
330
1
100
AcDbSymbolTableRecord
100
AcDbBlockTableRecord
  2
*D7
340
0
  0
BLOCK_RECORD
  5
16D
330
1
100
AcDbSymbolTableRecord
100
AcDbBlockTableRecord
  2
*D8
340
0
  0
BLOCK_RECORD
  5
178
330
1
100
AcDbSymbolTableRecord
100
AcDbBlockTableRecord
  2
*D9
340
0
  0
BLOCK_RECORD
  5
183
330
1
100
AcDbSymbolTableRecord
100
AcDbBlockTableRecord
  2
*D10
340
0
  0
BLOCK_RECORD
  5
18E
330
1
100
AcDbSymbolTableRecord
100
AcDbBlockTableRecord
  2
*D11
340
0
  0
BLOCK_RECORD
  5
199
330
1
100
AcDbSymbolTableRecord
100
AcDbBlockTableRecord
  2
*D12
340
0
  0
BLOCK_RECORD
  5
1A4
330
1
100
AcDbSymbolTableRecord
100
AcDbBlockTableRecord
  2
*D13
340
0
  0
BLOCK_RECORD
  5
1AF
330
1
100
AcDbSymbolTableRecord
100
AcDbBlockTableRecord
  2
*D14
340
0
  0
BLOCK_RECORD
  5
1BA
330
1
100
AcDbSymbolTableRecord
100
AcDbBlockTableRecord
  2
*D15
340
0
  0
BLOCK_RECORD
  5
1C5
330
1
100
AcDbSymbolTableRecord
100
AcDbBlockTableRecord
  2
*D16
340
0
  0
BLOCK_RECORD
  5
1D0
330
1
100
AcDbSymbolTableRecord
100
AcDbBlockTableRecord
  2
*D17
340
0
  0
BLOCK_RECORD
  5
1DB
330
1
100
AcDbSymbolTableRecord
100
AcDbBlockTableRecord
  2
*D18
340
0
  0
BLOCK_RECORD
  5
1EC
330
1
100
AcDbSymbolTableRecord
100
AcDbBlockTableRecord
  2
*D19
340
0
  0
BLOCK_RECORD
  5
1FA
330
1
100
AcDbSymbolTableRecord
100
AcDbBlockTableRecord
  2
*D20
340
0
  0
BLOCK_RECORD
  5
20A
330
1
100
AcDbSymbolTableRecord
100
AcDbBlockTableRecord
  2
*D21
340
0
102
{BLKREFS
331
210
102
}
  0
BLOCK_RECORD
  5
211
330
1
100
AcDbSymbolTableRecord
100
AcDbBlockTableRecord
  2
*D22
340
0
102
{BLKREFS
331
217
102
}
  0
BLOCK_RECORD
  5
218
330
1
100
AcDbSymbolTableRecord
100
AcDbBlockTableRecord
  2
*D23
340
0
102
{BLKREFS
331
220
102
}
  0
BLOCK_RECORD
  5
221
330
1
100
AcDbSymbolTableRecord
100
AcDbBlockTableRecord
  2
*D24
340
0
102
{BLKREFS
331
229
102
}
  0
BLOCK_RECORD
  5
22A
330
1
100
AcDbSymbolTableRecord
100
AcDbBlockTableRecord
  2
*D25
340
0
102
{BLKREFS
331
232
102
}
  0
BLOCK_RECORD
  5
233
330
1
100
AcDbSymbolTableRecord
100
AcDbBlockTableRecord
  2
*D26
340
0
102
{BLKREFS
331
23B
102
}
  0
ENDTAB
  0
ENDSEC
  0
SECTION
  2
BLOCKS
  0
BLOCK
  5
20
330
1F
100
AcDbEntity
  8
0
100
AcDbBlockBegin
  2
*Model_Space
 70
     0
 71
     0
 10
0.0
 20
0.0
 30
0.0
  3
*Model_Space
  1

  0
ENDBLK
  5
21
330
1F
100
AcDbEntity
  8
0
100
AcDbBlockEnd
  0
BLOCK
  5
1C
330
1B
100
AcDbEntity
 67
     1
  8
0
100
AcDbBlockBegin
  2
*Paper_Space
 70
     0
 71
     0
 10
0.0
 20
0.0
 30
0.0
  3
*Paper_Space
  1

  0
ENDBLK
  5
1D
330
1B
100
AcDbEntity
 67
     1
  8
0
100
AcDbBlockEnd
  0
BLOCK
  5
24
330
23
100
AcDbEntity
  8
0
100
AcDbBlockBegin
  2
*Paper_Space0
 70
     0
 71
     0
 10
0.0
 20
0.0
 30
0.0
  3
*Paper_Space0
  1

  0
ENDBLK
  5
25
330
23
100
AcDbEntity
  8
0
100
AcDbBlockEnd
  0
BLOCK
  5
127
330
120
100
AcDbEntity
  8
0
100
AcDbBlockBegin
  2
*D1
 70
     1
 71
     0
 10
0.0
 20
0.0
 30
0.0
  3
*D1
  1

  0
LINE
  5
121
330
120
100
AcDbEntity
  8
1
  6
Continuous
 62
     2
100
AcDbLine
 10
45.7284384269
 20
60.5703989435
 30
0.0
 11
57.7784384269
 21
60.5703989435
 31
0.0
  0
LINE
  5
122
330
120
100
AcDbEntity
  8
1
  6
Continuous
 62
     2
100
AcDbLine
 10
57.7784384269
 20
80.8510474915
 30
0.0
 11
57.7784384269
 21
58.5703989435
 31
0.0
  0
LINE
  5
123
330
120
100
AcDbEntity
  8
1
  6
Continuous
 62
     2
100
AcDbLine
 10
45.7284384269
 20
80.8510474915
 30
0.0
 11
45.7284384269
 21
58.5703989435
 31
0.0
  0
SOLID
  5
124
330
120
100
AcDbEntity
  8
1
 62
     2
100
AcDbTrace
 10
49.2284384269
 20
61.03118268505588
 30
0.0
 11
49.2284384269
 21
60.10961520194411
 31
0.0
 12
45.7284384269
 22
60.5703989435
 32
0.0
 13
45.7284384269
 23
60.5703989435
 33
0.0
  0
SOLID
  5
125
330
120
100
AcDbEntity
  8
1
 62
     2
100
AcDbTrace
 10
54.2784384269
 20
60.10961520194411
 30
0.0
 11
54.2784384269
 21
61.03118268505588
 31
0.0
 12
57.7784384269
 22
60.5703989435
 32
0.0
 13
57.7784384269
 23
60.5703989435
 33
0.0
  0
MTEXT
  5
126
330
120
100
AcDbEntity
  8
1
 62
     2
100
AcDbMText
 10
49.4533304784387
 20
62.5703989435
 30
0.0
 40
3.5
 41
0.0
 71
     7
 72
     1
  1
12
  7
CONVERTER_11
 11
0.9999999999970621
 21
2.424068405545307E-6
 31
0.0
 73
     1
 44
0.60024009603842
  0
ENDBLK
  5
128
330
120
100
AcDbEntity
  8
0
100
AcDbBlockEnd
  0
BLOCK
  5
132
330
12B
100
AcDbEntity
  8
0
100
AcDbBlockBegin
  2
*D2
 70
     1
 71
     0
 10
0.0
 20
0.0
 30
0.0
  3
*D2
  1

  0
LINE
  5
12C
330
12B
100
AcDbEntity
  8
1
  6
Continuous
 62
     2
100
AcDbLine
 10
57.7784384269
 20
60.5703989435
 30
0.0
 11
85.7784384269
 21
60.5703989435
 31
0.0
  0
LINE
  5
12D
330
12B
100
AcDbEntity
  8
1
  6
Continuous
 62
     2
100
AcDbLine
 10
85.7784384269
 20
130.3510474915
 30
0.0
 11
85.7784384269
 21
58.5703989435
 31
0.0
  0
LINE
  5
12E
330
12B
100
AcDbEntity
  8
1
  6
Continuous
 62
     2
100
AcDbLine
 10
57.7784384269
 20
80.8510474915
 30
0.0
 11
57.7784384269
 21
58.5703989435
 31
0.0
  0
SOLID
  5
12F
330
12B
100
AcDbEntity
  8
1
 62
     2
100
AcDbTrace
 10
61.2784384269
 20
61.03118268505588
 30
0.0
 11
61.2784384269
 21
60.10961520194411
 31
0.0
 12
57.7784384269
 22
60.5703989435
 32
0.0
 13
57.7784384269
 23
60.5703989435
 33
0.0
  0
SOLID
  5
130
330
12B
100
AcDbEntity
  8
1
 62
     2
100
AcDbTrace
 10
82.2784384269
 20
60.10961520194411
 30
0.0
 11
82.2784384269
 21
61.03118268505588
 31
0.0
 12
85.7784384269
 22
60.5703989435
 32
0.0
 13
85.7784384269
 23
60.5703989435
 33
0.0
  0
MTEXT
  5
131
330
12B
100
AcDbEntity
  8
1
 62
     2
100
AcDbMText
 10
68.144124364853
 20
62.5703989435
 30
0.0
 40
3.5
 41
0.0
 71
     7
 72
     1
  1
28
  7
CONVERTER_11
 11
0.9999999999970621
 21
2.424068405545307E-6
 31
0.0
 73
     1
 44
0.60024009603842
  0
ENDBLK
  5
133
330
12B
100
AcDbEntity
  8
0
100
AcDbBlockEnd
  0
BLOCK
  5
13D
330
136
100
AcDbEntity
  8
0
100
AcDbBlockBegin
  2
*D3
 70
     1
 71
     0
 10
0.0
 20
0.0
 30
0.0
  3
*D3
  1

  0
LINE
  5
137
330
136
100
AcDbEntity
  8
1
  6
Continuous
 62
     2
100
AcDbLine
 10
61.7784384269
 20
70.3920197157661
 30
0.0
 11
85.7784384269
 21
70.3920197157661
 31
0.0
  0
LINE
  5
138
330
136
100
AcDbEntity
  8
1
  6
Continuous
 62
     2
100
AcDbLine
 10
61.7784384269
 20
147.8510474915
 30
0.0
 11
61.7784384269
 21
68.3920197157661
 31
0.0
  0
LINE
  5
139
330
136
100
AcDbEntity
  8
1
  6
Continuous
 62
     2
100
AcDbLine
 10
85.7784384269
 20
130.3510474915
 30
0.0
 11
85.7784384269
 21
68.3920197157661
 31
0.0
  0
SOLID
  5
13A
330
136
100
AcDbEntity
  8
1
 62
     2
100
AcDbTrace
 10
65.2784384269
 20
70.85280345732198
 30
0.0
 11
65.2784384269
 21
69.93123597421021
 31
0.0
 12
61.7784384269
 22
70.3920197157661
 32
0.0
 13
61.7784384269
 23
70.3920197157661
 33
0.0
  0
SOLID
  5
13B
330
136
100
AcDbEntity
  8
1
 62
     2
100
AcDbTrace
 10
82.2784384269
 20
69.93123597421021
 30
0.0
 11
82.2784384269
 21
70.85280345732198
 31
0.0
 12
85.7784384269
 22
70.3920197157661
 32
0.0
 13
85.7784384269
 23
70.3920197157661
 33
0.0
  0
MTEXT
  5
13C
330
136
100
AcDbEntity
  8
1
 62
     2
100
AcDbMText
 10
70.2256087707636
 20
72.3920197157661
 30
0.0
 40
3.5
 41
0.0
 71
     7
 72
     1
  1
24
  7
CONVERTER_11
 11
0.9999999999970621
 21
2.424068405545307E-6
 31
0.0
 73
     1
 44
0.60024009603842
  0
ENDBLK
  5
13E
330
136
100
AcDbEntity
  8
0
100
AcDbBlockEnd
  0
BLOCK
  5
148
330
141
100
AcDbEntity
  8
0
100
AcDbBlockBegin
  2
*D4
 70
     1
 71
     0
 10
0.0
 20
0.0
 30
0.0
  3
*D4
  1

  0
LINE
  5
142
330
141
100
AcDbEntity
  8
1
  6
Continuous
 62
     2
100
AcDbLine
 10
67.8312393437
 20
251.193479876504
 30
0.0
 11
80.0312393437
 21
251.193479876504
 31
0.0
  0
LINE
  5
143
330
141
100
AcDbEntity
  8
1
  6
Continuous
 62
     2
100
AcDbLine
 10
80.0312393437
 20
233.8510474915
 30
0.0
 11
80.0312393437
 21
253.193479876504
 31
0.0
  0
LINE
  5
144
330
141
100
AcDbEntity
  8
1
  6
Continuous
 62
     2
100
AcDbLine
 10
67.8312393437
 20
233.8510474915
 30
0.0
 11
67.8312393437
 21
253.193479876504
 31
0.0
  0
SOLID
  5
145
330
141
100
AcDbEntity
  8
1
 62
     2
100
AcDbTrace
 10
71.3312393437
 20
251.6542636180599
 30
0.0
 11
71.3312393437
 21
250.7326961349481
 31
0.0
 12
67.8312393437
 22
251.193479876504
 32
0.0
 13
67.8312393437
 23
251.193479876504
 33
0.0
  0
SOLID
  5
146
330
141
100
AcDbEntity
  8
1
 62
     2
100
AcDbTrace
 10
76.5312393437
 20
250.7326961349481
 30
0.0
 11
76.5312393437
 21
251.6542636180599
 31
0.0
 12
80.0312393437
 22
251.193479876504
 32
0.0
 13
80.0312393437
 23
251.193479876504
 33
0.0
  0
MTEXT
  5
147
330
141
100
AcDbEntity
  8
1
 62
     2
100
AcDbMText
 10
69.2703035322116
 20
253.193479876504
 30
0.0
 40
3.5
 41
0.0
 71
     7
 72
     1
  1
12.2
  7
CONVERTER_11
 11
0.9999999999970621
 21
2.424068405545307E-6
 31
0.0
 73
     1
 44
0.60024009603842
  0
ENDBLK
  5
149
330
141
100
AcDbEntity
  8
0
100
AcDbBlockEnd
  0
BLOCK
  5
153
330
14C
100
AcDbEntity
  8
0
100
AcDbBlockBegin
  2
*D5
 70
     1
 71
     0
 10
0.0
 20
0.0
 30
0.0
  3
*D5
  1

  0
LINE
  5
14D
330
14C
100
AcDbEntity
  8
1
  6
Continuous
 62
     2
100
AcDbLine
 10
152.840761354
 20
60.5690420769153
 30
0.0
 11
122.840761354
 21
60.5690420769153
 31
0.0
  0
LINE
  5
14E
330
14C
100
AcDbEntity
  8
1
  6
Continuous
 62
     2
100
AcDbLine
 10
122.840761354
 20
135.3520203692
 30
0.0
 11
122.840761354
 21
58.5690420769153
 31
0.0
  0
LINE
  5
14F
330
14C
100
AcDbEntity
  8
1
  6
Continuous
 62
     2
100
AcDbLine
 10
152.840761354
 20
80.8510474915
 30
0.0
 11
152.840761354
 21
58.5690420769153
 31
0.0
  0
SOLID
  5
150
330
14C
100
AcDbEntity
  8
1
 62
     2
100
AcDbTrace
 10
149.340761354
 20
60.10825833535941
 30
0.0
 11
149.340761354
 21
61.02982581847118
 31
0.0
 12
152.840761354
 22
60.5690420769153
 32
0.0
 13
152.840761354
 23
60.5690420769153
 33
0.0
  0
SOLID
  5
151
330
14C
100
AcDbEntity
  8
1
 62
     2
100
AcDbTrace
 10
126.340761354
 20
61.02982581847118
 30
0.0
 11
126.340761354
 21
60.10825833535941
 31
0.0
 12
122.840761354
 22
60.5690420769153
 32
0.0
 13
122.840761354
 23
60.5690420769153
 33
0.0
  0
MTEXT
  5
152
330
14C
100
AcDbEntity
  8
1
 62
     2
100
AcDbMText
 10
135.217659127745
 20
62.5690420769153
 30
0.0
 40
3.5
 41
0.0
 71
     7
 72
     1
  1
30
  7
CONVERTER_11
 11
0.9999999999970621
 21
2.424068405545307E-6
 31
0.0
 73
     1
 44
0.60024009603842
  0
ENDBLK
  5
154
330
14C
100
AcDbEntity
  8
0
100
AcDbBlockEnd
  0
BLOCK
  5
15E
330
157
100
AcDbEntity
  8
0
100
AcDbBlockBegin
  2
*D6
 70
     1
 71
     0
 10
0.0
 20
0.0
 30
0.0
  3
*D6
  1

  0
LINE
  5
158
330
157
100
AcDbEntity
  8
1
  6
Continuous
 62
     2
100
AcDbLine
 10
152.840761354
 20
70.3920197157661
 30
0.0
 11
142.840761354
 21
70.3920197157661
 31
0.0
  0
LINE
  5
159
330
157
100
AcDbEntity
  8
1
  6
Continuous
 62
     2
100
AcDbLine
 10
142.840761354
 20
118.3520203692
 30
0.0
 11
142.840761354
 21
68.3920197157661
 31
0.0
  0
LINE
  5
15A
330
157
100
AcDbEntity
  8
1
  6
Continuous
 62
     2
100
AcDbLine
 10
152.840761354
 20
80.8510474915
 30
0.0
 11
152.840761354
 21
68.3920197157661
 31
0.0
  0
SOLID
  5
15B
330
157
100
AcDbEntity
  8
1
 62
     2
100
AcDbTrace
 10
149.340761354
 20
69.93123597421021
 30
0.0
 11
149.340761354
 21
70.85280345732198
 31
0.0
 12
152.840761354
 22
70.3920197157661
 32
0.0
 13
152.840761354
 23
70.3920197157661
 33
0.0
  0
SOLID
  5
15C
330
157
100
AcDbEntity
  8
1
 62
     2
100
AcDbTrace
 10
146.340761354
 20
70.85280345732198
 30
0.0
 11
146.340761354
 21
69.93123597421021
 31
0.0
 12
142.840761354
 22
70.3920197157661
 32
0.0
 13
142.840761354
 23
70.3920197157661
 33
0.0
  0
MTEXT
  5
15D
330
157
100
AcDbEntity
  8
1
 62
     2
100
AcDbMText
 10
145.816473714641
 20
72.3920197157661
 30
0.0
 40
3.5
 41
0.0
 71
     7
 72
     1
  1
10
  7
CONVERTER_11
 11
0.9999999999970621
 21
2.424068405545307E-6
 31
0.0
 73
     1
 44
0.60024009603842
  0
ENDBLK
  5
15F
330
157
100
AcDbEntity
  8
0
100
AcDbBlockEnd
  0
BLOCK
  5
169
330
162
100
AcDbEntity
  8
0
100
AcDbBlockBegin
  2
*D7
 70
     1
 71
     0
 10
0.0
 20
0.0
 30
0.0
  3
*D7
  1

  0
LINE
  5
163
330
162
100
AcDbEntity
  8
1
  6
Continuous
 62
     2
100
AcDbLine
 10
420.7332239546
 20
60.2800939174175
 30
0.0
 11
378.7332239546
 21
60.2800939174175
 31
0.0
  0
LINE
  5
164
330
162
100
AcDbEntity
  8
1
  6
Continuous
 62
     2
100
AcDbLine
 10
378.7332239546
 20
135.8203989435
 30
0.0
 11
378.7332239546
 21
58.2800939174175
 31
0.0
  0
LINE
  5
165
330
162
100
AcDbEntity
  8
1
  6
Continuous
 62
     2
100
AcDbLine
 10
420.7332239546
 20
80.3203989435
 30
0.0
 11
420.7332239546
 21
58.2800939174175
 31
0.0
  0
SOLID
  5
166
330
162
100
AcDbEntity
  8
1
 62
     2
100
AcDbTrace
 10
417.2332239546
 20
59.81931017586162
 30
0.0
 11
417.2332239546
 21
60.74087765897339
 31
0.0
 12
420.7332239546
 22
60.2800939174175
 32
0.0
 13
420.7332239546
 23
60.2800939174175
 33
0.0
  0
SOLID
  5
167
330
162
100
AcDbEntity
  8
1
 62
     2
100
AcDbTrace
 10
382.2332239546
 20
60.74087765897339
 30
0.0
 11
382.2332239546
 21
59.81931017586162
 31
0.0
 12
378.7332239546
 22
60.2800939174175
 32
0.0
 13
378.7332239546
 23
60.2800939174175
 33
0.0
  0
MTEXT
  5
168
330
162
100
AcDbEntity
  8
1
 62
     2
100
AcDbMText
 10
395.047232627391
 20
62.2800939174175
 30
0.0
 40
3.5
 41
0.0
 71
     7
 72
     1
  1
42
  7
CONVERTER_11
 11
0.9999999999970621
 21
2.424068405545307E-6
 31
0.0
 73
     1
 44
0.60024009603842
  0
ENDBLK
  5
16A
330
162
100
AcDbEntity
  8
0
100
AcDbBlockEnd
  0
BLOCK
  5
174
330
16D
100
AcDbEntity
  8
0
100
AcDbBlockBegin
  2
*D8
 70
     1
 71
     0
 10
0.0
 20
0.0
 30
0.0
  3
*D8
  1

  0
LINE
  5
16E
330
16D
100
AcDbEntity
  8
1
  6
Continuous
 62
     2
100
AcDbLine
 10
420.7332239546
 20
69.7789225972742
 30
0.0
 11
410.7332239546
 21
69.7789225972742
 31
0.0
  0
LINE
  5
16F
330
16D
100
AcDbEntity
  8
1
  6
Continuous
 62
     2
100
AcDbLine
 10
410.7332239546
 20
117.8203989435
 30
0.0
 11
410.7332239546
 21
67.7789225972742
 31
0.0
  0
LINE
  5
170
330
16D
100
AcDbEntity
  8
1
  6
Continuous
 62
     2
100
AcDbLine
 10
420.7332239546
 20
80.3203989435
 30
0.0
 11
420.7332239546
 21
67.7789225972742
 31
0.0
  0
SOLID
  5
171
330
16D
100
AcDbEntity
  8
1
 62
     2
100
AcDbTrace
 10
417.2332239546
 20
69.31813885571832
 30
0.0
 11
417.2332239546
 21
70.23970633883009
 31
0.0
 12
420.7332239546
 22
69.7789225972742
 32
0.0
 13
420.7332239546
 23
69.7789225972742
 33
0.0
  0
SOLID
  5
172
330
16D
100
AcDbEntity
  8
1
 62
     2
100
AcDbTrace
 10
414.2332239546
 20
70.23970633883009
 30
0.0
 11
414.2332239546
 21
69.31813885571832
 31
0.0
 12
410.7332239546
 22
69.7789225972742
 32
0.0
 13
410.7332239546
 23
69.7789225972742
 33
0.0
  0
MTEXT
  5
173
330
16D
100
AcDbEntity
  8
1
 62
     2
100
AcDbMText
 10
413.320044108176
 20
71.7789225972742
 30
0.0
 40
3.5
 41
0.0
 71
     7
 72
     1
  1
10
  7
CONVERTER_11
 11
0.9999999999970621
 21
2.424068405545307E-6
 31
0.0
 73
     1
 44
0.60024009603842
  0
ENDBLK
  5
175
330
16D
100
AcDbEntity
  8
0
100
AcDbBlockEnd
  0
BLOCK
  5
17F
330
178
100
AcDbEntity
  8
0
100
AcDbBlockBegin
  2
*D9
 70
     1
 71
     0
 10
0.0
 20
0.0
 30
0.0
  3
*D9
  1

  0
LINE
  5
179
330
178
100
AcDbEntity
  8
1
  6
Continuous
 62
     2
100
AcDbLine
 10
99.7578870707844
 20
231.3510474915
 30
0.0
 11
99.7578870707844
 21
130.3510474915
 31
0.0
  0
LINE
  5
17A
330
178
100
AcDbEntity
  8
1
  6
Continuous
 62
     2
100
AcDbLine
 10
78.4312393437
 20
231.3510474915
 30
0.0
 11
101.7578870707844
 21
231.3510474915
 31
0.0
  0
LINE
  5
17B
330
178
100
AcDbEntity
  8
1
  6
Continuous
 62
     2
100
AcDbLine
 10
78.4312393437
 20
130.3510474915
 30
0.0
 11
101.7578870707844
 21
130.3510474915
 31
0.0
  0
SOLID
  5
17C
330
178
100
AcDbEntity
  8
1
 62
     2
100
AcDbTrace
 10
100.2186708123403
 20
227.8510474915
 30
0.0
 11
99.29710332922852
 21
227.8510474915
 31
0.0
 12
99.7578870707844
 22
231.3510474915
 32
0.0
 13
99.7578870707844
 23
231.3510474915
 33
0.0
  0
SOLID
  5
17D
330
178
100
AcDbEntity
  8
1
 62
     2
100
AcDbTrace
 10
99.29710332922852
 20
133.8510474915
 30
0.0
 11
100.2186708123403
 21
133.8510474915
 31
0.0
 12
99.7578870707844
 22
130.3510474915
 32
0.0
 13
99.7578870707844
 23
130.3510474915
 33
0.0
  0
MTEXT
  5
17E
330
178
100
AcDbEntity
  8
1
 62
     2
100
AcDbMText
 10
97.7578870707844
 20
177.33266987126
 30
0.0
 40
3.5
 41
0.0
 71
     7
 72
     1
  1
101
  7
CONVERTER_11
 11
0.0
 21
1.0
 31
0.0
 73
     1
 44
0.60024009603842
  0
ENDBLK
  5
180
330
178
100
AcDbEntity
  8
0
100
AcDbBlockEnd
  0
BLOCK
  5
18A
330
183
100
AcDbEntity
  8
0
100
AcDbBlockBegin
  2
*D10
 70
     1
 71
     0
 10
0.0
 20
0.0
 30
0.0
  3
*D10
  1

  0
LINE
  5
184
330
183
100
AcDbEntity
  8
1
  6
Continuous
 62
     2
100
AcDbLine
 10
37.737625096207
 20
213.8510474915001
 30
0.0
 11
37.737625096207
 21
147.8510474915001
 31
0.0
  0
LINE
  5
185
330
183
100
AcDbEntity
  8
1
  6
Continuous
 62
     2
100
AcDbLine
 10
57.77843842690001
 20
213.8510474915001
 30
0.0
 11
35.737625096207
 21
213.8510474915001
 31
0.0
  0
LINE
  5
186
330
183
100
AcDbEntity
  8
1
  6
Continuous
 62
     2
100
AcDbLine
 10
61.77843842690001
 20
147.8510474915001
 30
0.0
 11
35.737625096207
 21
147.8510474915001
 31
0.0
  0
SOLID
  5
187
330
183
100
AcDbEntity
  8
1
 62
     2
100
AcDbTrace
 10
38.19840883776288
 20
210.3510474915001
 30
0.0
 11
37.27684135465111
 21
210.3510474915001
 31
0.0
 12
37.737625096207
 22
213.8510474915001
 32
0.0
 13
37.737625096207
 23
213.8510474915001
 33
0.0
  0
SOLID
  5
188
330
183
100
AcDbEntity
  8
1
 62
     2
100
AcDbTrace
 10
37.27684135465111
 20
151.3510474915001
 30
0.0
 11
38.19840883776288
 21
151.3510474915001
 31
0.0
 12
37.737625096207
 22
147.8510474915001
 32
0.0
 13
37.737625096207
 23
147.8510474915001
 33
0.0
  0
MTEXT
  5
189
330
183
100
AcDbEntity
  8
1
 62
     2
100
AcDbMText
 10
35.737625096207
 20
178.0283895236715
 30
0.0
 40
3.5
 41
0.0
 71
     7
 72
     1
  1
66
  7
CONVERTER_11
 11
0.0
 21
1.0
 31
0.0
 73
     1
 44
0.60024009603842
  0
ENDBLK
  5
18B
330
183
100
AcDbEntity
  8
0
100
AcDbBlockEnd
  0
BLOCK
  5
195
330
18E
100
AcDbEntity
  8
0
100
AcDbBlockBegin
  2
*D11
 70
     1
 71
     0
 10
0.0
 20
0.0
 30
0.0
  3
*D11
  1

  0
LINE
  5
18F
330
18E
100
AcDbEntity
  8
1
  6
Continuous
 62
     2
100
AcDbLine
 10
29.6284771303619
 20
226.3510474915
 30
0.0
 11
29.6284771303619
 21
135.3510474915
 31
0.0
  0
LINE
  5
190
330
18E
100
AcDbEntity
  8
1
  6
Continuous
 62
     2
100
AcDbLine
 10
73.77843842690001
 20
226.3510474915
 30
0.0
 11
27.6284771303619
 21
226.3510474915
 31
0.0
  0
LINE
  5
191
330
18E
100
AcDbEntity
  8
1
  6
Continuous
 62
     2
100
AcDbLine
 10
73.77843842690001
 20
135.3510474915
 30
0.0
 11
27.6284771303619
 21
135.3510474915
 31
0.0
  0
SOLID
  5
192
330
18E
100
AcDbEntity
  8
1
 62
     2
100
AcDbTrace
 10
30.08926087191778
 20
222.8510474915
 30
0.0
 11
29.16769338880601
 21
222.8510474915
 31
0.0
 12
29.6284771303619
 22
226.3510474915
 32
0.0
 13
29.6284771303619
 23
226.3510474915
 33
0.0
  0
SOLID
  5
193
330
18E
100
AcDbEntity
  8
1
 62
     2
100
AcDbTrace
 10
29.16769338880601
 20
138.8510474915
 30
0.0
 11
30.08926087191779
 21
138.8510474915
 31
0.0
 12
29.6284771303619
 22
135.3510474915
 32
0.0
 13
29.6284771303619
 23
135.3510474915
 33
0.0
  0
MTEXT
  5
194
330
18E
100
AcDbEntity
  8
1
 62
     2
100
AcDbMText
 10
27.6284771303619
 20
178.304585986646
 30
0.0
 40
3.5
 41
0.0
 71
     7
 72
     1
  1
91
  7
CONVERTER_11
 11
0.0
 21
1.0
 31
0.0
 73
     1
 44
0.60024009603842
  0
ENDBLK
  5
196
330
18E
100
AcDbEntity
  8
0
100
AcDbBlockEnd
  0
BLOCK
  5
1A0
330
199
100
AcDbEntity
  8
0
100
AcDbBlockBegin
  2
*D12
 70
     1
 71
     0
 10
0.0
 20
0.0
 30
0.0
  3
*D12
  1

  0
LINE
  5
19A
330
199
100
AcDbEntity
  8
1
  6
Continuous
 62
     2
100
AcDbLine
 10
21.5573505827549
 20
229.3510474915
 30
0.0
 11
21.5573505827549
 21
132.3510474915
 31
0.0
  0
LINE
  5
19B
330
199
100
AcDbEntity
  8
1
  6
Continuous
 62
     2
100
AcDbLine
 10
63.3312393437
 20
229.3510474915
 30
0.0
 11
19.5573505827549
 21
229.3510474915
 31
0.0
  0
LINE
  5
19C
330
199
100
AcDbEntity
  8
1
  6
Continuous
 62
     2
100
AcDbLine
 10
64.8311393437
 20
132.3510474915
 30
0.0
 11
19.5573505827549
 21
132.3510474915
 31
0.0
  0
SOLID
  5
19D
330
199
100
AcDbEntity
  8
1
 62
     2
100
AcDbTrace
 10
22.01813432431078
 20
225.8510474915
 30
0.0
 11
21.09656684119901
 21
225.8510474915
 31
0.0
 12
21.5573505827549
 22
229.3510474915
 32
0.0
 13
21.5573505827549
 23
229.3510474915
 33
0.0
  0
SOLID
  5
19E
330
199
100
AcDbEntity
  8
1
 62
     2
100
AcDbTrace
 10
21.09656684119901
 20
135.8510474915
 30
0.0
 11
22.01813432431079
 21
135.8510474915
 31
0.0
 12
21.5573505827549
 22
132.3510474915
 32
0.0
 13
21.5573505827549
 23
132.3510474915
 33
0.0
  0
MTEXT
  5
19F
330
199
100
AcDbEntity
  8
1
 62
     2
100
AcDbMText
 10
19.5573505827549
 20
178.208537635488
 30
0.0
 40
3.5
 41
0.0
 71
     7
 72
     1
  1
97
  7
CONVERTER_11
 11
0.0
 21
1.0
 31
0.0
 73
     1
 44
0.60024009603842
  0
ENDBLK
  5
1A1
330
199
100
AcDbEntity
  8
0
100
AcDbBlockEnd
  0
BLOCK
  5
1AB
330
1A4
100
AcDbEntity
  8
0
100
AcDbBlockBegin
  2
*D13
 70
     1
 71
     0
 10
0.0
 20
0.0
 30
0.0
  3
*D13
  1

  0
LINE
  5
1A5
330
1A4
100
AcDbEntity
  8
1
  6
Continuous
 62
     2
100
AcDbLine
 10
13.54854321897921
 20
118.3510474915
 30
0.0
 11
13.54854321897921
 21
243.3510474915
 31
0.0
  0
LINE
  5
1A6
330
1A4
100
AcDbEntity
  8
1
  6
Continuous
 62
     2
100
AcDbLine
 10
73.77843842689998
 20
118.3510474915
 30
0.0
 11
11.54854321897921
 21
118.3510474915
 31
0.0
  0
LINE
  5
1A7
330
1A4
100
AcDbEntity
  8
1
  6
Continuous
 62
     2
100
AcDbLine
 10
73.77843842689998
 20
243.3510474915
 30
0.0
 11
11.54854321897921
 21
243.3510474915
 31
0.0
  0
SOLID
  5
1A8
330
1A4
100
AcDbEntity
  8
1
 62
     2
100
AcDbTrace
 10
13.08775947742332
 20
121.8510474915
 30
0.0
 11
14.0093269605351
 21
121.8510474915
 31
0.0
 12
13.54854321897921
 22
118.3510474915
 32
0.0
 13
13.54854321897921
 23
118.3510474915
 33
0.0
  0
SOLID
  5
1A9
330
1A4
100
AcDbEntity
  8
1
 62
     2
100
AcDbTrace
 10
14.00932696053509
 20
239.8510474915
 30
0.0
 11
13.08775947742332
 21
239.8510474915
 31
0.0
 12
13.54854321897921
 22
243.3510474915
 32
0.0
 13
13.54854321897921
 23
243.3510474915
 33
0.0
  0
MTEXT
  5
1AA
330
1A4
100
AcDbEntity
  8
1
 62
     2
100
AcDbMText
 10
11.54854321897921
 20
176.190314598501
 30
0.0
 40
3.5
 41
0.0
 71
     7
 72
     1
  1
125
  7
CONVERTER_11
 11
0.0
 21
1.0
 31
0.0
 73
     1
 44
0.60024009603842
  0
ENDBLK
  5
1AC
330
1A4
100
AcDbEntity
  8
0
100
AcDbBlockEnd
  0
BLOCK
  5
1B6
330
1AF
100
AcDbEntity
  8
0
100
AcDbBlockBegin
  2
*D14
 70
     1
 71
     0
 10
0.0
 20
0.0
 30
0.0
  3
*D14
  1

  0
LINE
  5
1B0
330
1AF
100
AcDbEntity
  8
1
  6
Continuous
 62
     2
100
AcDbLine
 10
326.805388923753
 20
224.8203989435
 30
0.0
 11
326.805388923753
 21
135.8203989435
 31
0.0
  0
LINE
  5
1B1
330
1AF
100
AcDbEntity
  8
1
  6
Continuous
 62
     2
100
AcDbLine
 10
302.2223219151
 20
224.8203989435
 30
0.0
 11
328.805388923753
 21
224.8203989435
 31
0.0
  0
LINE
  5
1B2
330
1AF
100
AcDbEntity
  8
1
  6
Continuous
 62
     2
100
AcDbLine
 10
302.2223219151
 20
135.8203989435
 30
0.0
 11
328.805388923753
 21
135.8203989435
 31
0.0
  0
SOLID
  5
1B3
330
1AF
100
AcDbEntity
  8
1
 62
     2
100
AcDbTrace
 10
327.2661726653089
 20
221.3203989435
 30
0.0
 11
326.3446051821971
 21
221.3203989435
 31
0.0
 12
326.805388923753
 22
224.8203989435
 32
0.0
 13
326.805388923753
 23
224.8203989435
 33
0.0
  0
SOLID
  5
1B4
330
1AF
100
AcDbEntity
  8
1
 62
     2
100
AcDbTrace
 10
326.3446051821971
 20
139.3203989435
 30
0.0
 11
327.2661726653089
 21
139.3203989435
 31
0.0
 12
326.805388923753
 22
135.8203989435
 32
0.0
 13
326.805388923753
 23
135.8203989435
 33
0.0
  0
MTEXT
  5
1B5
330
1AF
100
AcDbEntity
  8
1
 62
     2
100
AcDbMText
 10
324.805388923753
 20
177.231561705133
 30
0.0
 40
3.5
 41
0.0
 71
     7
 72
     1
  1
89
  7
CONVERTER_11
 11
0.0
 21
1.0
 31
0.0
 73
     1
 44
0.60024009603842
  0
ENDBLK
  5
1B7
330
1AF
100
AcDbEntity
  8
0
100
AcDbBlockEnd
  0
BLOCK
  5
1C1
330
1BA
100
AcDbEntity
  8
0
100
AcDbBlockBegin
  2
*D15
 70
     1
 71
     0
 10
0.0
 20
0.0
 30
0.0
  3
*D15
  1

  0
LINE
  5
1BB
330
1BA
100
AcDbEntity
  8
1
  6
Continuous
 62
     2
100
AcDbLine
 10
334.505631049461
 20
228.3203989435
 30
0.0
 11
334.505631049461
 21
132.3203989435
 31
0.0
  0
LINE
  5
1BC
330
1BA
100
AcDbEntity
  8
1
  6
Continuous
 62
     2
100
AcDbLine
 10
300.7223219151
 20
228.3203989435
 30
0.0
 11
336.505631049461
 21
228.3203989435
 31
0.0
  0
LINE
  5
1BD
330
1BA
100
AcDbEntity
  8
1
  6
Continuous
 62
     2
100
AcDbLine
 10
300.7223219151
 20
132.3203989435
 30
0.0
 11
336.505631049461
 21
132.3203989435
 31
0.0
  0
SOLID
  5
1BE
330
1BA
100
AcDbEntity
  8
1
 62
     2
100
AcDbTrace
 10
334.9664147910169
 20
224.8203989435
 30
0.0
 11
334.0448473079051
 21
224.8203989435
 31
0.0
 12
334.505631049461
 22
228.3203989435
 32
0.0
 13
334.505631049461
 23
228.3203989435
 33
0.0
  0
SOLID
  5
1BF
330
1BA
100
AcDbEntity
  8
1
 62
     2
100
AcDbTrace
 10
334.0448473079051
 20
135.8203989435
 30
0.0
 11
334.9664147910169
 21
135.8203989435
 31
0.0
 12
334.505631049461
 22
132.3203989435
 32
0.0
 13
334.505631049461
 23
132.3203989435
 33
0.0
  0
MTEXT
  5
1C0
330
1BA
100
AcDbEntity
  8
1
 62
     2
100
AcDbMText
 10
332.505631049461
 20
178.022174056902
 30
0.0
 40
3.5
 41
0.0
 71
     7
 72
     1
  1
96
  7
CONVERTER_11
 11
0.0
 21
1.0
 31
0.0
 73
     1
 44
0.60024009603842
  0
ENDBLK
  5
1C2
330
1BA
100
AcDbEntity
  8
0
100
AcDbBlockEnd
  0
BLOCK
  5
1CC
330
1C5
100
AcDbEntity
  8
0
100
AcDbBlockBegin
  2
*D16
 70
     1
 71
     0
 10
0.0
 20
0.0
 30
0.0
  3
*D16
  1

  0
LINE
  5
1C6
330
1C5
100
AcDbEntity
  8
1
  6
Continuous
 62
     2
100
AcDbLine
 10
342.415423441072
 20
235.3203989435
 30
0.0
 11
342.415423441072
 21
125.3203989435
 31
0.0
  0
LINE
  5
1C7
330
1C5
100
AcDbEntity
  8
1
  6
Continuous
 62
     2
100
AcDbLine
 10
300.7223219151
 20
235.3203989435
 30
0.0
 11
344.415423441072
 21
235.3203989435
 31
0.0
  0
LINE
  5
1C8
330
1C5
100
AcDbEntity
  8
1
  6
Continuous
 62
     2
100
AcDbLine
 10
300.7223219151
 20
125.3203989435
 30
0.0
 11
344.415423441072
 21
125.3203989435
 31
0.0
  0
SOLID
  5
1C9
330
1C5
100
AcDbEntity
  8
1
 62
     2
100
AcDbTrace
 10
342.8762071826279
 20
231.8203989435
 30
0.0
 11
341.9546396995161
 21
231.8203989435
 31
0.0
 12
342.415423441072
 22
235.3203989435
 32
0.0
 13
342.415423441072
 23
235.3203989435
 33
0.0
  0
SOLID
  5
1CA
330
1C5
100
AcDbEntity
  8
1
 62
     2
100
AcDbTrace
 10
341.9546396995161
 20
128.8203989435
 30
0.0
 11
342.8762071826279
 21
128.8203989435
 31
0.0
 12
342.415423441072
 22
125.3203989435
 32
0.0
 13
342.415423441072
 23
125.3203989435
 33
0.0
  0
MTEXT
  5
1CB
330
1C5
100
AcDbEntity
  8
1
 62
     2
100
AcDbMText
 10
340.415423441072
 20
177.65962346398
 30
0.0
 40
3.5
 41
0.0
 71
     7
 72
     1
  1
110
  7
CONVERTER_11
 11
0.0
 21
1.0
 31
0.0
 73
     1
 44
0.60024009603842
  0
ENDBLK
  5
1CD
330
1C5
100
AcDbEntity
  8
0
100
AcDbBlockEnd
  0
BLOCK
  5
1D7
330
1D0
100
AcDbEntity
  8
0
100
AcDbBlockBegin
  2
*D17
 70
     1
 71
     0
 10
0.0
 20
0.0
 30
0.0
  3
*D17
  1

  0
LINE
  5
1D1
330
1D0
100
AcDbEntity
  8
1
  6
Continuous
 62
     2
100
AcDbLine
 10
350.7332239546
 20
242.8203989435
 30
0.0
 11
350.7332239546
 21
117.8203989435
 31
0.0
  0
LINE
  5
1D2
330
1D0
100
AcDbEntity
  8
1
  6
Continuous
 62
     2
100
AcDbLine
 10
296.2223219151
 20
242.8203989435
 30
0.0
 11
352.7332239546
 21
242.8203989435
 31
0.0
  0
LINE
  5
1D3
330
1D0
100
AcDbEntity
  8
1
  6
Continuous
 62
     2
100
AcDbLine
 10
296.2223219151
 20
117.8203989435
 30
0.0
 11
352.7332239546
 21
117.8203989435
 31
0.0
  0
SOLID
  5
1D4
330
1D0
100
AcDbEntity
  8
1
 62
     2
100
AcDbTrace
 10
351.1940076961559
 20
239.3203989435
 30
0.0
 11
350.2724402130441
 21
239.3203989435
 31
0.0
 12
350.7332239546
 22
242.8203989435
 32
0.0
 13
350.7332239546
 23
242.8203989435
 33
0.0
  0
SOLID
  5
1D5
330
1D0
100
AcDbEntity
  8
1
 62
     2
100
AcDbTrace
 10
350.2724402130441
 20
121.3203989435
 30
0.0
 11
351.1940076961559
 21
121.3203989435
 31
0.0
 12
350.7332239546
 22
117.8203989435
 32
0.0
 13
350.7332239546
 23
117.8203989435
 33
0.0
  0
MTEXT
  5
1D6
330
1D0
100
AcDbEntity
  8
1
 62
     2
100
AcDbMText
 10
348.7332239546
 20
177.033409233836
 30
0.0
 40
3.5
 41
0.0
 71
     7
 72
     1
  1
125
  7
CONVERTER_11
 11
0.0
 21
1.0
 31
0.0
 73
     1
 44
0.60024009603842
  0
ENDBLK
  5
1D8
330
1D0
100
AcDbEntity
  8
0
100
AcDbBlockEnd
  0
BLOCK
  5
1E8
330
1DB
100
AcDbEntity
  8
0
100
AcDbBlockBegin
  2
*D18
 70
     1
 71
     0
 10
0.0
 20
0.0
 30
0.0
  3
*D18
  1

  0
LINE
  5
1DC
330
1DB
100
AcDbEntity
  8
1
  6
Continuous
 62
     2
100
AcDbLine
 10
325.2223219151
 20
69.8480850179105
 30
0.0
 11
318.2223219151
 21
69.8480850179105
 31
0.0
  0
LINE
  5
1DD
330
1DB
100
AcDbEntity
  8
1
  6
Continuous
 62
     2
100
AcDbLine
 10
318.2223219151
 20
69.8480850179105
 30
0.0
 11
314.2223219151
 21
69.8480850179105
 31
0.0
  0
LINE
  5
1DE
330
1DB
100
AcDbEntity
  8
1
  6
Continuous
 62
     2
100
AcDbLine
 10
314.2223219151
 20
69.8480850179105
 30
0.0
 11
307.2223219151
 21
69.8480850179105
 31
0.0
  0
LINE
  5
1DF
330
1DB
100
AcDbEntity
  8
1
  6
Continuous
 62
     2
100
AcDbLine
 10
318.2223219151
 20
80.3203989435
 30
0.0
 11
318.2223219151
 21
67.8480850179105
 31
0.0
  0
LINE
  5
1E0
330
1DB
100
AcDbEntity
  8
1
  6
Continuous
 62
     2
100
AcDbLine
 10
314.2223219151
 20
110.369904686469
 30
0.0
 11
314.2223219151
 21
67.8480850179105
 31
0.0
  0
LINE
  5
1E1
330
1DB
100
AcDbEntity
  8
1
  6
Continuous
 62
     2
100
AcDbLine
 10
314.2223219151
 20
117.20084175469
 30
0.0
 11
314.2223219151
 21
115.574757841745
 31
0.0
  0
LINE
  5
1E2
330
1DB
100
AcDbEntity
  8
1
  6
Continuous
 62
     2
100
AcDbLine
 10
314.2223219151
 20
124.770186316649
 30
0.0
 11
314.2223219151
 21
118.239771400449
 31
0.0
  0
LINE
  5
1E3
330
1DB
100
AcDbEntity
  8
1
  6
Continuous
 62
     2
100
AcDbLine
 10
314.2223219151
 20
131.90027025675
 30
0.0
 11
314.2223219151
 21
125.790563647305
 31
0.0
  0
LINE
  5
1E4
330
1DB
100
AcDbEntity
  8
1
  6
Continuous
 62
     2
100
AcDbLine
 10
314.2223219151
 20
135.8203989435
 30
0.0
 11
314.2223219151
 21
132.595006831952
 31
0.0
  0
SOLID
  5
1E5
330
1DB
100
AcDbEntity
  8
1
 62
     2
100
AcDbTrace
 10
321.7223219151
 20
70.30886875946639
 30
0.0
 11
321.7223219151
 21
69.38730127635462
 31
0.0
 12
318.2223219151
 22
69.8480850179105
 32
0.0
 13
318.2223219151
 23
69.8480850179105
 33
0.0
  0
SOLID
  5
1E6
330
1DB
100
AcDbEntity
  8
1
 62
     2
100
AcDbTrace
 10
310.7223219151
 20
69.38730127635462
 30
0.0
 11
310.7223219151
 21
70.30886875946639
 31
0.0
 12
314.2223219151
 22
69.8480850179105
 32
0.0
 13
314.2223219151
 23
69.8480850179105
 33
0.0
  0
MTEXT
  5
1E7
330
1DB
100
AcDbEntity
  8
1
 62
     2
100
AcDbMText
 10
323.005388923753
 20
71.8480850179105
 30
0.0
 40
3.5
 41
0.0
 71
     7
 72
     1
  1
4
  7
CONVERTER_11
 11
0.9999999999970621
 21
2.424068405545307E-6
 31
0.0
 73
     1
 44
0.60024009603842
  0
ENDBLK
  5
1E9
330
1DB
100
AcDbEntity
  8
0
100
AcDbBlockEnd
  0
BLOCK
  5
1F6
330
1EC
100
AcDbEntity
  8
0
100
AcDbBlockBegin
  2
*D19
 70
     1
 71
     0
 10
0.0
 20
0.0
 30
0.0
  3
*D19
  1

  0
LINE
  5
1ED
330
1EC
100
AcDbEntity
  8
1
  6
Continuous
 62
     2
100
AcDbLine
 10
285.2223219151
 20
69.8480850179105
 30
0.0
 11
278.2223219151
 21
69.8480850179105
 31
0.0
  0
LINE
  5
1EE
330
1EC
100
AcDbEntity
  8
1
  6
Continuous
 62
     2
100
AcDbLine
 10
278.2223219151
 20
69.8480850179105
 30
0.0
 11
274.2223219151
 21
69.8480850179105
 31
0.0
  0
LINE
  5
1EF
330
1EC
100
AcDbEntity
  8
1
  6
Continuous
 62
     2
100
AcDbLine
 10
274.2223219151
 20
69.8480850179105
 30
0.0
 11
267.2223219151
 21
69.8480850179105
 31
0.0
  0
LINE
  5
1F0
330
1EC
100
AcDbEntity
  8
1
  6
Continuous
 62
     2
100
AcDbLine
 10
278.2223219151
 20
119.458048472379
 30
0.0
 11
278.2223219151
 21
67.8480850179105
 31
0.0
  0
LINE
  5
1F1
330
1EC
100
AcDbEntity
  8
1
  6
Continuous
 62
     2
100
AcDbLine
 10
278.2223219151
 20
135.8203989435
 30
0.0
 11
278.2223219151
 21
125.078831949021
 31
0.0
  0
LINE
  5
1F2
330
1EC
100
AcDbEntity
  8
1
  6
Continuous
 62
     2
100
AcDbLine
 10
274.2223219151
 20
80.3203989435
 30
0.0
 11
274.2223219151
 21
67.8480850179105
 31
0.0
  0
SOLID
  5
1F3
330
1EC
100
AcDbEntity
  8
1
 62
     2
100
AcDbTrace
 10
281.7223219151
 20
70.30886875946639
 30
0.0
 11
281.7223219151
 21
69.38730127635462
 31
0.0
 12
278.2223219151
 22
69.8480850179105
 32
0.0
 13
278.2223219151
 23
69.8480850179105
 33
0.0
  0
SOLID
  5
1F4
330
1EC
100
AcDbEntity
  8
1
 62
     2
100
AcDbTrace
 10
270.7223219151
 20
69.38730127635462
 30
0.0
 11
270.7223219151
 21
70.30886875946639
 31
0.0
 12
274.2223219151
 22
69.8480850179105
 32
0.0
 13
274.2223219151
 23
69.8480850179105
 33
0.0
  0
MTEXT
  5
1F5
330
1EC
100
AcDbEntity
  8
1
 62
     2
100
AcDbMText
 10
268.272129996463
 20
71.8480850179105
 30
0.0
 40
3.5
 41
0.0
 71
     7
 72
     1
  1
4
  7
CONVERTER_11
 11
0.9999999999970621
 21
2.424068405545307E-6
 31
0.0
 73
     1
 44
0.60024009603842
  0
ENDBLK
  5
1F7
330
1EC
100
AcDbEntity
  8
0
100
AcDbBlockEnd
  0
BLOCK
  5
206
330
1FA
100
AcDbEntity
  8
0
100
AcDbBlockBegin
  2
*D20
 70
     1
 71
     0
 10
0.0
 20
0.0
 30
0.0
  3
*D20
  1

  0
LINE
  5
1FB
330
1FA
100
AcDbEntity
  8
1
  6
Continuous
 62
     2
100
AcDbLine
 10
314.2223219151
 20
69.8480850179105
 30
0.0
 11
278.2223219151
 21
69.8480850179105
 31
0.0
  0
LINE
  5
1FC
330
1FA
100
AcDbEntity
  8
1
  6
Continuous
 62
     2
100
AcDbLine
 10
314.2223219151
 20
110.369904686469
 30
0.0
 11
314.2223219151
 21
67.8480850179105
 31
0.0
  0
LINE
  5
1FD
330
1FA
100
AcDbEntity
  8
1
  6
Continuous
 62
     2
100
AcDbLine
 10
314.2223219151
 20
117.20084175469
 30
0.0
 11
314.2223219151
 21
115.574757841745
 31
0.0
  0
LINE
  5
1FE
330
1FA
100
AcDbEntity
  8
1
  6
Continuous
 62
     2
100
AcDbLine
 10
314.2223219151
 20
124.770186316649
 30
0.0
 11
314.2223219151
 21
118.239771400449
 31
0.0
  0
LINE
  5
1FF
330
1FA
100
AcDbEntity
  8
1
  6
Continuous
 62
     2
100
AcDbLine
 10
314.2223219151
 20
131.90027025675
 30
0.0
 11
314.2223219151
 21
125.790563647305
 31
0.0
  0
LINE
  5
200
330
1FA
100
AcDbEntity
  8
1
  6
Continuous
 62
     2
100
AcDbLine
 10
314.2223219151
 20
135.8203989435
 30
0.0
 11
314.2223219151
 21
132.595006831952
 31
0.0
  0
LINE
  5
201
330
1FA
100
AcDbEntity
  8
1
  6
Continuous
 62
     2
100
AcDbLine
 10
278.2223219151
 20
119.458048472379
 30
0.0
 11
278.2223219151
 21
67.8480850179105
 31
0.0
  0
LINE
  5
202
330
1FA
100
AcDbEntity
  8
1
  6
Continuous
 62
     2
100
AcDbLine
 10
278.2223219151
 20
135.8203989435
 30
0.0
 11
278.2223219151
 21
125.078831949021
 31
0.0
  0
SOLID
  5
203
330
1FA
100
AcDbEntity
  8
1
 62
     2
100
AcDbTrace
 10
310.7223219151
 20
69.38730127635462
 30
0.0
 11
310.7223219151
 21
70.30886875946639
 31
0.0
 12
314.2223219151
 22
69.8480850179105
 32
0.0
 13
314.2223219151
 23
69.8480850179105
 33
0.0
  0
SOLID
  5
204
330
1FA
100
AcDbEntity
  8
1
 62
     2
100
AcDbTrace
 10
281.7223219151
 20
70.30886875946639
 30
0.0
 11
281.7223219151
 21
69.38730127635462
 31
0.0
 12
278.2223219151
 22
69.8480850179105
 32
0.0
 13
278.2223219151
 23
69.8480850179105
 33
0.0
  0
MTEXT
  5
205
330
1FA
100
AcDbEntity
  8
1
 62
     2
100
AcDbMText
 10
294.744521387064
 20
71.8480850179105
 30
0.0
 40
3.5
 41
0.0
 71
     7
 72
     1
  1
36
  7
CONVERTER_11
 11
0.9999999999970621
 21
2.424068405545307E-6
 31
0.0
 73
     1
 44
0.60024009603842
  0
ENDBLK
  5
207
330
1FA
100
AcDbEntity
  8
0
100
AcDbBlockEnd
  0
BLOCK
  5
20E
330
20A
100
AcDbEntity
  8
0
100
AcDbBlockBegin
  2
*D21
 70
     1
 71
     0
 10
0.0
 20
0.0
 30
0.0
  3
*D21
  1

  0
LINE
  5
20B
330
20A
100
AcDbEntity
  8
1
  6
Continuous
 62
     2
100
AcDbLine
 10
282.0283496661107
 20
124.7510199277231
 30
0.0
 11
265.4145959720734
 21
111.794538592686
 31
0.0
  0
SOLID
  5
20C
330
20A
100
AcDbEntity
  8
1
 62
     2
100
AcDbTrace
 10
279.5517767221178
 20
122.2352878057425
 30
0.0
 11
278.9850445132745
 21
122.9619935435681
 31
0.0
 12
282.0283496661107
 22
124.7510199277231
 32
0.0
 13
282.0283496661107
 23
124.7510199277231
 33
0.0
  0
MTEXT
  5
20D
330
20A
100
AcDbEntity
  8
1
 62
     2
100
AcDbMText
 10
265.2334418087179
 20
114.1895507365172
 30
0.0
 40
3.5
 41
0.0
 71
     7
 72
     1
  1
\C2;R\C2;18
  7
CONVERTER_11
 11
0.7885540138327362
 21
0.614965500876497
 31
0.0
 73
     1
 44
0.60024009603842
  0
ENDBLK
  5
20F
330
20A
100
AcDbEntity
  8
0
100
AcDbBlockEnd
  0
BLOCK
  5
215
330
211
100
AcDbEntity
  8
0
100
AcDbBlockBegin
  2
*D22
 70
     1
 71
     0
 10
0.0
 20
0.0
 30
0.0
  3
*D22
  1

  0
LINE
  5
212
330
211
100
AcDbEntity
  8
1
  6
Continuous
 62
     2
100
AcDbLine
 10
291.8257606115114
 20
150.0462719587103
 30
0.0
 11
283.2083315243316
 21
138.0836675207787
 31
0.0
  0
SOLID
  5
213
330
211
100
AcDbEntity
  8
1
 62
     2
100
AcDbTrace
 10
284.8802014270153
 20
141.1928752470303
 30
0.0
 11
285.627956016263
 21
140.6542197911144
 31
0.0
 12
283.2083315243316
 22
138.0836675207787
 32
0.0
 13
283.2083315243316
 23
138.0836675207787
 33
0.0
  0
MTEXT
  5
214
330
211
100
AcDbEntity
  8
1
 62
     2
100
AcDbMText
 10
286.0705627024967
 20
145.4787127606184
 30
0.0
 40
3.5
 41
0.0
 71
     7
 72
     1
  1
\C2;R\C2;12
  7
CONVERTER_11
 11
0.5844991992306984
 21
0.811394285226777
 31
0.0
 73
     1
 44
0.60024009603842
  0
ENDBLK
  5
216
330
211
100
AcDbEntity
  8
0
100
AcDbBlockEnd
  0
BLOCK
  5
21E
330
218
100
AcDbEntity
  8
0
100
AcDbBlockBegin
  2
*D23
 70
     1
 71
     0
 10
0.0
 20
0.0
 30
0.0
  3
*D23
  1

  0
LINE
  5
219
330
218
100
AcDbEntity
  8
1
  6
Continuous
 62
     2
100
AcDbLine
 10
297.4096409754779
 20
234.4037346380625
 30
0.0
 11
301.5652576868006
 21
231.1954095690311
 31
0.0
  0
LINE
  5
21A
330
218
100
AcDbEntity
  8
1
  6
Continuous
 62
     2
100
AcDbLine
 10
284.2018198908256
 20
244.6007731131733
 30
0.0
 11
295.0350028547221
 21
236.2370632489375
 31
0.0
  0
SOLID
  5
21B
330
218
100
AcDbEntity
  8
1
 62
     2
100
AcDbTrace
 10
291.9830023749
 20
238.0112150822507
 30
0.0
 11
292.5461810527804
 21
238.7406781743328
 31
0.0
 12
295.0350028547221
 22
236.2370632489375
 32
0.0
 13
295.0350028547221
 23
236.2370632489375
 33
0.0
  0
SOLID
  5
21C
330
218
100
AcDbEntity
  8
1
 62
     2
100
AcDbTrace
 10
300.4616414553
 20
232.6295828047493
 30
0.0
 11
299.8984627774196
 21
231.9001197126672
 31
0.0
 12
297.4096409754779
 22
234.4037346380625
 32
0.0
 13
297.4096409754779
 23
234.4037346380625
 33
0.0
  0
MTEXT
  5
21D
330
218
100
AcDbEntity
  8
1
 62
     2
100
AcDbMText
 10
286.1997540841892
 20
245.584977847458
 30
0.0
 40
3.5
 41
0.0
 71
     7
 72
     1
  1
\C2;ø\C2;3
  7
CONVERTER_11
 11
0.7915460402519466
 21
-0.6111095369583621
 31
0.0
 73
     1
 44
0.60024009603842
  0
ENDBLK
  5
21F
330
218
100
AcDbEntity
  8
0
100
AcDbBlockEnd
  0
BLOCK
  5
227
330
221
100
AcDbEntity
  8
0
100
AcDbBlockBegin
  2
*D24
 70
     1
 71
     0
 10
0.0
 20
0.0
 30
0.0
  3
*D24
  1

  0
LINE
  5
222
330
221
100
AcDbEntity
  8
1
  6
Continuous
 62
     2
100
AcDbLine
 10
78.66012036614802
 20
228.7427443192275
 30
0.0
 11
73.86120394471612
 21
226.6136832162736
 31
0.0
  0
LINE
  5
223
330
221
100
AcDbEntity
  8
1
  6
Continuous
 62
     2
100
AcDbLine
 10
98.02436142095469
 20
237.3337779604656
 30
0.0
 11
81.40235832125197
 21
229.9593506637725
 31
0.0
  0
SOLID
  5
224
330
221
100
AcDbEntity
  8
1
 62
     2
100
AcDbTrace
 10
84.41477179439319
 20
231.7999176208049
 30
0.0
 11
84.7885000766866
 21
230.957531844012
 31
0.0
 12
81.40235832125197
 22
229.9593506637725
 32
0.0
 13
81.40235832125197
 23
229.9593506637725
 33
0.0
  0
SOLID
  5
225
330
221
100
AcDbEntity
  8
1
 62
     2
100
AcDbTrace
 10
75.6477068930068
 20
226.9021773621951
 30
0.0
 11
75.27397861071339
 21
227.744563138988
 31
0.0
 12
78.66012036614802
 22
228.7427443192275
 32
0.0
 13
78.66012036614802
 23
228.7427443192275
 33
0.0
  0
MTEXT
  5
226
330
221
100
AcDbEntity
  8
1
 62
     2
100
AcDbMText
 10
92.67031631230243
 20
237.1464254197386
 30
0.0
 40
3.5
 41
0.0
 71
     7
 72
     1
  1
\C2;ø\C2;3
  7
CONVERTER_11
 11
0.9140793183679826
 21
0.4055354481816902
 31
0.0
 73
     1
 44
0.60024009603842
  0
ENDBLK
  5
228
330
221
100
AcDbEntity
  8
0
100
AcDbBlockEnd
  0
BLOCK
  5
230
330
22A
100
AcDbEntity
  8
0
100
AcDbBlockBegin
  2
*D25
 70
     1
 71
     0
 10
0.0
 20
0.0
 30
0.0
  3
*D25
  1

  0
LINE
  5
22B
330
22A
100
AcDbEntity
  8
1
  6
Continuous
 62
     2
100
AcDbLine
 10
69.44529602692037
 20
143.4832347300262
 30
0.0
 11
67.49055363983427
 21
148.3557579162336
 31
0.0
  0
LINE
  5
22C
330
22A
100
AcDbEntity
  8
1
  6
Continuous
 62
     2
100
AcDbLine
 10
105.9873024924623
 20
52.39615596702235
 30
0.0
 11
78.37118632027962
 21
121.2339564111738
 31
0.0
  0
SOLID
  5
22D
330
22A
100
AcDbEntity
  8
1
 62
     2
100
AcDbTrace
 10
80.10200114301483
 20
118.1571720986354
 30
0.0
 11
79.2466946803259
 21
117.8140431421023
 31
0.0
 12
78.37118632027962
 22
121.2339564111738
 32
0.0
 13
78.37118632027962
 23
121.2339564111738
 33
0.0
  0
SOLID
  5
22E
330
22A
100
AcDbEntity
  8
1
 62
     2
100
AcDbTrace
 10
67.71448120418516
 20
146.5600190425646
 30
0.0
 11
68.56978766687409
 21
146.9031479990977
 31
0.0
 12
69.44529602692037
 22
143.4832347300262
 32
0.0
 13
69.44529602692037
 23
143.4832347300262
 33
0.0
  0
MTEXT
  5
22F
330
22A
100
AcDbEntity
  8
1
 62
     2
100
AcDbMText
 10
99.47720438476519
 20
73.99521897049914
 30
0.0
 40
3.5
 41
0.0
 71
     7
 72
     1
  1
\C2;Fäserø\C2;24
  7
CONVERTER_11
 11
0.3723318832544967
 21
-0.928099654515699
 31
0.0
 73
     1
 44
0.60024009603842
  0
ENDBLK
  5
231
330
22A
100
AcDbEntity
  8
0
100
AcDbBlockEnd
  0
BLOCK
  5
239
330
233
100
AcDbEntity
  8
0
100
AcDbBlockBegin
  2
*D26
 70
     1
 71
     0
 10
0.0
 20
0.0
 30
0.0
  3
*D26
  1

  0
LINE
  5
234
330
233
100
AcDbEntity
  8
1
  6
Continuous
 62
     2
100
AcDbLine
 10
294.1427913408215
 20
142.2016521042387
 30
0.0
 11
291.1255643416818
 21
146.4980274644303
 31
0.0
  0
LINE
  5
235
330
233
100
AcDbEntity
  8
1
  6
Continuous
 62
     2
100
AcDbLine
 10
337.4292137123242
 20
80.56402306247398
 30
0.0
 11
307.9743518983785
 21
122.5062244849613
 31
0.0
  0
SOLID
  5
236
330
233
100
AcDbEntity
  8
1
 62
     2
100
AcDbTrace
 10
310.3629222622997
 20
119.9067912249834
 30
0.0
 11
309.6087508666434
 21
119.3771572646836
 31
0.0
 12
307.9743518983785
 22
122.5062244849613
 32
0.0
 13
307.9743518983785
 23
122.5062244849613
 33
0.0
  0
SOLID
  5
237
330
233
100
AcDbEntity
  8
1
 62
     2
100
AcDbTrace
 10
291.7542209769003
 20
144.8010853642166
 30
0.0
 11
292.5083923725565
 21
145.3307193245164
 31
0.0
 12
294.1427913408215
 22
142.2016521042387
 32
0.0
 13
294.1427913408215
 23
142.2016521042387
 33
0.0
  0
MTEXT
  5
238
330
233
100
AcDbEntity
  8
1
 62
     2
100
AcDbMText
 10
322.8533617265434
 20
104.7992998071
 30
0.0
 40
3.5
 41
0.0
 71
     7
 72
     1
  1
\C2;Fräserø¡\C2;24
  7
CONVERTER_11
 11
0.5747099045980463
 21
-0.8183572114650818
 31
0.0
 73
     1
 44
0.60024009603842
  0
ENDBLK
  5
23A
330
233
100
AcDbEntity
  8
0
100
AcDbBlockEnd
  0
ENDSEC
  0
SECTION
  2
ENTITIES
  0
POINT
  5
36
330
1F
100
AcDbEntity
  8
A_BEMASSUNGEN
 62
     7
100
AcDbPoint
 10
78.4312393437
 20
130.3510474915
 30
0.0
  0
POINT
  5
37
330
1F
100
AcDbEntity
  8
A_BEMASSUNGEN
 62
     7
100
AcDbPoint
 10
78.4312393437
 20
231.3510474915
 30
0.0
  0
POINT
  5
38
330
1F
100
AcDbEntity
  8
A_BEMASSUNGEN
 62
     7
100
AcDbPoint
 10
57.7784384269
 20
147.8510474915
 30
0.0
  0
POINT
  5
39
330
1F
100
AcDbEntity
  8
A_BEMASSUNGEN
 62
     7
100
AcDbPoint
 10
57.7784384269
 20
213.8510474915
 30
0.0
  0
POINT
  5
3A
330
1F
100
AcDbEntity
  8
A_BEMASSUNGEN
 62
     7
100
AcDbPoint
 10
57.7784384269
 20
147.8510474915
 30
0.0
  0
POINT
  5
3B
330
1F
100
AcDbEntity
  8
A_BEMASSUNGEN
 62
     7
100
AcDbPoint
 10
85.7784384269
 20
130.3510474915
 30
0.0
  0
POINT
  5
3C
330
1F
100
AcDbEntity
  8
A_BEMASSUNGEN
 62
     7
100
AcDbPoint
 10
61.7784384269
 20
147.3510474915
 30
0.0
  0
POINT
  5
3D
330
1F
100
AcDbEntity
  8
A_BEMASSUNGEN
 62
     7
100
AcDbPoint
 10
85.7784384269
 20
130.3510474915
 30
0.0
  0
POINT
  5
3E
330
1F
100
AcDbEntity
  8
A_BEMASSUNGEN
 62
     7
100
AcDbPoint
 10
420.7332239546
 20
133.8203989435
 30
0.0
  0
POINT
  5
3F
330
1F
100
AcDbEntity
  8
A_BEMASSUNGEN
 62
     7
100
AcDbPoint
 10
378.7332239546
 20
135.8203989435
 30
0.0
  0
POINT
  5
40
330
1F
100
AcDbEntity
  8
A_BEMASSUNGEN
 62
     7
100
AcDbPoint
 10
420.7332239546
 20
117.8203989435
 30
0.0
  0
POINT
  5
41
330
1F
100
AcDbEntity
  8
A_BEMASSUNGEN
 62
     7
100
AcDbPoint
 10
410.7332239546
 20
117.8203989435
 30
0.0
  0
POINT
  5
42
330
1F
100
AcDbEntity
  8
A_BEMASSUNGEN
 62
     7
100
AcDbPoint
 10
152.840761354
 20
118.3510474915
 30
0.0
  0
POINT
  5
43
330
1F
100
AcDbEntity
  8
A_BEMASSUNGEN
 62
     7
100
AcDbPoint
 10
122.840761354
 20
135.3520203692
 30
0.0
  0
POINT
  5
44
330
1F
100
AcDbEntity
  8
A_BEMASSUNGEN
 62
     7
100
AcDbPoint
 10
152.840761354
 20
118.3510474915
 30
0.0
  0
POINT
  5
45
330
1F
100
AcDbEntity
  8
A_BEMASSUNGEN
 62
     7
100
AcDbPoint
 10
142.840761354
 20
118.3520203692
 30
0.0
  0
POINT
  5
46
330
1F
100
AcDbEntity
  8
A_BEMASSUNGEN
 62
     7
100
AcDbPoint
 10
57.7284384269
 20
80.8510474915
 30
0.0
  0
POINT
  5
47
330
1F
100
AcDbEntity
  8
A_BEMASSUNGEN
 62
     7
100
AcDbPoint
 10
45.7284384269
 20
80.8510474915
 30
0.0
  0
POINT
  5
48
330
1F
100
AcDbEntity
  8
A_BEMASSUNGEN
 62
     7
100
AcDbPoint
 10
80.0312393437
 20
233.8510474915
 30
0.0
  0
POINT
  5
49
330
1F
100
AcDbEntity
  8
A_BEMASSUNGEN
 62
     7
100
AcDbPoint
 10
67.8312393437
 20
233.8510474915
 30
0.0
  0
POINT
  5
4A
330
1F
100
AcDbEntity
  8
A_BEMASSUNGEN
 62
     7
100
AcDbPoint
 10
73.7784384269
 20
118.3510474915
 30
0.0
  0
POINT
  5
4B
330
1F
100
AcDbEntity
  8
A_BEMASSUNGEN
 62
     7
100
AcDbPoint
 10
73.7784384269
 20
243.3510474915
 30
0.0
  0
POINT
  5
4C
330
1F
100
AcDbEntity
  8
A_BEMASSUNGEN
 62
     7
100
AcDbPoint
 10
63.3312393437
 20
132.3510474915
 30
0.0
  0
POINT
  5
4D
330
1F
100
AcDbEntity
  8
A_BEMASSUNGEN
 62
     7
100
AcDbPoint
 10
63.3312393437
 20
229.3510474915
 30
0.0
  0
POINT
  5
4E
330
1F
100
AcDbEntity
  8
A_BEMASSUNGEN
 62
     7
100
AcDbPoint
 10
73.7784384269
 20
135.3510474915
 30
0.0
  0
POINT
  5
4F
330
1F
100
AcDbEntity
  8
A_BEMASSUNGEN
 62
     7
100
AcDbPoint
 10
73.7784384269
 20
226.3510474915
 30
0.0
  0
POINT
  5
50
330
1F
100
AcDbEntity
  8
A_BEMASSUNGEN
 62
     7
100
AcDbPoint
 10
278.2223219151
 20
135.8203989435
 30
0.0
  0
POINT
  5
51
330
1F
100
AcDbEntity
  8
A_BEMASSUNGEN
 62
     7
100
AcDbPoint
 10
314.2223219151
 20
135.8203989435
 30
0.0
  0
POINT
  5
52
330
1F
100
AcDbEntity
  8
A_BEMASSUNGEN
 62
     7
100
AcDbPoint
 10
314.2223219151
 20
135.8203989435
 30
0.0
  0
POINT
  5
53
330
1F
100
AcDbEntity
  8
A_BEMASSUNGEN
 62
     7
100
AcDbPoint
 10
318.2223219151
 20
80.3203989435
 30
0.0
  0
POINT
  5
54
330
1F
100
AcDbEntity
  8
A_BEMASSUNGEN
 62
     7
100
AcDbPoint
 10
278.2223219151
 20
135.8203989435
 30
0.0
  0
POINT
  5
55
330
1F
100
AcDbEntity
  8
A_BEMASSUNGEN
 62
     7
100
AcDbPoint
 10
274.2223219151
 20
80.3203989435
 30
0.0
  0
POINT
  5
56
330
1F
100
AcDbEntity
  8
A_BEMASSUNGEN
 62
     7
100
AcDbPoint
 10
296.2223219151
 20
242.8203989435
 30
0.0
  0
POINT
  5
57
330
1F
100
AcDbEntity
  8
A_BEMASSUNGEN
 62
     7
100
AcDbPoint
 10
296.2223219151
 20
117.8203989435
 30
0.0
  0
POINT
  5
58
330
1F
100
AcDbEntity
  8
A_BEMASSUNGEN
 62
     7
100
AcDbPoint
 10
296.2223219151
 20
235.3203989435
 30
0.0
  0
POINT
  5
59
330
1F
100
AcDbEntity
  8
A_BEMASSUNGEN
 62
     7
100
AcDbPoint
 10
296.2223219151
 20
125.3203989435
 30
0.0
  0
POINT
  5
5A
330
1F
100
AcDbEntity
  8
A_BEMASSUNGEN
 62
     7
100
AcDbPoint
 10
296.2223219151
 20
228.3203989435
 30
0.0
  0
POINT
  5
5B
330
1F
100
AcDbEntity
  8
A_BEMASSUNGEN
 62
     7
100
AcDbPoint
 10
296.2223219151
 20
132.3203989435
 30
0.0
  0
POINT
  5
5C
330
1F
100
AcDbEntity
  8
A_BEMASSUNGEN
 62
     7
100
AcDbPoint
 10
302.2223219151
 20
224.8203989435
 30
0.0
  0
POINT
  5
5D
330
1F
100
AcDbEntity
  8
A_BEMASSUNGEN
 62
     7
100
AcDbPoint
 10
302.2223219151
 20
135.8203989435
 30
0.0
  0
LINE
  5
5E
330
1F
100
AcDbEntity
  8
0
  6
Continuous
 62
     7
100
AcDbLine
 10
360.7332239546
 20
280.3203989435
 30
0.0
 11
420.7332239546
 21
280.3203989435
 31
0.0
  0
LINE
  5
5F
330
1F
100
AcDbEntity
  8
0
  6
Continuous
 62
     7
100
AcDbLine
 10
420.7332239546
 20
242.8203989435
 30
0.0
 11
410.7332239546
 21
242.8203989435
 31
0.0
  0
LINE
  5
60
330
1F
100
AcDbEntity
  8
0
  6
Continuous
 62
     7
100
AcDbLine
 10
400.7332239546
 20
236.8203989435
 30
0.0
 11
410.7332239546
 21
236.8203989435
 31
0.0
  0
LINE
  5
61
330
1F
100
AcDbEntity
  8
A_ACHSEN
  6
DOT_CENTER
 62
     2
100
AcDbLine
 10
412.7332239546
 20
235.3203989435
 30
0.0
 11
398.7332239546
 21
235.3203989435
 31
0.0
  0
LINE
  5
62
330
1F
100
AcDbEntity
  8
0
  6
Continuous
 62
     7
100
AcDbLine
 10
400.7332239546
 20
233.8203989435
 30
0.0
 11
410.7332239546
 21
233.8203989435
 31
0.0
  0
LINE
  5
63
330
1F
100
AcDbEntity
  8
0
  6
Continuous
 62
     7
100
AcDbLine
 10
400.7332239546
 20
229.8203989435
 30
0.0
 11
410.7332239546
 21
229.8203989435
 31
0.0
  0
LINE
  5
64
330
1F
100
AcDbEntity
  8
A_ACHSEN
  6
DOT_CENTER
 62
     2
100
AcDbLine
 10
412.7332239546
 20
228.3203989435
 30
0.0
 11
398.7332239546
 21
228.3203989435
 31
0.0
  0
LINE
  5
65
330
1F
100
AcDbEntity
  8
0
  6
Continuous
 62
     7
100
AcDbLine
 10
400.7332239546
 20
226.8203989435
 30
0.0
 11
410.7332239546
 21
226.8203989435
 31
0.0
  0
LINE
  5
66
330
1F
100
AcDbEntity
  8
0
  6
Continuous
 62
     7
100
AcDbLine
 10
378.7332239546
 20
224.8203989435
 30
0.0
 11
410.7332239546
 21
224.8203989435
 31
0.0
  0
LINE
  5
67
330
1F
100
AcDbEntity
  8
A_ACHSEN
  6
CENTER_1
 62
     2
100
AcDbLine
 10
424.2332239546
 20
180.3203989435
 30
0.0
 11
424.2332239546
 21
180.7233519732
 31
0.0
  0
LINE
  5
68
330
1F
100
AcDbEntity
  8
A_ACHSEN
  6
CENTER_1
 62
     2
100
AcDbLine
 10
424.2332239546
 20
180.3203989435
 30
0.0
 11
424.2332239546
 21
180.1355273766
 31
0.0
  0
LINE
  5
69
330
1F
100
AcDbEntity
  8
0
  6
Continuous
 62
     7
100
AcDbLine
 10
420.7332239546
 20
80.3203989435
 30
0.0
 11
420.7332239546
 21
280.3203989435
 31
0.0
  0
LINE
  5
6A
330
1F
100
AcDbEntity
  8
A_ACHSEN
  6
DOT_CENTER
 62
     2
100
AcDbLine
 10
424.2332239546
 20
180.3203989435
 30
0.0
 11
356.9371047882
 21
180.3203989435
 31
0.0
  0
LINE
  5
6B
330
1F
100
AcDbEntity
  8
0
  6
Continuous
 62
     7
100
AcDbLine
 10
410.7332239546
 20
212.8203989435
 30
0.0
 11
410.7332239546
 21
242.8203989435
 31
0.0
  0
LINE
  5
6C
330
1F
100
AcDbEntity
  8
0
  6
Continuous
 62
     7
100
AcDbLine
 10
410.7332239546
 20
117.8203989435
 30
0.0
 11
410.7332239546
 21
147.8203989435
 31
0.0
  0
LINE
  5
6D
330
1F
100
AcDbEntity
  8
0
  6
Continuous
 62
     7
100
AcDbLine
 10
400.7332239546
 20
126.8203989435
 30
0.0
 11
400.7332239546
 21
123.8203989435
 31
0.0
  0
LINE
  5
6E
330
1F
100
AcDbEntity
  8
0
  6
Continuous
 62
     7
100
AcDbLine
 10
400.7332239546
 20
133.8203989435
 30
0.0
 11
400.7332239546
 21
130.8203989435
 31
0.0
  0
LINE
  5
6F
330
1F
100
AcDbEntity
  8
0
  6
Continuous
 62
     7
100
AcDbLine
 10
400.7332239546
 20
229.8203989435
 30
0.0
 11
400.7332239546
 21
226.8203989435
 31
0.0
  0
LINE
  5
70
330
1F
100
AcDbEntity
  8
0
  6
Continuous
 62
     7
100
AcDbLine
 10
400.7332239546
 20
236.8203989435
 30
0.0
 11
400.7332239546
 21
233.8203989435
 31
0.0
  0
LINE
  5
71
330
1F
100
AcDbEntity
  8
0
  6
Continuous
 62
     7
100
AcDbLine
 10
378.7332239546
 20
224.8203989435
 30
0.0
 11
378.7332239546
 21
135.8203989435
 31
0.0
  0
LINE
  5
72
330
1F
100
AcDbEntity
  8
0
  6
Continuous
 62
     7
100
AcDbLine
 10
378.7332239546
 20
135.8203989435
 30
0.0
 11
410.7332239546
 21
135.8203989435
 31
0.0
  0
LINE
  5
73
330
1F
100
AcDbEntity
  8
0
  6
Continuous
 62
     7
100
AcDbLine
 10
400.7332239546
 20
133.8203989435
 30
0.0
 11
410.7332239546
 21
133.8203989435
 31
0.0
  0
LINE
  5
74
330
1F
100
AcDbEntity
  8
A_ACHSEN
  6
DOT_CENTER
 62
     2
100
AcDbLine
 10
412.7332239546
 20
132.3203989435
 30
0.0
 11
398.7332239546
 21
132.3203989435
 31
0.0
  0
LINE
  5
75
330
1F
100
AcDbEntity
  8
0
  6
Continuous
 62
     7
100
AcDbLine
 10
400.7332239546
 20
130.8203989435
 30
0.0
 11
410.7332239546
 21
130.8203989435
 31
0.0
  0
LINE
  5
76
330
1F
100
AcDbEntity
  8
0
  6
Continuous
 62
     7
100
AcDbLine
 10
360.7332239546
 20
80.3203989435
 30
0.0
 11
360.7332239546
 21
280.3203989435
 31
0.0
  0
LINE
  5
77
330
1F
100
AcDbEntity
  8
0
  6
Continuous
 62
     7
100
AcDbLine
 10
400.7332239546
 20
126.8203989435
 30
0.0
 11
410.7332239546
 21
126.8203989435
 31
0.0
  0
LINE
  5
78
330
1F
100
AcDbEntity
  8
A_ACHSEN
  6
DOT_CENTER
 62
     2
100
AcDbLine
 10
412.7332239546
 20
125.3203989435
 30
0.0
 11
398.7332239546
 21
125.3203989435
 31
0.0
  0
LINE
  5
79
330
1F
100
AcDbEntity
  8
0
  6
Continuous
 62
     7
100
AcDbLine
 10
400.7332239546
 20
123.8203989435
 30
0.0
 11
410.7332239546
 21
123.8203989435
 31
0.0
  0
LINE
  5
7A
330
1F
100
AcDbEntity
  8
0
  6
Continuous
 62
     7
100
AcDbLine
 10
420.7332239546
 20
117.8203989435
 30
0.0
 11
410.7332239546
 21
117.8203989435
 31
0.0
  0
LINE
  5
7B
330
1F
100
AcDbEntity
  8
0
  6
Continuous
 62
     7
100
AcDbLine
 10
360.7332239546
 20
80.3203989435
 30
0.0
 11
420.7332239546
 21
80.3203989435
 31
0.0
  0
LINE
  5
7C
330
1F
100
AcDbEntity
  8
0
  6
Continuous
 62
     7
100
AcDbLine
 10
117.840761354
 20
280.8510474915
 30
0.0
 11
162.840761354
 21
280.8510474915
 31
0.0
  0
LINE
  5
7D
330
1F
100
AcDbEntity
  8
0
  6
Continuous
 62
     7
100
AcDbLine
 10
152.840761354
 20
243.3500746137
 30
0.0
 11
142.840761354
 21
243.3500746137
 31
0.0
  0
LINE
  5
7E
330
1F
100
AcDbEntity
  8
0
  6
Continuous
 62
     7
100
AcDbLine
 10
132.840761354
 20
232.8510474915
 30
0.0
 11
142.840761354
 21
232.8510474915
 31
0.0
  0
LINE
  5
7F
330
1F
100
AcDbEntity
  8
A_ACHSEN
  6
DOT_CENTER
 62
     2
100
AcDbLine
 10
144.840761354
 20
231.3510474915
 30
0.0
 11
130.840761354
 21
231.3510474915
 31
0.0
  0
LINE
  5
80
330
1F
100
AcDbEntity
  8
0
  6
Continuous
 62
     7
100
AcDbLine
 10
132.840761354
 20
229.8510474915
 30
0.0
 11
142.840761354
 21
229.8510474915
 31
0.0
  0
LINE
  5
81
330
1F
100
AcDbEntity
  8
0
  6
Continuous
 62
     7
100
AcDbLine
 10
122.840761354
 20
226.3500746137
 30
0.0
 11
142.840761354
 21
226.3500746137
 31
0.0
  0
LINE
  5
82
330
1F
100
AcDbEntity
  8
A_ACHSEN
  6
CENTER_1
 62
     2
100
AcDbLine
 10
152.840761354
 20
180.8510474915
 30
0.0
 11
164.179485406
 21
180.8510474915
 31
0.0
  0
LINE
  5
83
330
1F
100
AcDbEntity
  8
A_ACHSEN
  6
DOT_CENTER
 62
     2
100
AcDbLine
 10
152.840761354
 20
180.8510474915
 30
0.0
 11
115.575807767
 21
180.8510474915
 31
0.0
  0
LINE
  5
84
330
1F
100
AcDbEntity
  8
0
  6
Continuous
 62
     7
100
AcDbLine
 10
162.840761354
 20
80.8510474915
 30
0.0
 11
162.840761354
 21
280.8510474915
 31
0.0
  0
LINE
  5
85
330
1F
100
AcDbEntity
  8
0
  6
Continuous
 62
     7
100
AcDbLine
 10
152.840761354
 20
80.8510474915
 30
0.0
 11
152.840761354
 21
280.8510474915
 31
0.0
  0
LINE
  5
86
330
1F
100
AcDbEntity
  8
A_ACHSEN
  6
CENTER_1
 62
     2
100
AcDbLine
 10
152.840761354
 20
180.8510474915
 30
0.0
 11
152.840761354
 21
183.8511474915
 31
0.0
  0
LINE
  5
87
330
1F
100
AcDbEntity
  8
A_ACHSEN
  6
CENTER_1
 62
     2
100
AcDbLine
 10
152.840761354
 20
180.8510474915
 30
0.0
 11
152.840761354
 21
177.8509474915
 31
0.0
  0
LINE
  5
88
330
1F
100
AcDbEntity
  8
0
  6
Continuous
 62
     7
100
AcDbLine
 10
142.840761354
 20
214.3510474915
 30
0.0
 11
142.840761354
 21
243.3500746137
 31
0.0
  0
LINE
  5
89
330
1F
100
AcDbEntity
  8
0
  6
Continuous
 62
     7
100
AcDbLine
 10
142.840761354
 20
118.3520203692
 30
0.0
 11
142.840761354
 21
147.3510474915
 31
0.0
  0
LINE
  5
8A
330
1F
100
AcDbEntity
  8
0
  6
Continuous
 62
     7
100
AcDbLine
 10
132.840761354
 20
229.8510474915
 30
0.0
 11
132.840761354
 21
232.8510474915
 31
0.0
  0
LINE
  5
8B
330
1F
100
AcDbEntity
  8
0
  6
Continuous
 62
     7
100
AcDbLine
 10
132.840761354
 20
128.8510474915
 30
0.0
 11
132.840761354
 21
131.8510474915
 31
0.0
  0
LINE
  5
8C
330
1F
100
AcDbEntity
  8
0
  6
Continuous
 62
     7
100
AcDbLine
 10
122.840761354
 20
135.3520203692
 30
0.0
 11
142.840761354
 21
135.3520203692
 31
0.0
  0
LINE
  5
8D
330
1F
100
AcDbEntity
  8
0
  6
Continuous
 62
     7
100
AcDbLine
 10
132.840761354
 20
131.8510474915
 30
0.0
 11
142.840761354
 21
131.8510474915
 31
0.0
  0
LINE
  5
8E
330
1F
100
AcDbEntity
  8
A_ACHSEN
  6
DOT_CENTER
 62
     2
100
AcDbLine
 10
144.840761354
 20
130.3510474915
 30
0.0
 11
130.840761354
 21
130.3510474915
 31
0.0
  0
LINE
  5
8F
330
1F
100
AcDbEntity
  8
0
  6
Continuous
 62
     7
100
AcDbLine
 10
122.840761354
 20
135.3520203692
 30
0.0
 11
122.840761354
 21
226.3500746137
 31
0.0
  0
LINE
  5
90
330
1F
100
AcDbEntity
  8
0
  6
Continuous
 62
     7
100
AcDbLine
 10
117.840761354
 20
80.8510474915
 30
0.0
 11
117.840761354
 21
280.8510474915
 31
0.0
  0
LINE
  5
91
330
1F
100
AcDbEntity
  8
0
  6
Continuous
 62
     7
100
AcDbLine
 10
132.840761354
 20
128.8510474915
 30
0.0
 11
142.840761354
 21
128.8510474915
 31
0.0
  0
LINE
  5
92
330
1F
100
AcDbEntity
  8
0
  6
Continuous
 62
     7
100
AcDbLine
 10
152.840761354
 20
118.3520203692
 30
0.0
 11
142.840761354
 21
118.3520203692
 31
0.0
  0
LINE
  5
93
330
1F
100
AcDbEntity
  8
0
  6
Continuous
 62
     7
100
AcDbLine
 10
117.840761354
 20
80.8510474915
 30
0.0
 11
162.840761354
 21
80.8510474915
 31
0.0
  0
LINE
  5
94
330
1F
100
AcDbEntity
  8
0
  6
Continuous
 62
     7
100
AcDbLine
 10
57.7784384269
 20
280.8510474915
 30
0.0
 11
107.7784384269
 21
280.8510474915
 31
0.0
  0
LINE
  5
95
330
1F
100
AcDbEntity
  8
0
  6
Continuous
 62
     7
100
AcDbLine
 10
45.7284384269
 20
280.8510474915
 30
0.0
 11
57.7284384269
 21
280.8510474915
 31
0.0
  0
LINE
  5
96
330
1F
100
AcDbEntity
  8
A_ACHSEN
  6
DOT_CENTER
 62
     2
100
AcDbLine
 10
73.9312393437
 20
231.3510474915
 30
0.0
 11
78.4312393437
 21
231.3510474915
 31
0.0
  0
LINE
  5
97
330
1F
100
AcDbEntity
  8
A_ACHSEN
  6
DOT_CENTER
 62
     2
100
AcDbLine
 10
70.9311393437
 20
231.3510474915
 30
0.0
 11
69.4312393437
 21
231.3510474915
 31
0.0
  0
LINE
  5
98
330
1F
100
AcDbEntity
  8
A_ACHSEN
  6
DOT_CENTER
 62
     2
100
AcDbLine
 10
73.9312393437
 20
231.3510474915
 30
0.0
 11
70.9311393437
 21
231.3510474915
 31
0.0
  0
LINE
  5
99
330
1F
100
AcDbEntity
  8
A_ACHSEN
  6
DOT_CENTER
 62
     2
100
AcDbLine
 10
80.0312393437
 20
229.3510474915
 30
0.0
 11
84.5312393437
 21
229.3510474915
 31
0.0
  0
LINE
  5
9A
330
1F
100
AcDbEntity
  8
A_ACHSEN
  6
DOT_CENTER
 62
     2
100
AcDbLine
 10
67.8312393437
 20
229.3510474915
 30
0.0
 11
72.3312393437
 21
229.3510474915
 31
0.0
  0
LINE
  5
9B
330
1F
100
AcDbEntity
  8
A_ACHSEN
  6
DOT_CENTER
 62
     2
100
AcDbLine
 10
64.8311393437
 20
229.3510474915
 30
0.0
 11
63.3312393437
 21
229.3510474915
 31
0.0
  0
LINE
  5
9C
330
1F
100
AcDbEntity
  8
A_ACHSEN
  6
DOT_CENTER
 62
     2
100
AcDbLine
 10
67.8312393437
 20
229.3510474915
 30
0.0
 11
64.8311393437
 21
229.3510474915
 31
0.0
  0
LINE
  5
9D
330
1F
100
AcDbEntity
  8
A_ACHSEN
  6
DOT_CENTER
 62
     2
100
AcDbLine
 10
77.0311393437
 20
229.3510474915
 30
0.0
 11
75.5312393437
 21
229.3510474915
 31
0.0
  0
LINE
  5
9E
330
1F
100
AcDbEntity
  8
A_ACHSEN
  6
DOT_CENTER
 62
     2
100
AcDbLine
 10
80.0312393437
 20
229.3510474915
 30
0.0
 11
77.0311393437
 21
229.3510474915
 31
0.0
  0
LINE
  5
9F
330
1F
100
AcDbEntity
  8
0
  6
Continuous
 62
     7
100
AcDbLine
 10
57.7784384269
 20
213.8510474915
 30
0.0
 11
61.7784384269
 21
213.8510474915
 31
0.0
  0
LINE
  5
A0
330
1F
100
AcDbEntity
  8
0
  6
Continuous
 62
     7
100
AcDbLine
 10
107.7784384269
 20
80.8510474915
 30
0.0
 11
107.7784384269
 21
280.8510474915
 31
0.0
  0
LINE
  5
A1
330
1F
100
AcDbEntity
  8
0
  6
Continuous
 62
     7
100
AcDbLine
 10
88.7784384269
 20
80.8510474915
 30
0.0
 11
88.7784384269
 21
280.8510474915
 31
0.0
  0
LINE
  5
A2
330
1F
100
AcDbEntity
  8
0
  6
Continuous
 62
     7
100
AcDbLine
 10
85.7784384269
 20
231.3510474915
 30
0.0
 11
85.7784384269
 21
130.3510474915
 31
0.0
  0
LINE
  5
A3
330
1F
100
AcDbEntity
  8
A_ACHSEN
  6
DOT_CENTER
 62
     2
100
AcDbLine
 10
80.0312393437
 20
232.3511474915
 30
0.0
 11
80.0312393437
 21
233.8510474915
 31
0.0
  0
LINE
  5
A4
330
1F
100
AcDbEntity
  8
A_ACHSEN
  6
DOT_CENTER
 62
     2
100
AcDbLine
 10
80.0312393437
 20
229.3510474915
 30
0.0
 11
80.0312393437
 21
232.3511474915
 31
0.0
  0
LINE
  5
A5
330
1F
100
AcDbEntity
  8
A_ACHSEN
  6
CENTER_1
 62
     2
100
AcDbLine
 10
80.0312393437
 20
135.3511474915
 30
0.0
 11
80.0312393437
 21
136.8510474915
 31
0.0
  0
LINE
  5
A6
330
1F
100
AcDbEntity
  8
A_ACHSEN
  6
DOT_CENTER
 62
     2
100
AcDbLine
 10
80.0312393437
 20
132.3510474915
 30
0.0
 11
80.0312393437
 21
135.3511474915
 31
0.0
  0
LINE
  5
A7
330
1F
100
AcDbEntity
  8
A_ACHSEN
  6
DOT_CENTER
 62
     2
100
AcDbLine
 10
80.0312393437
 20
132.3510474915
 30
0.0
 11
80.0312393437
 21
127.8510474915
 31
0.0
  0
LINE
  5
A8
330
1F
100
AcDbEntity
  8
A_ACHSEN
  6
DOT_CENTER
 62
     2
100
AcDbLine
 10
80.0312393437
 20
229.3510474915
 30
0.0
 11
80.0312393437
 21
224.8510474915
 31
0.0
  0
LINE
  5
A9
330
1F
100
AcDbEntity
  8
A_ACHSEN
  6
DOT_CENTER
 62
     2
100
AcDbLine
 10
93.1393113314
 20
180.8510474915
 30
0.0
 11
43.7284384269
 21
180.8510474915
 31
0.0
  0
LINE
  5
AA
330
1F
100
AcDbEntity
  8
A_ACHSEN
  6
DOT_CENTER
 62
     2
100
AcDbLine
 10
109.7784384269
 20
180.8510474915
 30
0.0
 11
100.7964122488
 21
180.8510474915
 31
0.0
  0
LINE
  5
AB
330
1F
100
AcDbEntity
  8
A_ACHSEN
  6
DOT_CENTER
 62
     2
100
AcDbLine
 10
73.9312393437
 20
234.3511474915
 30
0.0
 11
73.9312393437
 21
245.4218780339
 31
0.0
  0
LINE
  5
AC
330
1F
100
AcDbEntity
  8
A_ACHSEN
  6
DOT_CENTER
 62
     2
100
AcDbLine
 10
73.9312393437
 20
231.3510474915
 30
0.0
 11
73.9312393437
 21
234.3511474915
 31
0.0
  0
LINE
  5
AD
330
1F
100
AcDbEntity
  8
A_ACHSEN
  6
DOT_CENTER
 62
     2
100
AcDbLine
 10
73.9312393437
 20
133.3511474915
 30
0.0
 11
73.9312393437
 21
226.8510474915
 31
0.0
  0
LINE
  5
AE
330
1F
100
AcDbEntity
  8
A_ACHSEN
  6
DOT_CENTER
 62
     2
100
AcDbLine
 10
73.9312393437
 20
130.3510474915
 30
0.0
 11
73.9312393437
 21
133.3511474915
 31
0.0
  0
LINE
  5
AF
330
1F
100
AcDbEntity
  8
A_ACHSEN
  6
DOT_CENTER
 62
     2
100
AcDbLine
 10
73.9312393437
 20
130.3510474915
 30
0.0
 11
73.9312393437
 21
113.1564233898
 31
0.0
  0
LINE
  5
B0
330
1F
100
AcDbEntity
  8
A_ACHSEN
  6
DOT_CENTER
 62
     2
100
AcDbLine
 10
73.9312393437
 20
231.3510474915
 30
0.0
 11
73.9312393437
 21
226.8510474915
 31
0.0
  0
LINE
  5
B1
330
1F
100
AcDbEntity
  8
A_ACHSEN
  6
DOT_CENTER
 62
     2
100
AcDbLine
 10
67.8312393437
 20
232.3511474915
 30
0.0
 11
67.8312393437
 21
233.8510474915
 31
0.0
  0
LINE
  5
B2
330
1F
100
AcDbEntity
  8
A_ACHSEN
  6
DOT_CENTER
 62
     2
100
AcDbLine
 10
67.8312393437
 20
229.3510474915
 30
0.0
 11
67.8312393437
 21
232.3511474915
 31
0.0
  0
LINE
  5
B3
330
1F
100
AcDbEntity
  8
A_ACHSEN
  6
CENTER_1
 62
     2
100
AcDbLine
 10
67.8312393437
 20
135.3511474915
 30
0.0
 11
67.8312393437
 21
136.8510474915
 31
0.0
  0
LINE
  5
B4
330
1F
100
AcDbEntity
  8
A_ACHSEN
  6
DOT_CENTER
 62
     2
100
AcDbLine
 10
67.8312393437
 20
132.3510474915
 30
0.0
 11
67.8312393437
 21
135.3511474915
 31
0.0
  0
LINE
  5
B5
330
1F
100
AcDbEntity
  8
A_ACHSEN
  6
DOT_CENTER
 62
     2
100
AcDbLine
 10
67.8312393437
 20
132.3510474915
 30
0.0
 11
67.8312393437
 21
127.8510474915
 31
0.0
  0
LINE
  5
B6
330
1F
100
AcDbEntity
  8
A_ACHSEN
  6
DOT_CENTER
 62
     2
100
AcDbLine
 10
67.8312393437
 20
229.3510474915
 30
0.0
 11
67.8312393437
 21
224.8510474915
 31
0.0
  0
LINE
  5
B7
330
1F
100
AcDbEntity
  8
0
  6
Continuous
 62
     7
100
AcDbLine
 10
61.7784384269
 20
213.8510474915
 30
0.0
 11
61.7784384269
 21
231.3510474915
 31
0.0
  0
LINE
  5
B8
330
1F
100
AcDbEntity
  8
0
  6
Continuous
 62
     7
100
AcDbLine
 10
61.7784384269
 20
130.3510474915
 30
0.0
 11
61.7784384269
 21
147.8510474915
 31
0.0
  0
LINE
  5
B9
330
1F
100
AcDbEntity
  8
0
  6
Continuous
 62
     7
100
AcDbLine
 10
61.7784384269
 20
214.3510474915
 30
0.0
 11
61.7784384269
 21
147.3510474915
 31
0.0
  0
LINE
  5
BA
330
1F
100
AcDbEntity
  8
0
  6
Continuous
 62
     7
100
AcDbLine
 10
57.7784384269
 20
80.8510474915
 30
0.0
 11
57.7784384269
 21
280.8510474915
 31
0.0
  0
LINE
  5
BB
330
1F
100
AcDbEntity
  8
0
  6
Continuous
 62
     7
100
AcDbLine
 10
45.7284384269
 20
80.8510474915
 30
0.0
 11
45.7284384269
 21
280.8510474915
 31
0.0
  0
LINE
  5
BC
330
1F
100
AcDbEntity
  8
0
  6
Continuous
 62
     7
100
AcDbLine
 10
57.7784384269
 20
147.8510474915
 30
0.0
 11
61.7784384269
 21
147.8510474915
 31
0.0
  0
LINE
  5
BD
330
1F
100
AcDbEntity
  8
A_ACHSEN
  6
DOT_CENTER
 62
     2
100
AcDbLine
 10
80.0312393437
 20
132.3510474915
 30
0.0
 11
84.5312393437
 21
132.3510474915
 31
0.0
  0
LINE
  5
BE
330
1F
100
AcDbEntity
  8
A_ACHSEN
  6
DOT_CENTER
 62
     2
100
AcDbLine
 10
67.8312393437
 20
132.3510474915
 30
0.0
 11
72.3312393437
 21
132.3510474915
 31
0.0
  0
LINE
  5
BF
330
1F
100
AcDbEntity
  8
A_ACHSEN
  6
CENTER_1
 62
     2
100
AcDbLine
 10
64.8311393437
 20
132.3510474915
 30
0.0
 11
63.3312393437
 21
132.3510474915
 31
0.0
  0
LINE
  5
C0
330
1F
100
AcDbEntity
  8
A_ACHSEN
  6
DOT_CENTER
 62
     2
100
AcDbLine
 10
67.8312393437
 20
132.3510474915
 30
0.0
 11
64.8311393437
 21
132.3510474915
 31
0.0
  0
LINE
  5
C1
330
1F
100
AcDbEntity
  8
A_ACHSEN
  6
CENTER_1
 62
     2
100
AcDbLine
 10
77.0311393437
 20
132.3510474915
 30
0.0
 11
75.5312393437
 21
132.3510474915
 31
0.0
  0
LINE
  5
C2
330
1F
100
AcDbEntity
  8
A_ACHSEN
  6
DOT_CENTER
 62
     2
100
AcDbLine
 10
80.0312393437
 20
132.3510474915
 30
0.0
 11
77.0311393437
 21
132.3510474915
 31
0.0
  0
LINE
  5
C3
330
1F
100
AcDbEntity
  8
A_ACHSEN
  6
DOT_CENTER
 62
     2
100
AcDbLine
 10
73.9312393437
 20
130.3510474915
 30
0.0
 11
78.4312393437
 21
130.3510474915
 31
0.0
  0
LINE
  5
C4
330
1F
100
AcDbEntity
  8
A_ACHSEN
  6
CENTER_1
 62
     2
100
AcDbLine
 10
70.9311393437
 20
130.3510474915
 30
0.0
 11
69.4312393437
 21
130.3510474915
 31
0.0
  0
LINE
  5
C5
330
1F
100
AcDbEntity
  8
A_ACHSEN
  6
DOT_CENTER
 62
     2
100
AcDbLine
 10
73.9312393437
 20
130.3510474915
 30
0.0
 11
70.9311393437
 21
130.3510474915
 31
0.0
  0
LINE
  5
C6
330
1F
100
AcDbEntity
  8
0
  6
Continuous
 62
     7
100
AcDbLine
 10
57.7784384269
 20
80.8510474915
 30
0.0
 11
107.7784384269
 21
80.8510474915
 31
0.0
  0
LINE
  5
C7
330
1F
100
AcDbEntity
  8
0
  6
Continuous
 62
     7
100
AcDbLine
 10
45.7284384269
 20
80.8510474915
 30
0.0
 11
57.7284384269
 21
80.8510474915
 31
0.0
  0
LINE
  5
C8
330
1F
100
AcDbEntity
  8
0
  6
Continuous
 62
     7
100
AcDbLine
 10
209.3149200769
 20
149.8091234037
 30
0.0
 11
269.3149200769
 21
149.8091234037
 31
0.0
  0
LINE
  5
C9
330
1F
100
AcDbEntity
  8
0
  6
Continuous
 62
     7
100
AcDbLine
 10
209.3149200769
 20
153.8091234037
 30
0.0
 11
251.3149200769
 21
153.8091234037
 31
0.0
  0
LINE
  5
CA
330
1F
100
AcDbEntity
  8
0
  6
Continuous
 62
     7
100
AcDbLine
 10
219.3149200769
 20
189.8091234037
 30
0.0
 11
219.3149200769
 21
153.8091234037
 31
0.0
  0
LINE
  5
CB
330
1F
100
AcDbEntity
  8
0
  6
Continuous
 62
     7
100
AcDbLine
 10
209.3149200769
 20
189.8091234037
 30
0.0
 11
251.3149200769
 21
189.8091234037
 31
0.0
  0
LINE
  5
CC
330
1F
100
AcDbEntity
  8
0
  6
Continuous
 62
     7
100
AcDbLine
 10
269.3149200769001
 20
193.8091234037
 30
0.0
 11
209.3149200769
 21
193.8091234037
 31
0.0
  0
LINE
  5
CD
330
1F
100
AcDbEntity
  8
0
  6
Continuous
 62
     7
100
AcDbLine
 10
251.3149200769
 20
153.8091234037
 30
0.0
 11
251.3149200769
 21
189.8091234037
 31
0.0
  0
LINE
  5
CE
330
1F
100
AcDbEntity
  8
0
  6
Continuous
 62
     7
100
AcDbLine
 10
269.3149200769
 20
149.8091234037
 30
0.0
 11
269.3149200769001
 21
193.8091234037
 31
0.0
  0
LINE
  5
CF
330
1F
100
AcDbEntity
  8
0
  6
Continuous
 62
     7
100
AcDbLine
 10
170.8149200769
 20
215.8591234037
 30
0.0
 11
170.8149200769
 21
161.8591234037
 31
0.0
  0
LINE
  5
D0
330
1F
100
AcDbEntity
  8
0
  6
Continuous
 62
     7
100
AcDbLine
 10
170.8149200769
 20
161.8091234037
 30
0.0
 11
170.8149200769
 21
149.8091234037
 31
0.0
  0
LINE
  5
D1
330
1F
100
AcDbEntity
  8
0
  6
Continuous
 62
     7
100
AcDbLine
 10
175.8149200769
 20
165.8591234037
 30
0.0
 11
175.8149200769
 21
189.8591234037
 31
0.0
  0
LINE
  5
D2
330
1F
100
AcDbEntity
  8
0
  6
Continuous
 62
     7
100
AcDbLine
 10
170.8149200769
 20
149.8091234037
 30
0.0
 11
205.8149200769
 21
149.8091234037
 31
0.0
  0
LINE
  5
D3
330
1F
100
AcDbEntity
  8
0
  6
Continuous
 62
     7
100
AcDbLine
 10
195.8149200769
 20
161.8591234037
 30
0.0
 11
195.8149200769
 21
189.8591234037
 31
0.0
  0
LINE
  5
D4
330
1F
100
AcDbEntity
  8
0
  6
Continuous
 62
     7
100
AcDbLine
 10
205.8149200769
 20
161.8091234037
 30
0.0
 11
170.8149200769
 21
161.8091234037
 31
0.0
  0
LINE
  5
D5
330
1F
100
AcDbEntity
  8
0
  6
Continuous
 62
     7
100
AcDbLine
 10
170.8149200769
 20
161.8591234037
 30
0.0
 11
205.8149200769
 21
161.8591234037
 31
0.0
  0
LINE
  5
D6
330
1F
100
AcDbEntity
  8
0
  6
Continuous
 62
     7
100
AcDbLine
 10
175.8149200769
 20
165.8591234037
 30
0.0
 11
205.8149200769
 21
165.8591234037
 31
0.0
  0
LINE
  5
D7
330
1F
100
AcDbEntity
  8
0
  6
Continuous
 62
     7
100
AcDbLine
 10
205.8149200769
 20
149.8091234037
 30
0.0
 11
205.8149200769
 21
161.8091234037
 31
0.0
  0
LINE
  5
D8
330
1F
100
AcDbEntity
  8
0
  6
Continuous
 62
     7
100
AcDbLine
 10
205.8149200769
 20
161.8591234037
 30
0.0
 11
205.8149200769
 21
196.8591234037
 31
0.0
  0
LINE
  5
D9
330
1F
100
AcDbEntity
  8
0
  6
Continuous
 62
     7
100
AcDbLine
 10
209.3149200769
 20
149.8091234037
 30
0.0
 11
209.3149200769
 21
193.8091234037
 31
0.0
  0
LINE
  5
DA
330
1F
100
AcDbEntity
  8
0
  6
Continuous
 62
     7
100
AcDbLine
 10
214.3413680836
 20
195.7591234037
 30
0.0
 11
214.0443864561
 21
195.0119243204
 31
0.0
  0
LINE
  5
DB
330
1F
100
AcDbEntity
  8
0
  6
Continuous
 62
     7
100
AcDbLine
 10
214.7230187708
 20
194.0119243204
 30
0.0
 11
215.8149200769
 21
196.7591234037
 31
0.0
  0
LINE
  5
DC
330
1F
100
AcDbEntity
  8
0
  6
Continuous
 62
     7
100
AcDbLine
 10
205.8149200769
 20
196.7591234037
 30
0.0
 11
206.8148187708
 21
194.0119243204
 31
0.0
  0
LINE
  5
DD
330
1F
100
AcDbEntity
  8
0
  6
Continuous
 62
     7
100
AcDbLine
 10
207.515026309
 20
195.0119243204
 30
0.0
 11
207.2430680836001
 21
195.7591234037
 31
0.0
  0
LINE
  5
DE
330
1F
100
AcDbEntity
  8
0
  6
Continuous
 62
     7
100
AcDbLine
 10
215.8149200769
 20
196.8591234037
 30
0.0
 11
215.8149200769
 21
215.8591234037
 31
0.0
  0
LINE
  5
DF
330
1F
100
AcDbEntity
  8
0
  6
Continuous
 62
     7
100
AcDbLine
 10
205.8149200769
 20
189.8591234037
 30
0.0
 11
175.8149200769
 21
189.8591234037
 31
0.0
  0
LINE
  5
E0
330
1F
100
AcDbEntity
  8
0
  6
Continuous
 62
     7
100
AcDbLine
 10
206.8148187708
 20
194.0119243204
 30
0.0
 11
214.7230187708
 21
194.0119243204
 31
0.0
  0
LINE
  5
E1
330
1F
100
AcDbEntity
  8
0
  6
Continuous
 62
     7
100
AcDbLine
 10
214.0443864561
 20
195.0119243204
 30
0.0
 11
207.515026309
 21
195.0119243204
 31
0.0
  0
LINE
  5
E2
330
1F
100
AcDbEntity
  8
0
  6
Continuous
 62
     7
100
AcDbLine
 10
207.2430680836001
 20
195.7591234037
 30
0.0
 11
214.3413680836
 21
195.7591234037
 31
0.0
  0
LINE
  5
E3
330
1F
100
AcDbEntity
  8
0
  6
Continuous
 62
     7
100
AcDbLine
 10
215.8149200769
 20
196.7591234037
 30
0.0
 11
205.8149200769
 21
196.7591234037
 31
0.0
  0
LINE
  5
E4
330
1F
100
AcDbEntity
  8
0
  6
Continuous
 62
     7
100
AcDbLine
 10
205.8149200769
 20
196.8591234037
 30
0.0
 11
215.8149200769
 21
196.8591234037
 31
0.0
  0
LINE
  5
E5
330
1F
100
AcDbEntity
  8
0
  6
Continuous
 62
     7
100
AcDbLine
 10
215.8149200769
 20
215.8591234037
 30
0.0
 11
170.8149200769
 21
215.8591234037
 31
0.0
  0
LINE
  5
E6
330
1F
100
AcDbEntity
  8
0
  6
Continuous
 62
     7
100
AcDbLine
 10
274.2223219151
 20
80.3203989435
 30
0.0
 11
318.2223219151
 21
80.3203989435
 31
0.0
  0
LINE
  5
E7
330
1F
100
AcDbEntity
  8
A_ACHSEN
  6
DOT_CENTER
 62
     2
100
AcDbLine
 10
296.2223219151
 20
125.3203989435
 30
0.0
 11
291.7223219151
 21
125.3203989435
 31
0.0
  0
LINE
  5
E8
330
1F
100
AcDbEntity
  8
A_ACHSEN
  6
DOT_CENTER
 62
     2
100
AcDbLine
 10
296.2223219151
 20
125.3203989435
 30
0.0
 11
300.7223219151
 21
125.3203989435
 31
0.0
  0
LINE
  5
E9
330
1F
100
AcDbEntity
  8
A_ACHSEN
  6
DOT_CENTER
 62
     2
100
AcDbLine
 10
296.2223219151
 20
132.3203989435
 30
0.0
 11
291.7223219151
 21
132.3203989435
 31
0.0
  0
LINE
  5
EA
330
1F
100
AcDbEntity
  8
A_ACHSEN
  6
DOT_CENTER
 62
     2
100
AcDbLine
 10
296.2223219151
 20
132.3203989435
 30
0.0
 11
300.7223219151
 21
132.3203989435
 31
0.0
  0
LINE
  5
EB
330
1F
100
AcDbEntity
  8
0
  6
Continuous
 62
     7
100
AcDbLine
 10
290.2223219151
 20
135.8203989435
 30
0.0
 11
302.2223219151
 21
135.8203989435
 31
0.0
  0
LINE
  5
EC
330
1F
100
AcDbEntity
  8
0
  6
Continuous
 62
     7
100
AcDbLine
 10
274.2223219151
 20
80.3203989435
 30
0.0
 11
274.2223219151
 21
280.3203989435
 31
0.0
  0
LINE
  5
ED
330
1F
100
AcDbEntity
  8
0
  6
Continuous
 62
     7
100
AcDbLine
 10
278.2223219151
 20
135.8203989435
 30
0.0
 11
278.2223219151
 21
224.8203989435
 31
0.0
  0
LINE
  5
EE
330
1F
100
AcDbEntity
  8
A_ACHSEN
  6
DOT_CENTER
 62
     2
100
AcDbLine
 10
296.2223219151
 20
235.3203989435
 30
0.0
 11
296.2223219151
 21
230.8203989435
 31
0.0
  0
LINE
  5
EF
330
1F
100
AcDbEntity
  8
A_ACHSEN
  6
DOT_CENTER
 62
     2
100
AcDbLine
 10
296.2223219151
 20
228.3203989435
 30
0.0
 11
296.2223219151
 21
223.8203989435
 31
0.0
  0
LINE
  5
F0
330
1F
100
AcDbEntity
  8
A_ACHSEN
  6
DOT_CENTER
 62
     2
100
AcDbLine
 10
296.2223219151
 20
132.3203989435
 30
0.0
 11
296.2223219151
 21
127.8203989435
 31
0.0
  0
LINE
  5
F1
330
1F
100
AcDbEntity
  8
A_ACHSEN
  6
DOT_CENTER
 62
     2
100
AcDbLine
 10
296.2223219151
 20
125.3203989435
 30
0.0
 11
296.2223219151
 21
115.0237287621
 31
0.0
  0
LINE
  5
F2
330
1F
100
AcDbEntity
  8
A_ACHSEN
  6
DOT_CENTER
 62
     2
100
AcDbLine
 10
296.2223219151
 20
125.3203989435
 30
0.0
 11
296.2223219151
 21
127.8203989435
 31
0.0
  0
LINE
  5
F3
330
1F
100
AcDbEntity
  8
A_ACHSEN
  6
DOT_CENTER
 62
     2
100
AcDbLine
 10
296.2223219151
 20
132.3203989435
 30
0.0
 11
296.2223219151
 21
223.8203989435
 31
0.0
  0
LINE
  5
F4
330
1F
100
AcDbEntity
  8
A_ACHSEN
  6
DOT_CENTER
 62
     2
100
AcDbLine
 10
296.2223219151
 20
228.3203989435
 30
0.0
 11
296.2223219151
 21
230.8203989435
 31
0.0
  0
LINE
  5
F5
330
1F
100
AcDbEntity
  8
A_ACHSEN
  6
DOT_CENTER
 62
     2
100
AcDbLine
 10
296.2223219151
 20
235.3203989435
 30
0.0
 11
296.2223219151
 21
246.842267964
 31
0.0
  0
LINE
  5
F6
330
1F
100
AcDbEntity
  8
0
  6
Continuous
 62
     7
100
AcDbLine
 10
314.2223219151
 20
224.8203989435
 30
0.0
 11
314.2223219151
 21
135.8203989435
 31
0.0
  0
LINE
  5
F7
330
1F
100
AcDbEntity
  8
0
  6
Continuous
 62
     7
100
AcDbLine
 10
318.2223219151
 20
80.3203989435
 30
0.0
 11
318.2223219151
 21
280.3203989435
 31
0.0
  0
LINE
  5
F8
330
1F
100
AcDbEntity
  8
0
  6
Continuous
 62
     7
100
AcDbLine
 10
302.2223219151
 20
224.8203989435
 30
0.0
 11
290.2223219151
 21
224.8203989435
 31
0.0
  0
LINE
  5
F9
330
1F
100
AcDbEntity
  8
A_ACHSEN
  6
DOT_CENTER
 62
     2
100
AcDbLine
 10
296.2223219151
 20
228.3203989435
 30
0.0
 11
291.7223219151
 21
228.3203989435
 31
0.0
  0
LINE
  5
FA
330
1F
100
AcDbEntity
  8
A_ACHSEN
  6
DOT_CENTER
 62
     2
100
AcDbLine
 10
296.2223219151
 20
228.3203989435
 30
0.0
 11
300.7223219151
 21
228.3203989435
 31
0.0
  0
LINE
  5
FB
330
1F
100
AcDbEntity
  8
A_ACHSEN
  6
DOT_CENTER
 62
     2
100
AcDbLine
 10
296.2223219151
 20
235.3203989435
 30
0.0
 11
291.7223219151
 21
235.3203989435
 31
0.0
  0
LINE
  5
FC
330
1F
100
AcDbEntity
  8
A_ACHSEN
  6
DOT_CENTER
 62
     2
100
AcDbLine
 10
296.2223219151
 20
235.3203989435
 30
0.0
 11
300.7223219151
 21
235.3203989435
 31
0.0
  0
LINE
  5
FD
330
1F
100
AcDbEntity
  8
0
  6
Continuous
 62
     7
100
AcDbLine
 10
274.2223219151
 20
280.3203989435
 30
0.0
 11
318.2223219151
 21
280.3203989435
 31
0.0
  0
LINE
  5
FE
330
1F
100
AcDbEntity
  8
A_ACHSEN
  6
DOT_CENTER
 62
     2
100
AcDbLine
 10
275.7459234702001
 20
180.3203989435
 30
0.0
 11
320.2223219151
 21
180.3203989435
 31
0.0
  0
ARC
  5
FF
330
1F
100
AcDbEntity
  8
0
  6
Continuous
 62
     7
100
AcDbCircle
 10
73.7784384269
 20
147.3510474915
 30
0.0
 40
12.0
100
AcDbArc
 50
-90.0
 51
0.0
  0
ARC
  5
100
330
1F
100
AcDbEntity
  8
0
  6
Continuous
 62
     7
100
AcDbCircle
 10
73.7784384269
 20
214.3510474915
 30
0.0
 40
12.0
100
AcDbArc
 50
90.0
 51
180.0
  0
ARC
  5
101
330
1F
100
AcDbEntity
  8
0
  6
Continuous
 62
     7
100
AcDbCircle
 10
73.7784384269
 20
231.3510474915
 30
0.0
 40
12.0
100
AcDbArc
 50
90.0
 51
180.0
  0
ARC
  5
102
330
1F
100
AcDbEntity
  8
0
  6
Continuous
 62
     7
100
AcDbCircle
 10
73.7784384269
 20
130.3510474915
 30
0.0
 40
12.0
100
AcDbArc
 50
-90.0
 51
0.0
  0
ARC
  5
103
330
1F
100
AcDbEntity
  8
0
  6
Continuous
 62
     7
100
AcDbCircle
 10
73.7784384269
 20
130.3510474915
 30
0.0
 40
11.99999999999999
100
AcDbArc
 50
180.0
 51
-90.0
  0
ARC
  5
104
330
1F
100
AcDbEntity
  8
0
  6
Continuous
 62
     7
100
AcDbCircle
 10
73.7784384269
 20
231.3510474915
 30
0.0
 40
12.0
100
AcDbArc
 50
0.0
 51
90.0
  0
ARC
  5
105
330
1F
100
AcDbEntity
  8
0
  6
Continuous
 62
     7
100
AcDbCircle
 10
73.7784384269
 20
214.3510474915
 30
0.0
 40
12.0
100
AcDbArc
 50
0.0
 51
90.0
  0
ARC
  5
106
330
1F
100
AcDbEntity
  8
0
  6
Continuous
 62
     7
100
AcDbCircle
 10
73.7784384269
 20
147.3510474915
 30
0.0
 40
11.99999999999999
100
AcDbArc
 50
180.0
 51
-90.0
  0
ARC
  5
107
330
1F
100
AcDbEntity
  8
0
  6
Continuous
 62
     7
100
AcDbCircle
 10
296.2223219151
 20
135.8203989435
 30
0.0
 40
18.00000000000001
100
AcDbArc
 50
-90.0
 51
0.0
  0
ARC
  5
108
330
1F
100
AcDbEntity
  8
0
  6
Continuous
 62
     7
100
AcDbCircle
 10
296.2223219151
 20
224.8203989435
 30
0.0
 40
18.0
100
AcDbArc
 50
90.0
 51
180.0
  0
ARC
  5
109
330
1F
100
AcDbEntity
  8
0
  6
Continuous
 62
     7
100
AcDbCircle
 10
302.2223219151
 20
147.8203989435
 30
0.0
 40
12.0
100
AcDbArc
 50
-90.0
 51
0.0
  0
ARC
  5
10A
330
1F
100
AcDbEntity
  8
0
  6
Continuous
 62
     7
100
AcDbCircle
 10
290.2223219151
 20
212.8203989435
 30
0.0
 40
12.0
100
AcDbArc
 50
90.0
 51
180.0
  0
ARC
  5
10B
330
1F
100
AcDbEntity
  8
0
  6
Continuous
 62
     7
100
AcDbCircle
 10
302.2223219151
 20
212.8203989435
 30
0.0
 40
12.0
100
AcDbArc
 50
0.0
 51
90.0
  0
ARC
  5
10C
330
1F
100
AcDbEntity
  8
0
  6
Continuous
 62
     7
100
AcDbCircle
 10
290.2223219151
 20
147.8203989435
 30
0.0
 40
12.0
100
AcDbArc
 50
180.0
 51
-90.0
  0
ARC
  5
10D
330
1F
100
AcDbEntity
  8
0
  6
Continuous
 62
     7
100
AcDbCircle
 10
296.2223219151
 20
224.8203989435
 30
0.0
 40
18.0
100
AcDbArc
 50
0.0
 51
90.0
  0
ARC
  5
10E
330
1F
100
AcDbEntity
  8
0
  6
Continuous
 62
     7
100
AcDbCircle
 10
296.2223219151
 20
135.8203989435
 30
0.0
 40
18.0
100
AcDbArc
 50
180.0
 51
-90.0
  0
CIRCLE
  5
10F
330
1F
100
AcDbEntity
  8
A_ACHSEN
  6
Continuous
 62
     7
100
AcDbCircle
 10
67.8312393437
 20
229.3510474915
 30
0.0
 40
1.5
  0
CIRCLE
  5
110
330
1F
100
AcDbEntity
  8
A_ACHSEN
  6
Continuous
 62
     7
100
AcDbCircle
 10
80.0312393437
 20
229.3510474915
 30
0.0
 40
1.5
  0
CIRCLE
  5
111
330
1F
100
AcDbEntity
  8
A_ACHSEN
  6
Continuous
 62
     7
100
AcDbCircle
 10
67.8312393437
 20
132.3510474915
 30
0.0
 40
1.5
  0
CIRCLE
  5
112
330
1F
100
AcDbEntity
  8
A_ACHSEN
  6
Continuous
 62
     7
100
AcDbCircle
 10
80.0312393437
 20
132.3510474915
 30
0.0
 40
1.5
  0
CIRCLE
  5
113
330
1F
100
AcDbEntity
  8
A_ACHSEN
  6
Continuous
 62
     7
100
AcDbCircle
 10
73.9312393437
 20
231.3510474915
 30
0.0
 40
1.5
  0
CIRCLE
  5
114
330
1F
100
AcDbEntity
  8
A_ACHSEN
  6
Continuous
 62
     7
100
AcDbCircle
 10
73.9312393437
 20
130.3510474915
 30
0.0
 40
1.5
  0
CIRCLE
  5
115
330
1F
100
AcDbEntity
  8
A_NOTIZEN_SYMB
  6
PHANTOM
 62
     2
100
AcDbCircle
 10
73.9082411736
 20
132.3585955706
 30
0.0
 40
11.98647053179999
  0
CIRCLE
  5
116
330
1F
100
AcDbEntity
  8
A_NOTIZEN_SYMB
  6
DOT_CENTER
 62
     2
100
AcDbCircle
 10
301.0585716196
 20
132.3539382946
 30
0.0
 40
12.03351503679988
  0
CIRCLE
  5
117
330
1F
100
AcDbEntity
  8
A_ACHSEN
  6
Continuous
 62
     7
100
AcDbCircle
 10
296.2223219151
 20
235.3203989435
 30
0.0
 40
1.5
  0
CIRCLE
  5
118
330
1F
100
AcDbEntity
  8
A_ACHSEN
  6
Continuous
 62
     7
100
AcDbCircle
 10
296.2223219151
 20
228.3203989435
 30
0.0
 40
1.5
  0
CIRCLE
  5
119
330
1F
100
AcDbEntity
  8
A_ACHSEN
  6
Continuous
 62
     7
100
AcDbCircle
 10
296.2223219151
 20
125.3203989435
 30
0.0
 40
1.5
  0
CIRCLE
  5
11A
330
1F
100
AcDbEntity
  8
A_ACHSEN
  6
Continuous
 62
     7
100
AcDbCircle
 10
296.2223219151
 20
132.3203989435
 30
0.0
 40
1.5
  0
LWPOLYLINE
  5
11B
330
1F
100
AcDbEntity
  8
0
  6
Continuous
 62
     2
 60
     1
100
AcDbPolyline
 90
        9
 70
     0
 43
0.0
 10
214.7230187708
 20
194.0119243204
 10
215.8149200769
 20
196.7591234037
 10
205.8149200769
 20
196.7591234037
 10
206.8148187708
 20
194.0119243204
 10
214.7230187708
 20
194.0119243204
 10
214.3413680836
 20
195.7591234037
 10
207.2430680836001
 20
195.7591234037
 10
207.515026309
 20
195.0119243204
 10
214.0443864561
 20
195.0119243204
  0
MTEXT
  5
11D
330
1F
100
AcDbEntity
  8
1
 62
     3
100
AcDbMText
 10
245.411809242242
 20
137.02754698557
 30
0.0
 40
3.5
 41
0.0
 71
     4
 72
     1
  1
Fräsbild\PFlügel
  7
CONVERTER_11
 73
     1
 44
1.32052821128451
  0
MTEXT
  5
11E
330
1F
100
AcDbEntity
  8
1
 62
     3
100
AcDbMText
 10
170.822638943305
 20
134.172746004182
 30
0.0
 40
3.5
 41
0.0
 71
     4
 72
     1
  1
Fräsbild\PBlockzarge \PRahmen
  7
CONVERTER_11
 73
     1
 44
1.32052821128451
  0
MTEXT
  5
11F
330
1F
100
AcDbEntity
  8
1
 62
     2
100
AcDbMText
 10
50.1816035080835
 20
55.7513966241885
 30
0.0
 40
2.5
 41
0.0
 71
     5
 72
     1
  1
Aufdoppelung
  7
CONVERTER_11
 73
     1
 44
1.32052821128451
  0
DIMENSION
  5
12A
330
1F
100
AcDbEntity
  8
1
100
AcDbDimension
  2
*D1
 10
45.7284384269
 20
60.5703989435
 30
0.0
 11
51.5533304784387
 21
64.3203989435
 31
0.0
 70
    32
  1
12
 71
     5
 42
-1.0
 53
0.00013888888889
  3
ME10_DIM_10
100
AcDbAlignedDimension
 13
57.7784384269
 23
80.8510474915
 33
0.0
 14
45.7284384269
 24
80.8510474915
 34
0.0
100
AcDbRotatedDimension
  0
DIMENSION
  5
135
330
1F
100
AcDbEntity
  8
1
100
AcDbDimension
  2
*D2
 10
57.7784384269
 20
60.5703989435
 30
0.0
 11
70.769124364853
 21
64.3203989435
 31
0.0
 70
    32
  1
<>
 71
     5
 42
-1.0
 53
0.00013888888889
  3
ME10_DIM_11
100
AcDbAlignedDimension
 13
85.7784384269
 23
130.3510474915
 33
0.0
 14
57.7784384269
 24
80.8510474915
 34
0.0
100
AcDbRotatedDimension
  0
DIMENSION
  5
140
330
1F
100
AcDbEntity
  8
1
100
AcDbDimension
  2
*D3
 10
61.7784384269
 20
70.3920197157661
 30
0.0
 11
72.8506087707636
 21
74.1420197157661
 31
0.0
 70
    32
  1
<>
 71
     5
 42
-1.0
 53
0.00013888888889
  3
ME10_DIM_12
100
AcDbAlignedDimension
 13
85.7784384269
 23
130.3510474915
 33
0.0
 14
61.7784384269
 24
147.8510474915
 34
0.0
100
AcDbRotatedDimension
  0
DIMENSION
  5
14B
330
1F
100
AcDbEntity
  8
1
100
AcDbDimension
  2
*D4
 10
67.8312393437
 20
251.193479876504
 30
0.0
 11
73.5140535322116
 21
254.943479876504
 31
0.0
 70
    32
  1
<>
 71
     5
 42
-1.0
 53
0.00013888888889
  3
ME10_DIM_13
100
AcDbAlignedDimension
 13
80.0312393437
 23
233.8510474915
 33
0.0
 14
67.8312393437
 24
233.8510474915
 34
0.0
100
AcDbRotatedDimension
  0
DIMENSION
  5
156
330
1F
100
AcDbEntity
  8
1
100
AcDbDimension
  2
*D5
 10
152.840761354
 20
60.5690420769153
 30
0.0
 11
137.842659127745
 21
64.3190420769153
 31
0.0
 70
    32
  1
<>
 71
     5
 42
-1.0
 53
0.00013888888889
  3
ME10_DIM_14
100
AcDbAlignedDimension
 13
122.840761354
 23
135.3520203692
 33
0.0
 14
152.840761354
 24
80.8510474915
 34
0.0
100
AcDbRotatedDimension
  0
DIMENSION
  5
161
330
1F
100
AcDbEntity
  8
1
100
AcDbDimension
  2
*D6
 10
152.840761354
 20
70.3920197157661
 30
0.0
 11
147.916473714641
 21
74.1420197157661
 31
0.0
 70
    32
  1
<>
 71
     5
 42
-1.0
 53
0.00013888888889
  3
ME10_DIM_15
100
AcDbAlignedDimension
 13
142.840761354
 23
118.3520203692
 33
0.0
 14
152.840761354
 24
80.8510474915
 34
0.0
100
AcDbRotatedDimension
  0
DIMENSION
  5
16C
330
1F
100
AcDbEntity
  8
1
100
AcDbDimension
  2
*D7
 10
420.7332239546
 20
60.2800939174175
 30
0.0
 11
397.672232627391
 21
64.0300939174175
 31
0.0
 70
    32
  1
<>
 71
     5
 42
-1.0
 53
0.00013888888889
  3
ME10_DIM_16
100
AcDbAlignedDimension
 13
378.7332239546
 23
135.8203989435
 33
0.0
 14
420.7332239546
 24
80.3203989435
 34
0.0
100
AcDbRotatedDimension
  0
DIMENSION
  5
177
330
1F
100
AcDbEntity
  8
1
100
AcDbDimension
  2
*D8
 10
420.7332239546
 20
69.7789225972742
 30
0.0
 11
415.420044108176
 21
73.5289225972742
 31
0.0
 70
    32
  1
<>
 71
     5
 42
-1.0
 53
0.00013888888889
  3
ME10_DIM_17
100
AcDbAlignedDimension
 13
410.7332239546
 23
117.8203989435
 33
0.0
 14
420.7332239546
 24
80.3203989435
 34
0.0
100
AcDbRotatedDimension
  0
DIMENSION
  5
182
330
1F
100
AcDbEntity
  8
1
100
AcDbDimension
  2
*D9
 10
99.7578870707844
 20
231.3510474915
 30
0.0
 11
96.0078870707844
 21
180.48266987126
 31
0.0
 70
    32
  1
<>
 71
     5
 42
-1.0
 53
90.0
  3
ME10_DIM_18
100
AcDbAlignedDimension
 13
78.4312393437
 23
130.3510474915
 33
0.0
 14
78.4312393437
 24
231.3510474915
 34
0.0
 50
90.0
100
AcDbRotatedDimension
  0
DIMENSION
  5
18D
330
1F
100
AcDbEntity
  8
1
100
AcDbDimension
  2
*D10
 10
37.737625096207
 20
213.8510474915001
 30
0.0
 11
33.987625096207
 21
180.6533895236715
 31
0.0
 70
    32
  1
<>
 71
     5
 42
-1.0
 53
90.0
  3
ME10_DIM_19
100
AcDbAlignedDimension
 13
61.7784384269
 23
147.8510474915
 33
0.0
 14
57.7784384269
 24
213.8510474915
 34
0.0
 50
90.0
100
AcDbRotatedDimension
  0
DIMENSION
  5
198
330
1F
100
AcDbEntity
  8
1
100
AcDbDimension
  2
*D11
 10
29.6284771303619
 20
226.3510474915
 30
0.0
 11
25.8784771303619
 21
180.404585986646
 31
0.0
 70
    32
  1
<>
 71
     5
 42
-1.0
 53
90.0
  3
ME10_DIM_20
100
AcDbAlignedDimension
 13
73.7784384269
 23
135.3510474915
 33
0.0
 14
73.7784384269
 24
226.3510474915
 34
0.0
 50
90.0
100
AcDbRotatedDimension
  0
DIMENSION
  5
1A3
330
1F
100
AcDbEntity
  8
1
100
AcDbDimension
  2
*D12
 10
21.5573505827549
 20
229.3510474915
 30
0.0
 11
17.8073505827549
 21
180.833537635488
 31
0.0
 70
    32
  1
<>
 71
     5
 42
-1.0
 53
90.0
  3
ME10_DIM_21
100
AcDbAlignedDimension
 13
64.8311393437
 23
132.3510474915
 33
0.0
 14
63.3312393437
 24
229.3510474915
 34
0.0
 50
90.0
100
AcDbRotatedDimension
  0
DIMENSION
  5
1AE
330
1F
100
AcDbEntity
  8
1
100
AcDbDimension
  2
*D13
 10
13.54854321897921
 20
118.3510474915
 30
0.0
 11
9.79854321897921
 21
179.865314598501
 31
0.0
 70
    32
  1
<>
 71
     5
 42
-1.0
 53
90.0
  3
ME10_DIM_22
100
AcDbAlignedDimension
 13
73.7784384269
 23
243.3510474915
 33
0.0
 14
73.7784384269
 24
118.3510474915
 34
0.0
 50
90.0
100
AcDbRotatedDimension
  0
DIMENSION
  5
1B9
330
1F
100
AcDbEntity
  8
1
100
AcDbDimension
  2
*D14
 10
326.805388923753
 20
224.8203989435
 30
0.0
 11
323.055388923753
 21
179.856561705133
 31
0.0
 70
    32
  1
<>
 71
     5
 42
-1.0
 53
90.0
  3
ME10_DIM_23
100
AcDbAlignedDimension
 13
302.2223219151
 23
135.8203989435
 33
0.0
 14
302.2223219151
 24
224.8203989435
 34
0.0
 50
90.0
100
AcDbRotatedDimension
  0
DIMENSION
  5
1C4
330
1F
100
AcDbEntity
  8
1
100
AcDbDimension
  2
*D15
 10
334.505631049461
 20
228.3203989435
 30
0.0
 11
330.755631049461
 21
180.647174056902
 31
0.0
 70
    32
  1
<>
 71
     5
 42
-1.0
 53
90.0
  3
ME10_DIM_24
100
AcDbAlignedDimension
 13
300.7223219151
 23
132.3203989435
 33
0.0
 14
300.7223219151
 24
228.3203989435
 34
0.0
 50
90.0
100
AcDbRotatedDimension
  0
DIMENSION
  5
1CF
330
1F
100
AcDbEntity
  8
1
100
AcDbDimension
  2
*D16
 10
342.415423441072
 20
235.3203989435
 30
0.0
 11
338.665423441072
 21
180.80962346398
 31
0.0
 70
    32
  1
<>
 71
     5
 42
-1.0
 53
90.0
  3
ME10_DIM_25
100
AcDbAlignedDimension
 13
300.7223219151
 23
125.3203989435
 33
0.0
 14
300.7223219151
 24
235.3203989435
 34
0.0
 50
90.0
100
AcDbRotatedDimension
  0
DIMENSION
  5
1DA
330
1F
100
AcDbEntity
  8
1
100
AcDbDimension
  2
*D17
 10
350.7332239546
 20
242.8203989435
 30
0.0
 11
346.9832239546
 21
180.708409233836
 31
0.0
 70
    32
  1
<>
 71
     5
 42
-1.0
 53
90.0
  3
ME10_DIM_26
100
AcDbAlignedDimension
 13
296.2223219151
 23
117.8203989435
 33
0.0
 14
296.2223219151
 24
242.8203989435
 34
0.0
 50
90.0
100
AcDbRotatedDimension
  0
DIMENSION
  5
1EB
330
1F
100
AcDbEntity
  8
1
100
AcDbDimension
  2
*D18
 10
318.2223219151
 20
69.8480850179105
 30
0.0
 11
324.055388923753
 21
73.5980850179105
 31
0.0
 70
    32
  1
<>
 71
     5
 42
-1.0
 53
0.00013888888889
  3
ME10_DIM_27
100
AcDbAlignedDimension
 13
314.2223219151
 23
135.8203989435
 33
0.0
 14
318.2223219151
 24
80.3203989435
 34
0.0
100
AcDbRotatedDimension
  0
DIMENSION
  5
1F9
330
1F
100
AcDbEntity
  8
1
100
AcDbDimension
  2
*D19
 10
278.2223219151
 20
69.8480850179105
 30
0.0
 11
269.322129996463
 21
73.5980850179105
 31
0.0
 70
    32
  1
<>
 71
     5
 42
-1.0
 53
0.00013888888889
  3
ME10_DIM_28
100
AcDbAlignedDimension
 13
274.2223219151
 23
80.3203989435
 33
0.0
 14
278.2223219151
 24
135.8203989435
 34
0.0
100
AcDbRotatedDimension
  0
DIMENSION
  5
209
330
1F
100
AcDbEntity
  8
1
100
AcDbDimension
  2
*D20
 10
314.2223219151
 20
69.8480850179105
 30
0.0
 11
297.369521387064
 21
73.5980850179105
 31
0.0
 70
    32
  1
<>
 71
     5
 42
-1.0
 53
0.00013888888889
  3
ME10_DIM_29
100
AcDbAlignedDimension
 13
278.2223219151
 23
135.8203989435
 33
0.0
 14
314.2223219151
 24
135.8203989435
 34
0.0
100
AcDbRotatedDimension
  0
INSERT
  5
210
330
1F
100
AcDbEntity
  8
1
100
AcDbBlockReference
  2
*D21
 10
0.0
 20
0.0
 30
0.0
  0
INSERT
  5
217
330
1F
100
AcDbEntity
  8
1
100
AcDbBlockReference
  2
*D22
 10
0.0
 20
0.0
 30
0.0
  0
INSERT
  5
220
330
1F
100
AcDbEntity
  8
1
100
AcDbBlockReference
  2
*D23
 10
0.0
 20
0.0
 30
0.0
  0
INSERT
  5
229
330
1F
100
AcDbEntity
  8
1
100
AcDbBlockReference
  2
*D24
 10
0.0
 20
0.0
 30
0.0
  0
INSERT
  5
232
330
1F
100
AcDbEntity
  8
1
100
AcDbBlockReference
  2
*D25
 10
0.0
 20
0.0
 30
0.0
  0
INSERT
  5
23B
330
1F
100
AcDbEntity
  8
1
100
AcDbBlockReference
  2
*D26
 10
0.0
 20
0.0
 30
0.0
  0
ENDSEC
  0
SECTION
  2
OBJECTS
  0
DICTIONARY
  5
C
330
0
100
AcDbDictionary
281
     1
  3
ACAD_GROUP
350
D
  3
ACAD_LAYOUT
350
1A
  3
ACAD_MLINESTYLE
350
17
  3
ACAD_PLOTSETTINGS
350
19
  3
ACAD_PLOTSTYLENAME
350
E
  0
DICTIONARY
  5
D
102
{ACAD_REACTORS
330
C
102
}
330
C
100
AcDbDictionary
281
     1
  0
DICTIONARY
  5
1A
102
{ACAD_REACTORS
330
C
102
}
330
C
100
AcDbDictionary
281
     1
  3
Layout1
350
1E
  3
Layout2
350
26
  3
Model
350
22
  0
DICTIONARY
  5
17
102
{ACAD_REACTORS
330
C
102
}
330
C
100
AcDbDictionary
281
     1
  3
Standard
350
18
  0
DICTIONARY
  5
19
102
{ACAD_REACTORS
330
C
102
}
330
C
100
AcDbDictionary
281
     1
  0
ACDBDICTIONARYWDFLT
  5
E
102
{ACAD_REACTORS
330
C
102
}
330
C
100
AcDbDictionary
281
     1
  3
Normal
350
F
100
AcDbDictionaryWithDefault
340
F
  0
LAYOUT
  5
1E
102
{ACAD_REACTORS
330
1A
102
}
330
1A
100
AcDbPlotSettings
  1

  2

  4

  6

 40
0.0
 41
0.0
 42
0.0
 43
0.0
 44
0.0
 45
0.0
 46
0.0
 47
0.0
 48
0.0
 49
0.0
140
0.0
141
0.0
142
1.0
143
1.0
 70
   688
 72
     0
 73
     0
 74
     5
  7

 75
    16
 76
     0
 77
     2
 78
   300
147
1.0
148
0.0
149
0.0
100
AcDbLayout
  1
Layout1
 70
     1
 71
     1
 10
0.0
 20
0.0
 11
0.0
 21
0.0
 12
0.0
 22
0.0
 32
0.0
 14
0.0
 24
0.0
 34
0.0
 15
0.0
 25
0.0
 35
0.0
146
0.0
 13
0.0
 23
0.0
 33
0.0
 16
1.0
 26
0.0
 36
0.0
 17
0.0
 27
1.0
 37
0.0
 76
     0
330
1B
  0
LAYOUT
  5
26
102
{ACAD_REACTORS
330
1A
102
}
330
1A
100
AcDbPlotSettings
  1

  2

  4

  6

 40
0.0
 41
0.0
 42
0.0
 43
0.0
 44
0.0
 45
0.0
 46
0.0
 47
0.0
 48
0.0
 49
0.0
140
0.0
141
0.0
142
1.0
143
1.0
 70
   688
 72
     0
 73
     0
 74
     5
  7

 75
    16
 76
     0
 77
     2
 78
   300
147
1.0
148
0.0
149
0.0
100
AcDbLayout
  1
Layout2
 70
     1
 71
     2
 10
0.0
 20
0.0
 11
0.0
 21
0.0
 12
0.0
 22
0.0
 32
0.0
 14
0.0
 24
0.0
 34
0.0
 15
0.0
 25
0.0
 35
0.0
146
0.0
 13
0.0
 23
0.0
 33
0.0
 16
1.0
 26
0.0
 36
0.0
 17
0.0
 27
1.0
 37
0.0
 76
     0
330
23
  0
LAYOUT
  5
22
102
{ACAD_REACTORS
330
1A
102
}
330
1A
100
AcDbPlotSettings
  1

  2

  4

  6

 40
0.0
 41
0.0
 42
0.0
 43
0.0
 44
0.0
 45
0.0
 46
0.0
 47
0.0
 48
0.0
 49
0.0
140
0.0
141
0.0
142
1.0
143
1.0
 70
  1712
 72
     0
 73
     0
 74
     0
  7

 75
     0
 76
     0
 77
     2
 78
   300
147
1.0
148
0.0
149
0.0
100
AcDbLayout
  1
Model
 70
     1
 71
     0
 10
0.0
 20
0.0
 11
0.0
 21
0.0
 12
0.0
 22
0.0
 32
0.0
 14
8.04854321897921
 24
52.39615596702235
 34
0.0
 15
424.2332239546
 25
280.8510474915
 35
0.0
146
0.0
 13
0.0
 23
0.0
 33
0.0
 16
1.0
 26
0.0
 36
0.0
 17
0.0
 27
1.0
 37
0.0
 76
     0
330
1F
  0
MLINESTYLE
  5
18
102
{ACAD_REACTORS
330
17
102
}
330
17
100
AcDbMlineStyle
  2
Standard
 70
     0
  3

 62
   256
 51
90.0
 52
90.0
 71
     2
 49
0.5
 62
   256
  6
BYLAYER
 49
-0.5
 62
   256
  6
BYLAYER
  0
ACDBPLACEHOLDER
  5
F
102
{ACAD_REACTORS
330
E
102
}
330
E
  0
ENDSEC
  0
EOF
