  0
SECTION
  2
HEADER
  9
$ACADVER
  1
AC1018
  9
$ACADMAINTVER
 70
     0
  9
$DWGCODEPAGE
  3
ANSI_1252
  9
$INSBASE
 10
0.0
 20
0.0
 30
0.0
  9
$EXTMIN
 10
142.157267350914
 20
108.429747456209
 30
0.0
  9
$EXTMAX
 10
248.132458180588
 20
246.389160613974
 30
0.0
  9
$LIMMIN
 10
0.0
 20
0.0
  9
$LIMMAX
 10
12.0
 20
9.0
  9
$ORTHOMODE
 70
     0
  9
$REGENMODE
 70
     1
  9
$FILLMODE
 70
     1
  9
$QTEXTMODE
 70
     0
  9
$MIRRTEXT
 70
     1
  9
$LTSCALE
 40
1.0
  9
$ATTMODE
 70
     1
  9
$TEXTSIZE
 40
0.2
  9
$TRACEWID
 40
0.05
  9
$TEXTSTYLE
  7
Standard
  9
$CLAYER
  8
0
  9
$CELTYPE
  6
ByLayer
  9
$CECOLOR
 62
   256
  9
$CELTSCALE
 40
1.0
  9
$DISPSILH
 70
     0
  9
$DIMSCALE
 40
1.0
  9
$DIMASZ
 40
0.18
  9
$DIMEXO
 40
0.0625
  9
$DIMDLI
 40
0.38
  9
$DIMRND
 40
0.0
  9
$DIMDLE
 40
0.0
  9
$DIMEXE
 40
0.18
  9
$DIMTP
 40
0.0
  9
$DIMTM
 40
0.0
  9
$DIMTXT
 40
0.18
  9
$DIMCEN
 40
0.09
  9
$DIMTSZ
 40
0.0
  9
$DIMTOL
 70
     0
  9
$DIMLIM
 70
     0
  9
$DIMTIH
 70
     1
  9
$DIMTOH
 70
     1
  9
$DIMSE1
 70
     0
  9
$DIMSE2
 70
     0
  9
$DIMTAD
 70
     0
  9
$DIMZIN
 70
     0
  9
$DIMBLK
  1

  9
$DIMASO
 70
     1
  9
$DIMSHO
 70
     1
  9
$DIMPOST
  1

  9
$DIMAPOST
  1

  9
$DIMALT
 70
     0
  9
$DIMALTD
 70
     2
  9
$DIMALTF
 40
25.4
  9
$DIMLFAC
 40
1.0
  9
$DIMTOFL
 70
     0
  9
$DIMTVP
 40
0.0
  9
$DIMTIX
 70
     0
  9
$DIMSOXD
 70
     0
  9
$DIMSAH
 70
     0
  9
$DIMBLK1
  1

  9
$DIMBLK2
  1

  9
$DIMSTYLE
  2
Standard
  9
$DIMCLRD
 70
     0
  9
$DIMCLRE
 70
     0
  9
$DIMCLRT
 70
     0
  9
$DIMTFAC
 40
1.0
  9
$DIMGAP
 40
0.09
  9
$DIMJUST
 70
     0
  9
$DIMSD1
 70
     0
  9
$DIMSD2
 70
     0
  9
$DIMTOLJ
 70
     1
  9
$DIMTZIN
 70
     0
  9
$DIMALTZ
 70
     0
  9
$DIMALTTZ
 70
     0
  9
$DIMUPT
 70
     0
  9
$DIMDEC
 70
     4
  9
$DIMTDEC
 70
     4
  9
$DIMALTU
 70
     2
  9
$DIMALTTD
 70
     2
  9
$DIMTXSTY
  7
Standard
  9
$DIMAUNIT
 70
     0
  9
$DIMADEC
 70
     0
  9
$DIMALTRND
 40
0.0
  9
$DIMAZIN
 70
     0
  9
$DIMDSEP
 70
    46
  9
$DIMATFIT
 70
     3
  9
$DIMFRAC
 70
     0
  9
$DIMLDRBLK
  1

  9
$DIMLUNIT
 70
     2
  9
$DIMLWD
 70
    -2
  9
$DIMLWE
 70
    -2
  9
$DIMTMOVE
 70
     0
  9
$LUNITS
 70
     2
  9
$LUPREC
 70
     4
  9
$SKETCHINC
 40
0.1
  9
$FILLETRAD
 40
0.5
  9
$AUNITS
 70
     0
  9
$AUPREC
 70
     0
  9
$MENU
  1
.
  9
$ELEVATION
 40
0.0
  9
$PELEVATION
 40
0.0
  9
$THICKNESS
 40
0.0
  9
$LIMCHECK
 70
     0
  9
$CHAMFERA
 40
0.5
  9
$CHAMFERB
 40
0.5
  9
$CHAMFERC
 40
1.0
  9
$CHAMFERD
 40
0.0
  9
$SKPOLY
 70
     0
  9
$TDCREATE
 40
2457035.494953044
  9
$TDUCREATE
 40
2457035.453286377
  9
$TDUPDATE
 40
2457035.494953055
  9
$TDUUPDATE
 40
2457035.453286389
  9
$TDINDWG
 40
0.0000000116
  9
$TDUSRTIMER
 40
0.0000000116
  9
$USRTIMER
 70
     1
  9
$ANGBASE
 50
0.0
  9
$ANGDIR
 70
     0
  9
$PDMODE
 70
     0
  9
$PDSIZE
 40
0.0
  9
$PLINEWID
 40
0.0
  9
$SPLFRAME
 70
     0
  9
$SPLINETYPE
 70
     6
  9
$SPLINESEGS
 70
     8
  9
$HANDSEED
  5
203
  9
$SURFTAB1
 70
     6
  9
$SURFTAB2
 70
     6
  9
$SURFTYPE
 70
     6
  9
$SURFU
 70
     6
  9
$SURFV
 70
     6
  9
$UCSBASE
  2

  9
$UCSNAME
  2

  9
$UCSORG
 10
0.0
 20
0.0
 30
0.0
  9
$UCSXDIR
 10
1.0
 20
0.0
 30
0.0
  9
$UCSYDIR
 10
0.0
 20
1.0
 30
0.0
  9
$UCSORTHOREF
  2

  9
$UCSORTHOVIEW
 70
     0
  9
$UCSORGTOP
 10
0.0
 20
0.0
 30
0.0
  9
$UCSORGBOTTOM
 10
0.0
 20
0.0
 30
0.0
  9
$UCSORGLEFT
 10
0.0
 20
0.0
 30
0.0
  9
$UCSORGRIGHT
 10
0.0
 20
0.0
 30
0.0
  9
$UCSORGFRONT
 10
0.0
 20
0.0
 30
0.0
  9
$UCSORGBACK
 10
0.0
 20
0.0
 30
0.0
  9
$PUCSBASE
  2

  9
$PUCSNAME
  2

  9
$PUCSORG
 10
0.0
 20
0.0
 30
0.0
  9
$PUCSXDIR
 10
1.0
 20
0.0
 30
0.0
  9
$PUCSYDIR
 10
0.0
 20
1.0
 30
0.0
  9
$PUCSORTHOREF
  2

  9
$PUCSORTHOVIEW
 70
     0
  9
$PUCSORGTOP
 10
0.0
 20
0.0
 30
0.0
  9
$PUCSORGBOTTOM
 10
0.0
 20
0.0
 30
0.0
  9
$PUCSORGLEFT
 10
0.0
 20
0.0
 30
0.0
  9
$PUCSORGRIGHT
 10
0.0
 20
0.0
 30
0.0
  9
$PUCSORGFRONT
 10
0.0
 20
0.0
 30
0.0
  9
$PUCSORGBACK
 10
0.0
 20
0.0
 30
0.0
  9
$USERI1
 70
     0
  9
$USERI2
 70
     0
  9
$USERI3
 70
     0
  9
$USERI4
 70
     0
  9
$USERI5
 70
     0
  9
$USERR1
 40
14.5
  9
$USERR2
 40
0.0
  9
$USERR3
 40
0.0
  9
$USERR4
 40
0.0
  9
$USERR5
 40
0.0
  9
$WORLDVIEW
 70
     1
  9
$SHADEDGE
 70
     3
  9
$SHADEDIF
 70
    70
  9
$TILEMODE
 70
     1
  9
$MAXACTVP
 70
    64
  9
$PINSBASE
 10
0.0
 20
0.0
 30
0.0
  9
$PLIMCHECK
 70
     0
  9
$PEXTMIN
 10
1.00000000000000E+20
 20
1.00000000000000E+20
 30
1.00000000000000E+20
  9
$PEXTMAX
 10
-1.00000000000000E+20
 20
-1.00000000000000E+20
 30
-1.00000000000000E+20
  9
$PLIMMIN
 10
0.0
 20
0.0
  9
$PLIMMAX
 10
12.0
 20
9.0
  9
$UNITMODE
 70
     0
  9
$VISRETAIN
 70
     1
  9
$PLINEGEN
 70
     0
  9
$PSLTSCALE
 70
     1
  9
$TREEDEPTH
 70
  3020
  9
$CMLSTYLE
  2
Standard
  9
$CMLJUST
 70
     0
  9
$CMLSCALE
 40
1.0
  9
$PROXYGRAPHICS
 70
     1
  9
$MEASUREMENT
 70
     1
  9
$CELWEIGHT
370
    -1
  9
$ENDCAPS
280
     0
  9
$JOINSTYLE
280
     0
  9
$LWDISPLAY
290
     0
  9
$INSUNITS
 70
     1
  9
$HYPERLINKBASE
  1

  9
$STYLESHEET
  1

  9
$XEDIT
290
     1
  9
$CEPSNTYPE
380
     0
  9
$PSTYLEMODE
290
     1
  9
$FINGERPRINTGUID
  2
{79BCF29E-FCE5-4C9A-9924-B35B4CCC2016}
  9
$VERSIONGUID
  2
{FAEB1C32-E019-11D5-929B-00C0DF256EC4}
  9
$EXTNAMES
290
     1
  9
$PSVPSCALE
 40
0.0
  9
$OLESTARTUP
290
     0
  9
$SORTENTS
280
   127
  9
$INDEXCTL
280
     0
  9
$HIDETEXT
280
     1
  9
$XCLIPFRAME
290
     0
  9
$HALOGAP
280
     0
  9
$OBSCOLOR
 70
   257
  9
$OBSLTYPE
280
     0
  9
$INTERSECTIONDISPLAY
280
     0
  9
$INTERSECTIONCOLOR
 70
   257
  9
$DIMASSOC
280
     2
  9
$PROJECTNAME
  1

  0
ENDSEC
  0
SECTION
  2
CLASSES
  0
CLASS
  1
ACDBDICTIONARYWDFLT
  2
AcDbDictionaryWithDefault
  3
ObjectDBX Classes
 90
        0
 91
        3
280
     0
281
     0
  0
CLASS
  1

  2
exOdDbCircle
  3

 90
        0
 91
        3
280
     0
281
     1
  0
CLASS
  1

  2
exOdDbSpline
  3

 90
        0
 91
        3
280
     0
281
     1
  0
ENDSEC
  0
SECTION
  2
TABLES
  0
TABLE
  2
VPORT
  5
8
330
0
100
AcDbSymbolTable
 70
     1
  0
VPORT
  5
29
330
8
100
AcDbSymbolTableRecord
100
AcDbViewportTableRecord
  2
*Active
 70
     0
 10
0.0
 20
0.0
 11
1.0
 21
1.0
 12
195.144862765751
 22
177.4094540350915
 13
0.0
 23
0.0
 14
0.5
 24
0.5
 15
0.5
 25
0.5
 16
0.0
 26
0.0
 36
1.0
 17
0.0
 27
0.0
 37
0.0
 40
151.7553544735415
 41
1.60267857142857
 42
50.0
 43
0.0
 44
0.0
 50
0.0
 51
0.0
 71
     0
 72
   100
 73
     1
 74
     3
 75
     0
 76
     0
 77
     0
 78
     0
281
     0
 65
     1
110
0.0
120
0.0
130
0.0
111
1.0
121
0.0
131
0.0
112
0.0
122
1.0
132
0.0
 79
     0
146
0.0
  0
ENDTAB
  0
TABLE
  2
LTYPE
  5
5
330
0
100
AcDbSymbolTable
 70
     9
  0
LTYPE
  5
14
330
5
100
AcDbSymbolTableRecord
100
AcDbLinetypeTableRecord
  2
ByBlock
 70
     0
  3

 72
    65
 73
     0
 40
0.0
  0
LTYPE
  5
15
330
5
100
AcDbSymbolTableRecord
100
AcDbLinetypeTableRecord
  2
ByLayer
 70
     0
  3

 72
    65
 73
     0
 40
0.0
  0
LTYPE
  5
16
330
5
100
AcDbSymbolTableRecord
100
AcDbLinetypeTableRecord
  2
Continuous
 70
     0
  3
Solid line
 72
    65
 73
     0
 40
0.0
  0
LTYPE
  5
2A
330
5
100
AcDbSymbolTableRecord
100
AcDbLinetypeTableRecord
  2
DASHED
 70
     0
  3
Dashed
 72
    65
 73
     2
 40
15.0
 49
7.0
 74
     0
 49
-8.0
 74
     0
  0
LTYPE
  5
2B
330
5
100
AcDbSymbolTableRecord
100
AcDbLinetypeTableRecord
  2
DOTTED
 70
     0
  3
Dotted
 72
    65
 73
     2
 40
1.0
 49
0.0
 74
     0
 49
-1.0
 74
     0
  0
LTYPE
  5
2C
330
5
100
AcDbSymbolTableRecord
100
AcDbLinetypeTableRecord
  2
DOT_CENTER
 70
     0
  3
Dot_Center
 72
    65
 73
     4
 40
14.0
 49
12.0
 74
     0
 49
-1.0
 74
     0
 49
0.0
 74
     0
 49
-1.0
 74
     0
  0
LTYPE
  5
2D
330
5
100
AcDbSymbolTableRecord
100
AcDbLinetypeTableRecord
  2
LONG_DASHED
 70
     0
  3
Long_Dashed
 72
    65
 73
     2
 40
15.0
 49
10.0
 74
     0
 49
-5.0
 74
     0
  0
LTYPE
  5
2E
330
5
100
AcDbSymbolTableRecord
100
AcDbLinetypeTableRecord
  2
DASH_CENTER
 70
     0
  3
Dash_Center
 72
    65
 73
     4
 40
14.0
 49
11.0
 74
     0
 49
-1.0
 74
     0
 49
1.0
 74
     0
 49
-1.0
 74
     0
  0
LTYPE
  5
2F
330
5
100
AcDbSymbolTableRecord
100
AcDbLinetypeTableRecord
  2
PHANTOM
 70
     0
  3
Phantom
 72
    65
 73
     6
 40
13.0
 49
10.0
 74
     0
 49
-1.0
 74
     0
 49
0.0
 74
     0
 49
-1.0
 74
     0
 49
0.0
 74
     0
 49
-1.0
 74
     0
  0
LTYPE
  5
30
330
5
100
AcDbSymbolTableRecord
100
AcDbLinetypeTableRecord
  2
CENTER_DASH_DASH
 70
     0
  3
Center_Dash_Dash
 72
    65
 73
     6
 40
14.0
 49
9.0
 74
     0
 49
-1.0
 74
     0
 49
1.0
 74
     0
 49
-1.0
 74
     0
 49
1.0
 74
     0
 49
-1.0
 74
     0
  0
LTYPE
  5
31
330
5
100
AcDbSymbolTableRecord
100
AcDbLinetypeTableRecord
  2
CENTER
 70
     0
  3
CENTER
 72
    65
 73
     4
 40
15.0
 49
9.0
 74
     0
 49
-2.0
 74
     0
 49
2.0
 74
     0
 49
-2.0
 74
     0
  0
ENDTAB
  0
TABLE
  2
LAYER
  5
2
330
0
100
AcDbSymbolTable
 70
     6
  0
LAYER
  5
10
330
2
100
AcDbSymbolTableRecord
100
AcDbLayerTableRecord
  2
0
 70
     0
 62
     7
  6
Continuous
370
    -3
390
F
  0
LAYER
  5
32
330
2
100
AcDbSymbolTableRecord
100
AcDbLayerTableRecord
  2
1
 70
     0
 62
     7
  6
Continuous
370
    -3
390
F
  0
LAYER
  5
33
330
2
100
AcDbSymbolTableRecord
100
AcDbLayerTableRecord
  2
A_ACHSEN
 70
     0
 62
     7
  6
Continuous
370
    -3
390
F
  0
LAYER
  5
34
330
2
100
AcDbSymbolTableRecord
100
AcDbLayerTableRecord
  2
A_FASEN
 70
     0
 62
     7
  6
Continuous
370
    -3
390
F
  0
LAYER
  5
35
330
2
100
AcDbSymbolTableRecord
100
AcDbLayerTableRecord
  2
A_RUNDUNGEN
 70
     0
 62
     7
  6
Continuous
370
    -3
390
F
  0
LAYER
  5
36
330
2
100
AcDbSymbolTableRecord
100
AcDbLayerTableRecord
  2
DEFAULT_1
 70
     0
 62
     7
  6
Continuous
370
    -3
390
F
  0
ENDTAB
  0
TABLE
  2
STYLE
  5
3
330
0
100
AcDbSymbolTable
 70
     2
  0
STYLE
  5
11
330
3
100
AcDbSymbolTableRecord
100
AcDbTextStyleTableRecord
  2
Standard
 70
     0
 40
0.0
 41
1.0
 50
0.0
 71
     0
 42
0.2
  3
txt
  4

  0
STYLE
  5
1CA
330
3
100
AcDbSymbolTableRecord
100
AcDbTextStyleTableRecord
  2
CONVERTER_11
 70
     0
 40
0.0
 41
0.9
 50
0.0
 71
     0
 42
0.2
  3
txt.shx
  4

  0
ENDTAB
  0
TABLE
  2
VIEW
  5
6
330
0
100
AcDbSymbolTable
 70
     0
  0
ENDTAB
  0
TABLE
  2
UCS
  5
7
330
0
100
AcDbSymbolTable
 70
     0
  0
ENDTAB
  0
TABLE
  2
APPID
  5
9
330
0
100
AcDbSymbolTable
 70
     1
  0
APPID
  5
12
330
9
100
AcDbSymbolTableRecord
100
AcDbRegAppTableRecord
  2
ACAD
 70
     0
  0
ENDTAB
  0
TABLE
  2
DIMSTYLE
  5
A
330
0
100
AcDbSymbolTable
 70
     6
100
AcDbDimStyleTable
  0
DIMSTYLE
105
27
330
A
100
AcDbSymbolTableRecord
100
AcDbDimStyleTableRecord
  2
Standard
 70
     0
340
11
  0
DIMSTYLE
105
1D5
102
{ACAD_REACTORS
330
1D6
102
}
330
A
100
AcDbSymbolTableRecord
100
AcDbDimStyleTableRecord
  2
ME10_DIM_10
 70
     0
 41
3.5
 42
0.0
 44
2.0
 73
     0
 74
     0
 77
     1
 78
     8
140
3.5
147
2.0
172
     1
173
     1
176
     2
177
     2
178
     2
271
     3
340
1CA
  0
DIMSTYLE
105
1E0
102
{ACAD_REACTORS
330
1E1
102
}
330
A
100
AcDbSymbolTableRecord
100
AcDbDimStyleTableRecord
  2
ME10_DIM_11
 70
     0
 41
3.5
 42
0.0
 44
2.0
 73
     0
 74
     0
 77
     1
 78
     8
140
3.5
147
2.0
172
     1
173
     1
176
     2
177
     2
178
     2
271
     3
340
1CA
  0
DIMSTYLE
105
1EB
102
{ACAD_REACTORS
330
1EC
102
}
330
A
100
AcDbSymbolTableRecord
100
AcDbDimStyleTableRecord
  2
ME10_DIM_12
 70
     0
 41
3.5
 42
0.0
 44
2.0
 73
     0
 74
     0
 77
     1
 78
     8
140
3.5
147
2.0
172
     1
173
     1
176
     2
177
     2
178
     2
271
     3
340
1CA
  0
DIMSTYLE
105
1F6
102
{ACAD_REACTORS
330
1F7
102
}
330
A
100
AcDbSymbolTableRecord
100
AcDbDimStyleTableRecord
  2
ME10_DIM_13
 70
     0
 41
3.5
 42
0.0
 44
2.0
 73
     0
 74
     0
 77
     1
 78
     8
140
3.5
147
2.0
172
     1
173
     1
176
     2
177
     2
178
     2
271
     3
340
1CA
  0
DIMSTYLE
105
201
102
{ACAD_REACTORS
330
202
102
}
330
A
100
AcDbSymbolTableRecord
100
AcDbDimStyleTableRecord
  2
ME10_DIM_14
 70
     0
 41
3.5
 42
0.0
 44
2.0
 73
     0
 74
     0
 77
     1
 78
     8
140
3.5
147
2.0
172
     1
173
     1
176
     2
177
     2
178
     2
271
     3
340
1CA
  0
ENDTAB
  0
TABLE
  2
BLOCK_RECORD
  5
1
330
0
100
AcDbSymbolTable
 70
     6
  0
BLOCK_RECORD
  5
1F
330
1
100
AcDbSymbolTableRecord
100
AcDbBlockTableRecord
  2
*Model_Space
340
22
  0
BLOCK_RECORD
  5
1B
330
1
100
AcDbSymbolTableRecord
100
AcDbBlockTableRecord
  2
*Paper_Space
340
1E
  0
BLOCK_RECORD
  5
23
330
1
100
AcDbSymbolTableRecord
100
AcDbBlockTableRecord
  2
*Paper_Space0
340
26
  0
BLOCK_RECORD
  5
1CC
330
1
100
AcDbSymbolTableRecord
100
AcDbBlockTableRecord
  2
*D1
340
0
  0
BLOCK_RECORD
  5
1D7
330
1
100
AcDbSymbolTableRecord
100
AcDbBlockTableRecord
  2
*D2
340
0
  0
BLOCK_RECORD
  5
1E2
330
1
100
AcDbSymbolTableRecord
100
AcDbBlockTableRecord
  2
*D3
340
0
  0
BLOCK_RECORD
  5
1ED
330
1
100
AcDbSymbolTableRecord
100
AcDbBlockTableRecord
  2
*D4
340
0
  0
BLOCK_RECORD
  5
1F8
330
1
100
AcDbSymbolTableRecord
100
AcDbBlockTableRecord
  2
*D5
340
0
  0
ENDTAB
  0
ENDSEC
  0
SECTION
  2
BLOCKS
  0
BLOCK
  5
20
330
1F
100
AcDbEntity
  8
0
100
AcDbBlockBegin
  2
*Model_Space
 70
     0
 71
     0
 10
0.0
 20
0.0
 30
0.0
  3
*Model_Space
  1

  0
ENDBLK
  5
21
330
1F
100
AcDbEntity
  8
0
100
AcDbBlockEnd
  0
BLOCK
  5
1C
330
1B
100
AcDbEntity
 67
     1
  8
0
100
AcDbBlockBegin
  2
*Paper_Space
 70
     0
 71
     0
 10
0.0
 20
0.0
 30
0.0
  3
*Paper_Space
  1

  0
ENDBLK
  5
1D
330
1B
100
AcDbEntity
 67
     1
  8
0
100
AcDbBlockEnd
  0
BLOCK
  5
24
330
23
100
AcDbEntity
  8
0
100
AcDbBlockBegin
  2
*Paper_Space0
 70
     0
 71
     0
 10
0.0
 20
0.0
 30
0.0
  3
*Paper_Space0
  1

  0
ENDBLK
  5
25
330
23
100
AcDbEntity
  8
0
100
AcDbBlockEnd
  0
BLOCK
  5
1D3
330
1CC
100
AcDbEntity
  8
0
100
AcDbBlockBegin
  2
*D1
 70
     1
 71
     0
 10
0.0
 20
0.0
 30
0.0
  3
*D1
  1

  0
LINE
  5
1CD
330
1CC
100
AcDbEntity
  8
1
  6
Continuous
 62
     2
100
AcDbLine
 10
190.004302930824
 20
135.289160613974
 30
0.0
 11
210.065723681124
 21
135.289160613974
 31
0.0
  0
LINE
  5
1CE
330
1CC
100
AcDbEntity
  8
1
  6
Continuous
 62
     2
100
AcDbLine
 10
190.004302930824
 20
136.789160613974
 30
0.0
 11
190.004302930824
 21
133.289160613974
 31
0.0
  0
LINE
  5
1CF
330
1CC
100
AcDbEntity
  8
1
  6
Continuous
 62
     2
100
AcDbLine
 10
210.065723681124
 20
153.689160613974
 30
0.0
 11
210.065723681124
 21
133.289160613974
 31
0.0
  0
SOLID
  5
1D0
330
1CC
100
AcDbEntity
  8
1
 62
     2
100
AcDbTrace
 10
193.504302930824
 20
135.7499443555299
 30
0.0
 11
193.504302930824
 21
134.8283768724181
 31
0.0
 12
190.004302930824
 22
135.289160613974
 32
0.0
 13
190.004302930824
 23
135.289160613974
 33
0.0
  0
SOLID
  5
1D1
330
1CC
100
AcDbEntity
  8
1
 62
     2
100
AcDbTrace
 10
206.565723681124
 20
134.8283768724181
 30
0.0
 11
206.565723681124
 21
135.7499443555299
 31
0.0
 12
210.065723681124
 22
135.289160613974
 32
0.0
 13
210.065723681124
 23
135.289160613974
 33
0.0
  0
MTEXT
  5
1D2
330
1CC
100
AcDbEntity
  8
1
 62
     2
100
AcDbMText
 10
198.138650215983
 20
137.289160613974
 30
0.0
 40
3.5
 41
0.0
 71
     7
 72
     1
  1
20
  7
CONVERTER_11
 11
0.9999999999970621
 21
2.424068405545307E-6
 31
0.0
 73
     1
 44
0.60024009603842
  0
ENDBLK
  5
1D4
330
1CC
100
AcDbEntity
  8
0
100
AcDbBlockEnd
  0
BLOCK
  5
1DE
330
1D7
100
AcDbEntity
  8
0
100
AcDbBlockBegin
  2
*D2
 70
     1
 71
     0
 10
0.0
 20
0.0
 30
0.0
  3
*D2
  1

  0
LINE
  5
1D8
330
1D7
100
AcDbEntity
  8
1
  6
Continuous
 62
     2
100
AcDbLine
 10
158.004302930824
 20
110.429747456209
 30
0.0
 11
190.004302930824
 21
110.429747456209
 31
0.0
  0
LINE
  5
1D9
330
1D7
100
AcDbEntity
  8
1
  6
Continuous
 62
     2
100
AcDbLine
 10
158.004302930824
 20
136.789160613974
 30
0.0
 11
158.004302930824
 21
108.429747456209
 31
0.0
  0
LINE
  5
1DA
330
1D7
100
AcDbEntity
  8
1
  6
Continuous
 62
     2
100
AcDbLine
 10
190.004302930824
 20
136.789160613974
 30
0.0
 11
190.004302930824
 21
108.429747456209
 31
0.0
  0
SOLID
  5
1DB
330
1D7
100
AcDbEntity
  8
1
 62
     2
100
AcDbTrace
 10
161.504302930824
 20
110.8905311977649
 30
0.0
 11
161.504302930824
 21
109.9689637146531
 31
0.0
 12
158.004302930824
 22
110.429747456209
 32
0.0
 13
158.004302930824
 23
110.429747456209
 33
0.0
  0
SOLID
  5
1DC
330
1D7
100
AcDbEntity
  8
1
 62
     2
100
AcDbTrace
 10
186.504302930824
 20
109.9689637146531
 30
0.0
 11
186.504302930824
 21
110.8905311977649
 31
0.0
 12
190.004302930824
 22
110.429747456209
 32
0.0
 13
190.004302930824
 23
110.429747456209
 33
0.0
  0
MTEXT
  5
1DD
330
1D7
100
AcDbEntity
  8
1
 62
     2
100
AcDbMText
 10
169.839114908481
 20
112.429747456209
 30
0.0
 40
3.5
 41
0.0
 71
     7
 72
     1
  1
32
  7
CONVERTER_11
 11
0.9999999999970621
 21
2.424068405545307E-6
 31
0.0
 73
     1
 44
0.60024009603842
  0
ENDBLK
  5
1DF
330
1D7
100
AcDbEntity
  8
0
100
AcDbBlockEnd
  0
BLOCK
  5
1E9
330
1E2
100
AcDbEntity
  8
0
100
AcDbBlockBegin
  2
*D3
 70
     1
 71
     0
 10
0.0
 20
0.0
 30
0.0
  3
*D3
  1

  0
LINE
  5
1E3
330
1E2
100
AcDbEntity
  8
1
  6
Continuous
 62
     2
100
AcDbLine
 10
190.004302930824
 20
110.429747456209
 30
0.0
 11
213.065723681124
 21
110.429747456209
 31
0.0
  0
LINE
  5
1E4
330
1E2
100
AcDbEntity
  8
1
  6
Continuous
 62
     2
100
AcDbLine
 10
190.004302930824
 20
136.789160613974
 30
0.0
 11
190.004302930824
 21
108.429747456209
 31
0.0
  0
LINE
  5
1E5
330
1E2
100
AcDbEntity
  8
1
  6
Continuous
 62
     2
100
AcDbLine
 10
213.065723681124
 20
132.639160613974
 30
0.0
 11
213.065723681124
 21
108.429747456209
 31
0.0
  0
SOLID
  5
1E6
330
1E2
100
AcDbEntity
  8
1
 62
     2
100
AcDbTrace
 10
193.504302930824
 20
110.8905311977649
 30
0.0
 11
193.504302930824
 21
109.9689637146531
 31
0.0
 12
190.004302930824
 22
110.429747456209
 32
0.0
 13
190.004302930824
 23
110.429747456209
 33
0.0
  0
SOLID
  5
1E7
330
1E2
100
AcDbEntity
  8
1
 62
     2
100
AcDbTrace
 10
209.565723681124
 20
109.9689637146531
 30
0.0
 11
209.565723681124
 21
110.8905311977649
 31
0.0
 12
213.065723681124
 22
110.429747456209
 32
0.0
 13
213.065723681124
 23
110.429747456209
 33
0.0
  0
MTEXT
  5
1E8
330
1E2
100
AcDbEntity
  8
1
 62
     2
100
AcDbMText
 10
198.799814641114
 20
112.429747456209
 30
0.0
 40
3.5
 41
0.0
 71
     7
 72
     1
  1
23
  7
CONVERTER_11
 11
0.9999999999970621
 21
2.424068405545307E-6
 31
0.0
 73
     1
 44
0.60024009603842
  0
ENDBLK
  5
1EA
330
1E2
100
AcDbEntity
  8
0
100
AcDbBlockEnd
  0
BLOCK
  5
1F4
330
1ED
100
AcDbEntity
  8
0
100
AcDbBlockBegin
  2
*D4
 70
     1
 71
     0
 10
0.0
 20
0.0
 30
0.0
  3
*D4
  1

  0
LINE
  5
1EE
330
1ED
100
AcDbEntity
  8
1
  6
Continuous
 62
     2
100
AcDbLine
 10
213.065723681124
 20
110.429747456209
 30
0.0
 11
237.065723681124
 21
110.429747456209
 31
0.0
  0
LINE
  5
1EF
330
1ED
100
AcDbEntity
  8
1
  6
Continuous
 62
     2
100
AcDbLine
 10
213.065723681124
 20
132.639160613974
 30
0.0
 11
213.065723681124
 21
108.429747456209
 31
0.0
  0
LINE
  5
1F0
330
1ED
100
AcDbEntity
  8
1
  6
Continuous
 62
     2
100
AcDbLine
 10
237.065723681124
 20
132.639160613974
 30
0.0
 11
237.065723681124
 21
108.429747456209
 31
0.0
  0
SOLID
  5
1F1
330
1ED
100
AcDbEntity
  8
1
 62
     2
100
AcDbTrace
 10
216.565723681124
 20
110.8905311977649
 30
0.0
 11
216.565723681124
 21
109.9689637146531
 31
0.0
 12
213.065723681124
 22
110.429747456209
 32
0.0
 13
213.065723681124
 23
110.429747456209
 33
0.0
  0
SOLID
  5
1F2
330
1ED
100
AcDbEntity
  8
1
 62
     2
100
AcDbTrace
 10
233.565723681124
 20
109.9689637146531
 30
0.0
 11
233.565723681124
 21
110.8905311977649
 31
0.0
 12
237.065723681124
 22
110.429747456209
 32
0.0
 13
237.065723681124
 23
110.429747456209
 33
0.0
  0
MTEXT
  5
1F3
330
1ED
100
AcDbEntity
  8
1
 62
     2
100
AcDbMText
 10
223.511454181315
 20
112.429747456209
 30
0.0
 40
3.5
 41
0.0
 71
     7
 72
     1
  1
24
  7
CONVERTER_11
 11
0.9999999999970621
 21
2.424068405545307E-6
 31
0.0
 73
     1
 44
0.60024009603842
  0
ENDBLK
  5
1F5
330
1ED
100
AcDbEntity
  8
0
100
AcDbBlockEnd
  0
BLOCK
  5
1FF
330
1F8
100
AcDbEntity
  8
0
100
AcDbBlockBegin
  2
*D5
 70
     1
 71
     0
 10
0.0
 20
0.0
 30
0.0
  3
*D5
  1

  0
LINE
  5
1F9
330
1F8
100
AcDbEntity
  8
1
  6
Continuous
 62
     2
100
AcDbLine
 10
147.657267350914
 20
245.789160613974
 30
0.0
 11
147.657267350914
 21
120.789160613974
 31
0.0
  0
LINE
  5
1FA
330
1F8
100
AcDbEntity
  8
1
  6
Continuous
 62
     2
100
AcDbLine
 10
174.004302930824
 20
245.789160613974
 30
0.0
 11
145.657267350914
 21
245.789160613974
 31
0.0
  0
LINE
  5
1FB
330
1F8
100
AcDbEntity
  8
1
  6
Continuous
 62
     2
100
AcDbLine
 10
174.004302930824
 20
120.789160613974
 30
0.0
 11
145.657267350914
 21
120.789160613974
 31
0.0
  0
SOLID
  5
1FC
330
1F8
100
AcDbEntity
  8
1
 62
     2
100
AcDbTrace
 10
148.1180510924699
 20
242.289160613974
 30
0.0
 11
147.1964836093581
 21
242.289160613974
 31
0.0
 12
147.657267350914
 22
245.789160613974
 32
0.0
 13
147.657267350914
 23
245.789160613974
 33
0.0
  0
SOLID
  5
1FD
330
1F8
100
AcDbEntity
  8
1
 62
     2
100
AcDbTrace
 10
147.1964836093581
 20
124.289160613974
 30
0.0
 11
148.1180510924699
 21
124.289160613974
 31
0.0
 12
147.657267350914
 22
120.789160613974
 32
0.0
 13
147.657267350914
 23
120.789160613974
 33
0.0
  0
MTEXT
  5
1FE
330
1F8
100
AcDbEntity
  8
1
 62
     2
100
AcDbMText
 10
145.657267350914
 20
178.612936978572
 30
0.0
 40
3.5
 41
0.0
 71
     7
 72
     1
  1
125
  7
CONVERTER_11
 11
0.0
 21
1.0
 31
0.0
 73
     1
 44
0.60024009603842
  0
ENDBLK
  5
200
330
1F8
100
AcDbEntity
  8
0
100
AcDbBlockEnd
  0
ENDSEC
  0
SECTION
  2
ENTITIES
  0
POINT
  5
37
330
1F
100
AcDbEntity
  8
1
 62
     3
 60
     1
100
AcDbPoint
 10
214.195006598578
 20
231.789160613974
 30
0.0
  0
POINT
  5
38
330
1F
100
AcDbEntity
  8
1
 62
     3
 60
     1
100
AcDbPoint
 10
223.195006598578
 20
231.789160613974
 30
0.0
  0
POINT
  5
39
330
1F
100
AcDbEntity
  8
1
 62
     3
 60
     1
100
AcDbPoint
 10
214.287020350417
 20
134.789160613974
 30
0.0
  0
POINT
  5
3A
330
1F
100
AcDbEntity
  8
1
 62
     3
 60
     1
100
AcDbPoint
 10
223.287020350417
 20
134.789160613974
 30
0.0
  0
POINT
  5
3B
330
1F
100
AcDbEntity
  8
1
 62
     3
 60
     1
100
AcDbPoint
 10
207.040595054524
 20
207.191060532136
 30
0.0
  0
POINT
  5
3C
330
1F
100
AcDbEntity
  8
1
 62
     3
 60
     1
100
AcDbPoint
 10
207.040595054524
 20
158.191060532136
 30
0.0
  0
LINE
  5
3D
330
1F
100
AcDbEntity
  8
A_ACHSEN
  6
DOT_CENTER
 62
     2
100
AcDbLine
 10
174.004302930824
 20
128.289160613974
 30
0.0
 11
182.104302930824
 21
128.289160613974
 31
0.0
  0
LINE
  5
3E
330
1F
100
AcDbEntity
  8
A_ACHSEN
  6
DOT_CENTER
 62
     2
100
AcDbLine
 10
174.004302930824
 20
128.289160613974
 30
0.0
 11
165.904302930824
 21
128.289160613974
 31
0.0
  0
LINE
  5
3F
330
1F
100
AcDbEntity
  8
A_ACHSEN
  6
DOT_CENTER
 62
     2
100
AcDbLine
 10
225.065723681124
 20
129.789160613974
 30
0.0
 11
228.065823681124
 21
129.789160613974
 31
0.0
  0
LINE
  5
40
330
1F
100
AcDbEntity
  8
A_ACHSEN
  6
DOT_CENTER
 62
     2
100
AcDbLine
 10
225.065723681124
 20
129.789160613974
 30
0.0
 11
222.065623681124
 21
129.789160613974
 31
0.0
  0
LINE
  5
41
330
1F
100
AcDbEntity
  8
A_ACHSEN
  6
DOT_CENTER
 62
     2
100
AcDbLine
 10
218.965723681124
 20
131.789160613974
 30
0.0
 11
221.965823681124
 21
131.789160613974
 31
0.0
  0
LINE
  5
42
330
1F
100
AcDbEntity
  8
A_ACHSEN
  6
DOT_CENTER
 62
     2
100
AcDbLine
 10
231.165723681124
 20
131.789160613974
 30
0.0
 11
234.165823681124
 21
131.789160613974
 31
0.0
  0
LINE
  5
43
330
1F
100
AcDbEntity
  8
A_ACHSEN
  6
DOT_CENTER
 62
     2
100
AcDbLine
 10
231.165723681124
 20
131.789160613974
 30
0.0
 11
228.165623681124
 21
131.789160613974
 31
0.0
  0
LINE
  5
44
330
1F
100
AcDbEntity
  8
A_ACHSEN
  6
DOT_CENTER
 62
     2
100
AcDbLine
 10
218.965723681124
 20
131.789160613974
 30
0.0
 11
215.965623681124
 21
131.789160613974
 31
0.0
  0
LINE
  5
45
330
1F
100
AcDbEntity
  8
A_ACHSEN
  6
DOT_CENTER
 62
     2
100
AcDbLine
 10
225.065723681124
 20
132.789160613974
 30
0.0
 11
222.065623681124
 21
132.789160613974
 31
0.0
  0
LINE
  5
46
330
1F
100
AcDbEntity
  8
0
  6
Continuous
 62
     7
100
AcDbLine
 10
205.040595054524
 20
160.439160613974
 30
0.0
 11
205.340595054524
 21
160.139160613974
 31
0.0
  0
LINE
  5
47
330
1F
100
AcDbEntity
  8
A_RUNDUNGEN
  6
Continuous
 62
     7
100
AcDbLine
 10
237.065723681124
 20
213.439160613974
 30
0.0
 11
237.065723681124
 21
153.139160613974
 31
0.0
  0
LINE
  5
48
330
1F
100
AcDbEntity
  8
A_RUNDUNGEN
  6
Continuous
 62
     7
100
AcDbLine
 10
235.865723681124
 20
212.539160613974
 30
0.0
 11
235.865723681124
 21
154.039160613974
 31
0.0
  0
LINE
  5
49
330
1F
100
AcDbEntity
  8
0
  6
DASHED
 62
     2
100
AcDbLine
 10
235.415723681124
 20
137.789160613974
 30
0.0
 11
235.415723681124
 21
131.789160613974
 31
0.0
  0
LINE
  5
4A
330
1F
100
AcDbEntity
  8
0
  6
DASHED
 62
     2
100
AcDbLine
 10
235.415723681124
 20
228.789160613974
 30
0.0
 11
235.415723681124
 21
234.789160613974
 31
0.0
  0
LINE
  5
4B
330
1F
100
AcDbEntity
  8
A_ACHSEN
  6
DOT_CENTER
 62
     2
100
AcDbLine
 10
174.004302930824
 20
135.289160613974
 30
0.0
 11
180.004302930824
 21
135.289160613974
 31
0.0
  0
LINE
  5
4C
330
1F
100
AcDbEntity
  8
A_ACHSEN
  6
DOT_CENTER
 62
     2
100
AcDbLine
 10
174.004302930824
 20
135.289160613974
 30
0.0
 11
168.004302930824
 21
135.289160613974
 31
0.0
  0
LINE
  5
4D
330
1F
100
AcDbEntity
  8
A_ACHSEN
  6
DOT_CENTER
 62
     2
100
AcDbLine
 10
225.065723681124
 20
135.789160613974
 30
0.0
 11
228.065823681124
 21
135.789160613974
 31
0.0
  0
LINE
  5
4E
330
1F
100
AcDbEntity
  8
A_ACHSEN
  6
DOT_CENTER
 62
     2
100
AcDbLine
 10
225.065723681124
 20
135.789160613974
 30
0.0
 11
222.065623681124
 21
135.789160613974
 31
0.0
  0
LINE
  5
4F
330
1F
100
AcDbEntity
  8
A_ACHSEN
  6
DOT_CENTER
 62
     2
100
AcDbLine
 10
218.965723681124
 20
137.789160613974
 30
0.0
 11
221.965823681124
 21
137.789160613974
 31
0.0
  0
LINE
  5
50
330
1F
100
AcDbEntity
  8
A_ACHSEN
  6
DOT_CENTER
 62
     2
100
AcDbLine
 10
231.165723681124
 20
137.789160613974
 30
0.0
 11
234.165823681124
 21
137.789160613974
 31
0.0
  0
LINE
  5
51
330
1F
100
AcDbEntity
  8
A_ACHSEN
  6
DOT_CENTER
 62
     2
100
AcDbLine
 10
231.165723681124
 20
137.789160613974
 30
0.0
 11
228.165623681124
 21
137.789160613974
 31
0.0
  0
LINE
  5
52
330
1F
100
AcDbEntity
  8
A_ACHSEN
  6
DOT_CENTER
 62
     2
100
AcDbLine
 10
218.965723681124
 20
137.789160613974
 30
0.0
 11
215.965623681124
 21
137.789160613974
 31
0.0
  0
LINE
  5
53
330
1F
100
AcDbEntity
  8
A_RUNDUNGEN
  6
Continuous
 62
     7
100
AcDbLine
 10
234.665723681124
 20
212.389160613974
 30
0.0
 11
234.665723681124
 21
209.689160613974
 31
0.0
  0
LINE
  5
54
330
1F
100
AcDbEntity
  8
A_RUNDUNGEN
  6
Continuous
 62
     7
100
AcDbLine
 10
234.665723681124
 20
156.889160613974
 30
0.0
 11
234.665723681124
 21
154.189160613974
 31
0.0
  0
LINE
  5
55
330
1F
100
AcDbEntity
  8
0
  6
Continuous
 62
     7
100
AcDbLine
 10
234.665723681124
 20
156.889160613974
 30
0.0
 11
234.665723681124
 21
159.189160613974
 31
0.0
  0
LINE
  5
56
330
1F
100
AcDbEntity
  8
0
  6
Continuous
 62
     7
100
AcDbLine
 10
234.665723681124
 20
207.389160613974
 30
0.0
 11
234.665723681124
 21
209.689160613974
 31
0.0
  0
LINE
  5
57
330
1F
100
AcDbEntity
  8
0
  6
DASHED
 62
     2
100
AcDbLine
 10
233.765723681124
 20
137.789160613974
 30
0.0
 11
233.765723681124
 21
131.789160613974
 31
0.0
  0
LINE
  5
58
330
1F
100
AcDbEntity
  8
0
  6
DASHED
 62
     2
100
AcDbLine
 10
233.765723681124
 20
228.789160613974
 30
0.0
 11
233.765723681124
 21
234.789160613974
 31
0.0
  0
LINE
  5
59
330
1F
100
AcDbEntity
  8
A_RUNDUNGEN
  6
Continuous
 62
     7
100
AcDbLine
 10
232.065723681124
 20
153.189160613974
 30
0.0
 11
232.065723681124
 21
153.139160613974
 31
0.0
  0
LINE
  5
5A
330
1F
100
AcDbEntity
  8
A_ACHSEN
  6
DOT_CENTER
 62
     2
100
AcDbLine
 10
231.165723681124
 20
234.789160613974
 30
0.0
 11
231.165723681124
 21
231.789060613974
 31
0.0
  0
LINE
  5
5B
330
1F
100
AcDbEntity
  8
A_ACHSEN
  6
DOT_CENTER
 62
     2
100
AcDbLine
 10
231.165723681124
 20
228.789160613974
 30
0.0
 11
231.165723681124
 21
223.789060613974
 31
0.0
  0
LINE
  5
5C
330
1F
100
AcDbEntity
  8
A_ACHSEN
  6
DOT_CENTER
 62
     2
100
AcDbLine
 10
231.165723681124
 20
137.789160613974
 30
0.0
 11
231.165723681124
 21
134.789060613974
 31
0.0
  0
LINE
  5
5D
330
1F
100
AcDbEntity
  8
A_ACHSEN
  6
DOT_CENTER
 62
     2
100
AcDbLine
 10
231.165723681124
 20
131.789160613974
 30
0.0
 11
231.165723681124
 21
126.789060613974
 31
0.0
  0
LINE
  5
5E
330
1F
100
AcDbEntity
  8
A_ACHSEN
  6
DOT_CENTER
 62
     2
100
AcDbLine
 10
231.165723681124
 20
131.789160613974
 30
0.0
 11
231.165723681124
 21
134.789260613974
 31
0.0
  0
LINE
  5
5F
330
1F
100
AcDbEntity
  8
A_ACHSEN
  6
DOT_CENTER
 62
     2
100
AcDbLine
 10
231.165723681124
 20
137.789160613974
 30
0.0
 11
231.165723681124
 21
142.789260613974
 31
0.0
  0
LINE
  5
60
330
1F
100
AcDbEntity
  8
A_ACHSEN
  6
DOT_CENTER
 62
     2
100
AcDbLine
 10
231.165723681124
 20
228.789160613974
 30
0.0
 11
231.165723681124
 21
231.789260613974
 31
0.0
  0
LINE
  5
61
330
1F
100
AcDbEntity
  8
A_ACHSEN
  6
DOT_CENTER
 62
     2
100
AcDbLine
 10
231.165723681124
 20
234.789160613974
 30
0.0
 11
231.165723681124
 21
239.789260613974
 31
0.0
  0
LINE
  5
62
330
1F
100
AcDbEntity
  8
0
  6
DASHED
 62
     2
100
AcDbLine
 10
228.565723681124
 20
234.789160613974
 30
0.0
 11
228.565723681124
 21
228.789160613974
 31
0.0
  0
LINE
  5
63
330
1F
100
AcDbEntity
  8
0
  6
DASHED
 62
     2
100
AcDbLine
 10
228.565723681124
 20
131.789160613974
 30
0.0
 11
228.565723681124
 21
137.789160613974
 31
0.0
  0
LINE
  5
64
330
1F
100
AcDbEntity
  8
A_FASEN
  6
DASHED
 62
     2
100
AcDbLine
 10
227.165723681124
 20
236.789160613974
 30
0.0
 11
227.165723681124
 21
236.225301275674
 31
0.0
  0
LINE
  5
65
330
1F
100
AcDbEntity
  8
0
  6
DASHED
 62
     2
100
AcDbLine
 10
227.165723681124
 20
135.789160613974
 30
0.0
 11
227.165723681124
 21
130.353019952374
 31
0.0
  0
LINE
  5
66
330
1F
100
AcDbEntity
  8
A_FASEN
  6
DASHED
 62
     2
100
AcDbLine
 10
227.165723681124
 20
130.353019952374
 30
0.0
 11
227.165723681124
 21
129.789160613974
 31
0.0
  0
LINE
  5
67
330
1F
100
AcDbEntity
  8
0
  6
DASHED
 62
     2
100
AcDbLine
 10
227.165723681124
 20
230.789160613974
 30
0.0
 11
227.165723681124
 21
236.225301275674
 31
0.0
  0
LINE
  5
68
330
1F
100
AcDbEntity
  8
0
  6
Continuous
 62
     7
100
AcDbLine
 10
227.129025464424
 20
160.439160613974
 30
0.0
 11
227.129025464424
 21
206.139160613974
 31
0.0
  0
LINE
  5
69
330
1F
100
AcDbEntity
  8
A_ACHSEN
  6
Continuous
 62
     7
100
AcDbLine
 10
226.934617502624
 20
207.389160613974
 30
0.0
 11
226.934617502624
 21
206.139160613974
 31
0.0
  0
LINE
  5
6A
330
1F
100
AcDbEntity
  8
A_ACHSEN
  6
Continuous
 62
     7
100
AcDbLine
 10
226.934617502624
 20
159.189160613974
 30
0.0
 11
226.934617502624
 21
160.439160613974
 31
0.0
  0
LINE
  5
6B
330
1F
100
AcDbEntity
  8
A_FASEN
  6
DASHED
 62
     2
100
AcDbLine
 10
226.915723681124
 20
229.795430268274
 30
0.0
 11
226.915723681124
 21
228.789160613974
 31
0.0
  0
LINE
  5
6C
330
1F
100
AcDbEntity
  8
A_FASEN
  6
DASHED
 62
     2
100
AcDbLine
 10
226.915723681124
 20
137.789160613974
 30
0.0
 11
226.915723681124
 21
136.782890959674
 31
0.0
  0
LINE
  5
6D
330
1F
100
AcDbEntity
  8
A_ACHSEN
  6
DOT_CENTER
 62
     2
100
AcDbLine
 10
225.065723681124
 20
236.789160613974
 30
0.0
 11
225.065723681124
 21
233.789060613974
 31
0.0
  0
LINE
  5
6E
330
1F
100
AcDbEntity
  8
A_ACHSEN
  6
DOT_CENTER
 62
     2
100
AcDbLine
 10
225.065723681124
 20
233.789160613974
 30
0.0
 11
225.065723681124
 21
230.789060613974
 31
0.0
  0
LINE
  5
6F
330
1F
100
AcDbEntity
  8
A_ACHSEN
  6
DOT_CENTER
 62
     2
100
AcDbLine
 10
225.065723681124
 20
230.789060613974
 30
0.0
 11
225.065723681124
 21
228.789060613974
 31
0.0
  0
LINE
  5
70
330
1F
100
AcDbEntity
  8
A_ACHSEN
  6
DOT_CENTER
 62
     2
100
AcDbLine
 10
225.065723681124
 20
228.789060613974
 30
0.0
 11
225.065723681124
 21
226.789060613974
 31
0.0
  0
LINE
  5
71
330
1F
100
AcDbEntity
  8
A_ACHSEN
  6
DOT_CENTER
 62
     2
100
AcDbLine
 10
225.065723681124
 20
135.789160613974
 30
0.0
 11
225.065723681124
 21
132.789160613974
 31
0.0
  0
LINE
  5
72
330
1F
100
AcDbEntity
  8
A_ACHSEN
  6
CENTER
 62
     2
100
AcDbLine
 10
225.065723681124
 20
132.789060613974
 30
0.0
 11
225.065723681124
 21
131.789060613974
 31
0.0
  0
LINE
  5
73
330
1F
100
AcDbEntity
  8
A_ACHSEN
  6
DOT_CENTER
 62
     2
100
AcDbLine
 10
225.065723681124
 20
131.789060613974
 30
0.0
 11
225.065723681124
 21
129.789060613974
 31
0.0
  0
LINE
  5
74
330
1F
100
AcDbEntity
  8
A_ACHSEN
  6
DOT_CENTER
 62
     2
100
AcDbLine
 10
225.065723681124
 20
129.789160613974
 30
0.0
 11
225.065723681124
 21
126.489948281219
 31
0.0
  0
LINE
  5
75
330
1F
100
AcDbEntity
  8
A_ACHSEN
  6
DOT_CENTER
 62
     2
100
AcDbLine
 10
225.065723681124
 20
135.789160613974
 30
0.0
 11
225.065723681124
 21
137.789260613974
 31
0.0
  0
LINE
  5
76
330
1F
100
AcDbEntity
  8
A_ACHSEN
  6
DOT_CENTER
 62
     2
100
AcDbLine
 10
225.065723681124
 20
137.789260613974
 30
0.0
 11
225.065723681124
 21
139.218911601059
 31
0.0
  0
LINE
  5
77
330
1F
100
AcDbEntity
  8
A_ACHSEN
  6
DOT_CENTER
 62
     2
100
AcDbLine
 10
225.065723681124
 20
236.789160613974
 30
0.0
 11
225.065723681124
 21
240.789260613974
 31
0.0
  0
LINE
  5
78
330
1F
100
AcDbEntity
  8
A_FASEN
  6
DASHED
 62
     2
100
AcDbLine
 10
223.215723681124
 20
136.782890959674
 30
0.0
 11
223.215723681124
 21
137.789160613974
 31
0.0
  0
LINE
  5
79
330
1F
100
AcDbEntity
  8
A_FASEN
  6
DASHED
 62
     2
100
AcDbLine
 10
223.215723681124
 20
228.789160613974
 30
0.0
 11
223.215723681124
 21
229.795430268274
 31
0.0
  0
LINE
  5
7A
330
1F
100
AcDbEntity
  8
0
  6
DASHED
 62
     2
100
AcDbLine
 10
222.965723681124
 20
236.225301275674
 30
0.0
 11
222.965723681124
 21
230.789160613974
 31
0.0
  0
LINE
  5
7B
330
1F
100
AcDbEntity
  8
A_FASEN
  6
DASHED
 62
     2
100
AcDbLine
 10
222.965723681124
 20
129.789160613974
 30
0.0
 11
222.965723681124
 21
130.353019952374
 31
0.0
  0
LINE
  5
7C
330
1F
100
AcDbEntity
  8
0
  6
DASHED
 62
     2
100
AcDbLine
 10
222.965723681124
 20
130.353019952374
 30
0.0
 11
222.965723681124
 21
135.789160613974
 31
0.0
  0
LINE
  5
7D
330
1F
100
AcDbEntity
  8
A_FASEN
  6
DASHED
 62
     2
100
AcDbLine
 10
222.965723681124
 20
236.225301275674
 30
0.0
 11
222.965723681124
 21
236.789160613974
 31
0.0
  0
LINE
  5
7E
330
1F
100
AcDbEntity
  8
A_RUNDUNGEN
  6
Continuous
 62
     7
100
AcDbLine
 10
235.365723681124
 20
153.539160613974
 30
0.0
 11
232.217322557824
 21
153.539160613974
 31
0.0
  0
LINE
  5
7F
330
1F
100
AcDbEntity
  8
A_RUNDUNGEN
  6
Continuous
 62
     7
100
AcDbLine
 10
217.914124804424
 20
153.539160613974
 30
0.0
 11
213.065723681124
 21
153.539160613974
 31
0.0
  0
LINE
  5
80
330
1F
100
AcDbEntity
  8
A_RUNDUNGEN
  6
Continuous
 62
     7
100
AcDbLine
 10
190.004302930824
 20
153.539160613974
 30
0.0
 11
184.358418217924
 21
153.539160613974
 31
0.0
  0
LINE
  5
81
330
1F
100
AcDbEntity
  8
A_RUNDUNGEN
  6
Continuous
 62
     7
100
AcDbLine
 10
184.358418217924
 20
153.539160613974
 30
0.0
 11
159.304396273124
 21
153.539160613974
 31
0.0
  0
LINE
  5
82
330
1F
100
AcDbEntity
  8
A_RUNDUNGEN
  6
Continuous
 62
     7
100
AcDbLine
 10
159.504607702924
 20
153.689160613974
 30
0.0
 11
189.504302930824
 21
153.689160613974
 31
0.0
  0
LINE
  5
83
330
1F
100
AcDbEntity
  8
A_RUNDUNGEN
  6
Continuous
 62
     7
100
AcDbLine
 10
234.165723681124
 20
153.689160613974
 30
0.0
 11
210.065723681124
 21
153.689160613974
 31
0.0
  0
LINE
  5
84
330
1F
100
AcDbEntity
  8
0
  6
Continuous
 62
     7
100
AcDbLine
 10
210.065723681124
 20
156.889160613974
 30
0.0
 11
234.665723681124
 21
156.889160613974
 31
0.0
  0
LINE
  5
85
330
1F
100
AcDbEntity
  8
0
  6
DASHED
 62
     2
100
AcDbLine
 10
221.565723681124
 20
234.789160613974
 30
0.0
 11
221.565723681124
 21
228.789160613974
 31
0.0
  0
LINE
  5
86
330
1F
100
AcDbEntity
  8
0
  6
DASHED
 62
     2
100
AcDbLine
 10
221.565723681124
 20
131.789160613974
 30
0.0
 11
221.565723681124
 21
137.789160613974
 31
0.0
  0
LINE
  5
87
330
1F
100
AcDbEntity
  8
A_ACHSEN
  6
DOT_CENTER
 62
     2
100
AcDbLine
 10
218.965723681124
 20
234.789160613974
 30
0.0
 11
218.965723681124
 21
231.789060613974
 31
0.0
  0
LINE
  5
88
330
1F
100
AcDbEntity
  8
A_ACHSEN
  6
DOT_CENTER
 62
     2
100
AcDbLine
 10
218.965723681124
 20
228.789160613974
 30
0.0
 11
218.965723681124
 21
223.789060613974
 31
0.0
  0
LINE
  5
89
330
1F
100
AcDbEntity
  8
A_ACHSEN
  6
DOT_CENTER
 62
     2
100
AcDbLine
 10
218.965723681124
 20
137.789160613974
 30
0.0
 11
218.965723681124
 21
134.789060613974
 31
0.0
  0
LINE
  5
8A
330
1F
100
AcDbEntity
  8
A_ACHSEN
  6
DOT_CENTER
 62
     2
100
AcDbLine
 10
218.965723681124
 20
131.789160613974
 30
0.0
 11
218.965723681124
 21
126.789060613974
 31
0.0
  0
LINE
  5
8B
330
1F
100
AcDbEntity
  8
A_ACHSEN
  6
DOT_CENTER
 62
     2
100
AcDbLine
 10
218.965723681124
 20
131.789160613974
 30
0.0
 11
218.965723681124
 21
134.789260613974
 31
0.0
  0
LINE
  5
8C
330
1F
100
AcDbEntity
  8
A_ACHSEN
  6
DOT_CENTER
 62
     2
100
AcDbLine
 10
218.965723681124
 20
137.789160613974
 30
0.0
 11
218.965723681124
 21
142.789260613974
 31
0.0
  0
LINE
  5
8D
330
1F
100
AcDbEntity
  8
A_ACHSEN
  6
DOT_CENTER
 62
     2
100
AcDbLine
 10
218.965723681124
 20
228.789160613974
 30
0.0
 11
218.965723681124
 21
231.789260613974
 31
0.0
  0
LINE
  5
8E
330
1F
100
AcDbEntity
  8
A_ACHSEN
  6
DOT_CENTER
 62
     2
100
AcDbLine
 10
218.965723681124
 20
234.789160613974
 30
0.0
 11
218.965723681124
 21
239.789260613974
 31
0.0
  0
LINE
  5
8F
330
1F
100
AcDbEntity
  8
A_RUNDUNGEN
  6
Continuous
 62
     7
100
AcDbLine
 10
218.723252701224
 20
160.439160613974
 30
0.0
 11
218.723252701224
 21
171.439160613974
 31
0.0
  0
LINE
  5
90
330
1F
100
AcDbEntity
  8
A_RUNDUNGEN
  6
Continuous
 62
     7
100
AcDbLine
 10
218.723252701224
 20
195.139160613974
 30
0.0
 11
218.723252701224
 21
206.139160613974
 31
0.0
  0
LINE
  5
91
330
1F
100
AcDbEntity
  8
A_ACHSEN
  6
Continuous
 62
     7
100
AcDbLine
 10
218.221829859624
 20
207.389160613974
 30
0.0
 11
218.221829859624
 21
206.089160613974
 31
0.0
  0
LINE
  5
92
330
1F
100
AcDbEntity
  8
A_ACHSEN
  6
Continuous
 62
     7
100
AcDbLine
 10
218.221829859624
 20
159.189160613974
 30
0.0
 11
218.221829859624
 21
160.489160613974
 31
0.0
  0
LINE
  5
93
330
1F
100
AcDbEntity
  8
A_ACHSEN
  6
Continuous
 62
     7
100
AcDbLine
 10
218.065723681124
 20
159.189160613974
 30
0.0
 11
218.065723681124
 21
171.689160613974
 31
0.0
  0
LINE
  5
94
330
1F
100
AcDbEntity
  8
A_ACHSEN
  6
Continuous
 62
     7
100
AcDbLine
 10
218.065723681124
 20
194.889160613974
 30
0.0
 11
218.065723681124
 21
207.389160613974
 31
0.0
  0
LINE
  5
95
330
1F
100
AcDbEntity
  8
0
  6
Continuous
 62
     7
100
AcDbLine
 10
217.065723681124
 20
171.789160613974
 30
0.0
 11
217.065723681124
 21
172.939160613974
 31
0.0
  0
LINE
  5
96
330
1F
100
AcDbEntity
  8
0
  6
Continuous
 62
     7
100
AcDbLine
 10
217.065723681124
 20
193.639160613974
 30
0.0
 11
217.065723681124
 21
194.789160613974
 31
0.0
  0
LINE
  5
97
330
1F
100
AcDbEntity
  8
0
  6
DASHED
 62
     2
100
AcDbLine
 10
216.365723681124
 20
137.789160613974
 30
0.0
 11
216.365723681124
 21
131.789160613974
 31
0.0
  0
LINE
  5
98
330
1F
100
AcDbEntity
  8
0
  6
DASHED
 62
     2
100
AcDbLine
 10
216.365723681124
 20
228.789160613974
 30
0.0
 11
216.365723681124
 21
234.789160613974
 31
0.0
  0
LINE
  5
99
330
1F
100
AcDbEntity
  8
0
  6
Continuous
 62
     7
100
AcDbLine
 10
216.040723681124
 20
194.889160613974
 30
0.0
 11
216.040723681124
 21
194.789160613974
 31
0.0
  0
LINE
  5
9A
330
1F
100
AcDbEntity
  8
0
  6
Continuous
 62
     7
100
AcDbLine
 10
216.040723681124
 20
171.789160613974
 30
0.0
 11
216.040723681124
 21
171.689160613974
 31
0.0
  0
LINE
  5
9B
330
1F
100
AcDbEntity
  8
0
  6
DASHED
 62
     2
100
AcDbLine
 10
214.715723681124
 20
234.789160613974
 30
0.0
 11
214.715723681124
 21
228.789160613974
 31
0.0
  0
LINE
  5
9C
330
1F
100
AcDbEntity
  8
0
  6
DASHED
 62
     2
100
AcDbLine
 10
214.715723681124
 20
131.789160613974
 30
0.0
 11
214.715723681124
 21
137.789160613974
 31
0.0
  0
LINE
  5
9D
330
1F
100
AcDbEntity
  8
A_RUNDUNGEN
  6
Continuous
 62
     7
100
AcDbLine
 10
213.065723681124
 20
153.139160613974
 30
0.0
 11
213.065723681124
 21
153.689160613974
 31
0.0
  0
LINE
  5
9E
330
1F
100
AcDbEntity
  8
A_RUNDUNGEN
  6
Continuous
 62
     7
100
AcDbLine
 10
213.065723681124
 20
212.889160613974
 30
0.0
 11
213.065723681124
 21
213.439160613974
 31
0.0
  0
LINE
  5
9F
330
1F
100
AcDbEntity
  8
0
  6
Continuous
 62
     7
100
AcDbLine
 10
212.090723681124
 20
194.889160613974
 30
0.0
 11
212.090723681124
 21
194.789160613974
 31
0.0
  0
LINE
  5
A0
330
1F
100
AcDbEntity
  8
0
  6
Continuous
 62
     7
100
AcDbLine
 10
212.090723681124
 20
171.789160613974
 30
0.0
 11
212.090723681124
 21
171.689160613974
 31
0.0
  0
LINE
  5
A1
330
1F
100
AcDbEntity
  8
0
  6
Continuous
 62
     7
100
AcDbLine
 10
211.065723681124
 20
171.789160613974
 30
0.0
 11
211.065723681124
 21
172.939160613974
 31
0.0
  0
LINE
  5
A2
330
1F
100
AcDbEntity
  8
0
  6
Continuous
 62
     7
100
AcDbLine
 10
211.065723681124
 20
193.639160613974
 30
0.0
 11
211.065723681124
 21
194.789160613974
 31
0.0
  0
LINE
  5
A3
330
1F
100
AcDbEntity
  8
A_ACHSEN
  6
Continuous
 62
     7
100
AcDbLine
 10
211.040595054524
 20
194.889160613974
 30
0.0
 11
211.040595054524
 21
193.639160613974
 31
0.0
  0
LINE
  5
A4
330
1F
100
AcDbEntity
  8
A_ACHSEN
  6
Continuous
 62
     7
100
AcDbLine
 10
211.040595054524
 20
171.689160613974
 30
0.0
 11
211.040595054524
 21
172.939160613974
 31
0.0
  0
LINE
  5
A5
330
1F
100
AcDbEntity
  8
0
  6
Continuous
 62
     7
100
AcDbLine
 10
159.004302930824
 20
159.189160613974
 30
0.0
 11
190.004302930824
 21
159.189160613974
 31
0.0
  0
LINE
  5
A6
330
1F
100
AcDbEntity
  8
0
  6
Continuous
 62
     7
100
AcDbLine
 10
210.065723681124
 20
159.189160613974
 30
0.0
 11
234.665723681124
 21
159.189160613974
 31
0.0
  0
LINE
  5
A7
330
1F
100
AcDbEntity
  8
0
  6
Continuous
 62
     7
100
AcDbLine
 10
208.740593931024
 20
160.139160613974
 30
0.0
 11
205.340596177924
 21
160.139160613974
 31
0.0
  0
LINE
  5
A8
330
1F
100
AcDbEntity
  8
A_ACHSEN
  6
Continuous
 62
     7
100
AcDbLine
 10
169.691389150024
 20
160.439160613974
 30
0.0
 11
169.911029204024
 21
160.439160613974
 31
0.0
  0
LINE
  5
A9
330
1F
100
AcDbEntity
  8
0
  6
Continuous
 62
     7
100
AcDbLine
 10
218.723252701224
 20
160.439160613974
 30
0.0
 11
227.128699209924
 21
160.439160613974
 31
0.0
  0
LINE
  5
AA
330
1F
100
AcDbEntity
  8
A_ACHSEN
  6
Continuous
 62
     7
100
AcDbLine
 10
218.065722590224
 20
160.439160613974
 30
0.0
 11
171.159492929424
 21
160.439160613974
 31
0.0
  0
LINE
  5
AB
330
1F
100
AcDbEntity
  8
A_ACHSEN
  6
Continuous
 62
     7
100
AcDbLine
 10
169.911029204024
 20
160.489160613974
 30
0.0
 11
171.563732848624
 21
160.489160613974
 31
0.0
  0
LINE
  5
AC
330
1F
100
AcDbEntity
  8
A_ACHSEN
  6
Continuous
 62
     7
100
AcDbLine
 10
218.221829859624
 20
160.489160613974
 30
0.0
 11
218.723252701224
 21
160.489160613974
 31
0.0
  0
LINE
  5
AD
330
1F
100
AcDbEntity
  8
0
  6
Continuous
 62
     7
100
AcDbLine
 10
208.740595054524
 20
206.439160613974
 30
0.0
 11
209.040595054524
 21
206.139160613974
 31
0.0
  0
LINE
  5
AE
330
1F
100
AcDbEntity
  8
A_ACHSEN
  6
Continuous
 62
     7
100
AcDbLine
 10
210.065723681124
 20
207.389160613974
 30
0.0
 11
210.065723681124
 21
206.139160613974
 31
0.0
  0
LINE
  5
AF
330
1F
100
AcDbEntity
  8
0
  6
Continuous
 62
     7
100
AcDbLine
 10
210.065723681124
 20
153.689160613974
 30
0.0
 11
210.065723681124
 21
159.189160613974
 31
0.0
  0
LINE
  5
B0
330
1F
100
AcDbEntity
  8
A_ACHSEN
  6
Continuous
 62
     7
100
AcDbLine
 10
210.065723681124
 20
159.189160613974
 30
0.0
 11
210.065723681124
 21
160.439160613974
 31
0.0
  0
LINE
  5
B1
330
1F
100
AcDbEntity
  8
0
  6
Continuous
 62
     7
100
AcDbLine
 10
210.065723681124
 20
207.389160613974
 30
0.0
 11
210.065723681124
 21
212.889160613974
 31
0.0
  0
LINE
  5
B2
330
1F
100
AcDbEntity
  8
A_ACHSEN
  6
Continuous
 62
     7
100
AcDbLine
 10
203.040595054524
 20
194.889160613974
 30
0.0
 11
203.040595054524
 21
193.639160613974
 31
0.0
  0
LINE
  5
B3
330
1F
100
AcDbEntity
  8
A_ACHSEN
  6
Continuous
 62
     7
100
AcDbLine
 10
203.040595054524
 20
171.689160613974
 30
0.0
 11
203.040595054524
 21
172.939160613974
 31
0.0
  0
LINE
  5
B4
330
1F
100
AcDbEntity
  8
A_RUNDUNGEN
  6
Continuous
 62
     7
100
AcDbLine
 10
185.592558752724
 20
171.689160613974
 30
0.0
 11
189.383251449824
 21
171.689160613974
 31
0.0
  0
LINE
  5
B5
330
1F
100
AcDbEntity
  8
A_ACHSEN
  6
Continuous
 62
     7
100
AcDbLine
 10
209.065282472824
 20
171.689160613974
 30
0.0
 11
205.508030186724
 21
171.689160613974
 31
0.0
  0
LINE
  5
B6
330
1F
100
AcDbEntity
  8
0
  6
Continuous
 62
     7
100
AcDbLine
 10
218.065479495624
 20
171.689160613974
 30
0.0
 11
189.383251449824
 21
171.689160613974
 31
0.0
  0
LINE
  5
B7
330
1F
100
AcDbEntity
  8
0
  6
Continuous
 62
     7
100
AcDbLine
 10
217.065710863024
 20
171.789160613974
 30
0.0
 11
211.065736499124
 21
171.789160613974
 31
0.0
  0
LINE
  5
B8
330
1F
100
AcDbEntity
  8
A_ACHSEN
  6
Continuous
 62
     7
100
AcDbLine
 10
207.814675529224
 20
172.939160613974
 30
0.0
 11
210.969884450624
 21
172.939160613974
 31
0.0
  0
LINE
  5
B9
330
1F
100
AcDbEntity
  8
A_RUNDUNGEN
  6
Continuous
 62
     7
100
AcDbLine
 10
215.899115774924
 20
172.939160613974
 30
0.0
 11
217.207787203924
 21
172.939160613974
 31
0.0
  0
LINE
  5
BA
330
1F
100
AcDbEntity
  8
0
  6
Continuous
 62
     7
100
AcDbLine
 10
215.899115774924
 20
172.939160613974
 30
0.0
 11
183.891425946024
 21
172.939160613974
 31
0.0
  0
LINE
  5
BB
330
1F
100
AcDbEntity
  8
A_RUNDUNGEN
  6
Continuous
 62
     7
100
AcDbLine
 10
189.192567242924
 20
172.774691308374
 30
0.0
 11
189.198342880524
 21
172.673597642774
 31
0.0
  0
LINE
  5
BC
330
1F
100
AcDbEntity
  8
A_RUNDUNGEN
  6
Continuous
 62
     7
100
AcDbLine
 10
190.004302930824
 20
213.039160613974
 30
0.0
 11
190.004302930824
 21
212.453374176374
 31
0.0
  0
LINE
  5
BD
330
1F
100
AcDbEntity
  8
A_RUNDUNGEN
  6
Continuous
 62
     7
100
AcDbLine
 10
190.004302930824
 20
154.124947051574
 30
0.0
 11
190.004302930824
 21
153.539160613974
 31
0.0
  0
LINE
  5
BE
330
1F
100
AcDbEntity
  8
A_RUNDUNGEN
  6
Continuous
 62
     7
100
AcDbLine
 10
190.004302930824
 20
153.539160613974
 30
0.0
 11
190.004302930824
 21
160.439160613974
 31
0.0
  0
LINE
  5
BF
330
1F
100
AcDbEntity
  8
A_RUNDUNGEN
  6
Continuous
 62
     7
100
AcDbLine
 10
190.004302930824
 20
171.689160613974
 30
0.0
 11
190.004302930824
 21
172.939160613974
 31
0.0
  0
LINE
  5
C0
330
1F
100
AcDbEntity
  8
A_RUNDUNGEN
  6
Continuous
 62
     7
100
AcDbLine
 10
190.004302930824
 20
193.639160613974
 30
0.0
 11
190.004302930824
 21
194.889160613974
 31
0.0
  0
LINE
  5
C1
330
1F
100
AcDbEntity
  8
A_RUNDUNGEN
  6
Continuous
 62
     7
100
AcDbLine
 10
190.004302930824
 20
206.139160613974
 30
0.0
 11
190.004302930824
 21
212.389160613974
 31
0.0
  0
LINE
  5
C2
330
1F
100
AcDbEntity
  8
0
  6
Continuous
 62
     7
100
AcDbLine
 10
190.004302930824
 20
213.039160613974
 30
0.0
 11
190.004302930824
 21
213.289160613974
 31
0.0
  0
LINE
  5
C3
330
1F
100
AcDbEntity
  8
A_ACHSEN
  6
Continuous
 62
     7
100
AcDbLine
 10
189.504302930824
 20
207.389160613974
 30
0.0
 11
189.504302930824
 21
206.139160613974
 31
0.0
  0
LINE
  5
C4
330
1F
100
AcDbEntity
  8
A_ACHSEN
  6
Continuous
 62
     7
100
AcDbLine
 10
189.504302930824
 20
159.189160613974
 30
0.0
 11
189.504302930824
 21
160.439160613974
 31
0.0
  0
LINE
  5
C5
330
1F
100
AcDbEntity
  8
0
  6
Continuous
 62
     7
100
AcDbLine
 10
189.504302930824
 20
171.689160613974
 30
0.0
 11
189.504302930824
 21
172.939160613974
 31
0.0
  0
LINE
  5
C6
330
1F
100
AcDbEntity
  8
0
  6
Continuous
 62
     7
100
AcDbLine
 10
189.504302930824
 20
193.639160613974
 30
0.0
 11
189.504302930824
 21
194.889160613974
 31
0.0
  0
LINE
  5
C7
330
1F
100
AcDbEntity
  8
0
  6
Continuous
 62
     7
100
AcDbLine
 10
209.040595054524
 20
160.439160613974
 30
0.0
 11
208.740595054524
 21
160.139160613974
 31
0.0
  0
LINE
  5
C8
330
1F
100
AcDbEntity
  8
A_RUNDUNGEN
  6
Continuous
 62
     7
100
AcDbLine
 10
215.899115774924
 20
193.639160613974
 30
0.0
 11
217.207787203924
 21
193.639160613974
 31
0.0
  0
LINE
  5
C9
330
1F
100
AcDbEntity
  8
0
  6
Continuous
 62
     7
100
AcDbLine
 10
215.899115774924
 20
193.639160613974
 30
0.0
 11
183.891425946024
 21
193.639160613974
 31
0.0
  0
LINE
  5
CA
330
1F
100
AcDbEntity
  8
A_ACHSEN
  6
Continuous
 62
     7
100
AcDbLine
 10
210.969884450624
 20
193.639160613974
 30
0.0
 11
207.814675529224
 21
193.639160613974
 31
0.0
  0
LINE
  5
CB
330
1F
100
AcDbEntity
  8
DEFAULT_1
  6
DOT_CENTER
 62
     2
100
AcDbLine
 10
185.504302930824
 20
208.139160613974
 30
0.0
 11
185.504302930824
 21
158.439160613974
 31
0.0
  0
LINE
  5
CC
330
1F
100
AcDbEntity
  8
A_RUNDUNGEN
  6
Continuous
 62
     7
100
AcDbLine
 10
183.856215868024
 20
173.189160613974
 30
0.0
 11
183.856215868024
 21
193.389160613974
 31
0.0
  0
LINE
  5
CD
330
1F
100
AcDbEntity
  8
A_ACHSEN
  6
Continuous
 62
     7
100
AcDbLine
 10
181.504302930824
 20
207.389160613974
 30
0.0
 11
181.504302930824
 21
206.139160613974
 31
0.0
  0
LINE
  5
CE
330
1F
100
AcDbEntity
  8
A_ACHSEN
  6
Continuous
 62
     7
100
AcDbLine
 10
181.504302930824
 20
159.189160613974
 30
0.0
 11
181.504302930824
 21
160.439160613974
 31
0.0
  0
LINE
  5
CF
330
1F
100
AcDbEntity
  8
A_ACHSEN
  6
Continuous
 62
     7
100
AcDbLine
 10
177.907702164824
 20
207.389160613974
 30
0.0
 11
177.907702164824
 21
206.139160613974
 31
0.0
  0
LINE
  5
D0
330
1F
100
AcDbEntity
  8
A_ACHSEN
  6
Continuous
 62
     7
100
AcDbLine
 10
177.907702164824
 20
159.189160613974
 30
0.0
 11
177.907702164824
 21
160.439160613974
 31
0.0
  0
LINE
  5
D1
330
1F
100
AcDbEntity
  8
A_RUNDUNGEN
  6
Continuous
 62
     7
100
AcDbLine
 10
189.198342880524
 20
193.904723585274
 30
0.0
 11
189.192569036724
 21
193.803624516374
 31
0.0
  0
LINE
  5
D2
330
1F
100
AcDbEntity
  8
0
  6
Continuous
 62
     7
100
AcDbLine
 10
217.065710863024
 20
194.789160613974
 30
0.0
 11
211.065736499124
 21
194.789160613974
 31
0.0
  0
LINE
  5
D3
330
1F
100
AcDbEntity
  8
A_RUNDUNGEN
  6
Continuous
 62
     7
100
AcDbLine
 10
185.592558752724
 20
194.889160613974
 30
0.0
 11
189.383251449824
 21
194.889160613974
 31
0.0
  0
LINE
  5
D4
330
1F
100
AcDbEntity
  8
A_ACHSEN
  6
Continuous
 62
     7
100
AcDbLine
 10
209.065282472824
 20
194.889160613974
 30
0.0
 11
205.508030186724
 21
194.889160613974
 31
0.0
  0
LINE
  5
D5
330
1F
100
AcDbEntity
  8
0
  6
Continuous
 62
     7
100
AcDbLine
 10
218.065479495624
 20
194.889160613974
 30
0.0
 11
189.383251449824
 21
194.889160613974
 31
0.0
  0
LINE
  5
D6
330
1F
100
AcDbEntity
  8
A_ACHSEN
  6
Continuous
 62
     7
100
AcDbLine
 10
218.723252701224
 20
206.089160613974
 30
0.0
 11
218.221829859624
 21
206.089160613974
 31
0.0
  0
LINE
  5
D7
330
1F
100
AcDbEntity
  8
A_ACHSEN
  6
Continuous
 62
     7
100
AcDbLine
 10
171.563732848624
 20
206.089160613974
 30
0.0
 11
169.911029204024
 21
206.089160613974
 31
0.0
  0
LINE
  5
D8
330
1F
100
AcDbEntity
  8
A_ACHSEN
  6
Continuous
 62
     7
100
AcDbLine
 10
169.691389150024
 20
206.139160613974
 30
0.0
 11
169.911029204024
 21
206.139160613974
 31
0.0
  0
LINE
  5
D9
330
1F
100
AcDbEntity
  8
A_ACHSEN
  6
Continuous
 62
     7
100
AcDbLine
 10
171.159492929424
 20
206.139160613974
 30
0.0
 11
218.065722590224
 21
206.139160613974
 31
0.0
  0
LINE
  5
DA
330
1F
100
AcDbEntity
  8
0
  6
Continuous
 62
     7
100
AcDbLine
 10
218.723252701224
 20
206.139160613974
 30
0.0
 11
227.128699209924
 21
206.139160613974
 31
0.0
  0
LINE
  5
DB
330
1F
100
AcDbEntity
  8
0
  6
Continuous
 62
     7
100
AcDbLine
 10
208.740593931024
 20
206.439160613974
 30
0.0
 11
205.340596177924
 21
206.439160613974
 31
0.0
  0
LINE
  5
DC
330
1F
100
AcDbEntity
  8
A_ACHSEN
  6
DOT_CENTER
 62
     2
100
AcDbLine
 10
174.004302930824
 20
238.289160613974
 30
0.0
 11
174.004302930824
 21
230.189160613974
 31
0.0
  0
LINE
  5
DD
330
1F
100
AcDbEntity
  8
A_ACHSEN
  6
DOT_CENTER
 62
     2
100
AcDbLine
 10
174.004302930824
 20
230.189160613974
 30
0.0
 11
174.004302930824
 21
225.289160613974
 31
0.0
  0
LINE
  5
DE
330
1F
100
AcDbEntity
  8
A_ACHSEN
  6
DOT_CENTER
 62
     2
100
AcDbLine
 10
174.004302930824
 20
135.289160613974
 30
0.0
 11
174.004302930824
 21
129.289160613974
 31
0.0
  0
LINE
  5
DF
330
1F
100
AcDbEntity
  8
A_ACHSEN
  6
DOT_CENTER
 62
     2
100
AcDbLine
 10
174.004302930824
 20
128.289160613974
 30
0.0
 11
174.004302930824
 21
120.189160613974
 31
0.0
  0
LINE
  5
E0
330
1F
100
AcDbEntity
  8
A_ACHSEN
  6
DOT_CENTER
 62
     2
100
AcDbLine
 10
174.004302930824
 20
128.289160613974
 30
0.0
 11
174.004302930824
 21
129.289160613974
 31
0.0
  0
LINE
  5
E1
330
1F
100
AcDbEntity
  8
A_ACHSEN
  6
DOT_CENTER
 62
     2
100
AcDbLine
 10
174.004302930824
 20
135.289160613974
 30
0.0
 11
174.004302930824
 21
136.389160613974
 31
0.0
  0
LINE
  5
E2
330
1F
100
AcDbEntity
  8
A_ACHSEN
  6
DOT_CENTER
 62
     2
100
AcDbLine
 10
174.004302930824
 20
136.389160613974
 30
0.0
 11
174.004302930824
 21
140.614160613974
 31
0.0
  0
LINE
  5
E3
330
1F
100
AcDbEntity
  8
A_ACHSEN
  6
DOT_CENTER
 62
     2
100
AcDbLine
 10
174.004302930824
 20
155.381632174874
 30
0.0
 11
174.004302930824
 21
209.641441234965
 31
0.0
  0
LINE
  5
E4
330
1F
100
AcDbEntity
  8
A_ACHSEN
  6
DOT_CENTER
 62
     2
100
AcDbLine
 10
174.004302930824
 20
238.289160613974
 30
0.0
 11
174.004302930824
 21
246.389160613974
 31
0.0
  0
LINE
  5
E5
330
1F
100
AcDbEntity
  8
A_ACHSEN
  6
Continuous
 62
     7
100
AcDbLine
 10
169.911029204024
 20
207.389160613974
 30
0.0
 11
169.911029204024
 21
206.089160613974
 31
0.0
  0
LINE
  5
E6
330
1F
100
AcDbEntity
  8
A_ACHSEN
  6
Continuous
 62
     7
100
AcDbLine
 10
169.911029204024
 20
159.189160613974
 30
0.0
 11
169.911029204024
 21
160.489160613974
 31
0.0
  0
LINE
  5
E7
330
1F
100
AcDbEntity
  8
A_ACHSEN
  6
Continuous
 62
     7
100
AcDbLine
 10
169.691116954524
 20
160.439160613974
 30
0.0
 11
169.691116954524
 21
206.139160613974
 31
0.0
  0
LINE
  5
E8
330
1F
100
AcDbEntity
  8
0
  6
Continuous
 62
     7
100
AcDbLine
 10
159.004302930824
 20
207.389160613974
 30
0.0
 11
190.004302930824
 21
207.389160613974
 31
0.0
  0
LINE
  5
E9
330
1F
100
AcDbEntity
  8
0
  6
Continuous
 62
     7
100
AcDbLine
 10
210.065723681124
 20
207.389160613974
 30
0.0
 11
234.665723681124
 21
207.389160613974
 31
0.0
  0
LINE
  5
EA
330
1F
100
AcDbEntity
  8
0
  6
Continuous
 62
     7
100
AcDbLine
 10
234.665723681124
 20
209.689160613974
 30
0.0
 11
210.065723681124
 21
209.689160613974
 31
0.0
  0
LINE
  5
EB
330
1F
100
AcDbEntity
  8
A_RUNDUNGEN
  6
Continuous
 62
     7
100
AcDbLine
 10
159.504607702924
 20
212.889160613974
 30
0.0
 11
189.504302930824
 21
212.889160613974
 31
0.0
  0
LINE
  5
EC
330
1F
100
AcDbEntity
  8
A_RUNDUNGEN
  6
Continuous
 62
     7
100
AcDbLine
 10
234.165723681124
 20
212.889160613974
 30
0.0
 11
210.065723681124
 21
212.889160613974
 31
0.0
  0
LINE
  5
ED
330
1F
100
AcDbEntity
  8
A_RUNDUNGEN
  6
Continuous
 62
     7
100
AcDbLine
 10
235.365723681124
 20
213.039160613974
 30
0.0
 11
232.217322557824
 21
213.039160613974
 31
0.0
  0
LINE
  5
EE
330
1F
100
AcDbEntity
  8
A_RUNDUNGEN
  6
Continuous
 62
     7
100
AcDbLine
 10
159.004302930824
 20
154.189160613974
 30
0.0
 11
159.004302930824
 21
159.189160613974
 31
0.0
  0
LINE
  5
EF
330
1F
100
AcDbEntity
  8
A_RUNDUNGEN
  6
Continuous
 62
     7
100
AcDbLine
 10
159.004302930824
 20
207.389160613974
 30
0.0
 11
159.004302930824
 21
212.389160613974
 31
0.0
  0
LINE
  5
F0
330
1F
100
AcDbEntity
  8
A_RUNDUNGEN
  6
Continuous
 62
     7
100
AcDbLine
 10
158.804302930824
 20
154.039160613974
 30
0.0
 11
158.804302930824
 21
212.539160613974
 31
0.0
  0
LINE
  5
F1
330
1F
100
AcDbEntity
  8
0
  6
Continuous
 62
     7
100
AcDbLine
 10
205.340595054524
 20
206.439160613974
 30
0.0
 11
205.040595054524
 21
206.139160613974
 31
0.0
  0
LINE
  5
F2
330
1F
100
AcDbEntity
  8
A_ACHSEN
  6
DOT_CENTER
 62
     2
100
AcDbLine
 10
218.965723681124
 20
228.789160613974
 30
0.0
 11
221.965823681124
 21
228.789160613974
 31
0.0
  0
LINE
  5
F3
330
1F
100
AcDbEntity
  8
A_ACHSEN
  6
DOT_CENTER
 62
     2
100
AcDbLine
 10
231.165723681124
 20
228.789160613974
 30
0.0
 11
234.165823681124
 21
228.789160613974
 31
0.0
  0
LINE
  5
F4
330
1F
100
AcDbEntity
  8
A_ACHSEN
  6
DOT_CENTER
 62
     2
100
AcDbLine
 10
231.165723681124
 20
228.789160613974
 30
0.0
 11
228.165623681124
 21
228.789160613974
 31
0.0
  0
LINE
  5
F5
330
1F
100
AcDbEntity
  8
A_ACHSEN
  6
DOT_CENTER
 62
     2
100
AcDbLine
 10
218.965723681124
 20
228.789160613974
 30
0.0
 11
215.965623681124
 21
228.789160613974
 31
0.0
  0
LINE
  5
F6
330
1F
100
AcDbEntity
  8
A_ACHSEN
  6
DOT_CENTER
 62
     2
100
AcDbLine
 10
225.065723681124
 20
230.789160613974
 30
0.0
 11
228.065823681124
 21
230.789160613974
 31
0.0
  0
LINE
  5
F7
330
1F
100
AcDbEntity
  8
A_ACHSEN
  6
DOT_CENTER
 62
     2
100
AcDbLine
 10
225.065723681124
 20
230.789160613974
 30
0.0
 11
222.065623681124
 21
230.789160613974
 31
0.0
  0
LINE
  5
F8
330
1F
100
AcDbEntity
  8
A_ACHSEN
  6
DOT_CENTER
 62
     2
100
AcDbLine
 10
174.004302930824
 20
231.289160613974
 30
0.0
 11
180.004302930824
 21
231.289160613974
 31
0.0
  0
LINE
  5
F9
330
1F
100
AcDbEntity
  8
A_ACHSEN
  6
DOT_CENTER
 62
     2
100
AcDbLine
 10
174.004302930824
 20
231.289160613974
 30
0.0
 11
168.004302930824
 21
231.289160613974
 31
0.0
  0
LINE
  5
FA
330
1F
100
AcDbEntity
  8
A_ACHSEN
  6
DOT_CENTER
 62
     2
100
AcDbLine
 10
225.065723681124
 20
233.789160613974
 30
0.0
 11
228.065823681124
 21
233.789160613974
 31
0.0
  0
LINE
  5
FB
330
1F
100
AcDbEntity
  8
A_ACHSEN
  6
DOT_CENTER
 62
     2
100
AcDbLine
 10
225.065723681124
 20
233.789160613974
 30
0.0
 11
222.065623681124
 21
233.789160613974
 31
0.0
  0
LINE
  5
FC
330
1F
100
AcDbEntity
  8
A_ACHSEN
  6
DOT_CENTER
 62
     2
100
AcDbLine
 10
218.965723681124
 20
234.789160613974
 30
0.0
 11
221.965823681124
 21
234.789160613974
 31
0.0
  0
LINE
  5
FD
330
1F
100
AcDbEntity
  8
A_ACHSEN
  6
DOT_CENTER
 62
     2
100
AcDbLine
 10
231.165723681124
 20
234.789160613974
 30
0.0
 11
234.165823681124
 21
234.789160613974
 31
0.0
  0
LINE
  5
FE
330
1F
100
AcDbEntity
  8
A_ACHSEN
  6
DOT_CENTER
 62
     2
100
AcDbLine
 10
231.165723681124
 20
234.789160613974
 30
0.0
 11
228.165623681124
 21
234.789160613974
 31
0.0
  0
LINE
  5
FF
330
1F
100
AcDbEntity
  8
A_ACHSEN
  6
DOT_CENTER
 62
     2
100
AcDbLine
 10
218.965723681124
 20
234.789160613974
 30
0.0
 11
215.965623681124
 21
234.789160613974
 31
0.0
  0
LINE
  5
100
330
1F
100
AcDbEntity
  8
A_ACHSEN
  6
DOT_CENTER
 62
     2
100
AcDbLine
 10
225.065723681124
 20
236.789160613974
 30
0.0
 11
228.065823681124
 21
236.789160613974
 31
0.0
  0
LINE
  5
101
330
1F
100
AcDbEntity
  8
A_ACHSEN
  6
DOT_CENTER
 62
     2
100
AcDbLine
 10
225.065723681124
 20
236.789160613974
 30
0.0
 11
222.065623681124
 21
236.789160613974
 31
0.0
  0
LINE
  5
102
330
1F
100
AcDbEntity
  8
A_ACHSEN
  6
DOT_CENTER
 62
     2
100
AcDbLine
 10
174.004302930824
 20
238.289160613974
 30
0.0
 11
182.104302930824
 21
238.289160613974
 31
0.0
  0
LINE
  5
103
330
1F
100
AcDbEntity
  8
A_ACHSEN
  6
DOT_CENTER
 62
     2
100
AcDbLine
 10
174.004302930824
 20
238.289160613974
 30
0.0
 11
165.904302930824
 21
238.289160613974
 31
0.0
  0
LINE
  5
104
330
1F
100
AcDbEntity
  8
1
  6
Continuous
 62
     7
100
AcDbLine
 10
159.304396273124
 20
213.039160613974
 30
0.0
 11
190.004302930824
 21
213.039160613974
 31
0.0
  0
LINE
  5
105
330
1F
100
AcDbEntity
  8
0
  6
Continuous
 62
     7
100
AcDbLine
 10
158.004302930824
 20
153.289160613974
 30
0.0
 11
158.004302930824
 21
213.289160613974
 31
0.0
  0
LINE
  5
106
330
1F
100
AcDbEntity
  8
0
  6
Continuous
 62
     7
100
AcDbLine
 10
190.004302930824
 20
213.289160613974
 30
0.0
 11
158.004302930824
 21
213.289160613974
 31
0.0
  0
LINE
  5
107
330
1F
100
AcDbEntity
  8
0
  6
Continuous
 62
     7
100
AcDbLine
 10
158.004302930824
 20
213.289160613974
 30
0.0
 11
158.004302930824
 21
229.789160613974
 31
0.0
  0
LINE
  5
108
330
1F
100
AcDbEntity
  8
0
  6
Continuous
 62
     7
100
AcDbLine
 10
190.004302930824
 20
229.789160613974
 30
0.0
 11
190.004302930824
 21
213.289160613974
 31
0.0
  0
LINE
  5
109
330
1F
100
AcDbEntity
  8
A_RUNDUNGEN
  6
Continuous
 62
     7
100
AcDbLine
 10
232.065723681124
 20
213.439160613974
 30
0.0
 11
232.065723681124
 21
213.389160613974
 31
0.0
  0
LINE
  5
10A
330
1F
100
AcDbEntity
  8
0
  6
Continuous
 62
     7
100
AcDbLine
 10
213.065723681124
 20
213.439160613974
 30
0.0
 11
237.065723681124
 21
213.439160613974
 31
0.0
  0
LINE
  5
10B
330
1F
100
AcDbEntity
  8
DEFAULT_1
  6
DOT_CENTER
 62
     2
100
AcDbLine
 10
223.129025464424
 20
211.304166175452
 30
0.0
 11
223.129025464424
 21
150.125222129374
 31
0.0
  0
LINE
  5
10C
330
1F
100
AcDbEntity
  8
0
  6
Continuous
 62
     7
100
AcDbLine
 10
158.004302930824
 20
153.289160613974
 30
0.0
 11
190.004302930824
 21
153.289160613974
 31
0.0
  0
LINE
  5
10D
330
1F
100
AcDbEntity
  8
0
  6
Continuous
 62
     7
100
AcDbLine
 10
190.004302930824
 20
153.289160613974
 30
0.0
 11
190.004302930824
 21
153.539160613974
 31
0.0
  0
LINE
  5
10E
330
1F
100
AcDbEntity
  8
0
  6
Continuous
 62
     7
100
AcDbLine
 10
158.004302930824
 20
136.789160613974
 30
0.0
 11
158.004302930824
 21
153.289160613974
 31
0.0
  0
LINE
  5
10F
330
1F
100
AcDbEntity
  8
0
  6
Continuous
 62
     7
100
AcDbLine
 10
190.004302930824
 20
153.289160613974
 30
0.0
 11
190.004302930824
 21
136.789160613974
 31
0.0
  0
LINE
  5
110
330
1F
100
AcDbEntity
  8
1
  6
DOT_CENTER
 62
     2
100
AcDbLine
 10
214.195006598578
 20
231.789160613974
 30
0.0
 11
223.195006598578
 21
231.789160613974
 31
0.0
  0
LINE
  5
111
330
1F
100
AcDbEntity
  8
A_ACHSEN
  6
DOT_CENTER
 62
     2
100
AcDbLine
 10
226.707768764874
 20
231.789160613974
 30
0.0
 11
234.196560660324
 21
231.789160613974
 31
0.0
  0
LINE
  5
112
330
1F
100
AcDbEntity
  8
0
  6
Continuous
 62
     7
100
AcDbLine
 10
213.065723681124
 20
233.939160613974
 30
0.0
 11
213.065723681124
 21
213.439160613974
 31
0.0
  0
LINE
  5
113
330
1F
100
AcDbEntity
  8
0
  6
Continuous
 62
     7
100
AcDbLine
 10
237.065723681124
 20
213.439160613974
 30
0.0
 11
237.065723681124
 21
233.939160613974
 31
0.0
  0
LINE
  5
114
330
1F
100
AcDbEntity
  8
A_RUNDUNGEN
  6
Continuous
 62
     7
100
AcDbLine
 10
218.065723681124
 20
153.139160613974
 30
0.0
 11
218.065723681124
 21
153.189160613974
 31
0.0
  0
LINE
  5
115
330
1F
100
AcDbEntity
  8
0
  6
Continuous
 62
     7
100
AcDbLine
 10
237.065723681124
 20
153.139160613974
 30
0.0
 11
213.065723681124
 21
153.139160613974
 31
0.0
  0
LINE
  5
116
330
1F
100
AcDbEntity
  8
1
  6
DOT_CENTER
 62
     2
100
AcDbLine
 10
225.065723681124
 20
132.789160613974
 30
0.0
 11
227.587473805604
 21
132.789160613974
 31
0.0
  0
LINE
  5
117
330
1F
100
AcDbEntity
  8
A_ACHSEN
  6
DOT_CENTER
 62
     2
100
AcDbLine
 10
225.065723681124
 20
132.789160613974
 30
0.0
 11
225.065723681124
 21
132.789060613974
 31
0.0
  0
LINE
  5
118
330
1F
100
AcDbEntity
  8
1
  6
DOT_CENTER
 62
     2
100
AcDbLine
 10
214.287020350417
 20
134.789160613974
 30
0.0
 11
223.287020350417
 21
134.789160613974
 31
0.0
  0
LINE
  5
119
330
1F
100
AcDbEntity
  8
A_ACHSEN
  6
DOT_CENTER
 62
     2
100
AcDbLine
 10
226.711162816609
 20
134.789160613974
 30
0.0
 11
234.520151094824
 21
134.789160613974
 31
0.0
  0
LINE
  5
11A
330
1F
100
AcDbEntity
  8
0
  6
Continuous
 62
     7
100
AcDbLine
 10
237.065723681124
 20
132.639160613974
 30
0.0
 11
237.065723681124
 21
153.139160613974
 31
0.0
  0
LINE
  5
11B
330
1F
100
AcDbEntity
  8
0
  6
Continuous
 62
     7
100
AcDbLine
 10
213.065723681124
 20
153.139160613974
 30
0.0
 11
213.065723681124
 21
132.639160613974
 31
0.0
  0
LINE
  5
11C
330
1F
100
AcDbEntity
  8
1
  6
Continuous
 62
     7
100
AcDbLine
 10
174.504302930824
 20
136.2891606139741
 30
0.0
 11
174.754302930824
 21
136.0391606139741
 31
0.0
  0
LINE
  5
11D
330
1F
100
AcDbEntity
  8
1
  6
Continuous
 62
     2
100
AcDbLine
 10
175.5952931884937
 20
136.8801508716439
 30
0.0
 11
174.754302930824
 21
136.0391606139741
 31
0.0
  0
LINE
  5
11E
330
1F
100
AcDbEntity
  8
1
  6
Continuous
 62
     7
100
AcDbLine
 10
173.004302930824
 20
135.7891606139741
 30
0.0
 11
173.254302930824
 21
136.0391606139741
 31
0.0
  0
LINE
  5
11F
330
1F
100
AcDbEntity
  8
1
  6
Continuous
 62
     2
100
AcDbLine
 10
172.4133126731543
 20
136.8801508716439
 30
0.0
 11
173.254302930824
 21
136.0391606139741
 31
0.0
  0
LINE
  5
120
330
1F
100
AcDbEntity
  8
1
  6
Continuous
 62
     7
100
AcDbLine
 10
173.004302930824
 20
134.7891606139741
 30
0.0
 11
173.254302930824
 21
134.5391606139741
 31
0.0
  0
LINE
  5
121
330
1F
100
AcDbEntity
  8
1
  6
Continuous
 62
     2
100
AcDbLine
 10
172.4133126731543
 20
133.6981703563043
 30
0.0
 11
173.254302930824
 21
134.5391606139741
 31
0.0
  0
LINE
  5
122
330
1F
100
AcDbEntity
  8
1
  6
Continuous
 62
     7
100
AcDbLine
 10
175.004302930824
 20
134.7891606139741
 30
0.0
 11
174.754302930824
 21
134.5391606139741
 31
0.0
  0
LINE
  5
123
330
1F
100
AcDbEntity
  8
1
  6
Continuous
 62
     2
100
AcDbLine
 10
175.5952931884937
 20
133.6981703563043
 30
0.0
 11
174.754302930824
 21
134.5391606139741
 31
0.0
  0
LINE
  5
124
330
1F
100
AcDbEntity
  8
1
  6
Continuous
 62
     7
100
AcDbLine
 10
173.254302930824
 20
136.0391606139741
 30
0.0
 11
173.504302930824
 21
136.2891606139741
 31
0.0
  0
LINE
  5
125
330
1F
100
AcDbEntity
  8
1
  6
Continuous
 62
     7
100
AcDbLine
 10
174.754302930824
 20
136.0391606139741
 30
0.0
 11
175.004302930824
 21
135.7891606139741
 31
0.0
  0
LINE
  5
126
330
1F
100
AcDbEntity
  8
1
  6
Continuous
 62
     7
100
AcDbLine
 10
174.754302930824
 20
134.5391606139741
 30
0.0
 11
174.504302930824
 21
134.2891606139741
 31
0.0
  0
LINE
  5
127
330
1F
100
AcDbEntity
  8
1
  6
Continuous
 62
     7
100
AcDbLine
 10
173.254302930824
 20
134.5391606139741
 30
0.0
 11
173.504302930824
 21
134.2891606139741
 31
0.0
  0
LINE
  5
128
330
1F
100
AcDbEntity
  8
1
  6
Continuous
 62
     7
100
AcDbLine
 10
173.504302930824
 20
133.0391606139741
 30
0.0
 11
173.504302930824
 21
134.2891606139741
 31
0.0
  0
LINE
  5
129
330
1F
100
AcDbEntity
  8
1
  6
Continuous
 62
     7
100
AcDbLine
 10
173.004302930824
 20
134.7891606139741
 30
0.0
 11
171.754302930824
 21
134.7891606139741
 31
0.0
  0
LINE
  5
12A
330
1F
100
AcDbEntity
  8
1
  6
Continuous
 62
     7
100
AcDbLine
 10
171.754302930824
 20
134.7891606139741
 30
0.0
 11
171.754302930824
 21
135.7891606139741
 31
0.0
  0
LINE
  5
12B
330
1F
100
AcDbEntity
  8
1
  6
Continuous
 62
     7
100
AcDbLine
 10
171.754302930824
 20
135.7891606139741
 30
0.0
 11
173.004302930824
 21
135.7891606139741
 31
0.0
  0
LINE
  5
12C
330
1F
100
AcDbEntity
  8
1
  6
Continuous
 62
     7
100
AcDbLine
 10
173.504302930824
 20
136.2891606139741
 30
0.0
 11
173.504302930824
 21
137.5391606139741
 31
0.0
  0
LINE
  5
12D
330
1F
100
AcDbEntity
  8
1
  6
Continuous
 62
     7
100
AcDbLine
 10
173.504302930824
 20
137.5391606139741
 30
0.0
 11
174.504302930824
 21
137.5391606139741
 31
0.0
  0
LINE
  5
12E
330
1F
100
AcDbEntity
  8
1
  6
Continuous
 62
     7
100
AcDbLine
 10
174.504302930824
 20
137.5391606139741
 30
0.0
 11
174.504302930824
 21
136.2891606139741
 31
0.0
  0
LINE
  5
12F
330
1F
100
AcDbEntity
  8
1
  6
Continuous
 62
     7
100
AcDbLine
 10
175.004302930824
 20
135.7891606139741
 30
0.0
 11
176.254302930824
 21
135.7891606139741
 31
0.0
  0
LINE
  5
130
330
1F
100
AcDbEntity
  8
1
  6
Continuous
 62
     7
100
AcDbLine
 10
176.254302930824
 20
135.7891606139741
 30
0.0
 11
176.254302930824
 21
134.7891606139741
 31
0.0
  0
LINE
  5
131
330
1F
100
AcDbEntity
  8
1
  6
Continuous
 62
     7
100
AcDbLine
 10
176.254302930824
 20
134.7891606139741
 30
0.0
 11
175.004302930824
 21
134.7891606139741
 31
0.0
  0
LINE
  5
132
330
1F
100
AcDbEntity
  8
1
  6
Continuous
 62
     7
100
AcDbLine
 10
174.504302930824
 20
134.2891606139741
 30
0.0
 11
174.504302930824
 21
133.0391606139741
 31
0.0
  0
LINE
  5
133
330
1F
100
AcDbEntity
  8
1
  6
Continuous
 62
     7
100
AcDbLine
 10
174.504302930824
 20
133.0391606139741
 30
0.0
 11
173.504302930824
 21
133.0391606139741
 31
0.0
  0
LINE
  5
134
330
1F
100
AcDbEntity
  8
1
  6
Continuous
 62
     7
100
AcDbLine
 10
225.565723681124
 20
133.6391606139741
 30
0.0
 11
225.815723681124
 21
133.3891606139741
 31
0.0
  0
LINE
  5
135
330
1F
100
AcDbEntity
  8
1
  6
Continuous
 62
     2
100
AcDbLine
 10
226.6567139387937
 20
134.2301508716439
 30
0.0
 11
225.815723681124
 21
133.3891606139741
 31
0.0
  0
LINE
  5
136
330
1F
100
AcDbEntity
  8
1
  6
Continuous
 62
     7
100
AcDbLine
 10
224.065723681124
 20
133.1391606139741
 30
0.0
 11
224.315723681124
 21
133.3891606139741
 31
0.0
  0
LINE
  5
137
330
1F
100
AcDbEntity
  8
1
  6
Continuous
 62
     2
100
AcDbLine
 10
223.4747334234543
 20
134.2301508716439
 30
0.0
 11
224.315723681124
 21
133.3891606139741
 31
0.0
  0
LINE
  5
138
330
1F
100
AcDbEntity
  8
1
  6
Continuous
 62
     7
100
AcDbLine
 10
224.065723681124
 20
132.1391606139741
 30
0.0
 11
224.315723681124
 21
131.8891606139741
 31
0.0
  0
LINE
  5
139
330
1F
100
AcDbEntity
  8
1
  6
Continuous
 62
     2
100
AcDbLine
 10
223.4747334234543
 20
131.0481703563043
 30
0.0
 11
224.315723681124
 21
131.8891606139741
 31
0.0
  0
LINE
  5
13A
330
1F
100
AcDbEntity
  8
1
  6
Continuous
 62
     7
100
AcDbLine
 10
226.065723681124
 20
132.1391606139741
 30
0.0
 11
225.815723681124
 21
131.8891606139741
 31
0.0
  0
LINE
  5
13B
330
1F
100
AcDbEntity
  8
1
  6
Continuous
 62
     2
100
AcDbLine
 10
226.6567139387937
 20
131.0481703563043
 30
0.0
 11
225.815723681124
 21
131.8891606139741
 31
0.0
  0
LINE
  5
13C
330
1F
100
AcDbEntity
  8
1
  6
Continuous
 62
     7
100
AcDbLine
 10
224.315723681124
 20
133.3891606139741
 30
0.0
 11
224.565723681124
 21
133.6391606139741
 31
0.0
  0
LINE
  5
13D
330
1F
100
AcDbEntity
  8
1
  6
Continuous
 62
     7
100
AcDbLine
 10
225.815723681124
 20
133.3891606139741
 30
0.0
 11
226.065723681124
 21
133.1391606139741
 31
0.0
  0
LINE
  5
13E
330
1F
100
AcDbEntity
  8
1
  6
Continuous
 62
     7
100
AcDbLine
 10
225.815723681124
 20
131.8891606139741
 30
0.0
 11
225.565723681124
 21
131.6391606139741
 31
0.0
  0
LINE
  5
13F
330
1F
100
AcDbEntity
  8
1
  6
Continuous
 62
     7
100
AcDbLine
 10
224.315723681124
 20
131.8891606139741
 30
0.0
 11
224.565723681124
 21
131.6391606139741
 31
0.0
  0
LINE
  5
140
330
1F
100
AcDbEntity
  8
1
  6
Continuous
 62
     7
100
AcDbLine
 10
224.565723681124
 20
130.3891606139741
 30
0.0
 11
224.565723681124
 21
131.6391606139741
 31
0.0
  0
LINE
  5
141
330
1F
100
AcDbEntity
  8
1
  6
Continuous
 62
     7
100
AcDbLine
 10
224.065723681124
 20
132.1391606139741
 30
0.0
 11
222.815723681124
 21
132.1391606139741
 31
0.0
  0
LINE
  5
142
330
1F
100
AcDbEntity
  8
1
  6
Continuous
 62
     7
100
AcDbLine
 10
222.815723681124
 20
132.1391606139741
 30
0.0
 11
222.815723681124
 21
133.1391606139741
 31
0.0
  0
LINE
  5
143
330
1F
100
AcDbEntity
  8
1
  6
Continuous
 62
     7
100
AcDbLine
 10
222.815723681124
 20
133.1391606139741
 30
0.0
 11
224.065723681124
 21
133.1391606139741
 31
0.0
  0
LINE
  5
144
330
1F
100
AcDbEntity
  8
1
  6
Continuous
 62
     7
100
AcDbLine
 10
224.565723681124
 20
133.6391606139741
 30
0.0
 11
224.565723681124
 21
134.8891606139741
 31
0.0
  0
LINE
  5
145
330
1F
100
AcDbEntity
  8
1
  6
Continuous
 62
     7
100
AcDbLine
 10
224.565723681124
 20
134.8891606139741
 30
0.0
 11
225.565723681124
 21
134.8891606139741
 31
0.0
  0
LINE
  5
146
330
1F
100
AcDbEntity
  8
1
  6
Continuous
 62
     7
100
AcDbLine
 10
225.565723681124
 20
134.8891606139741
 30
0.0
 11
225.565723681124
 21
133.6391606139741
 31
0.0
  0
LINE
  5
147
330
1F
100
AcDbEntity
  8
1
  6
Continuous
 62
     7
100
AcDbLine
 10
226.065723681124
 20
133.1391606139741
 30
0.0
 11
227.315723681124
 21
133.1391606139741
 31
0.0
  0
LINE
  5
148
330
1F
100
AcDbEntity
  8
1
  6
Continuous
 62
     7
100
AcDbLine
 10
227.315723681124
 20
133.1391606139741
 30
0.0
 11
227.315723681124
 21
132.1391606139741
 31
0.0
  0
LINE
  5
149
330
1F
100
AcDbEntity
  8
1
  6
Continuous
 62
     7
100
AcDbLine
 10
227.315723681124
 20
132.1391606139741
 30
0.0
 11
226.065723681124
 21
132.1391606139741
 31
0.0
  0
LINE
  5
14A
330
1F
100
AcDbEntity
  8
1
  6
Continuous
 62
     7
100
AcDbLine
 10
225.565723681124
 20
131.6391606139741
 30
0.0
 11
225.565723681124
 21
130.3891606139741
 31
0.0
  0
LINE
  5
14B
330
1F
100
AcDbEntity
  8
1
  6
Continuous
 62
     7
100
AcDbLine
 10
225.565723681124
 20
130.3891606139741
 30
0.0
 11
224.565723681124
 21
130.3891606139741
 31
0.0
  0
LINE
  5
14C
330
1F
100
AcDbEntity
  8
1
  6
Continuous
 62
     7
100
AcDbLine
 10
174.504302930824
 20
232.2891606139741
 30
0.0
 11
174.754302930824
 21
232.0391606139741
 31
0.0
  0
LINE
  5
14D
330
1F
100
AcDbEntity
  8
1
  6
Continuous
 62
     2
100
AcDbLine
 10
175.5952931884937
 20
232.8801508716439
 30
0.0
 11
174.754302930824
 21
232.0391606139741
 31
0.0
  0
LINE
  5
14E
330
1F
100
AcDbEntity
  8
1
  6
Continuous
 62
     7
100
AcDbLine
 10
173.004302930824
 20
231.7891606139741
 30
0.0
 11
173.254302930824
 21
232.0391606139741
 31
0.0
  0
LINE
  5
14F
330
1F
100
AcDbEntity
  8
1
  6
Continuous
 62
     2
100
AcDbLine
 10
172.4133126731543
 20
232.8801508716439
 30
0.0
 11
173.254302930824
 21
232.0391606139741
 31
0.0
  0
LINE
  5
150
330
1F
100
AcDbEntity
  8
1
  6
Continuous
 62
     7
100
AcDbLine
 10
173.004302930824
 20
230.7891606139741
 30
0.0
 11
173.254302930824
 21
230.5391606139741
 31
0.0
  0
LINE
  5
151
330
1F
100
AcDbEntity
  8
1
  6
Continuous
 62
     2
100
AcDbLine
 10
172.4133126731543
 20
229.6981703563043
 30
0.0
 11
173.254302930824
 21
230.5391606139741
 31
0.0
  0
LINE
  5
152
330
1F
100
AcDbEntity
  8
1
  6
Continuous
 62
     7
100
AcDbLine
 10
175.004302930824
 20
230.7891606139741
 30
0.0
 11
174.754302930824
 21
230.5391606139741
 31
0.0
  0
LINE
  5
153
330
1F
100
AcDbEntity
  8
1
  6
Continuous
 62
     2
100
AcDbLine
 10
175.5952931884937
 20
229.6981703563043
 30
0.0
 11
174.754302930824
 21
230.5391606139741
 31
0.0
  0
LINE
  5
154
330
1F
100
AcDbEntity
  8
1
  6
Continuous
 62
     7
100
AcDbLine
 10
173.254302930824
 20
232.0391606139741
 30
0.0
 11
173.504302930824
 21
232.2891606139741
 31
0.0
  0
LINE
  5
155
330
1F
100
AcDbEntity
  8
1
  6
Continuous
 62
     7
100
AcDbLine
 10
174.754302930824
 20
232.0391606139741
 30
0.0
 11
175.004302930824
 21
231.7891606139741
 31
0.0
  0
LINE
  5
156
330
1F
100
AcDbEntity
  8
1
  6
Continuous
 62
     7
100
AcDbLine
 10
174.754302930824
 20
230.5391606139741
 30
0.0
 11
174.504302930824
 21
230.2891606139741
 31
0.0
  0
LINE
  5
157
330
1F
100
AcDbEntity
  8
1
  6
Continuous
 62
     7
100
AcDbLine
 10
173.254302930824
 20
230.5391606139741
 30
0.0
 11
173.504302930824
 21
230.2891606139741
 31
0.0
  0
LINE
  5
158
330
1F
100
AcDbEntity
  8
1
  6
Continuous
 62
     7
100
AcDbLine
 10
173.504302930824
 20
229.0391606139741
 30
0.0
 11
173.504302930824
 21
230.2891606139741
 31
0.0
  0
LINE
  5
159
330
1F
100
AcDbEntity
  8
1
  6
Continuous
 62
     7
100
AcDbLine
 10
173.004302930824
 20
230.7891606139741
 30
0.0
 11
171.754302930824
 21
230.7891606139741
 31
0.0
  0
LINE
  5
15A
330
1F
100
AcDbEntity
  8
1
  6
Continuous
 62
     7
100
AcDbLine
 10
171.754302930824
 20
230.7891606139741
 30
0.0
 11
171.754302930824
 21
231.7891606139741
 31
0.0
  0
LINE
  5
15B
330
1F
100
AcDbEntity
  8
1
  6
Continuous
 62
     7
100
AcDbLine
 10
171.754302930824
 20
231.7891606139741
 30
0.0
 11
173.004302930824
 21
231.7891606139741
 31
0.0
  0
LINE
  5
15C
330
1F
100
AcDbEntity
  8
1
  6
Continuous
 62
     7
100
AcDbLine
 10
173.504302930824
 20
232.2891606139741
 30
0.0
 11
173.504302930824
 21
233.5391606139741
 31
0.0
  0
LINE
  5
15D
330
1F
100
AcDbEntity
  8
1
  6
Continuous
 62
     7
100
AcDbLine
 10
173.504302930824
 20
233.5391606139741
 30
0.0
 11
174.504302930824
 21
233.5391606139741
 31
0.0
  0
LINE
  5
15E
330
1F
100
AcDbEntity
  8
1
  6
Continuous
 62
     7
100
AcDbLine
 10
174.504302930824
 20
233.5391606139741
 30
0.0
 11
174.504302930824
 21
232.2891606139741
 31
0.0
  0
LINE
  5
15F
330
1F
100
AcDbEntity
  8
1
  6
Continuous
 62
     7
100
AcDbLine
 10
175.004302930824
 20
231.7891606139741
 30
0.0
 11
176.254302930824
 21
231.7891606139741
 31
0.0
  0
LINE
  5
160
330
1F
100
AcDbEntity
  8
1
  6
Continuous
 62
     7
100
AcDbLine
 10
176.254302930824
 20
231.7891606139741
 30
0.0
 11
176.254302930824
 21
230.7891606139741
 31
0.0
  0
LINE
  5
161
330
1F
100
AcDbEntity
  8
1
  6
Continuous
 62
     7
100
AcDbLine
 10
176.254302930824
 20
230.7891606139741
 30
0.0
 11
175.004302930824
 21
230.7891606139741
 31
0.0
  0
LINE
  5
162
330
1F
100
AcDbEntity
  8
1
  6
Continuous
 62
     7
100
AcDbLine
 10
174.504302930824
 20
230.2891606139741
 30
0.0
 11
174.504302930824
 21
229.0391606139741
 31
0.0
  0
LINE
  5
163
330
1F
100
AcDbEntity
  8
1
  6
Continuous
 62
     7
100
AcDbLine
 10
174.504302930824
 20
229.0391606139741
 30
0.0
 11
173.504302930824
 21
229.0391606139741
 31
0.0
  0
LINE
  5
164
330
1F
100
AcDbEntity
  8
1
  6
Continuous
 62
     7
100
AcDbLine
 10
225.565723681124
 20
234.9391606139741
 30
0.0
 11
225.815723681124
 21
234.6891606139741
 31
0.0
  0
LINE
  5
165
330
1F
100
AcDbEntity
  8
1
  6
Continuous
 62
     2
100
AcDbLine
 10
226.6567139387937
 20
235.5301508716439
 30
0.0
 11
225.815723681124
 21
234.6891606139741
 31
0.0
  0
LINE
  5
166
330
1F
100
AcDbEntity
  8
1
  6
Continuous
 62
     7
100
AcDbLine
 10
224.065723681124
 20
234.4391606139741
 30
0.0
 11
224.315723681124
 21
234.6891606139741
 31
0.0
  0
LINE
  5
167
330
1F
100
AcDbEntity
  8
1
  6
Continuous
 62
     2
100
AcDbLine
 10
223.4747334234543
 20
235.5301508716439
 30
0.0
 11
224.315723681124
 21
234.6891606139741
 31
0.0
  0
LINE
  5
168
330
1F
100
AcDbEntity
  8
1
  6
Continuous
 62
     7
100
AcDbLine
 10
224.065723681124
 20
233.4391606139741
 30
0.0
 11
224.315723681124
 21
233.1891606139741
 31
0.0
  0
LINE
  5
169
330
1F
100
AcDbEntity
  8
1
  6
Continuous
 62
     2
100
AcDbLine
 10
223.4747334234543
 20
232.3481703563043
 30
0.0
 11
224.315723681124
 21
233.1891606139741
 31
0.0
  0
LINE
  5
16A
330
1F
100
AcDbEntity
  8
1
  6
Continuous
 62
     7
100
AcDbLine
 10
226.065723681124
 20
233.4391606139741
 30
0.0
 11
225.815723681124
 21
233.1891606139741
 31
0.0
  0
LINE
  5
16B
330
1F
100
AcDbEntity
  8
1
  6
Continuous
 62
     2
100
AcDbLine
 10
226.6567139387937
 20
232.3481703563043
 30
0.0
 11
225.815723681124
 21
233.1891606139741
 31
0.0
  0
LINE
  5
16C
330
1F
100
AcDbEntity
  8
1
  6
Continuous
 62
     7
100
AcDbLine
 10
224.315723681124
 20
234.6891606139741
 30
0.0
 11
224.565723681124
 21
234.9391606139741
 31
0.0
  0
LINE
  5
16D
330
1F
100
AcDbEntity
  8
1
  6
Continuous
 62
     7
100
AcDbLine
 10
225.815723681124
 20
234.6891606139741
 30
0.0
 11
226.065723681124
 21
234.4391606139741
 31
0.0
  0
LINE
  5
16E
330
1F
100
AcDbEntity
  8
1
  6
Continuous
 62
     7
100
AcDbLine
 10
225.815723681124
 20
233.1891606139741
 30
0.0
 11
225.565723681124
 21
232.9391606139741
 31
0.0
  0
LINE
  5
16F
330
1F
100
AcDbEntity
  8
1
  6
Continuous
 62
     7
100
AcDbLine
 10
224.315723681124
 20
233.1891606139741
 30
0.0
 11
224.565723681124
 21
232.9391606139741
 31
0.0
  0
LINE
  5
170
330
1F
100
AcDbEntity
  8
1
  6
Continuous
 62
     7
100
AcDbLine
 10
224.565723681124
 20
231.6891606139741
 30
0.0
 11
224.565723681124
 21
232.9391606139741
 31
0.0
  0
LINE
  5
171
330
1F
100
AcDbEntity
  8
1
  6
Continuous
 62
     7
100
AcDbLine
 10
224.065723681124
 20
233.4391606139741
 30
0.0
 11
222.815723681124
 21
233.4391606139741
 31
0.0
  0
LINE
  5
172
330
1F
100
AcDbEntity
  8
1
  6
Continuous
 62
     7
100
AcDbLine
 10
222.815723681124
 20
233.4391606139741
 30
0.0
 11
222.815723681124
 21
234.4391606139741
 31
0.0
  0
LINE
  5
173
330
1F
100
AcDbEntity
  8
1
  6
Continuous
 62
     7
100
AcDbLine
 10
222.815723681124
 20
234.4391606139741
 30
0.0
 11
224.065723681124
 21
234.4391606139741
 31
0.0
  0
LINE
  5
174
330
1F
100
AcDbEntity
  8
1
  6
Continuous
 62
     7
100
AcDbLine
 10
224.565723681124
 20
234.9391606139741
 30
0.0
 11
224.565723681124
 21
236.1891606139741
 31
0.0
  0
LINE
  5
175
330
1F
100
AcDbEntity
  8
1
  6
Continuous
 62
     7
100
AcDbLine
 10
224.565723681124
 20
236.1891606139741
 30
0.0
 11
225.565723681124
 21
236.1891606139741
 31
0.0
  0
LINE
  5
176
330
1F
100
AcDbEntity
  8
1
  6
Continuous
 62
     7
100
AcDbLine
 10
225.565723681124
 20
236.1891606139741
 30
0.0
 11
225.565723681124
 21
234.9391606139741
 31
0.0
  0
LINE
  5
177
330
1F
100
AcDbEntity
  8
1
  6
Continuous
 62
     7
100
AcDbLine
 10
226.065723681124
 20
234.4391606139741
 30
0.0
 11
227.315723681124
 21
234.4391606139741
 31
0.0
  0
LINE
  5
178
330
1F
100
AcDbEntity
  8
1
  6
Continuous
 62
     7
100
AcDbLine
 10
227.315723681124
 20
234.4391606139741
 30
0.0
 11
227.315723681124
 21
233.4391606139741
 31
0.0
  0
LINE
  5
179
330
1F
100
AcDbEntity
  8
1
  6
Continuous
 62
     7
100
AcDbLine
 10
227.315723681124
 20
233.4391606139741
 30
0.0
 11
226.065723681124
 21
233.4391606139741
 31
0.0
  0
LINE
  5
17A
330
1F
100
AcDbEntity
  8
1
  6
Continuous
 62
     7
100
AcDbLine
 10
225.565723681124
 20
232.9391606139741
 30
0.0
 11
225.565723681124
 21
231.6891606139741
 31
0.0
  0
LINE
  5
17B
330
1F
100
AcDbEntity
  8
1
  6
Continuous
 62
     7
100
AcDbLine
 10
225.565723681124
 20
231.6891606139741
 30
0.0
 11
224.565723681124
 21
231.6891606139741
 31
0.0
  0
LINE
  5
17C
330
1F
100
AcDbEntity
  8
1
  6
DOT_CENTER
 62
     7
100
AcDbLine
 10
240.144990005907
 20
183.289160613974
 30
0.0
 11
248.132458180588
 21
183.289160613974
 31
0.0
  0
LINE
  5
17D
330
1F
100
AcDbEntity
  8
1
  6
DOT_CENTER
 62
     7
100
AcDbLine
 10
154.035662016158
 20
183.289160613974
 30
0.0
 11
240.144990005907
 21
183.289160613974
 31
0.0
  0
LINE
  5
17E
330
1F
100
AcDbEntity
  8
1
  6
DOT_CENTER
 62
     2
100
AcDbLine
 10
207.040595054524
 20
207.191060532136
 30
0.0
 11
207.040595054524
 21
158.191060532136
 31
0.0
  0
ARC
  5
17F
330
1F
100
AcDbEntity
  8
A_FASEN
  6
DASHED
 62
     2
100
AcDbCircle
 10
231.165723681124
 20
131.789160613974
 30
0.0
 40
4.249999999988332
100
AcDbArc
 50
-160.2500772047955
 51
0.0
  0
ARC
  5
180
330
1F
100
AcDbEntity
  8
A_FASEN
  6
DASHED
 62
     2
100
AcDbCircle
 10
231.165723681124
 20
137.789160613974
 30
0.0
 40
4.25
100
AcDbArc
 50
0.0
 51
180.0
  0
ARC
  5
181
330
1F
100
AcDbEntity
  8
0
  6
DASHED
 62
     2
100
AcDbCircle
 10
231.165723681124
 20
131.789160613974
 30
0.0
 40
2.599999999999994
100
AcDbArc
 50
180.0
 51
0.0
  0
ARC
  5
182
330
1F
100
AcDbEntity
  8
0
  6
DASHED
 62
     2
100
AcDbCircle
 10
231.165723681124
 20
137.789160613974
 30
0.0
 40
2.599999999999994
100
AcDbArc
 50
0.0
 51
180.0
  0
ARC
  5
183
330
1F
100
AcDbEntity
  8
A_RUNDUNGEN
  6
Continuous
 62
     7
100
AcDbCircle
 10
234.165723681124
 20
154.189160613974
 30
0.0
 40
0.5
100
AcDbArc
 50
-90.0
 51
0.0
  0
ARC
  5
184
330
1F
100
AcDbEntity
  8
A_RUNDUNGEN
  6
Continuous
 62
     7
100
AcDbCircle
 10
232.565723681124
 20
153.189160613974
 30
0.0
 40
0.5
100
AcDbArc
 50
90.0
 51
180.0
  0
ARC
  5
185
330
1F
100
AcDbEntity
  8
A_RUNDUNGEN
  6
Continuous
 62
     7
100
AcDbCircle
 10
235.365723681124
 20
154.039160613974
 30
0.0
 40
0.5
100
AcDbArc
 50
-90.0
 51
0.0
  0
ARC
  5
186
330
1F
100
AcDbEntity
  8
A_RUNDUNGEN
  6
DASHED
 62
     2
100
AcDbCircle
 10
225.065723681124
 20
135.789160613974
 30
0.0
 40
12.0
100
AcDbArc
 50
180.0
 51
0.0
  0
ARC
  5
187
330
1F
100
AcDbEntity
  8
A_FASEN
  6
DASHED
 62
     2
100
AcDbCircle
 10
218.965723681124
 20
137.789160613974
 30
0.0
 40
4.25
100
AcDbArc
 50
0.0
 51
180.0
  0
ARC
  5
188
330
1F
100
AcDbEntity
  8
A_FASEN
  6
DASHED
 62
     2
100
AcDbCircle
 10
218.965723681124
 20
131.789160613974
 30
0.0
 40
4.25
100
AcDbArc
 50
180.0
 51
-19.74992279520445
  0
ARC
  5
189
330
1F
100
AcDbEntity
  8
A_FASEN
  6
DASHED
 62
     2
100
AcDbCircle
 10
225.065734603424
 20
135.789149106074
 30
0.0
 40
3.100007728299356
100
AcDbArc
 50
52.76331430550185
 51
127.237014710195
  0
ARC
  5
18A
330
1F
100
AcDbEntity
  8
A_FASEN
  6
DASHED
 62
     2
100
AcDbCircle
 10
225.065711857224
 20
129.789161366074
 30
0.0
 40
3.100000228400413
100
AcDbArc
 50
-163.5423367365057
 51
-16.45750481740372
  0
ARC
  5
18B
330
1F
100
AcDbEntity
  8
0
  6
DASHED
 62
     2
100
AcDbCircle
 10
218.965723681124
 20
131.789160613974
 30
0.0
 40
2.599999999999994
100
AcDbArc
 50
180.0
 51
0.0
  0
ARC
  5
18C
330
1F
100
AcDbEntity
  8
0
  6
DASHED
 62
     2
100
AcDbCircle
 10
218.965723681124
 20
137.789160613974
 30
0.0
 40
2.600000000000023
100
AcDbArc
 50
0.0
 51
180.0
  0
ARC
  5
18D
330
1F
100
AcDbEntity
  8
A_FASEN
  6
DASHED
 62
     2
100
AcDbCircle
 10
225.065734603424
 20
135.789149106074
 30
0.0
 40
2.100009905999754
100
AcDbArc
 50
28.24295480179795
 51
151.7573272317165
  0
ARC
  5
18E
330
1F
100
AcDbEntity
  8
A_FASEN
  6
DASHED
 62
     2
100
AcDbCircle
 10
225.065711857224
 20
129.789161366074
 30
0.0
 40
2.100000523100128
100
AcDbArc
 50
-179.9999794812951
 51
-0.00002051840476
  0
ARC
  5
18F
330
1F
100
AcDbEntity
  8
0
  6
DASHED
 62
     2
100
AcDbCircle
 10
225.065723681124
 20
135.789160613974
 30
0.0
 40
2.099999999991704
100
AcDbArc
 50
151.7574628159879
 51
180.0
  0
ARC
  5
190
330
1F
100
AcDbEntity
  8
0
  6
DASHED
 62
     2
100
AcDbCircle
 10
225.065723681124
 20
135.789160613974
 30
0.0
 40
2.099999999999994
100
AcDbArc
 50
0.0
 51
28.24253718401243
  0
ARC
  5
191
330
1F
100
AcDbEntity
  8
A_RUNDUNGEN
  6
Continuous
 62
     7
100
AcDbCircle
 10
217.207777761324
 20
171.415520747774
 30
0.0
 40
1.523639866199598
100
AcDbArc
 50
87.63827493768734
 51
89.99964491535054
  0
ARC
  5
192
330
1F
100
AcDbEntity
  8
A_RUNDUNGEN
  6
Continuous
 62
     7
100
AcDbCircle
 10
216.065723681124
 20
152.539160613974
 30
0.0
 40
1.0
100
AcDbArc
 50
36.86989764584565
 51
90.0
  0
ARC
  5
193
330
1F
100
AcDbEntity
  8
A_RUNDUNGEN
  6
Continuous
 62
     7
100
AcDbCircle
 10
217.565723681124
 20
153.189160613974
 30
0.0
 40
0.5
100
AcDbArc
 50
0.0
 51
90.0
  0
ARC
  5
194
330
1F
100
AcDbEntity
  8
A_ACHSEN
  6
DASHED
 62
     2
100
AcDbCircle
 10
174.004302930824
 20
128.289160613974
 30
0.0
 40
5.099999999999549
100
AcDbArc
 50
105.6292383612994
 51
74.37076163870027
  0
ARC
  5
195
330
1F
100
AcDbEntity
  8
A_RUNDUNGEN
  6
Continuous
 62
     7
100
AcDbCircle
 10
189.504302930824
 20
154.189160613974
 30
0.0
 40
0.5
100
AcDbArc
 50
-90.0
 51
0.0
  0
ARC
  5
196
330
1F
100
AcDbEntity
  8
A_FASEN
  6
DASHED
 62
     2
100
AcDbCircle
 10
231.165723681124
 20
234.789160613974
 30
0.0
 40
4.25
100
AcDbArc
 50
0.0
 51
160.2500772035261
  0
ARC
  5
197
330
1F
100
AcDbEntity
  8
A_FASEN
  6
DASHED
 62
     2
100
AcDbCircle
 10
231.165723681124
 20
228.789160613974
 30
0.0
 40
4.25
100
AcDbArc
 50
180.0
 51
0.0
  0
ARC
  5
198
330
1F
100
AcDbEntity
  8
0
  6
DASHED
 62
     2
100
AcDbCircle
 10
231.165723681124
 20
234.789160613974
 30
0.0
 40
2.599999999999994
100
AcDbArc
 50
0.0
 51
180.0
  0
ARC
  5
199
330
1F
100
AcDbEntity
  8
0
  6
DASHED
 62
     2
100
AcDbCircle
 10
231.165723681124
 20
228.789160613974
 30
0.0
 40
2.599999999999994
100
AcDbArc
 50
180.0
 51
0.0
  0
ARC
  5
19A
330
1F
100
AcDbEntity
  8
A_RUNDUNGEN
  6
Continuous
 62
     7
100
AcDbCircle
 10
234.065723681124
 20
214.039160613974
 30
0.0
 40
1.000000000000006
100
AcDbArc
 50
-143.1301023541566
 51
-90.0
  0
ARC
  5
19B
330
1F
100
AcDbEntity
  8
A_RUNDUNGEN
  6
Continuous
 62
     7
100
AcDbCircle
 10
232.565723681124
 20
213.389160613974
 30
0.0
 40
0.5
100
AcDbArc
 50
180.0
 51
-90.0
  0
ARC
  5
19C
330
1F
100
AcDbEntity
  8
A_RUNDUNGEN
  6
Continuous
 62
     7
100
AcDbCircle
 10
234.165723681124
 20
212.389160613974
 30
0.0
 40
0.5
100
AcDbArc
 50
0.0
 51
90.0
  0
ARC
  5
19D
330
1F
100
AcDbEntity
  8
A_RUNDUNGEN
  6
Continuous
 62
     7
100
AcDbCircle
 10
235.365723681124
 20
212.539160613974
 30
0.0
 40
0.5
100
AcDbArc
 50
0.0
 51
90.0
  0
ARC
  5
19E
330
1F
100
AcDbEntity
  8
A_RUNDUNGEN
  6
DASHED
 62
     2
100
AcDbCircle
 10
225.065723681124
 20
230.789160613974
 30
0.0
 40
12.0
100
AcDbArc
 50
0.0
 51
180.0
  0
ARC
  5
19F
330
1F
100
AcDbEntity
  8
A_FASEN
  6
DASHED
 62
     2
100
AcDbCircle
 10
218.965723681124
 20
228.789160613974
 30
0.0
 40
4.25
100
AcDbArc
 50
180.0
 51
0.0
  0
ARC
  5
1A0
330
1F
100
AcDbEntity
  8
A_FASEN
  6
DASHED
 62
     2
100
AcDbCircle
 10
218.965723681124
 20
234.789160613974
 30
0.0
 40
4.250000000022139
100
AcDbArc
 50
19.74992279647385
 51
180.0
  0
ARC
  5
1A1
330
1F
100
AcDbEntity
  8
A_FASEN
  6
DASHED
 62
     2
100
AcDbCircle
 10
225.065719116124
 20
236.789166794274
 30
0.0
 40
3.099987923299842
100
AcDbArc
 50
16.45741994810528
 51
163.5424976236924
  0
ARC
  5
1A2
330
1F
100
AcDbEntity
  8
A_FASEN
  6
DASHED
 62
     2
100
AcDbCircle
 10
225.065730652824
 20
230.789147765274
 30
0.0
 40
3.099980440800223
100
AcDbArc
 50
-127.237228983092
 51
-52.76298376860617
  0
ARC
  5
1A3
330
1F
100
AcDbEntity
  8
0
  6
DASHED
 62
     2
100
AcDbCircle
 10
218.965723681124
 20
234.789160613974
 30
0.0
 40
2.600000000000023
100
AcDbArc
 50
0.0
 51
180.0
  0
ARC
  5
1A4
330
1F
100
AcDbEntity
  8
0
  6
DASHED
 62
     2
100
AcDbCircle
 10
218.965723681124
 20
228.789160613974
 30
0.0
 40
2.599999999999994
100
AcDbArc
 50
180.0
 51
0.0
  0
ARC
  5
1A5
330
1F
100
AcDbEntity
  8
0
  6
DASHED
 62
     2
100
AcDbCircle
 10
225.065723681124
 20
230.789160613974
 30
0.0
 40
2.099999999991665
100
AcDbArc
 50
-28.24253718401175
 51
0.0
  0
ARC
  5
1A6
330
1F
100
AcDbEntity
  8
0
  6
DASHED
 62
     2
100
AcDbCircle
 10
225.065723681124
 20
230.789160613974
 30
0.0
 40
2.100000000000023
100
AcDbArc
 50
180.0
 51
-151.7574628159886
  0
ARC
  5
1A7
330
1F
100
AcDbEntity
  8
A_FASEN
  6
DASHED
 62
     2
100
AcDbCircle
 10
225.065719116124
 20
236.789166794274
 30
0.0
 40
2.099995701500091
100
AcDbArc
 50
-0.00016862149638
 51
-179.9998313777941
  0
ARC
  5
1A8
330
1F
100
AcDbEntity
  8
A_FASEN
  6
DASHED
 62
     2
100
AcDbCircle
 10
225.065730652824
 20
230.789147765274
 30
0.0
 40
2.099988939800114
100
AcDbArc
 50
-151.75786165199
 51
-28.24231836669352
  0
ARC
  5
1A9
330
1F
100
AcDbEntity
  8
A_RUNDUNGEN
  6
Continuous
 62
     7
100
AcDbCircle
 10
217.207777742724
 20
195.162773159474
 30
0.0
 40
1.523612545529362
100
AcDbArc
 50
-89.99964420952664
 51
-87.63840485270413
  0
ARC
  5
1AA
330
1F
100
AcDbEntity
  8
A_ACHSEN
  6
DASHED
 62
     2
100
AcDbCircle
 10
174.004302930824
 20
238.289160613974
 30
0.0
 40
5.099999999999529
100
AcDbArc
 50
-74.3707616387002
 51
-105.6292383612995
  0
ARC
  5
1AB
330
1F
100
AcDbEntity
  8
A_RUNDUNGEN
  6
Continuous
 62
     7
100
AcDbCircle
 10
189.504302930824
 20
212.389160613974
 30
0.0
 40
0.5
100
AcDbArc
 50
0.0
 51
90.0
  0
ARC
  5
1AC
330
1F
100
AcDbEntity
  8
0
  6
Continuous
 62
     7
100
AcDbCircle
 10
174.004302930824
 20
229.789160613974
 30
0.0
 40
16.0
100
AcDbArc
 50
90.0
 51
180.0
  0
ARC
  5
1AD
330
1F
100
AcDbEntity
  8
0
  6
Continuous
 62
     7
100
AcDbCircle
 10
174.004302930824
 20
136.789160613974
 30
0.0
 40
15.99999999999999
100
AcDbArc
 50
-90.0
 51
0.0
  0
ARC
  5
1AE
330
1F
100
AcDbEntity
  8
0
  6
Continuous
 62
     7
100
AcDbCircle
 10
225.065723681124
 20
233.939160613974
 30
0.0
 40
12.0
100
AcDbArc
 50
0.0
 51
180.0
  0
ARC
  5
1AF
330
1F
100
AcDbEntity
  8
A_RUNDUNGEN
  6
Continuous
 62
     7
100
AcDbCircle
 10
234.065723681124
 20
152.539160613974
 30
0.0
 40
1.0
100
AcDbArc
 50
90.0
 51
143.1301023541553
  0
ARC
  5
1B0
330
1F
100
AcDbEntity
  8
0
  6
Continuous
 62
     7
100
AcDbCircle
 10
225.065723681124
 20
132.639160613974
 30
0.0
 40
12.0
100
AcDbArc
 50
180.0
 51
0.0
  0
ARC
  5
1B1
330
1F
100
AcDbEntity
  8
0
  6
Continuous
 62
     7
100
AcDbCircle
 10
174.004302930824
 20
229.789160613974
 30
0.0
 40
16.0
100
AcDbArc
 50
0.0
 51
90.0
  0
ARC
  5
1B2
330
1F
100
AcDbEntity
  8
0
  6
Continuous
 62
     7
100
AcDbCircle
 10
174.004302930824
 20
136.789160613974
 30
0.0
 40
16.0
100
AcDbArc
 50
180.0
 51
-90.0
  0
CIRCLE
  5
1B3
330
1F
100
AcDbEntity
  8
A_ACHSEN
  6
DASHED
 62
     2
100
AcDbCircle
 10
174.004302930824
 20
128.289160613974
 30
0.0
 40
2.75
  0
CIRCLE
  5
1B4
330
1F
100
AcDbEntity
  8
A_ACHSEN
  6
DASHED
 62
     2
100
AcDbCircle
 10
174.004302930824
 20
238.289160613974
 30
0.0
 40
2.75
  0
CIRCLE
  5
1B5
330
1F
100
AcDbEntity
  8
1
  6
Continuous
 62
     7
100
AcDbCircle
 10
174.004302930824
 20
135.289160613974
 30
0.0
 40
3.999999999999886
  0
CIRCLE
  5
1B6
330
1F
100
AcDbEntity
  8
1
  6
Continuous
 62
     7
100
AcDbCircle
 10
225.065723681124
 20
132.639160613974
 30
0.0
 40
3.999999999999915
  0
CIRCLE
  5
1B7
330
1F
100
AcDbEntity
  8
1
  6
Continuous
 62
     7
100
AcDbCircle
 10
174.004302930824
 20
231.289160613974
 30
0.0
 40
3.999999999999886
  0
CIRCLE
  5
1B8
330
1F
100
AcDbEntity
  8
1
  6
Continuous
 62
     7
100
AcDbCircle
 10
225.065723681124
 20
233.939160613974
 30
0.0
 40
3.999999999999886
  0
SPLINE
  5
1B9
330
1F
100
AcDbEntity
  8
A_RUNDUNGEN
  6
Continuous
 62
     7
100
AcDbSpline
210
0.0
220
0.0
230
1.0
 70
     8
 71
     3
 72
    15
 73
    11
 74
     9
 42
0.0000000001
 43
0.0000000001
 44
0.00000001
 40
0.0
 40
0.0
 40
0.0
 40
0.0
 40
0.0204130649306608
 40
0.0407329755809843
 40
0.0612581392866475
 40
0.0820404768101029
 40
0.1090711651134127
 40
0.1361182277518408
 40
0.1724788027666427
 40
0.2087886504747011
 40
0.2087886504747011
 40
0.2087886504747011
 40
0.2087886504747011
 10
189.279754601724
 20
172.939160613974
 30
0.0
 10
189.2729364320152
 20
172.9387318145127
 30
0.0
 10
189.2593312070673
 20
172.9378761724008
 30
0.0
 10
189.239938132556
 20
172.9301611636176
 30
0.0
 10
189.2242756759444
 20
172.9163725297011
 30
0.0
 10
189.2115562948053
 20
172.8972556256547
 30
0.0
 10
189.2025770014324
 20
172.873757752563
 30
0.0
 10
189.1967912464961
 20
172.8441117162419
 30
0.0
 10
189.1933753677813
 20
172.8109945397245
 30
0.0
 10
189.1931117243313
 20
172.7867632678424
 30
0.0
 10
189.192979994624
 20
172.774656089174
 30
0.0
 11
189.279754601724
 21
172.939160613974
 31
0.0
 11
189.2594784048006
 21
172.9368007287676
 31
0.0
 11
189.2406342302305
 21
172.9291983703434
 31
0.0
 11
189.2250347866074
 21
172.9158589661666
 31
0.0
 11
189.2133170490155
 21
172.8986950453247
 31
0.0
 11
189.2033352318908
 21
172.8735749052566
 31
0.0
 11
189.1977299475972
 21
172.8471150415882
 31
0.0
 11
189.1939308379075
 21
172.8109534849157
 31
0.0
 11
189.192979994624
 21
172.774656089174
 31
0.0
  0
SPLINE
  5
1BA
330
1F
100
AcDbEntity
  8
A_RUNDUNGEN
  6
Continuous
 62
     7
100
AcDbSpline
210
0.0
220
0.0
230
1.0
 70
     8
 71
     3
 72
    15
 73
    11
 74
     9
 42
0.0000000001
 43
0.0000000001
 44
0.00000001
 40
0.0
 40
0.0
 40
0.0
 40
0.0
 40
0.2685119118049639
 40
0.5378775933370694
 40
0.808775836061181
 40
1.079473863018077
 40
1.369257800954946
 40
1.659529156427951
 40
1.981229172487523
 40
2.301514897435943
 40
2.301514897435943
 40
2.301514897435943
 40
2.301514897435943
 10
217.2705642279
 20
172.937866405464
 30
0.0
 10
217.359907336967
 20
172.9295437645326
 30
0.0
 10
217.5388776335292
 20
172.9128720197139
 30
0.0
 10
217.7972915575069
 20
172.8289312264641
 30
0.0
 10
218.0379518502156
 20
172.7033056445061
 30
0.0
 10
218.2577716552859
 20
172.5320652447832
 30
0.0
 10
218.4469750057743
 20
172.3182909322976
 30
0.0
 10
218.5992217443233
 20
172.05746157861
 30
0.0
 10
218.7025310542619
 20
171.7604480018887
 30
0.0
 10
218.7163556373972
 20
171.5460990067203
 30
0.0
 10
218.723252701224
 20
171.439160613974
 30
0.0
 11
217.2705642279
 21
172.937866405464
 31
0.0
 11
217.5368212634509
 21
172.9031412301471
 31
0.0
 11
217.7937460888599
 21
172.8222245787344
 31
0.0
 11
218.033627110878
 21
172.6963557851971
 31
0.0
 11
218.2472330974217
 21
172.5300731814436
 31
0.0
 11
218.439112522827
 21
172.3129165172761
 31
0.0
 11
218.5859275680964
 21
172.0625112411922
 31
0.0
 11
218.6882950956044
 21
171.7575328982813
 31
0.0
 11
218.723252701224
 21
171.439160613974
 31
0.0
  0
SPLINE
  5
1BB
330
1F
100
AcDbEntity
  8
A_RUNDUNGEN
  6
Continuous
 62
     7
100
AcDbSpline
210
0.0
220
0.0
230
1.0
 70
     8
 71
     3
 72
    15
 73
    11
 74
     9
 42
0.0000000001
 43
0.0000000001
 44
0.00000001
 40
0.0
 40
0.0
 40
0.0
 40
0.0
 40
0.0363087153066578
 40
0.0726681610107101
 40
0.0997144070271108
 40
0.1267442589660162
 40
0.1475261322806887
 40
0.1680508682507589
 40
0.1883704737972366
 40
0.2087832200971882
 40
0.2087832200971882
 40
0.2087832200971882
 40
0.2087832200971882
 10
189.192980002024
 20
193.803659694174
 30
0.0
 10
189.1931118163926
 20
193.7915528940054
 30
0.0
 10
189.1933756293003
 20
193.7673223780936
 30
0.0
 10
189.1967917009723
 20
193.7342062511838
 30
0.0
 10
189.2025776465349
 20
193.7045611964183
 30
0.0
 10
189.2115570220913
 20
193.6810641114578
 30
0.0
 10
189.2242764143939
 20
193.6619479080365
 30
0.0
 10
189.2399387547641
 20
193.6481597804876
 30
0.0
 10
189.2593315220842
 20
193.6404450160258
 30
0.0
 10
189.2729365385269
 20
193.6395894001568
 30
0.0
 10
189.279754601724
 20
193.639160613974
 30
0.0
 11
189.192980002024
 21
193.803659694174
 31
0.0
 11
189.1939310918637
 21
193.767363437682
 31
0.0
 11
189.1977304223483
 21
193.7312030397337
 31
0.0
 11
189.2033358613485
 21
193.7047440435851
 31
0.0
 11
189.2133177304571
 21
193.6796248241518
 31
0.0
 11
189.2250354840731
 21
193.6624614763238
 31
0.0
 11
189.2406347794752
 21
193.6491225569673
 31
0.0
 11
189.2594787171678
 21
193.6415204268843
 31
0.0
 11
189.279754601724
 21
193.639160613974
 31
0.0
  0
SPLINE
  5
1BC
330
1F
100
AcDbEntity
  8
A_RUNDUNGEN
  6
Continuous
 62
     7
100
AcDbSpline
210
0.0
220
0.0
230
1.0
 70
     8
 71
     3
 72
    15
 73
    11
 74
     9
 42
0.0000000001
 43
0.0000000001
 44
0.00000001
 40
0.0
 40
0.0
 40
0.0
 40
0.0
 40
0.3202839999836273
 40
0.6419822618620585
 40
0.9322526098079544
 40
1.222035625261645
 40
1.49273274638442
 40
1.763629964417484
 40
2.033001591532826
 40
2.301519535895246
 40
2.301519535895246
 40
2.301519535895246
 40
2.301519535895246
 10
218.723252701224
 20
195.139160613974
 30
0.0
 10
218.7163556871482
 20
195.0322227988161
 30
0.0
 10
218.7025312041996
 20
194.8178749685868
 30
0.0
 10
218.599222726872
 20
194.5208627400325
 30
0.0
 10
218.4469771721356
 20
194.2600341427315
 30
0.0
 10
218.2577752687334
 20
194.0462598843594
 30
0.0
 10
218.0379573499736
 20
193.875018667909
 30
0.0
 10
217.7972966097787
 20
193.749390951787
 30
0.0
 10
217.5388791000796
 20
193.6654489122458
 30
0.0
 10
217.3599047712988
 20
193.6487772555169
 30
0.0
 10
217.27055963169
 20
193.640454656918
 30
0.0
 11
218.723252701224
 21
195.139160613974
 31
0.0
 11
218.6882953724136
 21
194.8207900346047
 31
0.0
 11
218.5859287519295
 21
194.5158132376082
 31
0.0
 11
218.4391147808706
 21
194.2654084996367
 31
0.0
 11
218.2472368126459
 21
194.0482517789132
 31
0.0
 11
218.0336325325441
 21
193.8819684577221
 31
0.0
 11
217.7937531235008
 21
193.7560987955509
 31
0.0
 11
217.5368227213126
 21
193.6751800589926
 31
0.0
 11
217.27055963169
 21
193.640454656918
 31
0.0
  0
SPLINE
  5
1BD
330
1F
100
AcDbEntity
  8
A_RUNDUNGEN
  6
Continuous
 62
     7
100
AcDbSpline
210
0.0
220
0.0
230
1.0
 70
     8
 71
     3
 72
    17
 73
    13
 74
    11
 42
0.0000000001
 43
0.0000000001
 44
0.00000001
 40
0.0
 40
0.0
 40
0.0
 40
0.0
 40
0.314291452637185
 40
0.6294594739301577
 40
0.9439391364303029
 40
1.258426396256239
 40
1.576430619061488
 40
1.893377040868201
 40
2.054335312647168
 40
2.215254190168592
 40
2.37717092182051
 40
2.538836570850002
 40
2.538836570850002
 40
2.538836570850002
 40
2.538836570850002
 10
185.592558752724
 20
171.689160613974
 30
0.0
 10
185.4876874671961
 20
171.6941106554219
 30
0.0
 10
185.2776524068569
 20
171.7040245441377
 30
0.0
 10
184.9708162457241
 20
171.7824710953134
 30
0.0
 10
184.6801678934235
 20
171.9061865272644
 30
0.0
 10
184.4144703239251
 20
172.0799912964419
 30
0.0
 10
184.1849128595588
 20
172.3005617709825
 30
0.0
 10
184.0329784958142
 20
172.5207542936647
 30
0.0
 10
183.943448208006
 20
172.7144867433402
 30
0.0
 10
183.8939386932805
 20
172.8682921543835
 30
0.0
 10
183.8622669475436
 20
173.0273104009069
 30
0.0
 10
183.8582318508575
 20
173.1352384584186
 30
0.0
 10
183.856215868024
 20
173.189160613974
 30
0.0
 11
185.592558752724
 21
171.689160613974
 31
0.0
 11
185.2792969792349
 21
171.714580654715
 31
0.0
 11
184.9733079578398
 21
171.7900895974396
 31
0.0
 11
184.6844581095603
 21
171.914440806823
 31
0.0
 11
184.4215232445397
 21
172.0869733931636
 31
0.0
 11
184.1927619342453
 21
172.3078691799827
 31
0.0
 11
184.0138679098112
 21
172.5695024391793
 31
0.0
 11
183.9464861948049
 21
172.7156779150187
 31
0.0
 11
183.8970058942691
 21
172.868800692559
 31
0.0
 11
183.866536531937
 21
173.0278247346027
 31
0.0
 11
183.856215868024
 21
173.189160613974
 31
0.0
  0
SPLINE
  5
1BE
330
1F
100
AcDbEntity
  8
A_RUNDUNGEN
  6
Continuous
 62
     7
100
AcDbSpline
210
0.0
220
0.0
230
1.0
 70
     8
 71
     3
 72
    17
 73
    13
 74
    11
 42
0.0000000001
 43
0.0000000001
 44
0.00000001
 40
0.0
 40
0.0
 40
0.0
 40
0.0
 40
0.1616656490310521
 40
0.3235823806938789
 40
0.484501258238976
 40
0.6454595300386322
 40
0.9624059518406922
 40
1.280410174621657
 40
1.594897434438113
 40
1.909377096937322
 40
2.224545118230267
 40
2.538836570867454
 40
2.538836570867454
 40
2.538836570867454
 40
2.538836570867454
 10
183.856215868024
 20
193.389160613974
 30
0.0
 10
183.8582318508575
 20
193.44308276953
 30
0.0
 10
183.862266947544
 20
193.5510108270458
 30
0.0
 10
183.8939386932824
 20
193.710029073581
 30
0.0
 10
183.9434482080057
 20
193.863834484644
 30
0.0
 10
184.032978495805
 20
194.0575669343386
 30
0.0
 10
184.184912859552
 20
194.277759457019
 30
0.0
 10
184.4144703239319
 20
194.4983299315267
 30
0.0
 10
184.6801678934272
 20
194.6721347006853
 30
0.0
 10
184.9708162457244
 20
194.7958501326346
 30
0.0
 10
185.2776524068569
 20
194.8742966838103
 30
0.0
 10
185.4876874671961
 20
194.884210572526
 30
0.0
 10
185.592558752724
 20
194.889160613974
 30
0.0
 11
183.856215868024
 21
193.389160613974
 31
0.0
 11
183.866536531937
 21
193.5504964933469
 31
0.0
 11
183.8970058942691
 21
193.7095205354017
 31
0.0
 11
183.9464861948049
 21
193.8626433129668
 31
0.0
 11
184.0138679098112
 21
194.008818788829
 31
0.0
 11
184.1927619342453
 21
194.27045204802
 31
0.0
 11
184.4215232445396
 21
194.4913478348041
 31
0.0
 11
184.6844581095603
 21
194.6638804211275
 31
0.0
 11
184.9733079578398
 21
194.7882316305084
 31
0.0
 11
185.2792969792349
 21
194.863740573233
 31
0.0
 11
185.592558752724
 21
194.889160613974
 31
0.0
  0
SPLINE
  5
1BF
330
1F
100
AcDbEntity
  8
A_RUNDUNGEN
  6
Continuous
 62
     7
100
AcDbSpline
210
0.0
220
0.0
230
1.0
 70
     8
 71
     3
 72
    11
 73
     7
 74
     5
 42
0.0000000001
 43
0.0000000001
 44
0.00000001
 40
0.0
 40
0.0
 40
0.0
 40
0.0
 40
0.0924506928434684
 40
0.1853560089434855
 40
0.2837713307904258
 40
0.3817347757512412
 40
0.3817347757512412
 40
0.3817347757512412
 40
0.3817347757512412
 10
215.013434650324
 20
153.539160613974
 30
0.0
 10
214.9825570073762
 20
153.5409864507593
 30
0.0
 10
214.9206498816821
 20
153.5446471028227
 30
0.0
 10
214.8299254050491
 20
153.5742185074468
 30
0.0
 10
214.7443694507803
 20
153.6207047552042
 30
0.0
 10
214.6968190492973
 20
153.666061674327
 30
0.0
 10
214.673098556424
 20
153.688687949674
 30
0.0
 11
215.013434650324
 21
153.539160613974
 31
0.0
 11
214.9214602274058
 21
153.548532707449
 31
0.0
 11
214.8327679212447
 21
153.5761926529926
 31
0.0
 11
214.7468801218022
 21
153.6242432667363
 31
0.0
 11
214.673098556424
 21
153.688687949674
 31
0.0
  0
SPLINE
  5
1C0
330
1F
100
AcDbEntity
  8
A_ACHSEN
  6
DASHED
 62
     2
100
AcDbSpline
210
0.0
220
0.0
230
1.0
 70
     8
 71
     3
 72
    11
 73
     7
 74
     5
 42
0.0000000001
 43
0.0000000001
 44
0.00000001
 40
0.0
 40
0.0
 40
0.0
 40
0.0
 40
0.1664539444206873
 40
0.3329321864195223
 40
0.856399437131955
 40
1.379729504827899
 40
1.379729504827899
 40
1.379729504827899
 40
1.379729504827899
 10
172.630305337032
 20
233.377732042545
 30
0.0
 10
172.6851673485425
 20
233.3860358297104
 30
0.0
 10
172.7948993798689
 20
233.4026446161599
 30
0.0
 10
173.0779807362387
 20
233.439431572842
 30
0.0
 10
173.4808509340482
 20
233.4792171942366
 30
0.0
 10
173.8298341766753
 20
233.4858464303158
 30
0.0
 10
174.004302930824
 20
233.489160613974
 30
0.0
 11
172.630305337032
 21
233.377732042545
 31
0.0
 11
172.7949708920743
 21
233.4020665981362
 31
0.0
 11
172.9600390272162
 21
233.4236887122745
 31
0.0
 11
173.4812446836663
 21
233.4722955662445
 31
0.0
 11
174.004302930824
 21
233.489160613974
 31
0.0
  0
SPLINE
  5
1C1
330
1F
100
AcDbEntity
  8
A_ACHSEN
  6
DASHED
 62
     2
100
AcDbSpline
210
0.0
220
0.0
230
1.0
 70
     8
 71
     3
 72
    11
 73
     7
 74
     5
 42
0.0000000001
 43
0.0000000001
 44
0.00000001
 40
0.0
 40
0.0
 40
0.0
 40
0.0
 40
0.1772860342570777
 40
0.3545929243380568
 40
0.8671722750996774
 40
1.379758490500628
 40
1.379758490500628
 40
1.379758490500628
 40
1.379758490500628
 10
174.004302930824
 20
233.489160613974
 30
0.0
 10
174.0634003422868
 20
233.4887909365514
 30
0.0
 10
174.1816021173969
 20
233.4880515382177
 30
0.0
 10
174.47050604597
 20
233.4781961409434
 30
0.0
 10
174.8706675145692
 20
233.4496267288948
 30
0.0
 10
175.2090887658965
 20
233.4016970449761
 30
0.0
 10
175.378300524616
 20
233.377732042545
 30
0.0
 11
174.004302930824
 21
233.489160613974
 31
0.0
 11
174.1815784423146
 21
233.4872290425074
 31
0.0
 11
174.358790857798
 21
233.4814417228555
 31
0.0
 11
174.8699813306633
 21
233.4437337491769
 31
0.0
 11
175.378300524616
 21
233.377732042545
 31
0.0
  0
SPLINE
  5
1C2
330
1F
100
AcDbEntity
  8
A_ACHSEN
  6
DASHED
 62
     2
100
AcDbSpline
210
0.0
220
0.0
230
1.0
 70
     8
 71
     3
 72
    11
 73
     7
 74
     5
 42
0.0000000001
 43
0.0000000001
 44
0.00000001
 40
0.0
 40
0.0
 40
0.0
 40
0.0
 40
0.177285949992852
 40
0.3545927550109257
 40
0.8671721905198551
 40
1.379758495330396
 40
1.379758495330396
 40
1.379758495330396
 40
1.379758495330396
 10
174.004302930824
 20
133.089160613974
 30
0.0
 10
173.9452055474626
 20
133.089530286114
 30
0.0
 10
173.8270038288218
 20
133.0902696738805
 30
0.0
 10
173.5380999259836
 20
133.1001249987341
 30
0.0
 10
173.1379384277862
 20
133.1286944467751
 30
0.0
 10
172.799517123167
 20
133.1766241654732
 30
0.0
 10
172.630305337032
 20
133.200589185403
 30
0.0
 11
174.004302930824
 21
133.089160613974
 31
0.0
 11
173.8270275033739
 21
133.091092164453
 31
0.0
 11
173.6498151717877
 21
133.0968794470177
 31
0.0
 11
173.1386246143927
 21
133.1345874267687
 31
0.0
 11
172.630305337032
 21
133.200589185403
 31
0.0
  0
SPLINE
  5
1C3
330
1F
100
AcDbEntity
  8
A_ACHSEN
  6
DASHED
 62
     2
100
AcDbSpline
210
0.0
220
0.0
230
1.0
 70
     8
 71
     3
 72
    11
 73
     7
 74
     5
 42
0.0000000001
 43
0.0000000001
 44
0.00000001
 40
0.0
 40
0.0
 40
0.0
 40
0.0
 40
0.1664529670931745
 40
0.3329302312618928
 40
0.8563984593542618
 40
1.37972950617563
 40
1.37972950617563
 40
1.37972950617563
 40
1.37972950617563
 10
175.378300524616
 20
133.200589185403
 30
0.0
 10
175.3234388357848
 20
133.1922854435065
 30
0.0
 10
175.2137074499828
 20
133.1756767476195
 30
0.0
 10
174.9306264266604
 20
133.1388897586617
 30
0.0
 10
174.527755906541
 20
133.0991040519918
 30
0.0
 10
174.1787720114803
 20
133.0924748037293
 30
0.0
 10
174.004302930824
 20
133.089160613974
 30
0.0
 11
175.378300524616
 21
133.200589185403
 31
0.0
 11
175.2136359387554
 21
133.1762547567579
 31
0.0
 11
175.0485687782061
 21
133.1546327311058
 31
0.0
 11
174.5273621562367
 21
133.10602570448
 31
0.0
 11
174.004302930824
 21
133.089160613974
 31
0.0
  0
SPLINE
  5
1C4
330
1F
100
AcDbEntity
  8
A_RUNDUNGEN
  6
Continuous
 62
     7
100
AcDbSpline
210
0.0
220
0.0
230
1.0
 70
     8
 71
     3
 72
    23
 73
    19
 74
    17
 42
0.0000000001
 43
0.0000000001
 44
0.00000001
 40
0.0
 40
0.0
 40
0.0
 40
0.0
 40
0.0872068915054613
 40
0.1744137749913498
 40
0.2180547704056776
 40
0.2616961449631034
 40
0.3053332434568766
 40
0.348970419859239
 40
0.3926034330810645
 40
0.4362357832313779
 40
0.4798630882766357
 40
0.5234916023145664
 40
0.5671158895683974
 40
0.6107412773420051
 40
0.6543725368123335
 40
0.697978433612429
 40
0.7415222942710344
 40
0.7852372009879899
 40
0.7852372009879899
 40
0.7852372009879899
 40
0.7852372009879899
 10
159.504607702924
 20
212.889160613974
 30
0.0
 10
159.4755044045683
 20
212.8876975409305
 30
0.0
 10
159.4172978105332
 20
212.884771394978
 30
0.0
 10
159.3466996010213
 20
212.8650771725905
 30
0.0
 10
159.2929047936826
 20
212.8429066560221
 30
0.0
 10
159.2541380698916
 20
212.8227204511647
 30
0.0
 10
159.2172833386865
 20
212.7992563518206
 30
0.0
 10
159.1826102613638
 20
212.7726708713045
 30
0.0
 10
159.150391170355
 20
212.7431635532937
 30
0.0
 10
159.1208648249989
 20
212.7109655661799
 30
0.0
 10
159.0942690790943
 20
212.6763095566719
 30
0.0
 10
159.0707845450687
 20
212.6394784547026
 30
0.0
 10
159.0505836556557
 20
212.6007481832835
 30
0.0
 10
159.0338659883684
 20
212.5603908837754
 30
0.0
 10
159.0208001083282
 20
212.5187072517634
 30
0.0
 10
159.0113918700137
 20
212.476110922348
 30
0.0
 10
159.0050741859953
 20
212.4328514890856
 30
0.0
 10
159.0045603516233
 20
212.4037432584873
 30
0.0
 10
159.004302930824
 20
212.389160613974
 30
0.0
 11
159.504607702924
 21
212.889160613974
 31
0.0
 11
159.4177322460762
 21
212.8815647648758
 31
0.0
 11
159.3334933930662
 21
212.8590069243124
 31
0.0
 11
159.293170845919
 21
212.8423147503282
 31
0.0
 11
159.2544553168761
 21
212.8221733158165
 31
0.0
 11
159.2176465880869
 21
212.7987358703525
 31
0.0
 11
159.1830179943532
 21
212.7721828354902
 31
0.0
 11
159.1508394183874
 21
212.742714562863
 31
0.0
 11
159.1213520123928
 21
212.7105544187814
 31
0.0
 11
159.0947875869936
 21
212.6759470055767
 31
0.0
 11
159.0713310606523
 21
212.6391606139467
 31
0.0
 11
159.0511643900313
 21
212.6004774931513
 31
0.0
 11
159.0344750004386
 21
212.5601706856193
 31
0.0
 11
159.0214065277282
 21
212.5185425482122
 31
0.0
 11
159.0119036844915
 21
212.4759847027997
 31
0.0
 11
159.0060034996322
 21
212.4328424309577
 31
0.0
 11
159.004302930824
 21
212.389160613974
 31
0.0
  0
SPLINE
  5
1C5
330
1F
100
AcDbEntity
  8
A_RUNDUNGEN
  6
Continuous
 62
     7
100
AcDbSpline
210
0.0
220
0.0
230
1.0
 70
     8
 71
     3
 72
    23
 73
    19
 74
    17
 42
0.0000000001
 43
0.0000000001
 44
0.00000001
 40
0.0
 40
0.0
 40
0.0
 40
0.0
 40
0.0871577203830428
 40
0.1743154488084211
 40
0.2179394660823264
 40
0.2615637573920542
 40
0.3051915235232743
 40
0.3488199491802119
 40
0.3924542072550091
 40
0.4360851979407373
 40
0.4797160651178863
 40
0.5233594823520221
 40
0.5670237093997115
 40
0.6106422470665392
 40
0.6542043909734611
 40
0.6979274194875712
 40
0.7418542923812723
 40
0.7852352750996071
 40
0.7852352750996071
 40
0.7852352750996071
 40
0.7852352750996071
 10
159.004302930824
 20
154.189160613974
 30
0.0
 10
159.0057670847793
 20
154.1600736419894
 30
0.0
 10
159.0086953928249
 20
154.1018996953362
 30
0.0
 10
159.0284026962088
 20
154.0313439997329
 30
0.0
 10
159.0505862363171
 20
153.9775845698641
 30
0.0
 10
159.0707852992749
 20
153.9388407884839
 30
0.0
 10
159.0942631497742
 20
153.9020086705633
 30
0.0
 10
159.1208660686951
 20
153.8673559435476
 30
0.0
 10
159.1503928005662
 20
153.8351586136268
 30
0.0
 10
159.1826090527736
 20
153.8056508110179
 30
0.0
 10
159.2172812534741
 20
153.7790668702022
 30
0.0
 10
159.2541438440018
 20
153.7555945584292
 30
0.0
 10
159.2929073464557
 20
153.7354228802877
 30
0.0
 10
159.333255825325
 20
153.7187197663174
 30
0.0
 10
159.3749431340195
 20
153.7056185561056
 30
0.0
 10
159.4176916134563
 20
153.6962206572643
 30
0.0
 10
159.461014814479
 20
153.6899686042173
 30
0.0
 10
159.4901374362628
 20
153.6894288190574
 30
0.0
 10
159.504607702924
 20
153.689160613974
 30
0.0
 11
159.004302930824
 21
154.189160613974
 31
0.0
 11
159.0119039594244
 21
154.1023349692221
 31
0.0
 11
159.0344750004394
 21
154.0181505423263
 31
0.0
 11
159.0511782326491
 21
153.9778509527892
 31
0.0
 11
159.0713310606531
 21
153.9391606139987
 31
0.0
 11
159.0947835458478
 21
153.9023725328339
 31
0.0
 11
159.1213520123939
 21
153.8677668091643
 31
0.0
 11
159.150841738792
 21
153.8356062041529
 31
0.0
 11
159.1830179943546
 21
153.8061383924563
 31
0.0
 11
159.217641347434
 21
153.7795888916667
 31
0.0
 11
159.2544553168782
 21
153.7561479121303
 31
0.0
 11
159.2931894903686
 21
153.735992800429
 31
0.0
 11
159.3334933930689
 21
153.7193143036348
 31
0.0
 11
159.3750514579915
 21
153.706253384002
 31
0.0
 11
159.4177306909759
 21
153.696756737525
 31
0.0
 11
159.4612600357783
 21
153.6908604417982
 31
0.0
 11
159.504607702924
 21
153.689160613974
 31
0.0
  0
SPLINE
  5
1C6
330
1F
100
AcDbEntity
  8
A_RUNDUNGEN
  6
Continuous
 62
     7
100
AcDbSpline
210
0.0
220
0.0
230
1.0
 70
     8
 71
     3
 72
    13
 73
     9
 74
     7
 42
0.0000000001
 43
0.0000000001
 44
0.00000001
 40
0.0
 40
0.0
 40
0.0
 40
0.0
 40
0.1833200043756488
 40
0.3666422297419591
 40
0.479498170773831
 40
0.5923531617218769
 40
0.7881041576823359
 40
0.9838548414286985
 40
0.9838548414286985
 40
0.9838548414286985
 40
0.9838548414286985
 10
189.198342880524
 20
193.904723585274
 30
0.0
 10
189.2031448038045
 20
193.9656445412554
 30
0.0
 10
189.2127487085427
 20
194.0874871912983
 30
0.0
 10
189.2205050980681
 20
194.247149611656
 30
0.0
 10
189.2259756203319
 20
194.3833829324946
 30
0.0
 10
189.2305275099215
 20
194.5237979510783
 30
0.0
 10
189.2346494319624
 20
194.6918702016332
 30
0.0
 10
189.2363377559136
 20
194.8223606938308
 30
0.0
 10
189.237181917216
 20
194.887605887898
 30
0.0
 11
189.198342880524
 21
193.904723585274
 31
0.0
 11
189.2118303916665
 21
194.0875467540669
 31
0.0
 11
189.2213270494296
 21
194.2706228360781
 31
0.0
 11
189.2258303847588
 21
194.3833888921283
 31
0.0
 11
189.2295237712698
 21
194.4961834304622
 31
0.0
 11
189.2342716149987
 21
194.6918768396497
 31
0.0
 11
189.237181917216
 21
194.887605887898
 31
0.0
  0
SPLINE
  5
1C7
330
1F
100
AcDbEntity
  8
A_RUNDUNGEN
  6
Continuous
 62
     7
100
AcDbSpline
210
0.0
220
0.0
230
1.0
 70
     8
 71
     3
 72
    13
 73
     9
 74
     7
 42
0.0000000001
 43
0.0000000001
 44
0.00000001
 40
0.0
 40
0.0
 40
0.0
 40
0.0
 40
0.2453616265521156
 40
0.4907231725453078
 40
0.5983633209826993
 40
0.7060045665816903
 40
0.844933087625021
 40
0.983857090486373
 40
0.983857090486373
 40
0.983857090486373
 40
0.983857090486373
 10
189.237181917216
 20
171.690715340035
 30
0.0
 10
189.2360722820409
 20
171.7724957972909
 30
0.0
 10
189.2338530120551
 20
171.936056684952
 30
0.0
 10
189.228198442028
 20
172.1354396629131
 30
0.0
 10
189.2222906557184
 20
172.2888751170092
 30
0.0
 10
189.2167521602962
 20
172.4068147607193
 30
0.0
 10
189.209613079942
 20
172.5351246650428
 30
0.0
 10
189.2020995729374
 20
172.6274404839152
 30
0.0
 10
189.198342880524
 20
172.673597642774
 30
0.0
 11
189.237181917216
 21
171.690715340035
 31
0.0
 11
189.2332484879806
 21
171.9360454358626
 31
0.0
 11
189.2263213761113
 21
172.1813091783385
 31
0.0
 11
189.222139376563
 21
172.2888680572626
 31
0.0
 11
189.2171058926838
 21
172.3963915514122
 31
0.0
 11
189.2090210098335
 21
172.5350846248823
 31
0.0
 11
189.198342880524
 21
172.673597642774
 31
0.0
  0
SPLINE
  5
1C8
330
1F
100
AcDbEntity
  8
A_RUNDUNGEN
  6
Continuous
 62
     7
100
AcDbSpline
210
0.0
220
0.0
230
1.0
 70
     8
 71
     3
 72
    23
 73
    19
 74
    17
 42
0.0000000001
 43
0.0000000001
 44
0.00000001
 40
0.0
 40
0.0
 40
0.0
 40
0.0
 40
0.0871714079284605
 40
0.1743428134018742
 40
0.2179686363946328
 40
0.2615949220624351
 40
0.3052197801805873
 40
0.3488444783682842
 40
0.39246789646979
 40
0.4360913342138122
 40
0.4797134800722276
 40
0.5233352256830867
 40
0.5669545223522536
 40
0.6105773460131931
 40
0.6542066820263455
 40
0.6978153236151398
 40
0.7413863168466808
 40
0.7850603569159637
 40
0.7850603569159637
 40
0.7850603569159637
 40
0.7850603569159637
 10
159.304396273124
 20
213.039160613974
 30
0.0
 10
159.2753047874803
 20
213.037697475972
 30
0.0
 10
159.2171218170123
 20
213.0347712000091
 30
0.0
 10
159.1465532935653
 20
213.0150766037025
 30
0.0
 10
159.0927821166511
 20
212.99290627312
 30
0.0
 10
159.0540314826391
 20
212.9727198300994
 30
0.0
 10
159.0171923581391
 20
212.9492559255668
 30
0.0
 10
158.9825338543241
 20
212.9226702025927
 30
0.0
 10
158.950329364749
 20
212.8931622257803
 30
0.0
 10
158.9208151184702
 20
212.8609640117311
 30
0.0
 10
158.8942274594561
 20
212.8263106512447
 30
0.0
 10
158.870753693191
 20
212.7894788726277
 30
0.0
 10
158.8505765608709
 20
212.7507415604262
 30
0.0
 10
158.8338620576104
 20
212.7103877849892
 30
0.0
 10
158.820745134157
 20
212.6687226295167
 30
0.0
 10
158.811343244046
 20
212.6261060853586
 30
0.0
 10
158.805297008299
 20
212.58282041875
 30
0.0
 10
158.8046345507962
 20
212.5537253371585
 30
0.0
 10
158.804302930824
 20
212.539160613974
 30
0.0
 11
159.304396273124
 21
213.039160613974
 31
0.0
 11
159.217556451923
 21
213.0315645746105
 31
0.0
 11
159.1333542764825
 21
213.009006924394
 31
0.0
 11
159.0930482654367
 21
212.9923144738436
 31
0.0
 11
159.0543496019261
 21
212.9721733158914
 31
0.0
 11
159.0175556204821
 21
212.9487355008199
 31
0.0
 11
158.9829424689445
 21
212.9221828355562
 31
0.0
 11
158.9507776429766
 21
212.8927137572313
 31
0.0
 11
158.9213025471391
 21
212.8605544188368
 31
0.0
 11
158.894746235308
 21
212.8259472821274
 31
0.0
 11
158.8713027343431
 21
212.78916061399
 31
0.0
 11
158.8511543213934
 21
212.7504736071593
 31
0.0
 11
158.8344622495673
 21
212.7101706856485
 31
0.0
 11
158.8213618865384
 21
212.6685545896104
 31
0.0
 11
158.8119004722991
 21
212.6259847028145
 31
0.0
 11
158.8061419798243
 21
212.5827959170524
 31
0.0
 11
158.804302930824
 21
212.539160613974
 31
0.0
  0
SPLINE
  5
1C9
330
1F
100
AcDbEntity
  8
A_RUNDUNGEN
  6
Continuous
 62
     7
100
AcDbSpline
210
0.0
220
0.0
230
1.0
 70
     8
 71
     3
 72
    23
 73
    19
 74
    17
 42
0.0000000001
 43
0.0000000001
 44
0.00000001
 40
0.0
 40
0.0
 40
0.0
 40
0.0
 40
0.0871563483166339
 40
0.1743126990990205
 40
0.2179333841349746
 40
0.2615543709602088
 40
0.3051761101636038
 40
0.3487984028566165
 40
0.3924232697243365
 40
0.4360451877265881
 40
0.4796642044705725
 40
0.5232948051039954
 40
0.5669424884250867
 40
0.610547042481989
 40
0.6540952551876181
 40
0.6977988980964045
 40
0.7417031563679453
 40
0.7850658372962332
 40
0.7850658372962332
 40
0.7850658372962332
 40
0.7850658372962332
 10
158.804302930824
 20
154.039160613974
 30
0.0
 10
158.8057664042291
 20
154.0100741303391
 30
0.0
 10
158.8086933510809
 20
153.9519011622467
 30
0.0
 10
158.8283919046304
 20
153.8813456176795
 30
0.0
 10
158.8505663401316
 20
153.8275853239046
 30
0.0
 10
158.8707566429256
 20
153.7888417849092
 30
0.0
 10
158.8942245185512
 20
153.7520094543115
 30
0.0
 10
158.9208159106199
 20
153.7173569520907
 30
0.0
 10
158.9503304317933
 20
153.685159568697
 30
0.0
 10
158.982532893003
 20
153.6556517196493
 30
0.0
 10
159.0171899640466
 20
153.6290665712265
 30
0.0
 10
159.0540366505707
 20
153.6055946087809
 30
0.0
 10
159.0927860686649
 20
153.5854271003747
 30
0.0
 10
159.1331174976079
 20
153.5687224552721
 30
0.0
 10
159.1747821991346
 20
153.5556037773624
 30
0.0
 10
159.2175147379444
 20
153.5462064940495
 30
0.0
 10
159.26082721541
 20
153.540041650191
 30
0.0
 10
159.2899334648716
 20
153.5394530751503
 30
0.0
 10
159.304396273124
 20
153.539160613974
 30
0.0
 11
158.804302930824
 21
154.039160613974
 31
0.0
 11
158.8119005564626
 21
153.9523360486912
 31
0.0
 11
158.8344622495664
 21
153.8681505423021
 31
0.0
 11
158.8511581644106
 21
153.8278515275434
 31
0.0
 11
158.8713027343422
 21
153.7891606139605
 31
0.0
 11
158.8947448714592
 21
153.7523730843
 31
0.0
 11
158.9213025471379
 21
153.7177668091128
 31
0.0
 11
158.9507792552608
 21
153.685607009868
 31
0.0
 11
158.9829424689425
 21
153.6561383923935
 31
0.0
 11
159.0175505350065
 21
153.6295884322236
 31
0.0
 11
159.054349601924
 21
153.606147912058
 31
0.0
 11
159.0930669957636
 21
153.5859963941606
 31
0.0
 11
159.1333542764802
 21
153.5693143035553
 31
0.0
 11
159.1748938590932
 21
153.5562410520015
 31
0.0
 11
159.2175559755528
 21
153.5467567374405
 31
0.0
 11
159.2610687690091
 21
153.5409068912886
 31
0.0
 11
159.304396273124
 21
153.539160613974
 31
0.0
  0
MTEXT
  5
1CB
330
1F
100
AcDbEntity
  8
1
 62
     2
100
AcDbMText
 10
243.183882517215
 20
186.371592505025
 30
0.0
 40
2.5
 41
0.0
 71
     5
 72
     1
  1
BBL
  7
CONVERTER_11
 73
     1
 44
1.32052821128451
  0
DIMENSION
  5
1D6
330
1F
100
AcDbEntity
  8
1
100
AcDbDimension
  2
*D1
 10
190.004302930824
 20
135.289160613974
 30
0.0
 11
200.763650215983
 21
139.039160613974
 31
0.0
 70
    32
  1
20
 71
     5
 42
-1.0
 53
0.00013888888889
  3
ME10_DIM_10
100
AcDbAlignedDimension
 13
210.065723681124
 23
153.689160613974
 33
0.0
 14
190.004302930824
 24
136.789160613974
 34
0.0
100
AcDbRotatedDimension
  0
DIMENSION
  5
1E1
330
1F
100
AcDbEntity
  8
1
100
AcDbDimension
  2
*D2
 10
158.004302930824
 20
110.429747456209
 30
0.0
 11
172.464114908481
 21
114.179747456209
 31
0.0
 70
    32
  1
<>
 71
     5
 42
-1.0
 53
0.00013888888889
  3
ME10_DIM_11
100
AcDbAlignedDimension
 13
190.004302930824
 23
136.789160613974
 33
0.0
 14
158.004302930824
 24
136.789160613974
 34
0.0
100
AcDbRotatedDimension
  0
DIMENSION
  5
1EC
330
1F
100
AcDbEntity
  8
1
100
AcDbDimension
  2
*D3
 10
190.004302930824
 20
110.429747456209
 30
0.0
 11
201.424814641114
 21
114.179747456209
 31
0.0
 70
    32
  1
23
 71
     5
 42
-1.0
 53
0.00013888888889
  3
ME10_DIM_12
100
AcDbAlignedDimension
 13
213.065723681124
 23
132.639160613974
 33
0.0
 14
190.004302930824
 24
136.789160613974
 34
0.0
100
AcDbRotatedDimension
  0
DIMENSION
  5
1F7
330
1F
100
AcDbEntity
  8
1
100
AcDbDimension
  2
*D4
 10
213.065723681124
 20
110.429747456209
 30
0.0
 11
226.136454181315
 21
114.179747456209
 31
0.0
 70
    32
  1
<>
 71
     5
 42
-1.0
 53
0.00013888888889
  3
ME10_DIM_13
100
AcDbAlignedDimension
 13
237.065723681124
 23
132.639160613974
 33
0.0
 14
213.065723681124
 24
132.639160613974
 34
0.0
100
AcDbRotatedDimension
  0
DIMENSION
  5
202
330
1F
100
AcDbEntity
  8
1
100
AcDbDimension
  2
*D5
 10
147.657267350914
 20
245.789160613974
 30
0.0
 11
143.907267350914
 21
182.287936978572
 31
0.0
 70
    32
  1
<>
 71
     5
 42
-1.0
 53
90.0
  3
ME10_DIM_14
100
AcDbAlignedDimension
 13
174.004302930824
 23
120.789160613974
 33
0.0
 14
174.004302930824
 24
245.789160613974
 34
0.0
 50
90.0
100
AcDbRotatedDimension
  0
ENDSEC
  0
SECTION
  2
OBJECTS
  0
DICTIONARY
  5
C
330
0
100
AcDbDictionary
281
     1
  3
ACAD_GROUP
350
D
  3
ACAD_LAYOUT
350
1A
  3
ACAD_MLINESTYLE
350
17
  3
ACAD_PLOTSETTINGS
350
19
  3
ACAD_PLOTSTYLENAME
350
E
  0
DICTIONARY
  5
D
102
{ACAD_REACTORS
330
C
102
}
330
C
100
AcDbDictionary
281
     1
  0
DICTIONARY
  5
1A
102
{ACAD_REACTORS
330
C
102
}
330
C
100
AcDbDictionary
281
     1
  3
Layout1
350
1E
  3
Layout2
350
26
  3
Model
350
22
  0
DICTIONARY
  5
17
102
{ACAD_REACTORS
330
C
102
}
330
C
100
AcDbDictionary
281
     1
  3
Standard
350
18
  0
DICTIONARY
  5
19
102
{ACAD_REACTORS
330
C
102
}
330
C
100
AcDbDictionary
281
     1
  0
ACDBDICTIONARYWDFLT
  5
E
102
{ACAD_REACTORS
330
C
102
}
330
C
100
AcDbDictionary
281
     1
  3
Normal
350
F
100
AcDbDictionaryWithDefault
340
F
  0
LAYOUT
  5
1E
102
{ACAD_REACTORS
330
1A
102
}
330
1A
100
AcDbPlotSettings
  1

  2

  4

  6

 40
0.0
 41
0.0
 42
0.0
 43
0.0
 44
0.0
 45
0.0
 46
0.0
 47
0.0
 48
0.0
 49
0.0
140
0.0
141
0.0
142
1.0
143
1.0
 70
   688
 72
     0
 73
     0
 74
     5
  7

 75
    16
 76
     0
 77
     2
 78
   300
147
1.0
148
0.0
149
0.0
100
AcDbLayout
  1
Layout1
 70
     1
 71
     1
 10
0.0
 20
0.0
 11
0.0
 21
0.0
 12
0.0
 22
0.0
 32
0.0
 14
0.0
 24
0.0
 34
0.0
 15
0.0
 25
0.0
 35
0.0
146
0.0
 13
0.0
 23
0.0
 33
0.0
 16
1.0
 26
0.0
 36
0.0
 17
0.0
 27
1.0
 37
0.0
 76
     0
330
1B
  0
LAYOUT
  5
26
102
{ACAD_REACTORS
330
1A
102
}
330
1A
100
AcDbPlotSettings
  1

  2

  4

  6

 40
0.0
 41
0.0
 42
0.0
 43
0.0
 44
0.0
 45
0.0
 46
0.0
 47
0.0
 48
0.0
 49
0.0
140
0.0
141
0.0
142
1.0
143
1.0
 70
   688
 72
     0
 73
     0
 74
     5
  7

 75
    16
 76
     0
 77
     2
 78
   300
147
1.0
148
0.0
149
0.0
100
AcDbLayout
  1
Layout2
 70
     1
 71
     2
 10
0.0
 20
0.0
 11
0.0
 21
0.0
 12
0.0
 22
0.0
 32
0.0
 14
0.0
 24
0.0
 34
0.0
 15
0.0
 25
0.0
 35
0.0
146
0.0
 13
0.0
 23
0.0
 33
0.0
 16
1.0
 26
0.0
 36
0.0
 17
0.0
 27
1.0
 37
0.0
 76
     0
330
23
  0
LAYOUT
  5
22
102
{ACAD_REACTORS
330
1A
102
}
330
1A
100
AcDbPlotSettings
  1

  2

  4

  6

 40
0.0
 41
0.0
 42
0.0
 43
0.0
 44
0.0
 45
0.0
 46
0.0
 47
0.0
 48
0.0
 49
0.0
140
0.0
141
0.0
142
1.0
143
1.0
 70
  1712
 72
     0
 73
     0
 74
     0
  7

 75
     0
 76
     0
 77
     2
 78
   300
147
1.0
148
0.0
149
0.0
100
AcDbLayout
  1
Model
 70
     1
 71
     0
 10
0.0
 20
0.0
 11
0.0
 21
0.0
 12
0.0
 22
0.0
 32
0.0
 14
142.157267350914
 24
108.429747456209
 34
0.0
 15
248.132458180588
 25
246.389160613974
 35
0.0
146
0.0
 13
0.0
 23
0.0
 33
0.0
 16
1.0
 26
0.0
 36
0.0
 17
0.0
 27
1.0
 37
0.0
 76
     0
330
1F
  0
MLINESTYLE
  5
18
102
{ACAD_REACTORS
330
17
102
}
330
17
100
AcDbMlineStyle
  2
Standard
 70
     0
  3

 62
   256
 51
90.0
 52
90.0
 71
     2
 49
0.5
 62
   256
  6
BYLAYER
 49
-0.5
 62
   256
  6
BYLAYER
  0
ACDBPLACEHOLDER
  5
F
102
{ACAD_REACTORS
330
E
102
}
330
E
  0
ENDSEC
  0
EOF
